  0
SECTION
  2
HEADER
  9
$ACADVER
  1
AC1009
  9
$INSBASE
 10
0.0
 20
0.0
 30
0.0
  9
$EXTMIN
 10
-12.427303007123511
 20
-8.5682469922820204
 30
-0.0015258207003583
  9
$EXTMAX
 10
13.060182590068299
 20
9.0849546602658791
 30
0.0000000349246037
  9
$LIMMIN
 10
0.0
 20
0.0
  9
$LIMMAX
 10
0.0
 20
0.0
  9
$ORTHOMODE
 70
     0
  9
$REGENMODE
 70
     1
  9
$FILLMODE
 70
     1
  9
$QTEXTMODE
 70
     0
  9
$MIRRTEXT
 70
     1
  9
$DRAGMODE
 70
     2
  9
$LTSCALE
 40
1.0
  9
$OSMODE
 70
   679
  9
$ATTMODE
 70
     1
  9
$TEXTSIZE
 40
0.2
  9
$TRACEWID
 40
0.05
  9
$TEXTSTYLE
  7
STANDARD
  9
$CLAYER
  8
0
  9
$CELTYPE
  6
CONTINUOUS
  9
$CECOLOR
 62
   256
  9
$DIMSCALE
 40
1.0
  9
$DIMASZ
 40
0.18
  9
$DIMEXO
 40
0.0625
  9
$DIMDLI
 40
0.38
  9
$DIMRND
 40
0.0
  9
$DIMDLE
 40
0.0
  9
$DIMEXE
 40
0.18
  9
$DIMTP
 40
0.0
  9
$DIMTM
 40
0.0
  9
$DIMTXT
 40
0.18
  9
$DIMCEN
 40
0.09
  9
$DIMTSZ
 40
0.0
  9
$DIMTOL
 70
     0
  9
$DIMLIM
 70
     0
  9
$DIMTIH
 70
     1
  9
$DIMTOH
 70
     1
  9
$DIMSE1
 70
     0
  9
$DIMSE2
 70
     0
  9
$DIMTAD
 70
     0
  9
$DIMZIN
 70
     0
  9
$DIMBLK
  1

  9
$DIMASO
 70
     1
  9
$DIMSHO
 70
     1
  9
$DIMPOST
  1

  9
$DIMAPOST
  1

  9
$DIMALT
 70
     0
  9
$DIMALTD
 70
     2
  9
$DIMALTF
 40
25.399999999999999
  9
$DIMLFAC
 40
1.0
  9
$DIMTOFL
 70
     0
  9
$DIMTVP
 40
0.0
  9
$DIMTIX
 70
     0
  9
$DIMSOXD
 70
     0
  9
$DIMSAH
 70
     0
  9
$DIMBLK1
  1

  9
$DIMBLK2
  1

  9
$DIMSTYLE
  2
STANDARD
  9
$DIMCLRD
 70
     0
  9
$DIMCLRE
 70
     0
  9
$DIMCLRT
 70
     0
  9
$DIMTFAC
 40
1.0
  9
$DIMGAP
 40
0.09
  9
$LUNITS
 70
     2
  9
$LUPREC
 70
     4
  9
$SKETCHINC
 40
0.1
  9
$FILLETRAD
 40
0.0
  9
$AUNITS
 70
     0
  9
$AUPREC
 70
     0
  9
$MENU
  1
.
  9
$ELEVATION
 40
0.0
  9
$PELEVATION
 40
0.0
  9
$THICKNESS
 40
0.0
  9
$LIMCHECK
 70
     0
  9
$BLIPMODE
 70
     0
  9
$CHAMFERA
 40
0.0
  9
$CHAMFERB
 40
0.0
  9
$SKPOLY
 70
     0
  9
$TDCREATE
 40
2453353.5087924879
  9
$TDUPDATE
 40
2455847.3046107171
  9
$TDINDWG
 40
0.0511808102
  9
$TDUSRTIMER
 40
0.051180625
  9
$USRTIMER
 70
     1
  9
$ANGBASE
 50
0.0
  9
$ANGDIR
 70
     0
  9
$PDMODE
 70
     0
  9
$PDSIZE
 40
0.0
  9
$PLINEWID
 40
0.0
  9
$COORDS
 70
     1
  9
$SPLFRAME
 70
     0
  9
$SPLINETYPE
 70
     6
  9
$SPLINESEGS
 70
     8
  9
$ATTDIA
 70
     0
  9
$ATTREQ
 70
     1
  9
$HANDLING
 70
 22529
  9
$HANDSEED
  5
15C
  9
$SURFTAB1
 70
     6
  9
$SURFTAB2
 70
     6
  9
$SURFTYPE
 70
     6
  9
$SURFU
 70
     6
  9
$SURFV
 70
     6
  9
$UCSNAME
  2

  9
$UCSORG
 10
0.0
 20
0.0
 30
0.0
  9
$UCSXDIR
 10
1.0
 20
0.0
 30
0.0
  9
$UCSYDIR
 10
0.0
 20
1.0
 30
0.0
  9
$PUCSNAME
  2

  9
$PUCSORG
 10
0.0
 20
0.0
 30
0.0
  9
$PUCSXDIR
 10
1.0
 20
0.0
 30
0.0
  9
$PUCSYDIR
 10
0.0
 20
1.0
 30
0.0
  9
$USERI1
 70
     0
  9
$USERI2
 70
     0
  9
$USERI3
 70
     0
  9
$USERI4
 70
     0
  9
$USERI5
 70
     0
  9
$USERR1
 40
0.0
  9
$USERR2
 40
0.0
  9
$USERR3
 40
0.0
  9
$USERR4
 40
0.0
  9
$USERR5
 40
0.0
  9
$WORLDVIEW
 70
     1
  9
$SHADEDGE
 70
     3
  9
$SHADEDIF
 70
    70
  9
$TILEMODE
 70
     1
  9
$MAXACTVP
 70
    16
  9
$PLIMCHECK
 70
     0
  9
$PEXTMIN
 10
0.0
 20
0.0
 30
0.0
  9
$PEXTMAX
 10
0.0
 20
0.0
 30
0.0
  9
$PLIMMIN
 10
0.0
 20
0.0
  9
$PLIMMAX
 10
0.0
 20
0.0
  9
$UNITMODE
 70
     0
  9
$VISRETAIN
 70
     0
  9
$PLINEGEN
 70
     1
  9
$PSLTSCALE
 70
     0
  0
ENDSEC
  0
SECTION
  2
TABLES
  0
TABLE
  2
VPORT
 70
     3
  0
VPORT
  2
*ACTIVE
 70
     0
 10
0.0
 20
0.0
 11
1.0
 21
1.0
 12
0.3164398508150512
 22
0.258353875093988
 13
0.0
 23
0.0
 14
1.0
 24
1.0
 15
0.0
 25
0.0
 16
0.0
 26
0.0
 36
1.0
 17
0.0
 27
0.0
 37
0.0
 40
17.850801706059961
 41
1.762081784386617
 42
50.0
 43
0.0
 44
0.0
 50
0.0
 51
0.0
 71
    16
 72
   100
 73
     1
 74
     1
 75
     0
 76
     0
 77
     0
 78
     0
  0
ENDTAB
  0
TABLE
  2
LTYPE
 70
    11
  0
LTYPE
  2
CONTINUOUS
 70
     0
  3
Solid line
 72
    65
 73
     0
 40
0.0
  0
LTYPE
  2
DOTTED
 70
     0
  3
Dotted
 72
    65
 73
     2
 40
0.125
 49
0.0
 49
-0.125
  0
LTYPE
  2
CENTER
 70
     0
  3
Center
 72
    65
 73
     4
 40
0.7699999958000002
 49
0.5
 49
-0.0724999979
 49
0.125
 49
-0.0724999979
  0
LTYPE
  2
DASHED
 70
     0
  3
Dashed
 72
    65
 73
     2
 40
0.375
 49
0.25
 49
-0.125
  0
LTYPE
  2
HIDDEN
 70
     0
  3
Hidden
 72
    65
 73
     2
 40
0.1974999979
 49
0.125
 49
-0.0724999979
  0
LTYPE
  2
PHANTOM
 70
     0
  3
Phantom
 72
    65
 73
     6
 40
0.9674999937000002
 49
0.5
 49
-0.0724999979
 49
0.125
 49
-0.0724999979
 49
0.125
 49
-0.0724999979
  0
LTYPE
  2
DASHDOT
 70
     0
  3
Dashdot
 72
    65
 73
     4
 40
0.6762499958000002
 49
0.5
 49
-0.0724999979
 49
0.03125
 49
-0.0724999979
  0
LTYPE
  2
BORDER
 70
     0
  3
Border
 72
    65
 73
     6
 40
1.2487499936999991
 49
0.5
 49
-0.0724999979
 49
0.5
 49
-0.0724999979
 49
0.03125
 49
-0.0724999979
  0
LTYPE
  2
DIVIDE
 70
     0
  3
Divide
 72
    65
 73
     6
 40
0.7799999937000002
 49
0.5
 49
-0.0724999979
 49
0.03125
 49
-0.0724999979
 49
0.03125
 49
-0.0724999979
  0
LTYPE
  2
CUTTING
 70
     0
  3
Cutting
 72
    65
 73
     6
 40
1.4674999936999991
 49
1.0
 49
-0.0724999979
 49
0.125
 49
-0.0724999979
 49
0.125
 49
-0.0724999979
  0
LTYPE
  2
STITCH
 70
     0
  3
Stitch
 72
    65
 73
     2
 40
0.1449999958
 49
0.0724999979
 49
-0.0724999979
  0
ENDTAB
  0
TABLE
  2
LAYER
 70
     7
  0
LAYER
  2
0
 70
     0
 62
     7
  6
CONTINUOUS
  0
LAYER
  2
SECTION
 70
     0
 62
     7
  6
CONTINUOUS
  0
LAYER
  2
CONSTRUCTION
 70
     0
 62
     7
  6
CONTINUOUS
  0
LAYER
  2
CONSTRAINTS
 70
     0
 62
     7
  6
CONTINUOUS
  0
LAYER
  2
OUTLINE
 70
     0
 62
     7
  6
CONTINUOUS
  0
LAYER
  2
DEFPOINTS
 70
     0
 62
     7
  6
CONTINUOUS
  0
LAYER
  2
DIMENSION
 70
     0
 62
     7
  6
CONTINUOUS
  0
ENDTAB
  0
TABLE
  2
STYLE
 70
     2
  0
STYLE
  2
STANDARD
 70
     0
 40
0.0
 41
1.0
 50
0.0
 71
     0
 42
0.2
  3
txt
  4

  0
STYLE
  2
PLOTTER
 70
     0
 40
0.0
 41
0.98
 50
0.0
 71
     0
 42
0.2
  3
SIMPLEX
  4

  0
ENDTAB
  0
TABLE
  2
VIEW
 70
     0
  0
ENDTAB
  0
TABLE
  2
UCS
 70
     0
  0
ENDTAB
  0
TABLE
  2
APPID
 70
     1
  0
APPID
  2
ACAD
 70
     0
  0
ENDTAB
  0
TABLE
  2
DIMSTYLE
 70
     5
  0
DIMSTYLE
  2
STANDARD
 70
     0
  3

  4

  5

  6

  7

 40
1.0
 41
0.18
 42
0.0625
 43
0.38
 44
0.18
 45
0.0
 46
0.0
 47
0.0
 48
0.0
140
0.18
141
0.09
142
0.0
143
25.399999999999999
144
1.0
145
0.0
146
1.0
147
0.09
 71
     0
 72
     0
 73
     1
 74
     1
 75
     0
 76
     0
 77
     0
 78
     0
170
     0
171
     2
172
     0
173
     0
174
     0
175
     0
176
     0
177
     0
178
     0
  0
DIMSTYLE
  2
VLMDIM1
 70
     0
  3

  4

  5

  6

  7

 40
1.0
 41
0.25
 42
0.0625
 43
0.38
 44
0.18
 45
0.0
 46
0.0
 47
0.0
 48
0.0
140
0.125
141
0.09
142
0.0
143
25.399999999999999
144
1.0
145
0.0
146
1.0
147
0.09
 71
     0
 72
     0
 73
     1
 74
     1
 75
     0
 76
     0
 77
     0
 78
     0
170
     0
171
     0
172
     0
173
     0
174
     0
175
     0
176
     0
177
     0
178
     0
  0
DIMSTYLE
  2
VLMDIM2
 70
     0
  3

  4

  5

  6

  7

 40
1.0
 41
0.25
 42
0.0625
 43
0.38
 44
0.18
 45
0.0
 46
0.0
 47
0.0
 48
0.0
140
0.125
141
0.09
142
0.0
143
25.399999999999999
144
1.0
145
0.0
146
1.0
147
0.09
 71
     0
 72
     0
 73
     1
 74
     1
 75
     0
 76
     0
 77
     0
 78
     0
170
     0
171
     0
172
     0
173
     0
174
     0
175
     0
176
     0
177
     0
178
     0
  0
DIMSTYLE
  2
VLMDIM3
 70
     0
  3

  4

  5

  6

  7

 40
1.0
 41
0.25
 42
0.0625
 43
0.38
 44
0.18
 45
0.0
 46
0.0
 47
0.0
 48
0.0
140
0.125
141
0.09
142
0.0
143
25.399999999999999
144
1.0
145
0.0
146
1.0
147
0.09
 71
     0
 72
     0
 73
     1
 74
     1
 75
     0
 76
     0
 77
     0
 78
     0
170
     0
171
     0
172
     0
173
     0
174
     0
175
     0
176
     0
177
     0
178
     0
  0
DIMSTYLE
  2
VLMDIM4
 70
     0
  3

  4

  5

  6

  7

 40
1.0
 41
0.25
 42
0.0625
 43
0.38
 44
0.18
 45
0.0
 46
0.0
 47
0.0
 48
0.0
140
0.125
141
0.09
142
0.0
143
25.399999999999999
144
1.0
145
0.0
146
1.0
147
0.09
 71
     0
 72
     0
 73
     1
 74
     1
 75
     0
 76
     0
 77
     0
 78
     0
170
     0
171
     0
172
     0
173
     0
174
     0
175
     0
176
     0
177
     0
178
     0
  0
ENDTAB
  0
ENDSEC
  0
SECTION
  2
BLOCKS
  0
BLOCK
  8
0
  2
$MODEL_SPACE
 70
     0
 10
0.0
 20
0.0
 30
0.0
  3
$MODEL_SPACE
  1

  0
ENDBLK
  5
21
  8
0
  0
BLOCK
 67
     1
  8
0
  2
$PAPER_SPACE
 70
     0
 10
0.0
 20
0.0
 30
0.0
  3
$PAPER_SPACE
  1

  0
ENDBLK
  5
76
 67
     1
  8
0
  0
BLOCK
  8
0
  2
VLMARROW1
 70
     0
 10
0.0
 20
0.0
 30
0.0
  3
VLMARROW1
  1

  0
SOLID
  5
E0
  8
0
 62
     0
 10
0.0
 20
0.0
 30
0.0
 11
-1.0
 21
-0.25
 31
0.0
 12
0.0
 22
0.0
 32
0.0
 13
-1.0
 23
0.25
 33
0.0
  0
ENDBLK
  5
D8
  8
0
  0
BLOCK
  8
0
  2
*D1
 70
     1
 10
0.0
 20
0.0
 30
0.0
  3
*D1
  1

  0
LINE
  5
91
  8
SECTION
  6
CONTINUOUS
 62
     5
 10
-1.6432541636999991
 20
0.9425781256999998
 30
0.0
 11
-1.6432541636999991
 21
1.317578125699999
 31
0.0
  0
LINE
  5
E1
  8
SECTION
  6
CONTINUOUS
 62
     5
 10
-2.1433671676000001
 20
-0.3074218743
 30
0.0
 11
-2.1433671676000001
 21
1.317578125699999
 31
0.0
  0
LINE
  5
E2
  8
SECTION
  6
CONTINUOUS
 62
     5
 10
-2.1433671676000001
 20
1.267578125
 30
0.0
 11
-2.5183671676000001
 21
1.267578125
 31
0.0
  0
INSERT
  5
94
  8
SECTION
 62
     5
  2
VLMARROW1
 10
2.1433671676000001
 20
1.267578125
 30
0.0
 41
0.125
 42
0.125
 43
0.125
 50
180.0
210
0.0
220
0.0
230
-1.0
  0
LINE
  5
95
  8
SECTION
  6
CONTINUOUS
 62
     5
 10
-1.6432541636999991
 20
1.267578125
 30
0.0
 11
-1.2682541636999991
 21
1.267578125
 31
0.0
  0
INSERT
  5
96
  8
SECTION
 62
     5
  2
VLMARROW1
 10
1.6432541636999991
 20
1.267578125
 30
0.0
 41
0.125
 42
0.125
 43
0.125
210
0.0
220
0.0
230
-1.0
  0
TEXT
  5
E3
  8
0
  6
CONTINUOUS
 62
     5
 10
-2.033191618
 20
1.205078125
 30
0.0
 40
0.125
  1
0.5
 41
0.98
  7
PLOTTER
  0
ENDBLK
  5
DC
  8
0
  0
BLOCK
  8
0
  2
*U2
 70
     1
 10
0.0
 20
0.0
 30
0.0
  3
*U2
  1

  0
TEXT
  5
151
  8
0
  6
CONTINUOUS
 62
     7
 10
-3.827750058099999
 20
-3.8594251917000002
 30
0.0
 40
0.125
  1
NOTE: THIS TEMPLATE IS FOR THE TYPE OF INSTALLATION SHOWN ABOVE.
 41
0.98
  7
PLOTTER
  0
TEXT
  5
152
  8
0
  6
CONTINUOUS
 62
     7
 10
-3.827750058099999
 20
-4.0677585250333328
 30
0.0
 40
0.125
  1
CHECK DIMENSIONS FOR PROPER FIT.
 41
0.98
  7
PLOTTER
  0
ENDBLK
  5
154
  8
0
  0
BLOCK
  8
0
  2
*U3
 70
     1
 10
0.0
 20
0.0
 30
0.0
  3
*U3
  1

  0
TEXT
  5
156
  8
0
  6
CONTINUOUS
 62
     7
 10
-1.4963167446000001
 20
3.1423659622999982
 30
0.0
 40
0.125
  1
UNDERMOUNT INSTALLATION FOR 
 41
0.98
  7
PLOTTER
  0
TEXT
  5
157
  8
0
  6
CONTINUOUS
 62
     7
 10
-1.4963167446000001
 20
2.9340326289666638
 30
0.0
 40
0.125
  1
DROP IN STYLE KITCHEN SINK 
 41
0.98
  7
PLOTTER
  0
ENDBLK
  5
159
  8
0
  0
ENDSEC
  0
SECTION
  2
ENTITIES
  0
LINE
  5
35
  8
SECTION
  6
CONTINUOUS
 62
     5
 10
0.0914665377
 20
2.0923862750999991
 30
0.0
 11
0.3296091171
 21
2.0923862750999991
 31
0.0
  0
LINE
  5
36
  8
SECTION
  6
CONTINUOUS
 62
     1
 10
-2.5160423113000001
 20
-2.6110769567999981
 30
0.0
 11
-2.3480735613000001
 21
-2.6872488317999981
 31
0.0
  0
LINE
  5
37
  8
SECTION
  6
CONTINUOUS
 62
     1
 10
-2.3480735613000001
 20
-2.6872488317999981
 30
0.0
 11
-2.1801048113000001
 21
-2.7634207067999981
 31
0.0
  0
LINE
  5
38
  8
SECTION
  6
CONTINUOUS
 62
     7
 10
-2.0896238004000001
 20
-2.8870780883999991
 30
0.0
 11
-1.9196810398999999
 21
-0.942679648
 31
0.0
  0
LINE
  5
39
  8
SECTION
  6
CONTINUOUS
 62
     7
 10
-0.3960694641
 20
-0.6346781088000001
 30
0.0
 11
-0.3960694641
 21
-0.5447505912000002
 31
0.0
  0
LINE
  5
3A
  8
SECTION
  6
CONTINUOUS
 62
     7
 10
-0.9855131865
 20
-0.7121224923
 30
0.0
 11
-1.6680939774000001
 21
-0.7121224923
 31
0.0
  0
LINE
  5
3B
  8
SECTION
  6
CONTINUOUS
 62
     7
 10
-0.9855131865
 20
-0.6346781088000001
 30
0.0
 11
-0.9855131865
 21
-0.7121224923
 31
0.0
  0
LINE
  5
3C
  8
SECTION
  6
CONTINUOUS
 62
     7
 10
-2.1433671676000001
 20
-0.2900818077
 30
0.0
 11
-2.1433671676000001
 21
-0.4247619423
 31
0.0
  0
LINE
  5
3D
  8
SECTION
  6
CONTINUOUS
 62
     7
 10
-2.2028508937999991
 20
-0.357421875
 30
0.0
 11
-2.0838834414999989
 21
-0.357421875
 31
0.0
  0
ARC
  5
3E
  8
SECTION
  6
CONTINUOUS
 62
     7
 10
-1.9602541637999991
 20
-0.5573292546000001
 30
0.0
 40
0.1999073796
 50
89.999999985599985
 51
174.97869601339991
  0
LINE
  5
3F
  8
SECTION
  6
CONTINUOUS
 62
     7
 10
-1.9602541636999991
 20
-0.357421875
 30
0.0
 11
-0.8930944418999999
 21
-0.357421875
 31
0.0
  0
LINE
  5
40
  8
SECTION
  6
CONTINUOUS
 62
     7
 10
-0.3960694641
 20
-0.6346781088000001
 30
0.0
 11
-0.9855131865
 21
-0.6346781088000001
 31
0.0
  0
ARC
  5
41
  8
SECTION
  6
CONTINUOUS
 62
     7
 10
-0.8930944278
 20
-1.110445415
 30
0.0
 40
0.7530235376000001
 50
48.697146606300002
 51
90.0
  0
LINE
  5
42
  8
OUTLINE
  6
CONTINUOUS
 62
     7
 10
-6.1685322972999979
 20
8.6358084529999992
 30
0.0
 11
-4.9295783262999979
 21
8.6609700739999962
 31
0.0
  0
ARC
  5
43
  8
OUTLINE
  6
CONTINUOUS
 62
     7
 10
-6.0823175983000004
 20
3.0364721509999981
 30
0.0
 40
5.5999999997999979
 50
90.882130989699988
 51
105.8843950963999
  0
ARC
  5
44
  8
OUTLINE
  6
CONTINUOUS
 62
     7
 10
-4.5281135712999978
 20
-8.3342888550000005
 30
0.0
 40
17.000000000899998
 50
80.156225210399995
 51
91.353198509500004
  0
ARC
  5
45
  8
OUTLINE
  6
CONTINUOUS
 62
     7
 10
-6.1021990933000003
 20
3.343136635
 30
0.0
 40
5.299999999799998
 50
106.5850523213
 51
183.86756534829991
  0
ARC
  5
46
  8
OUTLINE
  6
CONTINUOUS
 62
     7
 10
10.21137957669999
 20
-6.0922627152689621
 30
0.0
 40
1.8999999994000001
 50
269.49018391131261
 51
314.61242670630003
  0
LINE
  5
47
  8
OUTLINE
  6
CONTINUOUS
 62
     7
 10
12.252628532699999
 20
-1.0471249689999991
 30
0.0
 11
12.18105914969999
 21
-5.9625198800000003
 31
0.0
  0
ARC
  5
48
  8
OUTLINE
  6
CONTINUOUS
 62
     7
 10
10.081062213699999
 20
-5.9399476202689616
 30
0.0
 40
2.1000000009999988
 50
314.22492640479999
 51
359.90212408239989
  0
ARC
  5
49
  8
OUTLINE
  6
CONTINUOUS
 62
     7
 10
10.1074406407
 20
4.23249385
 30
0.0
 40
2.0000000001
 50
47.954803878100002
 51
98.341316743199997
  0
ARC
  5
4A
  8
OUTLINE
  6
CONTINUOUS
 62
     7
 10
4.1303726637000002
 20
7.4907367059999981
 30
0.0
 40
1.3000000006000001
 50
235.3338685757
 51
259.78649352320002
  0
ARC
  5
4B
  8
OUTLINE
  6
CONTINUOUS
 62
     7
 10
10.2855473041
 20
4.2139585751999986
 30
0.0
 40
1.9000000008
 50
355.00613234239989
 51
52.3219049888
  0
ARC
  5
4C
  8
OUTLINE
  6
CONTINUOUS
 62
     7
 10
-6.9251594452999994
 20
-10.71260781
 30
0.0
 40
19.999999999500002
 50
58.948720370899991
 51
64.282640081500006
  0
LINE
  5
4D
  8
OUTLINE
  6
CONTINUOUS
 62
     7
 10
3.8998608987000001
 20
6.2113367190000002
 30
0.0
 11
9.8173011937000005
 21
6.2113367190000002
 31
0.0
  0
TEXT
  5
4E
  8
0
  6
CONTINUOUS
 62
     5
 10
0.4517510138000001
 20
2.0700895343000001
 30
0.0
 40
0.125
  1
COUNTERTOP
 41
0.98
  7
PLOTTER
  0
ARC
  5
4F
  8
OUTLINE
  6
CONTINUOUS
 62
     7
 10
-3.9544559633
 20
-4.3735694699999978
 30
0.0
 40
12.9999999991
 50
63.955303542700001
 51
79.662938673699998
  0
LINE
  5
50
  8
OUTLINE
  6
CONTINUOUS
 62
     7
 10
10.194473658070081
 20
-7.9921875
 30
0.0
 11
-9.4634276537076083
 21
-7.9921875
 31
0.0
  0
INSERT
  5
61
  8
0
  6
CONTINUOUS
  2
*U2
 10
0.0
 20
0.0
 30
0.0
  0
INSERT
  5
62
  8
0
  6
CONTINUOUS
  2
*U3
 10
0.0
 20
0.0
 30
0.0
  0
TEXT
  5
63
  8
0
  6
CONTINUOUS
 62
     7
 10
-1.4963167446000001
 20
3.6086358061999988
 30
0.0
 40
0.3333333433
  1
KSDB-2518
 41
0.98
  7
PLOTTER
  0
TEXT
  5
64
  8
0
  6
CONTINUOUS
 62
     7
 10
-1.4963167446000001
 20
4.1741120151999986
 30
0.0
 40
0.125
  1
CUTOUT TEMPLATE FOR MODEL #: 
 41
0.98
  7
PLOTTER
  0
LINE
  5
65
  8
SECTION
  6
CONTINUOUS
 62
     3
 10
2.1111039528999989
 20
0.892578125
 30
0.0
 11
2.3567458363
 21
0.6469362416
 31
0.0
  0
LINE
  5
66
  8
SECTION
  6
CONTINUOUS
 62
     3
 10
1.7770377477999979
 20
0.892578125
 30
0.0
 11
2.2776328775999981
 21
0.3919829952
 31
0.0
  0
LINE
  5
67
  8
SECTION
  6
CONTINUOUS
 62
     3
 10
1.4429715425999989
 20
0.892578125
 30
0.0
 11
2.3567458363
 21
-0.0211961687
 31
0.0
  0
LINE
  5
68
  8
SECTION
  6
CONTINUOUS
 62
     3
 10
1.108905337499998
 20
0.892578125
 30
0.0
 11
2.3567458363
 21
-0.3552623738
 31
0.0
  0
LINE
  5
69
  8
SECTION
  6
CONTINUOUS
 62
     3
 10
0.7748391323999999
 20
0.892578125
 30
0.0
 11
2.024839132399999
 21
-0.357421875
 31
0.0
  0
LINE
  5
6A
  8
SECTION
  6
CONTINUOUS
 62
     3
 10
0.4407729273000001
 20
0.892578125
 30
0.0
 11
1.690772927299999
 21
-0.357421875
 31
0.0
  0
LINE
  5
E4
  8
SECTION
  6
CONTINUOUS
 62
     3
 10
0.1067067221
 20
0.892578125
 30
0.0
 11
1.356706722099998
 21
-0.357421875
 31
0.0
  0
LINE
  5
E5
  8
SECTION
  6
CONTINUOUS
 62
     3
 10
-0.227359483
 20
0.892578125
 30
0.0
 11
1.022640516999999
 21
-0.357421875
 31
0.0
  0
LINE
  5
6D
  8
SECTION
  6
CONTINUOUS
 62
     3
 10
-0.5614256881000002
 20
0.892578125
 30
0.0
 11
0.6885743119
 21
-0.357421875
 31
0.0
  0
LINE
  5
6E
  8
SECTION
  6
CONTINUOUS
 62
     3
 10
-0.8954918933
 20
0.892578125
 30
0.0
 11
0.3545081067
 21
-0.357421875
 31
0.0
  0
LINE
  5
6F
  8
SECTION
  6
CONTINUOUS
 62
     3
 10
-1.2295580984000001
 20
0.892578125
 30
0.0
 11
0.0204419016
 21
-0.357421875
 31
0.0
  0
LINE
  5
70
  8
SECTION
  6
CONTINUOUS
 62
     3
 10
-1.563624303499999
 20
0.892578125
 30
0.0
 11
-0.3136243035000001
 21
-0.357421875
 31
0.0
  0
LINE
  5
71
  8
SECTION
  6
CONTINUOUS
 62
     3
 10
-1.6432541636999991
 20
0.6381417801
 30
0.0
 11
-0.6476905086000002
 21
-0.357421875
 31
0.0
  0
LINE
  5
72
  8
SECTION
  6
CONTINUOUS
 62
     3
 10
-1.6432541636999991
 20
0.3040755749
 30
0.0
 11
-0.9817567137999999
 21
-0.357421875
 31
0.0
  0
LINE
  5
E6
  8
SECTION
  6
CONTINUOUS
 62
     3
 10
-1.6432541636999991
 20
-0.0299906302
 30
0.0
 11
-1.315822918899999
 21
-0.357421875
 31
0.0
  0
LINE
  5
E7
  8
SECTION
  6
CONTINUOUS
 62
     3
 10
2.3567458363
 20
0.892578125
 30
0.0
 11
-1.6432541636999991
 21
0.892578125
 31
0.0
  0
LINE
  5
E8
  8
SECTION
  6
CONTINUOUS
 62
     3
 10
-1.6432541636999991
 20
-0.357421875
 30
0.0
 11
2.3567458363
 21
-0.357421875
 31
0.0
  0
LINE
  5
E9
  8
SECTION
  6
CONTINUOUS
 62
     3
 10
-1.6432541636999991
 20
0.892578125
 30
0.0
 11
-1.6432541636999991
 21
-0.357421875
 31
0.0
  0
LINE
  5
77
  8
SECTION
  6
CONTINUOUS
 62
     1
 10
2.4464260694999989
 20
0.1394191034
 30
0.0
 11
2.3567458363
 21
-0.0154630515
 31
0.0
  0
LINE
  5
78
  8
SECTION
  6
CONTINUOUS
 62
     1
 10
2.3567458363
 20
-0.357421875
 30
0.0
 11
2.3567458363
 21
-0.0154630515
 31
0.0
  0
LINE
  5
79
  8
SECTION
  6
CONTINUOUS
 62
     1
 10
2.3567458363
 20
-0.9344644045
 30
0.0
 11
2.3567458363
 21
-0.357421875
 31
0.0
  0
LINE
  5
7A
  8
SECTION
  6
CONTINUOUS
 62
     1
 10
2.3567458363
 20
0.5097894738
 30
0.0
 11
2.3567458363
 21
0.892578125
 31
0.0
  0
LINE
  5
7B
  8
SECTION
  6
CONTINUOUS
 62
     1
 10
2.2663013711999991
 20
0.3751093390999999
 30
0.0
 11
2.4464260694999989
 21
0.1394191034
 31
0.0
  0
LINE
  5
7C
  8
SECTION
  6
CONTINUOUS
 62
     1
 10
2.3567458363
 20
0.5097894738
 30
0.0
 11
2.2663013711999991
 21
0.3751093390999999
 31
0.0
  0
LINE
  5
7E
  8
SECTION
  6
CONTINUOUS
 62
     5
 10
-0.6040935066000001
 20
0.892578125
 30
0.0
 11
0.0914665377
 21
2.0923862750999991
 31
0.0
  0
INSERT
  5
7F
  8
SECTION
 62
     5
  2
VLMARROW1
 10
-0.6040935066000001
 20
0.892578125
 30
0.0
 41
0.25
 42
0.25
 43
0.25
 50
239.89801320039999
  0
LINE
  5
80
  8
OUTLINE
  6
CONTINUOUS
 62
     7
 10
-11.390128989300001
 20
-5.7363739899981967
 30
0.0
 11
-11.390128989300001
 21
2.9856489889999982
 31
0.0
  0
DIMENSION
  5
8D
  8
SECTION
  6
CONTINUOUS
 62
     5
  2
*D1
 10
-1.6432541636999991
 20
1.267578125
 30
0.0
 11
-1.8933106656999981
 21
1.267578125
 31
0.0
 70
     0
 13
-2.1433671676000001
 23
-0.357421875
 33
0.0
 14
-1.6432541636999991
 24
0.892578125
 34
0.0
  0
LINE
  5
99
  8
OUTLINE
  6
CONTINUOUS
 62
     7
 10
12.178334944699991
 20
4.0485652480000001
 30
0.0
 11
12.252628532699999
 21
-1.0471249689999991
 31
0.0
  0
ARC
  5
A7
  8
OUTLINE
  6
CONTINUOUS
 62
     7
 10
-9.0903241592789463
 20
-5.766336416999998
 30
0.0
 40
2.3000000006999981
 50
179.2535786213999
 51
223.88933137160001
  0
ARC
  5
A8
  8
OUTLINE
  6
CONTINUOUS
 62
     7
 10
-9.3292617982789476
 20
-6.0969303869999987
 30
0.0
 40
1.9000000002999999
 50
221.69935160360001
 51
265.95076878509991
  0
LINE
  5
A9
  8
SECTION
  6
CONTINUOUS
 62
     7
 10
-2.3480735613000001
 20
-2.6872488317999981
 30
0.0
 11
-2.159394343299998
 21
-0.539832132
 31
0.0
  0
ARC
  5
AA
  8
SECTION
  6
CONTINUOUS
 62
     7
 10
-1.6680939774000001
 20
-0.9646686597
 30
0.0
 40
0.2525461674
 50
90.0
 51
175.0049731570999
  0
LINE
  5
AB
  8
SECTION
  6
CONTINUOUS
 62
     7
 10
-2.1674904095
 20
-0.6319759722000002
 30
0.0
 11
-1.892936312299998
 21
-0.357421875
 31
0.0
  0
LINE
  5
AC
  8
SECTION
  6
CONTINUOUS
 62
     7
 10
-2.1835801997000002
 20
-0.8150988648999998
 30
0.0
 11
-1.7259032097
 21
-0.357421875
 31
0.0
  0
LINE
  5
AD
  8
SECTION
  6
CONTINUOUS
 62
     7
 10
-2.1996699898999981
 20
-0.9982217577
 30
0.0
 11
-1.5588701071999991
 21
-0.357421875
 31
0.0
  0
LINE
  5
AE
  8
SECTION
  6
CONTINUOUS
 62
     7
 10
-1.7669354889999991
 20
-0.7325203594000002
 30
0.0
 11
-1.3918370045999979
 21
-0.357421875
 31
0.0
  0
LINE
  5
AF
  8
SECTION
  6
CONTINUOUS
 62
     7
 10
-2.2157597800999991
 20
-1.1813446505
 30
0.0
 11
-1.9002422777000001
 21
-0.8658271480999999
 31
0.0
  0
LINE
  5
B0
  8
SECTION
  6
CONTINUOUS
 62
     7
 10
-1.5795045192999979
 20
-0.7121224923
 30
0.0
 11
-1.2248039020000001
 21
-0.357421875
 31
0.0
  0
LINE
  5
B1
  8
SECTION
  6
CONTINUOUS
 62
     7
 10
-2.2318495703000001
 20
-1.364467543299998
 30
0.0
 11
-1.930179480399999
 21
-1.0627974533999991
 31
0.0
  0
LINE
  5
B2
  8
SECTION
  6
CONTINUOUS
 62
     7
 10
-1.4124714168000001
 20
-0.7121224923
 30
0.0
 11
-1.0577707995000001
 21
-0.357421875
 31
0.0
  0
LINE
  5
B3
  8
SECTION
  6
CONTINUOUS
 62
     7
 10
-2.2479393606000002
 20
-1.547590436099999
 30
0.0
 11
-1.9461765362000001
 21
-1.2458276118
 31
0.0
  0
LINE
  5
B4
  8
SECTION
  6
CONTINUOUS
 62
     7
 10
-1.2454383142000001
 20
-0.7121224923
 30
0.0
 11
-0.8908480564999997
 21
-0.3575322345
 31
0.0
  0
LINE
  5
B5
  8
SECTION
  6
CONTINUOUS
 62
     7
 10
-2.264029150799999
 20
-1.730713328899999
 30
0.0
 11
-1.9621735921000001
 21
-1.4288577700999989
 31
0.0
  0
LINE
  5
B6
  8
SECTION
  6
CONTINUOUS
 62
     7
 10
-1.0784052117
 20
-0.7121224923
 30
0.0
 11
-0.7397788473000002
 21
-0.373496128
 31
0.0
  0
LINE
  5
B7
  8
SECTION
  6
CONTINUOUS
 62
     7
 10
-2.280118941
 20
-1.9138362216
 30
0.0
 11
-1.978170647899999
 21
-1.611887928499999
 31
0.0
  0
LINE
  5
B8
  8
SECTION
  6
CONTINUOUS
 62
     7
 10
-0.8339277256
 20
-0.6346781088000001
 30
0.0
 11
-0.6116026304
 21
-0.4123530137
 31
0.0
  0
LINE
  5
B9
  8
SECTION
  6
CONTINUOUS
 62
     7
 10
-2.2962087312000001
 20
-2.0969591144000002
 30
0.0
 11
-1.9941677037000001
 21
-1.794918086899999
 31
0.0
  0
LINE
  5
BA
  8
SECTION
  6
CONTINUOUS
 62
     7
 10
-0.6668946230000002
 20
-0.6346781088000001
 30
0.0
 11
-0.5008776294000003
 21
-0.4686611152000001
 31
0.0
  0
LINE
  5
BB
  8
SECTION
  6
CONTINUOUS
 62
     7
 10
-2.312298521399998
 20
-2.2800820071999981
 30
0.0
 11
-2.0101647594999981
 21
-1.9779482452999979
 31
0.0
  0
LINE
  5
BC
  8
SECTION
  6
CONTINUOUS
 62
     7
 10
-0.4998615205000001
 20
-0.6346781088000001
 30
0.0
 11
-0.4035669284
 21
-0.5383835168
 31
0.0
  0
LINE
  5
BD
  8
SECTION
  6
CONTINUOUS
 62
     7
 10
-2.328388311699999
 20
-2.4632049
 30
0.0
 11
-2.0261618153000001
 21
-2.1609784037000002
 31
0.0
  0
LINE
  5
BE
  8
SECTION
  6
CONTINUOUS
 62
     7
 10
-2.3444781019000001
 20
-2.6463277928000002
 30
0.0
 11
-2.0421588711999981
 21
-2.3440085620999991
 31
0.0
  0
LINE
  5
BF
  8
SECTION
  6
CONTINUOUS
 62
     7
 10
-2.2588347854999991
 20
-2.7277175789999988
 30
0.0
 11
-2.0581559270000001
 21
-2.5270387203999989
 31
0.0
  0
LINE
  5
C0
  8
SECTION
  6
CONTINUOUS
 62
     7
 10
-2.1578794590000001
 20
-2.7937953549999981
 30
0.0
 11
-2.074152982799998
 21
-2.7100688788
 31
0.0
  0
TEXT
  5
C1
  8
0
  6
CONTINUOUS
 62
     5
 10
-4.2956448194999979
 20
-1.7808219240000001
 30
0.0
 40
0.125
  1
SINK
 41
0.98
  7
PLOTTER
  0
LINE
  5
C2
  8
SECTION
  6
CONTINUOUS
 62
     1
 10
-2.0629173113000001
 20
-2.9235769567999981
 30
0.0
 11
-1.8718886257
 21
-3.0154504224999981
 31
0.0
  0
LINE
  5
C3
  8
SECTION
  6
CONTINUOUS
 62
     5
 10
-2.2767653747000001
 20
-1.8756682434
 30
0.0
 11
-3.6915136528999981
 21
-1.7513637249
 31
0.0
  0
INSERT
  5
C4
  8
SECTION
 62
     5
  2
VLMARROW1
 10
-2.2767653747000001
 20
-1.8756682434
 30
0.0
 41
0.25
 42
0.25
 43
0.25
 50
354.9786960006
  0
LINE
  5
C5
  8
SECTION
  6
CONTINUOUS
 62
     1
 10
-2.0896238004000001
 20
-2.8870780883999991
 30
0.0
 11
-2.0629173113000001
 21
-2.9235769567999981
 31
0.0
  0
LINE
  5
C6
  8
SECTION
  6
CONTINUOUS
 62
     1
 10
-2.1801048113000001
 20
-2.7634207067999981
 30
0.0
 11
-2.0896238004000001
 21
-2.8870780883999991
 31
0.0
  0
LINE
  5
F2
  8
DIMENSION
  6
CONTINUOUS
 62
     5
 10
12.18105914969999
 20
-6.0125198807000002
 30
0.0
 11
12.18105914969999
 21
-8.5552083340999978
 31
0.0
  0
LINE
  5
F3
  8
DIMENSION
  6
CONTINUOUS
 62
     5
 10
-11.39024799778322
 20
-6.1503064354598891
 30
0.0
 11
-11.390128989300001
 21
-8.5552083340999978
 31
0.0
  0
LINE
  5
F4
  8
DIMENSION
  6
CONTINUOUS
 62
     5
 10
-11.390128989300001
 20
-8.5052083333000006
 30
0.0
 11
0.0323698421
 21
-8.5052083333000006
 31
0.0
  0
INSERT
  5
F5
  8
DIMENSION
  6
CONTINUOUS
 62
     5
  2
VLMARROW1
 10
-11.390128989300001
 20
-8.5052083333000006
 30
0.0
 41
0.125
 42
0.125
 43
0.125
 50
180.0
  0
LINE
  5
F6
  8
DIMENSION
  6
CONTINUOUS
 62
     5
 10
12.18105914969999
 20
-8.5052083333000006
 30
0.0
 11
0.7585603183
 21
-8.5052083333000006
 31
0.0
  0
INSERT
  5
F7
  8
DIMENSION
  6
CONTINUOUS
 62
     5
  2
VLMARROW1
 10
12.18105914969999
 20
-8.5052083333000006
 30
0.0
 41
0.125
 42
0.125
 43
0.125
  0
TEXT
  5
F8
  8
0
  6
CONTINUOUS
 62
     5
 10
0.0948698421
 20
-8.5677083333000006
 30
0.0
 40
0.125
  1
23.571
 41
0.98
  7
PLOTTER
  0
LINE
  5
FF
  8
DIMENSION
  6
CONTINUOUS
 62
     5
 10
10.44057387226152
 20
-7.991245254817577
 30
0.0
 11
12.8416666674
 21
-7.9921875
 31
0.0
  0
LINE
  5
100
  8
DIMENSION
  6
CONTINUOUS
 62
     5
 10
10.59688132446777
 20
6.2095432754828011
 30
0.0
 11
12.8416666674
 21
6.2113367194000002
 31
0.0
  0
LINE
  5
101
  8
DIMENSION
  6
CONTINUOUS
 62
     5
 10
12.791666666699999
 20
6.2113367194000002
 30
0.0
 11
12.791666666699999
 21
-0.4921875
 31
0.0
  0
INSERT
  5
102
  8
DIMENSION
  6
CONTINUOUS
 62
     5
  2
VLMARROW1
 10
12.791666666699999
 20
6.2113367194000002
 30
0.0
 41
0.125
 42
0.125
 43
0.125
 50
90.0
  0
LINE
  5
103
  8
DIMENSION
  6
CONTINUOUS
 62
     5
 10
12.791666666699999
 20
-7.9921875
 30
0.0
 11
12.791666666699999
 21
-0.7421875
 31
0.0
  0
INSERT
  5
104
  8
DIMENSION
  6
CONTINUOUS
 62
     5
  2
VLMARROW1
 10
12.791666666699999
 20
-7.9921875
 30
0.0
 41
0.125
 42
0.125
 43
0.125
 50
270.0
  0
TEXT
  5
105
  8
0
  6
CONTINUOUS
 62
     5
 10
12.47023809519999
 20
-0.6796875
 30
0.0
 40
0.125
  1
14.204
 41
0.98
  7
PLOTTER
  0
LINE
  5
10D
  8
DIMENSION
  6
CONTINUOUS
 62
     5
 10
-5.712992632782302
 20
8.6602123103981565
 30
0.0
 11
-12.1580729174
 21
8.6609700744999998
 31
0.0
  0
LINE
  5
10E
  8
DIMENSION
  6
CONTINUOUS
 62
     5
 10
-9.5473958340999996
 20
-7.9921875
 30
0.0
 11
-12.1580729174
 21
-7.9921875
 31
0.0
  0
LINE
  5
10F
  8
DIMENSION
  6
CONTINUOUS
 62
     5
 10
-12.108072916699999
 20
-7.9921875
 30
0.0
 11
-12.108072916699999
 21
0.2093912872
 31
0.0
  0
INSERT
  5
110
  8
DIMENSION
  6
CONTINUOUS
 62
     5
  2
VLMARROW1
 10
-12.108072916699999
 20
-7.9921875
 30
0.0
 41
0.125
 42
0.125
 43
0.125
 50
270.0
  0
LINE
  5
111
  8
DIMENSION
  6
CONTINUOUS
 62
     5
 10
-12.108072916699999
 20
8.6609700744999998
 30
0.0
 11
-12.108072916699999
 21
0.4593912872
 31
0.0
  0
INSERT
  5
112
  8
DIMENSION
  6
CONTINUOUS
 62
     5
  2
VLMARROW1
 10
-12.108072916699999
 20
8.6609700744999998
 30
0.0
 41
0.125
 42
0.125
 43
0.125
 50
90.0
  0
TEXT
  5
113
  8
0
  6
CONTINUOUS
 62
     5
 10
-12.426525297599991
 20
0.2718912872
 30
0.0
 40
0.125
  1
16.653
 41
0.98
  7
PLOTTER
  0
ENDSEC
  0
EOF
