  0
SECTION
  2
HEADER
  9
$ACADVER
  1
AC1015
  9
$ACADMAINTVER
 70
     6
  9
$DWGCODEPAGE
  3
ANSI_932
  9
$INSBASE
 10
0.0
 20
0.0
 30
0.0
  9
$EXTMIN
 10
-15.0
 20
-45.0
 30
0.0
  9
$EXTMAX
 10
120.0
 20
45.0
 30
0.0
  9
$LIMMIN
 10
0.0
 20
0.0
  9
$LIMMAX
 10
12.0
 20
9.0
  9
$ORTHOMODE
 70
     0
  9
$REGENMODE
 70
     1
  9
$FILLMODE
 70
     1
  9
$QTEXTMODE
 70
     0
  9
$MIRRTEXT
 70
     1
  9
$LTSCALE
 40
1.0
  9
$ATTMODE
 70
     1
  9
$TEXTSIZE
 40
0.2
  9
$TRACEWID
 40
0.05
  9
$TEXTSTYLE
  7
Standard
  9
$CLAYER
  8
0
  9
$CELTYPE
  6
ByBlock
  9
$CECOLOR
 62
   256
  9
$CELTSCALE
 40
1.0
  9
$DISPSILH
 70
     0
  9
$DIMSCALE
 40
1.0
  9
$DIMASZ
 40
0.18
  9
$DIMEXO
 40
0.0625
  9
$DIMDLI
 40
0.38
  9
$DIMRND
 40
0.0
  9
$DIMDLE
 40
0.0
  9
$DIMEXE
 40
0.18
  9
$DIMTP
 40
0.0
  9
$DIMTM
 40
0.0
  9
$DIMTXT
 40
0.18
  9
$DIMCEN
 40
0.09
  9
$DIMTSZ
 40
0.0
  9
$DIMTOL
 70
     0
  9
$DIMLIM
 70
     0
  9
$DIMTIH
 70
     1
  9
$DIMTOH
 70
     1
  9
$DIMSE1
 70
     0
  9
$DIMSE2
 70
     0
  9
$DIMTAD
 70
     0
  9
$DIMZIN
 70
     0
  9
$DIMBLK
  1

  9
$DIMASO
 70
     1
  9
$DIMSHO
 70
     1
  9
$DIMPOST
  1

  9
$DIMAPOST
  1

  9
$DIMALT
 70
     0
  9
$DIMALTD
 70
     2
  9
$DIMALTF
 40
25.4
  9
$DIMLFAC
 40
1.0
  9
$DIMTOFL
 70
     0
  9
$DIMTVP
 40
0.0
  9
$DIMTIX
 70
     0
  9
$DIMSOXD
 70
     0
  9
$DIMSAH
 70
     0
  9
$DIMBLK1
  1

  9
$DIMBLK2
  1

  9
$DIMSTYLE
  2
STANDARD
  9
$DIMCLRD
 70
     0
  9
$DIMCLRE
 70
     0
  9
$DIMCLRT
 70
     0
  9
$DIMTFAC
 40
1.0
  9
$DIMGAP
 40
0.09
  9
$DIMJUST
 70
     0
  9
$DIMSD1
 70
     0
  9
$DIMSD2
 70
     0
  9
$DIMTOLJ
 70
     1
  9
$DIMTZIN
 70
     0
  9
$DIMALTZ
 70
     0
  9
$DIMALTTZ
 70
     0
  9
$DIMUPT
 70
     0
  9
$DIMDEC
 70
     4
  9
$DIMTDEC
 70
     4
  9
$DIMALTU
 70
     2
  9
$DIMALTTD
 70
     2
  9
$DIMTXSTY
  7
Standard
  9
$DIMAUNIT
 70
     0
  9
$DIMADEC
 70
     0
  9
$DIMALTRND
 40
0.0
  9
$DIMAZIN
 70
     0
  9
$DIMDSEP
 70
    46
  9
$DIMATFIT
 70
     3
  9
$DIMFRAC
 70
     0
  9
$DIMLDRBLK
  1

  9
$DIMLUNIT
 70
     2
  9
$DIMLWD
 70
    -2
  9
$DIMLWE
 70
    -2
  9
$DIMTMOVE
 70
     0
  9
$LUNITS
 70
     2
  9
$LUPREC
 70
     4
  9
$SKETCHINC
 40
0.1
  9
$FILLETRAD
 40
0.5
  9
$AUNITS
 70
     0
  9
$AUPREC
 70
     0
  9
$MENU
  1
.
  9
$ELEVATION
 40
0.0
  9
$PELEVATION
 40
0.0
  9
$THICKNESS
 40
0.0
  9
$LIMCHECK
 70
     0
  9
$CHAMFERA
 40
0.0
  9
$CHAMFERB
 40
0.0
  9
$CHAMFERC
 40
0.0
  9
$CHAMFERD
 40
0.0
  9
$SKPOLY
 70
     0
  9
$TDCREATE
 40
2447893.375
  9
$TDUCREATE
 40
0.0
  9
$TDUPDATE
 40
2460864.40420882
  9
$TDUUPDATE
 40
2460864.02920882
  9
$TDINDWG
 40
0.0064610069
  9
$TDUSRTIMER
 40
0.0005044329
  9
$USRTIMER
 70
     1
  9
$ANGBASE
 50
0.0
  9
$ANGDIR
 70
     0
  9
$PDMODE
 70
     0
  9
$PDSIZE
 40
0.0
  9
$PLINEWID
 40
0.0
  9
$SPLFRAME
 70
     0
  9
$SPLINETYPE
 70
     6
  9
$SPLINESEGS
 70
     8
  9
$HANDSEED
  5
106AD27
  9
$SURFTAB1
 70
     6
  9
$SURFTAB2
 70
     6
  9
$SURFTYPE
 70
     6
  9
$SURFU
 70
     6
  9
$SURFV
 70
     6
  9
$UCSBASE
  2

  9
$UCSNAME
  2

  9
$UCSORG
 10
0.0
 20
0.0
 30
0.0
  9
$UCSXDIR
 10
1.0
 20
0.0
 30
0.0
  9
$UCSYDIR
 10
0.0
 20
1.0
 30
0.0
  9
$UCSORTHOREF
  2

  9
$UCSORTHOVIEW
 70
     0
  9
$UCSORGTOP
 10
0.0
 20
0.0
 30
0.0
  9
$UCSORGBOTTOM
 10
0.0
 20
0.0
 30
0.0
  9
$UCSORGLEFT
 10
0.0
 20
0.0
 30
0.0
  9
$UCSORGRIGHT
 10
0.0
 20
0.0
 30
0.0
  9
$UCSORGFRONT
 10
0.0
 20
0.0
 30
0.0
  9
$UCSORGBACK
 10
0.0
 20
0.0
 30
0.0
  9
$PUCSBASE
  2

  9
$PUCSNAME
  2

  9
$PUCSORG
 10
0.0
 20
0.0
 30
0.0
  9
$PUCSXDIR
 10
1.0
 20
0.0
 30
0.0
  9
$PUCSYDIR
 10
0.0
 20
1.0
 30
0.0
  9
$PUCSORTHOREF
  2

  9
$PUCSORTHOVIEW
 70
     0
  9
$PUCSORGTOP
 10
0.0
 20
0.0
 30
0.0
  9
$PUCSORGBOTTOM
 10
0.0
 20
0.0
 30
0.0
  9
$PUCSORGLEFT
 10
0.0
 20
0.0
 30
0.0
  9
$PUCSORGRIGHT
 10
0.0
 20
0.0
 30
0.0
  9
$PUCSORGFRONT
 10
0.0
 20
0.0
 30
0.0
  9
$PUCSORGBACK
 10
0.0
 20
0.0
 30
0.0
  9
$USERI1
 70
     0
  9
$USERI2
 70
     0
  9
$USERI3
 70
     0
  9
$USERI4
 70
     0
  9
$USERI5
 70
     0
  9
$USERR1
 40
0.0
  9
$USERR2
 40
0.0
  9
$USERR3
 40
0.0
  9
$USERR4
 40
0.0
  9
$USERR5
 40
0.0
  9
$WORLDVIEW
 70
     1
  9
$SHADEDGE
 70
     3
  9
$SHADEDIF
 70
    70
  9
$TILEMODE
 70
     1
  9
$MAXACTVP
 70
    64
  9
$PINSBASE
 10
0.0
 20
0.0
 30
0.0
  9
$PLIMCHECK
 70
     0
  9
$PEXTMIN
 10
1.000000000000000E+20
 20
1.000000000000000E+20
 30
1.000000000000000E+20
  9
$PEXTMAX
 10
-1.000000000000000E+20
 20
-1.000000000000000E+20
 30
-1.000000000000000E+20
  9
$PLIMMIN
 10
0.0
 20
0.0
  9
$PLIMMAX
 10
0.0
 20
0.0
  9
$UNITMODE
 70
     0
  9
$VISRETAIN
 70
     1
  9
$PLINEGEN
 70
     0
  9
$PSLTSCALE
 70
     1
  9
$TREEDEPTH
 70
  3020
  9
$CMLSTYLE
  2
Standard
  9
$CMLJUST
 70
     0
  9
$CMLSCALE
 40
1.0
  9
$PROXYGRAPHICS
 70
     1
  9
$MEASUREMENT
 70
     0
  9
$CELWEIGHT
370
    -1
  9
$ENDCAPS
280
     0
  9
$JOINSTYLE
280
     0
  9
$LWDISPLAY
290
     0
  9
$INSUNITS
 70
     0
  9
$HYPERLINKBASE
  1

  9
$STYLESHEET
  1

  9
$XEDIT
290
     1
  9
$CEPSNTYPE
380
     0
  9
$PSTYLEMODE
290
     1
  9
$FINGERPRINTGUID
  2
{c57b1f51-34ae-45d8-a4bb-8eac3790592c}
  9
$VERSIONGUID
  2
{FAEB1C32-E019-11D5-929B-00C0DF256EC4}
  9
$EXTNAMES
290
     1
  9
$PSVPSCALE
 40
0.0
  9
$OLESTARTUP
290
     0
  0
ENDSEC
  0
SECTION
  2
CLASSES
  0
CLASS
  1
IMAGEDEF
  2
AcDbRasterImageDef
  3
ISM
 90
        0
280
     0
281
     0
  0
CLASS
  1
IMAGE
  2
AcDbRasterImage
  3
ISM
 90
      127
280
     0
281
     1
  0
CLASS
  1
IMAGEDEF_REACTOR
  2
AcDbRasterImageDefReactor
  3
ISM
 90
        1
280
     0
281
     0
  0
CLASS
  1
ACDBDICTIONARYWDFLT
  2
AcDbDictionaryWithDefault
  3
ObjectDBX Classes
 90
        0
280
     0
281
     0
  0
CLASS
  1
SCALE
  2
AcDbScale
  3
ObjectDBX Classes
 90
     1153
280
     0
281
     0
  0
CLASS
  1
MATERIAL
  2
AcDbMaterial
  3
ObjectDBX Classes
 90
     1153
280
     0
281
     0
  0
CLASS
  1
VISUALSTYLE
  2
AcDbVisualStyle
  3
ObjectDBX Classes
 90
     4095
280
     0
281
     0
  0
CLASS
  1
TABLESTYLE
  2
AcDbTableStyle
  3
ObjectDBX Classes
 90
     4095
280
     0
281
     0
  0
CLASS
  1
MLEADERSTYLE
  2
AcDbMLeaderStyle
  3
ACDB_MLEADERSTYLE_CLASS
 90
     4095
280
     0
281
     0
  0
CLASS
  1
SUN
  2
AcDbSun
  3
SCENEOE
 90
     1153
280
     0
281
     0
  0
CLASS
  1
RASTERVARIABLES
  2
AcDbRasterVariables
  3
ISM
 90
        0
280
     0
281
     0
  0
CLASS
  1
DICTIONARYVAR
  2
AcDbDictionaryVar
  3
ObjectDBX Classes
 90
        0
280
     0
281
     0
  0
CLASS
  1
ACDBPLACEHOLDER
  2
AcDbPlaceHolder
  3
ObjectDBX Classes
 90
        0
280
     0
281
     0
  0
CLASS
  1
LAYOUT
  2
AcDbLayout
  3
ObjectDBX Classes
 90
        0
280
     0
281
     0
  0
ENDSEC
  0
SECTION
  2
TABLES
  0
TABLE
  2
VPORT
  5
2
102
{ACAD_XDICTIONARY
360
106ACEC
102
}
330
0
100
AcDbSymbolTable
 70
     1
  0
VPORT
  5
106AB91
330
2
100
AcDbSymbolTableRecord
100
AcDbViewportTableRecord
  2
*Active
 70
     0
 10
0.0
 20
0.0
 11
1.0
 21
1.0
 12
52.5
 22
0.0
 13
0.0
 23
0.0
 14
0.5
 24
0.5
 15
0.5
 25
0.5
 16
0.0
 26
0.0
 36
1.0
 17
0.0
 27
0.0
 37
0.0
 40
91.8
 41
2.05750350631136
 42
50.0
 43
0.0
 44
0.0
 50
0.0
 51
0.0
 71
    16
 72
   100
 73
     1
 74
     3
 75
     0
 76
     0
 77
     0
 78
     0
281
     0
 65
     1
110
0.0
120
0.0
130
0.0
111
1.0
121
0.0
131
0.0
112
0.0
122
1.0
132
0.0
 79
     0
146
0.0
  0
ENDTAB
  0
TABLE
  2
LTYPE
  5
3
330
0
100
AcDbSymbolTable
 70
     3
  0
LTYPE
  5
4
330
3
100
AcDbSymbolTableRecord
100
AcDbLinetypeTableRecord
  2
ByBlock
 70
     0
  3

 72
    65
 73
     0
 40
0.0
  0
LTYPE
  5
5
330
3
100
AcDbSymbolTableRecord
100
AcDbLinetypeTableRecord
  2
ByLayer
 70
     0
  3

 72
    65
 73
     0
 40
0.0
  0
LTYPE
  5
6
330
3
100
AcDbSymbolTableRecord
100
AcDbLinetypeTableRecord
  2
CONTINUOUS
 70
     0
  3
Solid Line
 72
    65
 73
     0
 40
0.0
  0
LTYPE
  5
7
330
3
100
AcDbSymbolTableRecord
100
AcDbLinetypeTableRecord
  2
DASH
 70
     0
  3
Hidden
 72
    65
 73
     2
 40
2.5
 49
1.5
 74
     0
 49
-1.0
 74
     0
  0
LTYPE
  5
8
330
3
100
AcDbSymbolTableRecord
100
AcDbLinetypeTableRecord
  2
LONGDASHDASH
 70
     0
  3
__ . __
 72
    65
 73
     4
 40
7.0
 49
4.0
 74
     0
 49
-1.0
 74
     0
 49
1.0
 74
     0
 49
-1.0
 74
     0
  0
ENDTAB
  0
TABLE
  2
LAYER
  5
9
330
0
100
AcDbSymbolTable
 70
    11
  0
LAYER
  5
A
330
9
100
AcDbSymbolTableRecord
100
AcDbLayerTableRecord
  2
0
 70
     0
 62
     7
  6
CONTINUOUS
370
    -3
390
106AB96
  0
LAYER
  5
C
330
9
100
AcDbSymbolTableRecord
100
AcDbLayerTableRecord
  2
1
 70
     0
 62
     4
  6
CONTINUOUS
370
    50
390
106AB96
  0
LAYER
  5
D
330
9
100
AcDbSymbolTableRecord
100
AcDbLayerTableRecord
  2
2
 70
     0
 62
     7
  6
CONTINUOUS
370
    25
390
106AB96
  0
LAYER
  5
F
330
9
100
AcDbSymbolTableRecord
100
AcDbLayerTableRecord
  2
4
 70
     0
 62
     2
  6
LONGDASHDASH
370
    25
390
106AB96
  0
LAYER
  5
13
330
9
100
AcDbSymbolTableRecord
100
AcDbLayerTableRecord
  2
SK1
 70
     0
 62
     4
  6
CONTINUOUS
370
    50
390
106AB96
  0
LAYER
  5
14
330
9
100
AcDbSymbolTableRecord
100
AcDbLayerTableRecord
  2
SK2
 70
     0
 62
     7
  6
CONTINUOUS
370
    25
390
106AB96
  0
LAYER
  5
16
330
9
100
AcDbSymbolTableRecord
100
AcDbLayerTableRecord
  2
SK4
 70
     0
 62
     2
  6
LONGDASHDASH
370
    25
390
106AB96
  0
LAYER
  5
21
330
9
100
AcDbSymbolTableRecord
100
AcDbLayerTableRecord
  2
NOCUT
 70
     0
 62
     7
  6
CONTINUOUS
370
    25
390
106AB96
  0
LAYER
  5
22
330
9
100
AcDbSymbolTableRecord
100
AcDbLayerTableRecord
  2
CUT
 70
     0
 62
     1
  6
CONTINUOUS
370
    25
390
106AB96
  0
LAYER
  5
26
330
9
100
AcDbSymbolTableRecord
100
AcDbLayerTableRecord
  2
INFTOTAL
 70
     0
 62
     9
  6
CONTINUOUS
370
    18
390
106AB96
  0
LAYER
  5
106ABE1
330
9
100
AcDbSymbolTableRecord
100
AcDbLayerTableRecord
  2
Defpoints
 70
     0
 62
     7
  6
CONTINUOUS
290
     0
370
    -3
390
106AB96
  0
ENDTAB
  0
TABLE
  2
STYLE
  5
27
330
0
100
AcDbSymbolTable
 70
     2
  0
STYLE
  5
28
330
27
100
AcDbSymbolTableRecord
100
AcDbTextStyleTableRecord
  2
Monospac821 BT
 70
     0
 40
3.5
 41
1.0
 50
0.0
 71
     0
 42
3.0
  3

  4

1001
ACAD
1000
Monospac821 BT
1071
      256
  0
STYLE
  5
106AB90
330
27
100
AcDbSymbolTableRecord
100
AcDbTextStyleTableRecord
  2
Standard
 70
     0
 40
0.0
 41
1.0
 50
0.0
 71
     0
 42
0.2
  3
txt
  4

  0
ENDTAB
  0
TABLE
  2
VIEW
  5
29
330
0
100
AcDbSymbolTable
 70
     0
  0
ENDTAB
  0
TABLE
  2
UCS
  5
2A
330
0
100
AcDbSymbolTable
 70
     0
  0
ENDTAB
  0
TABLE
  2
APPID
  5
2B
330
0
100
AcDbSymbolTable
 70
     5
  0
APPID
  5
2C
330
2B
100
AcDbSymbolTableRecord
100
AcDbRegAppTableRecord
  2
ACAD
 70
     0
  0
APPID
  5
106ABE3
330
2B
100
AcDbSymbolTableRecord
100
AcDbRegAppTableRecord
  2
FX_DIMP_FAV_VERSION
 70
     0
  0
APPID
  5
106ACA9
330
2B
100
AcDbSymbolTableRecord
100
AcDbRegAppTableRecord
  2
ACAD_DSTYLE_DIMFLIPARROW_SYMBOL
 70
     0
  0
APPID
  5
106ACAA
330
2B
100
AcDbSymbolTableRecord
100
AcDbRegAppTableRecord
  2
ACAD_DSTYLE_DIMFLIPARROW_WHICH_SYMBOL
 70
     0
  0
APPID
  5
106ACE5
330
2B
100
AcDbSymbolTableRecord
100
AcDbRegAppTableRecord
  2
ACAD_MLEADERVER
 70
     0
  0
ENDTAB
  0
TABLE
  2
DIMSTYLE
  5
2D
330
0
100
AcDbSymbolTable
 70
     1
100
AcDbDimStyleTable
  0
DIMSTYLE
105
2E
102
{ACAD_REACTORS
330
106AC0B
330
106AC36
330
106AC67
330
106AC92
102
}
330
2D
100
AcDbSymbolTableRecord
100
AcDbDimStyleTableRecord
  2
STANDARD
 70
     0
 41
3.0
 42
0.5
 44
1.0
 73
     0
 77
     1
 78
     1
140
3.5
141
2.5
143
0.03937007874
147
0.8
172
     1
174
     1
178
     0
179
     1
271
     2
279
     1
284
     1
340
28
  0
ENDTAB
  0
TABLE
  2
BLOCK_RECORD
  5
2F
330
0
100
AcDbSymbolTable
 70
    15
  0
BLOCK_RECORD
  5
30
102
{ACAD_XDICTIONARY
360
106AC9F
102
}
330
2F
100
AcDbSymbolTableRecord
100
AcDbBlockTableRecord
  2
*Model_Space
340
106AB98
  0
BLOCK_RECORD
  5
31
330
2F
100
AcDbSymbolTableRecord
100
AcDbBlockTableRecord
  2
*Paper_Space
340
106AB99
  0
BLOCK_RECORD
  5
397
330
2F
100
AcDbSymbolTableRecord
100
AcDbBlockTableRecord
  2
*D0
340
0
  0
BLOCK_RECORD
  5
3A5
330
2F
100
AcDbSymbolTableRecord
100
AcDbBlockTableRecord
  2
*D1
340
0
  0
BLOCK_RECORD
  5
3B3
330
2F
100
AcDbSymbolTableRecord
100
AcDbBlockTableRecord
  2
*D2
340
0
  0
BLOCK_RECORD
  5
3C1
330
2F
100
AcDbSymbolTableRecord
100
AcDbBlockTableRecord
  2
*D3
340
0
  0
BLOCK_RECORD
  5
3CF
330
2F
100
AcDbSymbolTableRecord
100
AcDbBlockTableRecord
  2
*D4
340
0
  0
BLOCK_RECORD
  5
3DD
330
2F
100
AcDbSymbolTableRecord
100
AcDbBlockTableRecord
  2
*D5
340
0
  0
BLOCK_RECORD
  5
3EB
330
2F
100
AcDbSymbolTableRecord
100
AcDbBlockTableRecord
  2
*D6
340
0
  0
BLOCK_RECORD
  5
106ABF9
330
2F
100
AcDbSymbolTableRecord
100
AcDbBlockTableRecord
  2
*D7
340
0
  0
BLOCK_RECORD
  5
106AC0C
330
2F
100
AcDbSymbolTableRecord
100
AcDbBlockTableRecord
  2
*D8
340
0
  0
BLOCK_RECORD
  5
106AC27
330
2F
100
AcDbSymbolTableRecord
100
AcDbBlockTableRecord
  2
*D9
340
0
  0
BLOCK_RECORD
  5
106AC37
330
2F
100
AcDbSymbolTableRecord
100
AcDbBlockTableRecord
  2
*D10
340
0
  0
BLOCK_RECORD
  5
106AC55
330
2F
100
AcDbSymbolTableRecord
100
AcDbBlockTableRecord
  2
*D11
340
0
  0
BLOCK_RECORD
  5
106AC68
330
2F
100
AcDbSymbolTableRecord
100
AcDbBlockTableRecord
  2
*D12
340
0
  0
BLOCK_RECORD
  5
106AC83
330
2F
100
AcDbSymbolTableRecord
100
AcDbBlockTableRecord
  2
*D13
340
0
  0
BLOCK_RECORD
  5
106AC93
330
2F
100
AcDbSymbolTableRecord
100
AcDbBlockTableRecord
  2
*D14
340
0
  0
ENDTAB
  0
ENDSEC
  0
SECTION
  2
BLOCKS
  0
BLOCK
  5
32
330
30
100
AcDbEntity
  8
0
100
AcDbBlockBegin
  2
*Model_Space
 70
     0
 10
0.0
 20
0.0
 30
0.0
  3
*Model_Space
  1

  0
ENDBLK
  5
33
330
30
100
AcDbEntity
  8
0
100
AcDbBlockEnd
  0
BLOCK
  5
34
330
31
100
AcDbEntity
 67
     1
  8
0
100
AcDbBlockBegin
  2
*Paper_Space
 70
     0
 10
0.0
 20
0.0
 30
0.0
  3
*Paper_Space
  1

  0
ENDBLK
  5
35
330
31
100
AcDbEntity
 67
     1
  8
0
100
AcDbBlockEnd
  0
BLOCK
  5
395
330
397
100
AcDbEntity
  8
SK2
100
AcDbBlockBegin
  2
*D0
 70
     1
 10
0.0
 20
0.0
 30
0.0
  3
*D0
  1

  0
LINE
  5
398
330
397
100
AcDbEntity
  8
SK2
 62
     0
370
    -2
100
AcDbLine
 10
72.688984146635
 20
-2.7
 30
0.0
 11
72.688984146635
 21
-41.0
 31
0.0
  0
LINE
  5
399
330
397
100
AcDbEntity
  8
SK2
 62
     0
370
    -2
100
AcDbLine
 10
2.688984146635
 20
-2.964
 30
0.0
 11
2.688984146635001
 21
-41.0
 31
0.0
  0
LINE
  5
39A
330
397
100
AcDbEntity
  8
SK2
 62
     0
370
    -2
100
AcDbLine
 10
69.688984146635
 20
-40.0
 30
0.0
 11
5.688984146635001
 21
-40.0
 31
0.0
  0
SOLID
  5
39B
330
397
100
AcDbEntity
  8
SK2
 62
     0
100
AcDbTrace
 10
69.688984146635
 20
-40.5
 30
0.0
 11
69.688984146635
 21
-39.5
 31
0.0
 12
72.688984146635
 22
-40.0
 32
0.0
 13
72.688984146635
 23
-40.0
 33
0.0
  0
SOLID
  5
39C
330
397
100
AcDbEntity
  8
SK2
 62
     0
100
AcDbTrace
 10
5.688984146635001
 20
-39.5
 30
0.0
 11
5.688984146635001
 21
-40.5
 31
0.0
 12
2.688984146635001
 22
-40.0
 32
0.0
 13
2.688984146635001
 23
-40.0
 33
0.0
  0
MTEXT
  5
39D
330
397
100
AcDbEntity
  8
SK2
  6
ByBlock
 62
     0
100
AcDbMText
 10
37.688984146635
 20
-37.38875
 30
0.0
 40
3.5
 41
0.0
 71
     5
 72
     1
  1
\A1;70
 73
     1
 44
1.0
  0
POINT
  5
39E
330
397
100
AcDbEntity
  8
Defpoints
 62
     0
100
AcDbPoint
 10
72.688984146635
 20
-2.2
 30
0.0
  0
POINT
  5
39F
330
397
100
AcDbEntity
  8
Defpoints
 62
     0
100
AcDbPoint
 10
2.688984146635
 20
-2.464
 30
0.0
  0
POINT
  5
3A0
330
397
100
AcDbEntity
  8
Defpoints
 62
     0
100
AcDbPoint
 10
2.688984146635
 20
-40.0
 30
0.0
  0
ENDBLK
  5
3A1
330
397
100
AcDbEntity
  8
SK2
100
AcDbBlockEnd
  0
BLOCK
  5
3A3
330
3A5
100
AcDbEntity
  8
SK2
100
AcDbBlockBegin
  2
*D1
 70
     1
 10
0.0
 20
0.0
 30
0.0
  3
*D1
  1

  0
LINE
  5
3A6
330
3A5
100
AcDbEntity
  8
SK2
 62
     0
370
    -2
100
AcDbLine
 10
18.889
 20
2.464000000000001
 30
0.0
 11
18.889
 21
27.80550000000001
 31
0.0
  0
LINE
  5
3A7
330
3A5
100
AcDbEntity
  8
SK2
 62
     0
370
    -2
100
AcDbLine
 10
18.889
 20
-2.463999999999999
 30
0.0
 11
18.889
 21
2.464000000000001
 31
0.0
  0
LINE
  5
3A8
330
3A5
100
AcDbEntity
  8
SK2
 62
     0
370
    -2
100
AcDbLine
 10
18.889
 20
-5.463999999999999
 30
0.0
 11
18.889
 21
-8.463999999999999
 31
0.0
  0
LINE
  5
3A9
330
3A5
100
AcDbEntity
  8
SK2
 62
     0
370
    -2
100
AcDbLine
 10
18.889
 20
5.464000000000001
 30
0.0
 11
18.889
 21
8.464000000000002
 31
0.0
  0
SOLID
  5
3AA
330
3A5
100
AcDbEntity
  8
SK2
 62
     0
100
AcDbTrace
 10
19.389
 20
-5.463999999999999
 30
0.0
 11
18.389
 21
-5.463999999999999
 31
0.0
 12
18.889
 22
-2.463999999999999
 32
0.0
 13
18.889
 23
-2.463999999999999
 33
0.0
  0
SOLID
  5
3AB
330
3A5
100
AcDbEntity
  8
SK2
 62
     0
100
AcDbTrace
 10
18.389
 20
5.464000000000001
 30
0.0
 11
19.389
 21
5.464000000000001
 31
0.0
 12
18.889
 22
2.464000000000001
 32
0.0
 13
18.889
 23
2.464000000000001
 33
0.0
  0
MTEXT
  5
3AC
330
3A5
100
AcDbEntity
  8
SK2
  6
ByBlock
 62
     0
100
AcDbMText
 10
16.227
 20
18.13475
 30
0.0
 40
3.5
 41
0.0
 71
     5
 72
     1
  1
\A1;%%c4.928
 11
0.0
 21
1.0
 31
0.0
 73
     1
 44
1.0
  0
POINT
  5
3AD
330
3A5
100
AcDbEntity
  8
Defpoints
 62
     0
100
AcDbPoint
 10
2.688984146635001
 20
-2.464
 30
0.0
  0
POINT
  5
3AE
330
3A5
100
AcDbEntity
  8
Defpoints
 62
     0
100
AcDbPoint
 10
2.688984146635001
 20
2.464
 30
0.0
  0
POINT
  5
106ABE4
330
3A5
100
AcDbEntity
  8
Defpoints
 62
     0
100
AcDbPoint
 10
18.889
 20
2.464000000000001
 30
0.0
  0
ENDBLK
  5
3AF
330
3A5
100
AcDbEntity
  8
SK2
100
AcDbBlockEnd
  0
BLOCK
  5
3B1
330
3B3
100
AcDbEntity
  8
SK2
100
AcDbBlockBegin
  2
*D2
 70
     1
 10
0.0
 20
0.0
 30
0.0
  3
*D2
  1

  0
LINE
  5
3B4
330
3B3
100
AcDbEntity
  8
SK2
 62
     0
370
    -2
100
AcDbLine
 10
9.088984146635
 20
-2.964
 30
0.0
 11
9.088984146634997
 21
-17.0
 31
0.0
  0
LINE
  5
3B5
330
3B3
100
AcDbEntity
  8
SK2
 62
     0
370
    -2
100
AcDbLine
 10
2.688984146635
 20
-2.964
 30
0.0
 11
2.688984146635001
 21
-17.0
 31
0.0
  0
LINE
  5
3B6
330
3B3
100
AcDbEntity
  8
SK2
 62
     0
370
    -2
100
AcDbLine
 10
2.688984146635001
 20
-16.0
 30
0.0
 11
-13.419515853365
 21
-16.0
 31
0.0
  0
LINE
  5
3B7
330
3B3
100
AcDbEntity
  8
SK2
 62
     0
370
    -2
100
AcDbLine
 10
9.088984146634997
 20
-16.0
 30
0.0
 11
2.688984146635001
 21
-16.0
 31
0.0
  0
LINE
  5
3B8
330
3B3
100
AcDbEntity
  8
SK2
 62
     0
370
    -2
100
AcDbLine
 10
12.088984146635
 20
-16.0
 30
0.0
 11
15.088984146635
 21
-16.0
 31
0.0
  0
LINE
  5
3B9
330
3B3
100
AcDbEntity
  8
SK2
 62
     0
370
    -2
100
AcDbLine
 10
-0.3110158533649994
 20
-16.0
 30
0.0
 11
-3.311015853364999
 21
-16.0
 31
0.0
  0
SOLID
  5
3BA
330
3B3
100
AcDbEntity
  8
SK2
 62
     0
100
AcDbTrace
 10
12.088984146635
 20
-15.5
 30
0.0
 11
12.088984146635
 21
-16.5
 31
0.0
 12
9.088984146634997
 22
-16.0
 32
0.0
 13
9.088984146634997
 23
-16.0
 33
0.0
  0
SOLID
  5
3BB
330
3B3
100
AcDbEntity
  8
SK2
 62
     0
100
AcDbTrace
 10
-0.3110158533649994
 20
-16.5
 30
0.0
 11
-0.3110158533649994
 21
-15.5
 31
0.0
 12
2.688984146635001
 22
-16.0
 32
0.0
 13
2.688984146635001
 23
-16.0
 33
0.0
  0
MTEXT
  5
3BC
330
3B3
100
AcDbEntity
  8
SK2
  6
ByBlock
 62
     0
100
AcDbMText
 10
-8.365265853364999
 20
-13.38875
 30
0.0
 40
3.5
 41
0.0
 71
     5
 72
     1
  1
\A1;6.4
 73
     1
 44
1.0
  0
POINT
  5
106ABE6
330
3B3
100
AcDbEntity
  8
Defpoints
 62
     0
100
AcDbPoint
 10
9.088984146635
 20
-2.464
 30
0.0
  0
POINT
  5
106ABE7
330
3B3
100
AcDbEntity
  8
Defpoints
 62
     0
100
AcDbPoint
 10
2.688984146635
 20
-2.464
 30
0.0
  0
POINT
  5
106ABEC
330
3B3
100
AcDbEntity
  8
Defpoints
 62
     0
100
AcDbPoint
 10
2.688984146635
 20
-16.0
 30
0.0
  0
ENDBLK
  5
3BD
330
3B3
100
AcDbEntity
  8
SK2
100
AcDbBlockEnd
  0
BLOCK
  5
3BF
330
3C1
100
AcDbEntity
  8
2
100
AcDbBlockBegin
  2
*D3
 70
     1
 10
0.0
 20
0.0
 30
0.0
  3
*D3
  1

  0
LINE
  5
3C2
330
3C1
100
AcDbEntity
  8
2
 62
     0
370
    -2
100
AcDbLine
 10
72.688984146635
 20
-2.7
 30
0.0
 11
72.688984146635
 21
-25.0
 31
0.0
  0
LINE
  5
3C3
330
3C1
100
AcDbEntity
  8
2
 62
     0
370
    -2
100
AcDbLine
 10
63.088984146635
 20
-3.0
 30
0.0
 11
63.088984146635
 21
-25.0
 31
0.0
  0
LINE
  5
3C4
330
3C1
100
AcDbEntity
  8
2
 62
     0
370
    -2
100
AcDbLine
 10
72.688984146635
 20
-24.0
 30
0.0
 11
85.82898414663498
 21
-24.0
 31
0.0
  0
LINE
  5
3C5
330
3C1
100
AcDbEntity
  8
2
 62
     0
370
    -2
100
AcDbLine
 10
72.688984146635
 20
-24.0
 30
0.0
 11
63.088984146635
 21
-24.0
 31
0.0
  0
LINE
  5
3C6
330
3C1
100
AcDbEntity
  8
2
 62
     0
370
    -2
100
AcDbLine
 10
75.688984146635
 20
-24.0
 30
0.0
 11
78.688984146635
 21
-24.0
 31
0.0
  0
LINE
  5
3C7
330
3C1
100
AcDbEntity
  8
2
 62
     0
370
    -2
100
AcDbLine
 10
60.088984146635
 20
-24.0
 30
0.0
 11
57.088984146635
 21
-24.0
 31
0.0
  0
SOLID
  5
3C8
330
3C1
100
AcDbEntity
  8
2
 62
     0
100
AcDbTrace
 10
75.688984146635
 20
-23.5
 30
0.0
 11
75.688984146635
 21
-24.5
 31
0.0
 12
72.688984146635
 22
-24.0
 32
0.0
 13
72.688984146635
 23
-24.0
 33
0.0
  0
SOLID
  5
3C9
330
3C1
100
AcDbEntity
  8
2
 62
     0
100
AcDbTrace
 10
60.088984146635
 20
-24.5
 30
0.0
 11
60.088984146635
 21
-23.5
 31
0.0
 12
63.088984146635
 22
-24.0
 32
0.0
 13
63.088984146635
 23
-24.0
 33
0.0
  0
MTEXT
  5
3CA
330
3C1
100
AcDbEntity
  8
2
  6
ByBlock
 62
     0
100
AcDbMText
 10
80.75898414663499
 20
-21.38875
 30
0.0
 40
3.5
 41
0.0
 71
     5
 72
     1
  1
\A1;9.6
 73
     1
 44
1.0
  0
POINT
  5
106AC43
330
3C1
100
AcDbEntity
  8
Defpoints
 62
     0
100
AcDbPoint
 10
72.688984146635
 20
-2.2
 30
0.0
  0
POINT
  5
106AC47
330
3C1
100
AcDbEntity
  8
Defpoints
 62
     0
100
AcDbPoint
 10
63.088984146635
 20
-2.5
 30
0.0
  0
POINT
  5
106AC48
330
3C1
100
AcDbEntity
  8
Defpoints
 62
     0
100
AcDbPoint
 10
63.088984146635
 20
-24.0
 30
0.0
  0
ENDBLK
  5
3CB
330
3C1
100
AcDbEntity
  8
2
100
AcDbBlockEnd
  0
BLOCK
  5
3CD
330
3CF
100
AcDbEntity
  8
2
100
AcDbBlockBegin
  2
*D4
 70
     1
 10
0.0
 20
0.0
 30
0.0
  3
*D4
  1

  0
LINE
  5
3D0
330
3CF
100
AcDbEntity
  8
2
 62
     0
370
    -2
100
AcDbLine
 10
72.688984146635
 20
-2.7
 30
0.0
 11
72.688984146635
 21
-33.0
 31
0.0
  0
LINE
  5
3D1
330
3CF
100
AcDbEntity
  8
2
 62
     0
370
    -2
100
AcDbLine
 10
47.688984146635
 20
-2.5
 30
0.0
 11
47.688984146635
 21
-33.0
 31
0.0
  0
LINE
  5
3D2
330
3CF
100
AcDbEntity
  8
2
 62
     0
370
    -2
100
AcDbLine
 10
69.688984146635
 20
-32.0
 30
0.0
 11
50.688984146635
 21
-32.0
 31
0.0
  0
SOLID
  5
3D3
330
3CF
100
AcDbEntity
  8
2
 62
     0
100
AcDbTrace
 10
69.688984146635
 20
-32.5
 30
0.0
 11
69.688984146635
 21
-31.5
 31
0.0
 12
72.688984146635
 22
-32.0
 32
0.0
 13
72.688984146635
 23
-32.0
 33
0.0
  0
SOLID
  5
3D4
330
3CF
100
AcDbEntity
  8
2
 62
     0
100
AcDbTrace
 10
50.688984146635
 20
-31.5
 30
0.0
 11
50.688984146635
 21
-32.5
 31
0.0
 12
47.688984146635
 22
-32.0
 32
0.0
 13
47.688984146635
 23
-32.0
 33
0.0
  0
MTEXT
  5
3D5
330
3CF
100
AcDbEntity
  8
2
  6
ByBlock
 62
     0
100
AcDbMText
 10
60.188984146635
 20
-29.38875
 30
0.0
 40
3.5
 41
0.0
 71
     5
 72
     1
  1
\A1;25
 73
     1
 44
1.0
  0
POINT
  5
3D6
330
3CF
100
AcDbEntity
  8
Defpoints
 62
     0
100
AcDbPoint
 10
72.688984146635
 20
-2.2
 30
0.0
  0
POINT
  5
3D7
330
3CF
100
AcDbEntity
  8
Defpoints
 62
     0
100
AcDbPoint
 10
47.688984146635
 20
-2.0
 30
0.0
  0
POINT
  5
3D8
330
3CF
100
AcDbEntity
  8
Defpoints
 62
     0
100
AcDbPoint
 10
47.688984146635
 20
-32.0
 30
0.0
  0
ENDBLK
  5
3D9
330
3CF
100
AcDbEntity
  8
2
100
AcDbBlockEnd
  0
BLOCK
  5
3DB
330
3DD
100
AcDbEntity
  8
2
100
AcDbBlockBegin
  2
*D5
 70
     1
 10
0.0
 20
0.0
 30
0.0
  3
*D5
  1

  0
LINE
  5
3DE
330
3DD
100
AcDbEntity
  8
2
 62
     0
370
    -2
100
AcDbLine
 10
54.955971444742
 20
2.000000000000001
 30
0.0
 11
54.955971444742
 21
15.24199999999999
 31
0.0
  0
LINE
  5
3DF
330
3DD
100
AcDbEntity
  8
2
 62
     0
370
    -2
100
AcDbLine
 10
54.955971444742
 20
-2.0
 30
0.0
 11
54.955971444742
 21
2.000000000000001
 31
0.0
  0
LINE
  5
3E0
330
3DD
100
AcDbEntity
  8
2
 62
     0
370
    -2
100
AcDbLine
 10
54.955971444742
 20
-5.0
 30
0.0
 11
54.955971444742
 21
-8.0
 31
0.0
  0
LINE
  5
3E1
330
3DD
100
AcDbEntity
  8
2
 62
     0
370
    -2
100
AcDbLine
 10
54.955971444742
 20
5.000000000000001
 30
0.0
 11
54.955971444742
 21
8.0
 31
0.0
  0
SOLID
  5
3E2
330
3DD
100
AcDbEntity
  8
2
 62
     0
100
AcDbTrace
 10
55.455971444742
 20
-5.0
 30
0.0
 11
54.455971444742
 21
-5.0
 31
0.0
 12
54.955971444742
 22
-2.0
 32
0.0
 13
54.955971444742
 23
-2.0
 33
0.0
  0
SOLID
  5
3E3
330
3DD
100
AcDbEntity
  8
2
 62
     0
100
AcDbTrace
 10
54.455971444742
 20
5.000000000000001
 30
0.0
 11
55.455971444742
 21
5.000000000000001
 31
0.0
 12
54.955971444742
 22
2.000000000000001
 32
0.0
 13
54.955971444742
 23
2.000000000000001
 33
0.0
  0
MTEXT
  5
3E4
330
3DD
100
AcDbEntity
  8
2
  6
ByBlock
 62
     0
100
AcDbMText
 10
52.293971444742
 20
11.621
 30
0.0
 40
3.5
 41
0.0
 71
     5
 72
     1
  1
\A1;%%c4
 11
0.0
 21
1.0
 31
0.0
 73
     1
 44
1.0
  0
POINT
  5
3E5
330
3DD
100
AcDbEntity
  8
Defpoints
 62
     0
100
AcDbPoint
 10
47.688984146635
 20
-2.0
 30
0.0
  0
POINT
  5
3E6
330
3DD
100
AcDbEntity
  8
Defpoints
 62
     0
100
AcDbPoint
 10
47.688984146635
 20
2.0
 30
0.0
  0
POINT
  5
106ABE8
330
3DD
100
AcDbEntity
  8
Defpoints
 62
     0
100
AcDbPoint
 10
54.955971444742
 20
2.0
 30
0.0
  0
ENDBLK
  5
3E7
330
3DD
100
AcDbEntity
  8
2
100
AcDbBlockEnd
  0
BLOCK
  5
3E9
330
3EB
100
AcDbEntity
  8
2
100
AcDbBlockBegin
  2
*D6
 70
     1
 10
0.0
 20
0.0
 30
0.0
  3
*D6
  1

  0
LINE
  5
3EC
330
3EB
100
AcDbEntity
  8
2
 62
     0
370
    -2
100
AcDbLine
 10
75.089862848987
 20
0.5
 30
0.0
 11
75.089862848987
 21
36.0
 31
0.0
  0
LINE
  5
3ED
330
3EB
100
AcDbEntity
  8
2
 62
     0
370
    -2
100
AcDbLine
 10
28.289862848987
 20
2.964
 30
0.0
 11
28.289862848987
 21
36.0
 31
0.0
  0
LINE
  5
3EE
330
3EB
100
AcDbEntity
  8
2
 62
     0
370
    -2
100
AcDbLine
 10
72.089862848987
 20
35.0
 30
0.0
 11
31.289862848987
 21
35.0
 31
0.0
  0
SOLID
  5
3EF
330
3EB
100
AcDbEntity
  8
2
 62
     0
100
AcDbTrace
 10
72.089862848987
 20
34.5
 30
0.0
 11
72.089862848987
 21
35.5
 31
0.0
 12
75.089862848987
 22
35.0
 32
0.0
 13
75.089862848987
 23
35.0
 33
0.0
  0
SOLID
  5
3F0
330
3EB
100
AcDbEntity
  8
2
 62
     0
100
AcDbTrace
 10
31.289862848987
 20
35.5
 30
0.0
 11
31.289862848987
 21
34.5
 31
0.0
 12
28.289862848987
 22
35.0
 32
0.0
 13
28.289862848987
 23
35.0
 33
0.0
  0
MTEXT
  5
3F1
330
3EB
100
AcDbEntity
  8
2
  6
ByBlock
 62
     0
100
AcDbMText
 10
51.689862848987
 20
37.61125
 30
0.0
 40
3.5
 41
0.0
 71
     5
 72
     1
  1
\A1;46.8
 73
     1
 44
1.0
  0
POINT
  5
3F2
330
3EB
100
AcDbEntity
  8
Defpoints
 62
     0
100
AcDbPoint
 10
75.089862848987
 20
0.0
 30
0.0
  0
POINT
  5
3F3
330
3EB
100
AcDbEntity
  8
Defpoints
 62
     0
100
AcDbPoint
 10
28.289862848987
 20
2.464
 30
0.0
  0
POINT
  5
3F4
330
3EB
100
AcDbEntity
  8
Defpoints
 62
     0
100
AcDbPoint
 10
28.289862848987
 20
35.0
 30
0.0
  0
ENDBLK
  5
3F5
330
3EB
100
AcDbEntity
  8
2
100
AcDbBlockEnd
  0
BLOCK
  5
106ABFA
330
106ABF9
100
AcDbEntity
  8
2
100
AcDbBlockBegin
  2
*D7
 70
     1
 10
0.0
 20
0.0
 30
0.0
  3
*D7
  1

  0
LINE
  5
106ABFB
330
106ABF9
100
AcDbEntity
  8
2
 62
     0
370
    -2
100
AcDbLine
 10
3.081749999999992
 20
6.0
 30
0.0
 11
5.581749999999992
 21
6.0
 31
0.0
  0
LINE
  5
106ABFC
330
106ABF9
100
AcDbEntity
  8
2
 62
     0
370
    -2
100
AcDbLine
 10
3.081749999999992
 20
10.0
 30
0.0
 11
5.581749999999992
 21
10.0
 31
0.0
  0
LINE
  5
106ABFD
330
106ABF9
100
AcDbEntity
  8
2
 62
     0
370
    -2
100
AcDbLine
 10
4.581749999999992
 20
10.0
 30
0.0
 11
4.581749999999992
 21
27.778
 31
0.0
  0
LINE
  5
106ABFE
330
106ABF9
100
AcDbEntity
  8
2
 62
     0
370
    -2
100
AcDbLine
 10
4.581749999999992
 20
6.0
 30
0.0
 11
4.581749999999992
 21
10.0
 31
0.0
  0
LINE
  5
106ABFF
330
106ABF9
100
AcDbEntity
  8
2
 62
     0
370
    -2
100
AcDbLine
 10
4.581749999999992
 20
3.0
 30
0.0
 11
4.581749999999992
 21
0.0
 31
0.0
  0
LINE
  5
106AC00
330
106ABF9
100
AcDbEntity
  8
2
 62
     0
370
    -2
100
AcDbLine
 10
4.581749999999992
 20
13.0
 30
0.0
 11
4.581749999999992
 21
16.0
 31
0.0
  0
SOLID
  5
106AC01
330
106ABF9
100
AcDbEntity
  8
2
 62
     0
100
AcDbTrace
 10
5.081749999999992
 20
3.0
 30
0.0
 11
4.081749999999992
 21
3.0
 31
0.0
 12
4.581749999999992
 22
6.0
 32
0.0
 13
4.581749999999992
 23
6.0
 33
0.0
  0
SOLID
  5
106AC02
330
106ABF9
100
AcDbEntity
  8
2
 62
     0
100
AcDbTrace
 10
4.081749999999992
 20
13.0
 30
0.0
 11
5.081749999999992
 21
13.0
 31
0.0
 12
4.581749999999992
 22
10.0
 32
0.0
 13
4.581749999999992
 23
10.0
 33
0.0
  0
MTEXT
  5
106AC03
330
106ABF9
100
AcDbEntity
  8
2
  6
ByBlock
 62
     0
100
AcDbMText
 10
1.919749999999994
 20
24.157
 30
0.0
 40
3.5
 41
0.0
 71
     5
 72
     1
  1
\A1;%%c4
 11
0.0
 21
1.0
 31
0.0
 73
     1
 44
1.0
  0
POINT
  5
106AC04
330
106ABF9
100
AcDbEntity
  8
Defpoints
 62
     0
100
AcDbPoint
 10
2.581749999999992
 20
6.0
 30
0.0
  0
POINT
  5
106AC05
330
106ABF9
100
AcDbEntity
  8
Defpoints
 62
     0
100
AcDbPoint
 10
2.581749999999992
 20
10.0
 30
0.0
  0
POINT
  5
106AC06
330
106ABF9
100
AcDbEntity
  8
Defpoints
 62
     0
100
AcDbPoint
 10
4.581749999999992
 20
10.0
 30
0.0
  0
ENDBLK
  5
106AC07
330
106ABF9
100
AcDbEntity
  8
2
100
AcDbBlockEnd
  0
BLOCK
  5
106AC0D
330
106AC0C
100
AcDbEntity
  8
0
100
AcDbBlockBegin
  2
*D8
 70
     1
 10
0.0
 20
0.0
 30
0.0
  3
*D8
  1

  0
LINE
  5
106AC0F
330
106AC0C
100
AcDbEntity
  8
2
 62
     0
370
    -2
100
AcDbLine
 10
73.188984146635
 20
-2.2
 30
0.0
 11
101.0
 21
-2.199999999999999
 31
0.0
  0
LINE
  5
106AC10
330
106AC0C
100
AcDbEntity
  8
2
 62
     0
370
    -2
100
AcDbLine
 10
73.188984146635
 20
2.2
 30
0.0
 11
101.0
 21
2.200000000000001
 31
0.0
  0
LINE
  5
106AC11
330
106AC0C
100
AcDbEntity
  8
2
 62
     0
370
    -2
100
AcDbLine
 10
100.0
 20
2.200000000000001
 30
0.0
 11
100.0
 21
21.504
 31
0.0
  0
LINE
  5
106AC12
330
106AC0C
100
AcDbEntity
  8
2
 62
     0
370
    -2
100
AcDbLine
 10
100.0
 20
-2.199999999999999
 30
0.0
 11
100.0
 21
2.200000000000001
 31
0.0
  0
LINE
  5
106AC13
330
106AC0C
100
AcDbEntity
  8
2
 62
     0
370
    -2
100
AcDbLine
 10
100.0
 20
-5.199999999999999
 30
0.0
 11
100.0
 21
-8.2
 31
0.0
  0
LINE
  5
106AC14
330
106AC0C
100
AcDbEntity
  8
2
 62
     0
370
    -2
100
AcDbLine
 10
100.0
 20
5.200000000000001
 30
0.0
 11
100.0
 21
8.200000000000001
 31
0.0
  0
SOLID
  5
106AC15
330
106AC0C
100
AcDbEntity
  8
2
 62
     0
100
AcDbTrace
 10
100.5
 20
-5.199999999999999
 30
0.0
 11
99.5
 21
-5.199999999999999
 31
0.0
 12
100.0
 22
-2.199999999999999
 32
0.0
 13
100.0
 23
-2.199999999999999
 33
0.0
  0
SOLID
  5
106AC16
330
106AC0C
100
AcDbEntity
  8
2
 62
     0
100
AcDbTrace
 10
99.5
 20
5.200000000000001
 30
0.0
 11
100.5
 21
5.200000000000001
 31
0.0
 12
100.0
 22
2.200000000000001
 32
0.0
 13
100.0
 23
2.200000000000001
 33
0.0
  0
MTEXT
  5
106AC17
330
106AC0C
100
AcDbEntity
  8
2
  6
ByBlock
 62
     0
100
AcDbMText
 10
97.338
 20
14.852
 30
0.0
 40
3.5
 41
0.0
 71
     5
 72
     1
  1
\A1;%%c4.4
 11
0.0
 21
1.0
 31
0.0
 73
     1
 44
1.0
  0
POINT
  5
106AC18
330
106AC0C
100
AcDbEntity
  8
Defpoints
 62
     0
100
AcDbPoint
 10
72.688984146635
 20
-2.2
 30
0.0
  0
POINT
  5
106AC19
330
106AC0C
100
AcDbEntity
  8
Defpoints
 62
     0
100
AcDbPoint
 10
72.688984146635
 20
2.2
 30
0.0
  0
POINT
  5
106AC1A
330
106AC0C
100
AcDbEntity
  8
Defpoints
 62
     0
100
AcDbPoint
 10
100.0
 20
2.200000000000002
 30
0.0
  0
ENDBLK
  5
106AC0E
330
106AC0C
100
AcDbEntity
  8
0
100
AcDbBlockEnd
  0
BLOCK
  5
106AC28
330
106AC27
100
AcDbEntity
  8
2
100
AcDbBlockBegin
  2
*D9
 70
     1
 10
0.0
 20
0.0
 30
0.0
  3
*D9
  1

  0
LINE
  5
106AC29
330
106AC27
100
AcDbEntity
  8
2
 62
     0
370
    -2
100
AcDbLine
 10
9.599999999999994
 20
12.8
 30
0.0
 11
9.599999999999994
 21
0.0
 31
0.0
  0
LINE
  5
106AC2A
330
106AC27
100
AcDbEntity
  8
2
 62
     0
370
    -2
100
AcDbLine
 10
0.0
 20
12.5
 30
0.0
 11
0.0
 21
0.0
 31
0.0
  0
LINE
  5
106AC2B
330
106AC27
100
AcDbEntity
  8
2
 62
     0
370
    -2
100
AcDbLine
 10
6.599999999999994
 20
1.0
 30
0.0
 11
3.0
 21
1.0
 31
0.0
  0
SOLID
  5
106AC2C
330
106AC27
100
AcDbEntity
  8
2
 62
     0
100
AcDbTrace
 10
6.599999999999994
 20
0.5
 30
0.0
 11
6.599999999999994
 21
1.5
 31
0.0
 12
9.599999999999994
 22
1.0
 32
0.0
 13
9.599999999999994
 23
1.0
 33
0.0
  0
SOLID
  5
106AC2D
330
106AC27
100
AcDbEntity
  8
2
 62
     0
100
AcDbTrace
 10
3.0
 20
1.5
 30
0.0
 11
3.0
 21
0.5
 31
0.0
 12
0.0
 22
1.0
 32
0.0
 13
0.0
 23
1.0
 33
0.0
  0
MTEXT
  5
106AC2E
330
106AC27
100
AcDbEntity
  8
2
  6
ByBlock
 62
     0
100
AcDbMText
 10
4.799999999999997
 20
3.61125
 30
0.0
 40
3.5
 41
0.0
 71
     5
 72
     1
  1
\A1;9.6
 73
     1
 44
1.0
  0
POINT
  5
106AC2F
330
106AC27
100
AcDbEntity
  8
Defpoints
 62
     0
100
AcDbPoint
 10
9.599999999999994
 20
13.3
 30
0.0
  0
POINT
  5
106AC30
330
106AC27
100
AcDbEntity
  8
Defpoints
 62
     0
100
AcDbPoint
 10
0.0
 20
13.0
 30
0.0
  0
POINT
  5
106AC31
330
106AC27
100
AcDbEntity
  8
Defpoints
 62
     0
100
AcDbPoint
 10
0.0
 20
1.0
 30
0.0
  0
ENDBLK
  5
106AC32
330
106AC27
100
AcDbEntity
  8
2
100
AcDbBlockEnd
  0
BLOCK
  5
106AC38
330
106AC37
100
AcDbEntity
  8
0
100
AcDbBlockBegin
  2
*D10
 70
     1
 10
0.0
 20
0.0
 30
0.0
  3
*D10
  1

  0
LINE
  5
106AC3A
330
106AC37
100
AcDbEntity
  8
2
 62
     0
370
    -2
100
AcDbLine
 10
72.688984146635
 20
-2.7
 30
0.0
 11
72.688984146635
 21
-17.0
 31
0.0
  0
LINE
  5
106AC3B
330
106AC37
100
AcDbEntity
  8
2
 62
     0
370
    -2
100
AcDbLine
 10
70.688984146635
 20
-3.0
 30
0.0
 11
70.688984146635
 21
-17.0
 31
0.0
  0
LINE
  5
106AC3C
330
106AC37
100
AcDbEntity
  8
2
 62
     0
370
    -2
100
AcDbLine
 10
72.688984146635
 20
-16.0
 30
0.0
 11
82.689984146635
 21
-16.0
 31
0.0
  0
LINE
  5
106AC3D
330
106AC37
100
AcDbEntity
  8
2
 62
     0
370
    -2
100
AcDbLine
 10
72.688984146635
 20
-16.0
 30
0.0
 11
70.688984146635
 21
-16.0
 31
0.0
  0
LINE
  5
106AC3E
330
106AC37
100
AcDbEntity
  8
2
 62
     0
370
    -2
100
AcDbLine
 10
75.688984146635
 20
-16.0
 30
0.0
 11
78.688984146635
 21
-16.0
 31
0.0
  0
LINE
  5
106AC3F
330
106AC37
100
AcDbEntity
  8
2
 62
     0
370
    -2
100
AcDbLine
 10
67.688984146635
 20
-16.0
 30
0.0
 11
64.688984146635
 21
-16.0
 31
0.0
  0
SOLID
  5
106AC40
330
106AC37
100
AcDbEntity
  8
2
 62
     0
100
AcDbTrace
 10
75.688984146635
 20
-15.5
 30
0.0
 11
75.688984146635
 21
-16.5
 31
0.0
 12
72.688984146635
 22
-16.0
 32
0.0
 13
72.688984146635
 23
-16.0
 33
0.0
  0
SOLID
  5
106AC41
330
106AC37
100
AcDbEntity
  8
2
 62
     0
100
AcDbTrace
 10
67.688984146635
 20
-16.5
 30
0.0
 11
67.688984146635
 21
-15.5
 31
0.0
 12
70.688984146635
 22
-16.0
 32
0.0
 13
70.688984146635
 23
-16.0
 33
0.0
  0
MTEXT
  5
106AC42
330
106AC37
100
AcDbEntity
  8
2
  6
ByBlock
 62
     0
100
AcDbMText
 10
80.689484146635
 20
-13.4395
 30
0.0
 40
3.5
 41
0.0
 71
     5
 72
     1
  1
\A1;2
 73
     1
 44
1.0
  0
POINT
  5
106AC44
330
106AC37
100
AcDbEntity
  8
Defpoints
 62
     0
100
AcDbPoint
 10
72.688984146635
 20
-2.2
 30
0.0
  0
POINT
  5
106AC45
330
106AC37
100
AcDbEntity
  8
Defpoints
 62
     0
100
AcDbPoint
 10
70.688984146635
 20
-2.5
 30
0.0
  0
POINT
  5
106AC46
330
106AC37
100
AcDbEntity
  8
Defpoints
 62
     0
100
AcDbPoint
 10
70.688984146635
 20
-16.0
 30
0.0
  0
ENDBLK
  5
106AC39
330
106AC37
100
AcDbEntity
  8
0
100
AcDbBlockEnd
  0
BLOCK
  5
106AC56
330
106AC55
100
AcDbEntity
  8
0
100
AcDbBlockBegin
  2
*D11
 70
     1
 10
0.0
 20
0.0
 30
0.0
  3
*D11
  1

  0
LINE
  5
106AC57
330
106AC55
100
AcDbEntity
  8
2
 62
     0
370
    -2
100
AcDbLine
 10
0.5
 20
5.999999999999999
 30
0.0
 11
28.31101585336501
 21
6.0
 31
0.0
  0
LINE
  5
106AC58
330
106AC55
100
AcDbEntity
  8
2
 62
     0
370
    -2
100
AcDbLine
 10
0.5
 20
10.4
 30
0.0
 11
28.31101585336501
 21
10.4
 31
0.0
  0
LINE
  5
106AC59
330
106AC55
100
AcDbEntity
  8
2
 62
     0
370
    -2
100
AcDbLine
 10
27.31101585336501
 20
10.4
 30
0.0
 11
27.31101585336501
 21
29.704
 31
0.0
  0
LINE
  5
106AC5A
330
106AC55
100
AcDbEntity
  8
2
 62
     0
370
    -2
100
AcDbLine
 10
27.31101585336501
 20
6.0
 30
0.0
 11
27.31101585336501
 21
10.4
 31
0.0
  0
LINE
  5
106AC5B
330
106AC55
100
AcDbEntity
  8
2
 62
     0
370
    -2
100
AcDbLine
 10
27.31101585336501
 20
3.0
 30
0.0
 11
27.31101585336501
 21
0.0
 31
0.0
  0
LINE
  5
106AC5C
330
106AC55
100
AcDbEntity
  8
2
 62
     0
370
    -2
100
AcDbLine
 10
27.31101585336501
 20
13.4
 30
0.0
 11
27.31101585336501
 21
16.4
 31
0.0
  0
SOLID
  5
106AC5D
330
106AC55
100
AcDbEntity
  8
2
 62
     0
100
AcDbTrace
 10
27.81101585336501
 20
3.0
 30
0.0
 11
26.81101585336501
 21
3.0
 31
0.0
 12
27.31101585336501
 22
6.0
 32
0.0
 13
27.31101585336501
 23
6.0
 33
0.0
  0
SOLID
  5
106AC5E
330
106AC55
100
AcDbEntity
  8
2
 62
     0
100
AcDbTrace
 10
26.81101585336501
 20
13.4
 30
0.0
 11
27.81101585336501
 21
13.4
 31
0.0
 12
27.31101585336501
 22
10.4
 32
0.0
 13
27.31101585336501
 23
10.4
 33
0.0
  0
MTEXT
  5
106AC5F
330
106AC55
100
AcDbEntity
  8
2
  6
ByBlock
 62
     0
100
AcDbMText
 10
24.64901585336501
 20
23.052
 30
0.0
 40
3.5
 41
0.0
 71
     5
 72
     1
  1
\A1;%%c4.4
 11
0.0
 21
1.0
 31
0.0
 73
     1
 44
1.0
  0
POINT
  5
106AC60
330
106AC55
100
AcDbEntity
  8
Defpoints
 62
     0
100
AcDbPoint
 10
0.0
 20
5.999999999999999
 30
0.0
  0
POINT
  5
106AC61
330
106AC55
100
AcDbEntity
  8
Defpoints
 62
     0
100
AcDbPoint
 10
0.0
 20
10.4
 30
0.0
  0
POINT
  5
106AC62
330
106AC55
100
AcDbEntity
  8
Defpoints
 62
     0
100
AcDbPoint
 10
27.31101585336501
 20
10.4
 30
0.0
  0
ENDBLK
  5
106AC63
330
106AC55
100
AcDbEntity
  8
0
100
AcDbBlockEnd
  0
BLOCK
  5
106AC69
330
106AC68
100
AcDbEntity
  8
0
100
AcDbBlockBegin
  2
*D12
 70
     1
 10
0.0
 20
0.0
 30
0.0
  3
*D12
  1

  0
LINE
  5
106AC6B
330
106AC68
100
AcDbEntity
  8
2
 62
     0
370
    -2
100
AcDbLine
 10
71.188984146635
 20
-2.5
 30
0.0
 11
109.0
 21
-2.499999999999996
 31
0.0
  0
LINE
  5
106AC6C
330
106AC68
100
AcDbEntity
  8
2
 62
     0
370
    -2
100
AcDbLine
 10
71.188984146635
 20
2.5
 30
0.0
 11
109.0
 21
2.500000000000004
 31
0.0
  0
LINE
  5
106AC6D
330
106AC68
100
AcDbEntity
  8
2
 62
     0
370
    -2
100
AcDbLine
 10
108.0
 20
2.500000000000004
 30
0.0
 11
108.0
 21
27.70499999999999
 31
0.0
  0
LINE
  5
106AC6E
330
106AC68
100
AcDbEntity
  8
2
 62
     0
370
    -2
100
AcDbLine
 10
108.0
 20
-2.499999999999996
 30
0.0
 11
108.0
 21
2.500000000000004
 31
0.0
  0
LINE
  5
106AC6F
330
106AC68
100
AcDbEntity
  8
2
 62
     0
370
    -2
100
AcDbLine
 10
108.0
 20
-5.499999999999996
 30
0.0
 11
108.0
 21
-8.499999999999996
 31
0.0
  0
LINE
  5
106AC70
330
106AC68
100
AcDbEntity
  8
2
 62
     0
370
    -2
100
AcDbLine
 10
108.0
 20
5.500000000000004
 30
0.0
 11
108.0
 21
8.500000000000004
 31
0.0
  0
SOLID
  5
106AC71
330
106AC68
100
AcDbEntity
  8
2
 62
     0
100
AcDbTrace
 10
108.5
 20
-5.499999999999996
 30
0.0
 11
107.5
 21
-5.499999999999996
 31
0.0
 12
108.0
 22
-2.499999999999996
 32
0.0
 13
108.0
 23
-2.499999999999996
 33
0.0
  0
SOLID
  5
106AC72
330
106AC68
100
AcDbEntity
  8
2
 62
     0
100
AcDbTrace
 10
107.5
 20
5.500000000000004
 30
0.0
 11
108.5
 21
5.500000000000004
 31
0.0
 12
108.0
 22
2.500000000000004
 32
0.0
 13
108.0
 23
2.500000000000004
 33
0.0
  0
MTEXT
  5
106AC73
330
106AC68
100
AcDbEntity
  8
2
  6
ByBlock
 62
     0
100
AcDbMText
 10
105.38875
 20
18.1025
 30
0.0
 40
3.5
 41
0.0
 71
     5
 72
     1
  1
\A1;M5X0.5
 11
0.0
 21
1.0
 31
0.0
 73
     1
 44
1.0
  0
POINT
  5
106AC74
330
106AC68
100
AcDbEntity
  8
Defpoints
 62
     0
100
AcDbPoint
 10
70.688984146635
 20
-2.5
 30
0.0
  0
POINT
  5
106AC75
330
106AC68
100
AcDbEntity
  8
Defpoints
 62
     0
100
AcDbPoint
 10
70.688984146635
 20
2.5
 30
0.0
  0
POINT
  5
106AC76
330
106AC68
100
AcDbEntity
  8
Defpoints
 62
     0
100
AcDbPoint
 10
108.0
 20
2.500000000000002
 30
0.0
  0
ENDBLK
  5
106AC6A
330
106AC68
100
AcDbEntity
  8
0
100
AcDbBlockEnd
  0
BLOCK
  5
106AC84
330
106AC83
100
AcDbEntity
  8
2
100
AcDbBlockBegin
  2
*D13
 70
     1
 10
0.0
 20
0.0
 30
0.0
  3
*D13
  1

  0
LINE
  5
106AC85
330
106AC83
100
AcDbEntity
  8
2
 62
     0
370
    -2
100
AcDbLine
 10
46.8
 20
0.5
 30
0.0
 11
46.8
 21
36.0
 31
0.0
  0
LINE
  5
106AC86
330
106AC83
100
AcDbEntity
  8
2
 62
     0
370
    -2
100
AcDbLine
 10
0.0000000000000036
 20
2.964
 30
0.0
 11
0.0000000000000036
 21
36.0
 31
0.0
  0
LINE
  5
106AC87
330
106AC83
100
AcDbEntity
  8
2
 62
     0
370
    -2
100
AcDbLine
 10
43.8
 20
35.0
 30
0.0
 11
3.000000000000004
 21
35.0
 31
0.0
  0
SOLID
  5
106AC88
330
106AC83
100
AcDbEntity
  8
2
 62
     0
100
AcDbTrace
 10
43.8
 20
34.5
 30
0.0
 11
43.8
 21
35.5
 31
0.0
 12
46.8
 22
35.0
 32
0.0
 13
46.8
 23
35.0
 33
0.0
  0
SOLID
  5
106AC89
330
106AC83
100
AcDbEntity
  8
2
 62
     0
100
AcDbTrace
 10
3.000000000000004
 20
35.5
 30
0.0
 11
3.000000000000004
 21
34.5
 31
0.0
 12
0.0000000000000036
 22
35.0
 32
0.0
 13
0.0000000000000036
 23
35.0
 33
0.0
  0
MTEXT
  5
106AC8A
330
106AC83
100
AcDbEntity
  8
2
  6
ByBlock
 62
     0
100
AcDbMText
 10
23.4
 20
37.61125
 30
0.0
 40
3.5
 41
0.0
 71
     5
 72
     1
  1
\A1;46.8
 73
     1
 44
1.0
  0
POINT
  5
106AC8B
330
106AC83
100
AcDbEntity
  8
Defpoints
 62
     0
100
AcDbPoint
 10
46.8
 20
0.0
 30
0.0
  0
POINT
  5
106AC8C
330
106AC83
100
AcDbEntity
  8
Defpoints
 62
     0
100
AcDbPoint
 10
0.0000000000000036
 20
2.464
 30
0.0
  0
POINT
  5
106AC8D
330
106AC83
100
AcDbEntity
  8
Defpoints
 62
     0
100
AcDbPoint
 10
0.0000000000000036
 20
35.0
 30
0.0
  0
ENDBLK
  5
106AC8E
330
106AC83
100
AcDbEntity
  8
2
100
AcDbBlockEnd
  0
BLOCK
  5
106AC94
330
106AC93
100
AcDbEntity
  8
0
100
AcDbBlockBegin
  2
*D14
 70
     1
 10
0.0
 20
0.0
 30
0.0
  3
*D14
  1

  0
LINE
  5
106AC96
330
106AC93
100
AcDbEntity
  8
SK2
 62
     0
370
    -2
100
AcDbLine
 10
28.289862848987
 20
2.964
 30
0.0
 11
28.289862848987
 21
36.0
 31
0.0
  0
LINE
  5
106AC97
330
106AC93
100
AcDbEntity
  8
SK2
 62
     0
370
    -2
100
AcDbLine
 10
2.688984146635
 20
2.964
 30
0.0
 11
2.688984146635001
 21
36.0
 31
0.0
  0
LINE
  5
106AC98
330
106AC93
100
AcDbEntity
  8
SK2
 62
     0
370
    -2
100
AcDbLine
 10
25.289862848987
 20
35.0
 30
0.0
 11
5.688984146635001
 21
35.0
 31
0.0
  0
SOLID
  5
106AC99
330
106AC93
100
AcDbEntity
  8
SK2
 62
     0
100
AcDbTrace
 10
25.289862848987
 20
34.5
 30
0.0
 11
25.289862848987
 21
35.5
 31
0.0
 12
28.289862848987
 22
35.0
 32
0.0
 13
28.289862848987
 23
35.0
 33
0.0
  0
SOLID
  5
106AC9A
330
106AC93
100
AcDbEntity
  8
SK2
 62
     0
100
AcDbTrace
 10
5.688984146635001
 20
35.5
 30
0.0
 11
5.688984146635001
 21
34.5
 31
0.0
 12
2.688984146635001
 22
35.0
 32
0.0
 13
2.688984146635001
 23
35.0
 33
0.0
  0
MTEXT
  5
106AC9B
330
106AC93
100
AcDbEntity
  8
SK2
  6
ByBlock
 62
     0
100
AcDbMText
 10
15.489423497811
 20
37.61125
 30
0.0
 40
3.5
 41
0.0
 71
     5
 72
     1
  1
\A1;25.6
 73
     1
 44
1.0
  0
POINT
  5
106AC9C
330
106AC93
100
AcDbEntity
  8
Defpoints
 62
     0
100
AcDbPoint
 10
28.289862848987
 20
2.464
 30
0.0
  0
POINT
  5
106AC9D
330
106AC93
100
AcDbEntity
  8
Defpoints
 62
     0
100
AcDbPoint
 10
2.688984146635
 20
2.464
 30
0.0
  0
POINT
  5
106AC9E
330
106AC93
100
AcDbEntity
  8
Defpoints
 62
     0
100
AcDbPoint
 10
2.688984146635
 20
35.0
 30
0.0
  0
ENDBLK
  5
106AC95
330
106AC93
100
AcDbEntity
  8
0
100
AcDbBlockEnd
  0
ENDSEC
  0
SECTION
  2
ENTITIES
  0
DIMENSION
  5
3A2
330
30
100
AcDbEntity
  8
SK2
100
AcDbDimension
  2
*D0
 10
2.688984146635001
 20
-40.0
 30
0.0
 11
37.688984146635
 21
-40.0
 31
0.0
 70
   160
  1
<>
 71
     5
 42
70.0
  3
STANDARD
100
AcDbAlignedDimension
 13
72.688984146635
 23
-2.2
 33
0.0
 14
2.688984146635
 24
-2.464
 34
0.0
100
AcDbRotatedDimension
1001
ACAD
1000
DSTYLE
1002
{
1070
   271
1070
     0
1070
   279
1070
     0
1070
    74
1070
     0
1002
}
  0
DIMENSION
  5
3B0
330
30
100
AcDbEntity
  8
SK2
100
AcDbDimension
  2
*D1
 10
18.889
 20
2.464000000000001
 30
0.0
 11
18.889
 21
18.13475
 31
0.0
 70
   160
  1
%%c<>
 71
     5
 42
4.928
  3
STANDARD
100
AcDbAlignedDimension
 13
2.688984146635001
 23
-2.464
 33
0.0
 14
2.688984146635001
 24
2.464
 34
0.0
 50
-90.0
100
AcDbRotatedDimension
1001
ACAD
1000
DSTYLE
1002
{
1070
    76
1070
     1
1070
    75
1070
     1
1070
   271
1070
     3
1070
   279
1070
     0
1070
    74
1070
     0
1002
}
  0
DIMENSION
  5
3BE
330
30
100
AcDbEntity
  8
SK2
100
AcDbDimension
  2
*D2
 10
2.688984146635001
 20
-16.0
 30
0.0
 11
-8.365265853364999
 21
-16.0
 31
0.0
 70
   160
  1
<>
 71
     5
 42
6.399999999999999
  3
STANDARD
100
AcDbAlignedDimension
 13
9.088984146635
 23
-2.464
 33
0.0
 14
2.688984146635
 24
-2.464
 34
0.0
100
AcDbRotatedDimension
1001
ACAD
1000
DSTYLE
1002
{
1070
   271
1070
     1
1070
   279
1070
     0
1070
    74
1070
     0
1002
}
  0
DIMENSION
  5
3CC
330
30
100
AcDbEntity
  8
2
100
AcDbDimension
  2
*D3
 10
63.088984146635
 20
-24.0
 30
0.0
 11
80.75898414663499
 21
-24.0
 31
0.0
 70
   160
  1
<>
 71
     5
 42
9.599999999999994
  3
STANDARD
100
AcDbAlignedDimension
 13
72.688984146635
 23
-2.2
 33
0.0
 14
63.088984146635
 24
-2.5
 34
0.0
100
AcDbRotatedDimension
1001
ACAD
1000
DSTYLE
1002
{
1070
   271
1070
     1
1070
   279
1070
     0
1070
    74
1070
     0
1002
}
1001
ACAD_DSTYLE_DIMFLIPARROW_SYMBOL
1070
   385
1070
     0
1001
ACAD_DSTYLE_DIMFLIPARROW_WHICH_SYMBOL
1070
   386
1070
     3
  0
DIMENSION
  5
3DA
330
30
100
AcDbEntity
  8
2
100
AcDbDimension
  2
*D4
 10
47.688984146635
 20
-32.0
 30
0.0
 11
60.188984146635
 21
-32.0
 31
0.0
 70
   160
  1
<>
 71
     5
 42
24.99999999999999
  3
STANDARD
100
AcDbAlignedDimension
 13
72.688984146635
 23
-2.2
 33
0.0
 14
47.688984146635
 24
-2.0
 34
0.0
100
AcDbRotatedDimension
1001
ACAD
1000
DSTYLE
1002
{
1070
   271
1070
     0
1070
   279
1070
     0
1070
    74
1070
     0
1002
}
  0
DIMENSION
  5
3E8
330
30
100
AcDbEntity
  8
2
100
AcDbDimension
  2
*D5
 10
54.955971444742
 20
2.000000000000001
 30
0.0
 11
54.955971444742
 21
11.621
 31
0.0
 70
   160
  1
%%c<>
 71
     5
 42
4.0
  3
STANDARD
100
AcDbAlignedDimension
 13
47.688984146635
 23
-2.0
 33
0.0
 14
47.688984146635
 24
2.0
 34
0.0
 50
-90.0
100
AcDbRotatedDimension
1001
ACAD
1000
DSTYLE
1002
{
1070
    76
1070
     1
1070
    75
1070
     1
1070
   271
1070
     0
1070
   279
1070
     0
1070
    74
1070
     0
1002
}
  0
DIMENSION
  5
3F6
330
30
100
AcDbEntity
  8
2
100
AcDbDimension
  2
*D6
 10
28.289862848987
 20
35.0
 30
0.0
 11
51.689862848987
 21
35.0
 31
0.0
 70
   160
  1
<>
 71
     5
 42
46.8
  3
STANDARD
100
AcDbAlignedDimension
 13
75.089862848987
 23
0.0
 33
0.0
 14
28.289862848987
 24
2.464
 34
0.0
100
AcDbRotatedDimension
1001
ACAD
1000
DSTYLE
1002
{
1070
   271
1070
     1
1070
   279
1070
     0
1070
    74
1070
     0
1002
}
  0
LINE
  5
36
330
30
100
AcDbEntity
  8
1
100
AcDbLine
 10
28.289862848987
 20
2.464
 30
0.0
 11
28.289862848987
 21
-2.464
 31
0.0
  0
LINE
  5
37
330
30
100
AcDbEntity
  8
1
100
AcDbLine
 10
28.289862848987
 20
-2.464
 30
0.0
 11
42.689113577612
 21
-2.464
 31
0.0
  0
LINE
  5
38
330
30
100
AcDbEntity
  8
1
100
AcDbLine
 10
42.689113577612
 20
-2.464
 30
0.0
 11
47.688984146635
 21
-2.0
 31
0.0
  0
LINE
  5
39
330
30
100
AcDbEntity
  8
1
100
AcDbLine
 10
47.688984146635
 20
-2.0
 30
0.0
 11
62.22295874285
 21
-2.0
 31
0.0
  0
LINE
  5
3A
330
30
100
AcDbEntity
  8
1
100
AcDbLine
 10
62.22295874285
 20
-2.0
 30
0.0
 11
63.088984146635
 21
-2.5
 31
0.0
  0
LINE
  5
3B
330
30
100
AcDbEntity
  8
1
100
AcDbLine
 10
63.088984146635
 20
-2.5
 30
0.0
 11
70.688984146635
 21
-2.5
 31
0.0
  0
LINE
  5
3C
330
30
100
AcDbEntity
  8
1
100
AcDbLine
 10
70.688984146635
 20
-2.5
 30
0.0
 11
72.688984146635
 21
-2.2
 31
0.0
  0
LINE
  5
3D
330
30
100
AcDbEntity
  8
1
100
AcDbLine
 10
72.688984146635
 20
-2.2
 30
0.0
 11
75.089862848987
 21
0.0
 31
0.0
  0
LINE
  5
3E
330
30
100
AcDbEntity
  8
1
100
AcDbLine
 10
75.089862848987
 20
0.0
 30
0.0
 11
72.688984146635
 21
2.2
 31
0.0
  0
LINE
  5
3F
330
30
100
AcDbEntity
  8
1
100
AcDbLine
 10
72.688984146635
 20
2.2
 30
0.0
 11
70.688984146635
 21
2.5
 31
0.0
  0
LINE
  5
40
330
30
100
AcDbEntity
  8
1
100
AcDbLine
 10
70.688984146635
 20
2.5
 30
0.0
 11
63.088984146635
 21
2.5
 31
0.0
  0
LINE
  5
41
330
30
100
AcDbEntity
  8
1
100
AcDbLine
 10
63.088984146635
 20
2.5
 30
0.0
 11
62.22295874285
 21
2.0
 31
0.0
  0
LINE
  5
42
330
30
100
AcDbEntity
  8
1
100
AcDbLine
 10
62.22295874285
 20
2.0
 30
0.0
 11
47.688984146635
 21
2.0
 31
0.0
  0
LINE
  5
43
330
30
100
AcDbEntity
  8
1
100
AcDbLine
 10
47.688984146635
 20
2.0
 30
0.0
 11
42.689113577612
 21
2.464
 31
0.0
  0
LINE
  5
44
330
30
100
AcDbEntity
  8
1
100
AcDbLine
 10
42.689113577612
 20
2.464
 30
0.0
 11
28.289862848987
 21
2.464
 31
0.0
  0
LINE
  5
45
330
30
100
AcDbEntity
  8
1
100
AcDbLine
 10
74.501862848987
 20
0.108448945229
 30
0.0
 11
74.501862848987
 21
-0.11694969453
 31
0.0
  0
LINE
  5
46
330
30
100
AcDbEntity
  8
1
100
AcDbLine
 10
74.501862848987
 20
-0.11694969453
 30
0.0
 11
74.501862848987
 21
0.108448945229
 31
0.0
  0
LINE
  5
47
330
30
100
AcDbEntity
  8
1
100
AcDbLine
 10
74.501862848987
 20
0.108448945229
 30
0.0
 11
74.417862848987
 21
0.184033395313
 31
0.0
  0
LINE
  5
48
330
30
100
AcDbEntity
  8
1
100
AcDbLine
 10
74.417862848987
 20
0.184033395313
 30
0.0
 11
74.333862848987
 21
0.230326548944
 31
0.0
  0
LINE
  5
49
330
30
100
AcDbEntity
  8
1
100
AcDbLine
 10
74.333862848987
 20
0.230326548944
 30
0.0
 11
74.249862848987
 21
0.274651459549
 31
0.0
  0
LINE
  5
4A
330
30
100
AcDbEntity
  8
1
100
AcDbLine
 10
74.249862848987
 20
0.274651459549
 30
0.0
 11
74.165862848987
 21
0.318734531633
 31
0.0
  0
LINE
  5
4B
330
30
100
AcDbEntity
  8
1
100
AcDbLine
 10
74.165862848987
 20
0.318734531633
 30
0.0
 11
74.081862848987
 21
0.362638825045
 31
0.0
  0
LINE
  5
4C
330
30
100
AcDbEntity
  8
1
100
AcDbLine
 10
74.081862848987
 20
0.362638825045
 30
0.0
 11
73.997862848987
 21
0.40640707854
 31
0.0
  0
LINE
  5
4D
330
30
100
AcDbEntity
  8
1
100
AcDbLine
 10
73.997862848987
 20
0.40640707854
 30
0.0
 11
73.913862848987
 21
0.450069332065
 31
0.0
  0
LINE
  5
4E
330
30
100
AcDbEntity
  8
1
100
AcDbLine
 10
73.913862848987
 20
0.450069332065
 30
0.0
 11
73.829862848987
 21
0.493647341031
 31
0.0
  0
LINE
  5
4F
330
30
100
AcDbEntity
  8
1
100
AcDbLine
 10
73.829862848987
 20
0.493647341031
 30
0.0
 11
73.745862848987
 21
0.537157260947
 31
0.0
  0
LINE
  5
50
330
30
100
AcDbEntity
  8
1
100
AcDbLine
 10
73.745862848987
 20
0.537157260947
 30
0.0
 11
73.661862848987
 21
0.580611347558
 31
0.0
  0
LINE
  5
51
330
30
100
AcDbEntity
  8
1
100
AcDbLine
 10
73.661862848987
 20
0.580611347558
 30
0.0
 11
73.577862848987
 21
0.624019070862
 31
0.0
  0
LINE
  5
52
330
30
100
AcDbEntity
  8
1
100
AcDbLine
 10
73.577862848987
 20
0.624019070862
 30
0.0
 11
73.493862848987
 21
0.667387866655
 31
0.0
  0
LINE
  5
53
330
30
100
AcDbEntity
  8
1
100
AcDbLine
 10
73.493862848987
 20
0.667387866655
 30
0.0
 11
73.409862848987
 21
0.710723656522
 31
0.0
  0
LINE
  5
54
330
30
100
AcDbEntity
  8
1
100
AcDbLine
 10
73.409862848987
 20
0.710723656522
 30
0.0
 11
73.325862848987
 21
0.754031215655
 31
0.0
  0
LINE
  5
55
330
30
100
AcDbEntity
  8
1
100
AcDbLine
 10
73.325862848987
 20
0.754031215655
 30
0.0
 11
73.241862848987
 21
0.797314438155
 31
0.0
  0
LINE
  5
56
330
30
100
AcDbEntity
  8
1
100
AcDbLine
 10
73.241862848987
 20
0.797314438155
 30
0.0
 11
73.157862848987
 21
0.840576531755
 31
0.0
  0
LINE
  5
57
330
30
100
AcDbEntity
  8
1
100
AcDbLine
 10
73.157862848987
 20
0.840576531755
 30
0.0
 11
73.073862848987
 21
0.883820162978
 31
0.0
  0
LINE
  5
58
330
30
100
AcDbEntity
  8
1
100
AcDbLine
 10
73.073862848987
 20
0.883820162978
 30
0.0
 11
72.989862848987
 21
0.927047566883
 31
0.0
  0
LINE
  5
59
330
30
100
AcDbEntity
  8
1
100
AcDbLine
 10
72.989862848987
 20
0.927047566883
 30
0.0
 11
72.905862848987
 21
0.970260631096
 31
0.0
  0
LINE
  5
5A
330
30
100
AcDbEntity
  8
1
100
AcDbLine
 10
72.905862848987
 20
0.970260631096
 30
0.0
 11
72.821862848987
 21
1.013460960908
 31
0.0
  0
LINE
  5
5B
330
30
100
AcDbEntity
  8
1
100
AcDbLine
 10
72.821862848987
 20
1.013460960908
 30
0.0
 11
72.737862848987
 21
1.05664993024
 31
0.0
  0
LINE
  5
5C
330
30
100
AcDbEntity
  8
1
100
AcDbLine
 10
72.737862848987
 20
1.05664993024
 30
0.0
 11
72.653862848987
 21
1.084731590857
 31
0.0
  0
LINE
  5
5D
330
30
100
AcDbEntity
  8
1
100
AcDbLine
 10
72.653862848987
 20
1.084731590857
 30
0.0
 11
72.569862848987
 21
1.091799429678
 31
0.0
  0
LINE
  5
5E
330
30
100
AcDbEntity
  8
1
100
AcDbLine
 10
72.569862848987
 20
1.091799429678
 30
0.0
 11
72.485862848987
 21
1.098867018695
 31
0.0
  0
LINE
  5
5F
330
30
100
AcDbEntity
  8
1
100
AcDbLine
 10
72.485862848987
 20
1.098867018695
 30
0.0
 11
72.401862848987
 21
1.105934362144
 31
0.0
  0
LINE
  5
60
330
30
100
AcDbEntity
  8
1
100
AcDbLine
 10
72.401862848987
 20
1.105934362144
 30
0.0
 11
72.317862848987
 21
1.113001464165
 31
0.0
  0
LINE
  5
61
330
30
100
AcDbEntity
  8
1
100
AcDbLine
 10
72.317862848987
 20
1.113001464165
 30
0.0
 11
72.233862848987
 21
1.120068328806
 31
0.0
  0
LINE
  5
62
330
30
100
AcDbEntity
  8
1
100
AcDbLine
 10
72.233862848987
 20
1.120068328806
 30
0.0
 11
72.149862848987
 21
1.127134960023
 31
0.0
  0
LINE
  5
63
330
30
100
AcDbEntity
  8
1
100
AcDbLine
 10
72.149862848987
 20
1.127134960023
 30
0.0
 11
72.065862848987
 21
1.134201361686
 31
0.0
  0
LINE
  5
64
330
30
100
AcDbEntity
  8
1
100
AcDbLine
 10
72.065862848987
 20
1.134201361686
 30
0.0
 11
71.981862848987
 21
1.141267537581
 31
0.0
  0
LINE
  5
65
330
30
100
AcDbEntity
  8
1
100
AcDbLine
 10
71.981862848987
 20
1.141267537581
 30
0.0
 11
71.897862848987
 21
1.148333491408
 31
0.0
  0
LINE
  5
66
330
30
100
AcDbEntity
  8
1
100
AcDbLine
 10
71.897862848987
 20
1.148333491408
 30
0.0
 11
71.813862848987
 21
1.155399226789
 31
0.0
  0
LINE
  5
67
330
30
100
AcDbEntity
  8
1
100
AcDbLine
 10
71.813862848987
 20
1.155399226789
 30
0.0
 11
71.729862848987
 21
1.162464747266
 31
0.0
  0
LINE
  5
68
330
30
100
AcDbEntity
  8
1
100
AcDbLine
 10
71.729862848987
 20
1.162464747266
 30
0.0
 11
71.645862848987
 21
1.169530056306
 31
0.0
  0
LINE
  5
69
330
30
100
AcDbEntity
  8
1
100
AcDbLine
 10
71.645862848987
 20
1.169530056306
 30
0.0
 11
71.561862848987
 21
1.176595157301
 31
0.0
  0
LINE
  5
6A
330
30
100
AcDbEntity
  8
1
100
AcDbLine
 10
71.561862848987
 20
1.176595157301
 30
0.0
 11
71.477862848987
 21
1.183660053572
 31
0.0
  0
LINE
  5
6B
330
30
100
AcDbEntity
  8
1
100
AcDbLine
 10
71.477862848987
 20
1.183660053572
 30
0.0
 11
71.393862848987
 21
1.190724748366
 31
0.0
  0
LINE
  5
6C
330
30
100
AcDbEntity
  8
1
100
AcDbLine
 10
71.393862848987
 20
1.190724748366
 30
0.0
 11
71.309862848987
 21
1.197789244866
 31
0.0
  0
LINE
  5
6D
330
30
100
AcDbEntity
  8
1
100
AcDbLine
 10
71.309862848987
 20
1.197789244866
 30
0.0
 11
71.225862848987
 21
1.204853546186
 31
0.0
  0
LINE
  5
6E
330
30
100
AcDbEntity
  8
1
100
AcDbLine
 10
71.225862848987
 20
1.204853546186
 30
0.0
 11
71.141862848987
 21
1.211917655375
 31
0.0
  0
LINE
  5
6F
330
30
100
AcDbEntity
  8
1
100
AcDbLine
 10
71.141862848987
 20
1.211917655375
 30
0.0
 11
71.057862848987
 21
1.218981575419
 31
0.0
  0
LINE
  5
70
330
30
100
AcDbEntity
  8
1
100
AcDbLine
 10
71.057862848987
 20
1.218981575419
 30
0.0
 11
70.973862848987
 21
1.226045309242
 31
0.0
  0
LINE
  5
71
330
30
100
AcDbEntity
  8
1
100
AcDbLine
 10
70.973862848987
 20
1.226045309242
 30
0.0
 11
70.889862848987
 21
1.23310885971
 31
0.0
  0
LINE
  5
72
330
30
100
AcDbEntity
  8
1
100
AcDbLine
 10
70.889862848987
 20
1.23310885971
 30
0.0
 11
70.805862848987
 21
1.240172229628
 31
0.0
  0
LINE
  5
73
330
30
100
AcDbEntity
  8
1
100
AcDbLine
 10
70.805862848987
 20
1.240172229628
 30
0.0
 11
70.721862848987
 21
1.247235421744
 31
0.0
  0
LINE
  5
74
330
30
100
AcDbEntity
  8
1
100
AcDbLine
 10
70.721862848987
 20
1.247235421744
 30
0.0
 11
70.637862848987
 21
1.25
 31
0.0
  0
LINE
  5
75
330
30
100
AcDbEntity
  8
1
100
AcDbLine
 10
70.637862848987
 20
1.25
 30
0.0
 11
70.553862848987
 21
1.25
 31
0.0
  0
LINE
  5
76
330
30
100
AcDbEntity
  8
1
100
AcDbLine
 10
70.553862848987
 20
1.25
 30
0.0
 11
70.469862848987
 21
1.25
 31
0.0
  0
LINE
  5
77
330
30
100
AcDbEntity
  8
1
100
AcDbLine
 10
70.469862848987
 20
1.25
 30
0.0
 11
70.385862848987
 21
1.25
 31
0.0
  0
LINE
  5
78
330
30
100
AcDbEntity
  8
1
100
AcDbLine
 10
70.385862848987
 20
1.25
 30
0.0
 11
70.301862848987
 21
1.25
 31
0.0
  0
LINE
  5
79
330
30
100
AcDbEntity
  8
1
100
AcDbLine
 10
70.301862848987
 20
1.25
 30
0.0
 11
70.217862848987
 21
1.25
 31
0.0
  0
LINE
  5
7A
330
30
100
AcDbEntity
  8
1
100
AcDbLine
 10
70.217862848987
 20
1.25
 30
0.0
 11
70.133862848987
 21
1.25
 31
0.0
  0
LINE
  5
7B
330
30
100
AcDbEntity
  8
1
100
AcDbLine
 10
70.133862848987
 20
1.25
 30
0.0
 11
70.049862848987
 21
1.25
 31
0.0
  0
LINE
  5
7C
330
30
100
AcDbEntity
  8
1
100
AcDbLine
 10
70.049862848987
 20
1.25
 30
0.0
 11
69.965862848987
 21
1.25
 31
0.0
  0
LINE
  5
7D
330
30
100
AcDbEntity
  8
1
100
AcDbLine
 10
69.965862848987
 20
1.25
 30
0.0
 11
69.881862848987
 21
1.25
 31
0.0
  0
LINE
  5
7E
330
30
100
AcDbEntity
  8
1
100
AcDbLine
 10
69.881862848987
 20
1.25
 30
0.0
 11
69.797862848987
 21
1.25
 31
0.0
  0
LINE
  5
7F
330
30
100
AcDbEntity
  8
1
100
AcDbLine
 10
69.797862848987
 20
1.25
 30
0.0
 11
69.713862848987
 21
1.25
 31
0.0
  0
LINE
  5
80
330
30
100
AcDbEntity
  8
1
100
AcDbLine
 10
69.713862848987
 20
1.25
 30
0.0
 11
69.629862848987
 21
1.25
 31
0.0
  0
LINE
  5
81
330
30
100
AcDbEntity
  8
1
100
AcDbLine
 10
69.629862848987
 20
1.25
 30
0.0
 11
69.545862848987
 21
1.25
 31
0.0
  0
LINE
  5
82
330
30
100
AcDbEntity
  8
1
100
AcDbLine
 10
69.545862848987
 20
1.25
 30
0.0
 11
69.461862848987
 21
1.25
 31
0.0
  0
LINE
  5
83
330
30
100
AcDbEntity
  8
1
100
AcDbLine
 10
69.461862848987
 20
1.25
 30
0.0
 11
69.377862848987
 21
1.25
 31
0.0
  0
LINE
  5
84
330
30
100
AcDbEntity
  8
1
100
AcDbLine
 10
69.377862848987
 20
1.25
 30
0.0
 11
69.293862848987
 21
1.25
 31
0.0
  0
LINE
  5
85
330
30
100
AcDbEntity
  8
1
100
AcDbLine
 10
69.293862848987
 20
1.25
 30
0.0
 11
69.209862848987
 21
1.25
 31
0.0
  0
LINE
  5
86
330
30
100
AcDbEntity
  8
1
100
AcDbLine
 10
69.209862848987
 20
1.25
 30
0.0
 11
69.125862848987
 21
1.25
 31
0.0
  0
LINE
  5
87
330
30
100
AcDbEntity
  8
1
100
AcDbLine
 10
69.125862848987
 20
1.25
 30
0.0
 11
69.041862848987
 21
1.25
 31
0.0
  0
LINE
  5
88
330
30
100
AcDbEntity
  8
1
100
AcDbLine
 10
69.041862848987
 20
1.25
 30
0.0
 11
68.957862848987
 21
1.25
 31
0.0
  0
LINE
  5
89
330
30
100
AcDbEntity
  8
1
100
AcDbLine
 10
68.957862848987
 20
1.25
 30
0.0
 11
68.873862848987
 21
1.25
 31
0.0
  0
LINE
  5
8A
330
30
100
AcDbEntity
  8
1
100
AcDbLine
 10
68.873862848987
 20
1.25
 30
0.0
 11
68.789862848987
 21
1.25
 31
0.0
  0
LINE
  5
8B
330
30
100
AcDbEntity
  8
1
100
AcDbLine
 10
68.789862848987
 20
1.25
 30
0.0
 11
68.705862848987
 21
1.25
 31
0.0
  0
LINE
  5
8C
330
30
100
AcDbEntity
  8
1
100
AcDbLine
 10
68.705862848987
 20
1.25
 30
0.0
 11
68.621862848987
 21
1.25
 31
0.0
  0
LINE
  5
8D
330
30
100
AcDbEntity
  8
1
100
AcDbLine
 10
68.621862848987
 20
1.25
 30
0.0
 11
68.537862848987
 21
1.25
 31
0.0
  0
LINE
  5
8E
330
30
100
AcDbEntity
  8
1
100
AcDbLine
 10
68.537862848987
 20
1.25
 30
0.0
 11
68.453862848987
 21
1.25
 31
0.0
  0
LINE
  5
8F
330
30
100
AcDbEntity
  8
1
100
AcDbLine
 10
68.453862848987
 20
1.25
 30
0.0
 11
68.369862848987
 21
1.25
 31
0.0
  0
LINE
  5
90
330
30
100
AcDbEntity
  8
1
100
AcDbLine
 10
68.369862848987
 20
1.25
 30
0.0
 11
68.285862848987
 21
1.25
 31
0.0
  0
LINE
  5
91
330
30
100
AcDbEntity
  8
1
100
AcDbLine
 10
68.285862848987
 20
1.25
 30
0.0
 11
68.201862848987
 21
1.25
 31
0.0
  0
LINE
  5
92
330
30
100
AcDbEntity
  8
1
100
AcDbLine
 10
68.201862848987
 20
1.25
 30
0.0
 11
68.117862848987
 21
1.25
 31
0.0
  0
LINE
  5
93
330
30
100
AcDbEntity
  8
1
100
AcDbLine
 10
68.117862848987
 20
1.25
 30
0.0
 11
68.033862848987
 21
1.25
 31
0.0
  0
LINE
  5
94
330
30
100
AcDbEntity
  8
1
100
AcDbLine
 10
68.033862848987
 20
1.25
 30
0.0
 11
67.949862848987
 21
1.25
 31
0.0
  0
LINE
  5
95
330
30
100
AcDbEntity
  8
1
100
AcDbLine
 10
67.949862848987
 20
1.25
 30
0.0
 11
67.865862848987
 21
1.25
 31
0.0
  0
LINE
  5
96
330
30
100
AcDbEntity
  8
1
100
AcDbLine
 10
67.865862848987
 20
1.25
 30
0.0
 11
67.781862848987
 21
1.25
 31
0.0
  0
LINE
  5
97
330
30
100
AcDbEntity
  8
1
100
AcDbLine
 10
67.781862848987
 20
1.25
 30
0.0
 11
67.697862848987
 21
1.25
 31
0.0
  0
LINE
  5
98
330
30
100
AcDbEntity
  8
1
100
AcDbLine
 10
67.697862848987
 20
1.25
 30
0.0
 11
67.613862848987
 21
1.25
 31
0.0
  0
LINE
  5
99
330
30
100
AcDbEntity
  8
1
100
AcDbLine
 10
67.613862848987
 20
1.25
 30
0.0
 11
67.529862848987
 21
1.25
 31
0.0
  0
LINE
  5
9A
330
30
100
AcDbEntity
  8
1
100
AcDbLine
 10
67.529862848987
 20
1.25
 30
0.0
 11
67.445862848987
 21
1.25
 31
0.0
  0
LINE
  5
9B
330
30
100
AcDbEntity
  8
1
100
AcDbLine
 10
67.445862848987
 20
1.25
 30
0.0
 11
67.361862848987
 21
1.25
 31
0.0
  0
LINE
  5
9C
330
30
100
AcDbEntity
  8
1
100
AcDbLine
 10
67.361862848987
 20
1.25
 30
0.0
 11
67.277862848987
 21
1.25
 31
0.0
  0
LINE
  5
9D
330
30
100
AcDbEntity
  8
1
100
AcDbLine
 10
67.277862848987
 20
1.25
 30
0.0
 11
67.193862848987
 21
1.25
 31
0.0
  0
LINE
  5
9E
330
30
100
AcDbEntity
  8
1
100
AcDbLine
 10
67.193862848987
 20
1.25
 30
0.0
 11
67.109862848987
 21
1.25
 31
0.0
  0
LINE
  5
9F
330
30
100
AcDbEntity
  8
1
100
AcDbLine
 10
67.109862848987
 20
1.25
 30
0.0
 11
67.025862848987
 21
1.25
 31
0.0
  0
LINE
  5
A0
330
30
100
AcDbEntity
  8
1
100
AcDbLine
 10
67.025862848987
 20
1.25
 30
0.0
 11
66.941862848987
 21
1.25
 31
0.0
  0
LINE
  5
A1
330
30
100
AcDbEntity
  8
1
100
AcDbLine
 10
66.941862848987
 20
1.25
 30
0.0
 11
66.857862848987
 21
1.25
 31
0.0
  0
LINE
  5
A2
330
30
100
AcDbEntity
  8
1
100
AcDbLine
 10
66.857862848987
 20
1.25
 30
0.0
 11
66.773862848987
 21
1.25
 31
0.0
  0
LINE
  5
A3
330
30
100
AcDbEntity
  8
1
100
AcDbLine
 10
66.773862848987
 20
1.25
 30
0.0
 11
66.689862848987
 21
1.25
 31
0.0
  0
LINE
  5
A4
330
30
100
AcDbEntity
  8
1
100
AcDbLine
 10
66.689862848987
 20
1.25
 30
0.0
 11
66.605862848987
 21
1.25
 31
0.0
  0
LINE
  5
A5
330
30
100
AcDbEntity
  8
1
100
AcDbLine
 10
66.605862848987
 20
1.25
 30
0.0
 11
66.521862848987
 21
1.25
 31
0.0
  0
LINE
  5
A6
330
30
100
AcDbEntity
  8
1
100
AcDbLine
 10
66.521862848987
 20
1.25
 30
0.0
 11
66.437862848987
 21
1.25
 31
0.0
  0
LINE
  5
A7
330
30
100
AcDbEntity
  8
1
100
AcDbLine
 10
66.437862848987
 20
1.25
 30
0.0
 11
66.353862848987
 21
1.25
 31
0.0
  0
LINE
  5
A8
330
30
100
AcDbEntity
  8
1
100
AcDbLine
 10
66.353862848987
 20
1.25
 30
0.0
 11
66.269862848987
 21
1.25
 31
0.0
  0
LINE
  5
A9
330
30
100
AcDbEntity
  8
1
100
AcDbLine
 10
66.269862848987
 20
1.25
 30
0.0
 11
66.185862848987
 21
1.25
 31
0.0
  0
LINE
  5
AA
330
30
100
AcDbEntity
  8
1
100
AcDbLine
 10
66.185862848987
 20
1.25
 30
0.0
 11
66.101862848987
 21
1.25
 31
0.0
  0
LINE
  5
AB
330
30
100
AcDbEntity
  8
1
100
AcDbLine
 10
66.101862848987
 20
1.25
 30
0.0
 11
66.017862848987
 21
1.25
 31
0.0
  0
LINE
  5
AC
330
30
100
AcDbEntity
  8
1
100
AcDbLine
 10
66.017862848987
 20
1.25
 30
0.0
 11
65.933862848987
 21
1.25
 31
0.0
  0
LINE
  5
AD
330
30
100
AcDbEntity
  8
1
100
AcDbLine
 10
65.933862848987
 20
1.25
 30
0.0
 11
65.849862848987
 21
1.25
 31
0.0
  0
LINE
  5
AE
330
30
100
AcDbEntity
  8
1
100
AcDbLine
 10
65.849862848987
 20
1.25
 30
0.0
 11
65.765862848987
 21
1.25
 31
0.0
  0
LINE
  5
AF
330
30
100
AcDbEntity
  8
1
100
AcDbLine
 10
65.765862848987
 20
1.25
 30
0.0
 11
65.681862848987
 21
1.25
 31
0.0
  0
LINE
  5
B0
330
30
100
AcDbEntity
  8
1
100
AcDbLine
 10
65.681862848987
 20
1.25
 30
0.0
 11
65.597862848987
 21
1.25
 31
0.0
  0
LINE
  5
B1
330
30
100
AcDbEntity
  8
1
100
AcDbLine
 10
65.597862848987
 20
1.25
 30
0.0
 11
65.513862848987
 21
1.25
 31
0.0
  0
LINE
  5
B2
330
30
100
AcDbEntity
  8
1
100
AcDbLine
 10
65.513862848987
 20
1.25
 30
0.0
 11
65.429862848987
 21
1.25
 31
0.0
  0
LINE
  5
B3
330
30
100
AcDbEntity
  8
1
100
AcDbLine
 10
65.429862848987
 20
1.25
 30
0.0
 11
65.345862848987
 21
1.25
 31
0.0
  0
LINE
  5
B4
330
30
100
AcDbEntity
  8
1
100
AcDbLine
 10
65.345862848987
 20
1.25
 30
0.0
 11
65.261862848987
 21
1.25
 31
0.0
  0
LINE
  5
B5
330
30
100
AcDbEntity
  8
1
100
AcDbLine
 10
65.261862848987
 20
1.25
 30
0.0
 11
65.177862848987
 21
1.25
 31
0.0
  0
LINE
  5
B6
330
30
100
AcDbEntity
  8
1
100
AcDbLine
 10
65.177862848987
 20
1.25
 30
0.0
 11
65.093862848987
 21
1.25
 31
0.0
  0
LINE
  5
B7
330
30
100
AcDbEntity
  8
1
100
AcDbLine
 10
65.093862848987
 20
1.25
 30
0.0
 11
65.009862848987
 21
1.25
 31
0.0
  0
LINE
  5
B8
330
30
100
AcDbEntity
  8
1
100
AcDbLine
 10
65.009862848987
 20
1.25
 30
0.0
 11
64.925862848987
 21
1.25
 31
0.0
  0
LINE
  5
B9
330
30
100
AcDbEntity
  8
1
100
AcDbLine
 10
64.925862848987
 20
1.25
 30
0.0
 11
64.841862848987
 21
1.25
 31
0.0
  0
LINE
  5
BA
330
30
100
AcDbEntity
  8
1
100
AcDbLine
 10
64.841862848987
 20
1.25
 30
0.0
 11
64.757862848987
 21
1.25
 31
0.0
  0
LINE
  5
BB
330
30
100
AcDbEntity
  8
1
100
AcDbLine
 10
64.757862848987
 20
1.25
 30
0.0
 11
64.673862848987
 21
1.25
 31
0.0
  0
LINE
  5
BC
330
30
100
AcDbEntity
  8
1
100
AcDbLine
 10
64.673862848987
 20
1.25
 30
0.0
 11
64.589862848987
 21
1.25
 31
0.0
  0
LINE
  5
BD
330
30
100
AcDbEntity
  8
1
100
AcDbLine
 10
64.589862848987
 20
1.25
 30
0.0
 11
64.505862848987
 21
1.25
 31
0.0
  0
LINE
  5
BE
330
30
100
AcDbEntity
  8
1
100
AcDbLine
 10
64.505862848987
 20
1.25
 30
0.0
 11
64.421862848987
 21
1.25
 31
0.0
  0
LINE
  5
BF
330
30
100
AcDbEntity
  8
1
100
AcDbLine
 10
64.421862848987
 20
1.25
 30
0.0
 11
64.337862848987
 21
1.25
 31
0.0
  0
LINE
  5
C0
330
30
100
AcDbEntity
  8
1
100
AcDbLine
 10
64.337862848987
 20
1.25
 30
0.0
 11
64.253862848987
 21
1.25
 31
0.0
  0
LINE
  5
C1
330
30
100
AcDbEntity
  8
1
100
AcDbLine
 10
64.253862848987
 20
1.25
 30
0.0
 11
64.169862848987
 21
1.25
 31
0.0
  0
LINE
  5
C2
330
30
100
AcDbEntity
  8
1
100
AcDbLine
 10
64.169862848987
 20
1.25
 30
0.0
 11
64.085862848987
 21
1.25
 31
0.0
  0
LINE
  5
C3
330
30
100
AcDbEntity
  8
1
100
AcDbLine
 10
64.085862848987
 20
1.25
 30
0.0
 11
64.001862848987
 21
1.25
 31
0.0
  0
LINE
  5
C4
330
30
100
AcDbEntity
  8
1
100
AcDbLine
 10
64.001862848987
 20
1.25
 30
0.0
 11
63.917862848987
 21
1.25
 31
0.0
  0
LINE
  5
C5
330
30
100
AcDbEntity
  8
1
100
AcDbLine
 10
63.917862848987
 20
1.25
 30
0.0
 11
63.833862848987
 21
1.25
 31
0.0
  0
LINE
  5
C6
330
30
100
AcDbEntity
  8
1
100
AcDbLine
 10
63.833862848987
 20
1.25
 30
0.0
 11
63.749862848987
 21
1.25
 31
0.0
  0
LINE
  5
C7
330
30
100
AcDbEntity
  8
1
100
AcDbLine
 10
63.749862848987
 20
1.25
 30
0.0
 11
63.665862848987
 21
1.25
 31
0.0
  0
LINE
  5
C8
330
30
100
AcDbEntity
  8
1
100
AcDbLine
 10
63.665862848987
 20
1.25
 30
0.0
 11
63.581862848987
 21
1.25
 31
0.0
  0
LINE
  5
C9
330
30
100
AcDbEntity
  8
1
100
AcDbLine
 10
63.581862848987
 20
1.25
 30
0.0
 11
63.497862848987
 21
1.25
 31
0.0
  0
LINE
  5
CA
330
30
100
AcDbEntity
  8
1
100
AcDbLine
 10
63.497862848987
 20
1.25
 30
0.0
 11
63.413862848987
 21
1.25
 31
0.0
  0
LINE
  5
CB
330
30
100
AcDbEntity
  8
1
100
AcDbLine
 10
63.413862848987
 20
1.25
 30
0.0
 11
63.329862848987
 21
1.25
 31
0.0
  0
LINE
  5
CC
330
30
100
AcDbEntity
  8
1
100
AcDbLine
 10
63.329862848987
 20
1.25
 30
0.0
 11
63.245862848987
 21
1.25
 31
0.0
  0
LINE
  5
CD
330
30
100
AcDbEntity
  8
1
100
AcDbLine
 10
63.245862848987
 20
1.25
 30
0.0
 11
63.161862848987
 21
1.25
 31
0.0
  0
LINE
  5
CE
330
30
100
AcDbEntity
  8
1
100
AcDbLine
 10
63.161862848987
 20
1.25
 30
0.0
 11
63.077862848987
 21
1.246400696801
 31
0.0
  0
LINE
  5
CF
330
30
100
AcDbEntity
  8
1
100
AcDbLine
 10
63.077862848987
 20
1.246400696801
 30
0.0
 11
62.993862848987
 21
1.21921339135
 31
0.0
  0
LINE
  5
D0
330
30
100
AcDbEntity
  8
1
100
AcDbLine
 10
62.993862848987
 20
1.21921339135
 30
0.0
 11
62.909862848987
 21
1.192023327462
 31
0.0
  0
LINE
  5
D1
330
30
100
AcDbEntity
  8
1
100
AcDbLine
 10
62.909862848987
 20
1.192023327462
 30
0.0
 11
62.825862848987
 21
1.164830333299
 31
0.0
  0
LINE
  5
D2
330
30
100
AcDbEntity
  8
1
100
AcDbLine
 10
62.825862848987
 20
1.164830333299
 30
0.0
 11
62.741862848987
 21
1.137634222425
 31
0.0
  0
LINE
  5
D3
330
30
100
AcDbEntity
  8
1
100
AcDbLine
 10
62.741862848987
 20
1.137634222425
 30
0.0
 11
62.657862848987
 21
1.110434792223
 31
0.0
  0
LINE
  5
D4
330
30
100
AcDbEntity
  8
1
100
AcDbLine
 10
62.657862848987
 20
1.110434792223
 30
0.0
 11
62.573862848987
 21
1.083231822097
 31
0.0
  0
LINE
  5
D5
330
30
100
AcDbEntity
  8
1
100
AcDbLine
 10
62.573862848987
 20
1.083231822097
 30
0.0
 11
62.489862848987
 21
1.056025071424
 31
0.0
  0
LINE
  5
D6
330
30
100
AcDbEntity
  8
1
100
AcDbLine
 10
62.489862848987
 20
1.056025071424
 30
0.0
 11
62.405862848987
 21
1.028814277234
 31
0.0
  0
LINE
  5
D7
330
30
100
AcDbEntity
  8
1
100
AcDbLine
 10
62.405862848987
 20
1.028814277234
 30
0.0
 11
62.321862848987
 21
1.00159915154
 31
0.0
  0
LINE
  5
D8
330
30
100
AcDbEntity
  8
1
100
AcDbLine
 10
62.321862848987
 20
1.00159915154
 30
0.0
 11
62.237862848987
 21
0.974379378293
 31
0.0
  0
LINE
  5
D9
330
30
100
AcDbEntity
  8
1
100
AcDbLine
 10
62.237862848987
 20
0.974379378293
 30
0.0
 11
62.153862848987
 21
0.96954926713
 31
0.0
  0
LINE
  5
DA
330
30
100
AcDbEntity
  8
1
100
AcDbLine
 10
62.153862848987
 20
0.96954926713
 30
0.0
 11
62.069862848987
 21
0.96954926713
 31
0.0
  0
LINE
  5
DB
330
30
100
AcDbEntity
  8
1
100
AcDbLine
 10
62.069862848987
 20
0.96954926713
 30
0.0
 11
61.985862848987
 21
0.96954926713
 31
0.0
  0
LINE
  5
DC
330
30
100
AcDbEntity
  8
1
100
AcDbLine
 10
61.985862848987
 20
0.96954926713
 30
0.0
 11
61.901862848987
 21
0.96954926713
 31
0.0
  0
LINE
  5
DD
330
30
100
AcDbEntity
  8
1
100
AcDbLine
 10
61.901862848987
 20
0.96954926713
 30
0.0
 11
61.817862848987
 21
0.96954926713
 31
0.0
  0
LINE
  5
DE
330
30
100
AcDbEntity
  8
1
100
AcDbLine
 10
61.817862848987
 20
0.96954926713
 30
0.0
 11
61.733862848987
 21
0.96954926713
 31
0.0
  0
LINE
  5
DF
330
30
100
AcDbEntity
  8
1
100
AcDbLine
 10
61.733862848987
 20
0.96954926713
 30
0.0
 11
61.649862848987
 21
0.96954926713
 31
0.0
  0
LINE
  5
E0
330
30
100
AcDbEntity
  8
1
100
AcDbLine
 10
61.649862848987
 20
0.96954926713
 30
0.0
 11
61.565862848987
 21
0.96954926713
 31
0.0
  0
LINE
  5
E1
330
30
100
AcDbEntity
  8
1
100
AcDbLine
 10
61.565862848987
 20
0.96954926713
 30
0.0
 11
61.481862848987
 21
0.96954926713
 31
0.0
  0
LINE
  5
E2
330
30
100
AcDbEntity
  8
1
100
AcDbLine
 10
61.481862848987
 20
0.96954926713
 30
0.0
 11
61.397862848987
 21
0.96954926713
 31
0.0
  0
LINE
  5
E3
330
30
100
AcDbEntity
  8
1
100
AcDbLine
 10
61.397862848987
 20
0.96954926713
 30
0.0
 11
61.313862848987
 21
0.96954926713
 31
0.0
  0
LINE
  5
E4
330
30
100
AcDbEntity
  8
1
100
AcDbLine
 10
61.313862848987
 20
0.96954926713
 30
0.0
 11
61.229862848987
 21
0.96954926713
 31
0.0
  0
LINE
  5
E5
330
30
100
AcDbEntity
  8
1
100
AcDbLine
 10
61.229862848987
 20
0.96954926713
 30
0.0
 11
61.145862848987
 21
0.96954926713
 31
0.0
  0
LINE
  5
E6
330
30
100
AcDbEntity
  8
1
100
AcDbLine
 10
61.145862848987
 20
0.96954926713
 30
0.0
 11
61.061862848987
 21
0.96954926713
 31
0.0
  0
LINE
  5
E7
330
30
100
AcDbEntity
  8
1
100
AcDbLine
 10
61.061862848987
 20
0.96954926713
 30
0.0
 11
60.977862848987
 21
0.96954926713
 31
0.0
  0
LINE
  5
E8
330
30
100
AcDbEntity
  8
1
100
AcDbLine
 10
60.977862848987
 20
0.96954926713
 30
0.0
 11
60.893862848987
 21
0.96954926713
 31
0.0
  0
LINE
  5
E9
330
30
100
AcDbEntity
  8
1
100
AcDbLine
 10
60.893862848987
 20
0.96954926713
 30
0.0
 11
60.809862848987
 21
0.96954926713
 31
0.0
  0
LINE
  5
EA
330
30
100
AcDbEntity
  8
1
100
AcDbLine
 10
60.809862848987
 20
0.96954926713
 30
0.0
 11
60.725862848987
 21
0.96954926713
 31
0.0
  0
LINE
  5
EB
330
30
100
AcDbEntity
  8
1
100
AcDbLine
 10
60.725862848987
 20
0.96954926713
 30
0.0
 11
60.641862848987
 21
0.96954926713
 31
0.0
  0
LINE
  5
EC
330
30
100
AcDbEntity
  8
1
100
AcDbLine
 10
60.641862848987
 20
0.96954926713
 30
0.0
 11
60.557862848987
 21
0.96954926713
 31
0.0
  0
LINE
  5
ED
330
30
100
AcDbEntity
  8
1
100
AcDbLine
 10
60.557862848987
 20
0.96954926713
 30
0.0
 11
60.473862848987
 21
0.96954926713
 31
0.0
  0
LINE
  5
EE
330
30
100
AcDbEntity
  8
1
100
AcDbLine
 10
60.473862848987
 20
0.96954926713
 30
0.0
 11
60.389862848987
 21
0.96954926713
 31
0.0
  0
LINE
  5
EF
330
30
100
AcDbEntity
  8
1
100
AcDbLine
 10
60.389862848987
 20
0.96954926713
 30
0.0
 11
60.305862848987
 21
0.96954926713
 31
0.0
  0
LINE
  5
F0
330
30
100
AcDbEntity
  8
1
100
AcDbLine
 10
60.305862848987
 20
0.96954926713
 30
0.0
 11
60.221862848987
 21
0.96954926713
 31
0.0
  0
LINE
  5
F1
330
30
100
AcDbEntity
  8
1
100
AcDbLine
 10
60.221862848987
 20
0.96954926713
 30
0.0
 11
60.137862848987
 21
0.96954926713
 31
0.0
  0
LINE
  5
F2
330
30
100
AcDbEntity
  8
1
100
AcDbLine
 10
60.137862848987
 20
0.96954926713
 30
0.0
 11
60.053862848987
 21
0.96954926713
 31
0.0
  0
LINE
  5
F3
330
30
100
AcDbEntity
  8
1
100
AcDbLine
 10
60.053862848987
 20
0.96954926713
 30
0.0
 11
59.969862848987
 21
0.96954926713
 31
0.0
  0
LINE
  5
F4
330
30
100
AcDbEntity
  8
1
100
AcDbLine
 10
59.969862848987
 20
0.96954926713
 30
0.0
 11
59.885862848987
 21
0.96954926713
 31
0.0
  0
LINE
  5
F5
330
30
100
AcDbEntity
  8
1
100
AcDbLine
 10
59.885862848987
 20
0.96954926713
 30
0.0
 11
59.801862848987
 21
0.96954926713
 31
0.0
  0
LINE
  5
F6
330
30
100
AcDbEntity
  8
1
100
AcDbLine
 10
59.801862848987
 20
0.96954926713
 30
0.0
 11
59.717862848987
 21
0.96954926713
 31
0.0
  0
LINE
  5
F7
330
30
100
AcDbEntity
  8
1
100
AcDbLine
 10
59.717862848987
 20
0.96954926713
 30
0.0
 11
59.633862848987
 21
0.96954926713
 31
0.0
  0
LINE
  5
F8
330
30
100
AcDbEntity
  8
1
100
AcDbLine
 10
59.633862848987
 20
0.96954926713
 30
0.0
 11
59.549862848987
 21
0.96954926713
 31
0.0
  0
LINE
  5
F9
330
30
100
AcDbEntity
  8
1
100
AcDbLine
 10
59.549862848987
 20
0.96954926713
 30
0.0
 11
59.465862848987
 21
0.96954926713
 31
0.0
  0
LINE
  5
FA
330
30
100
AcDbEntity
  8
1
100
AcDbLine
 10
59.465862848987
 20
0.96954926713
 30
0.0
 11
59.381862848987
 21
0.96954926713
 31
0.0
  0
LINE
  5
FB
330
30
100
AcDbEntity
  8
1
100
AcDbLine
 10
59.381862848987
 20
0.96954926713
 30
0.0
 11
59.297862848987
 21
0.96954926713
 31
0.0
  0
LINE
  5
FC
330
30
100
AcDbEntity
  8
1
100
AcDbLine
 10
59.297862848987
 20
0.96954926713
 30
0.0
 11
59.213862848987
 21
0.96954926713
 31
0.0
  0
LINE
  5
FD
330
30
100
AcDbEntity
  8
1
100
AcDbLine
 10
59.213862848987
 20
0.96954926713
 30
0.0
 11
59.129862848987
 21
0.96954926713
 31
0.0
  0
LINE
  5
FE
330
30
100
AcDbEntity
  8
1
100
AcDbLine
 10
59.129862848987
 20
0.96954926713
 30
0.0
 11
59.045862848987
 21
0.96954926713
 31
0.0
  0
LINE
  5
FF
330
30
100
AcDbEntity
  8
1
100
AcDbLine
 10
59.045862848987
 20
0.96954926713
 30
0.0
 11
58.961862848987
 21
0.96954926713
 31
0.0
  0
LINE
  5
100
330
30
100
AcDbEntity
  8
1
100
AcDbLine
 10
58.961862848987
 20
0.96954926713
 30
0.0
 11
58.877862848987
 21
0.96954926713
 31
0.0
  0
LINE
  5
101
330
30
100
AcDbEntity
  8
1
100
AcDbLine
 10
58.877862848987
 20
0.96954926713
 30
0.0
 11
58.793862848987
 21
0.96954926713
 31
0.0
  0
LINE
  5
102
330
30
100
AcDbEntity
  8
1
100
AcDbLine
 10
58.793862848987
 20
0.96954926713
 30
0.0
 11
58.709862848987
 21
0.96954926713
 31
0.0
  0
LINE
  5
103
330
30
100
AcDbEntity
  8
1
100
AcDbLine
 10
58.709862848987
 20
0.96954926713
 30
0.0
 11
58.625862848987
 21
0.96954926713
 31
0.0
  0
LINE
  5
104
330
30
100
AcDbEntity
  8
1
100
AcDbLine
 10
58.625862848987
 20
0.96954926713
 30
0.0
 11
58.541862848987
 21
0.96954926713
 31
0.0
  0
LINE
  5
105
330
30
100
AcDbEntity
  8
1
100
AcDbLine
 10
58.541862848987
 20
0.96954926713
 30
0.0
 11
58.457862848987
 21
0.96954926713
 31
0.0
  0
LINE
  5
106
330
30
100
AcDbEntity
  8
1
100
AcDbLine
 10
58.457862848987
 20
0.96954926713
 30
0.0
 11
58.373862848987
 21
0.96954926713
 31
0.0
  0
LINE
  5
107
330
30
100
AcDbEntity
  8
1
100
AcDbLine
 10
58.373862848987
 20
0.96954926713
 30
0.0
 11
58.289862848987
 21
0.96954926713
 31
0.0
  0
LINE
  5
108
330
30
100
AcDbEntity
  8
1
100
AcDbLine
 10
58.289862848987
 20
0.96954926713
 30
0.0
 11
58.205862848987
 21
0.96954926713
 31
0.0
  0
LINE
  5
109
330
30
100
AcDbEntity
  8
1
100
AcDbLine
 10
58.205862848987
 20
0.96954926713
 30
0.0
 11
58.121862848987
 21
0.96954926713
 31
0.0
  0
LINE
  5
10A
330
30
100
AcDbEntity
  8
1
100
AcDbLine
 10
58.121862848987
 20
0.96954926713
 30
0.0
 11
58.037862848987
 21
0.96954926713
 31
0.0
  0
LINE
  5
10B
330
30
100
AcDbEntity
  8
1
100
AcDbLine
 10
58.037862848987
 20
0.96954926713
 30
0.0
 11
57.953862848987
 21
0.96954926713
 31
0.0
  0
LINE
  5
10C
330
30
100
AcDbEntity
  8
1
100
AcDbLine
 10
57.953862848987
 20
0.96954926713
 30
0.0
 11
57.869862848987
 21
0.96954926713
 31
0.0
  0
LINE
  5
10D
330
30
100
AcDbEntity
  8
1
100
AcDbLine
 10
57.869862848987
 20
0.96954926713
 30
0.0
 11
57.785862848987
 21
0.96954926713
 31
0.0
  0
LINE
  5
10E
330
30
100
AcDbEntity
  8
1
100
AcDbLine
 10
57.785862848987
 20
0.96954926713
 30
0.0
 11
57.701862848987
 21
0.96954926713
 31
0.0
  0
LINE
  5
10F
330
30
100
AcDbEntity
  8
1
100
AcDbLine
 10
57.701862848987
 20
0.96954926713
 30
0.0
 11
57.617862848987
 21
0.96954926713
 31
0.0
  0
LINE
  5
110
330
30
100
AcDbEntity
  8
1
100
AcDbLine
 10
57.617862848987
 20
0.96954926713
 30
0.0
 11
57.533862848987
 21
0.96954926713
 31
0.0
  0
LINE
  5
111
330
30
100
AcDbEntity
  8
1
100
AcDbLine
 10
57.533862848987
 20
0.96954926713
 30
0.0
 11
57.449862848987
 21
0.96954926713
 31
0.0
  0
LINE
  5
112
330
30
100
AcDbEntity
  8
1
100
AcDbLine
 10
57.449862848987
 20
0.96954926713
 30
0.0
 11
57.365862848987
 21
0.96954926713
 31
0.0
  0
LINE
  5
113
330
30
100
AcDbEntity
  8
1
100
AcDbLine
 10
57.365862848987
 20
0.96954926713
 30
0.0
 11
57.281862848987
 21
0.96954926713
 31
0.0
  0
LINE
  5
114
330
30
100
AcDbEntity
  8
1
100
AcDbLine
 10
57.281862848987
 20
0.96954926713
 30
0.0
 11
57.197862848987
 21
0.96954926713
 31
0.0
  0
LINE
  5
115
330
30
100
AcDbEntity
  8
1
100
AcDbLine
 10
57.197862848987
 20
0.96954926713
 30
0.0
 11
57.113862848987
 21
0.96954926713
 31
0.0
  0
LINE
  5
116
330
30
100
AcDbEntity
  8
1
100
AcDbLine
 10
57.113862848987
 20
0.96954926713
 30
0.0
 11
57.029862848987
 21
0.96954926713
 31
0.0
  0
LINE
  5
117
330
30
100
AcDbEntity
  8
1
100
AcDbLine
 10
57.029862848987
 20
0.96954926713
 30
0.0
 11
56.945862848987
 21
0.96954926713
 31
0.0
  0
LINE
  5
118
330
30
100
AcDbEntity
  8
1
100
AcDbLine
 10
56.945862848987
 20
0.96954926713
 30
0.0
 11
56.861862848987
 21
0.96954926713
 31
0.0
  0
LINE
  5
119
330
30
100
AcDbEntity
  8
1
100
AcDbLine
 10
56.861862848987
 20
0.96954926713
 30
0.0
 11
56.777862848987
 21
0.96954926713
 31
0.0
  0
LINE
  5
11A
330
30
100
AcDbEntity
  8
1
100
AcDbLine
 10
56.777862848987
 20
0.96954926713
 30
0.0
 11
56.693862848987
 21
0.96954926713
 31
0.0
  0
LINE
  5
11B
330
30
100
AcDbEntity
  8
1
100
AcDbLine
 10
56.693862848987
 20
0.96954926713
 30
0.0
 11
56.609862848987
 21
0.96954926713
 31
0.0
  0
LINE
  5
11C
330
30
100
AcDbEntity
  8
1
100
AcDbLine
 10
56.609862848987
 20
0.96954926713
 30
0.0
 11
56.525862848987
 21
0.96954926713
 31
0.0
  0
LINE
  5
11D
330
30
100
AcDbEntity
  8
1
100
AcDbLine
 10
56.525862848987
 20
0.96954926713
 30
0.0
 11
56.441862848987
 21
0.96954926713
 31
0.0
  0
LINE
  5
11E
330
30
100
AcDbEntity
  8
1
100
AcDbLine
 10
56.441862848987
 20
0.96954926713
 30
0.0
 11
56.357862848987
 21
0.96954926713
 31
0.0
  0
LINE
  5
11F
330
30
100
AcDbEntity
  8
1
100
AcDbLine
 10
56.357862848987
 20
0.96954926713
 30
0.0
 11
56.273862848987
 21
0.96954926713
 31
0.0
  0
LINE
  5
120
330
30
100
AcDbEntity
  8
1
100
AcDbLine
 10
56.273862848987
 20
0.96954926713
 30
0.0
 11
56.189862848987
 21
0.96954926713
 31
0.0
  0
LINE
  5
121
330
30
100
AcDbEntity
  8
1
100
AcDbLine
 10
56.189862848987
 20
0.96954926713
 30
0.0
 11
56.105862848987
 21
0.96954926713
 31
0.0
  0
LINE
  5
122
330
30
100
AcDbEntity
  8
1
100
AcDbLine
 10
56.105862848987
 20
0.96954926713
 30
0.0
 11
56.021862848987
 21
0.96954926713
 31
0.0
  0
LINE
  5
123
330
30
100
AcDbEntity
  8
1
100
AcDbLine
 10
56.021862848987
 20
0.96954926713
 30
0.0
 11
55.937862848987
 21
0.96954926713
 31
0.0
  0
LINE
  5
124
330
30
100
AcDbEntity
  8
1
100
AcDbLine
 10
55.937862848987
 20
0.96954926713
 30
0.0
 11
55.853862848987
 21
0.96954926713
 31
0.0
  0
LINE
  5
125
330
30
100
AcDbEntity
  8
1
100
AcDbLine
 10
55.853862848987
 20
0.96954926713
 30
0.0
 11
55.769862848987
 21
0.96954926713
 31
0.0
  0
LINE
  5
126
330
30
100
AcDbEntity
  8
1
100
AcDbLine
 10
55.769862848987
 20
0.96954926713
 30
0.0
 11
55.685862848987
 21
0.96954926713
 31
0.0
  0
LINE
  5
127
330
30
100
AcDbEntity
  8
1
100
AcDbLine
 10
55.685862848987
 20
0.96954926713
 30
0.0
 11
55.601862848987
 21
0.96954926713
 31
0.0
  0
LINE
  5
128
330
30
100
AcDbEntity
  8
1
100
AcDbLine
 10
55.601862848987
 20
0.96954926713
 30
0.0
 11
55.517862848987
 21
0.96954926713
 31
0.0
  0
LINE
  5
129
330
30
100
AcDbEntity
  8
1
100
AcDbLine
 10
55.517862848987
 20
0.96954926713
 30
0.0
 11
55.433862848987
 21
0.96954926713
 31
0.0
  0
LINE
  5
12A
330
30
100
AcDbEntity
  8
1
100
AcDbLine
 10
55.433862848987
 20
0.96954926713
 30
0.0
 11
55.349862848987
 21
0.96954926713
 31
0.0
  0
LINE
  5
12B
330
30
100
AcDbEntity
  8
1
100
AcDbLine
 10
55.349862848987
 20
0.96954926713
 30
0.0
 11
55.265862848987
 21
0.96954926713
 31
0.0
  0
LINE
  5
12C
330
30
100
AcDbEntity
  8
1
100
AcDbLine
 10
55.265862848987
 20
0.96954926713
 30
0.0
 11
55.181862848987
 21
0.96954926713
 31
0.0
  0
LINE
  5
12D
330
30
100
AcDbEntity
  8
1
100
AcDbLine
 10
55.181862848987
 20
0.96954926713
 30
0.0
 11
55.097862848987
 21
0.96954926713
 31
0.0
  0
LINE
  5
12E
330
30
100
AcDbEntity
  8
1
100
AcDbLine
 10
55.097862848987
 20
0.96954926713
 30
0.0
 11
55.013862848987
 21
0.96954926713
 31
0.0
  0
LINE
  5
12F
330
30
100
AcDbEntity
  8
1
100
AcDbLine
 10
55.013862848987
 20
0.96954926713
 30
0.0
 11
54.929862848987
 21
0.96954926713
 31
0.0
  0
LINE
  5
130
330
30
100
AcDbEntity
  8
1
100
AcDbLine
 10
54.929862848987
 20
0.96954926713
 30
0.0
 11
54.845862848987
 21
0.96954926713
 31
0.0
  0
LINE
  5
131
330
30
100
AcDbEntity
  8
1
100
AcDbLine
 10
54.845862848987
 20
0.96954926713
 30
0.0
 11
54.761862848987
 21
0.96954926713
 31
0.0
  0
LINE
  5
132
330
30
100
AcDbEntity
  8
1
100
AcDbLine
 10
54.761862848987
 20
0.96954926713
 30
0.0
 11
54.677862848987
 21
0.96954926713
 31
0.0
  0
LINE
  5
133
330
30
100
AcDbEntity
  8
1
100
AcDbLine
 10
54.677862848987
 20
0.96954926713
 30
0.0
 11
54.593862848987
 21
0.96954926713
 31
0.0
  0
LINE
  5
134
330
30
100
AcDbEntity
  8
1
100
AcDbLine
 10
54.593862848987
 20
0.96954926713
 30
0.0
 11
54.509862848987
 21
0.96954926713
 31
0.0
  0
LINE
  5
135
330
30
100
AcDbEntity
  8
1
100
AcDbLine
 10
54.509862848987
 20
0.96954926713
 30
0.0
 11
54.425862848987
 21
0.96954926713
 31
0.0
  0
LINE
  5
136
330
30
100
AcDbEntity
  8
1
100
AcDbLine
 10
54.425862848987
 20
0.96954926713
 30
0.0
 11
54.341862848987
 21
0.96954926713
 31
0.0
  0
LINE
  5
137
330
30
100
AcDbEntity
  8
1
100
AcDbLine
 10
54.341862848987
 20
0.96954926713
 30
0.0
 11
54.257862848987
 21
0.96954926713
 31
0.0
  0
LINE
  5
138
330
30
100
AcDbEntity
  8
1
100
AcDbLine
 10
54.257862848987
 20
0.96954926713
 30
0.0
 11
54.173862848987
 21
0.96954926713
 31
0.0
  0
LINE
  5
139
330
30
100
AcDbEntity
  8
1
100
AcDbLine
 10
54.173862848987
 20
0.96954926713
 30
0.0
 11
54.089862848987
 21
0.96954926713
 31
0.0
  0
LINE
  5
13A
330
30
100
AcDbEntity
  8
1
100
AcDbLine
 10
54.089862848987
 20
0.96954926713
 30
0.0
 11
54.005862848987
 21
0.96954926713
 31
0.0
  0
LINE
  5
13B
330
30
100
AcDbEntity
  8
1
100
AcDbLine
 10
54.005862848987
 20
0.96954926713
 30
0.0
 11
53.921862848987
 21
0.96954926713
 31
0.0
  0
LINE
  5
13C
330
30
100
AcDbEntity
  8
1
100
AcDbLine
 10
53.921862848987
 20
0.96954926713
 30
0.0
 11
53.837862848987
 21
0.96954926713
 31
0.0
  0
LINE
  5
13D
330
30
100
AcDbEntity
  8
1
100
AcDbLine
 10
53.837862848987
 20
0.96954926713
 30
0.0
 11
53.753862848987
 21
0.96954926713
 31
0.0
  0
LINE
  5
13E
330
30
100
AcDbEntity
  8
1
100
AcDbLine
 10
53.753862848987
 20
0.96954926713
 30
0.0
 11
53.669862848987
 21
0.96954926713
 31
0.0
  0
LINE
  5
13F
330
30
100
AcDbEntity
  8
1
100
AcDbLine
 10
53.669862848987
 20
0.96954926713
 30
0.0
 11
53.585862848987
 21
0.96954926713
 31
0.0
  0
LINE
  5
140
330
30
100
AcDbEntity
  8
1
100
AcDbLine
 10
53.585862848987
 20
0.96954926713
 30
0.0
 11
53.501862848987
 21
0.96954926713
 31
0.0
  0
LINE
  5
141
330
30
100
AcDbEntity
  8
1
100
AcDbLine
 10
53.501862848987
 20
0.96954926713
 30
0.0
 11
53.417862848987
 21
0.96954926713
 31
0.0
  0
LINE
  5
142
330
30
100
AcDbEntity
  8
1
100
AcDbLine
 10
53.417862848987
 20
0.96954926713
 30
0.0
 11
53.333862848987
 21
0.96954926713
 31
0.0
  0
LINE
  5
143
330
30
100
AcDbEntity
  8
1
100
AcDbLine
 10
53.333862848987
 20
0.96954926713
 30
0.0
 11
53.249862848987
 21
0.96954926713
 31
0.0
  0
LINE
  5
144
330
30
100
AcDbEntity
  8
1
100
AcDbLine
 10
53.249862848987
 20
0.96954926713
 30
0.0
 11
53.165862848987
 21
0.96954926713
 31
0.0
  0
LINE
  5
145
330
30
100
AcDbEntity
  8
1
100
AcDbLine
 10
53.165862848987
 20
0.96954926713
 30
0.0
 11
53.081862848987
 21
0.96954926713
 31
0.0
  0
LINE
  5
146
330
30
100
AcDbEntity
  8
1
100
AcDbLine
 10
53.081862848987
 20
0.96954926713
 30
0.0
 11
52.997862848987
 21
0.96954926713
 31
0.0
  0
LINE
  5
147
330
30
100
AcDbEntity
  8
1
100
AcDbLine
 10
52.997862848987
 20
0.96954926713
 30
0.0
 11
52.913862848987
 21
0.96954926713
 31
0.0
  0
LINE
  5
148
330
30
100
AcDbEntity
  8
1
100
AcDbLine
 10
52.913862848987
 20
0.96954926713
 30
0.0
 11
52.829862848987
 21
0.96954926713
 31
0.0
  0
LINE
  5
149
330
30
100
AcDbEntity
  8
1
100
AcDbLine
 10
52.829862848987
 20
0.96954926713
 30
0.0
 11
52.745862848987
 21
0.96954926713
 31
0.0
  0
LINE
  5
14A
330
30
100
AcDbEntity
  8
1
100
AcDbLine
 10
52.745862848987
 20
0.96954926713
 30
0.0
 11
52.661862848987
 21
0.96954926713
 31
0.0
  0
LINE
  5
14B
330
30
100
AcDbEntity
  8
1
100
AcDbLine
 10
52.661862848987
 20
0.96954926713
 30
0.0
 11
52.577862848987
 21
0.96954926713
 31
0.0
  0
LINE
  5
14C
330
30
100
AcDbEntity
  8
1
100
AcDbLine
 10
52.577862848987
 20
0.96954926713
 30
0.0
 11
52.493862848987
 21
0.96954926713
 31
0.0
  0
LINE
  5
14D
330
30
100
AcDbEntity
  8
1
100
AcDbLine
 10
52.493862848987
 20
0.96954926713
 30
0.0
 11
52.409862848987
 21
0.96954926713
 31
0.0
  0
LINE
  5
14E
330
30
100
AcDbEntity
  8
1
100
AcDbLine
 10
52.409862848987
 20
0.96954926713
 30
0.0
 11
52.325862848987
 21
0.96954926713
 31
0.0
  0
LINE
  5
14F
330
30
100
AcDbEntity
  8
1
100
AcDbLine
 10
52.325862848987
 20
0.96954926713
 30
0.0
 11
52.241862848987
 21
0.96954926713
 31
0.0
  0
LINE
  5
150
330
30
100
AcDbEntity
  8
1
100
AcDbLine
 10
52.241862848987
 20
0.96954926713
 30
0.0
 11
52.157862848987
 21
0.96954926713
 31
0.0
  0
LINE
  5
151
330
30
100
AcDbEntity
  8
1
100
AcDbLine
 10
52.157862848987
 20
0.96954926713
 30
0.0
 11
52.073862848987
 21
0.96954926713
 31
0.0
  0
LINE
  5
152
330
30
100
AcDbEntity
  8
1
100
AcDbLine
 10
52.073862848987
 20
0.96954926713
 30
0.0
 11
51.989862848987
 21
0.96954926713
 31
0.0
  0
LINE
  5
153
330
30
100
AcDbEntity
  8
1
100
AcDbLine
 10
51.989862848987
 20
0.96954926713
 30
0.0
 11
51.905862848987
 21
0.96954926713
 31
0.0
  0
LINE
  5
154
330
30
100
AcDbEntity
  8
1
100
AcDbLine
 10
51.905862848987
 20
0.96954926713
 30
0.0
 11
51.821862848987
 21
0.96954926713
 31
0.0
  0
LINE
  5
155
330
30
100
AcDbEntity
  8
1
100
AcDbLine
 10
51.821862848987
 20
0.96954926713
 30
0.0
 11
51.737862848987
 21
0.96954926713
 31
0.0
  0
LINE
  5
156
330
30
100
AcDbEntity
  8
1
100
AcDbLine
 10
51.737862848987
 20
0.96954926713
 30
0.0
 11
51.653862848987
 21
0.96954926713
 31
0.0
  0
LINE
  5
157
330
30
100
AcDbEntity
  8
1
100
AcDbLine
 10
51.653862848987
 20
0.96954926713
 30
0.0
 11
51.569862848987
 21
0.96954926713
 31
0.0
  0
LINE
  5
158
330
30
100
AcDbEntity
  8
1
100
AcDbLine
 10
51.569862848987
 20
0.96954926713
 30
0.0
 11
51.485862848987
 21
0.96954926713
 31
0.0
  0
LINE
  5
159
330
30
100
AcDbEntity
  8
1
100
AcDbLine
 10
51.485862848987
 20
0.96954926713
 30
0.0
 11
51.401862848987
 21
0.96954926713
 31
0.0
  0
LINE
  5
15A
330
30
100
AcDbEntity
  8
1
100
AcDbLine
 10
51.401862848987
 20
0.96954926713
 30
0.0
 11
51.317862848987
 21
0.96954926713
 31
0.0
  0
LINE
  5
15B
330
30
100
AcDbEntity
  8
1
100
AcDbLine
 10
51.317862848987
 20
0.96954926713
 30
0.0
 11
51.233862848987
 21
0.96954926713
 31
0.0
  0
LINE
  5
15C
330
30
100
AcDbEntity
  8
1
100
AcDbLine
 10
51.233862848987
 20
0.96954926713
 30
0.0
 11
51.149862848987
 21
0.96954926713
 31
0.0
  0
LINE
  5
15D
330
30
100
AcDbEntity
  8
1
100
AcDbLine
 10
51.149862848987
 20
0.96954926713
 30
0.0
 11
51.065862848987
 21
0.96954926713
 31
0.0
  0
LINE
  5
15E
330
30
100
AcDbEntity
  8
1
100
AcDbLine
 10
51.065862848987
 20
0.96954926713
 30
0.0
 11
50.981862848987
 21
0.96954926713
 31
0.0
  0
LINE
  5
15F
330
30
100
AcDbEntity
  8
1
100
AcDbLine
 10
50.981862848987
 20
0.96954926713
 30
0.0
 11
50.897862848987
 21
0.96954926713
 31
0.0
  0
LINE
  5
160
330
30
100
AcDbEntity
  8
1
100
AcDbLine
 10
50.897862848987
 20
0.96954926713
 30
0.0
 11
50.813862848987
 21
0.96954926713
 31
0.0
  0
LINE
  5
161
330
30
100
AcDbEntity
  8
1
100
AcDbLine
 10
50.813862848987
 20
0.96954926713
 30
0.0
 11
50.729862848987
 21
0.96954926713
 31
0.0
  0
LINE
  5
162
330
30
100
AcDbEntity
  8
1
100
AcDbLine
 10
50.729862848987
 20
0.96954926713
 30
0.0
 11
50.645862848987
 21
0.96954926713
 31
0.0
  0
LINE
  5
163
330
30
100
AcDbEntity
  8
1
100
AcDbLine
 10
50.645862848987
 20
0.96954926713
 30
0.0
 11
50.561862848987
 21
0.96954926713
 31
0.0
  0
LINE
  5
164
330
30
100
AcDbEntity
  8
1
100
AcDbLine
 10
50.561862848987
 20
0.96954926713
 30
0.0
 11
50.477862848987
 21
0.96954926713
 31
0.0
  0
LINE
  5
165
330
30
100
AcDbEntity
  8
1
100
AcDbLine
 10
50.477862848987
 20
0.96954926713
 30
0.0
 11
50.393862848987
 21
0.96954926713
 31
0.0
  0
LINE
  5
166
330
30
100
AcDbEntity
  8
1
100
AcDbLine
 10
50.393862848987
 20
0.96954926713
 30
0.0
 11
50.309862848987
 21
0.96954926713
 31
0.0
  0
LINE
  5
167
330
30
100
AcDbEntity
  8
1
100
AcDbLine
 10
50.309862848987
 20
0.96954926713
 30
0.0
 11
50.225862848987
 21
0.96954926713
 31
0.0
  0
LINE
  5
168
330
30
100
AcDbEntity
  8
1
100
AcDbLine
 10
50.225862848987
 20
0.96954926713
 30
0.0
 11
50.141862848987
 21
0.96954926713
 31
0.0
  0
LINE
  5
169
330
30
100
AcDbEntity
  8
1
100
AcDbLine
 10
50.141862848987
 20
0.96954926713
 30
0.0
 11
50.057862848987
 21
0.96954926713
 31
0.0
  0
LINE
  5
16A
330
30
100
AcDbEntity
  8
1
100
AcDbLine
 10
50.057862848987
 20
0.96954926713
 30
0.0
 11
49.973862848987
 21
0.96954926713
 31
0.0
  0
LINE
  5
16B
330
30
100
AcDbEntity
  8
1
100
AcDbLine
 10
49.973862848987
 20
0.96954926713
 30
0.0
 11
49.889862848987
 21
0.96954926713
 31
0.0
  0
LINE
  5
16C
330
30
100
AcDbEntity
  8
1
100
AcDbLine
 10
49.889862848987
 20
0.96954926713
 30
0.0
 11
49.973862848987
 21
0.867385417175
 31
0.0
  0
LINE
  5
16D
330
30
100
AcDbEntity
  8
1
100
AcDbLine
 10
49.973862848987
 20
0.867385417175
 30
0.0
 11
50.057862848987
 21
0.767982752355
 31
0.0
  0
LINE
  5
16E
330
30
100
AcDbEntity
  8
1
100
AcDbLine
 10
50.057862848987
 20
0.767982752355
 30
0.0
 11
50.141862848987
 21
0.671341272668
 31
0.0
  0
LINE
  5
16F
330
30
100
AcDbEntity
  8
1
100
AcDbLine
 10
50.141862848987
 20
0.671341272668
 30
0.0
 11
50.225862848987
 21
0.577460978115
 31
0.0
  0
LINE
  5
170
330
30
100
AcDbEntity
  8
1
100
AcDbLine
 10
50.225862848987
 20
0.577460978115
 30
0.0
 11
50.309862848987
 21
0.486341868696
 31
0.0
  0
LINE
  5
171
330
30
100
AcDbEntity
  8
1
100
AcDbLine
 10
50.309862848987
 20
0.486341868696
 30
0.0
 11
50.393862848987
 21
0.397983944411
 31
0.0
  0
LINE
  5
172
330
30
100
AcDbEntity
  8
1
100
AcDbLine
 10
50.393862848987
 20
0.397983944411
 30
0.0
 11
50.477862848987
 21
0.31238720526
 31
0.0
  0
LINE
  5
173
330
30
100
AcDbEntity
  8
1
100
AcDbLine
 10
50.477862848987
 20
0.31238720526
 30
0.0
 11
50.561862848987
 21
0.229551651243
 31
0.0
  0
LINE
  5
174
330
30
100
AcDbEntity
  8
1
100
AcDbLine
 10
50.561862848987
 20
0.229551651243
 30
0.0
 11
50.645862848987
 21
0.14947728236
 31
0.0
  0
LINE
  5
175
330
30
100
AcDbEntity
  8
1
100
AcDbLine
 10
50.645862848987
 20
0.14947728236
 30
0.0
 11
50.729862848987
 21
0.07216409861
 31
0.0
  0
LINE
  5
176
330
30
100
AcDbEntity
  8
1
100
AcDbLine
 10
50.729862848987
 20
0.07216409861
 30
0.0
 11
50.813862848987
 21
-0.002387900005
 31
0.0
  0
LINE
  5
177
330
30
100
AcDbEntity
  8
1
100
AcDbLine
 10
50.813862848987
 20
-0.002387900005
 30
0.0
 11
50.897862848987
 21
-0.074178713487
 31
0.0
  0
LINE
  5
178
330
30
100
AcDbEntity
  8
1
100
AcDbLine
 10
50.897862848987
 20
-0.074178713487
 30
0.0
 11
50.981862848987
 21
-0.143208341835
 31
0.0
  0
LINE
  5
179
330
30
100
AcDbEntity
  8
1
100
AcDbLine
 10
50.981862848987
 20
-0.143208341835
 30
0.0
 11
51.065862848987
 21
-0.209476785048
 31
0.0
  0
LINE
  5
17A
330
30
100
AcDbEntity
  8
1
100
AcDbLine
 10
51.065862848987
 20
-0.209476785048
 30
0.0
 11
51.149862848987
 21
-0.272984043128
 31
0.0
  0
LINE
  5
17B
330
30
100
AcDbEntity
  8
1
100
AcDbLine
 10
51.149862848987
 20
-0.272984043128
 30
0.0
 11
51.233862848987
 21
-0.333730116074
 31
0.0
  0
LINE
  5
17C
330
30
100
AcDbEntity
  8
1
100
AcDbLine
 10
51.233862848987
 20
-0.333730116074
 30
0.0
 11
51.317862848987
 21
-0.391715003886
 31
0.0
  0
LINE
  5
17D
330
30
100
AcDbEntity
  8
1
100
AcDbLine
 10
51.317862848987
 20
-0.391715003886
 30
0.0
 11
51.401862848987
 21
-0.446938706564
 31
0.0
  0
LINE
  5
17E
330
30
100
AcDbEntity
  8
1
100
AcDbLine
 10
51.401862848987
 20
-0.446938706564
 30
0.0
 11
51.485862848987
 21
-0.499401224109
 31
0.0
  0
LINE
  5
17F
330
30
100
AcDbEntity
  8
1
100
AcDbLine
 10
51.485862848987
 20
-0.499401224109
 30
0.0
 11
51.569862848987
 21
-0.549102556519
 31
0.0
  0
LINE
  5
180
330
30
100
AcDbEntity
  8
1
100
AcDbLine
 10
51.569862848987
 20
-0.549102556519
 30
0.0
 11
51.653862848987
 21
-0.596042703795
 31
0.0
  0
LINE
  5
181
330
30
100
AcDbEntity
  8
1
100
AcDbLine
 10
51.653862848987
 20
-0.596042703795
 30
0.0
 11
51.737862848987
 21
-0.640221665938
 31
0.0
  0
LINE
  5
182
330
30
100
AcDbEntity
  8
1
100
AcDbLine
 10
51.737862848987
 20
-0.640221665938
 30
0.0
 11
51.821862848987
 21
-0.681639442947
 31
0.0
  0
LINE
  5
183
330
30
100
AcDbEntity
  8
1
100
AcDbLine
 10
51.821862848987
 20
-0.681639442947
 30
0.0
 11
51.905862848987
 21
-0.720296034821
 31
0.0
  0
LINE
  5
184
330
30
100
AcDbEntity
  8
1
100
AcDbLine
 10
51.905862848987
 20
-0.720296034821
 30
0.0
 11
51.989862848987
 21
-0.756191441562
 31
0.0
  0
LINE
  5
185
330
30
100
AcDbEntity
  8
1
100
AcDbLine
 10
51.989862848987
 20
-0.756191441562
 30
0.0
 11
52.073862848987
 21
-0.789325663169
 31
0.0
  0
LINE
  5
186
330
30
100
AcDbEntity
  8
1
100
AcDbLine
 10
52.073862848987
 20
-0.789325663169
 30
0.0
 11
52.157862848987
 21
-0.819698699642
 31
0.0
  0
LINE
  5
187
330
30
100
AcDbEntity
  8
1
100
AcDbLine
 10
52.157862848987
 20
-0.819698699642
 30
0.0
 11
52.241862848987
 21
-0.847310550981
 31
0.0
  0
LINE
  5
188
330
30
100
AcDbEntity
  8
1
100
AcDbLine
 10
52.241862848987
 20
-0.847310550981
 30
0.0
 11
52.325862848987
 21
-0.872161217186
 31
0.0
  0
LINE
  5
189
330
30
100
AcDbEntity
  8
1
100
AcDbLine
 10
52.325862848987
 20
-0.872161217186
 30
0.0
 11
52.409862848987
 21
-0.894250698257
 31
0.0
  0
LINE
  5
18A
330
30
100
AcDbEntity
  8
1
100
AcDbLine
 10
52.409862848987
 20
-0.894250698257
 30
0.0
 11
52.493862848987
 21
-0.913578994195
 31
0.0
  0
LINE
  5
18B
330
30
100
AcDbEntity
  8
1
100
AcDbLine
 10
52.493862848987
 20
-0.913578994195
 30
0.0
 11
52.577862848987
 21
-0.930146104998
 31
0.0
  0
LINE
  5
18C
330
30
100
AcDbEntity
  8
1
100
AcDbLine
 10
52.577862848987
 20
-0.930146104998
 30
0.0
 11
52.661862848987
 21
-0.943952030668
 31
0.0
  0
LINE
  5
18D
330
30
100
AcDbEntity
  8
1
100
AcDbLine
 10
52.661862848987
 20
-0.943952030668
 30
0.0
 11
52.745862848987
 21
-0.954996771203
 31
0.0
  0
LINE
  5
18E
330
30
100
AcDbEntity
  8
1
100
AcDbLine
 10
52.745862848987
 20
-0.954996771203
 30
0.0
 11
52.829862848987
 21
-0.963280326605
 31
0.0
  0
LINE
  5
18F
330
30
100
AcDbEntity
  8
1
100
AcDbLine
 10
52.829862848987
 20
-0.963280326605
 30
0.0
 11
52.913862848987
 21
-0.968802696873
 31
0.0
  0
LINE
  5
190
330
30
100
AcDbEntity
  8
1
100
AcDbLine
 10
52.913862848987
 20
-0.968802696873
 30
0.0
 11
52.997862848987
 21
-0.971563882007
 31
0.0
  0
LINE
  5
191
330
30
100
AcDbEntity
  8
1
100
AcDbLine
 10
52.997862848987
 20
-0.971563882007
 30
0.0
 11
53.081862848987
 21
-0.971909030149
 31
0.0
  0
LINE
  5
192
330
30
100
AcDbEntity
  8
1
100
AcDbLine
 10
53.081862848987
 20
-0.971909030149
 30
0.0
 11
53.165862848987
 21
-0.971909030149
 31
0.0
  0
LINE
  5
193
330
30
100
AcDbEntity
  8
1
100
AcDbLine
 10
53.165862848987
 20
-0.971909030149
 30
0.0
 11
53.249862848987
 21
-0.971909030149
 31
0.0
  0
LINE
  5
194
330
30
100
AcDbEntity
  8
1
100
AcDbLine
 10
53.249862848987
 20
-0.971909030149
 30
0.0
 11
53.333862848987
 21
-0.971909030149
 31
0.0
  0
LINE
  5
195
330
30
100
AcDbEntity
  8
1
100
AcDbLine
 10
53.333862848987
 20
-0.971909030149
 30
0.0
 11
53.417862848987
 21
-0.971909030149
 31
0.0
  0
LINE
  5
196
330
30
100
AcDbEntity
  8
1
100
AcDbLine
 10
53.417862848987
 20
-0.971909030149
 30
0.0
 11
53.501862848987
 21
-0.971909030149
 31
0.0
  0
LINE
  5
197
330
30
100
AcDbEntity
  8
1
100
AcDbLine
 10
53.501862848987
 20
-0.971909030149
 30
0.0
 11
53.585862848987
 21
-0.971909030149
 31
0.0
  0
LINE
  5
198
330
30
100
AcDbEntity
  8
1
100
AcDbLine
 10
53.585862848987
 20
-0.971909030149
 30
0.0
 11
53.669862848987
 21
-0.971909030149
 31
0.0
  0
LINE
  5
199
330
30
100
AcDbEntity
  8
1
100
AcDbLine
 10
53.669862848987
 20
-0.971909030149
 30
0.0
 11
53.753862848987
 21
-0.971909030149
 31
0.0
  0
LINE
  5
19A
330
30
100
AcDbEntity
  8
1
100
AcDbLine
 10
53.753862848987
 20
-0.971909030149
 30
0.0
 11
53.837862848987
 21
-0.971909030149
 31
0.0
  0
LINE
  5
19B
330
30
100
AcDbEntity
  8
1
100
AcDbLine
 10
53.837862848987
 20
-0.971909030149
 30
0.0
 11
53.921862848987
 21
-0.971909030149
 31
0.0
  0
LINE
  5
19C
330
30
100
AcDbEntity
  8
1
100
AcDbLine
 10
53.921862848987
 20
-0.971909030149
 30
0.0
 11
54.005862848987
 21
-0.971909030149
 31
0.0
  0
LINE
  5
19D
330
30
100
AcDbEntity
  8
1
100
AcDbLine
 10
54.005862848987
 20
-0.971909030149
 30
0.0
 11
54.089862848987
 21
-0.971909030149
 31
0.0
  0
LINE
  5
19E
330
30
100
AcDbEntity
  8
1
100
AcDbLine
 10
54.089862848987
 20
-0.971909030149
 30
0.0
 11
54.173862848987
 21
-0.971909030149
 31
0.0
  0
LINE
  5
19F
330
30
100
AcDbEntity
  8
1
100
AcDbLine
 10
54.173862848987
 20
-0.971909030149
 30
0.0
 11
54.257862848987
 21
-0.971909030149
 31
0.0
  0
LINE
  5
1A0
330
30
100
AcDbEntity
  8
1
100
AcDbLine
 10
54.257862848987
 20
-0.971909030149
 30
0.0
 11
54.341862848987
 21
-0.971909030149
 31
0.0
  0
LINE
  5
1A1
330
30
100
AcDbEntity
  8
1
100
AcDbLine
 10
54.341862848987
 20
-0.971909030149
 30
0.0
 11
54.425862848987
 21
-0.971909030149
 31
0.0
  0
LINE
  5
1A2
330
30
100
AcDbEntity
  8
1
100
AcDbLine
 10
54.425862848987
 20
-0.971909030149
 30
0.0
 11
54.509862848987
 21
-0.971909030149
 31
0.0
  0
LINE
  5
1A3
330
30
100
AcDbEntity
  8
1
100
AcDbLine
 10
54.509862848987
 20
-0.971909030149
 30
0.0
 11
54.593862848987
 21
-0.971909030149
 31
0.0
  0
LINE
  5
1A4
330
30
100
AcDbEntity
  8
1
100
AcDbLine
 10
54.593862848987
 20
-0.971909030149
 30
0.0
 11
54.677862848987
 21
-0.971909030149
 31
0.0
  0
LINE
  5
1A5
330
30
100
AcDbEntity
  8
1
100
AcDbLine
 10
54.677862848987
 20
-0.971909030149
 30
0.0
 11
54.761862848987
 21
-0.971909030149
 31
0.0
  0
LINE
  5
1A6
330
30
100
AcDbEntity
  8
1
100
AcDbLine
 10
54.761862848987
 20
-0.971909030149
 30
0.0
 11
54.845862848987
 21
-0.971909030149
 31
0.0
  0
LINE
  5
1A7
330
30
100
AcDbEntity
  8
1
100
AcDbLine
 10
54.845862848987
 20
-0.971909030149
 30
0.0
 11
54.929862848987
 21
-0.971909030149
 31
0.0
  0
LINE
  5
1A8
330
30
100
AcDbEntity
  8
1
100
AcDbLine
 10
54.929862848987
 20
-0.971909030149
 30
0.0
 11
55.013862848987
 21
-0.971909030149
 31
0.0
  0
LINE
  5
1A9
330
30
100
AcDbEntity
  8
1
100
AcDbLine
 10
55.013862848987
 20
-0.971909030149
 30
0.0
 11
55.097862848987
 21
-0.971909030149
 31
0.0
  0
LINE
  5
1AA
330
30
100
AcDbEntity
  8
1
100
AcDbLine
 10
55.097862848987
 20
-0.971909030149
 30
0.0
 11
55.181862848987
 21
-0.971909030149
 31
0.0
  0
LINE
  5
1AB
330
30
100
AcDbEntity
  8
1
100
AcDbLine
 10
55.181862848987
 20
-0.971909030149
 30
0.0
 11
55.265862848987
 21
-0.971909030149
 31
0.0
  0
LINE
  5
1AC
330
30
100
AcDbEntity
  8
1
100
AcDbLine
 10
55.265862848987
 20
-0.971909030149
 30
0.0
 11
55.349862848987
 21
-0.971909030149
 31
0.0
  0
LINE
  5
1AD
330
30
100
AcDbEntity
  8
1
100
AcDbLine
 10
55.349862848987
 20
-0.971909030149
 30
0.0
 11
55.433862848987
 21
-0.971909030149
 31
0.0
  0
LINE
  5
1AE
330
30
100
AcDbEntity
  8
1
100
AcDbLine
 10
55.433862848987
 20
-0.971909030149
 30
0.0
 11
55.517862848987
 21
-0.971909030149
 31
0.0
  0
LINE
  5
1AF
330
30
100
AcDbEntity
  8
1
100
AcDbLine
 10
55.517862848987
 20
-0.971909030149
 30
0.0
 11
55.601862848987
 21
-0.971909030149
 31
0.0
  0
LINE
  5
1B0
330
30
100
AcDbEntity
  8
1
100
AcDbLine
 10
55.601862848987
 20
-0.971909030149
 30
0.0
 11
55.685862848987
 21
-0.971909030149
 31
0.0
  0
LINE
  5
1B1
330
30
100
AcDbEntity
  8
1
100
AcDbLine
 10
55.685862848987
 20
-0.971909030149
 30
0.0
 11
55.769862848987
 21
-0.971909030149
 31
0.0
  0
LINE
  5
1B2
330
30
100
AcDbEntity
  8
1
100
AcDbLine
 10
55.769862848987
 20
-0.971909030149
 30
0.0
 11
55.853862848987
 21
-0.971909030149
 31
0.0
  0
LINE
  5
1B3
330
30
100
AcDbEntity
  8
1
100
AcDbLine
 10
55.853862848987
 20
-0.971909030149
 30
0.0
 11
55.937862848987
 21
-0.971909030149
 31
0.0
  0
LINE
  5
1B4
330
30
100
AcDbEntity
  8
1
100
AcDbLine
 10
55.937862848987
 20
-0.971909030149
 30
0.0
 11
56.021862848987
 21
-0.971909030149
 31
0.0
  0
LINE
  5
1B5
330
30
100
AcDbEntity
  8
1
100
AcDbLine
 10
56.021862848987
 20
-0.971909030149
 30
0.0
 11
56.105862848987
 21
-0.971909030149
 31
0.0
  0
LINE
  5
1B6
330
30
100
AcDbEntity
  8
1
100
AcDbLine
 10
56.105862848987
 20
-0.971909030149
 30
0.0
 11
56.189862848987
 21
-0.971909030149
 31
0.0
  0
LINE
  5
1B7
330
30
100
AcDbEntity
  8
1
100
AcDbLine
 10
56.189862848987
 20
-0.971909030149
 30
0.0
 11
56.273862848987
 21
-0.971909030149
 31
0.0
  0
LINE
  5
1B8
330
30
100
AcDbEntity
  8
1
100
AcDbLine
 10
56.273862848987
 20
-0.971909030149
 30
0.0
 11
56.357862848987
 21
-0.971909030149
 31
0.0
  0
LINE
  5
1B9
330
30
100
AcDbEntity
  8
1
100
AcDbLine
 10
56.357862848987
 20
-0.971909030149
 30
0.0
 11
56.441862848987
 21
-0.971909030149
 31
0.0
  0
LINE
  5
1BA
330
30
100
AcDbEntity
  8
1
100
AcDbLine
 10
56.441862848987
 20
-0.971909030149
 30
0.0
 11
56.525862848987
 21
-0.971909030149
 31
0.0
  0
LINE
  5
1BB
330
30
100
AcDbEntity
  8
1
100
AcDbLine
 10
56.525862848987
 20
-0.971909030149
 30
0.0
 11
56.609862848987
 21
-0.971909030149
 31
0.0
  0
LINE
  5
1BC
330
30
100
AcDbEntity
  8
1
100
AcDbLine
 10
56.609862848987
 20
-0.971909030149
 30
0.0
 11
56.693862848987
 21
-0.971909030149
 31
0.0
  0
LINE
  5
1BD
330
30
100
AcDbEntity
  8
1
100
AcDbLine
 10
56.693862848987
 20
-0.971909030149
 30
0.0
 11
56.777862848987
 21
-0.971909030149
 31
0.0
  0
LINE
  5
1BE
330
30
100
AcDbEntity
  8
1
100
AcDbLine
 10
56.777862848987
 20
-0.971909030149
 30
0.0
 11
56.861862848987
 21
-0.971909030149
 31
0.0
  0
LINE
  5
1BF
330
30
100
AcDbEntity
  8
1
100
AcDbLine
 10
56.861862848987
 20
-0.971909030149
 30
0.0
 11
56.945862848987
 21
-0.971909030149
 31
0.0
  0
LINE
  5
1C0
330
30
100
AcDbEntity
  8
1
100
AcDbLine
 10
56.945862848987
 20
-0.971909030149
 30
0.0
 11
57.029862848987
 21
-0.971909030149
 31
0.0
  0
LINE
  5
1C1
330
30
100
AcDbEntity
  8
1
100
AcDbLine
 10
57.029862848987
 20
-0.971909030149
 30
0.0
 11
57.113862848987
 21
-0.971909030149
 31
0.0
  0
LINE
  5
1C2
330
30
100
AcDbEntity
  8
1
100
AcDbLine
 10
57.113862848987
 20
-0.971909030149
 30
0.0
 11
57.197862848987
 21
-0.971909030149
 31
0.0
  0
LINE
  5
1C3
330
30
100
AcDbEntity
  8
1
100
AcDbLine
 10
57.197862848987
 20
-0.971909030149
 30
0.0
 11
57.281862848987
 21
-0.971909030149
 31
0.0
  0
LINE
  5
1C4
330
30
100
AcDbEntity
  8
1
100
AcDbLine
 10
57.281862848987
 20
-0.971909030149
 30
0.0
 11
57.365862848987
 21
-0.971909030149
 31
0.0
  0
LINE
  5
1C5
330
30
100
AcDbEntity
  8
1
100
AcDbLine
 10
57.365862848987
 20
-0.971909030149
 30
0.0
 11
57.449862848987
 21
-0.971909030149
 31
0.0
  0
LINE
  5
1C6
330
30
100
AcDbEntity
  8
1
100
AcDbLine
 10
57.449862848987
 20
-0.971909030149
 30
0.0
 11
57.533862848987
 21
-0.971909030149
 31
0.0
  0
LINE
  5
1C7
330
30
100
AcDbEntity
  8
1
100
AcDbLine
 10
57.533862848987
 20
-0.971909030149
 30
0.0
 11
57.617862848987
 21
-0.971909030149
 31
0.0
  0
LINE
  5
1C8
330
30
100
AcDbEntity
  8
1
100
AcDbLine
 10
57.617862848987
 20
-0.971909030149
 30
0.0
 11
57.701862848987
 21
-0.971909030149
 31
0.0
  0
LINE
  5
1C9
330
30
100
AcDbEntity
  8
1
100
AcDbLine
 10
57.701862848987
 20
-0.971909030149
 30
0.0
 11
57.785862848987
 21
-0.971909030149
 31
0.0
  0
LINE
  5
1CA
330
30
100
AcDbEntity
  8
1
100
AcDbLine
 10
57.785862848987
 20
-0.971909030149
 30
0.0
 11
57.869862848987
 21
-0.971909030149
 31
0.0
  0
LINE
  5
1CB
330
30
100
AcDbEntity
  8
1
100
AcDbLine
 10
57.869862848987
 20
-0.971909030149
 30
0.0
 11
57.953862848987
 21
-0.971909030149
 31
0.0
  0
LINE
  5
1CC
330
30
100
AcDbEntity
  8
1
100
AcDbLine
 10
57.953862848987
 20
-0.971909030149
 30
0.0
 11
58.037862848987
 21
-0.971909030149
 31
0.0
  0
LINE
  5
1CD
330
30
100
AcDbEntity
  8
1
100
AcDbLine
 10
58.037862848987
 20
-0.971909030149
 30
0.0
 11
58.121862848987
 21
-0.971909030149
 31
0.0
  0
LINE
  5
1CE
330
30
100
AcDbEntity
  8
1
100
AcDbLine
 10
58.121862848987
 20
-0.971909030149
 30
0.0
 11
58.205862848987
 21
-0.971909030149
 31
0.0
  0
LINE
  5
1CF
330
30
100
AcDbEntity
  8
1
100
AcDbLine
 10
58.205862848987
 20
-0.971909030149
 30
0.0
 11
58.289862848987
 21
-0.971909030149
 31
0.0
  0
LINE
  5
1D0
330
30
100
AcDbEntity
  8
1
100
AcDbLine
 10
58.289862848987
 20
-0.971909030149
 30
0.0
 11
58.373862848987
 21
-0.971909030149
 31
0.0
  0
LINE
  5
1D1
330
30
100
AcDbEntity
  8
1
100
AcDbLine
 10
58.373862848987
 20
-0.971909030149
 30
0.0
 11
58.457862848987
 21
-0.971909030149
 31
0.0
  0
LINE
  5
1D2
330
30
100
AcDbEntity
  8
1
100
AcDbLine
 10
58.457862848987
 20
-0.971909030149
 30
0.0
 11
58.541862848987
 21
-0.971909030149
 31
0.0
  0
LINE
  5
1D3
330
30
100
AcDbEntity
  8
1
100
AcDbLine
 10
58.541862848987
 20
-0.971909030149
 30
0.0
 11
58.625862848987
 21
-0.971909030149
 31
0.0
  0
LINE
  5
1D4
330
30
100
AcDbEntity
  8
1
100
AcDbLine
 10
58.625862848987
 20
-0.971909030149
 30
0.0
 11
58.709862848987
 21
-0.971909030149
 31
0.0
  0
LINE
  5
1D5
330
30
100
AcDbEntity
  8
1
100
AcDbLine
 10
58.709862848987
 20
-0.971909030149
 30
0.0
 11
58.793862848987
 21
-0.971909030149
 31
0.0
  0
LINE
  5
1D6
330
30
100
AcDbEntity
  8
1
100
AcDbLine
 10
58.793862848987
 20
-0.971909030149
 30
0.0
 11
58.877862848987
 21
-0.971909030149
 31
0.0
  0
LINE
  5
1D7
330
30
100
AcDbEntity
  8
1
100
AcDbLine
 10
58.877862848987
 20
-0.971909030149
 30
0.0
 11
58.961862848987
 21
-0.971909030149
 31
0.0
  0
LINE
  5
1D8
330
30
100
AcDbEntity
  8
1
100
AcDbLine
 10
58.961862848987
 20
-0.971909030149
 30
0.0
 11
59.045862848987
 21
-0.971909030149
 31
0.0
  0
LINE
  5
1D9
330
30
100
AcDbEntity
  8
1
100
AcDbLine
 10
59.045862848987
 20
-0.971909030149
 30
0.0
 11
59.129862848987
 21
-0.971909030149
 31
0.0
  0
LINE
  5
1DA
330
30
100
AcDbEntity
  8
1
100
AcDbLine
 10
59.129862848987
 20
-0.971909030149
 30
0.0
 11
59.213862848987
 21
-0.971909030149
 31
0.0
  0
LINE
  5
1DB
330
30
100
AcDbEntity
  8
1
100
AcDbLine
 10
59.213862848987
 20
-0.971909030149
 30
0.0
 11
59.297862848987
 21
-0.971909030149
 31
0.0
  0
LINE
  5
1DC
330
30
100
AcDbEntity
  8
1
100
AcDbLine
 10
59.297862848987
 20
-0.971909030149
 30
0.0
 11
59.381862848987
 21
-0.971909030149
 31
0.0
  0
LINE
  5
1DD
330
30
100
AcDbEntity
  8
1
100
AcDbLine
 10
59.381862848987
 20
-0.971909030149
 30
0.0
 11
59.465862848987
 21
-0.971909030149
 31
0.0
  0
LINE
  5
1DE
330
30
100
AcDbEntity
  8
1
100
AcDbLine
 10
59.465862848987
 20
-0.971909030149
 30
0.0
 11
59.549862848987
 21
-0.971909030149
 31
0.0
  0
LINE
  5
1DF
330
30
100
AcDbEntity
  8
1
100
AcDbLine
 10
59.549862848987
 20
-0.971909030149
 30
0.0
 11
59.633862848987
 21
-0.971909030149
 31
0.0
  0
LINE
  5
1E0
330
30
100
AcDbEntity
  8
1
100
AcDbLine
 10
59.633862848987
 20
-0.971909030149
 30
0.0
 11
59.717862848987
 21
-0.971909030149
 31
0.0
  0
LINE
  5
1E1
330
30
100
AcDbEntity
  8
1
100
AcDbLine
 10
59.717862848987
 20
-0.971909030149
 30
0.0
 11
59.801862848987
 21
-0.971909030149
 31
0.0
  0
LINE
  5
1E2
330
30
100
AcDbEntity
  8
1
100
AcDbLine
 10
59.801862848987
 20
-0.971909030149
 30
0.0
 11
59.885862848987
 21
-0.971909030149
 31
0.0
  0
LINE
  5
1E3
330
30
100
AcDbEntity
  8
1
100
AcDbLine
 10
59.885862848987
 20
-0.971909030149
 30
0.0
 11
59.969862848987
 21
-0.971909030149
 31
0.0
  0
LINE
  5
1E4
330
30
100
AcDbEntity
  8
1
100
AcDbLine
 10
59.969862848987
 20
-0.971909030149
 30
0.0
 11
60.053862848987
 21
-0.971909030149
 31
0.0
  0
LINE
  5
1E5
330
30
100
AcDbEntity
  8
1
100
AcDbLine
 10
60.053862848987
 20
-0.971909030149
 30
0.0
 11
60.137862848987
 21
-0.971909030149
 31
0.0
  0
LINE
  5
1E6
330
30
100
AcDbEntity
  8
1
100
AcDbLine
 10
60.137862848987
 20
-0.971909030149
 30
0.0
 11
60.221862848987
 21
-0.971909030149
 31
0.0
  0
LINE
  5
1E7
330
30
100
AcDbEntity
  8
1
100
AcDbLine
 10
60.221862848987
 20
-0.971909030149
 30
0.0
 11
60.305862848987
 21
-0.971909030149
 31
0.0
  0
LINE
  5
1E8
330
30
100
AcDbEntity
  8
1
100
AcDbLine
 10
60.305862848987
 20
-0.971909030149
 30
0.0
 11
60.389862848987
 21
-0.971909030149
 31
0.0
  0
LINE
  5
1E9
330
30
100
AcDbEntity
  8
1
100
AcDbLine
 10
60.389862848987
 20
-0.971909030149
 30
0.0
 11
60.473862848987
 21
-0.971909030149
 31
0.0
  0
LINE
  5
1EA
330
30
100
AcDbEntity
  8
1
100
AcDbLine
 10
60.473862848987
 20
-0.971909030149
 30
0.0
 11
60.557862848987
 21
-0.971909030149
 31
0.0
  0
LINE
  5
1EB
330
30
100
AcDbEntity
  8
1
100
AcDbLine
 10
60.557862848987
 20
-0.971909030149
 30
0.0
 11
60.641862848987
 21
-0.971909030149
 31
0.0
  0
LINE
  5
1EC
330
30
100
AcDbEntity
  8
1
100
AcDbLine
 10
60.641862848987
 20
-0.971909030149
 30
0.0
 11
60.725862848987
 21
-0.971909030149
 31
0.0
  0
LINE
  5
1ED
330
30
100
AcDbEntity
  8
1
100
AcDbLine
 10
60.725862848987
 20
-0.971909030149
 30
0.0
 11
60.809862848987
 21
-0.971909030149
 31
0.0
  0
LINE
  5
1EE
330
30
100
AcDbEntity
  8
1
100
AcDbLine
 10
60.809862848987
 20
-0.971909030149
 30
0.0
 11
60.893862848987
 21
-0.971909030149
 31
0.0
  0
LINE
  5
1EF
330
30
100
AcDbEntity
  8
1
100
AcDbLine
 10
60.893862848987
 20
-0.971909030149
 30
0.0
 11
60.977862848987
 21
-0.971909030149
 31
0.0
  0
LINE
  5
1F0
330
30
100
AcDbEntity
  8
1
100
AcDbLine
 10
60.977862848987
 20
-0.971909030149
 30
0.0
 11
61.061862848987
 21
-0.971909030149
 31
0.0
  0
LINE
  5
1F1
330
30
100
AcDbEntity
  8
1
100
AcDbLine
 10
61.061862848987
 20
-0.971909030149
 30
0.0
 11
61.145862848987
 21
-0.971909030149
 31
0.0
  0
LINE
  5
1F2
330
30
100
AcDbEntity
  8
1
100
AcDbLine
 10
61.145862848987
 20
-0.971909030149
 30
0.0
 11
61.229862848987
 21
-0.971909030149
 31
0.0
  0
LINE
  5
1F3
330
30
100
AcDbEntity
  8
1
100
AcDbLine
 10
61.229862848987
 20
-0.971909030149
 30
0.0
 11
61.313862848987
 21
-0.971909030149
 31
0.0
  0
LINE
  5
1F4
330
30
100
AcDbEntity
  8
1
100
AcDbLine
 10
61.313862848987
 20
-0.971909030149
 30
0.0
 11
61.397862848987
 21
-0.971909030149
 31
0.0
  0
LINE
  5
1F5
330
30
100
AcDbEntity
  8
1
100
AcDbLine
 10
61.397862848987
 20
-0.971909030149
 30
0.0
 11
61.481862848987
 21
-0.971909030149
 31
0.0
  0
LINE
  5
1F6
330
30
100
AcDbEntity
  8
1
100
AcDbLine
 10
61.481862848987
 20
-0.971909030149
 30
0.0
 11
61.565862848987
 21
-0.971909030149
 31
0.0
  0
LINE
  5
1F7
330
30
100
AcDbEntity
  8
1
100
AcDbLine
 10
61.565862848987
 20
-0.971909030149
 30
0.0
 11
61.649862848987
 21
-0.971909030149
 31
0.0
  0
LINE
  5
1F8
330
30
100
AcDbEntity
  8
1
100
AcDbLine
 10
61.649862848987
 20
-0.971909030149
 30
0.0
 11
61.733862848987
 21
-0.971909030149
 31
0.0
  0
LINE
  5
1F9
330
30
100
AcDbEntity
  8
1
100
AcDbLine
 10
61.733862848987
 20
-0.971909030149
 30
0.0
 11
61.817862848987
 21
-0.971909030149
 31
0.0
  0
LINE
  5
1FA
330
30
100
AcDbEntity
  8
1
100
AcDbLine
 10
61.817862848987
 20
-0.971909030149
 30
0.0
 11
61.901862848987
 21
-0.971909030149
 31
0.0
  0
LINE
  5
1FB
330
30
100
AcDbEntity
  8
1
100
AcDbLine
 10
61.901862848987
 20
-0.971909030149
 30
0.0
 11
61.985862848987
 21
-0.971909030149
 31
0.0
  0
LINE
  5
1FC
330
30
100
AcDbEntity
  8
1
100
AcDbLine
 10
61.985862848987
 20
-0.971909030149
 30
0.0
 11
62.069862848987
 21
-0.971909030149
 31
0.0
  0
LINE
  5
1FD
330
30
100
AcDbEntity
  8
1
100
AcDbLine
 10
62.069862848987
 20
-0.971909030149
 30
0.0
 11
62.153862848987
 21
-0.971909030149
 31
0.0
  0
LINE
  5
1FE
330
30
100
AcDbEntity
  8
1
100
AcDbLine
 10
62.153862848987
 20
-0.971909030149
 30
0.0
 11
62.237862848987
 21
-0.976697967705
 31
0.0
  0
LINE
  5
1FF
330
30
100
AcDbEntity
  8
1
100
AcDbLine
 10
62.237862848987
 20
-0.976697967705
 30
0.0
 11
62.321862848987
 21
-1.003686134047
 31
0.0
  0
LINE
  5
200
330
30
100
AcDbEntity
  8
1
100
AcDbLine
 10
62.321862848987
 20
-1.003686134047
 30
0.0
 11
62.405862848987
 21
-1.030670376456
 31
0.0
  0
LINE
  5
201
330
30
100
AcDbEntity
  8
1
100
AcDbLine
 10
62.405862848987
 20
-1.030670376456
 30
0.0
 11
62.489862848987
 21
-1.057650961506
 31
0.0
  0
LINE
  5
202
330
30
100
AcDbEntity
  8
1
100
AcDbLine
 10
62.489862848987
 20
-1.057650961506
 30
0.0
 11
62.573862848987
 21
-1.084628132127
 31
0.0
  0
LINE
  5
203
330
30
100
AcDbEntity
  8
1
100
AcDbLine
 10
62.573862848987
 20
-1.084628132127
 30
0.0
 11
62.657862848987
 21
-1.111602110174
 31
0.0
  0
LINE
  5
204
330
30
100
AcDbEntity
  8
1
100
AcDbLine
 10
62.657862848987
 20
-1.111602110174
 30
0.0
 11
62.741862848987
 21
-1.138573098664
 31
0.0
  0
LINE
  5
205
330
30
100
AcDbEntity
  8
1
100
AcDbLine
 10
62.741862848987
 20
-1.138573098664
 30
0.0
 11
62.825862848987
 21
-1.165541283742
 31
0.0
  0
LINE
  5
206
330
30
100
AcDbEntity
  8
1
100
AcDbLine
 10
62.825862848987
 20
-1.165541283742
 30
0.0
 11
62.909862848987
 21
-1.192506836393
 31
0.0
  0
LINE
  5
207
330
30
100
AcDbEntity
  8
1
100
AcDbLine
 10
62.909862848987
 20
-1.192506836393
 30
0.0
 11
62.993862848987
 21
-1.219469913961
 31
0.0
  0
LINE
  5
208
330
30
100
AcDbEntity
  8
1
100
AcDbLine
 10
62.993862848987
 20
-1.219469913961
 30
0.0
 11
63.077862848987
 21
-1.246430661482
 31
0.0
  0
LINE
  5
209
330
30
100
AcDbEntity
  8
1
100
AcDbLine
 10
63.077862848987
 20
-1.246430661482
 30
0.0
 11
63.161862848987
 21
-1.25
 31
0.0
  0
LINE
  5
20A
330
30
100
AcDbEntity
  8
1
100
AcDbLine
 10
63.161862848987
 20
-1.25
 30
0.0
 11
63.245862848987
 21
-1.25
 31
0.0
  0
LINE
  5
20B
330
30
100
AcDbEntity
  8
1
100
AcDbLine
 10
63.245862848987
 20
-1.25
 30
0.0
 11
63.329862848987
 21
-1.25
 31
0.0
  0
LINE
  5
20C
330
30
100
AcDbEntity
  8
1
100
AcDbLine
 10
63.329862848987
 20
-1.25
 30
0.0
 11
63.413862848987
 21
-1.25
 31
0.0
  0
LINE
  5
20D
330
30
100
AcDbEntity
  8
1
100
AcDbLine
 10
63.413862848987
 20
-1.25
 30
0.0
 11
63.497862848987
 21
-1.25
 31
0.0
  0
LINE
  5
20E
330
30
100
AcDbEntity
  8
1
100
AcDbLine
 10
63.497862848987
 20
-1.25
 30
0.0
 11
63.581862848987
 21
-1.25
 31
0.0
  0
LINE
  5
20F
330
30
100
AcDbEntity
  8
1
100
AcDbLine
 10
63.581862848987
 20
-1.25
 30
0.0
 11
63.665862848987
 21
-1.25
 31
0.0
  0
LINE
  5
210
330
30
100
AcDbEntity
  8
1
100
AcDbLine
 10
63.665862848987
 20
-1.25
 30
0.0
 11
63.749862848987
 21
-1.25
 31
0.0
  0
LINE
  5
211
330
30
100
AcDbEntity
  8
1
100
AcDbLine
 10
63.749862848987
 20
-1.25
 30
0.0
 11
63.833862848987
 21
-1.25
 31
0.0
  0
LINE
  5
212
330
30
100
AcDbEntity
  8
1
100
AcDbLine
 10
63.833862848987
 20
-1.25
 30
0.0
 11
63.917862848987
 21
-1.25
 31
0.0
  0
LINE
  5
213
330
30
100
AcDbEntity
  8
1
100
AcDbLine
 10
63.917862848987
 20
-1.25
 30
0.0
 11
64.001862848987
 21
-1.25
 31
0.0
  0
LINE
  5
214
330
30
100
AcDbEntity
  8
1
100
AcDbLine
 10
64.001862848987
 20
-1.25
 30
0.0
 11
64.085862848987
 21
-1.25
 31
0.0
  0
LINE
  5
215
330
30
100
AcDbEntity
  8
1
100
AcDbLine
 10
64.085862848987
 20
-1.25
 30
0.0
 11
64.169862848987
 21
-1.25
 31
0.0
  0
LINE
  5
216
330
30
100
AcDbEntity
  8
1
100
AcDbLine
 10
64.169862848987
 20
-1.25
 30
0.0
 11
64.253862848987
 21
-1.25
 31
0.0
  0
LINE
  5
217
330
30
100
AcDbEntity
  8
1
100
AcDbLine
 10
64.253862848987
 20
-1.25
 30
0.0
 11
64.337862848987
 21
-1.25
 31
0.0
  0
LINE
  5
218
330
30
100
AcDbEntity
  8
1
100
AcDbLine
 10
64.337862848987
 20
-1.25
 30
0.0
 11
64.421862848987
 21
-1.25
 31
0.0
  0
LINE
  5
219
330
30
100
AcDbEntity
  8
1
100
AcDbLine
 10
64.421862848987
 20
-1.25
 30
0.0
 11
64.505862848987
 21
-1.25
 31
0.0
  0
LINE
  5
21A
330
30
100
AcDbEntity
  8
1
100
AcDbLine
 10
64.505862848987
 20
-1.25
 30
0.0
 11
64.589862848987
 21
-1.25
 31
0.0
  0
LINE
  5
21B
330
30
100
AcDbEntity
  8
1
100
AcDbLine
 10
64.589862848987
 20
-1.25
 30
0.0
 11
64.673862848987
 21
-1.25
 31
0.0
  0
LINE
  5
21C
330
30
100
AcDbEntity
  8
1
100
AcDbLine
 10
64.673862848987
 20
-1.25
 30
0.0
 11
64.757862848987
 21
-1.25
 31
0.0
  0
LINE
  5
21D
330
30
100
AcDbEntity
  8
1
100
AcDbLine
 10
64.757862848987
 20
-1.25
 30
0.0
 11
64.841862848987
 21
-1.25
 31
0.0
  0
LINE
  5
21E
330
30
100
AcDbEntity
  8
1
100
AcDbLine
 10
64.841862848987
 20
-1.25
 30
0.0
 11
64.925862848987
 21
-1.25
 31
0.0
  0
LINE
  5
21F
330
30
100
AcDbEntity
  8
1
100
AcDbLine
 10
64.925862848987
 20
-1.25
 30
0.0
 11
65.009862848987
 21
-1.25
 31
0.0
  0
LINE
  5
220
330
30
100
AcDbEntity
  8
1
100
AcDbLine
 10
65.009862848987
 20
-1.25
 30
0.0
 11
65.093862848987
 21
-1.25
 31
0.0
  0
LINE
  5
221
330
30
100
AcDbEntity
  8
1
100
AcDbLine
 10
65.093862848987
 20
-1.25
 30
0.0
 11
65.177862848987
 21
-1.25
 31
0.0
  0
LINE
  5
222
330
30
100
AcDbEntity
  8
1
100
AcDbLine
 10
65.177862848987
 20
-1.25
 30
0.0
 11
65.261862848987
 21
-1.25
 31
0.0
  0
LINE
  5
223
330
30
100
AcDbEntity
  8
1
100
AcDbLine
 10
65.261862848987
 20
-1.25
 30
0.0
 11
65.345862848987
 21
-1.25
 31
0.0
  0
LINE
  5
224
330
30
100
AcDbEntity
  8
1
100
AcDbLine
 10
65.345862848987
 20
-1.25
 30
0.0
 11
65.429862848987
 21
-1.25
 31
0.0
  0
LINE
  5
225
330
30
100
AcDbEntity
  8
1
100
AcDbLine
 10
65.429862848987
 20
-1.25
 30
0.0
 11
65.513862848987
 21
-1.25
 31
0.0
  0
LINE
  5
226
330
30
100
AcDbEntity
  8
1
100
AcDbLine
 10
65.513862848987
 20
-1.25
 30
0.0
 11
65.597862848987
 21
-1.25
 31
0.0
  0
LINE
  5
227
330
30
100
AcDbEntity
  8
1
100
AcDbLine
 10
65.597862848987
 20
-1.25
 30
0.0
 11
65.681862848987
 21
-1.25
 31
0.0
  0
LINE
  5
228
330
30
100
AcDbEntity
  8
1
100
AcDbLine
 10
65.681862848987
 20
-1.25
 30
0.0
 11
65.765862848987
 21
-1.25
 31
0.0
  0
LINE
  5
229
330
30
100
AcDbEntity
  8
1
100
AcDbLine
 10
65.765862848987
 20
-1.25
 30
0.0
 11
65.849862848987
 21
-1.25
 31
0.0
  0
LINE
  5
22A
330
30
100
AcDbEntity
  8
1
100
AcDbLine
 10
65.849862848987
 20
-1.25
 30
0.0
 11
65.933862848987
 21
-1.25
 31
0.0
  0
LINE
  5
22B
330
30
100
AcDbEntity
  8
1
100
AcDbLine
 10
65.933862848987
 20
-1.25
 30
0.0
 11
66.017862848987
 21
-1.25
 31
0.0
  0
LINE
  5
22C
330
30
100
AcDbEntity
  8
1
100
AcDbLine
 10
66.017862848987
 20
-1.25
 30
0.0
 11
66.101862848987
 21
-1.25
 31
0.0
  0
LINE
  5
22D
330
30
100
AcDbEntity
  8
1
100
AcDbLine
 10
66.101862848987
 20
-1.25
 30
0.0
 11
66.185862848987
 21
-1.25
 31
0.0
  0
LINE
  5
22E
330
30
100
AcDbEntity
  8
1
100
AcDbLine
 10
66.185862848987
 20
-1.25
 30
0.0
 11
66.269862848987
 21
-1.25
 31
0.0
  0
LINE
  5
22F
330
30
100
AcDbEntity
  8
1
100
AcDbLine
 10
66.269862848987
 20
-1.25
 30
0.0
 11
66.353862848987
 21
-1.25
 31
0.0
  0
LINE
  5
230
330
30
100
AcDbEntity
  8
1
100
AcDbLine
 10
66.353862848987
 20
-1.25
 30
0.0
 11
66.437862848987
 21
-1.25
 31
0.0
  0
LINE
  5
231
330
30
100
AcDbEntity
  8
1
100
AcDbLine
 10
66.437862848987
 20
-1.25
 30
0.0
 11
66.521862848987
 21
-1.25
 31
0.0
  0
LINE
  5
232
330
30
100
AcDbEntity
  8
1
100
AcDbLine
 10
66.521862848987
 20
-1.25
 30
0.0
 11
66.605862848987
 21
-1.25
 31
0.0
  0
LINE
  5
233
330
30
100
AcDbEntity
  8
1
100
AcDbLine
 10
66.605862848987
 20
-1.25
 30
0.0
 11
66.689862848987
 21
-1.25
 31
0.0
  0
LINE
  5
234
330
30
100
AcDbEntity
  8
1
100
AcDbLine
 10
66.689862848987
 20
-1.25
 30
0.0
 11
66.773862848987
 21
-1.25
 31
0.0
  0
LINE
  5
235
330
30
100
AcDbEntity
  8
1
100
AcDbLine
 10
66.773862848987
 20
-1.25
 30
0.0
 11
66.857862848987
 21
-1.25
 31
0.0
  0
LINE
  5
236
330
30
100
AcDbEntity
  8
1
100
AcDbLine
 10
66.857862848987
 20
-1.25
 30
0.0
 11
66.941862848987
 21
-1.25
 31
0.0
  0
LINE
  5
237
330
30
100
AcDbEntity
  8
1
100
AcDbLine
 10
66.941862848987
 20
-1.25
 30
0.0
 11
67.025862848987
 21
-1.25
 31
0.0
  0
LINE
  5
238
330
30
100
AcDbEntity
  8
1
100
AcDbLine
 10
67.025862848987
 20
-1.25
 30
0.0
 11
67.109862848987
 21
-1.25
 31
0.0
  0
LINE
  5
239
330
30
100
AcDbEntity
  8
1
100
AcDbLine
 10
67.109862848987
 20
-1.25
 30
0.0
 11
67.193862848987
 21
-1.25
 31
0.0
  0
LINE
  5
23A
330
30
100
AcDbEntity
  8
1
100
AcDbLine
 10
67.193862848987
 20
-1.25
 30
0.0
 11
67.277862848987
 21
-1.25
 31
0.0
  0
LINE
  5
23B
330
30
100
AcDbEntity
  8
1
100
AcDbLine
 10
67.277862848987
 20
-1.25
 30
0.0
 11
67.361862848987
 21
-1.25
 31
0.0
  0
LINE
  5
23C
330
30
100
AcDbEntity
  8
1
100
AcDbLine
 10
67.361862848987
 20
-1.25
 30
0.0
 11
67.445862848987
 21
-1.25
 31
0.0
  0
LINE
  5
23D
330
30
100
AcDbEntity
  8
1
100
AcDbLine
 10
67.445862848987
 20
-1.25
 30
0.0
 11
67.529862848987
 21
-1.25
 31
0.0
  0
LINE
  5
23E
330
30
100
AcDbEntity
  8
1
100
AcDbLine
 10
67.529862848987
 20
-1.25
 30
0.0
 11
67.613862848987
 21
-1.25
 31
0.0
  0
LINE
  5
23F
330
30
100
AcDbEntity
  8
1
100
AcDbLine
 10
67.613862848987
 20
-1.25
 30
0.0
 11
67.697862848987
 21
-1.25
 31
0.0
  0
LINE
  5
240
330
30
100
AcDbEntity
  8
1
100
AcDbLine
 10
67.697862848987
 20
-1.25
 30
0.0
 11
67.781862848987
 21
-1.25
 31
0.0
  0
LINE
  5
241
330
30
100
AcDbEntity
  8
1
100
AcDbLine
 10
67.781862848987
 20
-1.25
 30
0.0
 11
67.865862848987
 21
-1.25
 31
0.0
  0
LINE
  5
242
330
30
100
AcDbEntity
  8
1
100
AcDbLine
 10
67.865862848987
 20
-1.25
 30
0.0
 11
67.949862848987
 21
-1.25
 31
0.0
  0
LINE
  5
243
330
30
100
AcDbEntity
  8
1
100
AcDbLine
 10
67.949862848987
 20
-1.25
 30
0.0
 11
68.033862848987
 21
-1.25
 31
0.0
  0
LINE
  5
244
330
30
100
AcDbEntity
  8
1
100
AcDbLine
 10
68.033862848987
 20
-1.25
 30
0.0
 11
68.117862848987
 21
-1.25
 31
0.0
  0
LINE
  5
245
330
30
100
AcDbEntity
  8
1
100
AcDbLine
 10
68.117862848987
 20
-1.25
 30
0.0
 11
68.201862848987
 21
-1.25
 31
0.0
  0
LINE
  5
246
330
30
100
AcDbEntity
  8
1
100
AcDbLine
 10
68.201862848987
 20
-1.25
 30
0.0
 11
68.285862848987
 21
-1.25
 31
0.0
  0
LINE
  5
247
330
30
100
AcDbEntity
  8
1
100
AcDbLine
 10
68.285862848987
 20
-1.25
 30
0.0
 11
68.369862848987
 21
-1.25
 31
0.0
  0
LINE
  5
248
330
30
100
AcDbEntity
  8
1
100
AcDbLine
 10
68.369862848987
 20
-1.25
 30
0.0
 11
68.453862848987
 21
-1.25
 31
0.0
  0
LINE
  5
249
330
30
100
AcDbEntity
  8
1
100
AcDbLine
 10
68.453862848987
 20
-1.25
 30
0.0
 11
68.537862848987
 21
-1.25
 31
0.0
  0
LINE
  5
24A
330
30
100
AcDbEntity
  8
1
100
AcDbLine
 10
68.537862848987
 20
-1.25
 30
0.0
 11
68.621862848987
 21
-1.25
 31
0.0
  0
LINE
  5
24B
330
30
100
AcDbEntity
  8
1
100
AcDbLine
 10
68.621862848987
 20
-1.25
 30
0.0
 11
68.705862848987
 21
-1.25
 31
0.0
  0
LINE
  5
24C
330
30
100
AcDbEntity
  8
1
100
AcDbLine
 10
68.705862848987
 20
-1.25
 30
0.0
 11
68.789862848987
 21
-1.25
 31
0.0
  0
LINE
  5
24D
330
30
100
AcDbEntity
  8
1
100
AcDbLine
 10
68.789862848987
 20
-1.25
 30
0.0
 11
68.873862848987
 21
-1.25
 31
0.0
  0
LINE
  5
24E
330
30
100
AcDbEntity
  8
1
100
AcDbLine
 10
68.873862848987
 20
-1.25
 30
0.0
 11
68.957862848987
 21
-1.25
 31
0.0
  0
LINE
  5
24F
330
30
100
AcDbEntity
  8
1
100
AcDbLine
 10
68.957862848987
 20
-1.25
 30
0.0
 11
69.041862848987
 21
-1.25
 31
0.0
  0
LINE
  5
250
330
30
100
AcDbEntity
  8
1
100
AcDbLine
 10
69.041862848987
 20
-1.25
 30
0.0
 11
69.125862848987
 21
-1.25
 31
0.0
  0
LINE
  5
251
330
30
100
AcDbEntity
  8
1
100
AcDbLine
 10
69.125862848987
 20
-1.25
 30
0.0
 11
69.209862848987
 21
-1.25
 31
0.0
  0
LINE
  5
252
330
30
100
AcDbEntity
  8
1
100
AcDbLine
 10
69.209862848987
 20
-1.25
 30
0.0
 11
69.293862848987
 21
-1.25
 31
0.0
  0
LINE
  5
253
330
30
100
AcDbEntity
  8
1
100
AcDbLine
 10
69.293862848987
 20
-1.25
 30
0.0
 11
69.377862848987
 21
-1.25
 31
0.0
  0
LINE
  5
254
330
30
100
AcDbEntity
  8
1
100
AcDbLine
 10
69.377862848987
 20
-1.25
 30
0.0
 11
69.461862848987
 21
-1.25
 31
0.0
  0
LINE
  5
255
330
30
100
AcDbEntity
  8
1
100
AcDbLine
 10
69.461862848987
 20
-1.25
 30
0.0
 11
69.545862848987
 21
-1.25
 31
0.0
  0
LINE
  5
256
330
30
100
AcDbEntity
  8
1
100
AcDbLine
 10
69.545862848987
 20
-1.25
 30
0.0
 11
69.629862848987
 21
-1.25
 31
0.0
  0
LINE
  5
257
330
30
100
AcDbEntity
  8
1
100
AcDbLine
 10
69.629862848987
 20
-1.25
 30
0.0
 11
69.713862848987
 21
-1.25
 31
0.0
  0
LINE
  5
258
330
30
100
AcDbEntity
  8
1
100
AcDbLine
 10
69.713862848987
 20
-1.25
 30
0.0
 11
69.797862848987
 21
-1.25
 31
0.0
  0
LINE
  5
259
330
30
100
AcDbEntity
  8
1
100
AcDbLine
 10
69.797862848987
 20
-1.25
 30
0.0
 11
69.881862848987
 21
-1.25
 31
0.0
  0
LINE
  5
25A
330
30
100
AcDbEntity
  8
1
100
AcDbLine
 10
69.881862848987
 20
-1.25
 30
0.0
 11
69.965862848987
 21
-1.25
 31
0.0
  0
LINE
  5
25B
330
30
100
AcDbEntity
  8
1
100
AcDbLine
 10
69.965862848987
 20
-1.25
 30
0.0
 11
70.049862848987
 21
-1.25
 31
0.0
  0
LINE
  5
25C
330
30
100
AcDbEntity
  8
1
100
AcDbLine
 10
70.049862848987
 20
-1.25
 30
0.0
 11
70.133862848987
 21
-1.25
 31
0.0
  0
LINE
  5
25D
330
30
100
AcDbEntity
  8
1
100
AcDbLine
 10
70.133862848987
 20
-1.25
 30
0.0
 11
70.217862848987
 21
-1.25
 31
0.0
  0
LINE
  5
25E
330
30
100
AcDbEntity
  8
1
100
AcDbLine
 10
70.217862848987
 20
-1.25
 30
0.0
 11
70.301862848987
 21
-1.25
 31
0.0
  0
LINE
  5
25F
330
30
100
AcDbEntity
  8
1
100
AcDbLine
 10
70.301862848987
 20
-1.25
 30
0.0
 11
70.385862848987
 21
-1.25
 31
0.0
  0
LINE
  5
260
330
30
100
AcDbEntity
  8
1
100
AcDbLine
 10
70.385862848987
 20
-1.25
 30
0.0
 11
70.469862848987
 21
-1.25
 31
0.0
  0
LINE
  5
261
330
30
100
AcDbEntity
  8
1
100
AcDbLine
 10
70.469862848987
 20
-1.25
 30
0.0
 11
70.553862848987
 21
-1.25
 31
0.0
  0
LINE
  5
262
330
30
100
AcDbEntity
  8
1
100
AcDbLine
 10
70.553862848987
 20
-1.25
 30
0.0
 11
70.637862848987
 21
-1.25
 31
0.0
  0
LINE
  5
263
330
30
100
AcDbEntity
  8
1
100
AcDbLine
 10
70.637862848987
 20
-1.25
 30
0.0
 11
70.721862848987
 21
-1.247258436634
 31
0.0
  0
LINE
  5
264
330
30
100
AcDbEntity
  8
1
100
AcDbLine
 10
70.721862848987
 20
-1.247258436634
 30
0.0
 11
70.805862848987
 21
-1.240254062976
 31
0.0
  0
LINE
  5
265
330
30
100
AcDbEntity
  8
1
100
AcDbLine
 10
70.805862848987
 20
-1.240254062976
 30
0.0
 11
70.889862848987
 21
-1.233249539125
 31
0.0
  0
LINE
  5
266
330
30
100
AcDbEntity
  8
1
100
AcDbLine
 10
70.889862848987
 20
-1.233249539125
 30
0.0
 11
70.973862848987
 21
-1.22624486276
 31
0.0
  0
LINE
  5
267
330
30
100
AcDbEntity
  8
1
100
AcDbLine
 10
70.973862848987
 20
-1.22624486276
 30
0.0
 11
71.057862848987
 21
-1.219240031512
 31
0.0
  0
LINE
  5
268
330
30
100
AcDbEntity
  8
1
100
AcDbLine
 10
71.057862848987
 20
-1.219240031512
 30
0.0
 11
71.141862848987
 21
-1.212235042965
 31
0.0
  0
LINE
  5
269
330
30
100
AcDbEntity
  8
1
100
AcDbLine
 10
71.141862848987
 20
-1.212235042965
 30
0.0
 11
71.225862848987
 21
-1.205229894649
 31
0.0
  0
LINE
  5
26A
330
30
100
AcDbEntity
  8
1
100
AcDbLine
 10
71.225862848987
 20
-1.205229894649
 30
0.0
 11
71.309862848987
 21
-1.198224584044
 31
0.0
  0
LINE
  5
26B
330
30
100
AcDbEntity
  8
1
100
AcDbLine
 10
71.309862848987
 20
-1.198224584044
 30
0.0
 11
71.393862848987
 21
-1.191219108577
 31
0.0
  0
LINE
  5
26C
330
30
100
AcDbEntity
  8
1
100
AcDbLine
 10
71.393862848987
 20
-1.191219108577
 30
0.0
 11
71.477862848987
 21
-1.184213465618
 31
0.0
  0
LINE
  5
26D
330
30
100
AcDbEntity
  8
1
100
AcDbLine
 10
71.477862848987
 20
-1.184213465618
 30
0.0
 11
71.561862848987
 21
-1.177207652484
 31
0.0
  0
LINE
  5
26E
330
30
100
AcDbEntity
  8
1
100
AcDbLine
 10
71.561862848987
 20
-1.177207652484
 30
0.0
 11
71.645862848987
 21
-1.170201666432
 31
0.0
  0
LINE
  5
26F
330
30
100
AcDbEntity
  8
1
100
AcDbLine
 10
71.645862848987
 20
-1.170201666432
 30
0.0
 11
71.729862848987
 21
-1.16319550466
 31
0.0
  0
LINE
  5
270
330
30
100
AcDbEntity
  8
1
100
AcDbLine
 10
71.729862848987
 20
-1.16319550466
 30
0.0
 11
71.813862848987
 21
-1.156189164305
 31
0.0
  0
LINE
  5
271
330
30
100
AcDbEntity
  8
1
100
AcDbLine
 10
71.813862848987
 20
-1.156189164305
 30
0.0
 11
71.897862848987
 21
-1.149182642442
 31
0.0
  0
LINE
  5
272
330
30
100
AcDbEntity
  8
1
100
AcDbLine
 10
71.897862848987
 20
-1.149182642442
 30
0.0
 11
71.981862848987
 21
-1.142175936082
 31
0.0
  0
LINE
  5
273
330
30
100
AcDbEntity
  8
1
100
AcDbLine
 10
71.981862848987
 20
-1.142175936082
 30
0.0
 11
72.065862848987
 21
-1.135169042168
 31
0.0
  0
LINE
  5
274
330
30
100
AcDbEntity
  8
1
100
AcDbLine
 10
72.065862848987
 20
-1.135169042168
 30
0.0
 11
72.149862848987
 21
-1.128161957576
 31
0.0
  0
LINE
  5
275
330
30
100
AcDbEntity
  8
1
100
AcDbLine
 10
72.149862848987
 20
-1.128161957576
 30
0.0
 11
72.233862848987
 21
-1.121154679114
 31
0.0
  0
LINE
  5
276
330
30
100
AcDbEntity
  8
1
100
AcDbLine
 10
72.233862848987
 20
-1.121154679114
 30
0.0
 11
72.317862848987
 21
-1.114147203516
 31
0.0
  0
LINE
  5
277
330
30
100
AcDbEntity
  8
1
100
AcDbLine
 10
72.317862848987
 20
-1.114147203516
 30
0.0
 11
72.401862848987
 21
-1.107139527443
 31
0.0
  0
LINE
  5
278
330
30
100
AcDbEntity
  8
1
100
AcDbLine
 10
72.401862848987
 20
-1.107139527443
 30
0.0
 11
72.485862848987
 21
-1.10013164748
 31
0.0
  0
LINE
  5
279
330
30
100
AcDbEntity
  8
1
100
AcDbLine
 10
72.485862848987
 20
-1.10013164748
 30
0.0
 11
72.569862848987
 21
-1.093123560133
 31
0.0
  0
LINE
  5
27A
330
30
100
AcDbEntity
  8
1
100
AcDbLine
 10
72.569862848987
 20
-1.093123560133
 30
0.0
 11
72.653862848987
 21
-1.086115261828
 31
0.0
  0
LINE
  5
27B
330
30
100
AcDbEntity
  8
1
100
AcDbLine
 10
72.653862848987
 20
-1.086115261828
 30
0.0
 11
72.737862848987
 21
-1.058270541027
 31
0.0
  0
LINE
  5
27C
330
30
100
AcDbEntity
  8
1
100
AcDbLine
 10
72.737862848987
 20
-1.058270541027
 30
0.0
 11
72.821862848987
 21
-1.015447230853
 31
0.0
  0
LINE
  5
27D
330
30
100
AcDbEntity
  8
1
100
AcDbLine
 10
72.821862848987
 20
-1.015447230853
 30
0.0
 11
72.905862848987
 21
-0.972614328727
 31
0.0
  0
LINE
  5
27E
330
30
100
AcDbEntity
  8
1
100
AcDbLine
 10
72.905862848987
 20
-0.972614328727
 30
0.0
 11
72.989862848987
 21
-0.929770675947
 31
0.0
  0
LINE
  5
27F
330
30
100
AcDbEntity
  8
1
100
AcDbLine
 10
72.989862848987
 20
-0.929770675947
 30
0.0
 11
73.073862848987
 21
-0.886914918984
 31
0.0
  0
LINE
  5
280
330
30
100
AcDbEntity
  8
1
100
AcDbLine
 10
73.073862848987
 20
-0.886914918984
 30
0.0
 11
73.157862848987
 21
-0.84404546665
 31
0.0
  0
LINE
  5
281
330
30
100
AcDbEntity
  8
1
100
AcDbLine
 10
73.157862848987
 20
-0.84404546665
 30
0.0
 11
73.241862848987
 21
-0.801160435416
 31
0.0
  0
LINE
  5
282
330
30
100
AcDbEntity
  8
1
100
AcDbLine
 10
73.241862848987
 20
-0.801160435416
 30
0.0
 11
73.325862848987
 21
-0.75825757887
 31
0.0
  0
LINE
  5
283
330
30
100
AcDbEntity
  8
1
100
AcDbLine
 10
73.325862848987
 20
-0.75825757887
 30
0.0
 11
73.409862848987
 21
-0.71533419565
 31
0.0
  0
LINE
  5
284
330
30
100
AcDbEntity
  8
1
100
AcDbLine
 10
73.409862848987
 20
-0.71533419565
 30
0.0
 11
73.493862848987
 21
-0.672387007764
 31
0.0
  0
LINE
  5
285
330
30
100
AcDbEntity
  8
1
100
AcDbLine
 10
73.493862848987
 20
-0.672387007764
 30
0.0
 11
73.577862848987
 21
-0.629411997515
 31
0.0
  0
LINE
  5
286
330
30
100
AcDbEntity
  8
1
100
AcDbLine
 10
73.577862848987
 20
-0.629411997515
 30
0.0
 11
73.661862848987
 21
-0.586404185535
 31
0.0
  0
LINE
  5
287
330
30
100
AcDbEntity
  8
1
100
AcDbLine
 10
73.661862848987
 20
-0.586404185535
 30
0.0
 11
73.745862848987
 21
-0.543357323446
 31
0.0
  0
LINE
  5
288
330
30
100
AcDbEntity
  8
1
100
AcDbLine
 10
73.745862848987
 20
-0.543357323446
 30
0.0
 11
73.829862848987
 21
-0.500263459989
 31
0.0
  0
LINE
  5
289
330
30
100
AcDbEntity
  8
1
100
AcDbLine
 10
73.829862848987
 20
-0.500263459989
 30
0.0
 11
73.913862848987
 21
-0.457112315036
 31
0.0
  0
LINE
  5
28A
330
30
100
AcDbEntity
  8
1
100
AcDbLine
 10
73.913862848987
 20
-0.457112315036
 30
0.0
 11
73.997862848987
 21
-0.413890353661
 31
0.0
  0
LINE
  5
28B
330
30
100
AcDbEntity
  8
1
100
AcDbLine
 10
73.997862848987
 20
-0.413890353661
 30
0.0
 11
74.081862848987
 21
-0.370579376688
 31
0.0
  0
LINE
  5
28C
330
30
100
AcDbEntity
  8
1
100
AcDbLine
 10
74.081862848987
 20
-0.370579376688
 30
0.0
 11
74.165862848987
 21
-0.327154302277
 31
0.0
  0
LINE
  5
28D
330
30
100
AcDbEntity
  8
1
100
AcDbLine
 10
74.165862848987
 20
-0.327154302277
 30
0.0
 11
74.249862848987
 21
-0.283579533261
 31
0.0
  0
LINE
  5
28E
330
30
100
AcDbEntity
  8
1
100
AcDbLine
 10
74.249862848987
 20
-0.283579533261
 30
0.0
 11
74.333862848987
 21
-0.239802718126
 31
0.0
  0
LINE
  5
28F
330
30
100
AcDbEntity
  8
1
100
AcDbLine
 10
74.333862848987
 20
-0.239802718126
 30
0.0
 11
74.417862848987
 21
-0.193502751744
 31
0.0
  0
LINE
  5
290
330
30
100
AcDbEntity
  8
1
100
AcDbLine
 10
74.417862848987
 20
-0.193502751744
 30
0.0
 11
74.501862848987
 21
-0.11694969453
 31
0.0
  0
LINE
  5
291
330
30
100
AcDbEntity
  8
1
100
AcDbLine
 10
72.688984146635
 20
-2.2
 30
0.0
 11
72.688984146635
 21
2.2
 31
0.0
  0
LINE
  5
292
330
30
100
AcDbEntity
  8
1
100
AcDbLine
 10
63.161862848987
 20
2.5
 30
0.0
 11
63.245862848987
 21
2.5
 31
0.0
  0
LINE
  5
293
330
30
100
AcDbEntity
  8
1
100
AcDbLine
 10
63.245862848987
 20
2.5
 30
0.0
 11
63.329862848987
 21
2.5
 31
0.0
  0
LINE
  5
294
330
30
100
AcDbEntity
  8
1
100
AcDbLine
 10
63.329862848987
 20
2.5
 30
0.0
 11
63.413862848987
 21
2.5
 31
0.0
  0
LINE
  5
295
330
30
100
AcDbEntity
  8
1
100
AcDbLine
 10
63.413862848987
 20
2.5
 30
0.0
 11
63.497862848987
 21
2.5
 31
0.0
  0
LINE
  5
296
330
30
100
AcDbEntity
  8
1
100
AcDbLine
 10
63.497862848987
 20
2.5
 30
0.0
 11
63.581862848987
 21
2.5
 31
0.0
  0
LINE
  5
297
330
30
100
AcDbEntity
  8
1
100
AcDbLine
 10
63.581862848987
 20
2.5
 30
0.0
 11
63.665862848987
 21
2.5
 31
0.0
  0
LINE
  5
298
330
30
100
AcDbEntity
  8
1
100
AcDbLine
 10
63.665862848987
 20
2.5
 30
0.0
 11
63.749862848987
 21
2.5
 31
0.0
  0
LINE
  5
299
330
30
100
AcDbEntity
  8
1
100
AcDbLine
 10
63.749862848987
 20
2.5
 30
0.0
 11
63.833862848987
 21
2.5
 31
0.0
  0
LINE
  5
29A
330
30
100
AcDbEntity
  8
1
100
AcDbLine
 10
63.833862848987
 20
2.5
 30
0.0
 11
63.917862848987
 21
2.5
 31
0.0
  0
LINE
  5
29B
330
30
100
AcDbEntity
  8
1
100
AcDbLine
 10
63.917862848987
 20
2.5
 30
0.0
 11
64.001862848987
 21
2.5
 31
0.0
  0
LINE
  5
29C
330
30
100
AcDbEntity
  8
1
100
AcDbLine
 10
64.001862848987
 20
2.5
 30
0.0
 11
64.085862848987
 21
2.5
 31
0.0
  0
LINE
  5
29D
330
30
100
AcDbEntity
  8
1
100
AcDbLine
 10
64.085862848987
 20
2.5
 30
0.0
 11
64.169862848987
 21
2.5
 31
0.0
  0
LINE
  5
29E
330
30
100
AcDbEntity
  8
1
100
AcDbLine
 10
64.169862848987
 20
2.5
 30
0.0
 11
64.253862848987
 21
2.5
 31
0.0
  0
LINE
  5
29F
330
30
100
AcDbEntity
  8
1
100
AcDbLine
 10
64.253862848987
 20
2.5
 30
0.0
 11
64.337862848987
 21
2.5
 31
0.0
  0
LINE
  5
2A0
330
30
100
AcDbEntity
  8
1
100
AcDbLine
 10
64.337862848987
 20
2.5
 30
0.0
 11
64.421862848987
 21
2.5
 31
0.0
  0
LINE
  5
2A1
330
30
100
AcDbEntity
  8
1
100
AcDbLine
 10
64.421862848987
 20
2.5
 30
0.0
 11
64.505862848987
 21
2.5
 31
0.0
  0
LINE
  5
2A2
330
30
100
AcDbEntity
  8
1
100
AcDbLine
 10
64.505862848987
 20
2.5
 30
0.0
 11
64.589862848987
 21
2.5
 31
0.0
  0
LINE
  5
2A3
330
30
100
AcDbEntity
  8
1
100
AcDbLine
 10
64.589862848987
 20
2.5
 30
0.0
 11
64.673862848987
 21
2.5
 31
0.0
  0
LINE
  5
2A4
330
30
100
AcDbEntity
  8
1
100
AcDbLine
 10
64.673862848987
 20
2.5
 30
0.0
 11
64.757862848987
 21
2.5
 31
0.0
  0
LINE
  5
2A5
330
30
100
AcDbEntity
  8
1
100
AcDbLine
 10
64.757862848987
 20
2.5
 30
0.0
 11
64.841862848987
 21
2.5
 31
0.0
  0
LINE
  5
2A6
330
30
100
AcDbEntity
  8
1
100
AcDbLine
 10
64.841862848987
 20
2.5
 30
0.0
 11
64.925862848987
 21
2.5
 31
0.0
  0
LINE
  5
2A7
330
30
100
AcDbEntity
  8
1
100
AcDbLine
 10
64.925862848987
 20
2.5
 30
0.0
 11
65.009862848987
 21
2.5
 31
0.0
  0
LINE
  5
2A8
330
30
100
AcDbEntity
  8
1
100
AcDbLine
 10
65.009862848987
 20
2.5
 30
0.0
 11
65.093862848987
 21
2.5
 31
0.0
  0
LINE
  5
2A9
330
30
100
AcDbEntity
  8
1
100
AcDbLine
 10
65.093862848987
 20
2.5
 30
0.0
 11
65.177862848987
 21
2.5
 31
0.0
  0
LINE
  5
2AA
330
30
100
AcDbEntity
  8
1
100
AcDbLine
 10
65.177862848987
 20
2.5
 30
0.0
 11
65.261862848987
 21
2.5
 31
0.0
  0
LINE
  5
2AB
330
30
100
AcDbEntity
  8
1
100
AcDbLine
 10
65.261862848987
 20
2.5
 30
0.0
 11
65.345862848987
 21
2.5
 31
0.0
  0
LINE
  5
2AC
330
30
100
AcDbEntity
  8
1
100
AcDbLine
 10
65.345862848987
 20
2.5
 30
0.0
 11
65.429862848987
 21
2.5
 31
0.0
  0
LINE
  5
2AD
330
30
100
AcDbEntity
  8
1
100
AcDbLine
 10
65.429862848987
 20
2.5
 30
0.0
 11
65.513862848987
 21
2.5
 31
0.0
  0
LINE
  5
2AE
330
30
100
AcDbEntity
  8
1
100
AcDbLine
 10
65.513862848987
 20
2.5
 30
0.0
 11
65.597862848987
 21
2.5
 31
0.0
  0
LINE
  5
2AF
330
30
100
AcDbEntity
  8
1
100
AcDbLine
 10
65.597862848987
 20
2.5
 30
0.0
 11
65.681862848987
 21
2.5
 31
0.0
  0
LINE
  5
2B0
330
30
100
AcDbEntity
  8
1
100
AcDbLine
 10
65.681862848987
 20
2.5
 30
0.0
 11
65.765862848987
 21
2.5
 31
0.0
  0
LINE
  5
2B1
330
30
100
AcDbEntity
  8
1
100
AcDbLine
 10
65.765862848987
 20
2.5
 30
0.0
 11
65.849862848987
 21
2.5
 31
0.0
  0
LINE
  5
2B2
330
30
100
AcDbEntity
  8
1
100
AcDbLine
 10
65.849862848987
 20
2.5
 30
0.0
 11
65.933862848987
 21
2.5
 31
0.0
  0
LINE
  5
2B3
330
30
100
AcDbEntity
  8
1
100
AcDbLine
 10
65.933862848987
 20
2.5
 30
0.0
 11
66.017862848987
 21
2.5
 31
0.0
  0
LINE
  5
2B4
330
30
100
AcDbEntity
  8
1
100
AcDbLine
 10
66.017862848987
 20
2.5
 30
0.0
 11
66.101862848987
 21
2.5
 31
0.0
  0
LINE
  5
2B5
330
30
100
AcDbEntity
  8
1
100
AcDbLine
 10
66.101862848987
 20
2.5
 30
0.0
 11
66.185862848987
 21
2.5
 31
0.0
  0
LINE
  5
2B6
330
30
100
AcDbEntity
  8
1
100
AcDbLine
 10
66.185862848987
 20
2.5
 30
0.0
 11
66.269862848987
 21
2.5
 31
0.0
  0
LINE
  5
2B7
330
30
100
AcDbEntity
  8
1
100
AcDbLine
 10
66.269862848987
 20
2.5
 30
0.0
 11
66.353862848987
 21
2.5
 31
0.0
  0
LINE
  5
2B8
330
30
100
AcDbEntity
  8
1
100
AcDbLine
 10
66.353862848987
 20
2.5
 30
0.0
 11
66.437862848987
 21
2.5
 31
0.0
  0
LINE
  5
2B9
330
30
100
AcDbEntity
  8
1
100
AcDbLine
 10
66.437862848987
 20
2.5
 30
0.0
 11
66.521862848987
 21
2.5
 31
0.0
  0
LINE
  5
2BA
330
30
100
AcDbEntity
  8
1
100
AcDbLine
 10
66.521862848987
 20
2.5
 30
0.0
 11
66.605862848987
 21
2.5
 31
0.0
  0
LINE
  5
2BB
330
30
100
AcDbEntity
  8
1
100
AcDbLine
 10
66.605862848987
 20
2.5
 30
0.0
 11
66.689862848987
 21
2.5
 31
0.0
  0
LINE
  5
2BC
330
30
100
AcDbEntity
  8
1
100
AcDbLine
 10
66.689862848987
 20
2.5
 30
0.0
 11
66.773862848987
 21
2.5
 31
0.0
  0
LINE
  5
2BD
330
30
100
AcDbEntity
  8
1
100
AcDbLine
 10
66.773862848987
 20
2.5
 30
0.0
 11
66.857862848987
 21
2.5
 31
0.0
  0
LINE
  5
2BE
330
30
100
AcDbEntity
  8
1
100
AcDbLine
 10
66.857862848987
 20
2.5
 30
0.0
 11
66.941862848987
 21
2.5
 31
0.0
  0
LINE
  5
2BF
330
30
100
AcDbEntity
  8
1
100
AcDbLine
 10
66.941862848987
 20
2.5
 30
0.0
 11
67.025862848987
 21
2.5
 31
0.0
  0
LINE
  5
2C0
330
30
100
AcDbEntity
  8
1
100
AcDbLine
 10
67.025862848987
 20
2.5
 30
0.0
 11
67.109862848987
 21
2.5
 31
0.0
  0
LINE
  5
2C1
330
30
100
AcDbEntity
  8
1
100
AcDbLine
 10
67.109862848987
 20
2.5
 30
0.0
 11
67.193862848987
 21
2.5
 31
0.0
  0
LINE
  5
2C2
330
30
100
AcDbEntity
  8
1
100
AcDbLine
 10
67.193862848987
 20
2.5
 30
0.0
 11
67.277862848987
 21
2.5
 31
0.0
  0
LINE
  5
2C3
330
30
100
AcDbEntity
  8
1
100
AcDbLine
 10
67.277862848987
 20
2.5
 30
0.0
 11
67.361862848987
 21
2.5
 31
0.0
  0
LINE
  5
2C4
330
30
100
AcDbEntity
  8
1
100
AcDbLine
 10
67.361862848987
 20
2.5
 30
0.0
 11
67.445862848987
 21
2.5
 31
0.0
  0
LINE
  5
2C5
330
30
100
AcDbEntity
  8
1
100
AcDbLine
 10
67.445862848987
 20
2.5
 30
0.0
 11
67.529862848987
 21
2.5
 31
0.0
  0
LINE
  5
2C6
330
30
100
AcDbEntity
  8
1
100
AcDbLine
 10
67.529862848987
 20
2.5
 30
0.0
 11
67.613862848987
 21
2.5
 31
0.0
  0
LINE
  5
2C7
330
30
100
AcDbEntity
  8
1
100
AcDbLine
 10
67.613862848987
 20
2.5
 30
0.0
 11
67.697862848987
 21
2.5
 31
0.0
  0
LINE
  5
2C8
330
30
100
AcDbEntity
  8
1
100
AcDbLine
 10
67.697862848987
 20
2.5
 30
0.0
 11
67.781862848987
 21
2.5
 31
0.0
  0
LINE
  5
2C9
330
30
100
AcDbEntity
  8
1
100
AcDbLine
 10
67.781862848987
 20
2.5
 30
0.0
 11
67.865862848987
 21
2.5
 31
0.0
  0
LINE
  5
2CA
330
30
100
AcDbEntity
  8
1
100
AcDbLine
 10
67.865862848987
 20
2.5
 30
0.0
 11
67.949862848987
 21
2.5
 31
0.0
  0
LINE
  5
2CB
330
30
100
AcDbEntity
  8
1
100
AcDbLine
 10
67.949862848987
 20
2.5
 30
0.0
 11
68.033862848987
 21
2.5
 31
0.0
  0
LINE
  5
2CC
330
30
100
AcDbEntity
  8
1
100
AcDbLine
 10
68.033862848987
 20
2.5
 30
0.0
 11
68.117862848987
 21
2.5
 31
0.0
  0
LINE
  5
2CD
330
30
100
AcDbEntity
  8
1
100
AcDbLine
 10
68.117862848987
 20
2.5
 30
0.0
 11
68.201862848987
 21
2.5
 31
0.0
  0
LINE
  5
2CE
330
30
100
AcDbEntity
  8
1
100
AcDbLine
 10
68.201862848987
 20
2.5
 30
0.0
 11
68.285862848987
 21
2.5
 31
0.0
  0
LINE
  5
2CF
330
30
100
AcDbEntity
  8
1
100
AcDbLine
 10
68.285862848987
 20
2.5
 30
0.0
 11
68.369862848987
 21
2.5
 31
0.0
  0
LINE
  5
2D0
330
30
100
AcDbEntity
  8
1
100
AcDbLine
 10
68.369862848987
 20
2.5
 30
0.0
 11
68.453862848987
 21
2.5
 31
0.0
  0
LINE
  5
2D1
330
30
100
AcDbEntity
  8
1
100
AcDbLine
 10
68.453862848987
 20
2.5
 30
0.0
 11
68.537862848987
 21
2.5
 31
0.0
  0
LINE
  5
2D2
330
30
100
AcDbEntity
  8
1
100
AcDbLine
 10
68.537862848987
 20
2.5
 30
0.0
 11
68.621862848987
 21
2.5
 31
0.0
  0
LINE
  5
2D3
330
30
100
AcDbEntity
  8
1
100
AcDbLine
 10
68.621862848987
 20
2.5
 30
0.0
 11
68.705862848987
 21
2.5
 31
0.0
  0
LINE
  5
2D4
330
30
100
AcDbEntity
  8
1
100
AcDbLine
 10
68.705862848987
 20
2.5
 30
0.0
 11
68.789862848987
 21
2.5
 31
0.0
  0
LINE
  5
2D5
330
30
100
AcDbEntity
  8
1
100
AcDbLine
 10
68.789862848987
 20
2.5
 30
0.0
 11
68.873862848987
 21
2.5
 31
0.0
  0
LINE
  5
2D6
330
30
100
AcDbEntity
  8
1
100
AcDbLine
 10
68.873862848987
 20
2.5
 30
0.0
 11
68.957862848987
 21
2.5
 31
0.0
  0
LINE
  5
2D7
330
30
100
AcDbEntity
  8
1
100
AcDbLine
 10
68.957862848987
 20
2.5
 30
0.0
 11
69.041862848987
 21
2.5
 31
0.0
  0
LINE
  5
2D8
330
30
100
AcDbEntity
  8
1
100
AcDbLine
 10
69.041862848987
 20
2.5
 30
0.0
 11
69.125862848987
 21
2.5
 31
0.0
  0
LINE
  5
2D9
330
30
100
AcDbEntity
  8
1
100
AcDbLine
 10
69.125862848987
 20
2.5
 30
0.0
 11
69.209862848987
 21
2.5
 31
0.0
  0
LINE
  5
2DA
330
30
100
AcDbEntity
  8
1
100
AcDbLine
 10
69.209862848987
 20
2.5
 30
0.0
 11
69.293862848987
 21
2.5
 31
0.0
  0
LINE
  5
2DB
330
30
100
AcDbEntity
  8
1
100
AcDbLine
 10
69.293862848987
 20
2.5
 30
0.0
 11
69.377862848987
 21
2.5
 31
0.0
  0
LINE
  5
2DC
330
30
100
AcDbEntity
  8
1
100
AcDbLine
 10
69.377862848987
 20
2.5
 30
0.0
 11
69.461862848987
 21
2.5
 31
0.0
  0
LINE
  5
2DD
330
30
100
AcDbEntity
  8
1
100
AcDbLine
 10
69.461862848987
 20
2.5
 30
0.0
 11
69.545862848987
 21
2.5
 31
0.0
  0
LINE
  5
2DE
330
30
100
AcDbEntity
  8
1
100
AcDbLine
 10
69.545862848987
 20
2.5
 30
0.0
 11
69.629862848987
 21
2.5
 31
0.0
  0
LINE
  5
2DF
330
30
100
AcDbEntity
  8
1
100
AcDbLine
 10
69.629862848987
 20
2.5
 30
0.0
 11
69.713862848987
 21
2.5
 31
0.0
  0
LINE
  5
2E0
330
30
100
AcDbEntity
  8
1
100
AcDbLine
 10
69.713862848987
 20
2.5
 30
0.0
 11
69.797862848987
 21
2.5
 31
0.0
  0
LINE
  5
2E1
330
30
100
AcDbEntity
  8
1
100
AcDbLine
 10
69.797862848987
 20
2.5
 30
0.0
 11
69.881862848987
 21
2.5
 31
0.0
  0
LINE
  5
2E2
330
30
100
AcDbEntity
  8
1
100
AcDbLine
 10
69.881862848987
 20
2.5
 30
0.0
 11
69.965862848987
 21
2.5
 31
0.0
  0
LINE
  5
2E3
330
30
100
AcDbEntity
  8
1
100
AcDbLine
 10
69.965862848987
 20
2.5
 30
0.0
 11
70.049862848987
 21
2.5
 31
0.0
  0
LINE
  5
2E4
330
30
100
AcDbEntity
  8
1
100
AcDbLine
 10
70.049862848987
 20
2.5
 30
0.0
 11
70.133862848987
 21
2.5
 31
0.0
  0
LINE
  5
2E5
330
30
100
AcDbEntity
  8
1
100
AcDbLine
 10
70.133862848987
 20
2.5
 30
0.0
 11
70.217862848987
 21
2.5
 31
0.0
  0
LINE
  5
2E6
330
30
100
AcDbEntity
  8
1
100
AcDbLine
 10
70.217862848987
 20
2.5
 30
0.0
 11
70.301862848987
 21
2.5
 31
0.0
  0
LINE
  5
2E7
330
30
100
AcDbEntity
  8
1
100
AcDbLine
 10
70.301862848987
 20
2.5
 30
0.0
 11
70.385862848987
 21
2.5
 31
0.0
  0
LINE
  5
2E8
330
30
100
AcDbEntity
  8
1
100
AcDbLine
 10
70.385862848987
 20
2.5
 30
0.0
 11
70.469862848987
 21
2.5
 31
0.0
  0
LINE
  5
2E9
330
30
100
AcDbEntity
  8
1
100
AcDbLine
 10
70.469862848987
 20
2.5
 30
0.0
 11
70.553862848987
 21
2.5
 31
0.0
  0
LINE
  5
2EA
330
30
100
AcDbEntity
  8
1
100
AcDbLine
 10
70.553862848987
 20
2.5
 30
0.0
 11
70.637862848987
 21
2.5
 31
0.0
  0
LINE
  5
2EB
330
30
100
AcDbEntity
  8
1
100
AcDbLine
 10
70.688984146635
 20
2.5
 30
0.0
 11
70.688984146635
 21
-2.5
 31
0.0
  0
LINE
  5
2EC
330
30
100
AcDbEntity
  8
1
100
AcDbLine
 10
70.637862848987
 20
-2.5
 30
0.0
 11
70.553862848987
 21
-2.5
 31
0.0
  0
LINE
  5
2ED
330
30
100
AcDbEntity
  8
1
100
AcDbLine
 10
70.553862848987
 20
-2.5
 30
0.0
 11
70.469862848987
 21
-2.5
 31
0.0
  0
LINE
  5
2EE
330
30
100
AcDbEntity
  8
1
100
AcDbLine
 10
70.469862848987
 20
-2.5
 30
0.0
 11
70.385862848987
 21
-2.5
 31
0.0
  0
LINE
  5
2EF
330
30
100
AcDbEntity
  8
1
100
AcDbLine
 10
70.385862848987
 20
-2.5
 30
0.0
 11
70.301862848987
 21
-2.5
 31
0.0
  0
LINE
  5
2F0
330
30
100
AcDbEntity
  8
1
100
AcDbLine
 10
70.301862848987
 20
-2.5
 30
0.0
 11
70.217862848987
 21
-2.5
 31
0.0
  0
LINE
  5
2F1
330
30
100
AcDbEntity
  8
1
100
AcDbLine
 10
70.217862848987
 20
-2.5
 30
0.0
 11
70.133862848987
 21
-2.5
 31
0.0
  0
LINE
  5
2F2
330
30
100
AcDbEntity
  8
1
100
AcDbLine
 10
70.133862848987
 20
-2.5
 30
0.0
 11
70.049862848987
 21
-2.5
 31
0.0
  0
LINE
  5
2F3
330
30
100
AcDbEntity
  8
1
100
AcDbLine
 10
70.049862848987
 20
-2.5
 30
0.0
 11
69.965862848987
 21
-2.5
 31
0.0
  0
LINE
  5
2F4
330
30
100
AcDbEntity
  8
1
100
AcDbLine
 10
69.965862848987
 20
-2.5
 30
0.0
 11
69.881862848987
 21
-2.5
 31
0.0
  0
LINE
  5
2F5
330
30
100
AcDbEntity
  8
1
100
AcDbLine
 10
69.881862848987
 20
-2.5
 30
0.0
 11
69.797862848987
 21
-2.5
 31
0.0
  0
LINE
  5
2F6
330
30
100
AcDbEntity
  8
1
100
AcDbLine
 10
69.797862848987
 20
-2.5
 30
0.0
 11
69.713862848987
 21
-2.5
 31
0.0
  0
LINE
  5
2F7
330
30
100
AcDbEntity
  8
1
100
AcDbLine
 10
69.713862848987
 20
-2.5
 30
0.0
 11
69.629862848987
 21
-2.5
 31
0.0
  0
LINE
  5
2F8
330
30
100
AcDbEntity
  8
1
100
AcDbLine
 10
69.629862848987
 20
-2.5
 30
0.0
 11
69.545862848987
 21
-2.5
 31
0.0
  0
LINE
  5
2F9
330
30
100
AcDbEntity
  8
1
100
AcDbLine
 10
69.545862848987
 20
-2.5
 30
0.0
 11
69.461862848987
 21
-2.5
 31
0.0
  0
LINE
  5
2FA
330
30
100
AcDbEntity
  8
1
100
AcDbLine
 10
69.461862848987
 20
-2.5
 30
0.0
 11
69.377862848987
 21
-2.5
 31
0.0
  0
LINE
  5
2FB
330
30
100
AcDbEntity
  8
1
100
AcDbLine
 10
69.377862848987
 20
-2.5
 30
0.0
 11
69.293862848987
 21
-2.5
 31
0.0
  0
LINE
  5
2FC
330
30
100
AcDbEntity
  8
1
100
AcDbLine
 10
69.293862848987
 20
-2.5
 30
0.0
 11
69.209862848987
 21
-2.5
 31
0.0
  0
LINE
  5
2FD
330
30
100
AcDbEntity
  8
1
100
AcDbLine
 10
69.209862848987
 20
-2.5
 30
0.0
 11
69.125862848987
 21
-2.5
 31
0.0
  0
LINE
  5
2FE
330
30
100
AcDbEntity
  8
1
100
AcDbLine
 10
69.125862848987
 20
-2.5
 30
0.0
 11
69.041862848987
 21
-2.5
 31
0.0
  0
LINE
  5
2FF
330
30
100
AcDbEntity
  8
1
100
AcDbLine
 10
69.041862848987
 20
-2.5
 30
0.0
 11
68.957862848987
 21
-2.5
 31
0.0
  0
LINE
  5
300
330
30
100
AcDbEntity
  8
1
100
AcDbLine
 10
68.957862848987
 20
-2.5
 30
0.0
 11
68.873862848987
 21
-2.5
 31
0.0
  0
LINE
  5
301
330
30
100
AcDbEntity
  8
1
100
AcDbLine
 10
68.873862848987
 20
-2.5
 30
0.0
 11
68.789862848987
 21
-2.5
 31
0.0
  0
LINE
  5
302
330
30
100
AcDbEntity
  8
1
100
AcDbLine
 10
68.789862848987
 20
-2.5
 30
0.0
 11
68.705862848987
 21
-2.5
 31
0.0
  0
LINE
  5
303
330
30
100
AcDbEntity
  8
1
100
AcDbLine
 10
68.705862848987
 20
-2.5
 30
0.0
 11
68.621862848987
 21
-2.5
 31
0.0
  0
LINE
  5
304
330
30
100
AcDbEntity
  8
1
100
AcDbLine
 10
68.621862848987
 20
-2.5
 30
0.0
 11
68.537862848987
 21
-2.5
 31
0.0
  0
LINE
  5
305
330
30
100
AcDbEntity
  8
1
100
AcDbLine
 10
68.537862848987
 20
-2.5
 30
0.0
 11
68.453862848987
 21
-2.5
 31
0.0
  0
LINE
  5
306
330
30
100
AcDbEntity
  8
1
100
AcDbLine
 10
68.453862848987
 20
-2.5
 30
0.0
 11
68.369862848987
 21
-2.5
 31
0.0
  0
LINE
  5
307
330
30
100
AcDbEntity
  8
1
100
AcDbLine
 10
68.369862848987
 20
-2.5
 30
0.0
 11
68.285862848987
 21
-2.5
 31
0.0
  0
LINE
  5
308
330
30
100
AcDbEntity
  8
1
100
AcDbLine
 10
68.285862848987
 20
-2.5
 30
0.0
 11
68.201862848987
 21
-2.5
 31
0.0
  0
LINE
  5
309
330
30
100
AcDbEntity
  8
1
100
AcDbLine
 10
68.201862848987
 20
-2.5
 30
0.0
 11
68.117862848987
 21
-2.5
 31
0.0
  0
LINE
  5
30A
330
30
100
AcDbEntity
  8
1
100
AcDbLine
 10
68.117862848987
 20
-2.5
 30
0.0
 11
68.033862848987
 21
-2.5
 31
0.0
  0
LINE
  5
30B
330
30
100
AcDbEntity
  8
1
100
AcDbLine
 10
68.033862848987
 20
-2.5
 30
0.0
 11
67.949862848987
 21
-2.5
 31
0.0
  0
LINE
  5
30C
330
30
100
AcDbEntity
  8
1
100
AcDbLine
 10
67.949862848987
 20
-2.5
 30
0.0
 11
67.865862848987
 21
-2.5
 31
0.0
  0
LINE
  5
30D
330
30
100
AcDbEntity
  8
1
100
AcDbLine
 10
67.865862848987
 20
-2.5
 30
0.0
 11
67.781862848987
 21
-2.5
 31
0.0
  0
LINE
  5
30E
330
30
100
AcDbEntity
  8
1
100
AcDbLine
 10
67.781862848987
 20
-2.5
 30
0.0
 11
67.697862848987
 21
-2.5
 31
0.0
  0
LINE
  5
30F
330
30
100
AcDbEntity
  8
1
100
AcDbLine
 10
67.697862848987
 20
-2.5
 30
0.0
 11
67.613862848987
 21
-2.5
 31
0.0
  0
LINE
  5
310
330
30
100
AcDbEntity
  8
1
100
AcDbLine
 10
67.613862848987
 20
-2.5
 30
0.0
 11
67.529862848987
 21
-2.5
 31
0.0
  0
LINE
  5
311
330
30
100
AcDbEntity
  8
1
100
AcDbLine
 10
67.529862848987
 20
-2.5
 30
0.0
 11
67.445862848987
 21
-2.5
 31
0.0
  0
LINE
  5
312
330
30
100
AcDbEntity
  8
1
100
AcDbLine
 10
67.445862848987
 20
-2.5
 30
0.0
 11
67.361862848987
 21
-2.5
 31
0.0
  0
LINE
  5
313
330
30
100
AcDbEntity
  8
1
100
AcDbLine
 10
67.361862848987
 20
-2.5
 30
0.0
 11
67.277862848987
 21
-2.5
 31
0.0
  0
LINE
  5
314
330
30
100
AcDbEntity
  8
1
100
AcDbLine
 10
67.277862848987
 20
-2.5
 30
0.0
 11
67.193862848987
 21
-2.5
 31
0.0
  0
LINE
  5
315
330
30
100
AcDbEntity
  8
1
100
AcDbLine
 10
67.193862848987
 20
-2.5
 30
0.0
 11
67.109862848987
 21
-2.5
 31
0.0
  0
LINE
  5
316
330
30
100
AcDbEntity
  8
1
100
AcDbLine
 10
67.109862848987
 20
-2.5
 30
0.0
 11
67.025862848987
 21
-2.5
 31
0.0
  0
LINE
  5
317
330
30
100
AcDbEntity
  8
1
100
AcDbLine
 10
67.025862848987
 20
-2.5
 30
0.0
 11
66.941862848987
 21
-2.5
 31
0.0
  0
LINE
  5
318
330
30
100
AcDbEntity
  8
1
100
AcDbLine
 10
66.941862848987
 20
-2.5
 30
0.0
 11
66.857862848987
 21
-2.5
 31
0.0
  0
LINE
  5
319
330
30
100
AcDbEntity
  8
1
100
AcDbLine
 10
66.857862848987
 20
-2.5
 30
0.0
 11
66.773862848987
 21
-2.5
 31
0.0
  0
LINE
  5
31A
330
30
100
AcDbEntity
  8
1
100
AcDbLine
 10
66.773862848987
 20
-2.5
 30
0.0
 11
66.689862848987
 21
-2.5
 31
0.0
  0
LINE
  5
31B
330
30
100
AcDbEntity
  8
1
100
AcDbLine
 10
66.689862848987
 20
-2.5
 30
0.0
 11
66.605862848987
 21
-2.5
 31
0.0
  0
LINE
  5
31C
330
30
100
AcDbEntity
  8
1
100
AcDbLine
 10
66.605862848987
 20
-2.5
 30
0.0
 11
66.521862848987
 21
-2.5
 31
0.0
  0
LINE
  5
31D
330
30
100
AcDbEntity
  8
1
100
AcDbLine
 10
66.521862848987
 20
-2.5
 30
0.0
 11
66.437862848987
 21
-2.5
 31
0.0
  0
LINE
  5
31E
330
30
100
AcDbEntity
  8
1
100
AcDbLine
 10
66.437862848987
 20
-2.5
 30
0.0
 11
66.353862848987
 21
-2.5
 31
0.0
  0
LINE
  5
31F
330
30
100
AcDbEntity
  8
1
100
AcDbLine
 10
66.353862848987
 20
-2.5
 30
0.0
 11
66.269862848987
 21
-2.5
 31
0.0
  0
LINE
  5
320
330
30
100
AcDbEntity
  8
1
100
AcDbLine
 10
66.269862848987
 20
-2.5
 30
0.0
 11
66.185862848987
 21
-2.5
 31
0.0
  0
LINE
  5
321
330
30
100
AcDbEntity
  8
1
100
AcDbLine
 10
66.185862848987
 20
-2.5
 30
0.0
 11
66.101862848987
 21
-2.5
 31
0.0
  0
LINE
  5
322
330
30
100
AcDbEntity
  8
1
100
AcDbLine
 10
66.101862848987
 20
-2.5
 30
0.0
 11
66.017862848987
 21
-2.5
 31
0.0
  0
LINE
  5
323
330
30
100
AcDbEntity
  8
1
100
AcDbLine
 10
66.017862848987
 20
-2.5
 30
0.0
 11
65.933862848987
 21
-2.5
 31
0.0
  0
LINE
  5
324
330
30
100
AcDbEntity
  8
1
100
AcDbLine
 10
65.933862848987
 20
-2.5
 30
0.0
 11
65.849862848987
 21
-2.5
 31
0.0
  0
LINE
  5
325
330
30
100
AcDbEntity
  8
1
100
AcDbLine
 10
65.849862848987
 20
-2.5
 30
0.0
 11
65.765862848987
 21
-2.5
 31
0.0
  0
LINE
  5
326
330
30
100
AcDbEntity
  8
1
100
AcDbLine
 10
65.765862848987
 20
-2.5
 30
0.0
 11
65.681862848987
 21
-2.5
 31
0.0
  0
LINE
  5
327
330
30
100
AcDbEntity
  8
1
100
AcDbLine
 10
65.681862848987
 20
-2.5
 30
0.0
 11
65.597862848987
 21
-2.5
 31
0.0
  0
LINE
  5
328
330
30
100
AcDbEntity
  8
1
100
AcDbLine
 10
65.597862848987
 20
-2.5
 30
0.0
 11
65.513862848987
 21
-2.5
 31
0.0
  0
LINE
  5
329
330
30
100
AcDbEntity
  8
1
100
AcDbLine
 10
65.513862848987
 20
-2.5
 30
0.0
 11
65.429862848987
 21
-2.5
 31
0.0
  0
LINE
  5
32A
330
30
100
AcDbEntity
  8
1
100
AcDbLine
 10
65.429862848987
 20
-2.5
 30
0.0
 11
65.345862848987
 21
-2.5
 31
0.0
  0
LINE
  5
32B
330
30
100
AcDbEntity
  8
1
100
AcDbLine
 10
65.345862848987
 20
-2.5
 30
0.0
 11
65.261862848987
 21
-2.5
 31
0.0
  0
LINE
  5
32C
330
30
100
AcDbEntity
  8
1
100
AcDbLine
 10
65.261862848987
 20
-2.5
 30
0.0
 11
65.177862848987
 21
-2.5
 31
0.0
  0
LINE
  5
32D
330
30
100
AcDbEntity
  8
1
100
AcDbLine
 10
65.177862848987
 20
-2.5
 30
0.0
 11
65.093862848987
 21
-2.5
 31
0.0
  0
LINE
  5
32E
330
30
100
AcDbEntity
  8
1
100
AcDbLine
 10
65.093862848987
 20
-2.5
 30
0.0
 11
65.009862848987
 21
-2.5
 31
0.0
  0
LINE
  5
32F
330
30
100
AcDbEntity
  8
1
100
AcDbLine
 10
65.009862848987
 20
-2.5
 30
0.0
 11
64.925862848987
 21
-2.5
 31
0.0
  0
LINE
  5
330
330
30
100
AcDbEntity
  8
1
100
AcDbLine
 10
64.925862848987
 20
-2.5
 30
0.0
 11
64.841862848987
 21
-2.5
 31
0.0
  0
LINE
  5
331
330
30
100
AcDbEntity
  8
1
100
AcDbLine
 10
64.841862848987
 20
-2.5
 30
0.0
 11
64.757862848987
 21
-2.5
 31
0.0
  0
LINE
  5
332
330
30
100
AcDbEntity
  8
1
100
AcDbLine
 10
64.757862848987
 20
-2.5
 30
0.0
 11
64.673862848987
 21
-2.5
 31
0.0
  0
LINE
  5
333
330
30
100
AcDbEntity
  8
1
100
AcDbLine
 10
64.673862848987
 20
-2.5
 30
0.0
 11
64.589862848987
 21
-2.5
 31
0.0
  0
LINE
  5
334
330
30
100
AcDbEntity
  8
1
100
AcDbLine
 10
64.589862848987
 20
-2.5
 30
0.0
 11
64.505862848987
 21
-2.5
 31
0.0
  0
LINE
  5
335
330
30
100
AcDbEntity
  8
1
100
AcDbLine
 10
64.505862848987
 20
-2.5
 30
0.0
 11
64.421862848987
 21
-2.5
 31
0.0
  0
LINE
  5
336
330
30
100
AcDbEntity
  8
1
100
AcDbLine
 10
64.421862848987
 20
-2.5
 30
0.0
 11
64.337862848987
 21
-2.5
 31
0.0
  0
LINE
  5
337
330
30
100
AcDbEntity
  8
1
100
AcDbLine
 10
64.337862848987
 20
-2.5
 30
0.0
 11
64.253862848987
 21
-2.5
 31
0.0
  0
LINE
  5
338
330
30
100
AcDbEntity
  8
1
100
AcDbLine
 10
64.253862848987
 20
-2.5
 30
0.0
 11
64.169862848987
 21
-2.5
 31
0.0
  0
LINE
  5
339
330
30
100
AcDbEntity
  8
1
100
AcDbLine
 10
64.169862848987
 20
-2.5
 30
0.0
 11
64.085862848987
 21
-2.5
 31
0.0
  0
LINE
  5
33A
330
30
100
AcDbEntity
  8
1
100
AcDbLine
 10
64.085862848987
 20
-2.5
 30
0.0
 11
64.001862848987
 21
-2.5
 31
0.0
  0
LINE
  5
33B
330
30
100
AcDbEntity
  8
1
100
AcDbLine
 10
64.001862848987
 20
-2.5
 30
0.0
 11
63.917862848987
 21
-2.5
 31
0.0
  0
LINE
  5
33C
330
30
100
AcDbEntity
  8
1
100
AcDbLine
 10
63.917862848987
 20
-2.5
 30
0.0
 11
63.833862848987
 21
-2.5
 31
0.0
  0
LINE
  5
33D
330
30
100
AcDbEntity
  8
1
100
AcDbLine
 10
63.833862848987
 20
-2.5
 30
0.0
 11
63.749862848987
 21
-2.5
 31
0.0
  0
LINE
  5
33E
330
30
100
AcDbEntity
  8
1
100
AcDbLine
 10
63.749862848987
 20
-2.5
 30
0.0
 11
63.665862848987
 21
-2.5
 31
0.0
  0
LINE
  5
33F
330
30
100
AcDbEntity
  8
1
100
AcDbLine
 10
63.665862848987
 20
-2.5
 30
0.0
 11
63.581862848987
 21
-2.5
 31
0.0
  0
LINE
  5
340
330
30
100
AcDbEntity
  8
1
100
AcDbLine
 10
63.581862848987
 20
-2.5
 30
0.0
 11
63.497862848987
 21
-2.5
 31
0.0
  0
LINE
  5
341
330
30
100
AcDbEntity
  8
1
100
AcDbLine
 10
63.497862848987
 20
-2.5
 30
0.0
 11
63.413862848987
 21
-2.5
 31
0.0
  0
LINE
  5
342
330
30
100
AcDbEntity
  8
1
100
AcDbLine
 10
63.413862848987
 20
-2.5
 30
0.0
 11
63.329862848987
 21
-2.5
 31
0.0
  0
LINE
  5
343
330
30
100
AcDbEntity
  8
1
100
AcDbLine
 10
63.329862848987
 20
-2.5
 30
0.0
 11
63.245862848987
 21
-2.5
 31
0.0
  0
LINE
  5
344
330
30
100
AcDbEntity
  8
1
100
AcDbLine
 10
63.245862848987
 20
-2.5
 30
0.0
 11
63.161862848987
 21
-2.5
 31
0.0
  0
LINE
  5
345
330
30
100
AcDbEntity
  8
1
100
AcDbLine
 10
63.088984146635
 20
-2.5
 30
0.0
 11
63.088984146635
 21
2.5
 31
0.0
  0
LINE
  5
346
330
30
100
AcDbEntity
  8
1
100
AcDbLine
 10
63.088984146635
 20
2.5
 30
0.0
 11
63.088984146635
 21
-2.5
 31
0.0
  0
LINE
  5
347
330
30
100
AcDbEntity
  8
1
100
AcDbLine
 10
62.22295874285
 20
-2.0
 30
0.0
 11
62.22295874285
 21
2.0
 31
0.0
  0
LINE
  5
348
330
30
100
AcDbEntity
  8
1
100
AcDbLine
 10
47.688984146635
 20
2.0
 30
0.0
 11
47.688984146635
 21
-2.0
 31
0.0
  0
LINE
  5
349
330
30
100
AcDbEntity
  8
1
100
AcDbLine
 10
42.689113577612
 20
2.464
 30
0.0
 11
42.689113577612
 21
-2.464
 31
0.0
  0
LINE
  5
34A
330
30
100
AcDbEntity
  8
1
100
AcDbLine
 10
42.689113577612
 20
-2.464
 30
0.0
 11
42.689113577612
 21
2.464
 31
0.0
  0
LINE
  5
34B
330
30
100
AcDbEntity
  8
SK1
100
AcDbLine
 10
28.289862848987
 20
2.464
 30
0.0
 11
2.688984146635
 21
2.464
 31
0.0
  0
LINE
  5
34C
330
30
100
AcDbEntity
  8
SK1
100
AcDbLine
 10
2.688984146635
 20
2.464
 30
0.0
 11
0.0
 21
0.0
 31
0.0
  0
LINE
  5
34D
330
30
100
AcDbEntity
  8
SK1
100
AcDbLine
 10
28.289862848987
 20
-2.464
 30
0.0
 11
2.688984146635
 21
-2.464
 31
0.0
  0
LINE
  5
34E
330
30
100
AcDbEntity
  8
SK1
100
AcDbLine
 10
2.688984146635
 20
-2.464
 30
0.0
 11
0.0
 21
0.0
 31
0.0
  0
LINE
  5
34F
330
30
100
AcDbEntity
  8
SK1
100
AcDbLine
 10
2.688984146635
 20
2.464
 30
0.0
 11
2.688984146635
 21
-2.464
 31
0.0
  0
LINE
  5
350
330
30
100
AcDbEntity
  8
SK1
100
AcDbLine
 10
2.688984146635
 20
2.464
 30
0.0
 11
2.688984146635
 21
-2.464
 31
0.0
  0
LINE
  5
351
330
30
100
AcDbEntity
  8
SK1
100
AcDbLine
 10
29.329962848987
 20
1.40688
 30
0.0
 11
29.696762848987
 21
1.0401
 31
0.0
  0
LINE
  5
352
330
30
100
AcDbEntity
  8
SK1
100
AcDbLine
 10
28.822662848987
 20
1.66666
 30
0.0
 11
29.956562848987
 21
0.532833
 31
0.0
  0
LINE
  5
353
330
30
100
AcDbEntity
  8
SK1
100
AcDbLine
 10
28.505262848987
 20
1.73657
 30
0.0
 11
30.026462848987
 21
0.215434
 31
0.0
  0
LINE
  5
354
330
30
100
AcDbEntity
  8
SK1
100
AcDbLine
 10
28.289862848987
 20
1.70452
 30
0.0
 11
29.994362848987
 21
0.0
 31
0.0
  0
LINE
  5
355
330
30
100
AcDbEntity
  8
SK1
100
AcDbLine
 10
28.289862848987
 20
1.45703
 30
0.0
 11
29.746862848987
 21
0.0
 31
0.0
  0
LINE
  5
356
330
30
100
AcDbEntity
  8
SK1
100
AcDbLine
 10
28.289862848987
 20
1.20954
 30
0.0
 11
29.499362848987
 21
0.0
 31
0.0
  0
LINE
  5
357
330
30
100
AcDbEntity
  8
SK1
100
AcDbLine
 10
28.289862848987
 20
0.962054
 30
0.0
 11
29.251962848987
 21
0.0
 31
0.0
  0
LINE
  5
358
330
30
100
AcDbEntity
  8
SK1
100
AcDbLine
 10
28.289862848987
 20
0.714566
 30
0.0
 11
29.004462848987
 21
0.0
 31
0.0
  0
LINE
  5
359
330
30
100
AcDbEntity
  8
SK1
100
AcDbLine
 10
28.289862848987
 20
0.467079
 30
0.0
 11
28.756962848987
 21
0.0
 31
0.0
  0
LINE
  5
35A
330
30
100
AcDbEntity
  8
SK1
100
AcDbLine
 10
28.289862848987
 20
0.219592
 30
0.0
 11
28.509462848987
 21
0.0
 31
0.0
  0
LINE
  5
35B
330
30
100
AcDbEntity
  8
SK1
100
AcDbLine
 10
28.289862848987
 20
1.70452
 30
0.0
 11
28.333962848987
 21
1.74861
 31
0.0
  0
LINE
  5
35C
330
30
100
AcDbEntity
  8
SK1
100
AcDbLine
 10
28.289862848987
 20
1.45703
 30
0.0
 11
28.560862848987
 21
1.72802
 31
0.0
  0
LINE
  5
35D
330
30
100
AcDbEntity
  8
SK1
100
AcDbLine
 10
28.289862848987
 20
1.20954
 30
0.0
 11
28.764062848987
 21
1.6837
 31
0.0
  0
LINE
  5
35E
330
30
100
AcDbEntity
  8
SK1
100
AcDbLine
 10
28.289862848987
 20
0.962054
 30
0.0
 11
28.948662848987
 21
1.62082
 31
0.0
  0
LINE
  5
35F
330
30
100
AcDbEntity
  8
SK1
100
AcDbLine
 10
28.289862848987
 20
0.714566
 30
0.0
 11
29.116962848987
 21
1.54167
 31
0.0
  0
LINE
  5
360
330
30
100
AcDbEntity
  8
SK1
100
AcDbLine
 10
28.289862848987
 20
0.467079
 30
0.0
 11
29.270862848987
 21
1.44812
 31
0.0
  0
LINE
  5
361
330
30
100
AcDbEntity
  8
SK1
100
AcDbLine
 10
28.289862848987
 20
0.219592
 30
0.0
 11
29.412462848987
 21
1.34216
 31
0.0
  0
LINE
  5
362
330
30
100
AcDbEntity
  8
SK1
100
AcDbLine
 10
28.317762848987
 20
0.0
 30
0.0
 11
29.540662848987
 21
1.22288
 31
0.0
  0
LINE
  5
363
330
30
100
AcDbEntity
  8
SK1
100
AcDbLine
 10
28.565262848987
 20
0.0
 30
0.0
 11
29.656862848987
 21
1.09157
 31
0.0
  0
LINE
  5
364
330
30
100
AcDbEntity
  8
SK1
100
AcDbLine
 10
28.812762848987
 20
0.0
 30
0.0
 11
29.760562848987
 21
0.947822
 31
0.0
  0
LINE
  5
365
330
30
100
AcDbEntity
  8
SK1
100
AcDbLine
 10
29.060262848987
 20
0.0
 30
0.0
 11
29.850362848987
 21
0.790145
 31
0.0
  0
LINE
  5
366
330
30
100
AcDbEntity
  8
SK1
100
AcDbLine
 10
29.307662848987
 20
0.0
 30
0.0
 11
29.926262848987
 21
0.618517
 31
0.0
  0
LINE
  5
367
330
30
100
AcDbEntity
  8
SK1
100
AcDbLine
 10
29.555162848987
 20
0.0
 30
0.0
 11
29.985862848987
 21
0.430696
 31
0.0
  0
LINE
  5
368
330
30
100
AcDbEntity
  8
SK1
100
AcDbLine
 10
29.802662848987
 20
0.0
 30
0.0
 11
30.025462848987
 21
0.222827
 31
0.0
  0
LINE
  5
369
330
30
100
AcDbEntity
  8
SK1
100
AcDbLine
 10
28.289862848987
 20
0.0
 30
0.0
 11
28.289862848987
 21
1.75
 31
0.0
  0
LINE
  5
36A
330
30
100
AcDbEntity
  8
SK1
100
AcDbLine
 10
28.289862848987
 20
0.0
 30
0.0
 11
30.039862848987
 21
0.0
 31
0.0
  0
ARC
  5
36B
330
30
100
AcDbEntity
  8
SK1
100
AcDbCircle
 10
28.289862848987
 20
0.0
 30
0.0
 40
1.75
100
AcDbArc
 50
0.0
 51
90.0
  0
ARC
  5
36C
330
30
100
AcDbEntity
  8
SK1
100
AcDbCircle
 10
28.289862848987
 20
0.0
 30
0.0
 40
1.75
100
AcDbArc
 50
90.0
 51
180.0
  0
LINE
  5
36D
330
30
100
AcDbEntity
  8
SK1
100
AcDbLine
 10
28.261962848987
 20
0.0
 30
0.0
 11
28.289862848987
 21
-0.0278958
 31
0.0
  0
LINE
  5
36E
330
30
100
AcDbEntity
  8
SK1
100
AcDbLine
 10
28.014462848987
 20
0.0
 30
0.0
 11
28.289862848987
 21
-0.275383
 31
0.0
  0
LINE
  5
36F
330
30
100
AcDbEntity
  8
SK1
100
AcDbLine
 10
27.766962848987
 20
0.0
 30
0.0
 11
28.289862848987
 21
-0.522871
 31
0.0
  0
LINE
  5
370
330
30
100
AcDbEntity
  8
SK1
100
AcDbLine
 10
27.519462848987
 20
0.0
 30
0.0
 11
28.289862848987
 21
-0.770358
 31
0.0
  0
LINE
  5
371
330
30
100
AcDbEntity
  8
SK1
100
AcDbLine
 10
27.272062848987
 20
0.0
 30
0.0
 11
28.289862848987
 21
-1.01785
 31
0.0
  0
LINE
  5
372
330
30
100
AcDbEntity
  8
SK1
100
AcDbLine
 10
27.024562848987
 20
0.0
 30
0.0
 11
28.289862848987
 21
-1.26533
 31
0.0
  0
LINE
  5
373
330
30
100
AcDbEntity
  8
SK1
100
AcDbLine
 10
26.777062848987
 20
0.0
 30
0.0
 11
28.289862848987
 21
-1.51282
 31
0.0
  0
LINE
  5
374
330
30
100
AcDbEntity
  8
SK1
100
AcDbLine
 10
26.540162848987
 20
-0.0106419
 30
0.0
 11
28.279262848987
 21
-1.74967
 31
0.0
  0
LINE
  5
375
330
30
100
AcDbEntity
  8
SK1
100
AcDbLine
 10
26.563462848987
 20
-0.281429
 30
0.0
 11
28.008462848987
 21
-1.72637
 31
0.0
  0
LINE
  5
376
330
30
100
AcDbEntity
  8
SK1
100
AcDbLine
 10
26.653762848987
 20
-0.619147
 30
0.0
 11
27.670762848987
 21
-1.63613
 31
0.0
  0
LINE
  5
377
330
30
100
AcDbEntity
  8
SK1
100
AcDbLine
 10
26.541262848987
 20
-0.0440984
 30
0.0
 11
26.585362848987
 21
0.0
 31
0.0
  0
LINE
  5
378
330
30
100
AcDbEntity
  8
SK1
100
AcDbLine
 10
26.561862848987
 20
-0.270991
 30
0.0
 11
26.832862848987
 21
0.0
 31
0.0
  0
LINE
  5
379
330
30
100
AcDbEntity
  8
SK1
100
AcDbLine
 10
26.606162848987
 20
-0.474162
 30
0.0
 11
27.080362848987
 21
0.0
 31
0.0
  0
LINE
  5
37A
330
30
100
AcDbEntity
  8
SK1
100
AcDbLine
 10
26.669062848987
 20
-0.658762
 30
0.0
 11
27.327762848987
 21
0.0
 31
0.0
  0
LINE
  5
37B
330
30
100
AcDbEntity
  8
SK1
100
AcDbLine
 10
26.748162848987
 20
-0.827105
 30
0.0
 11
27.575262848987
 21
0.0
 31
0.0
  0
LINE
  5
37C
330
30
100
AcDbEntity
  8
SK1
100
AcDbLine
 10
26.841762848987
 20
-0.981039
 30
0.0
 11
27.822762848987
 21
0.0
 31
0.0
  0
LINE
  5
37D
330
30
100
AcDbEntity
  8
SK1
100
AcDbLine
 10
26.947662848987
 20
-1.12257
 30
0.0
 11
28.070262848987
 21
0.0
 31
0.0
  0
LINE
  5
37E
330
30
100
AcDbEntity
  8
SK1
100
AcDbLine
 10
27.066962848987
 20
-1.25077
 30
0.0
 11
28.289862848987
 21
-0.0278958
 31
0.0
  0
LINE
  5
37F
330
30
100
AcDbEntity
  8
SK1
100
AcDbLine
 10
27.198262848987
 20
-1.36695
 30
0.0
 11
28.289862848987
 21
-0.275383
 31
0.0
  0
LINE
  5
380
330
30
100
AcDbEntity
  8
SK1
100
AcDbLine
 10
27.342062848987
 20
-1.47069
 30
0.0
 11
28.289862848987
 21
-0.522871
 31
0.0
  0
LINE
  5
381
330
30
100
AcDbEntity
  8
SK1
100
AcDbLine
 10
27.499762848987
 20
-1.5605
 30
0.0
 11
28.289862848987
 21
-0.770358
 31
0.0
  0
LINE
  5
382
330
30
100
AcDbEntity
  8
SK1
100
AcDbLine
 10
27.671362848987
 20
-1.63636
 30
0.0
 11
28.289862848987
 21
-1.01785
 31
0.0
  0
LINE
  5
383
330
30
100
AcDbEntity
  8
SK1
100
AcDbLine
 10
27.859162848987
 20
-1.69603
 30
0.0
 11
28.289862848987
 21
-1.26533
 31
0.0
  0
LINE
  5
384
330
30
100
AcDbEntity
  8
SK1
100
AcDbLine
 10
28.067062848987
 20
-1.73565
 30
0.0
 11
28.289862848987
 21
-1.51282
 31
0.0
  0
LINE
  5
385
330
30
100
AcDbEntity
  8
SK1
100
AcDbLine
 10
28.289862848987
 20
0.0
 30
0.0
 11
26.539862848987
 21
0.0
 31
0.0
  0
LINE
  5
386
330
30
100
AcDbEntity
  8
SK1
100
AcDbLine
 10
28.289862848987
 20
-1.75
 30
0.0
 11
28.289862848987
 21
0.0
 31
0.0
  0
ARC
  5
387
330
30
100
AcDbEntity
  8
SK1
100
AcDbCircle
 10
28.289862848987
 20
0.0
 30
0.0
 40
1.75
100
AcDbArc
 50
180.0
 51
270.0
  0
ARC
  5
388
330
30
100
AcDbEntity
  8
SK1
100
AcDbCircle
 10
28.289862848987
 20
0.0
 30
0.0
 40
1.75
100
AcDbArc
 50
270.0
 51
0.0
  0
LINE
  5
3F7
330
30
100
AcDbEntity
  8
NOCUT
100
AcDbLine
 10
63.088984146635
 20
0.0
 30
0.0
 11
63.088984146635
 21
2.5
 31
0.0
  0
LINE
  5
3F8
330
30
100
AcDbEntity
  8
NOCUT
100
AcDbLine
 10
63.088984146635
 20
2.5
 30
0.0
 11
62.22295874285
 21
2.0
 31
0.0
  0
LINE
  5
3F9
330
30
100
AcDbEntity
  8
NOCUT
100
AcDbLine
 10
62.22295874285
 20
2.0
 30
0.0
 11
47.688984146635
 21
2.0
 31
0.0
  0
LINE
  5
3FA
330
30
100
AcDbEntity
  8
NOCUT
100
AcDbLine
 10
47.688984146635
 20
2.0
 30
0.0
 11
42.689113577612
 21
2.464
 31
0.0
  0
LINE
  5
3FB
330
30
100
AcDbEntity
  8
NOCUT
100
AcDbLine
 10
42.689113577612
 20
2.464
 30
0.0
 11
28.289862848987
 21
2.464
 31
0.0
  0
LINE
  5
3FC
330
30
100
AcDbEntity
  8
NOCUT
100
AcDbLine
 10
28.289862848987
 20
2.464
 30
0.0
 11
28.289862848987
 21
0.0
 31
0.0
  0
LINE
  5
3FD
330
30
100
AcDbEntity
  8
NOCUT
100
AcDbLine
 10
28.289862848987
 20
0.0
 30
0.0
 11
63.088984146635
 21
0.0
 31
0.0
  0
LINE
  5
3FE
330
30
100
AcDbEntity
  8
CUT
100
AcDbLine
 10
75.089862848987
 20
0.0
 30
0.0
 11
72.688984146635
 21
2.2
 31
0.0
  0
LINE
  5
3FF
330
30
100
AcDbEntity
  8
CUT
100
AcDbLine
 10
72.688984146635
 20
2.2
 30
0.0
 11
70.688984146635
 21
2.5
 31
0.0
  0
LINE
  5
400
330
30
100
AcDbEntity
  8
CUT
100
AcDbLine
 10
70.688984146635
 20
2.5
 30
0.0
 11
63.088984146635
 21
2.5
 31
0.0
  0
LINE
  5
401
330
30
100
AcDbEntity
  8
CUT
100
AcDbLine
 10
63.088984146635
 20
2.5
 30
0.0
 11
63.088984146635
 21
0.0
 31
0.0
  0
LINE
  5
402
330
30
100
AcDbEntity
  8
CUT
100
AcDbLine
 10
63.088984146635
 20
0.0
 30
0.0
 11
75.089862848987
 21
0.0
 31
0.0
  0
LINE
  5
403
330
30
100
AcDbEntity
  8
4
100
AcDbLine
 10
28.289862848987
 20
0.0
 30
0.0
 11
75.089862848987
 21
0.0
 31
0.0
  0
LINE
  5
404
330
30
100
AcDbEntity
  8
SK4
100
AcDbLine
 10
-1.0
 20
0.0
 30
0.0
 11
76.089862848987
 21
0.0
 31
0.0
  0
LINE
  5
405
330
30
100
AcDbEntity
  8
1
100
AcDbLine
 10
72.492317479968
 20
2.2295
 30
0.0
 11
63.088984146635
 21
2.2295
 31
0.0
  0
LINE
  5
406
330
30
100
AcDbEntity
  8
1
100
AcDbLine
 10
72.266123067632
 20
2.26342916185
 30
0.0
 11
72.246534056905
 21
2.2295
 31
0.0
  0
LINE
  5
407
330
30
100
AcDbEntity
  8
1
100
AcDbLine
 10
72.246534056905
 20
2.2295
 30
0.0
 11
72.21775910177
 21
2.2295
 31
0.0
  0
LINE
  5
408
330
30
100
AcDbEntity
  8
1
100
AcDbLine
 10
72.21775910177
 20
2.2295
 30
0.0
 11
72.188984146635
 21
2.2295
 31
0.0
  0
LINE
  5
409
330
30
100
AcDbEntity
  8
1
100
AcDbLine
 10
72.188984146635
 20
2.2295
 30
0.0
 11
72.160224008349
 21
2.279314020743
 31
0.0
  0
LINE
  5
40A
330
30
100
AcDbEntity
  8
1
100
AcDbLine
 10
71.805973213919
 20
2.332451639907
 30
0.0
 11
71.746534056905
 21
2.2295
 31
0.0
  0
LINE
  5
40B
330
30
100
AcDbEntity
  8
1
100
AcDbLine
 10
71.746534056905
 20
2.2295
 30
0.0
 11
71.71775910177
 21
2.2295
 31
0.0
  0
LINE
  5
40C
330
30
100
AcDbEntity
  8
1
100
AcDbLine
 10
71.71775910177
 20
2.2295
 30
0.0
 11
71.688984146635
 21
2.2295
 31
0.0
  0
LINE
  5
40D
330
30
100
AcDbEntity
  8
1
100
AcDbLine
 10
71.688984146635
 20
2.2295
 30
0.0
 11
71.612817187
 21
2.361425043945
 31
0.0
  0
LINE
  5
40E
330
30
100
AcDbEntity
  8
1
100
AcDbLine
 10
71.345823360205
 20
2.401474117964
 30
0.0
 11
71.246534056905
 21
2.2295
 31
0.0
  0
LINE
  5
40F
330
30
100
AcDbEntity
  8
1
100
AcDbLine
 10
71.246534056905
 20
2.2295
 30
0.0
 11
71.21775910177
 21
2.2295
 31
0.0
  0
LINE
  5
410
330
30
100
AcDbEntity
  8
1
100
AcDbLine
 10
71.21775910177
 20
2.2295
 30
0.0
 11
71.188984146635
 21
2.2295
 31
0.0
  0
LINE
  5
411
330
30
100
AcDbEntity
  8
1
100
AcDbLine
 10
71.188984146635
 20
2.2295
 30
0.0
 11
71.065410365651
 21
2.443536067148
 31
0.0
  0
LINE
  5
412
330
30
100
AcDbEntity
  8
1
100
AcDbLine
 10
70.885673506492
 20
2.470496596021
 30
0.0
 11
70.746534056905
 21
2.2295
 31
0.0
  0
LINE
  5
413
330
30
100
AcDbEntity
  8
1
100
AcDbLine
 10
70.746534056905
 20
2.2295
 30
0.0
 11
70.71775910177
 21
2.2295
 31
0.0
  0
LINE
  5
414
330
30
100
AcDbEntity
  8
1
100
AcDbLine
 10
70.71775910177
 20
2.2295
 30
0.0
 11
70.688984146635
 21
2.2295
 31
0.0
  0
LINE
  5
415
330
30
100
AcDbEntity
  8
1
100
AcDbLine
 10
70.688984146635
 20
2.2295
 30
0.0
 11
70.532810898819
 21
2.5
 31
0.0
  0
LINE
  5
416
330
30
100
AcDbEntity
  8
1
100
AcDbLine
 10
70.532810898819
 20
2.5
 30
0.0
 11
70.46775910177
 21
2.5
 31
0.0
  0
LINE
  5
417
330
30
100
AcDbEntity
  8
1
100
AcDbLine
 10
70.46775910177
 20
2.5
 30
0.0
 11
70.402707304721
 21
2.5
 31
0.0
  0
LINE
  5
418
330
30
100
AcDbEntity
  8
1
100
AcDbLine
 10
70.402707304721
 20
2.5
 30
0.0
 11
70.246534056905
 21
2.2295
 31
0.0
  0
LINE
  5
419
330
30
100
AcDbEntity
  8
1
100
AcDbLine
 10
70.246534056905
 20
2.2295
 30
0.0
 11
70.21775910177
 21
2.2295
 31
0.0
  0
LINE
  5
41A
330
30
100
AcDbEntity
  8
1
100
AcDbLine
 10
70.21775910177
 20
2.2295
 30
0.0
 11
70.188984146635
 21
2.2295
 31
0.0
  0
LINE
  5
41B
330
30
100
AcDbEntity
  8
1
100
AcDbLine
 10
70.188984146635
 20
2.2295
 30
0.0
 11
70.032810898819
 21
2.5
 31
0.0
  0
LINE
  5
41C
330
30
100
AcDbEntity
  8
1
100
AcDbLine
 10
70.032810898819
 20
2.5
 30
0.0
 11
69.96775910177
 21
2.5
 31
0.0
  0
LINE
  5
41D
330
30
100
AcDbEntity
  8
1
100
AcDbLine
 10
69.96775910177
 20
2.5
 30
0.0
 11
69.902707304721
 21
2.5
 31
0.0
  0
LINE
  5
41E
330
30
100
AcDbEntity
  8
1
100
AcDbLine
 10
69.902707304721
 20
2.5
 30
0.0
 11
69.746534056905
 21
2.2295
 31
0.0
  0
LINE
  5
41F
330
30
100
AcDbEntity
  8
1
100
AcDbLine
 10
69.746534056905
 20
2.2295
 30
0.0
 11
69.71775910177
 21
2.2295
 31
0.0
  0
LINE
  5
420
330
30
100
AcDbEntity
  8
1
100
AcDbLine
 10
69.71775910177
 20
2.2295
 30
0.0
 11
69.688984146635
 21
2.2295
 31
0.0
  0
LINE
  5
421
330
30
100
AcDbEntity
  8
1
100
AcDbLine
 10
69.688984146635
 20
2.2295
 30
0.0
 11
69.532810898819
 21
2.5
 31
0.0
  0
LINE
  5
422
330
30
100
AcDbEntity
  8
1
100
AcDbLine
 10
69.532810898819
 20
2.5
 30
0.0
 11
69.46775910177
 21
2.5
 31
0.0
  0
LINE
  5
423
330
30
100
AcDbEntity
  8
1
100
AcDbLine
 10
69.46775910177
 20
2.5
 30
0.0
 11
69.402707304721
 21
2.5
 31
0.0
  0
LINE
  5
424
330
30
100
AcDbEntity
  8
1
100
AcDbLine
 10
69.402707304721
 20
2.5
 30
0.0
 11
69.246534056905
 21
2.2295
 31
0.0
  0
LINE
  5
425
330
30
100
AcDbEntity
  8
1
100
AcDbLine
 10
69.246534056905
 20
2.2295
 30
0.0
 11
69.21775910177
 21
2.2295
 31
0.0
  0
LINE
  5
426
330
30
100
AcDbEntity
  8
1
100
AcDbLine
 10
69.21775910177
 20
2.2295
 30
0.0
 11
69.188984146635
 21
2.2295
 31
0.0
  0
LINE
  5
427
330
30
100
AcDbEntity
  8
1
100
AcDbLine
 10
69.188984146635
 20
2.2295
 30
0.0
 11
69.032810898819
 21
2.5
 31
0.0
  0
LINE
  5
428
330
30
100
AcDbEntity
  8
1
100
AcDbLine
 10
69.032810898819
 20
2.5
 30
0.0
 11
68.96775910177
 21
2.5
 31
0.0
  0
LINE
  5
429
330
30
100
AcDbEntity
  8
1
100
AcDbLine
 10
68.96775910177
 20
2.5
 30
0.0
 11
68.902707304721
 21
2.5
 31
0.0
  0
LINE
  5
42A
330
30
100
AcDbEntity
  8
1
100
AcDbLine
 10
68.902707304721
 20
2.5
 30
0.0
 11
68.746534056905
 21
2.2295
 31
0.0
  0
LINE
  5
42B
330
30
100
AcDbEntity
  8
1
100
AcDbLine
 10
68.746534056905
 20
2.2295
 30
0.0
 11
68.71775910177
 21
2.2295
 31
0.0
  0
LINE
  5
42C
330
30
100
AcDbEntity
  8
1
100
AcDbLine
 10
68.71775910177
 20
2.2295
 30
0.0
 11
68.688984146635
 21
2.2295
 31
0.0
  0
LINE
  5
42D
330
30
100
AcDbEntity
  8
1
100
AcDbLine
 10
68.688984146635
 20
2.2295
 30
0.0
 11
68.532810898819
 21
2.5
 31
0.0
  0
LINE
  5
42E
330
30
100
AcDbEntity
  8
1
100
AcDbLine
 10
68.532810898819
 20
2.5
 30
0.0
 11
68.46775910177
 21
2.5
 31
0.0
  0
LINE
  5
42F
330
30
100
AcDbEntity
  8
1
100
AcDbLine
 10
68.46775910177
 20
2.5
 30
0.0
 11
68.402707304721
 21
2.5
 31
0.0
  0
LINE
  5
430
330
30
100
AcDbEntity
  8
1
100
AcDbLine
 10
68.402707304721
 20
2.5
 30
0.0
 11
68.246534056905
 21
2.2295
 31
0.0
  0
LINE
  5
431
330
30
100
AcDbEntity
  8
1
100
AcDbLine
 10
68.246534056905
 20
2.2295
 30
0.0
 11
68.21775910177
 21
2.2295
 31
0.0
  0
LINE
  5
432
330
30
100
AcDbEntity
  8
1
100
AcDbLine
 10
68.21775910177
 20
2.2295
 30
0.0
 11
68.188984146635
 21
2.2295
 31
0.0
  0
LINE
  5
433
330
30
100
AcDbEntity
  8
1
100
AcDbLine
 10
68.188984146635
 20
2.2295
 30
0.0
 11
68.032810898819
 21
2.5
 31
0.0
  0
LINE
  5
434
330
30
100
AcDbEntity
  8
1
100
AcDbLine
 10
68.032810898819
 20
2.5
 30
0.0
 11
67.96775910177
 21
2.5
 31
0.0
  0
LINE
  5
435
330
30
100
AcDbEntity
  8
1
100
AcDbLine
 10
67.96775910177
 20
2.5
 30
0.0
 11
67.902707304721
 21
2.5
 31
0.0
  0
LINE
  5
436
330
30
100
AcDbEntity
  8
1
100
AcDbLine
 10
67.902707304721
 20
2.5
 30
0.0
 11
67.746534056905
 21
2.2295
 31
0.0
  0
LINE
  5
437
330
30
100
AcDbEntity
  8
1
100
AcDbLine
 10
67.746534056905
 20
2.2295
 30
0.0
 11
67.71775910177
 21
2.2295
 31
0.0
  0
LINE
  5
438
330
30
100
AcDbEntity
  8
1
100
AcDbLine
 10
67.71775910177
 20
2.2295
 30
0.0
 11
67.688984146635
 21
2.2295
 31
0.0
  0
LINE
  5
439
330
30
100
AcDbEntity
  8
1
100
AcDbLine
 10
67.688984146635
 20
2.2295
 30
0.0
 11
67.532810898819
 21
2.5
 31
0.0
  0
LINE
  5
43A
330
30
100
AcDbEntity
  8
1
100
AcDbLine
 10
67.532810898819
 20
2.5
 30
0.0
 11
67.46775910177
 21
2.5
 31
0.0
  0
LINE
  5
43B
330
30
100
AcDbEntity
  8
1
100
AcDbLine
 10
67.46775910177
 20
2.5
 30
0.0
 11
67.402707304721
 21
2.5
 31
0.0
  0
LINE
  5
43C
330
30
100
AcDbEntity
  8
1
100
AcDbLine
 10
67.402707304721
 20
2.5
 30
0.0
 11
67.246534056905
 21
2.2295
 31
0.0
  0
LINE
  5
43D
330
30
100
AcDbEntity
  8
1
100
AcDbLine
 10
67.246534056905
 20
2.2295
 30
0.0
 11
67.21775910177
 21
2.2295
 31
0.0
  0
LINE
  5
43E
330
30
100
AcDbEntity
  8
1
100
AcDbLine
 10
67.21775910177
 20
2.2295
 30
0.0
 11
67.188984146635
 21
2.2295
 31
0.0
  0
LINE
  5
43F
330
30
100
AcDbEntity
  8
1
100
AcDbLine
 10
67.188984146635
 20
2.2295
 30
0.0
 11
67.032810898819
 21
2.5
 31
0.0
  0
LINE
  5
440
330
30
100
AcDbEntity
  8
1
100
AcDbLine
 10
67.032810898819
 20
2.5
 30
0.0
 11
66.96775910177
 21
2.5
 31
0.0
  0
LINE
  5
441
330
30
100
AcDbEntity
  8
1
100
AcDbLine
 10
66.96775910177
 20
2.5
 30
0.0
 11
66.902707304721
 21
2.5
 31
0.0
  0
LINE
  5
442
330
30
100
AcDbEntity
  8
1
100
AcDbLine
 10
66.902707304721
 20
2.5
 30
0.0
 11
66.746534056905
 21
2.2295
 31
0.0
  0
LINE
  5
443
330
30
100
AcDbEntity
  8
1
100
AcDbLine
 10
66.746534056905
 20
2.2295
 30
0.0
 11
66.71775910177
 21
2.2295
 31
0.0
  0
LINE
  5
444
330
30
100
AcDbEntity
  8
1
100
AcDbLine
 10
66.71775910177
 20
2.2295
 30
0.0
 11
66.688984146635
 21
2.2295
 31
0.0
  0
LINE
  5
445
330
30
100
AcDbEntity
  8
1
100
AcDbLine
 10
66.688984146635
 20
2.2295
 30
0.0
 11
66.532810898819
 21
2.5
 31
0.0
  0
LINE
  5
446
330
30
100
AcDbEntity
  8
1
100
AcDbLine
 10
66.532810898819
 20
2.5
 30
0.0
 11
66.46775910177
 21
2.5
 31
0.0
  0
LINE
  5
447
330
30
100
AcDbEntity
  8
1
100
AcDbLine
 10
66.46775910177
 20
2.5
 30
0.0
 11
66.402707304721
 21
2.5
 31
0.0
  0
LINE
  5
448
330
30
100
AcDbEntity
  8
1
100
AcDbLine
 10
66.402707304721
 20
2.5
 30
0.0
 11
66.246534056905
 21
2.2295
 31
0.0
  0
LINE
  5
449
330
30
100
AcDbEntity
  8
1
100
AcDbLine
 10
66.246534056905
 20
2.2295
 30
0.0
 11
66.21775910177
 21
2.2295
 31
0.0
  0
LINE
  5
44A
330
30
100
AcDbEntity
  8
1
100
AcDbLine
 10
66.21775910177
 20
2.2295
 30
0.0
 11
66.188984146635
 21
2.2295
 31
0.0
  0
LINE
  5
44B
330
30
100
AcDbEntity
  8
1
100
AcDbLine
 10
66.188984146635
 20
2.2295
 30
0.0
 11
66.032810898819
 21
2.5
 31
0.0
  0
LINE
  5
44C
330
30
100
AcDbEntity
  8
1
100
AcDbLine
 10
66.032810898819
 20
2.5
 30
0.0
 11
65.96775910177
 21
2.5
 31
0.0
  0
LINE
  5
44D
330
30
100
AcDbEntity
  8
1
100
AcDbLine
 10
65.96775910177
 20
2.5
 30
0.0
 11
65.902707304721
 21
2.5
 31
0.0
  0
LINE
  5
44E
330
30
100
AcDbEntity
  8
1
100
AcDbLine
 10
65.902707304721
 20
2.5
 30
0.0
 11
65.746534056905
 21
2.2295
 31
0.0
  0
LINE
  5
44F
330
30
100
AcDbEntity
  8
1
100
AcDbLine
 10
65.746534056905
 20
2.2295
 30
0.0
 11
65.71775910177
 21
2.2295
 31
0.0
  0
LINE
  5
450
330
30
100
AcDbEntity
  8
1
100
AcDbLine
 10
65.71775910177
 20
2.2295
 30
0.0
 11
65.688984146635
 21
2.2295
 31
0.0
  0
LINE
  5
451
330
30
100
AcDbEntity
  8
1
100
AcDbLine
 10
65.688984146635
 20
2.2295
 30
0.0
 11
65.532810898819
 21
2.5
 31
0.0
  0
LINE
  5
452
330
30
100
AcDbEntity
  8
1
100
AcDbLine
 10
65.532810898819
 20
2.5
 30
0.0
 11
65.46775910177
 21
2.5
 31
0.0
  0
LINE
  5
453
330
30
100
AcDbEntity
  8
1
100
AcDbLine
 10
65.46775910177
 20
2.5
 30
0.0
 11
65.402707304721
 21
2.5
 31
0.0
  0
LINE
  5
454
330
30
100
AcDbEntity
  8
1
100
AcDbLine
 10
65.402707304721
 20
2.5
 30
0.0
 11
65.246534056905
 21
2.2295
 31
0.0
  0
LINE
  5
455
330
30
100
AcDbEntity
  8
1
100
AcDbLine
 10
65.246534056905
 20
2.2295
 30
0.0
 11
65.21775910177
 21
2.2295
 31
0.0
  0
LINE
  5
456
330
30
100
AcDbEntity
  8
1
100
AcDbLine
 10
65.21775910177
 20
2.2295
 30
0.0
 11
65.188984146635
 21
2.2295
 31
0.0
  0
LINE
  5
457
330
30
100
AcDbEntity
  8
1
100
AcDbLine
 10
65.188984146635
 20
2.2295
 30
0.0
 11
65.032810898819
 21
2.5
 31
0.0
  0
LINE
  5
458
330
30
100
AcDbEntity
  8
1
100
AcDbLine
 10
65.032810898819
 20
2.5
 30
0.0
 11
64.96775910177
 21
2.5
 31
0.0
  0
LINE
  5
459
330
30
100
AcDbEntity
  8
1
100
AcDbLine
 10
64.96775910177
 20
2.5
 30
0.0
 11
64.902707304721
 21
2.5
 31
0.0
  0
LINE
  5
45A
330
30
100
AcDbEntity
  8
1
100
AcDbLine
 10
64.902707304721
 20
2.5
 30
0.0
 11
64.746534056905
 21
2.2295
 31
0.0
  0
LINE
  5
45B
330
30
100
AcDbEntity
  8
1
100
AcDbLine
 10
64.746534056905
 20
2.2295
 30
0.0
 11
64.71775910177
 21
2.2295
 31
0.0
  0
LINE
  5
45C
330
30
100
AcDbEntity
  8
1
100
AcDbLine
 10
64.71775910177
 20
2.2295
 30
0.0
 11
64.688984146635
 21
2.2295
 31
0.0
  0
LINE
  5
45D
330
30
100
AcDbEntity
  8
1
100
AcDbLine
 10
64.688984146635
 20
2.2295
 30
0.0
 11
64.532810898819
 21
2.5
 31
0.0
  0
LINE
  5
45E
330
30
100
AcDbEntity
  8
1
100
AcDbLine
 10
64.532810898819
 20
2.5
 30
0.0
 11
64.46775910177
 21
2.5
 31
0.0
  0
LINE
  5
45F
330
30
100
AcDbEntity
  8
1
100
AcDbLine
 10
64.46775910177
 20
2.5
 30
0.0
 11
64.402707304721
 21
2.5
 31
0.0
  0
LINE
  5
460
330
30
100
AcDbEntity
  8
1
100
AcDbLine
 10
64.402707304721
 20
2.5
 30
0.0
 11
64.246534056905
 21
2.2295
 31
0.0
  0
LINE
  5
461
330
30
100
AcDbEntity
  8
1
100
AcDbLine
 10
64.246534056905
 20
2.2295
 30
0.0
 11
64.21775910177
 21
2.2295
 31
0.0
  0
LINE
  5
462
330
30
100
AcDbEntity
  8
1
100
AcDbLine
 10
64.21775910177
 20
2.2295
 30
0.0
 11
64.188984146635
 21
2.2295
 31
0.0
  0
LINE
  5
463
330
30
100
AcDbEntity
  8
1
100
AcDbLine
 10
64.188984146635
 20
2.2295
 30
0.0
 11
64.032810898819
 21
2.5
 31
0.0
  0
LINE
  5
464
330
30
100
AcDbEntity
  8
1
100
AcDbLine
 10
64.032810898819
 20
2.5
 30
0.0
 11
63.96775910177
 21
2.5
 31
0.0
  0
LINE
  5
465
330
30
100
AcDbEntity
  8
1
100
AcDbLine
 10
63.96775910177
 20
2.5
 30
0.0
 11
63.902707304721
 21
2.5
 31
0.0
  0
LINE
  5
466
330
30
100
AcDbEntity
  8
1
100
AcDbLine
 10
63.902707304721
 20
2.5
 30
0.0
 11
63.746534056905
 21
2.2295
 31
0.0
  0
LINE
  5
467
330
30
100
AcDbEntity
  8
1
100
AcDbLine
 10
63.746534056905
 20
2.2295
 30
0.0
 11
63.71775910177
 21
2.2295
 31
0.0
  0
LINE
  5
468
330
30
100
AcDbEntity
  8
1
100
AcDbLine
 10
63.71775910177
 20
2.2295
 30
0.0
 11
63.688984146635
 21
2.2295
 31
0.0
  0
LINE
  5
469
330
30
100
AcDbEntity
  8
1
100
AcDbLine
 10
63.688984146635
 20
2.2295
 30
0.0
 11
63.532810898819
 21
2.5
 31
0.0
  0
LINE
  5
46A
330
30
100
AcDbEntity
  8
1
100
AcDbLine
 10
63.532810898819
 20
2.5
 30
0.0
 11
63.46775910177
 21
2.5
 31
0.0
  0
LINE
  5
46B
330
30
100
AcDbEntity
  8
1
100
AcDbLine
 10
63.46775910177
 20
2.5
 30
0.0
 11
63.402707304721
 21
2.5
 31
0.0
  0
LINE
  5
46C
330
30
100
AcDbEntity
  8
1
100
AcDbLine
 10
63.402707304721
 20
2.5
 30
0.0
 11
63.246534056905
 21
2.2295
 31
0.0
  0
LINE
  5
46D
330
30
100
AcDbEntity
  8
1
100
AcDbLine
 10
63.246534056905
 20
2.2295
 30
0.0
 11
63.21775910177
 21
2.2295
 31
0.0
  0
LINE
  5
46E
330
30
100
AcDbEntity
  8
1
100
AcDbLine
 10
63.21775910177
 20
2.2295
 30
0.0
 11
63.188984146635
 21
2.2295
 31
0.0
  0
LINE
  5
46F
330
30
100
AcDbEntity
  8
1
100
AcDbLine
 10
63.188984146635
 20
2.2295
 30
0.0
 11
63.046854210773
 21
2.475676270189
 31
0.0
  0
LINE
  5
470
330
30
100
AcDbEntity
  8
1
100
AcDbLine
 10
72.492317479968
 20
-2.2295
 30
0.0
 11
63.088984146635
 21
-2.2295
 31
0.0
  0
LINE
  5
471
330
30
100
AcDbEntity
  8
1
100
AcDbLine
 10
72.266123067632
 20
-2.26342916185
 30
0.0
 11
72.246534056905
 21
-2.2295
 31
0.0
  0
LINE
  5
472
330
30
100
AcDbEntity
  8
1
100
AcDbLine
 10
72.246534056905
 20
-2.2295
 30
0.0
 11
72.21775910177
 21
-2.2295
 31
0.0
  0
LINE
  5
473
330
30
100
AcDbEntity
  8
1
100
AcDbLine
 10
72.21775910177
 20
-2.2295
 30
0.0
 11
72.188984146635
 21
-2.2295
 31
0.0
  0
LINE
  5
474
330
30
100
AcDbEntity
  8
1
100
AcDbLine
 10
72.188984146635
 20
-2.2295
 30
0.0
 11
72.160224008349
 21
-2.279314020743
 31
0.0
  0
LINE
  5
475
330
30
100
AcDbEntity
  8
1
100
AcDbLine
 10
71.805973213919
 20
-2.332451639907
 30
0.0
 11
71.746534056905
 21
-2.2295
 31
0.0
  0
LINE
  5
476
330
30
100
AcDbEntity
  8
1
100
AcDbLine
 10
71.746534056905
 20
-2.2295
 30
0.0
 11
71.71775910177
 21
-2.2295
 31
0.0
  0
LINE
  5
477
330
30
100
AcDbEntity
  8
1
100
AcDbLine
 10
71.71775910177
 20
-2.2295
 30
0.0
 11
71.688984146635
 21
-2.2295
 31
0.0
  0
LINE
  5
478
330
30
100
AcDbEntity
  8
1
100
AcDbLine
 10
71.688984146635
 20
-2.2295
 30
0.0
 11
71.612817187
 21
-2.361425043945
 31
0.0
  0
LINE
  5
479
330
30
100
AcDbEntity
  8
1
100
AcDbLine
 10
71.345823360205
 20
-2.401474117964
 30
0.0
 11
71.246534056905
 21
-2.2295
 31
0.0
  0
LINE
  5
47A
330
30
100
AcDbEntity
  8
1
100
AcDbLine
 10
71.246534056905
 20
-2.2295
 30
0.0
 11
71.21775910177
 21
-2.2295
 31
0.0
  0
LINE
  5
47B
330
30
100
AcDbEntity
  8
1
100
AcDbLine
 10
71.21775910177
 20
-2.2295
 30
0.0
 11
71.188984146635
 21
-2.2295
 31
0.0
  0
LINE
  5
47C
330
30
100
AcDbEntity
  8
1
100
AcDbLine
 10
71.188984146635
 20
-2.2295
 30
0.0
 11
71.065410365651
 21
-2.443536067148
 31
0.0
  0
LINE
  5
47D
330
30
100
AcDbEntity
  8
1
100
AcDbLine
 10
70.885673506492
 20
-2.470496596021
 30
0.0
 11
70.746534056905
 21
-2.2295
 31
0.0
  0
LINE
  5
47E
330
30
100
AcDbEntity
  8
1
100
AcDbLine
 10
70.746534056905
 20
-2.2295
 30
0.0
 11
70.71775910177
 21
-2.2295
 31
0.0
  0
LINE
  5
47F
330
30
100
AcDbEntity
  8
1
100
AcDbLine
 10
70.71775910177
 20
-2.2295
 30
0.0
 11
70.688984146635
 21
-2.2295
 31
0.0
  0
LINE
  5
480
330
30
100
AcDbEntity
  8
1
100
AcDbLine
 10
70.688984146635
 20
-2.2295
 30
0.0
 11
70.532810898819
 21
-2.5
 31
0.0
  0
LINE
  5
481
330
30
100
AcDbEntity
  8
1
100
AcDbLine
 10
70.532810898819
 20
-2.5
 30
0.0
 11
70.46775910177
 21
-2.5
 31
0.0
  0
LINE
  5
482
330
30
100
AcDbEntity
  8
1
100
AcDbLine
 10
70.46775910177
 20
-2.5
 30
0.0
 11
70.402707304721
 21
-2.5
 31
0.0
  0
LINE
  5
483
330
30
100
AcDbEntity
  8
1
100
AcDbLine
 10
70.402707304721
 20
-2.5
 30
0.0
 11
70.246534056905
 21
-2.2295
 31
0.0
  0
LINE
  5
484
330
30
100
AcDbEntity
  8
1
100
AcDbLine
 10
70.246534056905
 20
-2.2295
 30
0.0
 11
70.21775910177
 21
-2.2295
 31
0.0
  0
LINE
  5
485
330
30
100
AcDbEntity
  8
1
100
AcDbLine
 10
70.21775910177
 20
-2.2295
 30
0.0
 11
70.188984146635
 21
-2.2295
 31
0.0
  0
LINE
  5
486
330
30
100
AcDbEntity
  8
1
100
AcDbLine
 10
70.188984146635
 20
-2.2295
 30
0.0
 11
70.032810898819
 21
-2.5
 31
0.0
  0
LINE
  5
487
330
30
100
AcDbEntity
  8
1
100
AcDbLine
 10
70.032810898819
 20
-2.5
 30
0.0
 11
69.96775910177
 21
-2.5
 31
0.0
  0
LINE
  5
488
330
30
100
AcDbEntity
  8
1
100
AcDbLine
 10
69.96775910177
 20
-2.5
 30
0.0
 11
69.902707304721
 21
-2.5
 31
0.0
  0
LINE
  5
489
330
30
100
AcDbEntity
  8
1
100
AcDbLine
 10
69.902707304721
 20
-2.5
 30
0.0
 11
69.746534056905
 21
-2.2295
 31
0.0
  0
LINE
  5
48A
330
30
100
AcDbEntity
  8
1
100
AcDbLine
 10
69.746534056905
 20
-2.2295
 30
0.0
 11
69.71775910177
 21
-2.2295
 31
0.0
  0
LINE
  5
48B
330
30
100
AcDbEntity
  8
1
100
AcDbLine
 10
69.71775910177
 20
-2.2295
 30
0.0
 11
69.688984146635
 21
-2.2295
 31
0.0
  0
LINE
  5
48C
330
30
100
AcDbEntity
  8
1
100
AcDbLine
 10
69.688984146635
 20
-2.2295
 30
0.0
 11
69.532810898819
 21
-2.5
 31
0.0
  0
LINE
  5
48D
330
30
100
AcDbEntity
  8
1
100
AcDbLine
 10
69.532810898819
 20
-2.5
 30
0.0
 11
69.46775910177
 21
-2.5
 31
0.0
  0
LINE
  5
48E
330
30
100
AcDbEntity
  8
1
100
AcDbLine
 10
69.46775910177
 20
-2.5
 30
0.0
 11
69.402707304721
 21
-2.5
 31
0.0
  0
LINE
  5
48F
330
30
100
AcDbEntity
  8
1
100
AcDbLine
 10
69.402707304721
 20
-2.5
 30
0.0
 11
69.246534056905
 21
-2.2295
 31
0.0
  0
LINE
  5
490
330
30
100
AcDbEntity
  8
1
100
AcDbLine
 10
69.246534056905
 20
-2.2295
 30
0.0
 11
69.21775910177
 21
-2.2295
 31
0.0
  0
LINE
  5
491
330
30
100
AcDbEntity
  8
1
100
AcDbLine
 10
69.21775910177
 20
-2.2295
 30
0.0
 11
69.188984146635
 21
-2.2295
 31
0.0
  0
LINE
  5
492
330
30
100
AcDbEntity
  8
1
100
AcDbLine
 10
69.188984146635
 20
-2.2295
 30
0.0
 11
69.032810898819
 21
-2.5
 31
0.0
  0
LINE
  5
493
330
30
100
AcDbEntity
  8
1
100
AcDbLine
 10
69.032810898819
 20
-2.5
 30
0.0
 11
68.96775910177
 21
-2.5
 31
0.0
  0
LINE
  5
494
330
30
100
AcDbEntity
  8
1
100
AcDbLine
 10
68.96775910177
 20
-2.5
 30
0.0
 11
68.902707304721
 21
-2.5
 31
0.0
  0
LINE
  5
495
330
30
100
AcDbEntity
  8
1
100
AcDbLine
 10
68.902707304721
 20
-2.5
 30
0.0
 11
68.746534056905
 21
-2.2295
 31
0.0
  0
LINE
  5
496
330
30
100
AcDbEntity
  8
1
100
AcDbLine
 10
68.746534056905
 20
-2.2295
 30
0.0
 11
68.71775910177
 21
-2.2295
 31
0.0
  0
LINE
  5
497
330
30
100
AcDbEntity
  8
1
100
AcDbLine
 10
68.71775910177
 20
-2.2295
 30
0.0
 11
68.688984146635
 21
-2.2295
 31
0.0
  0
LINE
  5
498
330
30
100
AcDbEntity
  8
1
100
AcDbLine
 10
68.688984146635
 20
-2.2295
 30
0.0
 11
68.532810898819
 21
-2.5
 31
0.0
  0
LINE
  5
499
330
30
100
AcDbEntity
  8
1
100
AcDbLine
 10
68.532810898819
 20
-2.5
 30
0.0
 11
68.46775910177
 21
-2.5
 31
0.0
  0
LINE
  5
49A
330
30
100
AcDbEntity
  8
1
100
AcDbLine
 10
68.46775910177
 20
-2.5
 30
0.0
 11
68.402707304721
 21
-2.5
 31
0.0
  0
LINE
  5
49B
330
30
100
AcDbEntity
  8
1
100
AcDbLine
 10
68.402707304721
 20
-2.5
 30
0.0
 11
68.246534056905
 21
-2.2295
 31
0.0
  0
LINE
  5
49C
330
30
100
AcDbEntity
  8
1
100
AcDbLine
 10
68.246534056905
 20
-2.2295
 30
0.0
 11
68.21775910177
 21
-2.2295
 31
0.0
  0
LINE
  5
49D
330
30
100
AcDbEntity
  8
1
100
AcDbLine
 10
68.21775910177
 20
-2.2295
 30
0.0
 11
68.188984146635
 21
-2.2295
 31
0.0
  0
LINE
  5
49E
330
30
100
AcDbEntity
  8
1
100
AcDbLine
 10
68.188984146635
 20
-2.2295
 30
0.0
 11
68.032810898819
 21
-2.5
 31
0.0
  0
LINE
  5
49F
330
30
100
AcDbEntity
  8
1
100
AcDbLine
 10
68.032810898819
 20
-2.5
 30
0.0
 11
67.96775910177
 21
-2.5
 31
0.0
  0
LINE
  5
4A0
330
30
100
AcDbEntity
  8
1
100
AcDbLine
 10
67.96775910177
 20
-2.5
 30
0.0
 11
67.902707304721
 21
-2.5
 31
0.0
  0
LINE
  5
4A1
330
30
100
AcDbEntity
  8
1
100
AcDbLine
 10
67.902707304721
 20
-2.5
 30
0.0
 11
67.746534056905
 21
-2.2295
 31
0.0
  0
LINE
  5
4A2
330
30
100
AcDbEntity
  8
1
100
AcDbLine
 10
67.746534056905
 20
-2.2295
 30
0.0
 11
67.71775910177
 21
-2.2295
 31
0.0
  0
LINE
  5
4A3
330
30
100
AcDbEntity
  8
1
100
AcDbLine
 10
67.71775910177
 20
-2.2295
 30
0.0
 11
67.688984146635
 21
-2.2295
 31
0.0
  0
LINE
  5
4A4
330
30
100
AcDbEntity
  8
1
100
AcDbLine
 10
67.688984146635
 20
-2.2295
 30
0.0
 11
67.532810898819
 21
-2.5
 31
0.0
  0
LINE
  5
4A5
330
30
100
AcDbEntity
  8
1
100
AcDbLine
 10
67.532810898819
 20
-2.5
 30
0.0
 11
67.46775910177
 21
-2.5
 31
0.0
  0
LINE
  5
4A6
330
30
100
AcDbEntity
  8
1
100
AcDbLine
 10
67.46775910177
 20
-2.5
 30
0.0
 11
67.402707304721
 21
-2.5
 31
0.0
  0
LINE
  5
4A7
330
30
100
AcDbEntity
  8
1
100
AcDbLine
 10
67.402707304721
 20
-2.5
 30
0.0
 11
67.246534056905
 21
-2.2295
 31
0.0
  0
LINE
  5
4A8
330
30
100
AcDbEntity
  8
1
100
AcDbLine
 10
67.246534056905
 20
-2.2295
 30
0.0
 11
67.21775910177
 21
-2.2295
 31
0.0
  0
LINE
  5
4A9
330
30
100
AcDbEntity
  8
1
100
AcDbLine
 10
67.21775910177
 20
-2.2295
 30
0.0
 11
67.188984146635
 21
-2.2295
 31
0.0
  0
LINE
  5
4AA
330
30
100
AcDbEntity
  8
1
100
AcDbLine
 10
67.188984146635
 20
-2.2295
 30
0.0
 11
67.032810898819
 21
-2.5
 31
0.0
  0
LINE
  5
4AB
330
30
100
AcDbEntity
  8
1
100
AcDbLine
 10
67.032810898819
 20
-2.5
 30
0.0
 11
66.96775910177
 21
-2.5
 31
0.0
  0
LINE
  5
4AC
330
30
100
AcDbEntity
  8
1
100
AcDbLine
 10
66.96775910177
 20
-2.5
 30
0.0
 11
66.902707304721
 21
-2.5
 31
0.0
  0
LINE
  5
4AD
330
30
100
AcDbEntity
  8
1
100
AcDbLine
 10
66.902707304721
 20
-2.5
 30
0.0
 11
66.746534056905
 21
-2.2295
 31
0.0
  0
LINE
  5
4AE
330
30
100
AcDbEntity
  8
1
100
AcDbLine
 10
66.746534056905
 20
-2.2295
 30
0.0
 11
66.71775910177
 21
-2.2295
 31
0.0
  0
LINE
  5
4AF
330
30
100
AcDbEntity
  8
1
100
AcDbLine
 10
66.71775910177
 20
-2.2295
 30
0.0
 11
66.688984146635
 21
-2.2295
 31
0.0
  0
LINE
  5
4B0
330
30
100
AcDbEntity
  8
1
100
AcDbLine
 10
66.688984146635
 20
-2.2295
 30
0.0
 11
66.532810898819
 21
-2.5
 31
0.0
  0
LINE
  5
4B1
330
30
100
AcDbEntity
  8
1
100
AcDbLine
 10
66.532810898819
 20
-2.5
 30
0.0
 11
66.46775910177
 21
-2.5
 31
0.0
  0
LINE
  5
4B2
330
30
100
AcDbEntity
  8
1
100
AcDbLine
 10
66.46775910177
 20
-2.5
 30
0.0
 11
66.402707304721
 21
-2.5
 31
0.0
  0
LINE
  5
4B3
330
30
100
AcDbEntity
  8
1
100
AcDbLine
 10
66.402707304721
 20
-2.5
 30
0.0
 11
66.246534056905
 21
-2.2295
 31
0.0
  0
LINE
  5
4B4
330
30
100
AcDbEntity
  8
1
100
AcDbLine
 10
66.246534056905
 20
-2.2295
 30
0.0
 11
66.21775910177
 21
-2.2295
 31
0.0
  0
LINE
  5
4B5
330
30
100
AcDbEntity
  8
1
100
AcDbLine
 10
66.21775910177
 20
-2.2295
 30
0.0
 11
66.188984146635
 21
-2.2295
 31
0.0
  0
LINE
  5
4B6
330
30
100
AcDbEntity
  8
1
100
AcDbLine
 10
66.188984146635
 20
-2.2295
 30
0.0
 11
66.032810898819
 21
-2.5
 31
0.0
  0
LINE
  5
4B7
330
30
100
AcDbEntity
  8
1
100
AcDbLine
 10
66.032810898819
 20
-2.5
 30
0.0
 11
65.96775910177
 21
-2.5
 31
0.0
  0
LINE
  5
4B8
330
30
100
AcDbEntity
  8
1
100
AcDbLine
 10
65.96775910177
 20
-2.5
 30
0.0
 11
65.902707304721
 21
-2.5
 31
0.0
  0
LINE
  5
4B9
330
30
100
AcDbEntity
  8
1
100
AcDbLine
 10
65.902707304721
 20
-2.5
 30
0.0
 11
65.746534056905
 21
-2.2295
 31
0.0
  0
LINE
  5
4BA
330
30
100
AcDbEntity
  8
1
100
AcDbLine
 10
65.746534056905
 20
-2.2295
 30
0.0
 11
65.71775910177
 21
-2.2295
 31
0.0
  0
LINE
  5
4BB
330
30
100
AcDbEntity
  8
1
100
AcDbLine
 10
65.71775910177
 20
-2.2295
 30
0.0
 11
65.688984146635
 21
-2.2295
 31
0.0
  0
LINE
  5
4BC
330
30
100
AcDbEntity
  8
1
100
AcDbLine
 10
65.688984146635
 20
-2.2295
 30
0.0
 11
65.532810898819
 21
-2.5
 31
0.0
  0
LINE
  5
4BD
330
30
100
AcDbEntity
  8
1
100
AcDbLine
 10
65.532810898819
 20
-2.5
 30
0.0
 11
65.46775910177
 21
-2.5
 31
0.0
  0
LINE
  5
4BE
330
30
100
AcDbEntity
  8
1
100
AcDbLine
 10
65.46775910177
 20
-2.5
 30
0.0
 11
65.402707304721
 21
-2.5
 31
0.0
  0
LINE
  5
4BF
330
30
100
AcDbEntity
  8
1
100
AcDbLine
 10
65.402707304721
 20
-2.5
 30
0.0
 11
65.246534056905
 21
-2.2295
 31
0.0
  0
LINE
  5
4C0
330
30
100
AcDbEntity
  8
1
100
AcDbLine
 10
65.246534056905
 20
-2.2295
 30
0.0
 11
65.21775910177
 21
-2.2295
 31
0.0
  0
LINE
  5
4C1
330
30
100
AcDbEntity
  8
1
100
AcDbLine
 10
65.21775910177
 20
-2.2295
 30
0.0
 11
65.188984146635
 21
-2.2295
 31
0.0
  0
LINE
  5
4C2
330
30
100
AcDbEntity
  8
1
100
AcDbLine
 10
65.188984146635
 20
-2.2295
 30
0.0
 11
65.032810898819
 21
-2.5
 31
0.0
  0
LINE
  5
4C3
330
30
100
AcDbEntity
  8
1
100
AcDbLine
 10
65.032810898819
 20
-2.5
 30
0.0
 11
64.96775910177
 21
-2.5
 31
0.0
  0
LINE
  5
4C4
330
30
100
AcDbEntity
  8
1
100
AcDbLine
 10
64.96775910177
 20
-2.5
 30
0.0
 11
64.902707304721
 21
-2.5
 31
0.0
  0
LINE
  5
4C5
330
30
100
AcDbEntity
  8
1
100
AcDbLine
 10
64.902707304721
 20
-2.5
 30
0.0
 11
64.746534056905
 21
-2.2295
 31
0.0
  0
LINE
  5
4C6
330
30
100
AcDbEntity
  8
1
100
AcDbLine
 10
64.746534056905
 20
-2.2295
 30
0.0
 11
64.71775910177
 21
-2.2295
 31
0.0
  0
LINE
  5
4C7
330
30
100
AcDbEntity
  8
1
100
AcDbLine
 10
64.71775910177
 20
-2.2295
 30
0.0
 11
64.688984146635
 21
-2.2295
 31
0.0
  0
LINE
  5
4C8
330
30
100
AcDbEntity
  8
1
100
AcDbLine
 10
64.688984146635
 20
-2.2295
 30
0.0
 11
64.532810898819
 21
-2.5
 31
0.0
  0
LINE
  5
4C9
330
30
100
AcDbEntity
  8
1
100
AcDbLine
 10
64.532810898819
 20
-2.5
 30
0.0
 11
64.46775910177
 21
-2.5
 31
0.0
  0
LINE
  5
4CA
330
30
100
AcDbEntity
  8
1
100
AcDbLine
 10
64.46775910177
 20
-2.5
 30
0.0
 11
64.402707304721
 21
-2.5
 31
0.0
  0
LINE
  5
4CB
330
30
100
AcDbEntity
  8
1
100
AcDbLine
 10
64.402707304721
 20
-2.5
 30
0.0
 11
64.246534056905
 21
-2.2295
 31
0.0
  0
LINE
  5
4CC
330
30
100
AcDbEntity
  8
1
100
AcDbLine
 10
64.246534056905
 20
-2.2295
 30
0.0
 11
64.21775910177
 21
-2.2295
 31
0.0
  0
LINE
  5
4CD
330
30
100
AcDbEntity
  8
1
100
AcDbLine
 10
64.21775910177
 20
-2.2295
 30
0.0
 11
64.188984146635
 21
-2.2295
 31
0.0
  0
LINE
  5
4CE
330
30
100
AcDbEntity
  8
1
100
AcDbLine
 10
64.188984146635
 20
-2.2295
 30
0.0
 11
64.032810898819
 21
-2.5
 31
0.0
  0
LINE
  5
4CF
330
30
100
AcDbEntity
  8
1
100
AcDbLine
 10
64.032810898819
 20
-2.5
 30
0.0
 11
63.96775910177
 21
-2.5
 31
0.0
  0
LINE
  5
4D0
330
30
100
AcDbEntity
  8
1
100
AcDbLine
 10
63.96775910177
 20
-2.5
 30
0.0
 11
63.902707304721
 21
-2.5
 31
0.0
  0
LINE
  5
4D1
330
30
100
AcDbEntity
  8
1
100
AcDbLine
 10
63.902707304721
 20
-2.5
 30
0.0
 11
63.746534056905
 21
-2.2295
 31
0.0
  0
LINE
  5
4D2
330
30
100
AcDbEntity
  8
1
100
AcDbLine
 10
63.746534056905
 20
-2.2295
 30
0.0
 11
63.71775910177
 21
-2.2295
 31
0.0
  0
LINE
  5
4D3
330
30
100
AcDbEntity
  8
1
100
AcDbLine
 10
63.71775910177
 20
-2.2295
 30
0.0
 11
63.688984146635
 21
-2.2295
 31
0.0
  0
LINE
  5
4D4
330
30
100
AcDbEntity
  8
1
100
AcDbLine
 10
63.688984146635
 20
-2.2295
 30
0.0
 11
63.532810898819
 21
-2.5
 31
0.0
  0
LINE
  5
4D5
330
30
100
AcDbEntity
  8
1
100
AcDbLine
 10
63.532810898819
 20
-2.5
 30
0.0
 11
63.46775910177
 21
-2.5
 31
0.0
  0
LINE
  5
4D6
330
30
100
AcDbEntity
  8
1
100
AcDbLine
 10
63.46775910177
 20
-2.5
 30
0.0
 11
63.402707304721
 21
-2.5
 31
0.0
  0
LINE
  5
4D7
330
30
100
AcDbEntity
  8
1
100
AcDbLine
 10
63.402707304721
 20
-2.5
 30
0.0
 11
63.246534056905
 21
-2.2295
 31
0.0
  0
LINE
  5
4D8
330
30
100
AcDbEntity
  8
1
100
AcDbLine
 10
63.246534056905
 20
-2.2295
 30
0.0
 11
63.21775910177
 21
-2.2295
 31
0.0
  0
LINE
  5
4D9
330
30
100
AcDbEntity
  8
1
100
AcDbLine
 10
63.21775910177
 20
-2.2295
 30
0.0
 11
63.188984146635
 21
-2.2295
 31
0.0
  0
LINE
  5
4DA
330
30
100
AcDbEntity
  8
1
100
AcDbLine
 10
63.188984146635
 20
-2.2295
 30
0.0
 11
63.046854210773
 21
-2.475676270189
 31
0.0
  0
LINE
  5
4DB
330
30
100
AcDbEntity
  8
SK1
100
AcDbLine
 10
9.088984146635
 20
1.09928391231
 30
0.0
 11
9.088984146635
 21
2.464
 31
0.0
  0
LINE
  5
4DC
330
30
100
AcDbEntity
  8
SK1
100
AcDbLine
 10
9.088984146635
 20
2.464
 30
0.0
 11
2.688984146635
 21
2.464
 31
0.0
  0
LINE
  5
4DD
330
30
100
AcDbEntity
  8
SK1
100
AcDbLine
 10
2.688984146635
 20
2.464
 30
0.0
 11
2.688984146635
 21
1.09928391231
 31
0.0
  0
LINE
  5
4DE
330
30
100
AcDbEntity
  8
SK1
100
AcDbLine
 10
2.688984146635
 20
1.09928391231
 30
0.0
 11
9.088984146635
 21
1.09928391231
 31
0.0
  0
LINE
  5
4DF
330
30
100
AcDbEntity
  8
SK1
100
AcDbLine
 10
9.088984146635
 20
1.09928391231
 30
0.0
 11
2.688984146635
 21
2.464
 31
0.0
  0
LINE
  5
4E0
330
30
100
AcDbEntity
  8
SK1
100
AcDbLine
 10
9.088984146635
 20
2.464
 30
0.0
 11
2.688984146635
 21
1.09928391231
 31
0.0
  0
LINE
  5
4E1
330
30
100
AcDbEntity
  8
SK1
100
AcDbLine
 10
9.088984146635
 20
-1.09928391231
 30
0.0
 11
9.088984146635
 21
-2.464
 31
0.0
  0
LINE
  5
4E2
330
30
100
AcDbEntity
  8
SK1
100
AcDbLine
 10
9.088984146635
 20
-2.464
 30
0.0
 11
2.688984146635
 21
-2.464
 31
0.0
  0
LINE
  5
4E3
330
30
100
AcDbEntity
  8
SK1
100
AcDbLine
 10
2.688984146635
 20
-2.464
 30
0.0
 11
2.688984146635
 21
-1.09928391231
 31
0.0
  0
LINE
  5
4E4
330
30
100
AcDbEntity
  8
SK1
100
AcDbLine
 10
2.688984146635
 20
-1.09928391231
 30
0.0
 11
9.088984146635
 21
-1.09928391231
 31
0.0
  0
LINE
  5
4E5
330
30
100
AcDbEntity
  8
SK1
100
AcDbLine
 10
9.088984146635
 20
-1.09928391231
 30
0.0
 11
2.688984146635
 21
-2.464
 31
0.0
  0
LINE
  5
4E6
330
30
100
AcDbEntity
  8
SK1
100
AcDbLine
 10
9.088984146635
 20
-2.464
 30
0.0
 11
2.688984146635
 21
-1.09928391231
 31
0.0
  0
LINE
  5
4E7
330
30
100
AcDbEntity
  8
INFTOTAL
100
AcDbLine
 10
-15.0
 20
45.0
 30
0.0
 11
120.0
 21
45.0
 31
0.0
  0
LINE
  5
4E8
330
30
100
AcDbEntity
  8
INFTOTAL
100
AcDbLine
 10
120.0
 20
45.0
 30
0.0
 11
120.0
 21
-45.0
 31
0.0
  0
LINE
  5
4E9
330
30
100
AcDbEntity
  8
INFTOTAL
100
AcDbLine
 10
120.0
 20
-45.0
 30
0.0
 11
-15.0
 21
-45.0
 31
0.0
  0
LINE
  5
4EA
330
30
100
AcDbEntity
  8
INFTOTAL
100
AcDbLine
 10
-15.0
 20
-45.0
 30
0.0
 11
-15.0
 21
45.0
 31
0.0
  0
DIMENSION
  5
106AC0B
330
30
100
AcDbEntity
  8
2
100
AcDbDimension
  2
*D8
 10
100.0
 20
2.200000000000001
 30
0.0
 11
100.0
 21
14.852
 31
0.0
 70
   160
  1
%%c<>
 71
     5
 42
4.4
  3
STANDARD
100
AcDbAlignedDimension
 13
72.688984146635
 23
-2.2
 33
0.0
 14
72.688984146635
 24
2.2
 34
0.0
 50
-90.0
100
AcDbRotatedDimension
1001
ACAD
1000
DSTYLE
1002
{
1070
   271
1070
     1
1070
   279
1070
     0
1070
    74
1070
     0
1002
}
  0
DIMENSION
  5
106AC36
330
30
100
AcDbEntity
  8
2
100
AcDbDimension
  2
*D10
 10
70.688984146635
 20
-16.0
 30
0.0
 11
80.689484146635
 21
-16.0
 31
0.0
 70
   160
  1
<>
 71
     5
 42
2.0
  3
STANDARD
100
AcDbAlignedDimension
 13
72.688984146635
 23
-2.2
 33
0.0
 14
70.688984146635
 24
-2.5
 34
0.0
100
AcDbRotatedDimension
1001
ACAD
1000
DSTYLE
1002
{
1070
   271
1070
     0
1070
   279
1070
     0
1070
    74
1070
     0
1002
}
  0
DIMENSION
  5
106AC67
330
30
100
AcDbEntity
  8
2
100
AcDbDimension
  2
*D12
 10
108.0
 20
2.500000000000004
 30
0.0
 11
108.0
 21
18.1025
 31
0.0
 70
   160
  1
M5X0.5
 71
     5
 42
5.0
  3
STANDARD
100
AcDbAlignedDimension
 13
70.688984146635
 23
-2.5
 33
0.0
 14
70.688984146635
 24
2.5
 34
0.0
 50
-90.0
100
AcDbRotatedDimension
1001
ACAD
1000
DSTYLE
1002
{
1070
   271
1070
     1
1070
   279
1070
     0
1070
    74
1070
     0
1002
}
  0
DIMENSION
  5
106AC92
330
30
100
AcDbEntity
  8
SK2
100
AcDbDimension
  2
*D14
 10
2.688984146635001
 20
35.0
 30
0.0
 11
15.489423497811
 21
35.0
 31
0.0
 70
   160
  1
<>
 71
     5
 42
25.600878702352
  3
STANDARD
100
AcDbAlignedDimension
 13
28.289862848987
 23
2.464
 33
0.0
 14
2.688984146635
 24
2.464
 34
0.0
100
AcDbRotatedDimension
1001
ACAD
1000
DSTYLE
1002
{
1070
   271
1070
     1
1070
   279
1070
     0
1070
    74
1070
     0
1002
}
  0
ENDSEC
  0
SECTION
  2
OBJECTS
  0
DICTIONARY
  5
4EB
330
0
100
AcDbDictionary
281
     1
  3
ACAD_GROUP
350
4EC
  3
ACAD_IMAGE_VARS
350
106ABDF
  3
ACAD_LAYOUT
350
106AB97
  3
ACAD_MATERIAL
350
106ABBC
  3
ACAD_MLEADERSTYLE
350
106ABDB
  3
ACAD_MLINESTYLE
350
106AB92
  3
ACAD_PLOTSETTINGS
350
106AB94
  3
ACAD_PLOTSTYLENAME
350
106AB95
  3
ACAD_SCALELIST
350
106AB9A
  3
ACAD_TABLESTYLE
350
106ABD9
  3
ACAD_VISUALSTYLE
350
106ABC0
  3
AcDbVariableDictionary
350
106ACA1
  3
APPDATA
350
106ABDD
  3
DWGPROPS
350
106ACEB
  3
FX_DICT_DIMENSION_PALETTE
350
106ABE2
  3
PRINTCONFIG
350
106ACE8
  0
DICTIONARY
  5
106ACEC
330
2
100
AcDbDictionary
280
     1
281
     1
  3
ACAD_XREC_ROUNDTRIP
360
106ACED
  0
DICTIONARY
  5
106AC9F
330
30
100
AcDbDictionary
280
     1
281
     1
  3
DIM_BOUNDING_BOXES_V1
360
106ACA0
  0
DICTIONARY
  5
4EC
102
{ACAD_REACTORS
330
4EB
102
}
330
4EB
100
AcDbDictionary
281
     1
  0
RASTERVARIABLES
  5
106ABDF
102
{ACAD_REACTORS
330
4EB
102
}
330
4EB
100
AcDbRasterVariables
 90
        0
 70
     1
 71
     1
 72
     0
  0
DICTIONARY
  5
106AB97
102
{ACAD_REACTORS
330
4EB
102
}
330
4EB
100
AcDbDictionary
281
     1
  3
Model
350
106AB98
  3
シート 1
350
106AB99
  0
DICTIONARY
  5
106ABBC
102
{ACAD_REACTORS
330
4EB
102
}
330
4EB
100
AcDbDictionary
281
     1
  3
ByBlock
350
106ABBE
  3
ByLayer
350
106ABBD
  3
Global
350
106ABBF
  0
DICTIONARY
  5
106ABDB
102
{ACAD_REACTORS
330
4EB
102
}
330
4EB
100
AcDbDictionary
281
     1
  3
Standard
350
106ABDC
  0
DICTIONARY
  5
106AB92
102
{ACAD_REACTORS
330
4EB
102
}
330
4EB
100
AcDbDictionary
281
     1
  3
Standard
350
106AB93
  0
DICTIONARY
  5
106AB94
102
{ACAD_REACTORS
330
4EB
102
}
330
4EB
100
AcDbDictionary
281
     1
  0
ACDBDICTIONARYWDFLT
  5
106AB95
102
{ACAD_REACTORS
330
4EB
102
}
330
4EB
100
AcDbDictionary
281
     1
  3
Normal
350
106AB96
100
AcDbDictionaryWithDefault
340
106AB96
  0
DICTIONARY
  5
106AB9A
102
{ACAD_REACTORS
330
4EB
102
}
330
4EB
100
AcDbDictionary
281
     1
  3
A0
350
106AB9B
  3
A1
350
106AB9C
  3
A2
350
106AB9D
  3
A3
350
106AB9E
  3
A4
350
106AB9F
  3
A5
350
106ABA0
  3
A6
350
106ABA1
  3
A7
350
106ABA2
  3
A8
350
106ABA3
  3
A9
350
106ABA4
  3
B0
350
106ABA5
  3
B1
350
106ABA6
  3
B2
350
106ABA7
  3
B3
350
106ABA8
  3
B4
350
106ABA9
  3
B5
350
106ABAA
  3
B6
350
106ABAB
  3
B7
350
106ABAC
  3
B8
350
106ABAD
  3
B9
350
106ABAE
  3
C0
350
106ABAF
  3
C1
350
106ABB0
  3
C2
350
106ABB1
  3
C3
350
106ABB2
  3
C4
350
106ABB3
  3
C5
350
106ABB4
  3
C6
350
106ABB5
  3
C7
350
106ABB6
  3
C8
350
106ABB7
  3
C9
350
106ABB8
  3
D0
350
106ABB9
  3
D1
350
106ABBA
  3
D2
350
106ABBB
  0
DICTIONARY
  5
106ABD9
102
{ACAD_REACTORS
330
4EB
102
}
330
4EB
100
AcDbDictionary
281
     1
  3
Standard
350
106ABDA
  0
DICTIONARY
  5
106ABC0
102
{ACAD_REACTORS
330
4EB
102
}
330
4EB
100
AcDbDictionary
281
     1
  3
2dWireframe
350
106ABC5
  3
Basic
350
106ABC8
  3
Brighten
350
106ABCC
  3
ColorChange
350
106ABD0
  3
Conceptual
350
106ABCA
  3
Dim
350
106ABCB
  3
EdgeColorOff
350
106ABD3
  3
Facepattern
350
106ABCF
  3
Flat
350
106ABC1
  3
FlatWithEdges
350
106ABC2
  3
Gouraud
350
106ABC3
  3
GouraudWithEdges
350
106ABC4
  3
Hidden
350
106ABC7
  3
JitterOff
350
106ABD1
  3
Linepattern
350
106ABCE
  3
OverhangOff
350
106ABD2
  3
Realistic
350
106ABC9
  3
Shaded
350
106ABD8
  3
Shaded with edges
350
106ABD7
  3
Shades of Gray
350
106ABD4
  3
Sketchy
350
106ABD5
  3
Thicken
350
106ABCD
  3
Wireframe
350
106ABC6
  3
X-Ray
350
106ABD6
  0
DICTIONARY
  5
106ACA1
102
{ACAD_REACTORS
330
4EB
102
}
330
4EB
100
AcDbDictionary
281
     1
  3
CANNOSCALE
350
106ACEE
  3
CMLEADERSTYLE
350
106ACA3
  3
CTABLESTYLE
350
106ACA2
  3
DIMASSOC
350
106ACA6
  3
HIDETEXT
350
106ACA7
  3
MSLTSCALE
350
106ACAE
  0
DICTIONARY
  5
106ABDD
102
{ACAD_REACTORS
330
4EB
102
}
330
4EB
100
AcDbDictionary
281
     1
  0
XRECORD
  5
106ACEB
102
{ACAD_REACTORS
330
4EB
102
}
330
4EB
100
AcDbXrecord
280
     1
  1
DWGPROPS COOKIE
  2

  3

  4

  6

  7

  8
usr2460
  9

300
=
301
=
302
=
303
=
304
=
305
=
306
=
307
=
308
=
309
=
 40
0.0
 41
0.0
 42
2460864.02920882
  1

 90
        0
  0
DICTIONARY
  5
106ABE2
102
{ACAD_REACTORS
330
4EB
102
}
330
4EB
100
AcDbDictionary
281
     1
1001
FX_DIMP_FAV_VERSION
1071
        1
  0
DICTIONARYVAR
  5
106ACE8
102
{ACAD_REACTORS
330
4EB
102
}
330
4EB
100
DictionaryVariables
280
     0
  1
0
  0
XRECORD
  5
106ACED
102
{ACAD_REACTORS
330
106ACEC
102
}
330
106ACEC
100
AcDbXrecord
280
     1
102
VTR_0.000_0.000_1.000_1.000_VISUALSTYLE
340
106ABC5
102
VTR_0.000_0.000_1.000_1.000_GRIDDISPLAY
 70
     3
102
VTR_0.000_0.000_1.000_1.000_GRIDMAJOR
 70
     5
102
VTR_0.000_0.000_1.000_1.000_DEFAULTLIGHTING
280
     1
102
VTR_0.000_0.000_1.000_1.000_DEFAULTLIGHTINGTYPE
 70
     1
102
VTR_0.000_0.000_1.000_1.000_BRIGHTNESS
141
0.0
102
VTR_0.000_0.000_1.000_1.000_CONTRAST
142
0.0
  0
DICTIONARY
  5
106ACA0
102
{ACAD_REACTORS
330
106AC9F
102
}
330
106AC9F
100
AcDbDictionary
281
     1
  0
LAYOUT
  5
106AB98
102
{ACAD_REACTORS
330
106AB97
102
}
330
106AB97
100
AcDbPlotSettings
  1

  2
none_device
  4
Letter_(8.50_x_11.00_Inches)
  6

 40
6.35
 41
6.35
 42
6.35
 43
6.35
 44
215.9
 45
279.4
 46
0.0
 47
0.0
 48
0.0
 49
0.0
140
0.0
141
0.0
142
1.0
143
2.21959459445662
 70
  1712
 72
     0
 73
     0
 74
     0
  7

 75
     0
147
0.4505327245333333
148
-39.40881537143161
149
0.0
100
AcDbLayout
  1
Model
 70
     1
 71
     0
 10
0.0
 20
0.0
 11
12.0
 21
9.0
 12
0.0
 22
0.0
 32
0.0
 14
-15.0
 24
-45.0
 34
0.0
 15
120.0
 25
45.0
 35
0.0
146
0.0
 13
0.0
 23
0.0
 33
0.0
 16
1.0
 26
0.0
 36
0.0
 17
0.0
 27
1.0
 37
0.0
 76
     0
330
30
331
106AB91
  0
LAYOUT
  5
106AB99
102
{ACAD_REACTORS
330
106AB97
102
}
330
106AB97
100
AcDbPlotSettings
  1

  2
none_device
  4

  6

 40
0.0
 41
0.0
 42
0.0
 43
0.0
 44
0.0
 45
0.0
 46
0.0
 47
0.0
 48
0.0
 49
0.0
140
0.0
141
0.0
142
1.0
143
1.0
 70
   688
 72
     0
 73
     0
 74
     5
  7

 75
    16
147
1.0
148
0.0
149
0.0
100
AcDbLayout
  1
シート 1
 70
     1
 71
     1
 10
0.0
 20
0.0
 11
0.0
 21
0.0
 12
0.0
 22
0.0
 32
0.0
 14
1.000000000000000E+20
 24
1.000000000000000E+20
 34
1.000000000000000E+20
 15
-1.000000000000000E+20
 25
-1.000000000000000E+20
 35
-1.000000000000000E+20
146
0.0
 13
0.0
 23
0.0
 33
0.0
 16
1.0
 26
0.0
 36
0.0
 17
0.0
 27
1.0
 37
0.0
 76
     0
330
31
  0
MATERIAL
  5
106ABBE
102
{ACAD_REACTORS
330
106ABBC
102
}
102
{ACAD_XDICTIONARY
360
106ACEF
102
}
330
106ABBC
100
AcDbMaterial
  1
ByBlock
  0
MATERIAL
  5
106ABBD
102
{ACAD_REACTORS
330
106ABBC
102
}
102
{ACAD_XDICTIONARY
360
106ACF1
102
}
330
106ABBC
100
AcDbMaterial
  1
ByLayer
  0
MATERIAL
  5
106ABBF
102
{ACAD_REACTORS
330
106ABBC
102
}
102
{ACAD_XDICTIONARY
360
106ACF3
102
}
330
106ABBC
100
AcDbMaterial
  1
Global
  0
MLEADERSTYLE
  5
106ABDC
102
{ACAD_REACTORS
330
106ABDB
102
}
102
{ACAD_XDICTIONARY
360
106ACF5
102
}
330
106ABDB
100
AcDbMLeaderStyle
170
     2
171
     1
172
     0
 90
        2
 40
0.0
 41
0.0
173
     1
 91
-1056964608
340
4
 92
       -2
290
     1
 42
0.09
291
     1
 43
0.36
  3
Standard
341
0
 44
0.18
300

342
28
174
     1
178
     1
175
     1
176
     0
 93
-1056964608
 45
0.18
292
     0
297
     0
 46
0.18
343
0
 94
-1056964608
 47
1.0
 49
1.0
140
1.0
293
     1
141
0.0
294
     1
177
     0
142
1.0
295
     0
296
     0
143
0.125
1001
ACAD_MLEADERVER
1070
     2
  0
MLINESTYLE
  5
106AB93
102
{ACAD_REACTORS
330
106AB92
102
}
330
106AB92
100
AcDbMlineStyle
  2
Standard
 70
     0
  3

 62
   256
 51
90.0
 52
90.0
 71
     2
 49
0.5
 62
   256
  6
BYLAYER
 49
-0.5
 62
   256
  6
BYLAYER
  0
ACDBPLACEHOLDER
  5
106AB96
102
{ACAD_REACTORS
330
106AB95
102
}
330
106AB95
  0
SCALE
  5
106AB9B
102
{ACAD_REACTORS
330
106AB9A
102
}
330
106AB9A
100
AcDbScale
 70
     0
300
1:1
140
1.0
141
1.0
290
     1
  0
SCALE
  5
106AB9C
102
{ACAD_REACTORS
330
106AB9A
102
}
330
106AB9A
100
AcDbScale
 70
     0
300
1:2
140
1.0
141
2.0
290
     0
  0
SCALE
  5
106AB9D
102
{ACAD_REACTORS
330
106AB9A
102
}
330
106AB9A
100
AcDbScale
 70
     0
300
1:4
140
1.0
141
4.0
290
     0
  0
SCALE
  5
106AB9E
102
{ACAD_REACTORS
330
106AB9A
102
}
330
106AB9A
100
AcDbScale
 70
     0
300
1:5
140
1.0
141
5.0
290
     0
  0
SCALE
  5
106AB9F
102
{ACAD_REACTORS
330
106AB9A
102
}
330
106AB9A
100
AcDbScale
 70
     0
300
1:8
140
1.0
141
8.0
290
     0
  0
SCALE
  5
106ABA0
102
{ACAD_REACTORS
330
106AB9A
102
}
330
106AB9A
100
AcDbScale
 70
     0
300
1:10
140
1.0
141
10.0
290
     0
  0
SCALE
  5
106ABA1
102
{ACAD_REACTORS
330
106AB9A
102
}
330
106AB9A
100
AcDbScale
 70
     0
300
1:16
140
1.0
141
16.0
290
     0
  0
SCALE
  5
106ABA2
102
{ACAD_REACTORS
330
106AB9A
102
}
330
106AB9A
100
AcDbScale
 70
     0
300
1:20
140
1.0
141
20.0
290
     0
  0
SCALE
  5
106ABA3
102
{ACAD_REACTORS
330
106AB9A
102
}
330
106AB9A
100
AcDbScale
 70
     0
300
1:30
140
1.0
141
30.0
290
     0
  0
SCALE
  5
106ABA4
102
{ACAD_REACTORS
330
106AB9A
102
}
330
106AB9A
100
AcDbScale
 70
     0
300
1:40
140
1.0
141
40.0
290
     0
  0
SCALE
  5
106ABA5
102
{ACAD_REACTORS
330
106AB9A
102
}
330
106AB9A
100
AcDbScale
 70
     0
300
1:50
140
1.0
141
50.0
290
     0
  0
SCALE
  5
106ABA6
102
{ACAD_REACTORS
330
106AB9A
102
}
330
106AB9A
100
AcDbScale
 70
     0
300
1:100
140
1.0
141
100.0
290
     0
  0
SCALE
  5
106ABA7
102
{ACAD_REACTORS
330
106AB9A
102
}
330
106AB9A
100
AcDbScale
 70
     0
300
2:1
140
2.0
141
1.0
290
     0
  0
SCALE
  5
106ABA8
102
{ACAD_REACTORS
330
106AB9A
102
}
330
106AB9A
100
AcDbScale
 70
     0
300
4:1
140
4.0
141
1.0
290
     0
  0
SCALE
  5
106ABA9
102
{ACAD_REACTORS
330
106AB9A
102
}
330
106AB9A
100
AcDbScale
 70
     0
300
8:1
140
8.0
141
1.0
290
     0
  0
SCALE
  5
106ABAA
102
{ACAD_REACTORS
330
106AB9A
102
}
330
106AB9A
100
AcDbScale
 70
     0
300
10:1
140
10.0
141
1.0
290
     0
  0
SCALE
  5
106ABAB
102
{ACAD_REACTORS
330
106AB9A
102
}
330
106AB9A
100
AcDbScale
 70
     0
300
100:1
140
100.0
141
1.0
290
     0
  0
SCALE
  5
106ABAC
102
{ACAD_REACTORS
330
106AB9A
102
}
330
106AB9A
100
AcDbScale
 70
     0
300
1/128" = 1'-0"
140
0.0078125
141
12.0
290
     0
  0
SCALE
  5
106ABAD
102
{ACAD_REACTORS
330
106AB9A
102
}
330
106AB9A
100
AcDbScale
 70
     0
300
1/64" = 1'-0"
140
0.015625
141
12.0
290
     0
  0
SCALE
  5
106ABAE
102
{ACAD_REACTORS
330
106AB9A
102
}
330
106AB9A
100
AcDbScale
 70
     0
300
1/32" = 1'-0"
140
0.03125
141
12.0
290
     0
  0
SCALE
  5
106ABAF
102
{ACAD_REACTORS
330
106AB9A
102
}
330
106AB9A
100
AcDbScale
 70
     0
300
1/16" = 1'-0"
140
0.0625
141
12.0
290
     0
  0
SCALE
  5
106ABB0
102
{ACAD_REACTORS
330
106AB9A
102
}
330
106AB9A
100
AcDbScale
 70
     0
300
3/32" = 1'-0"
140
0.09375
141
12.0
290
     0
  0
SCALE
  5
106ABB1
102
{ACAD_REACTORS
330
106AB9A
102
}
330
106AB9A
100
AcDbScale
 70
     0
300
1/8" = 1'-0"
140
0.125
141
12.0
290
     0
  0
SCALE
  5
106ABB2
102
{ACAD_REACTORS
330
106AB9A
102
}
330
106AB9A
100
AcDbScale
 70
     0
300
3/16" = 1'-0"
140
0.1875
141
12.0
290
     0
  0
SCALE
  5
106ABB3
102
{ACAD_REACTORS
330
106AB9A
102
}
330
106AB9A
100
AcDbScale
 70
     0
300
1/4" = 1'-0"
140
0.25
141
12.0
290
     0
  0
SCALE
  5
106ABB4
102
{ACAD_REACTORS
330
106AB9A
102
}
330
106AB9A
100
AcDbScale
 70
     0
300
3/8" = 1'-0"
140
0.375
141
12.0
290
     0
  0
SCALE
  5
106ABB5
102
{ACAD_REACTORS
330
106AB9A
102
}
330
106AB9A
100
AcDbScale
 70
     0
300
1/2" = 1'-0"
140
0.5
141
12.0
290
     0
  0
SCALE
  5
106ABB6
102
{ACAD_REACTORS
330
106AB9A
102
}
330
106AB9A
100
AcDbScale
 70
     0
300
3/4" = 1'-0"
140
0.75
141
12.0
290
     0
  0
SCALE
  5
106ABB7
102
{ACAD_REACTORS
330
106AB9A
102
}
330
106AB9A
100
AcDbScale
 70
     0
300
1" = 1'-0"
140
1.0
141
12.0
290
     0
  0
SCALE
  5
106ABB8
102
{ACAD_REACTORS
330
106AB9A
102
}
330
106AB9A
100
AcDbScale
 70
     0
300
1-1/2" = 1'-0"
140
1.5
141
12.0
290
     0
  0
SCALE
  5
106ABB9
102
{ACAD_REACTORS
330
106AB9A
102
}
330
106AB9A
100
AcDbScale
 70
     0
300
3" = 1'-0"
140
3.0
141
12.0
290
     0
  0
SCALE
  5
106ABBA
102
{ACAD_REACTORS
330
106AB9A
102
}
330
106AB9A
100
AcDbScale
 70
     0
300
6" = 1'-0"
140
6.0
141
12.0
290
     0
  0
SCALE
  5
106ABBB
102
{ACAD_REACTORS
330
106AB9A
102
}
330
106AB9A
100
AcDbScale
 70
     0
300
1'-0" = 1'-0"
140
12.0
141
12.0
290
     0
  0
TABLESTYLE
  5
106ABDA
102
{ACAD_REACTORS
330
106ABD9
102
}
330
106ABD9
100
AcDbTableStyle
  3
Standard
 70
     0
 71
     0
 40
0.06
 41
0.06
280
     0
281
     0
  7
Monospac821 BT
140
0.18
170
     2
 62
     0
 63
   257
283
     0
274
    -2
284
     1
 64
     0
275
    -2
285
     1
 65
     0
276
    -2
286
     1
 66
     0
277
    -2
287
     1
 67
     0
278
    -2
288
     1
 68
     0
279
    -2
289
     1
 69
     0
  7
Monospac821 BT
140
0.25
170
     5
 62
     0
 63
   257
283
     0
274
    -2
284
     1
 64
     0
275
    -2
285
     1
 65
     0
276
    -2
286
     1
 66
     0
277
    -2
287
     1
 67
     0
278
    -2
288
     1
 68
     0
279
    -2
289
     1
 69
     0
  7
Monospac821 BT
140
0.18
170
     5
 62
     0
 63
   257
283
     0
274
    -2
284
     1
 64
     0
275
    -2
285
     1
 65
     0
276
    -2
286
     1
 66
     0
277
    -2
287
     1
 67
     0
278
    -2
288
     1
 68
     0
279
    -2
289
     1
 69
     0
  0
VISUALSTYLE
  5
106ABC5
102
{ACAD_REACTORS
330
106ABC0
102
}
102
{ACAD_XDICTIONARY
360
106ACF7
102
}
330
106ABC0
100
AcDbVisualStyle
  2
2dWireframe
 70
     4
 71
     0
 72
     2
 73
     0
 90
        0
 40
0.6
 41
30.0
 62
     5
 63
     7
 74
     1
 91
        4
 64
     7
 65
   257
 75
     1
175
     1
 42
1.0
 92
        0
 66
   257
 43
1.0
 76
     1
 77
     6
 78
     2
 67
     7
 79
     5
170
     0
171
     0
290
     0
174
     0
 93
        1
 44
0.0
173
     0
291
     0
 45
0.0
1001
ACAD
1000
AcDbSavedByObjectVersion
1070
     0
  0
VISUALSTYLE
  5
106ABC8
102
{ACAD_REACTORS
330
106ABC0
102
}
102
{ACAD_XDICTIONARY
360
106ACF9
102
}
330
106ABC0
100
AcDbVisualStyle
  2
Basic
 70
     7
 71
     1
 72
     0
 73
     1
 90
        0
 40
0.6
 41
30.0
 62
     5
 63
     7
 74
     0
 91
        4
 64
     7
 65
   257
 75
     1
175
     1
 42
1.0
 92
        8
 66
     7
 43
1.0
 76
     1
 77
     6
 78
     2
 67
     7
 79
     5
170
     0
171
     0
290
     0
174
     0
 93
        1
 44
0.0
173
     0
291
     1
 45
0.0
1001
ACAD
1000
AcDbSavedByObjectVersion
1070
     0
  0
VISUALSTYLE
  5
106ABCC
102
{ACAD_REACTORS
330
106ABC0
102
}
102
{ACAD_XDICTIONARY
360
106ACFB
102
}
330
106ABC0
100
AcDbVisualStyle
  2
Brighten
 70
    12
 71
     2
 72
     2
 73
     0
 90
        0
 40
0.6
 41
30.0
 62
     5
 63
     7
 74
     1
 91
        4
 64
     7
 65
   257
 75
     1
175
     1
 42
1.0
 92
        8
 66
     7
 43
1.0
 76
     1
 77
     6
 78
     2
 67
     7
 79
     5
170
     0
171
     0
290
     0
174
     0
 93
        1
 44
50.0
173
     0
291
     1
 45
0.0
1001
ACAD
1000
AcDbSavedByObjectVersion
1070
     0
  0
VISUALSTYLE
  5
106ABD0
102
{ACAD_REACTORS
330
106ABC0
102
}
102
{ACAD_XDICTIONARY
360
106ACFD
102
}
330
106ABC0
100
AcDbVisualStyle
  2
ColorChange
 70
    16
 71
     2
 72
     2
 73
     3
 90
        0
 40
0.6
 41
30.0
 62
     5
 63
     8
 74
     1
 91
        4
 64
     7
 65
   257
 75
     1
175
     1
 42
1.0
 92
        8
 66
     8
 43
1.0
 76
     1
 77
     6
 78
     2
 67
     7
 79
     5
170
     0
171
     0
290
     0
174
     0
 93
        1
 44
0.0
173
     0
291
     1
 45
0.0
1001
ACAD
1000
AcDbSavedByObjectVersion
1070
     0
  0
VISUALSTYLE
  5
106ABCA
102
{ACAD_REACTORS
330
106ABC0
102
}
102
{ACAD_XDICTIONARY
360
106ACFF
102
}
330
106ABC0
100
AcDbVisualStyle
  2
Conceptual
 70
     9
 71
     3
 72
     2
 73
     0
 90
        0
 40
0.6
 41
30.0
 62
     5
 63
     7
 74
     2
 91
        2
 64
     7
 65
   257
 75
     1
175
     1
 42
179.0
 92
        8
 66
     7
 43
1.0
 76
     1
 77
     6
 78
     2
 67
     7
 79
     3
170
     0
171
     0
290
     0
174
     0
 93
        1
 44
0.0
173
     0
291
     0
 45
0.0
1001
ACAD
1000
AcDbSavedByObjectVersion
1070
     0
  0
VISUALSTYLE
  5
106ABCB
102
{ACAD_REACTORS
330
106ABC0
102
}
102
{ACAD_XDICTIONARY
360
106AD01
102
}
330
106ABC0
100
AcDbVisualStyle
  2
Dim
 70
    11
 71
     2
 72
     2
 73
     0
 90
        0
 40
0.6
 41
30.0
 62
     5
 63
     7
 74
     1
 91
        4
 64
     7
 65
   257
 75
     1
175
     1
 42
1.0
 92
        8
 66
     7
 43
1.0
 76
     1
 77
     6
 78
     2
 67
     7
 79
     5
170
     0
171
     0
290
     0
174
     0
 93
        1
 44
-50.0
173
     0
291
     1
 45
0.0
1001
ACAD
1000
AcDbSavedByObjectVersion
1070
     0
  0
VISUALSTYLE
  5
106ABD3
102
{ACAD_REACTORS
330
106ABC0
102
}
102
{ACAD_XDICTIONARY
360
106AD03
102
}
330
106ABC0
100
AcDbVisualStyle
  2
EdgeColorOff
 70
    22
 71
     2
 72
     2
 73
     0
 90
        0
 40
0.6
 41
30.0
 62
     5
 63
     7
 74
     1
 91
        4
 64
     7
 65
   257
 75
     1
175
     1
 42
1.0
 92
        8
 66
     7
 43
1.0
 76
     1
 77
     6
 78
     2
 67
     7
 79
     5
170
     0
171
     0
290
     0
174
     0
 93
        1
 44
0.0
173
     0
291
     1
 45
0.0
1001
ACAD
1000
AcDbSavedByObjectVersion
1070
     0
  0
VISUALSTYLE
  5
106ABCF
102
{ACAD_REACTORS
330
106ABC0
102
}
102
{ACAD_XDICTIONARY
360
106AD05
102
}
330
106ABC0
100
AcDbVisualStyle
  2
Facepattern
 70
    15
 71
     2
 72
     2
 73
     0
 90
        0
 40
0.6
 41
30.0
 62
     5
 63
     7
 74
     1
 91
        4
 64
     7
 65
   257
 75
     1
175
     1
 42
1.0
 92
        8
 66
     7
 43
1.0
 76
     1
 77
     6
 78
     2
 67
     7
 79
     5
170
     0
171
     0
290
     0
174
     0
 93
        1
 44
0.0
173
     0
291
     1
 45
0.0
1001
ACAD
1000
AcDbSavedByObjectVersion
1070
     0
  0
VISUALSTYLE
  5
106ABC1
102
{ACAD_REACTORS
330
106ABC0
102
}
102
{ACAD_XDICTIONARY
360
106AD07
102
}
330
106ABC0
100
AcDbVisualStyle
  2
Flat
 70
     0
 71
     2
 72
     1
 73
     1
 90
        2
 40
0.6
 41
30.0
 62
     5
 63
     7
 74
     0
 91
        0
 64
     7
 65
   257
 75
     1
175
     1
 42
1.0
 92
        8
 66
     7
 43
1.0
 76
     1
 77
     6
 78
     2
 67
     7
 79
     5
170
     0
171
     0
290
     0
174
     0
 93
       13
 44
0.0
173
     0
291
     1
 45
0.0
1001
ACAD
1000
AcDbSavedByObjectVersion
1070
     0
  0
VISUALSTYLE
  5
106ABC2
102
{ACAD_REACTORS
330
106ABC0
102
}
102
{ACAD_XDICTIONARY
360
106AD09
102
}
330
106ABC0
100
AcDbVisualStyle
  2
FlatWithEdges
 70
     1
 71
     2
 72
     1
 73
     1
 90
        2
 40
0.6
 41
30.0
 62
     5
 63
     7
 74
     1
 91
        0
 64
     7
 65
   257
 75
     1
175
     1
 42
1.0
 92
        0
 66
   257
 43
1.0
 76
     1
 77
     6
 78
     2
 67
     7
 79
     5
170
     0
171
     0
290
     0
174
     0
 93
       13
 44
0.0
173
     0
291
     1
 45
0.0
1001
ACAD
1000
AcDbSavedByObjectVersion
1070
     0
  0
VISUALSTYLE
  5
106ABC3
102
{ACAD_REACTORS
330
106ABC0
102
}
102
{ACAD_XDICTIONARY
360
106AD0B
102
}
330
106ABC0
100
AcDbVisualStyle
  2
Gouraud
 70
     2
 71
     2
 72
     2
 73
     1
 90
        2
 40
0.6
 41
30.0
 62
     5
 63
     7
 74
     0
 91
        0
 64
     7
 65
   257
 75
     1
175
     1
 42
1.0
 92
        0
 66
     7
 43
1.0
 76
     1
 77
     6
 78
     2
 67
     7
 79
     5
170
     0
171
     0
290
     0
174
     0
 93
       13
 44
0.0
173
     0
291
     1
 45
0.0
1001
ACAD
1000
AcDbSavedByObjectVersion
1070
     0
  0
VISUALSTYLE
  5
106ABC4
102
{ACAD_REACTORS
330
106ABC0
102
}
102
{ACAD_XDICTIONARY
360
106AD0D
102
}
330
106ABC0
100
AcDbVisualStyle
  2
GouraudWithEdges
 70
     3
 71
     2
 72
     2
 73
     1
 90
        2
 40
0.6
 41
30.0
 62
     5
 63
     7
 74
     1
 91
        0
 64
     7
 65
   257
 75
     1
175
     1
 42
1.0
 92
        0
 66
   257
 43
1.0
 76
     1
 77
     6
 78
     2
 67
     7
 79
     5
170
     0
171
     0
290
     0
174
     0
 93
       13
 44
0.0
173
     0
291
     1
 45
0.0
1001
ACAD
1000
AcDbSavedByObjectVersion
1070
     0
  0
VISUALSTYLE
  5
106ABC7
102
{ACAD_REACTORS
330
106ABC0
102
}
102
{ACAD_XDICTIONARY
360
106AD0F
102
}
330
106ABC0
100
AcDbVisualStyle
  2
Hidden
 70
     6
 71
     1
 72
     2
 73
     2
 90
        0
 40
0.6
 41
30.0
 62
     5
 63
     7
 74
     2
 91
        2
 64
     7
 65
   257
 75
     2
175
     1
 42
40.0
 92
        0
 66
   257
 43
1.0
 76
     1
 77
     6
 78
     2
 67
     7
 79
     3
170
     0
171
     0
290
     0
174
     0
 93
        1
 44
0.0
173
     0
291
     0
 45
0.0
1001
ACAD
1000
AcDbSavedByObjectVersion
1070
     0
  0
VISUALSTYLE
  5
106ABD1
102
{ACAD_REACTORS
330
106ABC0
102
}
102
{ACAD_XDICTIONARY
360
106AD11
102
}
330
106ABC0
100
AcDbVisualStyle
  2
JitterOff
 70
    20
 71
     2
 72
     2
 73
     0
 90
        0
 40
0.6
 41
30.0
 62
     5
 63
     7
 74
     1
 91
        4
 64
     7
 65
   257
 75
     1
175
     1
 42
1.0
 92
       10
 66
     7
 43
1.0
 76
     1
 77
     6
 78
     2
 67
     7
 79
     5
170
     0
171
     0
290
     0
174
     0
 93
        1
 44
0.0
173
     0
291
     1
 45
0.0
1001
ACAD
1000
AcDbSavedByObjectVersion
1070
     0
  0
VISUALSTYLE
  5
106ABCE
102
{ACAD_REACTORS
330
106ABC0
102
}
102
{ACAD_XDICTIONARY
360
106AD13
102
}
330
106ABC0
100
AcDbVisualStyle
  2
Linepattern
 70
    14
 71
     2
 72
     2
 73
     0
 90
        0
 40
0.6
 41
30.0
 62
     5
 63
     7
 74
     1
 91
        4
 64
     7
 65
   257
 75
     7
175
     7
 42
1.0
 92
        8
 66
     7
 43
1.0
 76
     1
 77
     6
 78
     2
 67
     7
 79
     5
170
     0
171
     0
290
     0
174
     0
 93
        1
 44
0.0
173
     0
291
     1
 45
0.0
1001
ACAD
1000
AcDbSavedByObjectVersion
1070
     0
  0
VISUALSTYLE
  5
106ABD2
102
{ACAD_REACTORS
330
106ABC0
102
}
102
{ACAD_XDICTIONARY
360
106AD15
102
}
330
106ABC0
100
AcDbVisualStyle
  2
OverhangOff
 70
    21
 71
     2
 72
     2
 73
     0
 90
        0
 40
0.6
 41
30.0
 62
     5
 63
     7
 74
     1
 91
        4
 64
     7
 65
   257
 75
     1
175
     1
 42
1.0
 92
        9
 66
     7
 43
1.0
 76
     1
 77
     6
 78
     2
 67
     7
 79
     5
170
     0
171
     0
290
     0
174
     0
 93
        1
 44
0.0
173
     0
291
     1
 45
0.0
1001
ACAD
1000
AcDbSavedByObjectVersion
1070
     0
  0
VISUALSTYLE
  5
106ABC9
102
{ACAD_REACTORS
330
106ABC0
102
}
102
{ACAD_XDICTIONARY
360
106AD17
102
}
330
106ABC0
100
AcDbVisualStyle
  2
Realistic
 70
     8
 71
     2
 72
     3
 73
     0
 90
        2
 40
0.6
 41
30.0
 62
     5
 63
     7
 74
     0
 91
        0
 64
     7
 65
   257
 75
     1
175
     1
 42
1.0
 92
        8
 66
   257
 43
1.0
 76
     1
 77
     6
 78
     2
 67
     7
 79
     3
170
     0
171
     0
290
     0
174
     0
 93
       13
 44
0.0
173
     0
291
     0
 45
0.0
1001
ACAD
1000
AcDbSavedByObjectVersion
1070
     0
  0
VISUALSTYLE
  5
106ABD8
102
{ACAD_REACTORS
330
106ABC0
102
}
102
{ACAD_XDICTIONARY
360
106AD19
102
}
330
106ABC0
100
AcDbVisualStyle
  2
Shaded
 70
    27
 71
     2
 72
     2
 73
     1
 90
        2
 40
0.6
 41
30.0
 62
     5
 63
     7
 74
     0
 91
        4
 64
     7
 65
   257
 75
     1
175
     1
 42
1.0
 92
        8
 66
   257
 43
1.0
 76
     1
 77
     6
 78
     2
 67
     8
 79
     3
170
     0
171
     0
290
     0
174
     0
 93
        5
 44
0.0
173
     0
291
     0
 45
0.0
1001
ACAD
1000
AcDbSavedByObjectVersion
1070
     0
  0
VISUALSTYLE
  5
106ABD7
102
{ACAD_REACTORS
330
106ABC0
102
}
102
{ACAD_XDICTIONARY
360
106AD1B
102
}
330
106ABC0
100
AcDbVisualStyle
  2
Shaded with edges
 70
    26
 71
     2
 72
     2
 73
     1
 90
        2
 40
0.6
 41
30.0
 62
     5
 63
     7
 74
     1
 91
       10
 64
     7
 65
   257
 75
     2
175
     1
 42
1.0
 92
        8
 66
   257
 43
1.0
 76
     1
 77
     6
 78
     2
 67
     7
 79
     3
170
     0
171
     0
290
     0
174
     0
 93
        5
 44
0.0
173
     0
291
     0
 45
0.0
1001
ACAD
1000
AcDbSavedByObjectVersion
1070
     0
  0
VISUALSTYLE
  5
106ABD4
102
{ACAD_REACTORS
330
106ABC0
102
}
102
{ACAD_XDICTIONARY
360
106AD1D
102
}
330
106ABC0
100
AcDbVisualStyle
  2
Shades of Gray
 70
    23
 71
     2
 72
     2
 73
     3
 90
        0
 40
0.6
 41
30.0
 62
     5
 63
     7
 74
     2
 91
        2
 64
     7
 65
     7
 75
     1
175
     1
 42
40.0
 92
        8
 66
     7
 43
1.0
 76
     1
 77
     6
 78
     2
 67
     7
 79
     3
170
     0
171
     0
290
     0
174
     0
 93
        1
 44
0.0
173
     0
291
     0
 45
0.0
1001
ACAD
1000
AcDbSavedByObjectVersion
1070
     0
  0
VISUALSTYLE
  5
106ABD5
102
{ACAD_REACTORS
330
106ABC0
102
}
102
{ACAD_XDICTIONARY
360
106AD1F
102
}
330
106ABC0
100
AcDbVisualStyle
  2
Sketchy
 70
    24
 71
     1
 72
     2
 73
     2
 90
        0
 40
0.6
 41
30.0
 62
     5
 63
     7
 74
     2
 91
        2
 64
     7
 65
     7
 75
     1
175
     1
 42
40.0
 92
       11
 66
     7
 43
1.0
 76
     1
 77
     6
 78
     2
 67
     7
 79
     6
170
     0
171
     0
290
     0
174
     0
 93
        1
 44
0.0
173
     0
291
     0
 45
0.0
1001
ACAD
1000
AcDbSavedByObjectVersion
1070
     0
  0
VISUALSTYLE
  5
106ABCD
102
{ACAD_REACTORS
330
106ABC0
102
}
102
{ACAD_XDICTIONARY
360
106AD21
102
}
330
106ABC0
100
AcDbVisualStyle
  2
Thicken
 70
    13
 71
     2
 72
     2
 73
     0
 90
        0
 40
0.6
 41
30.0
 62
     5
 63
     7
 74
     1
 91
        4
 64
     7
 65
   257
 75
     1
175
     1
 42
1.0
 92
       12
 66
     7
 43
1.0
 76
     1
 77
     6
 78
     2
 67
     7
 79
     5
170
     0
171
     0
290
     0
174
     0
 93
        1
 44
0.0
173
     0
291
     1
 45
0.0
1001
ACAD
1000
AcDbSavedByObjectVersion
1070
     0
  0
VISUALSTYLE
  5
106ABC6
102
{ACAD_REACTORS
330
106ABC0
102
}
102
{ACAD_XDICTIONARY
360
106AD23
102
}
330
106ABC0
100
AcDbVisualStyle
  2
Wireframe
 70
     5
 71
     0
 72
     2
 73
     0
 90
        0
 40
0.6
 41
30.0
 62
     5
 63
     7
 74
     1
 91
        4
 64
     7
 65
   257
 75
     1
175
     1
 42
1.0
 92
        0
 66
   257
 43
1.0
 76
     1
 77
     6
 78
     2
 67
     7
 79
     3
170
     0
171
     0
290
     0
174
     0
 93
        1
 44
0.0
173
     0
291
     0
 45
0.0
1001
ACAD
1000
AcDbSavedByObjectVersion
1070
     0
  0
VISUALSTYLE
  5
106ABD6
102
{ACAD_REACTORS
330
106ABC0
102
}
102
{ACAD_XDICTIONARY
360
106AD25
102
}
330
106ABC0
100
AcDbVisualStyle
  2
X-Ray
 70
    25
 71
     2
 72
     2
 73
     1
 90
        1
 40
0.5
 41
30.0
 62
     5
 63
     7
 74
     1
 91
        0
 64
     7
 65
   257
 75
     1
175
     1
 42
1.0
 92
        8
 66
     7
 43
1.0
 76
     1
 77
     6
 78
     2
 67
     7
 79
     3
170
     0
171
     0
290
     0
174
     0
 93
       13
 44
0.0
173
     0
291
     0
 45
0.0
1001
ACAD
1000
AcDbSavedByObjectVersion
1070
     0
  0
DICTIONARYVAR
  5
106ACEE
102
{ACAD_REACTORS
330
106ACA1
102
}
330
106ACA1
100
DictionaryVariables
280
     0
  1
1:1
  0
DICTIONARYVAR
  5
106ACA3
102
{ACAD_REACTORS
330
106ACA1
102
}
330
106ACA1
100
DictionaryVariables
280
     0
  1
Standard
  0
DICTIONARYVAR
  5
106ACA2
102
{ACAD_REACTORS
330
106ACA1
102
}
330
106ACA1
100
DictionaryVariables
280
     0
  1
Standard
  0
DICTIONARYVAR
  5
106ACA6
102
{ACAD_REACTORS
330
106ACA1
102
}
330
106ACA1
100
DictionaryVariables
280
     0
  1
2
  0
DICTIONARYVAR
  5
106ACA7
102
{ACAD_REACTORS
330
106ACA1
102
}
330
106ACA1
100
DictionaryVariables
280
     0
  1
1
  0
DICTIONARYVAR
  5
106ACAE
102
{ACAD_REACTORS
330
106ACA1
102
}
330
106ACA1
100
DictionaryVariables
280
     0
  1
1
  0
DICTIONARY
  5
106ACEF
330
106ABBE
100
AcDbDictionary
280
     1
281
     1
  3
ACAD_XREC_ROUNDTRIP
360
106ACF0
  0
DICTIONARY
  5
106ACF1
330
106ABBD
100
AcDbDictionary
280
     1
281
     1
  3
ACAD_XREC_ROUNDTRIP
360
106ACF2
  0
DICTIONARY
  5
106ACF3
330
106ABBF
100
AcDbDictionary
280
     1
281
     1
  3
ACAD_XREC_ROUNDTRIP
360
106ACF4
  0
DICTIONARY
  5
106ACF5
330
106ABDC
100
AcDbDictionary
280
     1
281
     1
  3
ACAD_XREC_ROUNDTRIP
360
106ACF6
  0
DICTIONARY
  5
106ACF7
330
106ABC5
100
AcDbDictionary
280
     1
281
     1
  3
ACAD_XREC_ROUNDTRIP
360
106ACF8
  0
DICTIONARY
  5
106ACF9
330
106ABC8
100
AcDbDictionary
280
     1
281
     1
  3
ACAD_XREC_ROUNDTRIP
360
106ACFA
  0
DICTIONARY
  5
106ACFB
330
106ABCC
100
AcDbDictionary
280
     1
281
     1
  3
ACAD_XREC_ROUNDTRIP
360
106ACFC
  0
DICTIONARY
  5
106ACFD
330
106ABD0
100
AcDbDictionary
280
     1
281
     1
  3
ACAD_XREC_ROUNDTRIP
360
106ACFE
  0
DICTIONARY
  5
106ACFF
330
106ABCA
100
AcDbDictionary
280
     1
281
     1
  3
ACAD_XREC_ROUNDTRIP
360
106AD00
  0
DICTIONARY
  5
106AD01
330
106ABCB
100
AcDbDictionary
280
     1
281
     1
  3
ACAD_XREC_ROUNDTRIP
360
106AD02
  0
DICTIONARY
  5
106AD03
330
106ABD3
100
AcDbDictionary
280
     1
281
     1
  3
ACAD_XREC_ROUNDTRIP
360
106AD04
  0
DICTIONARY
  5
106AD05
330
106ABCF
100
AcDbDictionary
280
     1
281
     1
  3
ACAD_XREC_ROUNDTRIP
360
106AD06
  0
DICTIONARY
  5
106AD07
330
106ABC1
100
AcDbDictionary
280
     1
281
     1
  3
ACAD_XREC_ROUNDTRIP
360
106AD08
  0
DICTIONARY
  5
106AD09
330
106ABC2
100
AcDbDictionary
280
     1
281
     1
  3
ACAD_XREC_ROUNDTRIP
360
106AD0A
  0
DICTIONARY
  5
106AD0B
330
106ABC3
100
AcDbDictionary
280
     1
281
     1
  3
ACAD_XREC_ROUNDTRIP
360
106AD0C
  0
DICTIONARY
  5
106AD0D
330
106ABC4
100
AcDbDictionary
280
     1
281
     1
  3
ACAD_XREC_ROUNDTRIP
360
106AD0E
  0
DICTIONARY
  5
106AD0F
330
106ABC7
100
AcDbDictionary
280
     1
281
     1
  3
ACAD_XREC_ROUNDTRIP
360
106AD10
  0
DICTIONARY
  5
106AD11
330
106ABD1
100
AcDbDictionary
280
     1
281
     1
  3
ACAD_XREC_ROUNDTRIP
360
106AD12
  0
DICTIONARY
  5
106AD13
330
106ABCE
100
AcDbDictionary
280
     1
281
     1
  3
ACAD_XREC_ROUNDTRIP
360
106AD14
  0
DICTIONARY
  5
106AD15
330
106ABD2
100
AcDbDictionary
280
     1
281
     1
  3
ACAD_XREC_ROUNDTRIP
360
106AD16
  0
DICTIONARY
  5
106AD17
330
106ABC9
100
AcDbDictionary
280
     1
281
     1
  3
ACAD_XREC_ROUNDTRIP
360
106AD18
  0
DICTIONARY
  5
106AD19
330
106ABD8
100
AcDbDictionary
280
     1
281
     1
  3
ACAD_XREC_ROUNDTRIP
360
106AD1A
  0
DICTIONARY
  5
106AD1B
330
106ABD7
100
AcDbDictionary
280
     1
281
     1
  3
ACAD_XREC_ROUNDTRIP
360
106AD1C
  0
DICTIONARY
  5
106AD1D
330
106ABD4
100
AcDbDictionary
280
     1
281
     1
  3
ACAD_XREC_ROUNDTRIP
360
106AD1E
  0
DICTIONARY
  5
106AD1F
330
106ABD5
100
AcDbDictionary
280
     1
281
     1
  3
ACAD_XREC_ROUNDTRIP
360
106AD20
  0
DICTIONARY
  5
106AD21
330
106ABCD
100
AcDbDictionary
280
     1
281
     1
  3
ACAD_XREC_ROUNDTRIP
360
106AD22
  0
DICTIONARY
  5
106AD23
330
106ABC6
100
AcDbDictionary
280
     1
281
     1
  3
ACAD_XREC_ROUNDTRIP
360
106AD24
  0
DICTIONARY
  5
106AD25
330
106ABD6
100
AcDbDictionary
280
     1
281
     1
  3
ACAD_XREC_ROUNDTRIP
360
106AD26
  0
XRECORD
  5
106ACF0
102
{ACAD_REACTORS
330
106ACEF
102
}
330
106ACEF
100
AcDbXrecord
280
     1
102
MATERIAL
148
0.0
149
0.0
149
0.0
 93
        0
 94
      127
282
     0
 72
     1
 77
     1
171
     1
175
     1
179
     1
273
     0
  0
XRECORD
  5
106ACF2
102
{ACAD_REACTORS
330
106ACF1
102
}
330
106ACF1
100
AcDbXrecord
280
     1
102
MATERIAL
148
0.0
149
0.0
149
0.0
 93
        0
 94
      127
282
     0
 72
     1
 77
     1
171
     1
175
     1
179
     1
273
     0
  0
XRECORD
  5
106ACF4
102
{ACAD_REACTORS
330
106ACF3
102
}
330
106ACF3
100
AcDbXrecord
280
     1
102
MATERIAL
148
0.0
149
0.0
149
0.0
 93
        0
 94
      127
282
     0
 72
     1
 77
     1
171
     1
175
     1
179
     1
273
     0
  0
XRECORD
  5
106ACF6
102
{ACAD_REACTORS
330
106ACF5
102
}
330
106ACF5
100
AcDbXrecord
280
     1
102
ACAD_ROUNDTRIP_2010_MLEADER_STYLE
  0
XRECORD
  5
106ACF8
102
{ACAD_REACTORS
330
106ACF7
102
}
330
106ACF7
100
AcDbXrecord
280
     1
102
RTVSPropertyOp0
 70
     1
102
RTVSPropertyOp1
 70
     1
102
RTVSPropertyOp2
 70
     1
102
RTVSPropertyOp3
 70
     1
102
RTVSPropertyOp4
 70
     1
102
RTVSPropertyOp5
 70
     1
102
RTVSPropertyOp6
 70
     1
102
RTVSPropertyOp7
 70
     1
102
RTVSPropertyOp8
 70
     1
102
RTVSPropertyOp9
 70
     1
102
RTVSPropertyOp10
 70
     1
102
RTVSPropertyOp11
 70
     1
102
RTVSPropertyOp12
 70
     1
102
RTVSPropertyOp13
 70
     1
102
RTVSPropertyOp14
 70
     1
102
RTVSPropertyOp15
 70
     1
102
RTVSPropertyOp16
 70
     1
102
RTVSPropertyOp17
 70
     1
102
RTVSPropertyOp18
 70
     1
102
RTVSPropertyOp19
 70
     1
102
RTVSPropertyOp20
 70
     1
102
RTVSPropertyOp21
 70
     1
102
RTVSPropertyOp22
 70
     1
102
RTVSPropertyOp23
 70
     1
102
RTVSPropertyOp24
 70
     1
102
RTVSPropertyOp25
 70
     1
102
RTVSPropertyOp26
 70
     1
102
RTVSPropertyOp27
 70
     1
102
RTVSPropertyOp28
 70
     1
102
RTVSPropertyOp29
 70
     1
102
RTVSPropertyOp30
 70
     1
102
RTVSPropertyOp31
 70
     1
102
RTVSPropertyOp32
 70
     1
102
RTVSPropertyOp33
 70
     1
102
RTVSPropertyOp34
 70
     1
102
RTVSPropertyOp35
 70
     1
102
RTVSPropertyOp36
 70
     1
102
RTVSPropertyOp37
 70
     1
102
RTVSPropertyOp38
 70
     1
102
RTVSPropertyOp39
 70
     1
102
RTVSPropertyOp40
 70
     1
102
RTVSPropertyOp41
 70
     1
102
RTVSPropertyOp42
 70
     1
102
RTVSPropertyOp43
 70
     1
102
RTVSPropertyOp44
 70
     1
102
RTVSPropertyOp45
 70
     1
102
RTVSPropertyOp46
 70
     1
102
RTVSPropertyOp47
 70
     1
102
RTVSPropertyOp48
 70
     1
102
RTVSPropertyOp49
 70
     1
102
RTVSPropertyOp50
 70
     1
102
RTVSPropertyOp51
 70
     0
102
RTVSPropertyOp52
 70
     0
102
RTVSPropertyOp53
 70
     1
102
RTVSPropertyOp54
 70
     1
102
RTVSPropertyOp55
 70
     1
102
RTVSPropertyOp56
 70
     1
102
RTVSPropertyOp57
 70
     1
102
RTVSPost2010Prop28
280
     1
102
RTVSPost2010PropOp28
 70
     1
102
RTVSPost2010Prop29
280
     1
102
RTVSPost2010PropOp29
 70
     1
102
RTVSPost2010Prop30
280
     0
102
RTVSPost2010PropOp30
 70
     1
102
RTVSPost2010Prop31
280
     0
102
RTVSPost2010PropOp31
 70
     1
102
RTVSPost2010Prop32
280
     0
102
RTVSPost2010PropOp32
 70
     1
102
RTVSPost2010Prop33
280
     0
102
RTVSPost2010PropOp33
 70
     1
102
RTVSPost2010Prop34
280
     0
102
RTVSPost2010PropOp34
 70
     1
102
RTVSPost2010Prop35
280
     0
102
RTVSPost2010PropOp35
 70
     1
102
RTVSPost2010Prop36
280
     0
102
RTVSPost2010PropOp36
 70
     1
102
RTVSPost2010Prop37
 90
       50
102
RTVSPost2010PropOp37
 70
     1
102
RTVSPost2010Prop38
140
0.0
102
RTVSPost2010PropOp38
 70
     1
102
RTVSPost2010Prop39
140
1.0
102
RTVSPost2010PropOp39
 70
     1
102
RTVSPost2010Prop40
 90
        0
102
RTVSPost2010PropOp40
 70
     1
102
RTVSPost2010Prop41ColorIndex
 90
       18
102
RTVSPost2010Prop41ColorRGB
 90
        0
102
RTVSPost2010PropOp41
 70
     1
102
RTVSPost2010Prop42
 90
       50
102
RTVSPost2010PropOp42
 70
     1
102
RTVSPost2010Prop43
 90
        3
102
RTVSPost2010PropOp43
 70
     1
102
RTVSPost2010Prop44ColorIndex
 90
        5
102
RTVSPost2010Prop44ColorRGB
 90
      255
102
RTVSPost2010PropOp44
 70
     1
102
RTVSPost2010Prop45
280
     0
102
RTVSPost2010PropOp45
 70
     1
102
RTVSPost2010Prop46
 90
       50
102
RTVSPost2010PropOp46
 70
     1
102
RTVSPost2010Prop47
 90
       50
102
RTVSPost2010PropOp47
 70
     1
102
RTVSPost2010Prop48
 90
       50
102
RTVSPost2010PropOp48
 70
     1
102
RTVSPost2010Prop49
280
     0
102
RTVSPost2010PropOp49
 70
     1
102
RTVSPost2010Prop50
 90
       50
102
RTVSPost2010PropOp50
 70
     1
102
RTVSPost2010Prop51ColorIndex
 90
      256
102
RTVSPost2010Prop51ColorRGB
 90
-16777216
102
RTVSPost2010PropOp51
 70
     0
102
RTVSPost2010Prop52
140
1.0
102
RTVSPost2010PropOp52
 70
     0
102
RTVSPost2010Prop53
 90
        2
102
RTVSPost2010PropOp53
 70
     1
102
RTVSPost2010Prop54
  1
strokes_ogs.tif
102
RTVSPost2010PropOp54
 70
     1
102
RTVSPost2010Prop55
280
     0
102
RTVSPost2010PropOp55
 70
     1
102
RTVSPost2010Prop56
140
1.0
102
RTVSPost2010PropOp56
 70
     1
102
RTVSPost2010Prop57
140
1.0
102
RTVSPost2010PropOp57
 70
     1
  0
XRECORD
  5
106ACFA
102
{ACAD_REACTORS
330
106ACF9
102
}
330
106ACF9
100
AcDbXrecord
280
     1
102
RTVSPropertyOp0
 70
     1
102
RTVSPropertyOp1
 70
     1
102
RTVSPropertyOp2
 70
     1
102
RTVSPropertyOp3
 70
     1
102
RTVSPropertyOp4
 70
     1
102
RTVSPropertyOp5
 70
     1
102
RTVSPropertyOp6
 70
     1
102
RTVSPropertyOp7
 70
     1
102
RTVSPropertyOp8
 70
     1
102
RTVSPropertyOp9
 70
     1
102
RTVSPropertyOp10
 70
     1
102
RTVSPropertyOp11
 70
     1
102
RTVSPropertyOp12
 70
     1
102
RTVSPropertyOp13
 70
     1
102
RTVSPropertyOp14
 70
     1
102
RTVSPropertyOp15
 70
     1
102
RTVSPropertyOp16
 70
     1
102
RTVSPropertyOp17
 70
     1
102
RTVSPropertyOp18
 70
     1
102
RTVSPropertyOp19
 70
     1
102
RTVSPropertyOp20
 70
     1
102
RTVSPropertyOp21
 70
     1
102
RTVSPropertyOp22
 70
     1
102
RTVSPropertyOp23
 70
     1
102
RTVSPropertyOp24
 70
     1
102
RTVSPropertyOp25
 70
     1
102
RTVSPropertyOp26
 70
     1
102
RTVSPropertyOp27
 70
     1
102
RTVSPropertyOp28
 70
     1
102
RTVSPropertyOp29
 70
     1
102
RTVSPropertyOp30
 70
     1
102
RTVSPropertyOp31
 70
     1
102
RTVSPropertyOp32
 70
     1
102
RTVSPropertyOp33
 70
     1
102
RTVSPropertyOp34
 70
     1
102
RTVSPropertyOp35
 70
     1
102
RTVSPropertyOp36
 70
     1
102
RTVSPropertyOp37
 70
     1
102
RTVSPropertyOp38
 70
     1
102
RTVSPropertyOp39
 70
     1
102
RTVSPropertyOp40
 70
     1
102
RTVSPropertyOp41
 70
     1
102
RTVSPropertyOp42
 70
     1
102
RTVSPropertyOp43
 70
     1
102
RTVSPropertyOp44
 70
     1
102
RTVSPropertyOp45
 70
     1
102
RTVSPropertyOp46
 70
     1
102
RTVSPropertyOp47
 70
     1
102
RTVSPropertyOp48
 70
     1
102
RTVSPropertyOp49
 70
     1
102
RTVSPropertyOp50
 70
     1
102
RTVSPropertyOp51
 70
     0
102
RTVSPropertyOp52
 70
     0
102
RTVSPropertyOp53
 70
     1
102
RTVSPropertyOp54
 70
     1
102
RTVSPropertyOp55
 70
     1
102
RTVSPropertyOp56
 70
     1
102
RTVSPropertyOp57
 70
     1
102
RTVSPost2010Prop28
280
     0
102
RTVSPost2010PropOp28
 70
     1
102
RTVSPost2010Prop29
280
     1
102
RTVSPost2010PropOp29
 70
     1
102
RTVSPost2010Prop30
280
     1
102
RTVSPost2010PropOp30
 70
     1
102
RTVSPost2010Prop31
280
     0
102
RTVSPost2010PropOp31
 70
     1
102
RTVSPost2010Prop32
280
     0
102
RTVSPost2010PropOp32
 70
     1
102
RTVSPost2010Prop33
280
     0
102
RTVSPost2010PropOp33
 70
     1
102
RTVSPost2010Prop34
280
     0
102
RTVSPost2010PropOp34
 70
     1
102
RTVSPost2010Prop35
280
     0
102
RTVSPost2010PropOp35
 70
     1
102
RTVSPost2010Prop36
280
     0
102
RTVSPost2010PropOp36
 70
     1
102
RTVSPost2010Prop37
 90
       50
102
RTVSPost2010PropOp37
 70
     1
102
RTVSPost2010Prop38
140
0.0
102
RTVSPost2010PropOp38
 70
     1
102
RTVSPost2010Prop39
140
1.0
102
RTVSPost2010PropOp39
 70
     1
102
RTVSPost2010Prop40
 90
        0
102
RTVSPost2010PropOp40
 70
     1
102
RTVSPost2010Prop41ColorIndex
 90
       18
102
RTVSPost2010Prop41ColorRGB
 90
        0
102
RTVSPost2010PropOp41
 70
     1
102
RTVSPost2010Prop42
 90
       50
102
RTVSPost2010PropOp42
 70
     1
102
RTVSPost2010Prop43
 90
        3
102
RTVSPost2010PropOp43
 70
     1
102
RTVSPost2010Prop44ColorIndex
 90
        5
102
RTVSPost2010Prop44ColorRGB
 90
      255
102
RTVSPost2010PropOp44
 70
     1
102
RTVSPost2010Prop45
280
     0
102
RTVSPost2010PropOp45
 70
     1
102
RTVSPost2010Prop46
 90
       50
102
RTVSPost2010PropOp46
 70
     1
102
RTVSPost2010Prop47
 90
       50
102
RTVSPost2010PropOp47
 70
     1
102
RTVSPost2010Prop48
 90
       50
102
RTVSPost2010PropOp48
 70
     1
102
RTVSPost2010Prop49
280
     0
102
RTVSPost2010PropOp49
 70
     1
102
RTVSPost2010Prop50
 90
       50
102
RTVSPost2010PropOp50
 70
     1
102
RTVSPost2010Prop51ColorIndex
 90
      256
102
RTVSPost2010Prop51ColorRGB
 90
-16777216
102
RTVSPost2010PropOp51
 70
     0
102
RTVSPost2010Prop52
140
1.0
102
RTVSPost2010PropOp52
 70
     0
102
RTVSPost2010Prop53
 90
        2
102
RTVSPost2010PropOp53
 70
     1
102
RTVSPost2010Prop54
  1
strokes_ogs.tif
102
RTVSPost2010PropOp54
 70
     1
102
RTVSPost2010Prop55
280
     0
102
RTVSPost2010PropOp55
 70
     1
102
RTVSPost2010Prop56
140
1.0
102
RTVSPost2010PropOp56
 70
     1
102
RTVSPost2010Prop57
140
1.0
102
RTVSPost2010PropOp57
 70
     1
  0
XRECORD
  5
106ACFC
102
{ACAD_REACTORS
330
106ACFB
102
}
330
106ACFB
100
AcDbXrecord
280
     1
102
RTVSPropertyOp0
 70
     1
102
RTVSPropertyOp1
 70
     1
102
RTVSPropertyOp2
 70
     1
102
RTVSPropertyOp3
 70
     1
102
RTVSPropertyOp4
 70
     1
102
RTVSPropertyOp5
 70
     1
102
RTVSPropertyOp6
 70
     1
102
RTVSPropertyOp7
 70
     1
102
RTVSPropertyOp8
 70
     1
102
RTVSPropertyOp9
 70
     1
102
RTVSPropertyOp10
 70
     1
102
RTVSPropertyOp11
 70
     1
102
RTVSPropertyOp12
 70
     1
102
RTVSPropertyOp13
 70
     1
102
RTVSPropertyOp14
 70
     1
102
RTVSPropertyOp15
 70
     1
102
RTVSPropertyOp16
 70
     1
102
RTVSPropertyOp17
 70
     1
102
RTVSPropertyOp18
 70
     1
102
RTVSPropertyOp19
 70
     1
102
RTVSPropertyOp20
 70
     1
102
RTVSPropertyOp21
 70
     1
102
RTVSPropertyOp22
 70
     1
102
RTVSPropertyOp23
 70
     1
102
RTVSPropertyOp24
 70
     1
102
RTVSPropertyOp25
 70
     1
102
RTVSPropertyOp26
 70
     1
102
RTVSPropertyOp27
 70
     1
102
RTVSPropertyOp28
 70
     1
102
RTVSPropertyOp29
 70
     1
102
RTVSPropertyOp30
 70
     1
102
RTVSPropertyOp31
 70
     1
102
RTVSPropertyOp32
 70
     1
102
RTVSPropertyOp33
 70
     1
102
RTVSPropertyOp34
 70
     1
102
RTVSPropertyOp35
 70
     1
102
RTVSPropertyOp36
 70
     1
102
RTVSPropertyOp37
 70
     1
102
RTVSPropertyOp38
 70
     1
102
RTVSPropertyOp39
 70
     1
102
RTVSPropertyOp40
 70
     1
102
RTVSPropertyOp41
 70
     1
102
RTVSPropertyOp42
 70
     1
102
RTVSPropertyOp43
 70
     1
102
RTVSPropertyOp44
 70
     1
102
RTVSPropertyOp45
 70
     1
102
RTVSPropertyOp46
 70
     1
102
RTVSPropertyOp47
 70
     1
102
RTVSPropertyOp48
 70
     1
102
RTVSPropertyOp49
 70
     1
102
RTVSPropertyOp50
 70
     1
102
RTVSPropertyOp51
 70
     0
102
RTVSPropertyOp52
 70
     0
102
RTVSPropertyOp53
 70
     1
102
RTVSPropertyOp54
 70
     1
102
RTVSPropertyOp55
 70
     1
102
RTVSPropertyOp56
 70
     1
102
RTVSPropertyOp57
 70
     1
102
RTVSPost2010Prop28
280
     0
102
RTVSPost2010PropOp28
 70
     1
102
RTVSPost2010Prop29
280
     1
102
RTVSPost2010PropOp29
 70
     1
102
RTVSPost2010Prop30
280
     1
102
RTVSPost2010PropOp30
 70
     1
102
RTVSPost2010Prop31
280
     0
102
RTVSPost2010PropOp31
 70
     1
102
RTVSPost2010Prop32
280
     0
102
RTVSPost2010PropOp32
 70
     1
102
RTVSPost2010Prop33
280
     0
102
RTVSPost2010PropOp33
 70
     1
102
RTVSPost2010Prop34
280
     0
102
RTVSPost2010PropOp34
 70
     1
102
RTVSPost2010Prop35
280
     0
102
RTVSPost2010PropOp35
 70
     1
102
RTVSPost2010Prop36
280
     0
102
RTVSPost2010PropOp36
 70
     1
102
RTVSPost2010Prop37
 90
       50
102
RTVSPost2010PropOp37
 70
     1
102
RTVSPost2010Prop38
140
0.0
102
RTVSPost2010PropOp38
 70
     1
102
RTVSPost2010Prop39
140
1.0
102
RTVSPost2010PropOp39
 70
     1
102
RTVSPost2010Prop40
 90
        0
102
RTVSPost2010PropOp40
 70
     1
102
RTVSPost2010Prop41ColorIndex
 90
       18
102
RTVSPost2010Prop41ColorRGB
 90
        0
102
RTVSPost2010PropOp41
 70
     1
102
RTVSPost2010Prop42
 90
       50
102
RTVSPost2010PropOp42
 70
     1
102
RTVSPost2010Prop43
 90
        3
102
RTVSPost2010PropOp43
 70
     1
102
RTVSPost2010Prop44ColorIndex
 90
        5
102
RTVSPost2010Prop44ColorRGB
 90
      255
102
RTVSPost2010PropOp44
 70
     1
102
RTVSPost2010Prop45
280
     0
102
RTVSPost2010PropOp45
 70
     1
102
RTVSPost2010Prop46
 90
       50
102
RTVSPost2010PropOp46
 70
     1
102
RTVSPost2010Prop47
 90
       50
102
RTVSPost2010PropOp47
 70
     1
102
RTVSPost2010Prop48
 90
       50
102
RTVSPost2010PropOp48
 70
     1
102
RTVSPost2010Prop49
280
     0
102
RTVSPost2010PropOp49
 70
     1
102
RTVSPost2010Prop50
 90
       50
102
RTVSPost2010PropOp50
 70
     1
102
RTVSPost2010Prop51ColorIndex
 90
      256
102
RTVSPost2010Prop51ColorRGB
 90
-16777216
102
RTVSPost2010PropOp51
 70
     0
102
RTVSPost2010Prop52
140
1.0
102
RTVSPost2010PropOp52
 70
     0
102
RTVSPost2010Prop53
 90
        2
102
RTVSPost2010PropOp53
 70
     1
102
RTVSPost2010Prop54
  1
strokes_ogs.tif
102
RTVSPost2010PropOp54
 70
     1
102
RTVSPost2010Prop55
280
     0
102
RTVSPost2010PropOp55
 70
     1
102
RTVSPost2010Prop56
140
1.0
102
RTVSPost2010PropOp56
 70
     1
102
RTVSPost2010Prop57
140
1.0
102
RTVSPost2010PropOp57
 70
     1
  0
XRECORD
  5
106ACFE
102
{ACAD_REACTORS
330
106ACFD
102
}
330
106ACFD
100
AcDbXrecord
280
     1
102
RTVSPropertyOp0
 70
     1
102
RTVSPropertyOp1
 70
     1
102
RTVSPropertyOp2
 70
     1
102
RTVSPropertyOp3
 70
     1
102
RTVSPropertyOp4
 70
     1
102
RTVSPropertyOp5
 70
     1
102
RTVSPropertyOp6
 70
     1
102
RTVSPropertyOp7
 70
     1
102
RTVSPropertyOp8
 70
     1
102
RTVSPropertyOp9
 70
     1
102
RTVSPropertyOp10
 70
     1
102
RTVSPropertyOp11
 70
     1
102
RTVSPropertyOp12
 70
     1
102
RTVSPropertyOp13
 70
     1
102
RTVSPropertyOp14
 70
     1
102
RTVSPropertyOp15
 70
     1
102
RTVSPropertyOp16
 70
     1
102
RTVSPropertyOp17
 70
     1
102
RTVSPropertyOp18
 70
     1
102
RTVSPropertyOp19
 70
     1
102
RTVSPropertyOp20
 70
     1
102
RTVSPropertyOp21
 70
     1
102
RTVSPropertyOp22
 70
     1
102
RTVSPropertyOp23
 70
     1
102
RTVSPropertyOp24
 70
     1
102
RTVSPropertyOp25
 70
     1
102
RTVSPropertyOp26
 70
     1
102
RTVSPropertyOp27
 70
     1
102
RTVSPropertyOp28
 70
     1
102
RTVSPropertyOp29
 70
     1
102
RTVSPropertyOp30
 70
     1
102
RTVSPropertyOp31
 70
     1
102
RTVSPropertyOp32
 70
     1
102
RTVSPropertyOp33
 70
     1
102
RTVSPropertyOp34
 70
     1
102
RTVSPropertyOp35
 70
     1
102
RTVSPropertyOp36
 70
     1
102
RTVSPropertyOp37
 70
     1
102
RTVSPropertyOp38
 70
     1
102
RTVSPropertyOp39
 70
     1
102
RTVSPropertyOp40
 70
     1
102
RTVSPropertyOp41
 70
     1
102
RTVSPropertyOp42
 70
     1
102
RTVSPropertyOp43
 70
     1
102
RTVSPropertyOp44
 70
     1
102
RTVSPropertyOp45
 70
     1
102
RTVSPropertyOp46
 70
     1
102
RTVSPropertyOp47
 70
     1
102
RTVSPropertyOp48
 70
     1
102
RTVSPropertyOp49
 70
     1
102
RTVSPropertyOp50
 70
     1
102
RTVSPropertyOp51
 70
     0
102
RTVSPropertyOp52
 70
     0
102
RTVSPropertyOp53
 70
     1
102
RTVSPropertyOp54
 70
     1
102
RTVSPropertyOp55
 70
     1
102
RTVSPropertyOp56
 70
     1
102
RTVSPropertyOp57
 70
     1
102
RTVSPost2010Prop28
280
     0
102
RTVSPost2010PropOp28
 70
     1
102
RTVSPost2010Prop29
280
     1
102
RTVSPost2010PropOp29
 70
     1
102
RTVSPost2010Prop30
280
     1
102
RTVSPost2010PropOp30
 70
     1
102
RTVSPost2010Prop31
280
     0
102
RTVSPost2010PropOp31
 70
     1
102
RTVSPost2010Prop32
280
     0
102
RTVSPost2010PropOp32
 70
     1
102
RTVSPost2010Prop33
280
     0
102
RTVSPost2010PropOp33
 70
     1
102
RTVSPost2010Prop34
280
     0
102
RTVSPost2010PropOp34
 70
     1
102
RTVSPost2010Prop35
280
     0
102
RTVSPost2010PropOp35
 70
     1
102
RTVSPost2010Prop36
280
     0
102
RTVSPost2010PropOp36
 70
     1
102
RTVSPost2010Prop37
 90
       50
102
RTVSPost2010PropOp37
 70
     1
102
RTVSPost2010Prop38
140
0.0
102
RTVSPost2010PropOp38
 70
     1
102
RTVSPost2010Prop39
140
1.0
102
RTVSPost2010PropOp39
 70
     1
102
RTVSPost2010Prop40
 90
        0
102
RTVSPost2010PropOp40
 70
     1
102
RTVSPost2010Prop41ColorIndex
 90
       18
102
RTVSPost2010Prop41ColorRGB
 90
        0
102
RTVSPost2010PropOp41
 70
     1
102
RTVSPost2010Prop42
 90
       50
102
RTVSPost2010PropOp42
 70
     1
102
RTVSPost2010Prop43
 90
        3
102
RTVSPost2010PropOp43
 70
     1
102
RTVSPost2010Prop44ColorIndex
 90
        5
102
RTVSPost2010Prop44ColorRGB
 90
      255
102
RTVSPost2010PropOp44
 70
     1
102
RTVSPost2010Prop45
280
     0
102
RTVSPost2010PropOp45
 70
     1
102
RTVSPost2010Prop46
 90
       50
102
RTVSPost2010PropOp46
 70
     1
102
RTVSPost2010Prop47
 90
       50
102
RTVSPost2010PropOp47
 70
     1
102
RTVSPost2010Prop48
 90
       50
102
RTVSPost2010PropOp48
 70
     1
102
RTVSPost2010Prop49
280
     0
102
RTVSPost2010PropOp49
 70
     1
102
RTVSPost2010Prop50
 90
       50
102
RTVSPost2010PropOp50
 70
     1
102
RTVSPost2010Prop51ColorIndex
 90
      256
102
RTVSPost2010Prop51ColorRGB
 90
-16777216
102
RTVSPost2010PropOp51
 70
     0
102
RTVSPost2010Prop52
140
1.0
102
RTVSPost2010PropOp52
 70
     0
102
RTVSPost2010Prop53
 90
        2
102
RTVSPost2010PropOp53
 70
     1
102
RTVSPost2010Prop54
  1
strokes_ogs.tif
102
RTVSPost2010PropOp54
 70
     1
102
RTVSPost2010Prop55
280
     0
102
RTVSPost2010PropOp55
 70
     1
102
RTVSPost2010Prop56
140
1.0
102
RTVSPost2010PropOp56
 70
     1
102
RTVSPost2010Prop57
140
1.0
102
RTVSPost2010PropOp57
 70
     1
  0
XRECORD
  5
106AD00
102
{ACAD_REACTORS
330
106ACFF
102
}
330
106ACFF
100
AcDbXrecord
280
     1
102
RTVSPropertyOp0
 70
     1
102
RTVSPropertyOp1
 70
     1
102
RTVSPropertyOp2
 70
     1
102
RTVSPropertyOp3
 70
     1
102
RTVSPropertyOp4
 70
     1
102
RTVSPropertyOp5
 70
     1
102
RTVSPropertyOp6
 70
     1
102
RTVSPropertyOp7
 70
     1
102
RTVSPropertyOp8
 70
     1
102
RTVSPropertyOp9
 70
     1
102
RTVSPropertyOp10
 70
     1
102
RTVSPropertyOp11
 70
     1
102
RTVSPropertyOp12
 70
     1
102
RTVSPropertyOp13
 70
     1
102
RTVSPropertyOp14
 70
     1
102
RTVSPropertyOp15
 70
     1
102
RTVSPropertyOp16
 70
     1
102
RTVSPropertyOp17
 70
     1
102
RTVSPropertyOp18
 70
     1
102
RTVSPropertyOp19
 70
     1
102
RTVSPropertyOp20
 70
     1
102
RTVSPropertyOp21
 70
     1
102
RTVSPropertyOp22
 70
     1
102
RTVSPropertyOp23
 70
     1
102
RTVSPropertyOp24
 70
     1
102
RTVSPropertyOp25
 70
     1
102
RTVSPropertyOp26
 70
     1
102
RTVSPropertyOp27
 70
     1
102
RTVSPropertyOp28
 70
     1
102
RTVSPropertyOp29
 70
     1
102
RTVSPropertyOp30
 70
     1
102
RTVSPropertyOp31
 70
     1
102
RTVSPropertyOp32
 70
     1
102
RTVSPropertyOp33
 70
     1
102
RTVSPropertyOp34
 70
     1
102
RTVSPropertyOp35
 70
     1
102
RTVSPropertyOp36
 70
     1
102
RTVSPropertyOp37
 70
     1
102
RTVSPropertyOp38
 70
     1
102
RTVSPropertyOp39
 70
     1
102
RTVSPropertyOp40
 70
     1
102
RTVSPropertyOp41
 70
     1
102
RTVSPropertyOp42
 70
     1
102
RTVSPropertyOp43
 70
     1
102
RTVSPropertyOp44
 70
     1
102
RTVSPropertyOp45
 70
     1
102
RTVSPropertyOp46
 70
     1
102
RTVSPropertyOp47
 70
     1
102
RTVSPropertyOp48
 70
     1
102
RTVSPropertyOp49
 70
     1
102
RTVSPropertyOp50
 70
     1
102
RTVSPropertyOp51
 70
     0
102
RTVSPropertyOp52
 70
     0
102
RTVSPropertyOp53
 70
     1
102
RTVSPropertyOp54
 70
     1
102
RTVSPropertyOp55
 70
     1
102
RTVSPropertyOp56
 70
     1
102
RTVSPropertyOp57
 70
     1
102
RTVSPost2010Prop28
280
     0
102
RTVSPost2010PropOp28
 70
     1
102
RTVSPost2010Prop29
280
     1
102
RTVSPost2010PropOp29
 70
     1
102
RTVSPost2010Prop30
280
     1
102
RTVSPost2010PropOp30
 70
     1
102
RTVSPost2010Prop31
280
     0
102
RTVSPost2010PropOp31
 70
     1
102
RTVSPost2010Prop32
280
     0
102
RTVSPost2010PropOp32
 70
     1
102
RTVSPost2010Prop33
280
     0
102
RTVSPost2010PropOp33
 70
     1
102
RTVSPost2010Prop34
280
     0
102
RTVSPost2010PropOp34
 70
     1
102
RTVSPost2010Prop35
280
     0
102
RTVSPost2010PropOp35
 70
     1
102
RTVSPost2010Prop36
280
     0
102
RTVSPost2010PropOp36
 70
     1
102
RTVSPost2010Prop37
 90
       50
102
RTVSPost2010PropOp37
 70
     1
102
RTVSPost2010Prop38
140
0.0
102
RTVSPost2010PropOp38
 70
     1
102
RTVSPost2010Prop39
140
1.0
102
RTVSPost2010PropOp39
 70
     1
102
RTVSPost2010Prop40
 90
        0
102
RTVSPost2010PropOp40
 70
     1
102
RTVSPost2010Prop41ColorIndex
 90
       18
102
RTVSPost2010Prop41ColorRGB
 90
        0
102
RTVSPost2010PropOp41
 70
     1
102
RTVSPost2010Prop42
 90
       50
102
RTVSPost2010PropOp42
 70
     1
102
RTVSPost2010Prop43
 90
        3
102
RTVSPost2010PropOp43
 70
     1
102
RTVSPost2010Prop44ColorIndex
 90
        5
102
RTVSPost2010Prop44ColorRGB
 90
      255
102
RTVSPost2010PropOp44
 70
     1
102
RTVSPost2010Prop45
280
     0
102
RTVSPost2010PropOp45
 70
     1
102
RTVSPost2010Prop46
 90
       50
102
RTVSPost2010PropOp46
 70
     1
102
RTVSPost2010Prop47
 90
       50
102
RTVSPost2010PropOp47
 70
     1
102
RTVSPost2010Prop48
 90
       50
102
RTVSPost2010PropOp48
 70
     1
102
RTVSPost2010Prop49
280
     0
102
RTVSPost2010PropOp49
 70
     1
102
RTVSPost2010Prop50
 90
       50
102
RTVSPost2010PropOp50
 70
     1
102
RTVSPost2010Prop51ColorIndex
 90
      256
102
RTVSPost2010Prop51ColorRGB
 90
-16777216
102
RTVSPost2010PropOp51
 70
     0
102
RTVSPost2010Prop52
140
1.0
102
RTVSPost2010PropOp52
 70
     0
102
RTVSPost2010Prop53
 90
        2
102
RTVSPost2010PropOp53
 70
     1
102
RTVSPost2010Prop54
  1
strokes_ogs.tif
102
RTVSPost2010PropOp54
 70
     1
102
RTVSPost2010Prop55
280
     0
102
RTVSPost2010PropOp55
 70
     1
102
RTVSPost2010Prop56
140
1.0
102
RTVSPost2010PropOp56
 70
     1
102
RTVSPost2010Prop57
140
1.0
102
RTVSPost2010PropOp57
 70
     1
  0
XRECORD
  5
106AD02
102
{ACAD_REACTORS
330
106AD01
102
}
330
106AD01
100
AcDbXrecord
280
     1
102
RTVSPropertyOp0
 70
     1
102
RTVSPropertyOp1
 70
     1
102
RTVSPropertyOp2
 70
     1
102
RTVSPropertyOp3
 70
     1
102
RTVSPropertyOp4
 70
     1
102
RTVSPropertyOp5
 70
     1
102
RTVSPropertyOp6
 70
     1
102
RTVSPropertyOp7
 70
     1
102
RTVSPropertyOp8
 70
     1
102
RTVSPropertyOp9
 70
     1
102
RTVSPropertyOp10
 70
     1
102
RTVSPropertyOp11
 70
     1
102
RTVSPropertyOp12
 70
     1
102
RTVSPropertyOp13
 70
     1
102
RTVSPropertyOp14
 70
     1
102
RTVSPropertyOp15
 70
     1
102
RTVSPropertyOp16
 70
     1
102
RTVSPropertyOp17
 70
     1
102
RTVSPropertyOp18
 70
     1
102
RTVSPropertyOp19
 70
     1
102
RTVSPropertyOp20
 70
     1
102
RTVSPropertyOp21
 70
     1
102
RTVSPropertyOp22
 70
     1
102
RTVSPropertyOp23
 70
     1
102
RTVSPropertyOp24
 70
     1
102
RTVSPropertyOp25
 70
     1
102
RTVSPropertyOp26
 70
     1
102
RTVSPropertyOp27
 70
     1
102
RTVSPropertyOp28
 70
     1
102
RTVSPropertyOp29
 70
     1
102
RTVSPropertyOp30
 70
     1
102
RTVSPropertyOp31
 70
     1
102
RTVSPropertyOp32
 70
     1
102
RTVSPropertyOp33
 70
     1
102
RTVSPropertyOp34
 70
     1
102
RTVSPropertyOp35
 70
     1
102
RTVSPropertyOp36
 70
     1
102
RTVSPropertyOp37
 70
     1
102
RTVSPropertyOp38
 70
     1
102
RTVSPropertyOp39
 70
     1
102
RTVSPropertyOp40
 70
     1
102
RTVSPropertyOp41
 70
     1
102
RTVSPropertyOp42
 70
     1
102
RTVSPropertyOp43
 70
     1
102
RTVSPropertyOp44
 70
     1
102
RTVSPropertyOp45
 70
     1
102
RTVSPropertyOp46
 70
     1
102
RTVSPropertyOp47
 70
     1
102
RTVSPropertyOp48
 70
     1
102
RTVSPropertyOp49
 70
     1
102
RTVSPropertyOp50
 70
     1
102
RTVSPropertyOp51
 70
     0
102
RTVSPropertyOp52
 70
     0
102
RTVSPropertyOp53
 70
     1
102
RTVSPropertyOp54
 70
     1
102
RTVSPropertyOp55
 70
     1
102
RTVSPropertyOp56
 70
     1
102
RTVSPropertyOp57
 70
     1
102
RTVSPost2010Prop28
280
     0
102
RTVSPost2010PropOp28
 70
     1
102
RTVSPost2010Prop29
280
     1
102
RTVSPost2010PropOp29
 70
     1
102
RTVSPost2010Prop30
280
     1
102
RTVSPost2010PropOp30
 70
     1
102
RTVSPost2010Prop31
280
     0
102
RTVSPost2010PropOp31
 70
     1
102
RTVSPost2010Prop32
280
     0
102
RTVSPost2010PropOp32
 70
     1
102
RTVSPost2010Prop33
280
     0
102
RTVSPost2010PropOp33
 70
     1
102
RTVSPost2010Prop34
280
     0
102
RTVSPost2010PropOp34
 70
     1
102
RTVSPost2010Prop35
280
     0
102
RTVSPost2010PropOp35
 70
     1
102
RTVSPost2010Prop36
280
     0
102
RTVSPost2010PropOp36
 70
     1
102
RTVSPost2010Prop37
 90
       50
102
RTVSPost2010PropOp37
 70
     1
102
RTVSPost2010Prop38
140
0.0
102
RTVSPost2010PropOp38
 70
     1
102
RTVSPost2010Prop39
140
1.0
102
RTVSPost2010PropOp39
 70
     1
102
RTVSPost2010Prop40
 90
        0
102
RTVSPost2010PropOp40
 70
     1
102
RTVSPost2010Prop41ColorIndex
 90
       18
102
RTVSPost2010Prop41ColorRGB
 90
        0
102
RTVSPost2010PropOp41
 70
     1
102
RTVSPost2010Prop42
 90
       50
102
RTVSPost2010PropOp42
 70
     1
102
RTVSPost2010Prop43
 90
        3
102
RTVSPost2010PropOp43
 70
     1
102
RTVSPost2010Prop44ColorIndex
 90
        5
102
RTVSPost2010Prop44ColorRGB
 90
      255
102
RTVSPost2010PropOp44
 70
     1
102
RTVSPost2010Prop45
280
     0
102
RTVSPost2010PropOp45
 70
     1
102
RTVSPost2010Prop46
 90
       50
102
RTVSPost2010PropOp46
 70
     1
102
RTVSPost2010Prop47
 90
       50
102
RTVSPost2010PropOp47
 70
     1
102
RTVSPost2010Prop48
 90
       50
102
RTVSPost2010PropOp48
 70
     1
102
RTVSPost2010Prop49
280
     0
102
RTVSPost2010PropOp49
 70
     1
102
RTVSPost2010Prop50
 90
       50
102
RTVSPost2010PropOp50
 70
     1
102
RTVSPost2010Prop51ColorIndex
 90
      256
102
RTVSPost2010Prop51ColorRGB
 90
-16777216
102
RTVSPost2010PropOp51
 70
     0
102
RTVSPost2010Prop52
140
1.0
102
RTVSPost2010PropOp52
 70
     0
102
RTVSPost2010Prop53
 90
        2
102
RTVSPost2010PropOp53
 70
     1
102
RTVSPost2010Prop54
  1
strokes_ogs.tif
102
RTVSPost2010PropOp54
 70
     1
102
RTVSPost2010Prop55
280
     0
102
RTVSPost2010PropOp55
 70
     1
102
RTVSPost2010Prop56
140
1.0
102
RTVSPost2010PropOp56
 70
     1
102
RTVSPost2010Prop57
140
1.0
102
RTVSPost2010PropOp57
 70
     1
  0
XRECORD
  5
106AD04
102
{ACAD_REACTORS
330
106AD03
102
}
330
106AD03
100
AcDbXrecord
280
     1
102
RTVSPropertyOp0
 70
     0
102
RTVSPropertyOp1
 70
     0
102
RTVSPropertyOp2
 70
     0
102
RTVSPropertyOp3
 70
     0
102
RTVSPropertyOp4
 70
     0
102
RTVSPropertyOp5
 70
     0
102
RTVSPropertyOp6
 70
     0
102
RTVSPropertyOp7
 70
     0
102
RTVSPropertyOp8
 70
     0
102
RTVSPropertyOp9
 70
     0
102
RTVSPropertyOp10
 70
     0
102
RTVSPropertyOp11
 70
     0
102
RTVSPropertyOp12
 70
     0
102
RTVSPropertyOp13
 70
     0
102
RTVSPropertyOp14
 70
     2
102
RTVSPropertyOp15
 70
     0
102
RTVSPropertyOp16
 70
     0
102
RTVSPropertyOp17
 70
     0
102
RTVSPropertyOp18
 70
     0
102
RTVSPropertyOp19
 70
     0
102
RTVSPropertyOp20
 70
     0
102
RTVSPropertyOp21
 70
     0
102
RTVSPropertyOp22
 70
     0
102
RTVSPropertyOp23
 70
     0
102
RTVSPropertyOp24
 70
     0
102
RTVSPropertyOp25
 70
     0
102
RTVSPropertyOp26
 70
     0
102
RTVSPropertyOp27
 70
     0
102
RTVSPropertyOp28
 70
     0
102
RTVSPropertyOp29
 70
     0
102
RTVSPropertyOp30
 70
     0
102
RTVSPropertyOp31
 70
     0
102
RTVSPropertyOp32
 70
     0
102
RTVSPropertyOp33
 70
     0
102
RTVSPropertyOp34
 70
     0
102
RTVSPropertyOp35
 70
     0
102
RTVSPropertyOp36
 70
     0
102
RTVSPropertyOp37
 70
     0
102
RTVSPropertyOp38
 70
     0
102
RTVSPropertyOp39
 70
     0
102
RTVSPropertyOp40
 70
     0
102
RTVSPropertyOp41
 70
     0
102
RTVSPropertyOp42
 70
     0
102
RTVSPropertyOp43
 70
     0
102
RTVSPropertyOp44
 70
     0
102
RTVSPropertyOp45
 70
     0
102
RTVSPropertyOp46
 70
     0
102
RTVSPropertyOp47
 70
     0
102
RTVSPropertyOp48
 70
     0
102
RTVSPropertyOp49
 70
     0
102
RTVSPropertyOp50
 70
     0
102
RTVSPropertyOp51
 70
     0
102
RTVSPropertyOp52
 70
     0
102
RTVSPropertyOp53
 70
     0
102
RTVSPropertyOp54
 70
     0
102
RTVSPropertyOp55
 70
     0
102
RTVSPropertyOp56
 70
     0
102
RTVSPropertyOp57
 70
     0
102
RTVSPost2010Prop28
280
     0
102
RTVSPost2010PropOp28
 70
     0
102
RTVSPost2010Prop29
280
     1
102
RTVSPost2010PropOp29
 70
     0
102
RTVSPost2010Prop30
280
     1
102
RTVSPost2010PropOp30
 70
     0
102
RTVSPost2010Prop31
280
     0
102
RTVSPost2010PropOp31
 70
     0
102
RTVSPost2010Prop32
280
     0
102
RTVSPost2010PropOp32
 70
     0
102
RTVSPost2010Prop33
280
     0
102
RTVSPost2010PropOp33
 70
     0
102
RTVSPost2010Prop34
280
     0
102
RTVSPost2010PropOp34
 70
     0
102
RTVSPost2010Prop35
280
     0
102
RTVSPost2010PropOp35
 70
     0
102
RTVSPost2010Prop36
280
     0
102
RTVSPost2010PropOp36
 70
     0
102
RTVSPost2010Prop37
 90
       50
102
RTVSPost2010PropOp37
 70
     0
102
RTVSPost2010Prop38
140
0.0
102
RTVSPost2010PropOp38
 70
     0
102
RTVSPost2010Prop39
140
1.0
102
RTVSPost2010PropOp39
 70
     0
102
RTVSPost2010Prop40
 90
        0
102
RTVSPost2010PropOp40
 70
     0
102
RTVSPost2010Prop41ColorIndex
 90
       18
102
RTVSPost2010Prop41ColorRGB
 90
        0
102
RTVSPost2010PropOp41
 70
     0
102
RTVSPost2010Prop42
 90
       50
102
RTVSPost2010PropOp42
 70
     0
102
RTVSPost2010Prop43
 90
        3
102
RTVSPost2010PropOp43
 70
     0
102
RTVSPost2010Prop44ColorIndex
 90
        5
102
RTVSPost2010Prop44ColorRGB
 90
      255
102
RTVSPost2010PropOp44
 70
     0
102
RTVSPost2010Prop45
280
     0
102
RTVSPost2010PropOp45
 70
     0
102
RTVSPost2010Prop46
 90
       50
102
RTVSPost2010PropOp46
 70
     0
102
RTVSPost2010Prop47
 90
       50
102
RTVSPost2010PropOp47
 70
     0
102
RTVSPost2010Prop48
 90
       50
102
RTVSPost2010PropOp48
 70
     0
102
RTVSPost2010Prop49
280
     0
102
RTVSPost2010PropOp49
 70
     0
102
RTVSPost2010Prop50
 90
       50
102
RTVSPost2010PropOp50
 70
     0
102
RTVSPost2010Prop51ColorIndex
 90
      256
102
RTVSPost2010Prop51ColorRGB
 90
-16777216
102
RTVSPost2010PropOp51
 70
     0
102
RTVSPost2010Prop52
140
1.0
102
RTVSPost2010PropOp52
 70
     0
102
RTVSPost2010Prop53
 90
        2
102
RTVSPost2010PropOp53
 70
     0
102
RTVSPost2010Prop54
  1
strokes_ogs.tif
102
RTVSPost2010PropOp54
 70
     0
102
RTVSPost2010Prop55
280
     0
102
RTVSPost2010PropOp55
 70
     0
102
RTVSPost2010Prop56
140
1.0
102
RTVSPost2010PropOp56
 70
     0
102
RTVSPost2010Prop57
140
1.0
102
RTVSPost2010PropOp57
 70
     0
  0
XRECORD
  5
106AD06
102
{ACAD_REACTORS
330
106AD05
102
}
330
106AD05
100
AcDbXrecord
280
     1
102
RTVSPropertyOp0
 70
     1
102
RTVSPropertyOp1
 70
     1
102
RTVSPropertyOp2
 70
     1
102
RTVSPropertyOp3
 70
     1
102
RTVSPropertyOp4
 70
     1
102
RTVSPropertyOp5
 70
     1
102
RTVSPropertyOp6
 70
     1
102
RTVSPropertyOp7
 70
     1
102
RTVSPropertyOp8
 70
     1
102
RTVSPropertyOp9
 70
     1
102
RTVSPropertyOp10
 70
     1
102
RTVSPropertyOp11
 70
     1
102
RTVSPropertyOp12
 70
     1
102
RTVSPropertyOp13
 70
     1
102
RTVSPropertyOp14
 70
     1
102
RTVSPropertyOp15
 70
     1
102
RTVSPropertyOp16
 70
     1
102
RTVSPropertyOp17
 70
     1
102
RTVSPropertyOp18
 70
     1
102
RTVSPropertyOp19
 70
     1
102
RTVSPropertyOp20
 70
     1
102
RTVSPropertyOp21
 70
     1
102
RTVSPropertyOp22
 70
     1
102
RTVSPropertyOp23
 70
     1
102
RTVSPropertyOp24
 70
     1
102
RTVSPropertyOp25
 70
     1
102
RTVSPropertyOp26
 70
     1
102
RTVSPropertyOp27
 70
     1
102
RTVSPropertyOp28
 70
     1
102
RTVSPropertyOp29
 70
     1
102
RTVSPropertyOp30
 70
     1
102
RTVSPropertyOp31
 70
     1
102
RTVSPropertyOp32
 70
     1
102
RTVSPropertyOp33
 70
     1
102
RTVSPropertyOp34
 70
     1
102
RTVSPropertyOp35
 70
     1
102
RTVSPropertyOp36
 70
     1
102
RTVSPropertyOp37
 70
     1
102
RTVSPropertyOp38
 70
     1
102
RTVSPropertyOp39
 70
     1
102
RTVSPropertyOp40
 70
     1
102
RTVSPropertyOp41
 70
     1
102
RTVSPropertyOp42
 70
     1
102
RTVSPropertyOp43
 70
     1
102
RTVSPropertyOp44
 70
     1
102
RTVSPropertyOp45
 70
     1
102
RTVSPropertyOp46
 70
     1
102
RTVSPropertyOp47
 70
     1
102
RTVSPropertyOp48
 70
     1
102
RTVSPropertyOp49
 70
     1
102
RTVSPropertyOp50
 70
     1
102
RTVSPropertyOp51
 70
     0
102
RTVSPropertyOp52
 70
     0
102
RTVSPropertyOp53
 70
     1
102
RTVSPropertyOp54
 70
     1
102
RTVSPropertyOp55
 70
     1
102
RTVSPropertyOp56
 70
     1
102
RTVSPropertyOp57
 70
     1
102
RTVSPost2010Prop28
280
     0
102
RTVSPost2010PropOp28
 70
     1
102
RTVSPost2010Prop29
280
     1
102
RTVSPost2010PropOp29
 70
     1
102
RTVSPost2010Prop30
280
     1
102
RTVSPost2010PropOp30
 70
     1
102
RTVSPost2010Prop31
280
     0
102
RTVSPost2010PropOp31
 70
     1
102
RTVSPost2010Prop32
280
     0
102
RTVSPost2010PropOp32
 70
     1
102
RTVSPost2010Prop33
280
     0
102
RTVSPost2010PropOp33
 70
     1
102
RTVSPost2010Prop34
280
     0
102
RTVSPost2010PropOp34
 70
     1
102
RTVSPost2010Prop35
280
     0
102
RTVSPost2010PropOp35
 70
     1
102
RTVSPost2010Prop36
280
     0
102
RTVSPost2010PropOp36
 70
     1
102
RTVSPost2010Prop37
 90
       50
102
RTVSPost2010PropOp37
 70
     1
102
RTVSPost2010Prop38
140
0.0
102
RTVSPost2010PropOp38
 70
     1
102
RTVSPost2010Prop39
140
1.0
102
RTVSPost2010PropOp39
 70
     1
102
RTVSPost2010Prop40
 90
        0
102
RTVSPost2010PropOp40
 70
     1
102
RTVSPost2010Prop41ColorIndex
 90
       18
102
RTVSPost2010Prop41ColorRGB
 90
        0
102
RTVSPost2010PropOp41
 70
     1
102
RTVSPost2010Prop42
 90
       50
102
RTVSPost2010PropOp42
 70
     1
102
RTVSPost2010Prop43
 90
        3
102
RTVSPost2010PropOp43
 70
     1
102
RTVSPost2010Prop44ColorIndex
 90
        5
102
RTVSPost2010Prop44ColorRGB
 90
      255
102
RTVSPost2010PropOp44
 70
     1
102
RTVSPost2010Prop45
280
     0
102
RTVSPost2010PropOp45
 70
     1
102
RTVSPost2010Prop46
 90
       50
102
RTVSPost2010PropOp46
 70
     1
102
RTVSPost2010Prop47
 90
       50
102
RTVSPost2010PropOp47
 70
     1
102
RTVSPost2010Prop48
 90
       50
102
RTVSPost2010PropOp48
 70
     1
102
RTVSPost2010Prop49
280
     0
102
RTVSPost2010PropOp49
 70
     1
102
RTVSPost2010Prop50
 90
       50
102
RTVSPost2010PropOp50
 70
     1
102
RTVSPost2010Prop51ColorIndex
 90
      256
102
RTVSPost2010Prop51ColorRGB
 90
-16777216
102
RTVSPost2010PropOp51
 70
     0
102
RTVSPost2010Prop52
140
1.0
102
RTVSPost2010PropOp52
 70
     0
102
RTVSPost2010Prop53
 90
        2
102
RTVSPost2010PropOp53
 70
     1
102
RTVSPost2010Prop54
  1
strokes_ogs.tif
102
RTVSPost2010PropOp54
 70
     1
102
RTVSPost2010Prop55
280
     0
102
RTVSPost2010PropOp55
 70
     1
102
RTVSPost2010Prop56
140
1.0
102
RTVSPost2010PropOp56
 70
     1
102
RTVSPost2010Prop57
140
1.0
102
RTVSPost2010PropOp57
 70
     1
  0
XRECORD
  5
106AD08
102
{ACAD_REACTORS
330
106AD07
102
}
330
106AD07
100
AcDbXrecord
280
     1
102
RTVSPropertyOp0
 70
     1
102
RTVSPropertyOp1
 70
     1
102
RTVSPropertyOp2
 70
     1
102
RTVSPropertyOp3
 70
     1
102
RTVSPropertyOp4
 70
     1
102
RTVSPropertyOp5
 70
     1
102
RTVSPropertyOp6
 70
     1
102
RTVSPropertyOp7
 70
     1
102
RTVSPropertyOp8
 70
     1
102
RTVSPropertyOp9
 70
     1
102
RTVSPropertyOp10
 70
     1
102
RTVSPropertyOp11
 70
     1
102
RTVSPropertyOp12
 70
     1
102
RTVSPropertyOp13
 70
     1
102
RTVSPropertyOp14
 70
     1
102
RTVSPropertyOp15
 70
     1
102
RTVSPropertyOp16
 70
     1
102
RTVSPropertyOp17
 70
     1
102
RTVSPropertyOp18
 70
     1
102
RTVSPropertyOp19
 70
     1
102
RTVSPropertyOp20
 70
     1
102
RTVSPropertyOp21
 70
     1
102
RTVSPropertyOp22
 70
     1
102
RTVSPropertyOp23
 70
     1
102
RTVSPropertyOp24
 70
     1
102
RTVSPropertyOp25
 70
     1
102
RTVSPropertyOp26
 70
     1
102
RTVSPropertyOp27
 70
     1
102
RTVSPropertyOp28
 70
     1
102
RTVSPropertyOp29
 70
     1
102
RTVSPropertyOp30
 70
     1
102
RTVSPropertyOp31
 70
     1
102
RTVSPropertyOp32
 70
     1
102
RTVSPropertyOp33
 70
     1
102
RTVSPropertyOp34
 70
     1
102
RTVSPropertyOp35
 70
     1
102
RTVSPropertyOp36
 70
     1
102
RTVSPropertyOp37
 70
     1
102
RTVSPropertyOp38
 70
     1
102
RTVSPropertyOp39
 70
     1
102
RTVSPropertyOp40
 70
     1
102
RTVSPropertyOp41
 70
     1
102
RTVSPropertyOp42
 70
     1
102
RTVSPropertyOp43
 70
     1
102
RTVSPropertyOp44
 70
     1
102
RTVSPropertyOp45
 70
     1
102
RTVSPropertyOp46
 70
     1
102
RTVSPropertyOp47
 70
     1
102
RTVSPropertyOp48
 70
     1
102
RTVSPropertyOp49
 70
     1
102
RTVSPropertyOp50
 70
     1
102
RTVSPropertyOp51
 70
     0
102
RTVSPropertyOp52
 70
     0
102
RTVSPropertyOp53
 70
     1
102
RTVSPropertyOp54
 70
     1
102
RTVSPropertyOp55
 70
     1
102
RTVSPropertyOp56
 70
     1
102
RTVSPropertyOp57
 70
     1
102
RTVSPost2010Prop28
280
     0
102
RTVSPost2010PropOp28
 70
     1
102
RTVSPost2010Prop29
280
     1
102
RTVSPost2010PropOp29
 70
     1
102
RTVSPost2010Prop30
280
     1
102
RTVSPost2010PropOp30
 70
     1
102
RTVSPost2010Prop31
280
     0
102
RTVSPost2010PropOp31
 70
     1
102
RTVSPost2010Prop32
280
     0
102
RTVSPost2010PropOp32
 70
     1
102
RTVSPost2010Prop33
280
     0
102
RTVSPost2010PropOp33
 70
     1
102
RTVSPost2010Prop34
280
     0
102
RTVSPost2010PropOp34
 70
     1
102
RTVSPost2010Prop35
280
     0
102
RTVSPost2010PropOp35
 70
     1
102
RTVSPost2010Prop36
280
     0
102
RTVSPost2010PropOp36
 70
     1
102
RTVSPost2010Prop37
 90
       50
102
RTVSPost2010PropOp37
 70
     1
102
RTVSPost2010Prop38
140
0.0
102
RTVSPost2010PropOp38
 70
     1
102
RTVSPost2010Prop39
140
1.0
102
RTVSPost2010PropOp39
 70
     1
102
RTVSPost2010Prop40
 90
        0
102
RTVSPost2010PropOp40
 70
     1
102
RTVSPost2010Prop41ColorIndex
 90
       18
102
RTVSPost2010Prop41ColorRGB
 90
        0
102
RTVSPost2010PropOp41
 70
     1
102
RTVSPost2010Prop42
 90
       50
102
RTVSPost2010PropOp42
 70
     1
102
RTVSPost2010Prop43
 90
        3
102
RTVSPost2010PropOp43
 70
     1
102
RTVSPost2010Prop44ColorIndex
 90
        5
102
RTVSPost2010Prop44ColorRGB
 90
      255
102
RTVSPost2010PropOp44
 70
     1
102
RTVSPost2010Prop45
280
     0
102
RTVSPost2010PropOp45
 70
     1
102
RTVSPost2010Prop46
 90
       50
102
RTVSPost2010PropOp46
 70
     1
102
RTVSPost2010Prop47
 90
       50
102
RTVSPost2010PropOp47
 70
     1
102
RTVSPost2010Prop48
 90
       50
102
RTVSPost2010PropOp48
 70
     1
102
RTVSPost2010Prop49
280
     0
102
RTVSPost2010PropOp49
 70
     1
102
RTVSPost2010Prop50
 90
       50
102
RTVSPost2010PropOp50
 70
     1
102
RTVSPost2010Prop51ColorIndex
 90
      256
102
RTVSPost2010Prop51ColorRGB
 90
-16777216
102
RTVSPost2010PropOp51
 70
     0
102
RTVSPost2010Prop52
140
1.0
102
RTVSPost2010PropOp52
 70
     0
102
RTVSPost2010Prop53
 90
        2
102
RTVSPost2010PropOp53
 70
     1
102
RTVSPost2010Prop54
  1
strokes_ogs.tif
102
RTVSPost2010PropOp54
 70
     1
102
RTVSPost2010Prop55
280
     0
102
RTVSPost2010PropOp55
 70
     1
102
RTVSPost2010Prop56
140
1.0
102
RTVSPost2010PropOp56
 70
     1
102
RTVSPost2010Prop57
140
1.0
102
RTVSPost2010PropOp57
 70
     1
  0
XRECORD
  5
106AD0A
102
{ACAD_REACTORS
330
106AD09
102
}
330
106AD09
100
AcDbXrecord
280
     1
102
RTVSPropertyOp0
 70
     1
102
RTVSPropertyOp1
 70
     1
102
RTVSPropertyOp2
 70
     1
102
RTVSPropertyOp3
 70
     1
102
RTVSPropertyOp4
 70
     1
102
RTVSPropertyOp5
 70
     1
102
RTVSPropertyOp6
 70
     1
102
RTVSPropertyOp7
 70
     1
102
RTVSPropertyOp8
 70
     1
102
RTVSPropertyOp9
 70
     1
102
RTVSPropertyOp10
 70
     1
102
RTVSPropertyOp11
 70
     1
102
RTVSPropertyOp12
 70
     1
102
RTVSPropertyOp13
 70
     1
102
RTVSPropertyOp14
 70
     1
102
RTVSPropertyOp15
 70
     1
102
RTVSPropertyOp16
 70
     1
102
RTVSPropertyOp17
 70
     1
102
RTVSPropertyOp18
 70
     1
102
RTVSPropertyOp19
 70
     1
102
RTVSPropertyOp20
 70
     1
102
RTVSPropertyOp21
 70
     1
102
RTVSPropertyOp22
 70
     1
102
RTVSPropertyOp23
 70
     1
102
RTVSPropertyOp24
 70
     1
102
RTVSPropertyOp25
 70
     1
102
RTVSPropertyOp26
 70
     1
102
RTVSPropertyOp27
 70
     1
102
RTVSPropertyOp28
 70
     1
102
RTVSPropertyOp29
 70
     1
102
RTVSPropertyOp30
 70
     1
102
RTVSPropertyOp31
 70
     1
102
RTVSPropertyOp32
 70
     1
102
RTVSPropertyOp33
 70
     1
102
RTVSPropertyOp34
 70
     1
102
RTVSPropertyOp35
 70
     1
102
RTVSPropertyOp36
 70
     1
102
RTVSPropertyOp37
 70
     1
102
RTVSPropertyOp38
 70
     1
102
RTVSPropertyOp39
 70
     1
102
RTVSPropertyOp40
 70
     1
102
RTVSPropertyOp41
 70
     1
102
RTVSPropertyOp42
 70
     1
102
RTVSPropertyOp43
 70
     1
102
RTVSPropertyOp44
 70
     1
102
RTVSPropertyOp45
 70
     1
102
RTVSPropertyOp46
 70
     1
102
RTVSPropertyOp47
 70
     1
102
RTVSPropertyOp48
 70
     1
102
RTVSPropertyOp49
 70
     1
102
RTVSPropertyOp50
 70
     1
102
RTVSPropertyOp51
 70
     0
102
RTVSPropertyOp52
 70
     0
102
RTVSPropertyOp53
 70
     1
102
RTVSPropertyOp54
 70
     1
102
RTVSPropertyOp55
 70
     1
102
RTVSPropertyOp56
 70
     1
102
RTVSPropertyOp57
 70
     1
102
RTVSPost2010Prop28
280
     0
102
RTVSPost2010PropOp28
 70
     1
102
RTVSPost2010Prop29
280
     1
102
RTVSPost2010PropOp29
 70
     1
102
RTVSPost2010Prop30
280
     1
102
RTVSPost2010PropOp30
 70
     1
102
RTVSPost2010Prop31
280
     0
102
RTVSPost2010PropOp31
 70
     1
102
RTVSPost2010Prop32
280
     0
102
RTVSPost2010PropOp32
 70
     1
102
RTVSPost2010Prop33
280
     0
102
RTVSPost2010PropOp33
 70
     1
102
RTVSPost2010Prop34
280
     0
102
RTVSPost2010PropOp34
 70
     1
102
RTVSPost2010Prop35
280
     0
102
RTVSPost2010PropOp35
 70
     1
102
RTVSPost2010Prop36
280
     0
102
RTVSPost2010PropOp36
 70
     1
102
RTVSPost2010Prop37
 90
       50
102
RTVSPost2010PropOp37
 70
     1
102
RTVSPost2010Prop38
140
0.0
102
RTVSPost2010PropOp38
 70
     1
102
RTVSPost2010Prop39
140
1.0
102
RTVSPost2010PropOp39
 70
     1
102
RTVSPost2010Prop40
 90
        0
102
RTVSPost2010PropOp40
 70
     1
102
RTVSPost2010Prop41ColorIndex
 90
       18
102
RTVSPost2010Prop41ColorRGB
 90
        0
102
RTVSPost2010PropOp41
 70
     1
102
RTVSPost2010Prop42
 90
       50
102
RTVSPost2010PropOp42
 70
     1
102
RTVSPost2010Prop43
 90
        3
102
RTVSPost2010PropOp43
 70
     1
102
RTVSPost2010Prop44ColorIndex
 90
        5
102
RTVSPost2010Prop44ColorRGB
 90
      255
102
RTVSPost2010PropOp44
 70
     1
102
RTVSPost2010Prop45
280
     0
102
RTVSPost2010PropOp45
 70
     1
102
RTVSPost2010Prop46
 90
       50
102
RTVSPost2010PropOp46
 70
     1
102
RTVSPost2010Prop47
 90
       50
102
RTVSPost2010PropOp47
 70
     1
102
RTVSPost2010Prop48
 90
       50
102
RTVSPost2010PropOp48
 70
     1
102
RTVSPost2010Prop49
280
     0
102
RTVSPost2010PropOp49
 70
     1
102
RTVSPost2010Prop50
 90
       50
102
RTVSPost2010PropOp50
 70
     1
102
RTVSPost2010Prop51ColorIndex
 90
      256
102
RTVSPost2010Prop51ColorRGB
 90
-16777216
102
RTVSPost2010PropOp51
 70
     0
102
RTVSPost2010Prop52
140
1.0
102
RTVSPost2010PropOp52
 70
     0
102
RTVSPost2010Prop53
 90
        2
102
RTVSPost2010PropOp53
 70
     1
102
RTVSPost2010Prop54
  1
strokes_ogs.tif
102
RTVSPost2010PropOp54
 70
     1
102
RTVSPost2010Prop55
280
     0
102
RTVSPost2010PropOp55
 70
     1
102
RTVSPost2010Prop56
140
1.0
102
RTVSPost2010PropOp56
 70
     1
102
RTVSPost2010Prop57
140
1.0
102
RTVSPost2010PropOp57
 70
     1
  0
XRECORD
  5
106AD0C
102
{ACAD_REACTORS
330
106AD0B
102
}
330
106AD0B
100
AcDbXrecord
280
     1
102
RTVSPropertyOp0
 70
     1
102
RTVSPropertyOp1
 70
     1
102
RTVSPropertyOp2
 70
     1
102
RTVSPropertyOp3
 70
     1
102
RTVSPropertyOp4
 70
     1
102
RTVSPropertyOp5
 70
     1
102
RTVSPropertyOp6
 70
     1
102
RTVSPropertyOp7
 70
     1
102
RTVSPropertyOp8
 70
     1
102
RTVSPropertyOp9
 70
     1
102
RTVSPropertyOp10
 70
     1
102
RTVSPropertyOp11
 70
     1
102
RTVSPropertyOp12
 70
     1
102
RTVSPropertyOp13
 70
     1
102
RTVSPropertyOp14
 70
     1
102
RTVSPropertyOp15
 70
     1
102
RTVSPropertyOp16
 70
     1
102
RTVSPropertyOp17
 70
     1
102
RTVSPropertyOp18
 70
     1
102
RTVSPropertyOp19
 70
     1
102
RTVSPropertyOp20
 70
     1
102
RTVSPropertyOp21
 70
     1
102
RTVSPropertyOp22
 70
     1
102
RTVSPropertyOp23
 70
     1
102
RTVSPropertyOp24
 70
     1
102
RTVSPropertyOp25
 70
     1
102
RTVSPropertyOp26
 70
     1
102
RTVSPropertyOp27
 70
     1
102
RTVSPropertyOp28
 70
     1
102
RTVSPropertyOp29
 70
     1
102
RTVSPropertyOp30
 70
     1
102
RTVSPropertyOp31
 70
     1
102
RTVSPropertyOp32
 70
     1
102
RTVSPropertyOp33
 70
     1
102
RTVSPropertyOp34
 70
     1
102
RTVSPropertyOp35
 70
     1
102
RTVSPropertyOp36
 70
     1
102
RTVSPropertyOp37
 70
     1
102
RTVSPropertyOp38
 70
     1
102
RTVSPropertyOp39
 70
     1
102
RTVSPropertyOp40
 70
     1
102
RTVSPropertyOp41
 70
     1
102
RTVSPropertyOp42
 70
     1
102
RTVSPropertyOp43
 70
     1
102
RTVSPropertyOp44
 70
     1
102
RTVSPropertyOp45
 70
     1
102
RTVSPropertyOp46
 70
     1
102
RTVSPropertyOp47
 70
     1
102
RTVSPropertyOp48
 70
     1
102
RTVSPropertyOp49
 70
     1
102
RTVSPropertyOp50
 70
     1
102
RTVSPropertyOp51
 70
     0
102
RTVSPropertyOp52
 70
     0
102
RTVSPropertyOp53
 70
     1
102
RTVSPropertyOp54
 70
     1
102
RTVSPropertyOp55
 70
     1
102
RTVSPropertyOp56
 70
     1
102
RTVSPropertyOp57
 70
     1
102
RTVSPost2010Prop28
280
     0
102
RTVSPost2010PropOp28
 70
     1
102
RTVSPost2010Prop29
280
     1
102
RTVSPost2010PropOp29
 70
     1
102
RTVSPost2010Prop30
280
     1
102
RTVSPost2010PropOp30
 70
     1
102
RTVSPost2010Prop31
280
     0
102
RTVSPost2010PropOp31
 70
     1
102
RTVSPost2010Prop32
280
     0
102
RTVSPost2010PropOp32
 70
     1
102
RTVSPost2010Prop33
280
     0
102
RTVSPost2010PropOp33
 70
     1
102
RTVSPost2010Prop34
280
     0
102
RTVSPost2010PropOp34
 70
     1
102
RTVSPost2010Prop35
280
     0
102
RTVSPost2010PropOp35
 70
     1
102
RTVSPost2010Prop36
280
     0
102
RTVSPost2010PropOp36
 70
     1
102
RTVSPost2010Prop37
 90
       50
102
RTVSPost2010PropOp37
 70
     1
102
RTVSPost2010Prop38
140
0.0
102
RTVSPost2010PropOp38
 70
     1
102
RTVSPost2010Prop39
140
1.0
102
RTVSPost2010PropOp39
 70
     1
102
RTVSPost2010Prop40
 90
        0
102
RTVSPost2010PropOp40
 70
     1
102
RTVSPost2010Prop41ColorIndex
 90
       18
102
RTVSPost2010Prop41ColorRGB
 90
        0
102
RTVSPost2010PropOp41
 70
     1
102
RTVSPost2010Prop42
 90
       50
102
RTVSPost2010PropOp42
 70
     1
102
RTVSPost2010Prop43
 90
        3
102
RTVSPost2010PropOp43
 70
     1
102
RTVSPost2010Prop44ColorIndex
 90
        5
102
RTVSPost2010Prop44ColorRGB
 90
      255
102
RTVSPost2010PropOp44
 70
     1
102
RTVSPost2010Prop45
280
     0
102
RTVSPost2010PropOp45
 70
     1
102
RTVSPost2010Prop46
 90
       50
102
RTVSPost2010PropOp46
 70
     1
102
RTVSPost2010Prop47
 90
       50
102
RTVSPost2010PropOp47
 70
     1
102
RTVSPost2010Prop48
 90
       50
102
RTVSPost2010PropOp48
 70
     1
102
RTVSPost2010Prop49
280
     0
102
RTVSPost2010PropOp49
 70
     1
102
RTVSPost2010Prop50
 90
       50
102
RTVSPost2010PropOp50
 70
     1
102
RTVSPost2010Prop51ColorIndex
 90
      256
102
RTVSPost2010Prop51ColorRGB
 90
-16777216
102
RTVSPost2010PropOp51
 70
     0
102
RTVSPost2010Prop52
140
1.0
102
RTVSPost2010PropOp52
 70
     0
102
RTVSPost2010Prop53
 90
        2
102
RTVSPost2010PropOp53
 70
     1
102
RTVSPost2010Prop54
  1
strokes_ogs.tif
102
RTVSPost2010PropOp54
 70
     1
102
RTVSPost2010Prop55
280
     0
102
RTVSPost2010PropOp55
 70
     1
102
RTVSPost2010Prop56
140
1.0
102
RTVSPost2010PropOp56
 70
     1
102
RTVSPost2010Prop57
140
1.0
102
RTVSPost2010PropOp57
 70
     1
  0
XRECORD
  5
106AD0E
102
{ACAD_REACTORS
330
106AD0D
102
}
330
106AD0D
100
AcDbXrecord
280
     1
102
RTVSPropertyOp0
 70
     1
102
RTVSPropertyOp1
 70
     1
102
RTVSPropertyOp2
 70
     1
102
RTVSPropertyOp3
 70
     1
102
RTVSPropertyOp4
 70
     1
102
RTVSPropertyOp5
 70
     1
102
RTVSPropertyOp6
 70
     1
102
RTVSPropertyOp7
 70
     1
102
RTVSPropertyOp8
 70
     1
102
RTVSPropertyOp9
 70
     1
102
RTVSPropertyOp10
 70
     1
102
RTVSPropertyOp11
 70
     1
102
RTVSPropertyOp12
 70
     1
102
RTVSPropertyOp13
 70
     1
102
RTVSPropertyOp14
 70
     1
102
RTVSPropertyOp15
 70
     1
102
RTVSPropertyOp16
 70
     1
102
RTVSPropertyOp17
 70
     1
102
RTVSPropertyOp18
 70
     1
102
RTVSPropertyOp19
 70
     1
102
RTVSPropertyOp20
 70
     1
102
RTVSPropertyOp21
 70
     1
102
RTVSPropertyOp22
 70
     1
102
RTVSPropertyOp23
 70
     1
102
RTVSPropertyOp24
 70
     1
102
RTVSPropertyOp25
 70
     1
102
RTVSPropertyOp26
 70
     1
102
RTVSPropertyOp27
 70
     1
102
RTVSPropertyOp28
 70
     1
102
RTVSPropertyOp29
 70
     1
102
RTVSPropertyOp30
 70
     1
102
RTVSPropertyOp31
 70
     1
102
RTVSPropertyOp32
 70
     1
102
RTVSPropertyOp33
 70
     1
102
RTVSPropertyOp34
 70
     1
102
RTVSPropertyOp35
 70
     1
102
RTVSPropertyOp36
 70
     1
102
RTVSPropertyOp37
 70
     1
102
RTVSPropertyOp38
 70
     1
102
RTVSPropertyOp39
 70
     1
102
RTVSPropertyOp40
 70
     1
102
RTVSPropertyOp41
 70
     1
102
RTVSPropertyOp42
 70
     1
102
RTVSPropertyOp43
 70
     1
102
RTVSPropertyOp44
 70
     1
102
RTVSPropertyOp45
 70
     1
102
RTVSPropertyOp46
 70
     1
102
RTVSPropertyOp47
 70
     1
102
RTVSPropertyOp48
 70
     1
102
RTVSPropertyOp49
 70
     1
102
RTVSPropertyOp50
 70
     1
102
RTVSPropertyOp51
 70
     0
102
RTVSPropertyOp52
 70
     0
102
RTVSPropertyOp53
 70
     1
102
RTVSPropertyOp54
 70
     1
102
RTVSPropertyOp55
 70
     1
102
RTVSPropertyOp56
 70
     1
102
RTVSPropertyOp57
 70
     1
102
RTVSPost2010Prop28
280
     0
102
RTVSPost2010PropOp28
 70
     1
102
RTVSPost2010Prop29
280
     1
102
RTVSPost2010PropOp29
 70
     1
102
RTVSPost2010Prop30
280
     1
102
RTVSPost2010PropOp30
 70
     1
102
RTVSPost2010Prop31
280
     0
102
RTVSPost2010PropOp31
 70
     1
102
RTVSPost2010Prop32
280
     0
102
RTVSPost2010PropOp32
 70
     1
102
RTVSPost2010Prop33
280
     0
102
RTVSPost2010PropOp33
 70
     1
102
RTVSPost2010Prop34
280
     0
102
RTVSPost2010PropOp34
 70
     1
102
RTVSPost2010Prop35
280
     0
102
RTVSPost2010PropOp35
 70
     1
102
RTVSPost2010Prop36
280
     0
102
RTVSPost2010PropOp36
 70
     1
102
RTVSPost2010Prop37
 90
       50
102
RTVSPost2010PropOp37
 70
     1
102
RTVSPost2010Prop38
140
0.0
102
RTVSPost2010PropOp38
 70
     1
102
RTVSPost2010Prop39
140
1.0
102
RTVSPost2010PropOp39
 70
     1
102
RTVSPost2010Prop40
 90
        0
102
RTVSPost2010PropOp40
 70
     1
102
RTVSPost2010Prop41ColorIndex
 90
       18
102
RTVSPost2010Prop41ColorRGB
 90
        0
102
RTVSPost2010PropOp41
 70
     1
102
RTVSPost2010Prop42
 90
       50
102
RTVSPost2010PropOp42
 70
     1
102
RTVSPost2010Prop43
 90
        3
102
RTVSPost2010PropOp43
 70
     1
102
RTVSPost2010Prop44ColorIndex
 90
        5
102
RTVSPost2010Prop44ColorRGB
 90
      255
102
RTVSPost2010PropOp44
 70
     1
102
RTVSPost2010Prop45
280
     0
102
RTVSPost2010PropOp45
 70
     1
102
RTVSPost2010Prop46
 90
       50
102
RTVSPost2010PropOp46
 70
     1
102
RTVSPost2010Prop47
 90
       50
102
RTVSPost2010PropOp47
 70
     1
102
RTVSPost2010Prop48
 90
       50
102
RTVSPost2010PropOp48
 70
     1
102
RTVSPost2010Prop49
280
     0
102
RTVSPost2010PropOp49
 70
     1
102
RTVSPost2010Prop50
 90
       50
102
RTVSPost2010PropOp50
 70
     1
102
RTVSPost2010Prop51ColorIndex
 90
      256
102
RTVSPost2010Prop51ColorRGB
 90
-16777216
102
RTVSPost2010PropOp51
 70
     0
102
RTVSPost2010Prop52
140
1.0
102
RTVSPost2010PropOp52
 70
     0
102
RTVSPost2010Prop53
 90
        2
102
RTVSPost2010PropOp53
 70
     1
102
RTVSPost2010Prop54
  1
strokes_ogs.tif
102
RTVSPost2010PropOp54
 70
     1
102
RTVSPost2010Prop55
280
     0
102
RTVSPost2010PropOp55
 70
     1
102
RTVSPost2010Prop56
140
1.0
102
RTVSPost2010PropOp56
 70
     1
102
RTVSPost2010Prop57
140
1.0
102
RTVSPost2010PropOp57
 70
     1
  0
XRECORD
  5
106AD10
102
{ACAD_REACTORS
330
106AD0F
102
}
330
106AD0F
100
AcDbXrecord
280
     1
102
RTVSPropertyOp0
 70
     1
102
RTVSPropertyOp1
 70
     1
102
RTVSPropertyOp2
 70
     1
102
RTVSPropertyOp3
 70
     1
102
RTVSPropertyOp4
 70
     1
102
RTVSPropertyOp5
 70
     1
102
RTVSPropertyOp6
 70
     1
102
RTVSPropertyOp7
 70
     1
102
RTVSPropertyOp8
 70
     1
102
RTVSPropertyOp9
 70
     1
102
RTVSPropertyOp10
 70
     1
102
RTVSPropertyOp11
 70
     1
102
RTVSPropertyOp12
 70
     1
102
RTVSPropertyOp13
 70
     1
102
RTVSPropertyOp14
 70
     1
102
RTVSPropertyOp15
 70
     1
102
RTVSPropertyOp16
 70
     1
102
RTVSPropertyOp17
 70
     1
102
RTVSPropertyOp18
 70
     1
102
RTVSPropertyOp19
 70
     1
102
RTVSPropertyOp20
 70
     1
102
RTVSPropertyOp21
 70
     1
102
RTVSPropertyOp22
 70
     1
102
RTVSPropertyOp23
 70
     1
102
RTVSPropertyOp24
 70
     1
102
RTVSPropertyOp25
 70
     1
102
RTVSPropertyOp26
 70
     1
102
RTVSPropertyOp27
 70
     1
102
RTVSPropertyOp28
 70
     1
102
RTVSPropertyOp29
 70
     1
102
RTVSPropertyOp30
 70
     1
102
RTVSPropertyOp31
 70
     1
102
RTVSPropertyOp32
 70
     1
102
RTVSPropertyOp33
 70
     1
102
RTVSPropertyOp34
 70
     1
102
RTVSPropertyOp35
 70
     1
102
RTVSPropertyOp36
 70
     1
102
RTVSPropertyOp37
 70
     1
102
RTVSPropertyOp38
 70
     1
102
RTVSPropertyOp39
 70
     1
102
RTVSPropertyOp40
 70
     1
102
RTVSPropertyOp41
 70
     1
102
RTVSPropertyOp42
 70
     1
102
RTVSPropertyOp43
 70
     1
102
RTVSPropertyOp44
 70
     1
102
RTVSPropertyOp45
 70
     1
102
RTVSPropertyOp46
 70
     1
102
RTVSPropertyOp47
 70
     1
102
RTVSPropertyOp48
 70
     1
102
RTVSPropertyOp49
 70
     1
102
RTVSPropertyOp50
 70
     1
102
RTVSPropertyOp51
 70
     0
102
RTVSPropertyOp52
 70
     0
102
RTVSPropertyOp53
 70
     1
102
RTVSPropertyOp54
 70
     1
102
RTVSPropertyOp55
 70
     1
102
RTVSPropertyOp56
 70
     1
102
RTVSPropertyOp57
 70
     1
102
RTVSPost2010Prop28
280
     0
102
RTVSPost2010PropOp28
 70
     1
102
RTVSPost2010Prop29
280
     1
102
RTVSPost2010PropOp29
 70
     1
102
RTVSPost2010Prop30
280
     1
102
RTVSPost2010PropOp30
 70
     1
102
RTVSPost2010Prop31
280
     0
102
RTVSPost2010PropOp31
 70
     1
102
RTVSPost2010Prop32
280
     0
102
RTVSPost2010PropOp32
 70
     1
102
RTVSPost2010Prop33
280
     0
102
RTVSPost2010PropOp33
 70
     1
102
RTVSPost2010Prop34
280
     0
102
RTVSPost2010PropOp34
 70
     1
102
RTVSPost2010Prop35
280
     0
102
RTVSPost2010PropOp35
 70
     1
102
RTVSPost2010Prop36
280
     0
102
RTVSPost2010PropOp36
 70
     1
102
RTVSPost2010Prop37
 90
       50
102
RTVSPost2010PropOp37
 70
     1
102
RTVSPost2010Prop38
140
0.0
102
RTVSPost2010PropOp38
 70
     1
102
RTVSPost2010Prop39
140
1.0
102
RTVSPost2010PropOp39
 70
     1
102
RTVSPost2010Prop40
 90
        0
102
RTVSPost2010PropOp40
 70
     1
102
RTVSPost2010Prop41ColorIndex
 90
       18
102
RTVSPost2010Prop41ColorRGB
 90
        0
102
RTVSPost2010PropOp41
 70
     1
102
RTVSPost2010Prop42
 90
       50
102
RTVSPost2010PropOp42
 70
     1
102
RTVSPost2010Prop43
 90
        3
102
RTVSPost2010PropOp43
 70
     1
102
RTVSPost2010Prop44ColorIndex
 90
        5
102
RTVSPost2010Prop44ColorRGB
 90
      255
102
RTVSPost2010PropOp44
 70
     1
102
RTVSPost2010Prop45
280
     0
102
RTVSPost2010PropOp45
 70
     1
102
RTVSPost2010Prop46
 90
       50
102
RTVSPost2010PropOp46
 70
     1
102
RTVSPost2010Prop47
 90
       50
102
RTVSPost2010PropOp47
 70
     1
102
RTVSPost2010Prop48
 90
       50
102
RTVSPost2010PropOp48
 70
     1
102
RTVSPost2010Prop49
280
     0
102
RTVSPost2010PropOp49
 70
     1
102
RTVSPost2010Prop50
 90
       50
102
RTVSPost2010PropOp50
 70
     1
102
RTVSPost2010Prop51ColorIndex
 90
      256
102
RTVSPost2010Prop51ColorRGB
 90
-16777216
102
RTVSPost2010PropOp51
 70
     0
102
RTVSPost2010Prop52
140
1.0
102
RTVSPost2010PropOp52
 70
     0
102
RTVSPost2010Prop53
 90
        2
102
RTVSPost2010PropOp53
 70
     1
102
RTVSPost2010Prop54
  1
strokes_ogs.tif
102
RTVSPost2010PropOp54
 70
     1
102
RTVSPost2010Prop55
280
     0
102
RTVSPost2010PropOp55
 70
     1
102
RTVSPost2010Prop56
140
1.0
102
RTVSPost2010PropOp56
 70
     1
102
RTVSPost2010Prop57
140
1.0
102
RTVSPost2010PropOp57
 70
     1
  0
XRECORD
  5
106AD12
102
{ACAD_REACTORS
330
106AD11
102
}
330
106AD11
100
AcDbXrecord
280
     1
102
RTVSPropertyOp0
 70
     0
102
RTVSPropertyOp1
 70
     0
102
RTVSPropertyOp2
 70
     0
102
RTVSPropertyOp3
 70
     0
102
RTVSPropertyOp4
 70
     0
102
RTVSPropertyOp5
 70
     0
102
RTVSPropertyOp6
 70
     0
102
RTVSPropertyOp7
 70
     0
102
RTVSPropertyOp8
 70
     0
102
RTVSPropertyOp9
 70
     0
102
RTVSPropertyOp10
 70
     0
102
RTVSPropertyOp11
 70
     0
102
RTVSPropertyOp12
 70
     0
102
RTVSPropertyOp13
 70
     0
102
RTVSPropertyOp14
 70
     2
102
RTVSPropertyOp15
 70
     0
102
RTVSPropertyOp16
 70
     0
102
RTVSPropertyOp17
 70
     0
102
RTVSPropertyOp18
 70
     0
102
RTVSPropertyOp19
 70
     0
102
RTVSPropertyOp20
 70
     0
102
RTVSPropertyOp21
 70
     0
102
RTVSPropertyOp22
 70
     0
102
RTVSPropertyOp23
 70
     0
102
RTVSPropertyOp24
 70
     0
102
RTVSPropertyOp25
 70
     0
102
RTVSPropertyOp26
 70
     0
102
RTVSPropertyOp27
 70
     0
102
RTVSPropertyOp28
 70
     0
102
RTVSPropertyOp29
 70
     0
102
RTVSPropertyOp30
 70
     0
102
RTVSPropertyOp31
 70
     0
102
RTVSPropertyOp32
 70
     0
102
RTVSPropertyOp33
 70
     0
102
RTVSPropertyOp34
 70
     0
102
RTVSPropertyOp35
 70
     0
102
RTVSPropertyOp36
 70
     0
102
RTVSPropertyOp37
 70
     0
102
RTVSPropertyOp38
 70
     0
102
RTVSPropertyOp39
 70
     0
102
RTVSPropertyOp40
 70
     0
102
RTVSPropertyOp41
 70
     0
102
RTVSPropertyOp42
 70
     0
102
RTVSPropertyOp43
 70
     0
102
RTVSPropertyOp44
 70
     0
102
RTVSPropertyOp45
 70
     0
102
RTVSPropertyOp46
 70
     0
102
RTVSPropertyOp47
 70
     0
102
RTVSPropertyOp48
 70
     0
102
RTVSPropertyOp49
 70
     0
102
RTVSPropertyOp50
 70
     0
102
RTVSPropertyOp51
 70
     0
102
RTVSPropertyOp52
 70
     0
102
RTVSPropertyOp53
 70
     0
102
RTVSPropertyOp54
 70
     0
102
RTVSPropertyOp55
 70
     0
102
RTVSPropertyOp56
 70
     0
102
RTVSPropertyOp57
 70
     0
102
RTVSPost2010Prop28
280
     0
102
RTVSPost2010PropOp28
 70
     0
102
RTVSPost2010Prop29
280
     1
102
RTVSPost2010PropOp29
 70
     0
102
RTVSPost2010Prop30
280
     1
102
RTVSPost2010PropOp30
 70
     0
102
RTVSPost2010Prop31
280
     0
102
RTVSPost2010PropOp31
 70
     0
102
RTVSPost2010Prop32
280
     0
102
RTVSPost2010PropOp32
 70
     0
102
RTVSPost2010Prop33
280
     0
102
RTVSPost2010PropOp33
 70
     0
102
RTVSPost2010Prop34
280
     0
102
RTVSPost2010PropOp34
 70
     0
102
RTVSPost2010Prop35
280
     0
102
RTVSPost2010PropOp35
 70
     0
102
RTVSPost2010Prop36
280
     0
102
RTVSPost2010PropOp36
 70
     0
102
RTVSPost2010Prop37
 90
       50
102
RTVSPost2010PropOp37
 70
     0
102
RTVSPost2010Prop38
140
0.0
102
RTVSPost2010PropOp38
 70
     0
102
RTVSPost2010Prop39
140
1.0
102
RTVSPost2010PropOp39
 70
     0
102
RTVSPost2010Prop40
 90
        0
102
RTVSPost2010PropOp40
 70
     0
102
RTVSPost2010Prop41ColorIndex
 90
       18
102
RTVSPost2010Prop41ColorRGB
 90
        0
102
RTVSPost2010PropOp41
 70
     0
102
RTVSPost2010Prop42
 90
       50
102
RTVSPost2010PropOp42
 70
     0
102
RTVSPost2010Prop43
 90
        3
102
RTVSPost2010PropOp43
 70
     0
102
RTVSPost2010Prop44ColorIndex
 90
        5
102
RTVSPost2010Prop44ColorRGB
 90
      255
102
RTVSPost2010PropOp44
 70
     0
102
RTVSPost2010Prop45
280
     0
102
RTVSPost2010PropOp45
 70
     0
102
RTVSPost2010Prop46
 90
       50
102
RTVSPost2010PropOp46
 70
     0
102
RTVSPost2010Prop47
 90
       50
102
RTVSPost2010PropOp47
 70
     0
102
RTVSPost2010Prop48
 90
       50
102
RTVSPost2010PropOp48
 70
     0
102
RTVSPost2010Prop49
280
     0
102
RTVSPost2010PropOp49
 70
     0
102
RTVSPost2010Prop50
 90
       50
102
RTVSPost2010PropOp50
 70
     0
102
RTVSPost2010Prop51ColorIndex
 90
      256
102
RTVSPost2010Prop51ColorRGB
 90
-16777216
102
RTVSPost2010PropOp51
 70
     0
102
RTVSPost2010Prop52
140
1.0
102
RTVSPost2010PropOp52
 70
     0
102
RTVSPost2010Prop53
 90
        2
102
RTVSPost2010PropOp53
 70
     0
102
RTVSPost2010Prop54
  1
strokes_ogs.tif
102
RTVSPost2010PropOp54
 70
     0
102
RTVSPost2010Prop55
280
     0
102
RTVSPost2010PropOp55
 70
     0
102
RTVSPost2010Prop56
140
1.0
102
RTVSPost2010PropOp56
 70
     0
102
RTVSPost2010Prop57
140
1.0
102
RTVSPost2010PropOp57
 70
     0
  0
XRECORD
  5
106AD14
102
{ACAD_REACTORS
330
106AD13
102
}
330
106AD13
100
AcDbXrecord
280
     1
102
RTVSPropertyOp0
 70
     1
102
RTVSPropertyOp1
 70
     1
102
RTVSPropertyOp2
 70
     1
102
RTVSPropertyOp3
 70
     1
102
RTVSPropertyOp4
 70
     1
102
RTVSPropertyOp5
 70
     1
102
RTVSPropertyOp6
 70
     1
102
RTVSPropertyOp7
 70
     1
102
RTVSPropertyOp8
 70
     1
102
RTVSPropertyOp9
 70
     1
102
RTVSPropertyOp10
 70
     1
102
RTVSPropertyOp11
 70
     1
102
RTVSPropertyOp12
 70
     1
102
RTVSPropertyOp13
 70
     1
102
RTVSPropertyOp14
 70
     1
102
RTVSPropertyOp15
 70
     1
102
RTVSPropertyOp16
 70
     1
102
RTVSPropertyOp17
 70
     1
102
RTVSPropertyOp18
 70
     1
102
RTVSPropertyOp19
 70
     1
102
RTVSPropertyOp20
 70
     1
102
RTVSPropertyOp21
 70
     1
102
RTVSPropertyOp22
 70
     1
102
RTVSPropertyOp23
 70
     1
102
RTVSPropertyOp24
 70
     1
102
RTVSPropertyOp25
 70
     1
102
RTVSPropertyOp26
 70
     1
102
RTVSPropertyOp27
 70
     1
102
RTVSPropertyOp28
 70
     1
102
RTVSPropertyOp29
 70
     1
102
RTVSPropertyOp30
 70
     1
102
RTVSPropertyOp31
 70
     1
102
RTVSPropertyOp32
 70
     1
102
RTVSPropertyOp33
 70
     1
102
RTVSPropertyOp34
 70
     1
102
RTVSPropertyOp35
 70
     1
102
RTVSPropertyOp36
 70
     1
102
RTVSPropertyOp37
 70
     1
102
RTVSPropertyOp38
 70
     1
102
RTVSPropertyOp39
 70
     1
102
RTVSPropertyOp40
 70
     1
102
RTVSPropertyOp41
 70
     1
102
RTVSPropertyOp42
 70
     1
102
RTVSPropertyOp43
 70
     1
102
RTVSPropertyOp44
 70
     1
102
RTVSPropertyOp45
 70
     1
102
RTVSPropertyOp46
 70
     1
102
RTVSPropertyOp47
 70
     1
102
RTVSPropertyOp48
 70
     1
102
RTVSPropertyOp49
 70
     1
102
RTVSPropertyOp50
 70
     1
102
RTVSPropertyOp51
 70
     0
102
RTVSPropertyOp52
 70
     0
102
RTVSPropertyOp53
 70
     1
102
RTVSPropertyOp54
 70
     1
102
RTVSPropertyOp55
 70
     1
102
RTVSPropertyOp56
 70
     1
102
RTVSPropertyOp57
 70
     1
102
RTVSPost2010Prop28
280
     0
102
RTVSPost2010PropOp28
 70
     1
102
RTVSPost2010Prop29
280
     1
102
RTVSPost2010PropOp29
 70
     1
102
RTVSPost2010Prop30
280
     1
102
RTVSPost2010PropOp30
 70
     1
102
RTVSPost2010Prop31
280
     0
102
RTVSPost2010PropOp31
 70
     1
102
RTVSPost2010Prop32
280
     0
102
RTVSPost2010PropOp32
 70
     1
102
RTVSPost2010Prop33
280
     0
102
RTVSPost2010PropOp33
 70
     1
102
RTVSPost2010Prop34
280
     0
102
RTVSPost2010PropOp34
 70
     1
102
RTVSPost2010Prop35
280
     0
102
RTVSPost2010PropOp35
 70
     1
102
RTVSPost2010Prop36
280
     0
102
RTVSPost2010PropOp36
 70
     1
102
RTVSPost2010Prop37
 90
       50
102
RTVSPost2010PropOp37
 70
     1
102
RTVSPost2010Prop38
140
0.0
102
RTVSPost2010PropOp38
 70
     1
102
RTVSPost2010Prop39
140
1.0
102
RTVSPost2010PropOp39
 70
     1
102
RTVSPost2010Prop40
 90
        0
102
RTVSPost2010PropOp40
 70
     1
102
RTVSPost2010Prop41ColorIndex
 90
       18
102
RTVSPost2010Prop41ColorRGB
 90
        0
102
RTVSPost2010PropOp41
 70
     1
102
RTVSPost2010Prop42
 90
       50
102
RTVSPost2010PropOp42
 70
     1
102
RTVSPost2010Prop43
 90
        3
102
RTVSPost2010PropOp43
 70
     1
102
RTVSPost2010Prop44ColorIndex
 90
        5
102
RTVSPost2010Prop44ColorRGB
 90
      255
102
RTVSPost2010PropOp44
 70
     1
102
RTVSPost2010Prop45
280
     0
102
RTVSPost2010PropOp45
 70
     1
102
RTVSPost2010Prop46
 90
       50
102
RTVSPost2010PropOp46
 70
     1
102
RTVSPost2010Prop47
 90
       50
102
RTVSPost2010PropOp47
 70
     1
102
RTVSPost2010Prop48
 90
       50
102
RTVSPost2010PropOp48
 70
     1
102
RTVSPost2010Prop49
280
     0
102
RTVSPost2010PropOp49
 70
     1
102
RTVSPost2010Prop50
 90
       50
102
RTVSPost2010PropOp50
 70
     1
102
RTVSPost2010Prop51ColorIndex
 90
      256
102
RTVSPost2010Prop51ColorRGB
 90
-16777216
102
RTVSPost2010PropOp51
 70
     0
102
RTVSPost2010Prop52
140
1.0
102
RTVSPost2010PropOp52
 70
     0
102
RTVSPost2010Prop53
 90
        2
102
RTVSPost2010PropOp53
 70
     1
102
RTVSPost2010Prop54
  1
strokes_ogs.tif
102
RTVSPost2010PropOp54
 70
     1
102
RTVSPost2010Prop55
280
     0
102
RTVSPost2010PropOp55
 70
     1
102
RTVSPost2010Prop56
140
1.0
102
RTVSPost2010PropOp56
 70
     1
102
RTVSPost2010Prop57
140
1.0
102
RTVSPost2010PropOp57
 70
     1
  0
XRECORD
  5
106AD16
102
{ACAD_REACTORS
330
106AD15
102
}
330
106AD15
100
AcDbXrecord
280
     1
102
RTVSPropertyOp0
 70
     0
102
RTVSPropertyOp1
 70
     0
102
RTVSPropertyOp2
 70
     0
102
RTVSPropertyOp3
 70
     0
102
RTVSPropertyOp4
 70
     0
102
RTVSPropertyOp5
 70
     0
102
RTVSPropertyOp6
 70
     0
102
RTVSPropertyOp7
 70
     0
102
RTVSPropertyOp8
 70
     0
102
RTVSPropertyOp9
 70
     0
102
RTVSPropertyOp10
 70
     0
102
RTVSPropertyOp11
 70
     0
102
RTVSPropertyOp12
 70
     0
102
RTVSPropertyOp13
 70
     0
102
RTVSPropertyOp14
 70
     2
102
RTVSPropertyOp15
 70
     0
102
RTVSPropertyOp16
 70
     0
102
RTVSPropertyOp17
 70
     0
102
RTVSPropertyOp18
 70
     0
102
RTVSPropertyOp19
 70
     0
102
RTVSPropertyOp20
 70
     0
102
RTVSPropertyOp21
 70
     0
102
RTVSPropertyOp22
 70
     0
102
RTVSPropertyOp23
 70
     0
102
RTVSPropertyOp24
 70
     0
102
RTVSPropertyOp25
 70
     0
102
RTVSPropertyOp26
 70
     0
102
RTVSPropertyOp27
 70
     0
102
RTVSPropertyOp28
 70
     0
102
RTVSPropertyOp29
 70
     0
102
RTVSPropertyOp30
 70
     0
102
RTVSPropertyOp31
 70
     0
102
RTVSPropertyOp32
 70
     0
102
RTVSPropertyOp33
 70
     0
102
RTVSPropertyOp34
 70
     0
102
RTVSPropertyOp35
 70
     0
102
RTVSPropertyOp36
 70
     0
102
RTVSPropertyOp37
 70
     0
102
RTVSPropertyOp38
 70
     0
102
RTVSPropertyOp39
 70
     0
102
RTVSPropertyOp40
 70
     0
102
RTVSPropertyOp41
 70
     0
102
RTVSPropertyOp42
 70
     0
102
RTVSPropertyOp43
 70
     0
102
RTVSPropertyOp44
 70
     0
102
RTVSPropertyOp45
 70
     0
102
RTVSPropertyOp46
 70
     0
102
RTVSPropertyOp47
 70
     0
102
RTVSPropertyOp48
 70
     0
102
RTVSPropertyOp49
 70
     0
102
RTVSPropertyOp50
 70
     0
102
RTVSPropertyOp51
 70
     0
102
RTVSPropertyOp52
 70
     0
102
RTVSPropertyOp53
 70
     0
102
RTVSPropertyOp54
 70
     0
102
RTVSPropertyOp55
 70
     0
102
RTVSPropertyOp56
 70
     0
102
RTVSPropertyOp57
 70
     0
102
RTVSPost2010Prop28
280
     0
102
RTVSPost2010PropOp28
 70
     0
102
RTVSPost2010Prop29
280
     1
102
RTVSPost2010PropOp29
 70
     0
102
RTVSPost2010Prop30
280
     1
102
RTVSPost2010PropOp30
 70
     0
102
RTVSPost2010Prop31
280
     0
102
RTVSPost2010PropOp31
 70
     0
102
RTVSPost2010Prop32
280
     0
102
RTVSPost2010PropOp32
 70
     0
102
RTVSPost2010Prop33
280
     0
102
RTVSPost2010PropOp33
 70
     0
102
RTVSPost2010Prop34
280
     0
102
RTVSPost2010PropOp34
 70
     0
102
RTVSPost2010Prop35
280
     0
102
RTVSPost2010PropOp35
 70
     0
102
RTVSPost2010Prop36
280
     0
102
RTVSPost2010PropOp36
 70
     0
102
RTVSPost2010Prop37
 90
       50
102
RTVSPost2010PropOp37
 70
     0
102
RTVSPost2010Prop38
140
0.0
102
RTVSPost2010PropOp38
 70
     0
102
RTVSPost2010Prop39
140
1.0
102
RTVSPost2010PropOp39
 70
     0
102
RTVSPost2010Prop40
 90
        0
102
RTVSPost2010PropOp40
 70
     0
102
RTVSPost2010Prop41ColorIndex
 90
       18
102
RTVSPost2010Prop41ColorRGB
 90
        0
102
RTVSPost2010PropOp41
 70
     0
102
RTVSPost2010Prop42
 90
       50
102
RTVSPost2010PropOp42
 70
     0
102
RTVSPost2010Prop43
 90
        3
102
RTVSPost2010PropOp43
 70
     0
102
RTVSPost2010Prop44ColorIndex
 90
        5
102
RTVSPost2010Prop44ColorRGB
 90
      255
102
RTVSPost2010PropOp44
 70
     0
102
RTVSPost2010Prop45
280
     0
102
RTVSPost2010PropOp45
 70
     0
102
RTVSPost2010Prop46
 90
       50
102
RTVSPost2010PropOp46
 70
     0
102
RTVSPost2010Prop47
 90
       50
102
RTVSPost2010PropOp47
 70
     0
102
RTVSPost2010Prop48
 90
       50
102
RTVSPost2010PropOp48
 70
     0
102
RTVSPost2010Prop49
280
     0
102
RTVSPost2010PropOp49
 70
     0
102
RTVSPost2010Prop50
 90
       50
102
RTVSPost2010PropOp50
 70
     0
102
RTVSPost2010Prop51ColorIndex
 90
      256
102
RTVSPost2010Prop51ColorRGB
 90
-16777216
102
RTVSPost2010PropOp51
 70
     0
102
RTVSPost2010Prop52
140
1.0
102
RTVSPost2010PropOp52
 70
     0
102
RTVSPost2010Prop53
 90
        2
102
RTVSPost2010PropOp53
 70
     0
102
RTVSPost2010Prop54
  1
strokes_ogs.tif
102
RTVSPost2010PropOp54
 70
     0
102
RTVSPost2010Prop55
280
     0
102
RTVSPost2010PropOp55
 70
     0
102
RTVSPost2010Prop56
140
1.0
102
RTVSPost2010PropOp56
 70
     0
102
RTVSPost2010Prop57
140
1.0
102
RTVSPost2010PropOp57
 70
     0
  0
XRECORD
  5
106AD18
102
{ACAD_REACTORS
330
106AD17
102
}
330
106AD17
100
AcDbXrecord
280
     1
102
RTVSPropertyOp0
 70
     1
102
RTVSPropertyOp1
 70
     1
102
RTVSPropertyOp2
 70
     1
102
RTVSPropertyOp3
 70
     1
102
RTVSPropertyOp4
 70
     1
102
RTVSPropertyOp5
 70
     1
102
RTVSPropertyOp6
 70
     1
102
RTVSPropertyOp7
 70
     1
102
RTVSPropertyOp8
 70
     1
102
RTVSPropertyOp9
 70
     1
102
RTVSPropertyOp10
 70
     1
102
RTVSPropertyOp11
 70
     1
102
RTVSPropertyOp12
 70
     1
102
RTVSPropertyOp13
 70
     1
102
RTVSPropertyOp14
 70
     1
102
RTVSPropertyOp15
 70
     1
102
RTVSPropertyOp16
 70
     1
102
RTVSPropertyOp17
 70
     1
102
RTVSPropertyOp18
 70
     1
102
RTVSPropertyOp19
 70
     1
102
RTVSPropertyOp20
 70
     1
102
RTVSPropertyOp21
 70
     1
102
RTVSPropertyOp22
 70
     1
102
RTVSPropertyOp23
 70
     1
102
RTVSPropertyOp24
 70
     1
102
RTVSPropertyOp25
 70
     1
102
RTVSPropertyOp26
 70
     1
102
RTVSPropertyOp27
 70
     1
102
RTVSPropertyOp28
 70
     1
102
RTVSPropertyOp29
 70
     1
102
RTVSPropertyOp30
 70
     1
102
RTVSPropertyOp31
 70
     1
102
RTVSPropertyOp32
 70
     1
102
RTVSPropertyOp33
 70
     1
102
RTVSPropertyOp34
 70
     1
102
RTVSPropertyOp35
 70
     1
102
RTVSPropertyOp36
 70
     1
102
RTVSPropertyOp37
 70
     1
102
RTVSPropertyOp38
 70
     1
102
RTVSPropertyOp39
 70
     1
102
RTVSPropertyOp40
 70
     1
102
RTVSPropertyOp41
 70
     1
102
RTVSPropertyOp42
 70
     1
102
RTVSPropertyOp43
 70
     1
102
RTVSPropertyOp44
 70
     1
102
RTVSPropertyOp45
 70
     1
102
RTVSPropertyOp46
 70
     1
102
RTVSPropertyOp47
 70
     1
102
RTVSPropertyOp48
 70
     1
102
RTVSPropertyOp49
 70
     1
102
RTVSPropertyOp50
 70
     1
102
RTVSPropertyOp51
 70
     0
102
RTVSPropertyOp52
 70
     0
102
RTVSPropertyOp53
 70
     1
102
RTVSPropertyOp54
 70
     1
102
RTVSPropertyOp55
 70
     1
102
RTVSPropertyOp56
 70
     1
102
RTVSPropertyOp57
 70
     1
102
RTVSPost2010Prop28
280
     0
102
RTVSPost2010PropOp28
 70
     1
102
RTVSPost2010Prop29
280
     1
102
RTVSPost2010PropOp29
 70
     1
102
RTVSPost2010Prop30
280
     1
102
RTVSPost2010PropOp30
 70
     1
102
RTVSPost2010Prop31
280
     0
102
RTVSPost2010PropOp31
 70
     1
102
RTVSPost2010Prop32
280
     0
102
RTVSPost2010PropOp32
 70
     1
102
RTVSPost2010Prop33
280
     0
102
RTVSPost2010PropOp33
 70
     1
102
RTVSPost2010Prop34
280
     0
102
RTVSPost2010PropOp34
 70
     1
102
RTVSPost2010Prop35
280
     0
102
RTVSPost2010PropOp35
 70
     1
102
RTVSPost2010Prop36
280
     0
102
RTVSPost2010PropOp36
 70
     1
102
RTVSPost2010Prop37
 90
       50
102
RTVSPost2010PropOp37
 70
     1
102
RTVSPost2010Prop38
140
0.0
102
RTVSPost2010PropOp38
 70
     1
102
RTVSPost2010Prop39
140
1.0
102
RTVSPost2010PropOp39
 70
     1
102
RTVSPost2010Prop40
 90
        0
102
RTVSPost2010PropOp40
 70
     1
102
RTVSPost2010Prop41ColorIndex
 90
       18
102
RTVSPost2010Prop41ColorRGB
 90
        0
102
RTVSPost2010PropOp41
 70
     1
102
RTVSPost2010Prop42
 90
       50
102
RTVSPost2010PropOp42
 70
     1
102
RTVSPost2010Prop43
 90
        3
102
RTVSPost2010PropOp43
 70
     1
102
RTVSPost2010Prop44ColorIndex
 90
        5
102
RTVSPost2010Prop44ColorRGB
 90
      255
102
RTVSPost2010PropOp44
 70
     1
102
RTVSPost2010Prop45
280
     0
102
RTVSPost2010PropOp45
 70
     1
102
RTVSPost2010Prop46
 90
       50
102
RTVSPost2010PropOp46
 70
     1
102
RTVSPost2010Prop47
 90
       50
102
RTVSPost2010PropOp47
 70
     1
102
RTVSPost2010Prop48
 90
       50
102
RTVSPost2010PropOp48
 70
     1
102
RTVSPost2010Prop49
280
     0
102
RTVSPost2010PropOp49
 70
     1
102
RTVSPost2010Prop50
 90
       50
102
RTVSPost2010PropOp50
 70
     1
102
RTVSPost2010Prop51ColorIndex
 90
      256
102
RTVSPost2010Prop51ColorRGB
 90
-16777216
102
RTVSPost2010PropOp51
 70
     0
102
RTVSPost2010Prop52
140
1.0
102
RTVSPost2010PropOp52
 70
     0
102
RTVSPost2010Prop53
 90
        2
102
RTVSPost2010PropOp53
 70
     1
102
RTVSPost2010Prop54
  1
strokes_ogs.tif
102
RTVSPost2010PropOp54
 70
     1
102
RTVSPost2010Prop55
280
     0
102
RTVSPost2010PropOp55
 70
     1
102
RTVSPost2010Prop56
140
1.0
102
RTVSPost2010PropOp56
 70
     1
102
RTVSPost2010Prop57
140
1.0
102
RTVSPost2010PropOp57
 70
     1
  0
XRECORD
  5
106AD1A
102
{ACAD_REACTORS
330
106AD19
102
}
330
106AD19
100
AcDbXrecord
280
     1
102
RTVSPropertyOp0
 70
     1
102
RTVSPropertyOp1
 70
     1
102
RTVSPropertyOp2
 70
     1
102
RTVSPropertyOp3
 70
     1
102
RTVSPropertyOp4
 70
     1
102
RTVSPropertyOp5
 70
     1
102
RTVSPropertyOp6
 70
     1
102
RTVSPropertyOp7
 70
     1
102
RTVSPropertyOp8
 70
     1
102
RTVSPropertyOp9
 70
     1
102
RTVSPropertyOp10
 70
     1
102
RTVSPropertyOp11
 70
     1
102
RTVSPropertyOp12
 70
     1
102
RTVSPropertyOp13
 70
     1
102
RTVSPropertyOp14
 70
     1
102
RTVSPropertyOp15
 70
     1
102
RTVSPropertyOp16
 70
     1
102
RTVSPropertyOp17
 70
     1
102
RTVSPropertyOp18
 70
     1
102
RTVSPropertyOp19
 70
     1
102
RTVSPropertyOp20
 70
     1
102
RTVSPropertyOp21
 70
     1
102
RTVSPropertyOp22
 70
     1
102
RTVSPropertyOp23
 70
     1
102
RTVSPropertyOp24
 70
     1
102
RTVSPropertyOp25
 70
     1
102
RTVSPropertyOp26
 70
     1
102
RTVSPropertyOp27
 70
     1
102
RTVSPropertyOp28
 70
     1
102
RTVSPropertyOp29
 70
     1
102
RTVSPropertyOp30
 70
     1
102
RTVSPropertyOp31
 70
     1
102
RTVSPropertyOp32
 70
     1
102
RTVSPropertyOp33
 70
     1
102
RTVSPropertyOp34
 70
     1
102
RTVSPropertyOp35
 70
     1
102
RTVSPropertyOp36
 70
     1
102
RTVSPropertyOp37
 70
     1
102
RTVSPropertyOp38
 70
     1
102
RTVSPropertyOp39
 70
     1
102
RTVSPropertyOp40
 70
     1
102
RTVSPropertyOp41
 70
     1
102
RTVSPropertyOp42
 70
     1
102
RTVSPropertyOp43
 70
     1
102
RTVSPropertyOp44
 70
     1
102
RTVSPropertyOp45
 70
     1
102
RTVSPropertyOp46
 70
     1
102
RTVSPropertyOp47
 70
     1
102
RTVSPropertyOp48
 70
     1
102
RTVSPropertyOp49
 70
     1
102
RTVSPropertyOp50
 70
     1
102
RTVSPropertyOp51
 70
     0
102
RTVSPropertyOp52
 70
     0
102
RTVSPropertyOp53
 70
     1
102
RTVSPropertyOp54
 70
     1
102
RTVSPropertyOp55
 70
     1
102
RTVSPropertyOp56
 70
     1
102
RTVSPropertyOp57
 70
     1
102
RTVSPost2010Prop28
280
     0
102
RTVSPost2010PropOp28
 70
     1
102
RTVSPost2010Prop29
280
     1
102
RTVSPost2010PropOp29
 70
     1
102
RTVSPost2010Prop30
280
     1
102
RTVSPost2010PropOp30
 70
     1
102
RTVSPost2010Prop31
280
     0
102
RTVSPost2010PropOp31
 70
     1
102
RTVSPost2010Prop32
280
     0
102
RTVSPost2010PropOp32
 70
     1
102
RTVSPost2010Prop33
280
     0
102
RTVSPost2010PropOp33
 70
     1
102
RTVSPost2010Prop34
280
     0
102
RTVSPost2010PropOp34
 70
     1
102
RTVSPost2010Prop35
280
     0
102
RTVSPost2010PropOp35
 70
     1
102
RTVSPost2010Prop36
280
     0
102
RTVSPost2010PropOp36
 70
     1
102
RTVSPost2010Prop37
 90
       50
102
RTVSPost2010PropOp37
 70
     1
102
RTVSPost2010Prop38
140
0.0
102
RTVSPost2010PropOp38
 70
     1
102
RTVSPost2010Prop39
140
1.0
102
RTVSPost2010PropOp39
 70
     1
102
RTVSPost2010Prop40
 90
        0
102
RTVSPost2010PropOp40
 70
     1
102
RTVSPost2010Prop41ColorIndex
 90
       18
102
RTVSPost2010Prop41ColorRGB
 90
        0
102
RTVSPost2010PropOp41
 70
     1
102
RTVSPost2010Prop42
 90
       50
102
RTVSPost2010PropOp42
 70
     1
102
RTVSPost2010Prop43
 90
        3
102
RTVSPost2010PropOp43
 70
     1
102
RTVSPost2010Prop44ColorIndex
 90
        5
102
RTVSPost2010Prop44ColorRGB
 90
      255
102
RTVSPost2010PropOp44
 70
     1
102
RTVSPost2010Prop45
280
     0
102
RTVSPost2010PropOp45
 70
     1
102
RTVSPost2010Prop46
 90
       50
102
RTVSPost2010PropOp46
 70
     1
102
RTVSPost2010Prop47
 90
       50
102
RTVSPost2010PropOp47
 70
     1
102
RTVSPost2010Prop48
 90
       50
102
RTVSPost2010PropOp48
 70
     1
102
RTVSPost2010Prop49
280
     0
102
RTVSPost2010PropOp49
 70
     1
102
RTVSPost2010Prop50
 90
       50
102
RTVSPost2010PropOp50
 70
     1
102
RTVSPost2010Prop51ColorIndex
 90
      256
102
RTVSPost2010Prop51ColorRGB
 90
-16777216
102
RTVSPost2010PropOp51
 70
     0
102
RTVSPost2010Prop52
140
1.0
102
RTVSPost2010PropOp52
 70
     0
102
RTVSPost2010Prop53
 90
        2
102
RTVSPost2010PropOp53
 70
     1
102
RTVSPost2010Prop54
  1
strokes_ogs.tif
102
RTVSPost2010PropOp54
 70
     1
102
RTVSPost2010Prop55
280
     0
102
RTVSPost2010PropOp55
 70
     1
102
RTVSPost2010Prop56
140
1.0
102
RTVSPost2010PropOp56
 70
     1
102
RTVSPost2010Prop57
140
1.0
102
RTVSPost2010PropOp57
 70
     1
  0
XRECORD
  5
106AD1C
102
{ACAD_REACTORS
330
106AD1B
102
}
330
106AD1B
100
AcDbXrecord
280
     1
102
RTVSPropertyOp0
 70
     1
102
RTVSPropertyOp1
 70
     1
102
RTVSPropertyOp2
 70
     1
102
RTVSPropertyOp3
 70
     1
102
RTVSPropertyOp4
 70
     1
102
RTVSPropertyOp5
 70
     1
102
RTVSPropertyOp6
 70
     1
102
RTVSPropertyOp7
 70
     1
102
RTVSPropertyOp8
 70
     1
102
RTVSPropertyOp9
 70
     1
102
RTVSPropertyOp10
 70
     1
102
RTVSPropertyOp11
 70
     1
102
RTVSPropertyOp12
 70
     1
102
RTVSPropertyOp13
 70
     1
102
RTVSPropertyOp14
 70
     1
102
RTVSPropertyOp15
 70
     1
102
RTVSPropertyOp16
 70
     1
102
RTVSPropertyOp17
 70
     1
102
RTVSPropertyOp18
 70
     1
102
RTVSPropertyOp19
 70
     1
102
RTVSPropertyOp20
 70
     1
102
RTVSPropertyOp21
 70
     1
102
RTVSPropertyOp22
 70
     1
102
RTVSPropertyOp23
 70
     1
102
RTVSPropertyOp24
 70
     1
102
RTVSPropertyOp25
 70
     1
102
RTVSPropertyOp26
 70
     1
102
RTVSPropertyOp27
 70
     1
102
RTVSPropertyOp28
 70
     1
102
RTVSPropertyOp29
 70
     1
102
RTVSPropertyOp30
 70
     1
102
RTVSPropertyOp31
 70
     1
102
RTVSPropertyOp32
 70
     1
102
RTVSPropertyOp33
 70
     1
102
RTVSPropertyOp34
 70
     1
102
RTVSPropertyOp35
 70
     1
102
RTVSPropertyOp36
 70
     1
102
RTVSPropertyOp37
 70
     1
102
RTVSPropertyOp38
 70
     1
102
RTVSPropertyOp39
 70
     1
102
RTVSPropertyOp40
 70
     1
102
RTVSPropertyOp41
 70
     1
102
RTVSPropertyOp42
 70
     1
102
RTVSPropertyOp43
 70
     1
102
RTVSPropertyOp44
 70
     1
102
RTVSPropertyOp45
 70
     1
102
RTVSPropertyOp46
 70
     1
102
RTVSPropertyOp47
 70
     1
102
RTVSPropertyOp48
 70
     1
102
RTVSPropertyOp49
 70
     1
102
RTVSPropertyOp50
 70
     1
102
RTVSPropertyOp51
 70
     0
102
RTVSPropertyOp52
 70
     0
102
RTVSPropertyOp53
 70
     1
102
RTVSPropertyOp54
 70
     1
102
RTVSPropertyOp55
 70
     1
102
RTVSPropertyOp56
 70
     1
102
RTVSPropertyOp57
 70
     1
102
RTVSPost2010Prop28
280
     0
102
RTVSPost2010PropOp28
 70
     1
102
RTVSPost2010Prop29
280
     1
102
RTVSPost2010PropOp29
 70
     1
102
RTVSPost2010Prop30
280
     1
102
RTVSPost2010PropOp30
 70
     1
102
RTVSPost2010Prop31
280
     0
102
RTVSPost2010PropOp31
 70
     1
102
RTVSPost2010Prop32
280
     0
102
RTVSPost2010PropOp32
 70
     1
102
RTVSPost2010Prop33
280
     0
102
RTVSPost2010PropOp33
 70
     1
102
RTVSPost2010Prop34
280
     0
102
RTVSPost2010PropOp34
 70
     1
102
RTVSPost2010Prop35
280
     0
102
RTVSPost2010PropOp35
 70
     1
102
RTVSPost2010Prop36
280
     0
102
RTVSPost2010PropOp36
 70
     1
102
RTVSPost2010Prop37
 90
       50
102
RTVSPost2010PropOp37
 70
     1
102
RTVSPost2010Prop38
140
0.0
102
RTVSPost2010PropOp38
 70
     1
102
RTVSPost2010Prop39
140
1.0
102
RTVSPost2010PropOp39
 70
     1
102
RTVSPost2010Prop40
 90
        0
102
RTVSPost2010PropOp40
 70
     1
102
RTVSPost2010Prop41ColorIndex
 90
       18
102
RTVSPost2010Prop41ColorRGB
 90
        0
102
RTVSPost2010PropOp41
 70
     1
102
RTVSPost2010Prop42
 90
       50
102
RTVSPost2010PropOp42
 70
     1
102
RTVSPost2010Prop43
 90
        3
102
RTVSPost2010PropOp43
 70
     1
102
RTVSPost2010Prop44ColorIndex
 90
        5
102
RTVSPost2010Prop44ColorRGB
 90
      255
102
RTVSPost2010PropOp44
 70
     1
102
RTVSPost2010Prop45
280
     0
102
RTVSPost2010PropOp45
 70
     1
102
RTVSPost2010Prop46
 90
       50
102
RTVSPost2010PropOp46
 70
     1
102
RTVSPost2010Prop47
 90
       50
102
RTVSPost2010PropOp47
 70
     1
102
RTVSPost2010Prop48
 90
       50
102
RTVSPost2010PropOp48
 70
     1
102
RTVSPost2010Prop49
280
     0
102
RTVSPost2010PropOp49
 70
     1
102
RTVSPost2010Prop50
 90
       50
102
RTVSPost2010PropOp50
 70
     1
102
RTVSPost2010Prop51ColorIndex
 90
      256
102
RTVSPost2010Prop51ColorRGB
 90
-16777216
102
RTVSPost2010PropOp51
 70
     0
102
RTVSPost2010Prop52
140
1.0
102
RTVSPost2010PropOp52
 70
     0
102
RTVSPost2010Prop53
 90
        2
102
RTVSPost2010PropOp53
 70
     1
102
RTVSPost2010Prop54
  1
strokes_ogs.tif
102
RTVSPost2010PropOp54
 70
     1
102
RTVSPost2010Prop55
280
     0
102
RTVSPost2010PropOp55
 70
     1
102
RTVSPost2010Prop56
140
1.0
102
RTVSPost2010PropOp56
 70
     1
102
RTVSPost2010Prop57
140
1.0
102
RTVSPost2010PropOp57
 70
     1
  0
XRECORD
  5
106AD1E
102
{ACAD_REACTORS
330
106AD1D
102
}
330
106AD1D
100
AcDbXrecord
280
     1
102
RTVSPropertyOp0
 70
     1
102
RTVSPropertyOp1
 70
     1
102
RTVSPropertyOp2
 70
     1
102
RTVSPropertyOp3
 70
     1
102
RTVSPropertyOp4
 70
     1
102
RTVSPropertyOp5
 70
     1
102
RTVSPropertyOp6
 70
     1
102
RTVSPropertyOp7
 70
     1
102
RTVSPropertyOp8
 70
     1
102
RTVSPropertyOp9
 70
     1
102
RTVSPropertyOp10
 70
     1
102
RTVSPropertyOp11
 70
     1
102
RTVSPropertyOp12
 70
     1
102
RTVSPropertyOp13
 70
     1
102
RTVSPropertyOp14
 70
     1
102
RTVSPropertyOp15
 70
     1
102
RTVSPropertyOp16
 70
     1
102
RTVSPropertyOp17
 70
     1
102
RTVSPropertyOp18
 70
     1
102
RTVSPropertyOp19
 70
     1
102
RTVSPropertyOp20
 70
     1
102
RTVSPropertyOp21
 70
     1
102
RTVSPropertyOp22
 70
     1
102
RTVSPropertyOp23
 70
     1
102
RTVSPropertyOp24
 70
     1
102
RTVSPropertyOp25
 70
     1
102
RTVSPropertyOp26
 70
     1
102
RTVSPropertyOp27
 70
     1
102
RTVSPropertyOp28
 70
     1
102
RTVSPropertyOp29
 70
     1
102
RTVSPropertyOp30
 70
     1
102
RTVSPropertyOp31
 70
     1
102
RTVSPropertyOp32
 70
     1
102
RTVSPropertyOp33
 70
     1
102
RTVSPropertyOp34
 70
     1
102
RTVSPropertyOp35
 70
     1
102
RTVSPropertyOp36
 70
     1
102
RTVSPropertyOp37
 70
     1
102
RTVSPropertyOp38
 70
     1
102
RTVSPropertyOp39
 70
     1
102
RTVSPropertyOp40
 70
     1
102
RTVSPropertyOp41
 70
     1
102
RTVSPropertyOp42
 70
     1
102
RTVSPropertyOp43
 70
     1
102
RTVSPropertyOp44
 70
     1
102
RTVSPropertyOp45
 70
     1
102
RTVSPropertyOp46
 70
     1
102
RTVSPropertyOp47
 70
     1
102
RTVSPropertyOp48
 70
     1
102
RTVSPropertyOp49
 70
     1
102
RTVSPropertyOp50
 70
     1
102
RTVSPropertyOp51
 70
     0
102
RTVSPropertyOp52
 70
     0
102
RTVSPropertyOp53
 70
     1
102
RTVSPropertyOp54
 70
     1
102
RTVSPropertyOp55
 70
     1
102
RTVSPropertyOp56
 70
     1
102
RTVSPropertyOp57
 70
     1
102
RTVSPost2010Prop28
280
     0
102
RTVSPost2010PropOp28
 70
     1
102
RTVSPost2010Prop29
280
     1
102
RTVSPost2010PropOp29
 70
     1
102
RTVSPost2010Prop30
280
     1
102
RTVSPost2010PropOp30
 70
     1
102
RTVSPost2010Prop31
280
     0
102
RTVSPost2010PropOp31
 70
     1
102
RTVSPost2010Prop32
280
     0
102
RTVSPost2010PropOp32
 70
     1
102
RTVSPost2010Prop33
280
     0
102
RTVSPost2010PropOp33
 70
     1
102
RTVSPost2010Prop34
280
     0
102
RTVSPost2010PropOp34
 70
     1
102
RTVSPost2010Prop35
280
     0
102
RTVSPost2010PropOp35
 70
     1
102
RTVSPost2010Prop36
280
     0
102
RTVSPost2010PropOp36
 70
     1
102
RTVSPost2010Prop37
 90
       50
102
RTVSPost2010PropOp37
 70
     1
102
RTVSPost2010Prop38
140
0.0
102
RTVSPost2010PropOp38
 70
     1
102
RTVSPost2010Prop39
140
1.0
102
RTVSPost2010PropOp39
 70
     1
102
RTVSPost2010Prop40
 90
        0
102
RTVSPost2010PropOp40
 70
     1
102
RTVSPost2010Prop41ColorIndex
 90
       18
102
RTVSPost2010Prop41ColorRGB
 90
        0
102
RTVSPost2010PropOp41
 70
     1
102
RTVSPost2010Prop42
 90
       50
102
RTVSPost2010PropOp42
 70
     1
102
RTVSPost2010Prop43
 90
        3
102
RTVSPost2010PropOp43
 70
     1
102
RTVSPost2010Prop44ColorIndex
 90
        5
102
RTVSPost2010Prop44ColorRGB
 90
      255
102
RTVSPost2010PropOp44
 70
     1
102
RTVSPost2010Prop45
280
     0
102
RTVSPost2010PropOp45
 70
     1
102
RTVSPost2010Prop46
 90
       50
102
RTVSPost2010PropOp46
 70
     1
102
RTVSPost2010Prop47
 90
       50
102
RTVSPost2010PropOp47
 70
     1
102
RTVSPost2010Prop48
 90
       50
102
RTVSPost2010PropOp48
 70
     1
102
RTVSPost2010Prop49
280
     0
102
RTVSPost2010PropOp49
 70
     1
102
RTVSPost2010Prop50
 90
       50
102
RTVSPost2010PropOp50
 70
     1
102
RTVSPost2010Prop51ColorIndex
 90
      256
102
RTVSPost2010Prop51ColorRGB
 90
-16777216
102
RTVSPost2010PropOp51
 70
     0
102
RTVSPost2010Prop52
140
1.0
102
RTVSPost2010PropOp52
 70
     0
102
RTVSPost2010Prop53
 90
        2
102
RTVSPost2010PropOp53
 70
     1
102
RTVSPost2010Prop54
  1
strokes_ogs.tif
102
RTVSPost2010PropOp54
 70
     1
102
RTVSPost2010Prop55
280
     0
102
RTVSPost2010PropOp55
 70
     1
102
RTVSPost2010Prop56
140
1.0
102
RTVSPost2010PropOp56
 70
     1
102
RTVSPost2010Prop57
140
1.0
102
RTVSPost2010PropOp57
 70
     1
  0
XRECORD
  5
106AD20
102
{ACAD_REACTORS
330
106AD1F
102
}
330
106AD1F
100
AcDbXrecord
280
     1
102
RTVSPropertyOp0
 70
     1
102
RTVSPropertyOp1
 70
     1
102
RTVSPropertyOp2
 70
     1
102
RTVSPropertyOp3
 70
     1
102
RTVSPropertyOp4
 70
     1
102
RTVSPropertyOp5
 70
     1
102
RTVSPropertyOp6
 70
     1
102
RTVSPropertyOp7
 70
     1
102
RTVSPropertyOp8
 70
     1
102
RTVSPropertyOp9
 70
     1
102
RTVSPropertyOp10
 70
     1
102
RTVSPropertyOp11
 70
     1
102
RTVSPropertyOp12
 70
     1
102
RTVSPropertyOp13
 70
     1
102
RTVSPropertyOp14
 70
     1
102
RTVSPropertyOp15
 70
     1
102
RTVSPropertyOp16
 70
     1
102
RTVSPropertyOp17
 70
     1
102
RTVSPropertyOp18
 70
     1
102
RTVSPropertyOp19
 70
     1
102
RTVSPropertyOp20
 70
     1
102
RTVSPropertyOp21
 70
     1
102
RTVSPropertyOp22
 70
     1
102
RTVSPropertyOp23
 70
     1
102
RTVSPropertyOp24
 70
     1
102
RTVSPropertyOp25
 70
     1
102
RTVSPropertyOp26
 70
     1
102
RTVSPropertyOp27
 70
     1
102
RTVSPropertyOp28
 70
     1
102
RTVSPropertyOp29
 70
     1
102
RTVSPropertyOp30
 70
     1
102
RTVSPropertyOp31
 70
     1
102
RTVSPropertyOp32
 70
     1
102
RTVSPropertyOp33
 70
     1
102
RTVSPropertyOp34
 70
     1
102
RTVSPropertyOp35
 70
     1
102
RTVSPropertyOp36
 70
     1
102
RTVSPropertyOp37
 70
     1
102
RTVSPropertyOp38
 70
     1
102
RTVSPropertyOp39
 70
     1
102
RTVSPropertyOp40
 70
     1
102
RTVSPropertyOp41
 70
     1
102
RTVSPropertyOp42
 70
     1
102
RTVSPropertyOp43
 70
     1
102
RTVSPropertyOp44
 70
     1
102
RTVSPropertyOp45
 70
     1
102
RTVSPropertyOp46
 70
     1
102
RTVSPropertyOp47
 70
     1
102
RTVSPropertyOp48
 70
     1
102
RTVSPropertyOp49
 70
     1
102
RTVSPropertyOp50
 70
     1
102
RTVSPropertyOp51
 70
     0
102
RTVSPropertyOp52
 70
     0
102
RTVSPropertyOp53
 70
     1
102
RTVSPropertyOp54
 70
     1
102
RTVSPropertyOp55
 70
     1
102
RTVSPropertyOp56
 70
     1
102
RTVSPropertyOp57
 70
     1
102
RTVSPost2010Prop28
280
     0
102
RTVSPost2010PropOp28
 70
     1
102
RTVSPost2010Prop29
280
     1
102
RTVSPost2010PropOp29
 70
     1
102
RTVSPost2010Prop30
280
     1
102
RTVSPost2010PropOp30
 70
     1
102
RTVSPost2010Prop31
280
     0
102
RTVSPost2010PropOp31
 70
     1
102
RTVSPost2010Prop32
280
     0
102
RTVSPost2010PropOp32
 70
     1
102
RTVSPost2010Prop33
280
     0
102
RTVSPost2010PropOp33
 70
     1
102
RTVSPost2010Prop34
280
     0
102
RTVSPost2010PropOp34
 70
     1
102
RTVSPost2010Prop35
280
     0
102
RTVSPost2010PropOp35
 70
     1
102
RTVSPost2010Prop36
280
     0
102
RTVSPost2010PropOp36
 70
     1
102
RTVSPost2010Prop37
 90
       50
102
RTVSPost2010PropOp37
 70
     1
102
RTVSPost2010Prop38
140
0.0
102
RTVSPost2010PropOp38
 70
     1
102
RTVSPost2010Prop39
140
1.0
102
RTVSPost2010PropOp39
 70
     1
102
RTVSPost2010Prop40
 90
        0
102
RTVSPost2010PropOp40
 70
     1
102
RTVSPost2010Prop41ColorIndex
 90
       18
102
RTVSPost2010Prop41ColorRGB
 90
        0
102
RTVSPost2010PropOp41
 70
     1
102
RTVSPost2010Prop42
 90
       50
102
RTVSPost2010PropOp42
 70
     1
102
RTVSPost2010Prop43
 90
        3
102
RTVSPost2010PropOp43
 70
     1
102
RTVSPost2010Prop44ColorIndex
 90
        5
102
RTVSPost2010Prop44ColorRGB
 90
      255
102
RTVSPost2010PropOp44
 70
     1
102
RTVSPost2010Prop45
280
     0
102
RTVSPost2010PropOp45
 70
     1
102
RTVSPost2010Prop46
 90
       50
102
RTVSPost2010PropOp46
 70
     1
102
RTVSPost2010Prop47
 90
       50
102
RTVSPost2010PropOp47
 70
     1
102
RTVSPost2010Prop48
 90
       50
102
RTVSPost2010PropOp48
 70
     1
102
RTVSPost2010Prop49
280
     0
102
RTVSPost2010PropOp49
 70
     1
102
RTVSPost2010Prop50
 90
       50
102
RTVSPost2010PropOp50
 70
     1
102
RTVSPost2010Prop51ColorIndex
 90
      256
102
RTVSPost2010Prop51ColorRGB
 90
-16777216
102
RTVSPost2010PropOp51
 70
     0
102
RTVSPost2010Prop52
140
1.0
102
RTVSPost2010PropOp52
 70
     0
102
RTVSPost2010Prop53
 90
        2
102
RTVSPost2010PropOp53
 70
     1
102
RTVSPost2010Prop54
  1
strokes_ogs.tif
102
RTVSPost2010PropOp54
 70
     1
102
RTVSPost2010Prop55
280
     0
102
RTVSPost2010PropOp55
 70
     1
102
RTVSPost2010Prop56
140
1.0
102
RTVSPost2010PropOp56
 70
     1
102
RTVSPost2010Prop57
140
1.0
102
RTVSPost2010PropOp57
 70
     1
  0
XRECORD
  5
106AD22
102
{ACAD_REACTORS
330
106AD21
102
}
330
106AD21
100
AcDbXrecord
280
     1
102
RTVSPropertyOp0
 70
     1
102
RTVSPropertyOp1
 70
     1
102
RTVSPropertyOp2
 70
     1
102
RTVSPropertyOp3
 70
     1
102
RTVSPropertyOp4
 70
     1
102
RTVSPropertyOp5
 70
     1
102
RTVSPropertyOp6
 70
     1
102
RTVSPropertyOp7
 70
     1
102
RTVSPropertyOp8
 70
     1
102
RTVSPropertyOp9
 70
     1
102
RTVSPropertyOp10
 70
     1
102
RTVSPropertyOp11
 70
     1
102
RTVSPropertyOp12
 70
     1
102
RTVSPropertyOp13
 70
     1
102
RTVSPropertyOp14
 70
     1
102
RTVSPropertyOp15
 70
     1
102
RTVSPropertyOp16
 70
     1
102
RTVSPropertyOp17
 70
     1
102
RTVSPropertyOp18
 70
     1
102
RTVSPropertyOp19
 70
     1
102
RTVSPropertyOp20
 70
     1
102
RTVSPropertyOp21
 70
     1
102
RTVSPropertyOp22
 70
     1
102
RTVSPropertyOp23
 70
     1
102
RTVSPropertyOp24
 70
     1
102
RTVSPropertyOp25
 70
     1
102
RTVSPropertyOp26
 70
     1
102
RTVSPropertyOp27
 70
     1
102
RTVSPropertyOp28
 70
     1
102
RTVSPropertyOp29
 70
     1
102
RTVSPropertyOp30
 70
     1
102
RTVSPropertyOp31
 70
     1
102
RTVSPropertyOp32
 70
     1
102
RTVSPropertyOp33
 70
     1
102
RTVSPropertyOp34
 70
     1
102
RTVSPropertyOp35
 70
     1
102
RTVSPropertyOp36
 70
     1
102
RTVSPropertyOp37
 70
     1
102
RTVSPropertyOp38
 70
     1
102
RTVSPropertyOp39
 70
     1
102
RTVSPropertyOp40
 70
     1
102
RTVSPropertyOp41
 70
     1
102
RTVSPropertyOp42
 70
     1
102
RTVSPropertyOp43
 70
     1
102
RTVSPropertyOp44
 70
     1
102
RTVSPropertyOp45
 70
     1
102
RTVSPropertyOp46
 70
     1
102
RTVSPropertyOp47
 70
     1
102
RTVSPropertyOp48
 70
     1
102
RTVSPropertyOp49
 70
     1
102
RTVSPropertyOp50
 70
     1
102
RTVSPropertyOp51
 70
     0
102
RTVSPropertyOp52
 70
     0
102
RTVSPropertyOp53
 70
     1
102
RTVSPropertyOp54
 70
     1
102
RTVSPropertyOp55
 70
     1
102
RTVSPropertyOp56
 70
     1
102
RTVSPropertyOp57
 70
     1
102
RTVSPost2010Prop28
280
     0
102
RTVSPost2010PropOp28
 70
     1
102
RTVSPost2010Prop29
280
     1
102
RTVSPost2010PropOp29
 70
     1
102
RTVSPost2010Prop30
280
     1
102
RTVSPost2010PropOp30
 70
     1
102
RTVSPost2010Prop31
280
     0
102
RTVSPost2010PropOp31
 70
     1
102
RTVSPost2010Prop32
280
     0
102
RTVSPost2010PropOp32
 70
     1
102
RTVSPost2010Prop33
280
     0
102
RTVSPost2010PropOp33
 70
     1
102
RTVSPost2010Prop34
280
     0
102
RTVSPost2010PropOp34
 70
     1
102
RTVSPost2010Prop35
280
     0
102
RTVSPost2010PropOp35
 70
     1
102
RTVSPost2010Prop36
280
     0
102
RTVSPost2010PropOp36
 70
     1
102
RTVSPost2010Prop37
 90
       50
102
RTVSPost2010PropOp37
 70
     1
102
RTVSPost2010Prop38
140
0.0
102
RTVSPost2010PropOp38
 70
     1
102
RTVSPost2010Prop39
140
1.0
102
RTVSPost2010PropOp39
 70
     1
102
RTVSPost2010Prop40
 90
        0
102
RTVSPost2010PropOp40
 70
     1
102
RTVSPost2010Prop41ColorIndex
 90
       18
102
RTVSPost2010Prop41ColorRGB
 90
        0
102
RTVSPost2010PropOp41
 70
     1
102
RTVSPost2010Prop42
 90
       50
102
RTVSPost2010PropOp42
 70
     1
102
RTVSPost2010Prop43
 90
        3
102
RTVSPost2010PropOp43
 70
     1
102
RTVSPost2010Prop44ColorIndex
 90
        5
102
RTVSPost2010Prop44ColorRGB
 90
      255
102
RTVSPost2010PropOp44
 70
     1
102
RTVSPost2010Prop45
280
     0
102
RTVSPost2010PropOp45
 70
     1
102
RTVSPost2010Prop46
 90
       50
102
RTVSPost2010PropOp46
 70
     1
102
RTVSPost2010Prop47
 90
       50
102
RTVSPost2010PropOp47
 70
     1
102
RTVSPost2010Prop48
 90
       50
102
RTVSPost2010PropOp48
 70
     1
102
RTVSPost2010Prop49
280
     0
102
RTVSPost2010PropOp49
 70
     1
102
RTVSPost2010Prop50
 90
       50
102
RTVSPost2010PropOp50
 70
     1
102
RTVSPost2010Prop51ColorIndex
 90
      256
102
RTVSPost2010Prop51ColorRGB
 90
-16777216
102
RTVSPost2010PropOp51
 70
     0
102
RTVSPost2010Prop52
140
1.0
102
RTVSPost2010PropOp52
 70
     0
102
RTVSPost2010Prop53
 90
        2
102
RTVSPost2010PropOp53
 70
     1
102
RTVSPost2010Prop54
  1
strokes_ogs.tif
102
RTVSPost2010PropOp54
 70
     1
102
RTVSPost2010Prop55
280
     0
102
RTVSPost2010PropOp55
 70
     1
102
RTVSPost2010Prop56
140
1.0
102
RTVSPost2010PropOp56
 70
     1
102
RTVSPost2010Prop57
140
1.0
102
RTVSPost2010PropOp57
 70
     1
  0
XRECORD
  5
106AD24
102
{ACAD_REACTORS
330
106AD23
102
}
330
106AD23
100
AcDbXrecord
280
     1
102
RTVSPropertyOp0
 70
     1
102
RTVSPropertyOp1
 70
     1
102
RTVSPropertyOp2
 70
     1
102
RTVSPropertyOp3
 70
     1
102
RTVSPropertyOp4
 70
     1
102
RTVSPropertyOp5
 70
     1
102
RTVSPropertyOp6
 70
     1
102
RTVSPropertyOp7
 70
     1
102
RTVSPropertyOp8
 70
     1
102
RTVSPropertyOp9
 70
     1
102
RTVSPropertyOp10
 70
     1
102
RTVSPropertyOp11
 70
     1
102
RTVSPropertyOp12
 70
     1
102
RTVSPropertyOp13
 70
     1
102
RTVSPropertyOp14
 70
     1
102
RTVSPropertyOp15
 70
     1
102
RTVSPropertyOp16
 70
     1
102
RTVSPropertyOp17
 70
     1
102
RTVSPropertyOp18
 70
     1
102
RTVSPropertyOp19
 70
     1
102
RTVSPropertyOp20
 70
     1
102
RTVSPropertyOp21
 70
     1
102
RTVSPropertyOp22
 70
     1
102
RTVSPropertyOp23
 70
     1
102
RTVSPropertyOp24
 70
     1
102
RTVSPropertyOp25
 70
     1
102
RTVSPropertyOp26
 70
     1
102
RTVSPropertyOp27
 70
     1
102
RTVSPropertyOp28
 70
     1
102
RTVSPropertyOp29
 70
     1
102
RTVSPropertyOp30
 70
     1
102
RTVSPropertyOp31
 70
     1
102
RTVSPropertyOp32
 70
     1
102
RTVSPropertyOp33
 70
     1
102
RTVSPropertyOp34
 70
     1
102
RTVSPropertyOp35
 70
     1
102
RTVSPropertyOp36
 70
     1
102
RTVSPropertyOp37
 70
     1
102
RTVSPropertyOp38
 70
     1
102
RTVSPropertyOp39
 70
     1
102
RTVSPropertyOp40
 70
     1
102
RTVSPropertyOp41
 70
     1
102
RTVSPropertyOp42
 70
     1
102
RTVSPropertyOp43
 70
     1
102
RTVSPropertyOp44
 70
     1
102
RTVSPropertyOp45
 70
     1
102
RTVSPropertyOp46
 70
     1
102
RTVSPropertyOp47
 70
     1
102
RTVSPropertyOp48
 70
     1
102
RTVSPropertyOp49
 70
     1
102
RTVSPropertyOp50
 70
     1
102
RTVSPropertyOp51
 70
     0
102
RTVSPropertyOp52
 70
     0
102
RTVSPropertyOp53
 70
     1
102
RTVSPropertyOp54
 70
     1
102
RTVSPropertyOp55
 70
     1
102
RTVSPropertyOp56
 70
     1
102
RTVSPropertyOp57
 70
     1
102
RTVSPost2010Prop28
280
     0
102
RTVSPost2010PropOp28
 70
     1
102
RTVSPost2010Prop29
280
     1
102
RTVSPost2010PropOp29
 70
     1
102
RTVSPost2010Prop30
280
     1
102
RTVSPost2010PropOp30
 70
     1
102
RTVSPost2010Prop31
280
     0
102
RTVSPost2010PropOp31
 70
     1
102
RTVSPost2010Prop32
280
     0
102
RTVSPost2010PropOp32
 70
     1
102
RTVSPost2010Prop33
280
     0
102
RTVSPost2010PropOp33
 70
     1
102
RTVSPost2010Prop34
280
     0
102
RTVSPost2010PropOp34
 70
     1
102
RTVSPost2010Prop35
280
     0
102
RTVSPost2010PropOp35
 70
     1
102
RTVSPost2010Prop36
280
     0
102
RTVSPost2010PropOp36
 70
     1
102
RTVSPost2010Prop37
 90
       50
102
RTVSPost2010PropOp37
 70
     1
102
RTVSPost2010Prop38
140
0.0
102
RTVSPost2010PropOp38
 70
     1
102
RTVSPost2010Prop39
140
1.0
102
RTVSPost2010PropOp39
 70
     1
102
RTVSPost2010Prop40
 90
        0
102
RTVSPost2010PropOp40
 70
     1
102
RTVSPost2010Prop41ColorIndex
 90
       18
102
RTVSPost2010Prop41ColorRGB
 90
        0
102
RTVSPost2010PropOp41
 70
     1
102
RTVSPost2010Prop42
 90
       50
102
RTVSPost2010PropOp42
 70
     1
102
RTVSPost2010Prop43
 90
        3
102
RTVSPost2010PropOp43
 70
     1
102
RTVSPost2010Prop44ColorIndex
 90
        5
102
RTVSPost2010Prop44ColorRGB
 90
      255
102
RTVSPost2010PropOp44
 70
     1
102
RTVSPost2010Prop45
280
     0
102
RTVSPost2010PropOp45
 70
     1
102
RTVSPost2010Prop46
 90
       50
102
RTVSPost2010PropOp46
 70
     1
102
RTVSPost2010Prop47
 90
       50
102
RTVSPost2010PropOp47
 70
     1
102
RTVSPost2010Prop48
 90
       50
102
RTVSPost2010PropOp48
 70
     1
102
RTVSPost2010Prop49
280
     0
102
RTVSPost2010PropOp49
 70
     1
102
RTVSPost2010Prop50
 90
       50
102
RTVSPost2010PropOp50
 70
     1
102
RTVSPost2010Prop51ColorIndex
 90
      256
102
RTVSPost2010Prop51ColorRGB
 90
-16777216
102
RTVSPost2010PropOp51
 70
     0
102
RTVSPost2010Prop52
140
1.0
102
RTVSPost2010PropOp52
 70
     0
102
RTVSPost2010Prop53
 90
        2
102
RTVSPost2010PropOp53
 70
     1
102
RTVSPost2010Prop54
  1
strokes_ogs.tif
102
RTVSPost2010PropOp54
 70
     1
102
RTVSPost2010Prop55
280
     0
102
RTVSPost2010PropOp55
 70
     1
102
RTVSPost2010Prop56
140
1.0
102
RTVSPost2010PropOp56
 70
     1
102
RTVSPost2010Prop57
140
1.0
102
RTVSPost2010PropOp57
 70
     1
  0
XRECORD
  5
106AD26
102
{ACAD_REACTORS
330
106AD25
102
}
330
106AD25
100
AcDbXrecord
280
     1
102
RTVSPropertyOp0
 70
     1
102
RTVSPropertyOp1
 70
     1
102
RTVSPropertyOp2
 70
     1
102
RTVSPropertyOp3
 70
     1
102
RTVSPropertyOp4
 70
     1
102
RTVSPropertyOp5
 70
     1
102
RTVSPropertyOp6
 70
     1
102
RTVSPropertyOp7
 70
     1
102
RTVSPropertyOp8
 70
     1
102
RTVSPropertyOp9
 70
     1
102
RTVSPropertyOp10
 70
     1
102
RTVSPropertyOp11
 70
     1
102
RTVSPropertyOp12
 70
     1
102
RTVSPropertyOp13
 70
     1
102
RTVSPropertyOp14
 70
     1
102
RTVSPropertyOp15
 70
     1
102
RTVSPropertyOp16
 70
     1
102
RTVSPropertyOp17
 70
     1
102
RTVSPropertyOp18
 70
     1
102
RTVSPropertyOp19
 70
     1
102
RTVSPropertyOp20
 70
     1
102
RTVSPropertyOp21
 70
     1
102
RTVSPropertyOp22
 70
     1
102
RTVSPropertyOp23
 70
     1
102
RTVSPropertyOp24
 70
     1
102
RTVSPropertyOp25
 70
     1
102
RTVSPropertyOp26
 70
     1
102
RTVSPropertyOp27
 70
     1
102
RTVSPropertyOp28
 70
     1
102
RTVSPropertyOp29
 70
     1
102
RTVSPropertyOp30
 70
     1
102
RTVSPropertyOp31
 70
     1
102
RTVSPropertyOp32
 70
     1
102
RTVSPropertyOp33
 70
     1
102
RTVSPropertyOp34
 70
     1
102
RTVSPropertyOp35
 70
     1
102
RTVSPropertyOp36
 70
     1
102
RTVSPropertyOp37
 70
     1
102
RTVSPropertyOp38
 70
     1
102
RTVSPropertyOp39
 70
     1
102
RTVSPropertyOp40
 70
     1
102
RTVSPropertyOp41
 70
     1
102
RTVSPropertyOp42
 70
     1
102
RTVSPropertyOp43
 70
     1
102
RTVSPropertyOp44
 70
     1
102
RTVSPropertyOp45
 70
     1
102
RTVSPropertyOp46
 70
     1
102
RTVSPropertyOp47
 70
     1
102
RTVSPropertyOp48
 70
     1
102
RTVSPropertyOp49
 70
     1
102
RTVSPropertyOp50
 70
     1
102
RTVSPropertyOp51
 70
     0
102
RTVSPropertyOp52
 70
     0
102
RTVSPropertyOp53
 70
     1
102
RTVSPropertyOp54
 70
     1
102
RTVSPropertyOp55
 70
     1
102
RTVSPropertyOp56
 70
     1
102
RTVSPropertyOp57
 70
     1
102
RTVSPost2010Prop28
280
     0
102
RTVSPost2010PropOp28
 70
     1
102
RTVSPost2010Prop29
280
     1
102
RTVSPost2010PropOp29
 70
     1
102
RTVSPost2010Prop30
280
     1
102
RTVSPost2010PropOp30
 70
     1
102
RTVSPost2010Prop31
280
     0
102
RTVSPost2010PropOp31
 70
     1
102
RTVSPost2010Prop32
280
     0
102
RTVSPost2010PropOp32
 70
     1
102
RTVSPost2010Prop33
280
     0
102
RTVSPost2010PropOp33
 70
     1
102
RTVSPost2010Prop34
280
     0
102
RTVSPost2010PropOp34
 70
     1
102
RTVSPost2010Prop35
280
     0
102
RTVSPost2010PropOp35
 70
     1
102
RTVSPost2010Prop36
280
     0
102
RTVSPost2010PropOp36
 70
     1
102
RTVSPost2010Prop37
 90
       50
102
RTVSPost2010PropOp37
 70
     1
102
RTVSPost2010Prop38
140
0.0
102
RTVSPost2010PropOp38
 70
     1
102
RTVSPost2010Prop39
140
1.0
102
RTVSPost2010PropOp39
 70
     1
102
RTVSPost2010Prop40
 90
        0
102
RTVSPost2010PropOp40
 70
     1
102
RTVSPost2010Prop41ColorIndex
 90
       18
102
RTVSPost2010Prop41ColorRGB
 90
        0
102
RTVSPost2010PropOp41
 70
     1
102
RTVSPost2010Prop42
 90
       50
102
RTVSPost2010PropOp42
 70
     1
102
RTVSPost2010Prop43
 90
        3
102
RTVSPost2010PropOp43
 70
     1
102
RTVSPost2010Prop44ColorIndex
 90
        5
102
RTVSPost2010Prop44ColorRGB
 90
      255
102
RTVSPost2010PropOp44
 70
     1
102
RTVSPost2010Prop45
280
     0
102
RTVSPost2010PropOp45
 70
     1
102
RTVSPost2010Prop46
 90
       50
102
RTVSPost2010PropOp46
 70
     1
102
RTVSPost2010Prop47
 90
       50
102
RTVSPost2010PropOp47
 70
     1
102
RTVSPost2010Prop48
 90
       50
102
RTVSPost2010PropOp48
 70
     1
102
RTVSPost2010Prop49
280
     0
102
RTVSPost2010PropOp49
 70
     1
102
RTVSPost2010Prop50
 90
       50
102
RTVSPost2010PropOp50
 70
     1
102
RTVSPost2010Prop51ColorIndex
 90
      256
102
RTVSPost2010Prop51ColorRGB
 90
-16777216
102
RTVSPost2010PropOp51
 70
     0
102
RTVSPost2010Prop52
140
1.0
102
RTVSPost2010PropOp52
 70
     0
102
RTVSPost2010Prop53
 90
        2
102
RTVSPost2010PropOp53
 70
     1
102
RTVSPost2010Prop54
  1
strokes_ogs.tif
102
RTVSPost2010PropOp54
 70
     1
102
RTVSPost2010Prop55
280
     0
102
RTVSPost2010PropOp55
 70
     1
102
RTVSPost2010Prop56
140
1.0
102
RTVSPost2010PropOp56
 70
     1
102
RTVSPost2010Prop57
140
1.0
102
RTVSPost2010PropOp57
 70
     1
  0
ENDSEC
  0
EOF
