  0
SECTION
  2
HEADER
  9
$ACADVER
  1
AC1015
  9
$ACADMAINTVER
 70
     6
  9
$DWGCODEPAGE
  3
ANSI_932
  9
$INSBASE
 10
0.0
 20
0.0
 30
0.0
  9
$EXTMIN
 10
-15.0
 20
-45.0
 30
0.0
  9
$EXTMAX
 10
89.99999999999999
 20
45.0
 30
0.0
  9
$LIMMIN
 10
0.0
 20
0.0
  9
$LIMMAX
 10
12.0
 20
9.0
  9
$ORTHOMODE
 70
     0
  9
$REGENMODE
 70
     1
  9
$FILLMODE
 70
     1
  9
$QTEXTMODE
 70
     0
  9
$MIRRTEXT
 70
     1
  9
$LTSCALE
 40
1.0
  9
$ATTMODE
 70
     1
  9
$TEXTSIZE
 40
0.2
  9
$TRACEWID
 40
0.05
  9
$TEXTSTYLE
  7
Standard
  9
$CLAYER
  8
0
  9
$CELTYPE
  6
ByBlock
  9
$CECOLOR
 62
   256
  9
$CELTSCALE
 40
1.0
  9
$DISPSILH
 70
     0
  9
$DIMSCALE
 40
1.0
  9
$DIMASZ
 40
0.18
  9
$DIMEXO
 40
0.0625
  9
$DIMDLI
 40
0.38
  9
$DIMRND
 40
0.0
  9
$DIMDLE
 40
0.0
  9
$DIMEXE
 40
0.18
  9
$DIMTP
 40
0.0
  9
$DIMTM
 40
0.0
  9
$DIMTXT
 40
0.18
  9
$DIMCEN
 40
0.09
  9
$DIMTSZ
 40
0.0
  9
$DIMTOL
 70
     0
  9
$DIMLIM
 70
     0
  9
$DIMTIH
 70
     1
  9
$DIMTOH
 70
     1
  9
$DIMSE1
 70
     0
  9
$DIMSE2
 70
     0
  9
$DIMTAD
 70
     0
  9
$DIMZIN
 70
     0
  9
$DIMBLK
  1

  9
$DIMASO
 70
     1
  9
$DIMSHO
 70
     1
  9
$DIMPOST
  1

  9
$DIMAPOST
  1

  9
$DIMALT
 70
     0
  9
$DIMALTD
 70
     2
  9
$DIMALTF
 40
25.4
  9
$DIMLFAC
 40
1.0
  9
$DIMTOFL
 70
     0
  9
$DIMTVP
 40
0.0
  9
$DIMTIX
 70
     0
  9
$DIMSOXD
 70
     0
  9
$DIMSAH
 70
     0
  9
$DIMBLK1
  1

  9
$DIMBLK2
  1

  9
$DIMSTYLE
  2
STANDARD
  9
$DIMCLRD
 70
     0
  9
$DIMCLRE
 70
     0
  9
$DIMCLRT
 70
     0
  9
$DIMTFAC
 40
1.0
  9
$DIMGAP
 40
0.09
  9
$DIMJUST
 70
     0
  9
$DIMSD1
 70
     0
  9
$DIMSD2
 70
     0
  9
$DIMTOLJ
 70
     1
  9
$DIMTZIN
 70
     0
  9
$DIMALTZ
 70
     0
  9
$DIMALTTZ
 70
     0
  9
$DIMUPT
 70
     0
  9
$DIMDEC
 70
     4
  9
$DIMTDEC
 70
     4
  9
$DIMALTU
 70
     2
  9
$DIMALTTD
 70
     2
  9
$DIMTXSTY
  7
Standard
  9
$DIMAUNIT
 70
     0
  9
$DIMADEC
 70
     0
  9
$DIMALTRND
 40
0.0
  9
$DIMAZIN
 70
     0
  9
$DIMDSEP
 70
    46
  9
$DIMATFIT
 70
     3
  9
$DIMFRAC
 70
     0
  9
$DIMLDRBLK
  1

  9
$DIMLUNIT
 70
     2
  9
$DIMLWD
 70
    -2
  9
$DIMLWE
 70
    -2
  9
$DIMTMOVE
 70
     0
  9
$LUNITS
 70
     2
  9
$LUPREC
 70
     4
  9
$SKETCHINC
 40
0.1
  9
$FILLETRAD
 40
0.5
  9
$AUNITS
 70
     0
  9
$AUPREC
 70
     0
  9
$MENU
  1
.
  9
$ELEVATION
 40
0.0
  9
$PELEVATION
 40
0.0
  9
$THICKNESS
 40
0.0
  9
$LIMCHECK
 70
     0
  9
$CHAMFERA
 40
0.0
  9
$CHAMFERB
 40
0.0
  9
$CHAMFERC
 40
0.0
  9
$CHAMFERD
 40
0.0
  9
$SKPOLY
 70
     0
  9
$TDCREATE
 40
2447893.375
  9
$TDUCREATE
 40
0.0
  9
$TDUPDATE
 40
2460864.501456111
  9
$TDUUPDATE
 40
2460864.126456111
  9
$TDINDWG
 40
0.0054803241
  9
$TDUSRTIMER
 40
0.0001885648
  9
$USRTIMER
 70
     1
  9
$ANGBASE
 50
0.0
  9
$ANGDIR
 70
     0
  9
$PDMODE
 70
     0
  9
$PDSIZE
 40
0.0
  9
$PLINEWID
 40
0.0
  9
$SPLFRAME
 70
     0
  9
$SPLINETYPE
 70
     6
  9
$SPLINESEGS
 70
     8
  9
$HANDSEED
  5
106AD69
  9
$SURFTAB1
 70
     6
  9
$SURFTAB2
 70
     6
  9
$SURFTYPE
 70
     6
  9
$SURFU
 70
     6
  9
$SURFV
 70
     6
  9
$UCSBASE
  2

  9
$UCSNAME
  2

  9
$UCSORG
 10
0.0
 20
0.0
 30
0.0
  9
$UCSXDIR
 10
1.0
 20
0.0
 30
0.0
  9
$UCSYDIR
 10
0.0
 20
1.0
 30
0.0
  9
$UCSORTHOREF
  2

  9
$UCSORTHOVIEW
 70
     0
  9
$UCSORGTOP
 10
0.0
 20
0.0
 30
0.0
  9
$UCSORGBOTTOM
 10
0.0
 20
0.0
 30
0.0
  9
$UCSORGLEFT
 10
0.0
 20
0.0
 30
0.0
  9
$UCSORGRIGHT
 10
0.0
 20
0.0
 30
0.0
  9
$UCSORGFRONT
 10
0.0
 20
0.0
 30
0.0
  9
$UCSORGBACK
 10
0.0
 20
0.0
 30
0.0
  9
$PUCSBASE
  2

  9
$PUCSNAME
  2

  9
$PUCSORG
 10
0.0
 20
0.0
 30
0.0
  9
$PUCSXDIR
 10
1.0
 20
0.0
 30
0.0
  9
$PUCSYDIR
 10
0.0
 20
1.0
 30
0.0
  9
$PUCSORTHOREF
  2

  9
$PUCSORTHOVIEW
 70
     0
  9
$PUCSORGTOP
 10
0.0
 20
0.0
 30
0.0
  9
$PUCSORGBOTTOM
 10
0.0
 20
0.0
 30
0.0
  9
$PUCSORGLEFT
 10
0.0
 20
0.0
 30
0.0
  9
$PUCSORGRIGHT
 10
0.0
 20
0.0
 30
0.0
  9
$PUCSORGFRONT
 10
0.0
 20
0.0
 30
0.0
  9
$PUCSORGBACK
 10
0.0
 20
0.0
 30
0.0
  9
$USERI1
 70
     0
  9
$USERI2
 70
     0
  9
$USERI3
 70
     0
  9
$USERI4
 70
     0
  9
$USERI5
 70
     0
  9
$USERR1
 40
0.0
  9
$USERR2
 40
0.0
  9
$USERR3
 40
0.0
  9
$USERR4
 40
0.0
  9
$USERR5
 40
0.0
  9
$WORLDVIEW
 70
     1
  9
$SHADEDGE
 70
     3
  9
$SHADEDIF
 70
    70
  9
$TILEMODE
 70
     1
  9
$MAXACTVP
 70
    64
  9
$PINSBASE
 10
0.0
 20
0.0
 30
0.0
  9
$PLIMCHECK
 70
     0
  9
$PEXTMIN
 10
1.000000000000000E+20
 20
1.000000000000000E+20
 30
1.000000000000000E+20
  9
$PEXTMAX
 10
-1.000000000000000E+20
 20
-1.000000000000000E+20
 30
-1.000000000000000E+20
  9
$PLIMMIN
 10
0.0
 20
0.0
  9
$PLIMMAX
 10
0.0
 20
0.0
  9
$UNITMODE
 70
     0
  9
$VISRETAIN
 70
     1
  9
$PLINEGEN
 70
     0
  9
$PSLTSCALE
 70
     1
  9
$TREEDEPTH
 70
  3020
  9
$CMLSTYLE
  2
Standard
  9
$CMLJUST
 70
     0
  9
$CMLSCALE
 40
1.0
  9
$PROXYGRAPHICS
 70
     1
  9
$MEASUREMENT
 70
     0
  9
$CELWEIGHT
370
    -1
  9
$ENDCAPS
280
     0
  9
$JOINSTYLE
280
     0
  9
$LWDISPLAY
290
     0
  9
$INSUNITS
 70
     0
  9
$HYPERLINKBASE
  1

  9
$STYLESHEET
  1

  9
$XEDIT
290
     1
  9
$CEPSNTYPE
380
     0
  9
$PSTYLEMODE
290
     1
  9
$FINGERPRINTGUID
  2
{bc72712c-cd35-4f80-a851-ba55d8d095fa}
  9
$VERSIONGUID
  2
{FAEB1C32-E019-11D5-929B-00C0DF256EC4}
  9
$EXTNAMES
290
     1
  9
$PSVPSCALE
 40
0.0
  9
$OLESTARTUP
290
     0
  0
ENDSEC
  0
SECTION
  2
CLASSES
  0
CLASS
  1
IMAGEDEF
  2
AcDbRasterImageDef
  3
ISM
 90
        0
280
     0
281
     0
  0
CLASS
  1
IMAGE
  2
AcDbRasterImage
  3
ISM
 90
      127
280
     0
281
     1
  0
CLASS
  1
IMAGEDEF_REACTOR
  2
AcDbRasterImageDefReactor
  3
ISM
 90
        1
280
     0
281
     0
  0
CLASS
  1
ACDBDICTIONARYWDFLT
  2
AcDbDictionaryWithDefault
  3
ObjectDBX Classes
 90
        0
280
     0
281
     0
  0
CLASS
  1
SCALE
  2
AcDbScale
  3
ObjectDBX Classes
 90
     1153
280
     0
281
     0
  0
CLASS
  1
MATERIAL
  2
AcDbMaterial
  3
ObjectDBX Classes
 90
     1153
280
     0
281
     0
  0
CLASS
  1
VISUALSTYLE
  2
AcDbVisualStyle
  3
ObjectDBX Classes
 90
     4095
280
     0
281
     0
  0
CLASS
  1
TABLESTYLE
  2
AcDbTableStyle
  3
ObjectDBX Classes
 90
     4095
280
     0
281
     0
  0
CLASS
  1
MLEADERSTYLE
  2
AcDbMLeaderStyle
  3
ACDB_MLEADERSTYLE_CLASS
 90
     4095
280
     0
281
     0
  0
CLASS
  1
SUN
  2
AcDbSun
  3
SCENEOE
 90
     1153
280
     0
281
     0
  0
CLASS
  1
RASTERVARIABLES
  2
AcDbRasterVariables
  3
ISM
 90
        0
280
     0
281
     0
  0
CLASS
  1
DICTIONARYVAR
  2
AcDbDictionaryVar
  3
ObjectDBX Classes
 90
        0
280
     0
281
     0
  0
CLASS
  1
ACDBPLACEHOLDER
  2
AcDbPlaceHolder
  3
ObjectDBX Classes
 90
        0
280
     0
281
     0
  0
CLASS
  1
LAYOUT
  2
AcDbLayout
  3
ObjectDBX Classes
 90
        0
280
     0
281
     0
  0
ENDSEC
  0
SECTION
  2
TABLES
  0
TABLE
  2
VPORT
  5
2
102
{ACAD_XDICTIONARY
360
106AD2E
102
}
330
0
100
AcDbSymbolTable
 70
     1
  0
VPORT
  5
106AB91
330
2
100
AcDbSymbolTableRecord
100
AcDbViewportTableRecord
  2
*Active
 70
     0
 10
0.0
 20
0.0
 11
1.0
 21
1.0
 12
37.5
 22
0.0
 13
0.0
 23
0.0
 14
0.5
 24
0.5
 15
0.5
 25
0.5
 16
0.0
 26
0.0
 36
1.0
 17
0.0
 27
0.0
 37
0.0
 40
91.8
 41
2.05750350631136
 42
50.0
 43
0.0
 44
0.0
 50
0.0
 51
0.0
 71
    16
 72
   100
 73
     1
 74
     3
 75
     0
 76
     0
 77
     0
 78
     0
281
     0
 65
     1
110
0.0
120
0.0
130
0.0
111
1.0
121
0.0
131
0.0
112
0.0
122
1.0
132
0.0
 79
     0
146
0.0
  0
ENDTAB
  0
TABLE
  2
LTYPE
  5
3
330
0
100
AcDbSymbolTable
 70
     3
  0
LTYPE
  5
4
330
3
100
AcDbSymbolTableRecord
100
AcDbLinetypeTableRecord
  2
ByBlock
 70
     0
  3

 72
    65
 73
     0
 40
0.0
  0
LTYPE
  5
5
330
3
100
AcDbSymbolTableRecord
100
AcDbLinetypeTableRecord
  2
ByLayer
 70
     0
  3

 72
    65
 73
     0
 40
0.0
  0
LTYPE
  5
6
330
3
100
AcDbSymbolTableRecord
100
AcDbLinetypeTableRecord
  2
CONTINUOUS
 70
     0
  3
Solid Line
 72
    65
 73
     0
 40
0.0
  0
LTYPE
  5
7
330
3
100
AcDbSymbolTableRecord
100
AcDbLinetypeTableRecord
  2
DASH
 70
     0
  3
Hidden
 72
    65
 73
     2
 40
2.5
 49
1.5
 74
     0
 49
-1.0
 74
     0
  0
LTYPE
  5
8
330
3
100
AcDbSymbolTableRecord
100
AcDbLinetypeTableRecord
  2
LONGDASHDASH
 70
     0
  3
__ . __
 72
    65
 73
     4
 40
7.0
 49
4.0
 74
     0
 49
-1.0
 74
     0
 49
1.0
 74
     0
 49
-1.0
 74
     0
  0
ENDTAB
  0
TABLE
  2
LAYER
  5
9
330
0
100
AcDbSymbolTable
 70
    11
  0
LAYER
  5
A
330
9
100
AcDbSymbolTableRecord
100
AcDbLayerTableRecord
  2
0
 70
     0
 62
     7
  6
CONTINUOUS
370
    -3
390
106AB96
  0
LAYER
  5
C
330
9
100
AcDbSymbolTableRecord
100
AcDbLayerTableRecord
  2
1
 70
     0
 62
     4
  6
CONTINUOUS
370
    50
390
106AB96
  0
LAYER
  5
D
330
9
100
AcDbSymbolTableRecord
100
AcDbLayerTableRecord
  2
2
 70
     0
 62
     7
  6
CONTINUOUS
370
    25
390
106AB96
  0
LAYER
  5
F
330
9
100
AcDbSymbolTableRecord
100
AcDbLayerTableRecord
  2
4
 70
     0
 62
     2
  6
LONGDASHDASH
370
    25
390
106AB96
  0
LAYER
  5
13
330
9
100
AcDbSymbolTableRecord
100
AcDbLayerTableRecord
  2
SK1
 70
     0
 62
     4
  6
CONTINUOUS
370
    50
390
106AB96
  0
LAYER
  5
14
330
9
100
AcDbSymbolTableRecord
100
AcDbLayerTableRecord
  2
SK2
 70
     0
 62
     7
  6
CONTINUOUS
370
    25
390
106AB96
  0
LAYER
  5
16
330
9
100
AcDbSymbolTableRecord
100
AcDbLayerTableRecord
  2
SK4
 70
     0
 62
     2
  6
LONGDASHDASH
370
    25
390
106AB96
  0
LAYER
  5
21
330
9
100
AcDbSymbolTableRecord
100
AcDbLayerTableRecord
  2
NOCUT
 70
     0
 62
     7
  6
CONTINUOUS
370
    25
390
106AB96
  0
LAYER
  5
22
330
9
100
AcDbSymbolTableRecord
100
AcDbLayerTableRecord
  2
CUT
 70
     0
 62
     1
  6
CONTINUOUS
370
    25
390
106AB96
  0
LAYER
  5
26
330
9
100
AcDbSymbolTableRecord
100
AcDbLayerTableRecord
  2
INFTOTAL
 70
     0
 62
     9
  6
CONTINUOUS
370
    18
390
106AB96
  0
LAYER
  5
106ABE1
330
9
100
AcDbSymbolTableRecord
100
AcDbLayerTableRecord
  2
Defpoints
 70
     0
 62
     7
  6
CONTINUOUS
290
     0
370
    -3
390
106AB96
  0
ENDTAB
  0
TABLE
  2
STYLE
  5
27
330
0
100
AcDbSymbolTable
 70
     2
  0
STYLE
  5
28
330
27
100
AcDbSymbolTableRecord
100
AcDbTextStyleTableRecord
  2
Monospac821 BT
 70
     0
 40
3.5
 41
1.0
 50
0.0
 71
     0
 42
3.0
  3

  4

1001
ACAD
1000
Monospac821 BT
1071
      256
  0
STYLE
  5
106AB90
330
27
100
AcDbSymbolTableRecord
100
AcDbTextStyleTableRecord
  2
Standard
 70
     0
 40
0.0
 41
1.0
 50
0.0
 71
     0
 42
0.2
  3
txt
  4

  0
ENDTAB
  0
TABLE
  2
VIEW
  5
29
330
0
100
AcDbSymbolTable
 70
     0
  0
ENDTAB
  0
TABLE
  2
UCS
  5
2A
330
0
100
AcDbSymbolTable
 70
     0
  0
ENDTAB
  0
TABLE
  2
APPID
  5
2B
330
0
100
AcDbSymbolTable
 70
     6
  0
APPID
  5
2C
330
2B
100
AcDbSymbolTableRecord
100
AcDbRegAppTableRecord
  2
ACAD
 70
     0
  0
APPID
  5
106ABE3
330
2B
100
AcDbSymbolTableRecord
100
AcDbRegAppTableRecord
  2
FX_DIMP_FAV_VERSION
 70
     0
  0
APPID
  5
106AC19
330
2B
100
AcDbSymbolTableRecord
100
AcDbRegAppTableRecord
  2
FX_DIMP_RECENT_VERSION
 70
     0
  0
APPID
  5
106ACAC
330
2B
100
AcDbSymbolTableRecord
100
AcDbRegAppTableRecord
  2
ACAD_DSTYLE_DIMFLIPARROW_SYMBOL
 70
     0
  0
APPID
  5
106ACAD
330
2B
100
AcDbSymbolTableRecord
100
AcDbRegAppTableRecord
  2
ACAD_DSTYLE_DIMFLIPARROW_WHICH_SYMBOL
 70
     0
  0
APPID
  5
106ACE8
330
2B
100
AcDbSymbolTableRecord
100
AcDbRegAppTableRecord
  2
ACAD_MLEADERVER
 70
     0
  0
ENDTAB
  0
TABLE
  2
DIMSTYLE
  5
2D
330
0
100
AcDbSymbolTable
 70
     1
100
AcDbDimStyleTable
  0
DIMSTYLE
105
2E
102
{ACAD_REACTORS
330
106AC05
330
106AC3C
330
106AC6A
330
106AC95
102
}
330
2D
100
AcDbSymbolTableRecord
100
AcDbDimStyleTableRecord
  2
STANDARD
 70
     0
 41
3.0
 42
0.5
 44
1.0
 73
     0
 77
     1
 78
     1
140
3.5
141
2.5
143
0.03937007874
147
0.8
172
     1
174
     1
178
     0
179
     1
271
     2
279
     1
284
     1
340
28
  0
ENDTAB
  0
TABLE
  2
BLOCK_RECORD
  5
2F
330
0
100
AcDbSymbolTable
 70
    14
  0
BLOCK_RECORD
  5
30
102
{ACAD_XDICTIONARY
360
106ACA2
102
}
330
2F
100
AcDbSymbolTableRecord
100
AcDbBlockTableRecord
  2
*Model_Space
340
106AB98
  0
BLOCK_RECORD
  5
31
330
2F
100
AcDbSymbolTableRecord
100
AcDbBlockTableRecord
  2
*Paper_Space
340
106AB99
  0
BLOCK_RECORD
  5
383
330
2F
100
AcDbSymbolTableRecord
100
AcDbBlockTableRecord
  2
*D0
340
0
  0
BLOCK_RECORD
  5
391
330
2F
100
AcDbSymbolTableRecord
100
AcDbBlockTableRecord
  2
*D1
340
0
  0
BLOCK_RECORD
  5
39F
330
2F
100
AcDbSymbolTableRecord
100
AcDbBlockTableRecord
  2
*D2
340
0
  0
BLOCK_RECORD
  5
3AD
330
2F
100
AcDbSymbolTableRecord
100
AcDbBlockTableRecord
  2
*D3
340
0
  0
BLOCK_RECORD
  5
3BB
330
2F
100
AcDbSymbolTableRecord
100
AcDbBlockTableRecord
  2
*D4
340
0
  0
BLOCK_RECORD
  5
3C9
330
2F
100
AcDbSymbolTableRecord
100
AcDbBlockTableRecord
  2
*D5
340
0
  0
BLOCK_RECORD
  5
106ABF6
330
2F
100
AcDbSymbolTableRecord
100
AcDbBlockTableRecord
  2
*D6
340
0
  0
BLOCK_RECORD
  5
106AC06
330
2F
100
AcDbSymbolTableRecord
100
AcDbBlockTableRecord
  2
*D7
340
0
  0
BLOCK_RECORD
  5
106AC2A
330
2F
100
AcDbSymbolTableRecord
100
AcDbBlockTableRecord
  2
*D8
340
0
  0
BLOCK_RECORD
  5
106AC3D
330
2F
100
AcDbSymbolTableRecord
100
AcDbBlockTableRecord
  2
*D9
340
0
  0
BLOCK_RECORD
  5
106AC58
330
2F
100
AcDbSymbolTableRecord
100
AcDbBlockTableRecord
  2
*D10
340
0
  0
BLOCK_RECORD
  5
106AC6B
330
2F
100
AcDbSymbolTableRecord
100
AcDbBlockTableRecord
  2
*D11
340
0
  0
BLOCK_RECORD
  5
106AC86
330
2F
100
AcDbSymbolTableRecord
100
AcDbBlockTableRecord
  2
*D12
340
0
  0
BLOCK_RECORD
  5
106AC96
330
2F
100
AcDbSymbolTableRecord
100
AcDbBlockTableRecord
  2
*D13
340
0
  0
ENDTAB
  0
ENDSEC
  0
SECTION
  2
BLOCKS
  0
BLOCK
  5
32
330
30
100
AcDbEntity
  8
0
100
AcDbBlockBegin
  2
*Model_Space
 70
     0
 10
0.0
 20
0.0
 30
0.0
  3
*Model_Space
  1

  0
ENDBLK
  5
33
330
30
100
AcDbEntity
  8
0
100
AcDbBlockEnd
  0
BLOCK
  5
34
330
31
100
AcDbEntity
 67
     1
  8
0
100
AcDbBlockBegin
  2
*Paper_Space
 70
     0
 10
0.0
 20
0.0
 30
0.0
  3
*Paper_Space
  1

  0
ENDBLK
  5
35
330
31
100
AcDbEntity
 67
     1
  8
0
100
AcDbBlockEnd
  0
BLOCK
  5
381
330
383
100
AcDbEntity
  8
SK2
100
AcDbBlockBegin
  2
*D0
 70
     1
 10
0.0
 20
0.0
 30
0.0
  3
*D0
  1

  0
LINE
  5
384
330
383
100
AcDbEntity
  8
SK2
 62
     0
370
    -2
100
AcDbLine
 10
41.953987871165
 20
-1.11
 30
0.0
 11
41.953987871165
 21
-41.0
 31
0.0
  0
LINE
  5
385
330
383
100
AcDbEntity
  8
SK2
 62
     0
370
    -2
100
AcDbLine
 10
1.953987871165
 20
-2.2905
 30
0.0
 11
1.953987871165001
 21
-41.0
 31
0.0
  0
LINE
  5
386
330
383
100
AcDbEntity
  8
SK2
 62
     0
370
    -2
100
AcDbLine
 10
38.953987871165
 20
-40.0
 30
0.0
 11
4.953987871165001
 21
-40.0
 31
0.0
  0
SOLID
  5
387
330
383
100
AcDbEntity
  8
SK2
 62
     0
100
AcDbTrace
 10
38.953987871165
 20
-40.5
 30
0.0
 11
38.953987871165
 21
-39.5
 31
0.0
 12
41.953987871165
 22
-40.0
 32
0.0
 13
41.953987871165
 23
-40.0
 33
0.0
  0
SOLID
  5
388
330
383
100
AcDbEntity
  8
SK2
 62
     0
100
AcDbTrace
 10
4.953987871165001
 20
-39.5
 30
0.0
 11
4.953987871165001
 21
-40.5
 31
0.0
 12
1.953987871165001
 22
-40.0
 32
0.0
 13
1.953987871165001
 23
-40.0
 33
0.0
  0
MTEXT
  5
389
330
383
100
AcDbEntity
  8
SK2
  6
ByBlock
 62
     0
100
AcDbMText
 10
21.953987871165
 20
-37.38875
 30
0.0
 40
3.5
 41
0.0
 71
     5
 72
     1
  1
\A1;40
 73
     1
 44
1.0
  0
POINT
  5
38A
330
383
100
AcDbEntity
  8
Defpoints
 62
     0
100
AcDbPoint
 10
41.953987871165
 20
-0.61
 30
0.0
  0
POINT
  5
38B
330
383
100
AcDbEntity
  8
Defpoints
 62
     0
100
AcDbPoint
 10
1.953987871165
 20
-1.7905
 30
0.0
  0
POINT
  5
38C
330
383
100
AcDbEntity
  8
Defpoints
 62
     0
100
AcDbPoint
 10
1.953987871165
 20
-40.0
 30
0.0
  0
ENDBLK
  5
38D
330
383
100
AcDbEntity
  8
SK2
100
AcDbBlockEnd
  0
BLOCK
  5
38F
330
391
100
AcDbEntity
  8
SK2
100
AcDbBlockBegin
  2
*D1
 70
     1
 10
0.0
 20
0.0
 30
0.0
  3
*D1
  1

  0
LINE
  5
392
330
391
100
AcDbEntity
  8
SK2
 62
     0
370
    -2
100
AcDbLine
 10
15.4039
 20
1.790500000000005
 30
0.0
 11
15.4039
 21
26.29900000000001
 31
0.0
  0
LINE
  5
393
330
391
100
AcDbEntity
  8
SK2
 62
     0
370
    -2
100
AcDbLine
 10
15.4039
 20
-1.790499999999994
 30
0.0
 11
15.4039
 21
1.790500000000005
 31
0.0
  0
LINE
  5
394
330
391
100
AcDbEntity
  8
SK2
 62
     0
370
    -2
100
AcDbLine
 10
15.4039
 20
-4.790499999999994
 30
0.0
 11
15.4039
 21
-7.790499999999994
 31
0.0
  0
LINE
  5
395
330
391
100
AcDbEntity
  8
SK2
 62
     0
370
    -2
100
AcDbLine
 10
15.4039
 20
4.790500000000005
 30
0.0
 11
15.4039
 21
7.790500000000005
 31
0.0
  0
SOLID
  5
396
330
391
100
AcDbEntity
  8
SK2
 62
     0
100
AcDbTrace
 10
15.9039
 20
-4.790499999999994
 30
0.0
 11
14.9039
 21
-4.790499999999994
 31
0.0
 12
15.4039
 22
-1.790499999999994
 32
0.0
 13
15.4039
 23
-1.790499999999994
 33
0.0
  0
SOLID
  5
397
330
391
100
AcDbEntity
  8
SK2
 62
     0
100
AcDbTrace
 10
14.9039
 20
4.790500000000005
 30
0.0
 11
15.9039
 21
4.790500000000005
 31
0.0
 12
15.4039
 22
1.790500000000005
 32
0.0
 13
15.4039
 23
1.790500000000005
 33
0.0
  0
MTEXT
  5
398
330
391
100
AcDbEntity
  8
SK2
  6
ByBlock
 62
     0
100
AcDbMText
 10
12.7419
 20
17.04475000000001
 30
0.0
 40
3.5
 41
0.0
 71
     5
 72
     1
  1
\A1;%%c3.581
 11
0.0
 21
1.0
 31
0.0
 73
     1
 44
1.0
  0
POINT
  5
399
330
391
100
AcDbEntity
  8
Defpoints
 62
     0
100
AcDbPoint
 10
1.953987871164999
 20
-1.7905
 30
0.0
  0
POINT
  5
39A
330
391
100
AcDbEntity
  8
Defpoints
 62
     0
100
AcDbPoint
 10
1.953987871164999
 20
1.7905
 30
0.0
  0
POINT
  5
106ABE6
330
391
100
AcDbEntity
  8
Defpoints
 62
     0
100
AcDbPoint
 10
15.4039
 20
1.790500000000001
 30
0.0
  0
ENDBLK
  5
39B
330
391
100
AcDbEntity
  8
SK2
100
AcDbBlockEnd
  0
BLOCK
  5
39D
330
39F
100
AcDbEntity
  8
SK2
100
AcDbBlockBegin
  2
*D2
 70
     1
 10
0.0
 20
0.0
 30
0.0
  3
*D2
  1

  0
LINE
  5
3A0
330
39F
100
AcDbEntity
  8
SK2
 62
     0
370
    -2
100
AcDbLine
 10
6.753987871165
 20
-2.2905
 30
0.0
 11
6.753987871165
 21
-17.0
 31
0.0
  0
LINE
  5
3A1
330
39F
100
AcDbEntity
  8
SK2
 62
     0
370
    -2
100
AcDbLine
 10
1.953987871165
 20
-2.2905
 30
0.0
 11
1.953987871164999
 21
-17.0
 31
0.0
  0
LINE
  5
3A2
330
39F
100
AcDbEntity
  8
SK2
 62
     0
370
    -2
100
AcDbLine
 10
1.953987871164999
 20
-16.0
 30
0.0
 11
-14.172012128835
 21
-16.0
 31
0.0
  0
LINE
  5
3A3
330
39F
100
AcDbEntity
  8
SK2
 62
     0
370
    -2
100
AcDbLine
 10
6.753987871165
 20
-16.0
 30
0.0
 11
1.953987871164999
 21
-16.0
 31
0.0
  0
LINE
  5
3A4
330
39F
100
AcDbEntity
  8
SK2
 62
     0
370
    -2
100
AcDbLine
 10
9.753987871165
 20
-16.0
 30
0.0
 11
12.753987871165
 21
-16.0
 31
0.0
  0
LINE
  5
3A5
330
39F
100
AcDbEntity
  8
SK2
 62
     0
370
    -2
100
AcDbLine
 10
-1.046012128835001
 20
-16.0
 30
0.0
 11
-4.046012128835001
 21
-16.0
 31
0.0
  0
SOLID
  5
3A6
330
39F
100
AcDbEntity
  8
SK2
 62
     0
100
AcDbTrace
 10
9.753987871165
 20
-15.5
 30
0.0
 11
9.753987871165
 21
-16.5
 31
0.0
 12
6.753987871165
 22
-16.0
 32
0.0
 13
6.753987871165
 23
-16.0
 33
0.0
  0
SOLID
  5
3A7
330
39F
100
AcDbEntity
  8
SK2
 62
     0
100
AcDbTrace
 10
-1.046012128835001
 20
-16.5
 30
0.0
 11
-1.046012128835001
 21
-15.5
 31
0.0
 12
1.953987871164999
 22
-16.0
 32
0.0
 13
1.953987871164999
 23
-16.0
 33
0.0
  0
MTEXT
  5
3A8
330
39F
100
AcDbEntity
  8
SK2
  6
ByBlock
 62
     0
100
AcDbMText
 10
-9.109012128835001
 20
-13.38875
 30
0.0
 40
3.5
 41
0.0
 71
     5
 72
     1
  1
\A1;4.8
 73
     1
 44
1.0
  0
POINT
  5
106ABE4
330
39F
100
AcDbEntity
  8
Defpoints
 62
     0
100
AcDbPoint
 10
6.753987871165
 20
-1.7905
 30
0.0
  0
POINT
  5
106ABE5
330
39F
100
AcDbEntity
  8
Defpoints
 62
     0
100
AcDbPoint
 10
1.953987871165
 20
-1.7905
 30
0.0
  0
POINT
  5
106ABE9
330
39F
100
AcDbEntity
  8
Defpoints
 62
     0
100
AcDbPoint
 10
1.953987871165
 20
-16.0
 30
0.0
  0
ENDBLK
  5
3A9
330
39F
100
AcDbEntity
  8
SK2
100
AcDbBlockEnd
  0
BLOCK
  5
3AB
330
3AD
100
AcDbEntity
  8
2
100
AcDbBlockBegin
  2
*D3
 70
     1
 10
0.0
 20
0.0
 30
0.0
  3
*D3
  1

  0
LINE
  5
3AE
330
3AD
100
AcDbEntity
  8
2
 62
     0
370
    -2
100
AcDbLine
 10
41.953987871165
 20
-1.11
 30
0.0
 11
41.953987871165
 21
-25.0
 31
0.0
  0
LINE
  5
3AF
330
3AD
100
AcDbEntity
  8
2
 62
     0
370
    -2
100
AcDbLine
 10
34.053987871165
 20
-1.3
 30
0.0
 11
34.053987871165
 21
-25.0
 31
0.0
  0
LINE
  5
3B0
330
3AD
100
AcDbEntity
  8
2
 62
     0
370
    -2
100
AcDbLine
 10
41.953987871165
 20
-24.0
 30
0.0
 11
58.028
 21
-24.0
 31
0.0
  0
LINE
  5
3B1
330
3AD
100
AcDbEntity
  8
2
 62
     0
370
    -2
100
AcDbLine
 10
41.953987871165
 20
-24.0
 30
0.0
 11
34.053987871165
 21
-24.0
 31
0.0
  0
LINE
  5
3B2
330
3AD
100
AcDbEntity
  8
2
 62
     0
370
    -2
100
AcDbLine
 10
44.953987871165
 20
-24.0
 30
0.0
 11
47.953987871165
 21
-24.0
 31
0.0
  0
LINE
  5
3B3
330
3AD
100
AcDbEntity
  8
2
 62
     0
370
    -2
100
AcDbLine
 10
31.053987871165
 20
-24.0
 30
0.0
 11
28.053987871165
 21
-24.0
 31
0.0
  0
SOLID
  5
3B4
330
3AD
100
AcDbEntity
  8
2
 62
     0
100
AcDbTrace
 10
44.953987871165
 20
-23.5
 30
0.0
 11
44.953987871165
 21
-24.5
 31
0.0
 12
41.953987871165
 22
-24.0
 32
0.0
 13
41.953987871165
 23
-24.0
 33
0.0
  0
SOLID
  5
3B5
330
3AD
100
AcDbEntity
  8
2
 62
     0
100
AcDbTrace
 10
31.053987871165
 20
-24.5
 30
0.0
 11
31.053987871165
 21
-23.5
 31
0.0
 12
34.053987871165
 22
-24.0
 32
0.0
 13
34.053987871165
 23
-24.0
 33
0.0
  0
MTEXT
  5
3B6
330
3AD
100
AcDbEntity
  8
2
  6
ByBlock
 62
     0
100
AcDbMText
 10
53.0
 20
-21.38875
 30
0.0
 40
3.5
 41
0.0
 71
     5
 72
     1
  1
\A1;7.9
 73
     1
 44
1.0
  0
POINT
  5
106AC15
330
3AD
100
AcDbEntity
  8
Defpoints
 62
     0
100
AcDbPoint
 10
41.953987871165
 20
-0.61
 30
0.0
  0
POINT
  5
106AC16
330
3AD
100
AcDbEntity
  8
Defpoints
 62
     0
100
AcDbPoint
 10
34.053987871165
 20
-0.8
 30
0.0
  0
POINT
  5
106AC17
330
3AD
100
AcDbEntity
  8
Defpoints
 62
     0
100
AcDbPoint
 10
34.053987871165
 20
-24.0
 30
0.0
  0
ENDBLK
  5
3B7
330
3AD
100
AcDbEntity
  8
2
100
AcDbBlockEnd
  0
BLOCK
  5
3B9
330
3BB
100
AcDbEntity
  8
2
100
AcDbBlockBegin
  2
*D4
 70
     1
 10
0.0
 20
0.0
 30
0.0
  3
*D4
  1

  0
LINE
  5
3BC
330
3BB
100
AcDbEntity
  8
2
 62
     0
370
    -2
100
AcDbLine
 10
41.953987871165
 20
-1.11
 30
0.0
 11
41.953987871165
 21
-33.0
 31
0.0
  0
LINE
  5
3BD
330
3BB
100
AcDbEntity
  8
2
 62
     0
370
    -2
100
AcDbLine
 10
33.053987871165
 20
-1.3
 30
0.0
 11
33.053987871165
 21
-33.0
 31
0.0
  0
LINE
  5
3BE
330
3BB
100
AcDbEntity
  8
2
 62
     0
370
    -2
100
AcDbLine
 10
33.053987871165
 20
-32.0
 30
0.0
 11
19.973487871165
 21
-32.0
 31
0.0
  0
LINE
  5
3BF
330
3BB
100
AcDbEntity
  8
2
 62
     0
370
    -2
100
AcDbLine
 10
41.953987871165
 20
-32.0
 30
0.0
 11
33.053987871165
 21
-32.0
 31
0.0
  0
LINE
  5
3C0
330
3BB
100
AcDbEntity
  8
2
 62
     0
370
    -2
100
AcDbLine
 10
44.953987871165
 20
-32.0
 30
0.0
 11
47.953987871165
 21
-32.0
 31
0.0
  0
LINE
  5
3C1
330
3BB
100
AcDbEntity
  8
2
 62
     0
370
    -2
100
AcDbLine
 10
30.053987871165
 20
-32.0
 30
0.0
 11
27.053987871165
 21
-32.0
 31
0.0
  0
SOLID
  5
3C2
330
3BB
100
AcDbEntity
  8
2
 62
     0
100
AcDbTrace
 10
44.953987871165
 20
-31.5
 30
0.0
 11
44.953987871165
 21
-32.5
 31
0.0
 12
41.953987871165
 22
-32.0
 32
0.0
 13
41.953987871165
 23
-32.0
 33
0.0
  0
SOLID
  5
3C3
330
3BB
100
AcDbEntity
  8
2
 62
     0
100
AcDbTrace
 10
30.053987871165
 20
-32.5
 30
0.0
 11
30.053987871165
 21
-31.5
 31
0.0
 12
33.053987871165
 22
-32.0
 32
0.0
 13
33.053987871165
 23
-32.0
 33
0.0
  0
MTEXT
  5
3C4
330
3BB
100
AcDbEntity
  8
2
  6
ByBlock
 62
     0
100
AcDbMText
 10
25.013737871165
 20
-29.38875
 30
0.0
 40
3.5
 41
0.0
 71
     5
 72
     1
  1
\A1;8.9
 73
     1
 44
1.0
  0
POINT
  5
106AC12
330
3BB
100
AcDbEntity
  8
Defpoints
 62
     0
100
AcDbPoint
 10
41.953987871165
 20
-0.61
 30
0.0
  0
POINT
  5
106AC13
330
3BB
100
AcDbEntity
  8
Defpoints
 62
     0
100
AcDbPoint
 10
33.053987871165
 20
-0.8
 30
0.0
  0
POINT
  5
106AC14
330
3BB
100
AcDbEntity
  8
Defpoints
 62
     0
100
AcDbPoint
 10
33.053987871165
 20
-32.0
 30
0.0
  0
ENDBLK
  5
3C5
330
3BB
100
AcDbEntity
  8
2
100
AcDbBlockEnd
  0
BLOCK
  5
3C7
330
3C9
100
AcDbEntity
  8
2
100
AcDbBlockBegin
  2
*D5
 70
     1
 10
0.0
 20
0.0
 30
0.0
  3
*D5
  1

  0
LINE
  5
3CA
330
3C9
100
AcDbEntity
  8
2
 62
     0
370
    -2
100
AcDbLine
 10
42.619686056817
 20
0.5
 30
0.0
 11
42.619686056817
 21
36.0
 31
0.0
  0
LINE
  5
3CB
330
3C9
100
AcDbEntity
  8
2
 62
     0
370
    -2
100
AcDbLine
 10
21.119686056817
 20
2.2905
 30
0.0
 11
21.119686056817
 21
36.0
 31
0.0
  0
LINE
  5
3CC
330
3C9
100
AcDbEntity
  8
2
 62
     0
370
    -2
100
AcDbLine
 10
39.619686056817
 20
35.0
 30
0.0
 11
24.119686056817
 21
35.0
 31
0.0
  0
SOLID
  5
3CD
330
3C9
100
AcDbEntity
  8
2
 62
     0
100
AcDbTrace
 10
39.619686056817
 20
34.5
 30
0.0
 11
39.619686056817
 21
35.5
 31
0.0
 12
42.619686056817
 22
35.0
 32
0.0
 13
42.619686056817
 23
35.0
 33
0.0
  0
SOLID
  5
3CE
330
3C9
100
AcDbEntity
  8
2
 62
     0
100
AcDbTrace
 10
24.119686056817
 20
35.5
 30
0.0
 11
24.119686056817
 21
34.5
 31
0.0
 12
21.119686056817
 22
35.0
 32
0.0
 13
21.119686056817
 23
35.0
 33
0.0
  0
MTEXT
  5
3CF
330
3C9
100
AcDbEntity
  8
2
  6
ByBlock
 62
     0
100
AcDbMText
 10
31.869686056817
 20
37.61125
 30
0.0
 40
3.5
 41
0.0
 71
     5
 72
     1
  1
\A1;21.5
 73
     1
 44
1.0
  0
POINT
  5
3D0
330
3C9
100
AcDbEntity
  8
Defpoints
 62
     0
100
AcDbPoint
 10
42.619686056817
 20
0.0
 30
0.0
  0
POINT
  5
3D1
330
3C9
100
AcDbEntity
  8
Defpoints
 62
     0
100
AcDbPoint
 10
21.119686056817
 20
1.7905
 30
0.0
  0
POINT
  5
3D2
330
3C9
100
AcDbEntity
  8
Defpoints
 62
     0
100
AcDbPoint
 10
21.119686056817
 20
35.0
 30
0.0
  0
ENDBLK
  5
3D3
330
3C9
100
AcDbEntity
  8
2
100
AcDbBlockEnd
  0
BLOCK
  5
106ABF7
330
106ABF6
100
AcDbEntity
  8
2
100
AcDbBlockBegin
  2
*D6
 70
     1
 10
0.0
 20
0.0
 30
0.0
  3
*D6
  1

  0
LINE
  5
106ABF8
330
106ABF6
100
AcDbEntity
  8
2
 62
     0
370
    -2
100
AcDbLine
 10
8.177999999999997
 20
13.6805
 30
0.0
 11
8.177999999999997
 21
0.0000000000000018
 31
0.0
  0
LINE
  5
106ABF9
330
106ABF6
100
AcDbEntity
  8
2
 62
     0
370
    -2
100
AcDbLine
 10
0.2779999999999987
 20
13.4905
 30
0.0
 11
0.2779999999999987
 21
0.0000000000000018
 31
0.0
  0
LINE
  5
106ABFA
330
106ABF6
100
AcDbEntity
  8
2
 62
     0
370
    -2
100
AcDbLine
 10
5.177999999999997
 20
1.000000000000002
 30
0.0
 11
3.277999999999999
 21
1.000000000000002
 31
0.0
  0
SOLID
  5
106ABFB
330
106ABF6
100
AcDbEntity
  8
2
 62
     0
100
AcDbTrace
 10
5.177999999999997
 20
0.5000000000000018
 30
0.0
 11
5.177999999999997
 21
1.500000000000002
 31
0.0
 12
8.177999999999997
 22
1.000000000000002
 32
0.0
 13
8.177999999999997
 23
1.000000000000002
 33
0.0
  0
SOLID
  5
106ABFC
330
106ABF6
100
AcDbEntity
  8
2
 62
     0
100
AcDbTrace
 10
3.277999999999999
 20
1.500000000000002
 30
0.0
 11
3.277999999999999
 21
0.5000000000000018
 31
0.0
 12
0.2779999999999987
 22
1.000000000000002
 32
0.0
 13
0.2779999999999987
 23
1.000000000000002
 33
0.0
  0
MTEXT
  5
106ABFD
330
106ABF6
100
AcDbEntity
  8
2
  6
ByBlock
 62
     0
100
AcDbMText
 10
4.228000000000002
 20
3.611250000000002
 30
0.0
 40
3.5
 41
0.0
 71
     5
 72
     1
  1
\A1;7.9
 73
     1
 44
1.0
  0
POINT
  5
106ABFE
330
106ABF6
100
AcDbEntity
  8
Defpoints
 62
     0
100
AcDbPoint
 10
8.177999999999997
 20
14.1805
 30
0.0
  0
POINT
  5
106ABFF
330
106ABF6
100
AcDbEntity
  8
Defpoints
 62
     0
100
AcDbPoint
 10
0.2779999999999987
 20
13.9905
 30
0.0
  0
POINT
  5
106AC00
330
106ABF6
100
AcDbEntity
  8
Defpoints
 62
     0
100
AcDbPoint
 10
0.2779999999999987
 20
1.000000000000002
 30
0.0
  0
ENDBLK
  5
106AC01
330
106ABF6
100
AcDbEntity
  8
2
100
AcDbBlockEnd
  0
BLOCK
  5
106AC07
330
106AC06
100
AcDbEntity
  8
0
100
AcDbBlockBegin
  2
*D7
 70
     1
 10
0.0
 20
0.0
 30
0.0
  3
*D7
  1

  0
LINE
  5
106AC09
330
106AC06
100
AcDbEntity
  8
2
 62
     0
370
    -2
100
AcDbLine
 10
41.953987871165
 20
-1.11
 30
0.0
 11
41.953987871165
 21
-17.0
 31
0.0
  0
LINE
  5
106AC0A
330
106AC06
100
AcDbEntity
  8
2
 62
     0
370
    -2
100
AcDbLine
 10
40.553987871165
 20
-1.3
 30
0.0
 11
40.553987871165
 21
-17.0
 31
0.0
  0
LINE
  5
106AC0B
330
106AC06
100
AcDbEntity
  8
2
 62
     0
370
    -2
100
AcDbLine
 10
41.953987871165
 20
-16.0
 30
0.0
 11
57.89675
 21
-16.0
 31
0.0
  0
LINE
  5
106AC0C
330
106AC06
100
AcDbEntity
  8
2
 62
     0
370
    -2
100
AcDbLine
 10
41.953987871165
 20
-16.0
 30
0.0
 11
40.553987871165
 21
-16.0
 31
0.0
  0
LINE
  5
106AC0D
330
106AC06
100
AcDbEntity
  8
2
 62
     0
370
    -2
100
AcDbLine
 10
44.953987871165
 20
-16.0
 30
0.0
 11
47.953987871165
 21
-16.0
 31
0.0
  0
LINE
  5
106AC0E
330
106AC06
100
AcDbEntity
  8
2
 62
     0
370
    -2
100
AcDbLine
 10
37.553987871165
 20
-16.0
 30
0.0
 11
34.553987871165
 21
-16.0
 31
0.0
  0
SOLID
  5
106AC0F
330
106AC06
100
AcDbEntity
  8
2
 62
     0
100
AcDbTrace
 10
44.953987871165
 20
-15.5
 30
0.0
 11
44.953987871165
 21
-16.5
 31
0.0
 12
41.953987871165
 22
-16.0
 32
0.0
 13
41.953987871165
 23
-16.0
 33
0.0
  0
SOLID
  5
106AC10
330
106AC06
100
AcDbEntity
  8
2
 62
     0
100
AcDbTrace
 10
37.553987871165
 20
-16.5
 30
0.0
 11
37.553987871165
 21
-15.5
 31
0.0
 12
40.553987871165
 22
-16.0
 32
0.0
 13
40.553987871165
 23
-16.0
 33
0.0
  0
MTEXT
  5
106AC11
330
106AC06
100
AcDbEntity
  8
2
  6
ByBlock
 62
     0
100
AcDbMText
 10
53.0
 20
-13.4395
 30
0.0
 40
3.5
 41
0.0
 71
     5
 72
     1
  1
\A1;1.4
 73
     1
 44
1.0
  0
POINT
  5
106AC1B
330
106AC06
100
AcDbEntity
  8
Defpoints
 62
     0
100
AcDbPoint
 10
41.953987871165
 20
-0.6099999999999999
 30
0.0
  0
POINT
  5
106AC1C
330
106AC06
100
AcDbEntity
  8
Defpoints
 62
     0
100
AcDbPoint
 10
40.553987871165
 20
-0.7999999999999998
 30
0.0
  0
POINT
  5
106AC1D
330
106AC06
100
AcDbEntity
  8
Defpoints
 62
     0
100
AcDbPoint
 10
40.553987871165
 20
-16.0
 30
0.0
  0
ENDBLK
  5
106AC08
330
106AC06
100
AcDbEntity
  8
0
100
AcDbBlockEnd
  0
BLOCK
  5
106AC2B
330
106AC2A
100
AcDbEntity
  8
SK2
100
AcDbBlockBegin
  2
*D8
 70
     1
 10
0.0
 20
0.0
 30
0.0
  3
*D8
  1

  0
LINE
  5
106AC2C
330
106AC2A
100
AcDbEntity
  8
SK2
 62
     0
370
    -2
100
AcDbLine
 10
3.081749999999998
 20
6.0
 30
0.0
 11
5.581749999999998
 21
6.0
 31
0.0
  0
LINE
  5
106AC2D
330
106AC2A
100
AcDbEntity
  8
SK2
 62
     0
370
    -2
100
AcDbLine
 10
3.081749999999998
 20
9.581
 30
0.0
 11
5.581749999999998
 21
9.581
 31
0.0
  0
LINE
  5
106AC2E
330
106AC2A
100
AcDbEntity
  8
SK2
 62
     0
370
    -2
100
AcDbLine
 10
4.581749999999998
 20
9.581
 30
0.0
 11
4.581749999999998
 21
34.0895
 31
0.0
  0
LINE
  5
106AC2F
330
106AC2A
100
AcDbEntity
  8
SK2
 62
     0
370
    -2
100
AcDbLine
 10
4.581749999999998
 20
6.0
 30
0.0
 11
4.581749999999998
 21
9.581
 31
0.0
  0
LINE
  5
106AC30
330
106AC2A
100
AcDbEntity
  8
SK2
 62
     0
370
    -2
100
AcDbLine
 10
4.581749999999998
 20
3.0
 30
0.0
 11
4.581749999999998
 21
0.0
 31
0.0
  0
LINE
  5
106AC31
330
106AC2A
100
AcDbEntity
  8
SK2
 62
     0
370
    -2
100
AcDbLine
 10
4.581749999999998
 20
12.581
 30
0.0
 11
4.581749999999998
 21
15.581
 31
0.0
  0
SOLID
  5
106AC32
330
106AC2A
100
AcDbEntity
  8
SK2
 62
     0
100
AcDbTrace
 10
5.081749999999998
 20
3.0
 30
0.0
 11
4.081749999999998
 21
3.0
 31
0.0
 12
4.581749999999998
 22
6.0
 32
0.0
 13
4.581749999999998
 23
6.0
 33
0.0
  0
SOLID
  5
106AC33
330
106AC2A
100
AcDbEntity
  8
SK2
 62
     0
100
AcDbTrace
 10
4.081749999999998
 20
12.581
 30
0.0
 11
5.081749999999998
 21
12.581
 31
0.0
 12
4.581749999999998
 22
9.581
 32
0.0
 13
4.581749999999998
 23
9.581
 33
0.0
  0
MTEXT
  5
106AC34
330
106AC2A
100
AcDbEntity
  8
SK2
  6
ByBlock
 62
     0
100
AcDbMText
 10
1.91975
 20
24.83525
 30
0.0
 40
3.5
 41
0.0
 71
     5
 72
     1
  1
\A1;%%c3.581
 11
0.0
 21
1.0
 31
0.0
 73
     1
 44
1.0
  0
POINT
  5
106AC35
330
106AC2A
100
AcDbEntity
  8
Defpoints
 62
     0
100
AcDbPoint
 10
2.581749999999998
 20
6.0
 30
0.0
  0
POINT
  5
106AC36
330
106AC2A
100
AcDbEntity
  8
Defpoints
 62
     0
100
AcDbPoint
 10
2.581749999999998
 20
9.581
 30
0.0
  0
POINT
  5
106AC37
330
106AC2A
100
AcDbEntity
  8
Defpoints
 62
     0
100
AcDbPoint
 10
4.581749999999998
 20
9.581
 30
0.0
  0
ENDBLK
  5
106AC38
330
106AC2A
100
AcDbEntity
  8
SK2
100
AcDbBlockEnd
  0
BLOCK
  5
106AC3E
330
106AC3D
100
AcDbEntity
  8
0
100
AcDbBlockBegin
  2
*D9
 70
     1
 10
0.0
 20
0.0
 30
0.0
  3
*D9
  1

  0
LINE
  5
106AC40
330
106AC3D
100
AcDbEntity
  8
2
 62
     0
370
    -2
100
AcDbLine
 10
42.453987871165
 20
-0.6099999999999999
 30
0.0
 11
71.0
 21
-0.6099999999999975
 31
0.0
  0
LINE
  5
106AC41
330
106AC3D
100
AcDbEntity
  8
2
 62
     0
370
    -2
100
AcDbLine
 10
42.453987871165
 20
0.6099999999999999
 30
0.0
 11
71.0
 21
0.6100000000000012
 31
0.0
  0
LINE
  5
106AC42
330
106AC3D
100
AcDbEntity
  8
2
 62
     0
370
    -2
100
AcDbLine
 10
70.0
 20
0.6100000000000012
 30
0.0
 11
70.0
 21
22.889
 31
0.0
  0
LINE
  5
106AC43
330
106AC3D
100
AcDbEntity
  8
2
 62
     0
370
    -2
100
AcDbLine
 10
70.0
 20
-0.6099999999999977
 30
0.0
 11
70.0
 21
0.6100000000000012
 31
0.0
  0
LINE
  5
106AC44
330
106AC3D
100
AcDbEntity
  8
2
 62
     0
370
    -2
100
AcDbLine
 10
70.0
 20
-3.609999999999998
 30
0.0
 11
70.0
 21
-6.609999999999998
 31
0.0
  0
LINE
  5
106AC45
330
106AC3D
100
AcDbEntity
  8
2
 62
     0
370
    -2
100
AcDbLine
 10
70.0
 20
3.610000000000001
 30
0.0
 11
70.0
 21
6.610000000000001
 31
0.0
  0
SOLID
  5
106AC46
330
106AC3D
100
AcDbEntity
  8
2
 62
     0
100
AcDbTrace
 10
70.5
 20
-3.609999999999998
 30
0.0
 11
69.5
 21
-3.609999999999998
 31
0.0
 12
70.0
 22
-0.6099999999999977
 32
0.0
 13
70.0
 23
-0.6099999999999977
 33
0.0
  0
SOLID
  5
106AC47
330
106AC3D
100
AcDbEntity
  8
2
 62
     0
100
AcDbTrace
 10
69.5
 20
3.610000000000001
 30
0.0
 11
70.5
 21
3.610000000000001
 31
0.0
 12
70.0
 22
0.6100000000000012
 32
0.0
 13
70.0
 23
0.6100000000000012
 33
0.0
  0
MTEXT
  5
106AC48
330
106AC3D
100
AcDbEntity
  8
2
  6
ByBlock
 62
     0
100
AcDbMText
 10
67.338
 20
14.7495
 30
0.0
 40
3.5
 41
0.0
 71
     5
 72
     1
  1
\A1;%%c1.22
 11
0.0
 21
1.0
 31
0.0
 73
     1
 44
1.0
  0
POINT
  5
106AC49
330
106AC3D
100
AcDbEntity
  8
Defpoints
 62
     0
100
AcDbPoint
 10
41.953987871165
 20
-0.6099999999999999
 30
0.0
  0
POINT
  5
106AC4A
330
106AC3D
100
AcDbEntity
  8
Defpoints
 62
     0
100
AcDbPoint
 10
41.953987871165
 20
0.6099999999999999
 30
0.0
  0
POINT
  5
106AC4B
330
106AC3D
100
AcDbEntity
  8
Defpoints
 62
     0
100
AcDbPoint
 10
70.0
 20
0.6100000000000015
 30
0.0
  0
ENDBLK
  5
106AC3F
330
106AC3D
100
AcDbEntity
  8
0
100
AcDbBlockEnd
  0
BLOCK
  5
106AC59
330
106AC58
100
AcDbEntity
  8
0
100
AcDbBlockBegin
  2
*D10
 70
     1
 10
0.0
 20
0.0
 30
0.0
  3
*D10
  1

  0
LINE
  5
106AC5A
330
106AC58
100
AcDbEntity
  8
2
 62
     0
370
    -2
100
AcDbLine
 10
0.5
 20
5.999999999999998
 30
0.0
 11
29.046012128835
 21
6.0
 31
0.0
  0
LINE
  5
106AC5B
330
106AC58
100
AcDbEntity
  8
2
 62
     0
370
    -2
100
AcDbLine
 10
0.5
 20
7.219999999999997
 30
0.0
 11
29.046012128835
 21
7.219999999999999
 31
0.0
  0
LINE
  5
106AC5C
330
106AC58
100
AcDbEntity
  8
2
 62
     0
370
    -2
100
AcDbLine
 10
28.046012128835
 20
7.219999999999999
 30
0.0
 11
28.046012128835
 21
29.499
 31
0.0
  0
LINE
  5
106AC5D
330
106AC58
100
AcDbEntity
  8
2
 62
     0
370
    -2
100
AcDbLine
 10
28.046012128835
 20
6.0
 30
0.0
 11
28.046012128835
 21
7.219999999999999
 31
0.0
  0
LINE
  5
106AC5E
330
106AC58
100
AcDbEntity
  8
2
 62
     0
370
    -2
100
AcDbLine
 10
28.046012128835
 20
3.0
 30
0.0
 11
28.046012128835
 21
0.0
 31
0.0
  0
LINE
  5
106AC5F
330
106AC58
100
AcDbEntity
  8
2
 62
     0
370
    -2
100
AcDbLine
 10
28.046012128835
 20
10.22
 30
0.0
 11
28.046012128835
 21
13.22
 31
0.0
  0
SOLID
  5
106AC60
330
106AC58
100
AcDbEntity
  8
2
 62
     0
100
AcDbTrace
 10
28.546012128835
 20
3.0
 30
0.0
 11
27.546012128835
 21
3.0
 31
0.0
 12
28.046012128835
 22
6.0
 32
0.0
 13
28.046012128835
 23
6.0
 33
0.0
  0
SOLID
  5
106AC61
330
106AC58
100
AcDbEntity
  8
2
 62
     0
100
AcDbTrace
 10
27.546012128835
 20
10.22
 30
0.0
 11
28.546012128835
 21
10.22
 31
0.0
 12
28.046012128835
 22
7.219999999999999
 32
0.0
 13
28.046012128835
 23
7.219999999999999
 33
0.0
  0
MTEXT
  5
106AC62
330
106AC58
100
AcDbEntity
  8
2
  6
ByBlock
 62
     0
100
AcDbMText
 10
25.384012128835
 20
21.3595
 30
0.0
 40
3.5
 41
0.0
 71
     5
 72
     1
  1
\A1;%%c1.22
 11
0.0
 21
1.0
 31
0.0
 73
     1
 44
1.0
  0
POINT
  5
106AC63
330
106AC58
100
AcDbEntity
  8
Defpoints
 62
     0
100
AcDbPoint
 10
0.0
 20
5.999999999999998
 30
0.0
  0
POINT
  5
106AC64
330
106AC58
100
AcDbEntity
  8
Defpoints
 62
     0
100
AcDbPoint
 10
0.0
 20
7.219999999999997
 30
0.0
  0
POINT
  5
106AC65
330
106AC58
100
AcDbEntity
  8
Defpoints
 62
     0
100
AcDbPoint
 10
28.046012128835
 20
7.219999999999999
 30
0.0
  0
ENDBLK
  5
106AC66
330
106AC58
100
AcDbEntity
  8
0
100
AcDbBlockEnd
  0
BLOCK
  5
106AC6C
330
106AC6B
100
AcDbEntity
  8
0
100
AcDbBlockBegin
  2
*D11
 70
     1
 10
0.0
 20
0.0
 30
0.0
  3
*D11
  1

  0
LINE
  5
106AC6E
330
106AC6B
100
AcDbEntity
  8
2
 62
     0
370
    -2
100
AcDbLine
 10
41.053987871165
 20
-0.8
 30
0.0
 11
79.0
 21
-0.799999999999997
 31
0.0
  0
LINE
  5
106AC6F
330
106AC6B
100
AcDbEntity
  8
2
 62
     0
370
    -2
100
AcDbLine
 10
41.053987871165
 20
0.8000000000000002
 30
0.0
 11
79.0
 21
0.8000000000000044
 31
0.0
  0
LINE
  5
106AC70
330
106AC6B
100
AcDbEntity
  8
2
 62
     0
370
    -2
100
AcDbLine
 10
78.0
 20
0.8000000000000043
 30
0.0
 11
78.0
 21
35.09800000000001
 31
0.0
  0
LINE
  5
106AC71
330
106AC6B
100
AcDbEntity
  8
2
 62
     0
370
    -2
100
AcDbLine
 10
78.0
 20
-0.7999999999999972
 30
0.0
 11
78.0
 21
0.8000000000000043
 31
0.0
  0
LINE
  5
106AC72
330
106AC6B
100
AcDbEntity
  8
2
 62
     0
370
    -2
100
AcDbLine
 10
78.0
 20
-3.799999999999997
 30
0.0
 11
78.0
 21
-6.799999999999997
 31
0.0
  0
LINE
  5
106AC73
330
106AC6B
100
AcDbEntity
  8
2
 62
     0
370
    -2
100
AcDbLine
 10
78.0
 20
3.800000000000004
 30
0.0
 11
78.0
 21
6.800000000000004
 31
0.0
  0
SOLID
  5
106AC74
330
106AC6B
100
AcDbEntity
  8
2
 62
     0
100
AcDbTrace
 10
78.5
 20
-3.799999999999997
 30
0.0
 11
77.5
 21
-3.799999999999997
 31
0.0
 12
78.0
 22
-0.7999999999999972
 32
0.0
 13
78.0
 23
-0.7999999999999972
 33
0.0
  0
SOLID
  5
106AC75
330
106AC6B
100
AcDbEntity
  8
2
 62
     0
100
AcDbTrace
 10
77.5
 20
3.800000000000004
 30
0.0
 11
78.5
 21
3.800000000000004
 31
0.0
 12
78.0
 22
0.8000000000000043
 32
0.0
 13
78.0
 23
0.8000000000000043
 33
0.0
  0
MTEXT
  5
106AC76
330
106AC6B
100
AcDbEntity
  8
2
  6
ByBlock
 62
     0
100
AcDbMText
 10
75.38875
 20
20.94900000000001
 30
0.0
 40
3.5
 41
0.0
 71
     5
 72
     1
  1
\A1;M1.6X0.35
 11
0.0
 21
1.0
 31
0.0
 73
     1
 44
1.0
  0
POINT
  5
106AC77
330
106AC6B
100
AcDbEntity
  8
Defpoints
 62
     0
100
AcDbPoint
 10
40.553987871165
 20
-0.8
 30
0.0
  0
POINT
  5
106AC78
330
106AC6B
100
AcDbEntity
  8
Defpoints
 62
     0
100
AcDbPoint
 10
40.553987871165
 20
0.8
 30
0.0
  0
POINT
  5
106AC79
330
106AC6B
100
AcDbEntity
  8
Defpoints
 62
     0
100
AcDbPoint
 10
78.0
 20
0.8000000000000024
 30
0.0
  0
ENDBLK
  5
106AC6D
330
106AC6B
100
AcDbEntity
  8
0
100
AcDbBlockEnd
  0
BLOCK
  5
106AC87
330
106AC86
100
AcDbEntity
  8
2
100
AcDbBlockBegin
  2
*D12
 70
     1
 10
0.0
 20
0.0
 30
0.0
  3
*D12
  1

  0
LINE
  5
106AC88
330
106AC86
100
AcDbEntity
  8
2
 62
     0
370
    -2
100
AcDbLine
 10
21.5
 20
0.5
 30
0.0
 11
21.5
 21
36.0
 31
0.0
  0
LINE
  5
106AC89
330
106AC86
100
AcDbEntity
  8
2
 62
     0
370
    -2
100
AcDbLine
 10
0.0
 20
2.2905
 30
0.0
 11
0.0
 21
36.0
 31
0.0
  0
LINE
  5
106AC8A
330
106AC86
100
AcDbEntity
  8
2
 62
     0
370
    -2
100
AcDbLine
 10
18.5
 20
35.0
 30
0.0
 11
3.0
 21
35.0
 31
0.0
  0
SOLID
  5
106AC8B
330
106AC86
100
AcDbEntity
  8
2
 62
     0
100
AcDbTrace
 10
18.5
 20
34.5
 30
0.0
 11
18.5
 21
35.5
 31
0.0
 12
21.5
 22
35.0
 32
0.0
 13
21.5
 23
35.0
 33
0.0
  0
SOLID
  5
106AC8C
330
106AC86
100
AcDbEntity
  8
2
 62
     0
100
AcDbTrace
 10
3.0
 20
35.5
 30
0.0
 11
3.0
 21
34.5
 31
0.0
 12
0.0
 22
35.0
 32
0.0
 13
0.0
 23
35.0
 33
0.0
  0
MTEXT
  5
106AC8D
330
106AC86
100
AcDbEntity
  8
2
  6
ByBlock
 62
     0
100
AcDbMText
 10
10.75
 20
37.61125
 30
0.0
 40
3.5
 41
0.0
 71
     5
 72
     1
  1
\A1;21.5
 73
     1
 44
1.0
  0
POINT
  5
106AC8E
330
106AC86
100
AcDbEntity
  8
Defpoints
 62
     0
100
AcDbPoint
 10
21.5
 20
0.0
 30
0.0
  0
POINT
  5
106AC8F
330
106AC86
100
AcDbEntity
  8
Defpoints
 62
     0
100
AcDbPoint
 10
0.0
 20
1.7905
 30
0.0
  0
POINT
  5
106AC90
330
106AC86
100
AcDbEntity
  8
Defpoints
 62
     0
100
AcDbPoint
 10
0.0
 20
35.0
 30
0.0
  0
ENDBLK
  5
106AC91
330
106AC86
100
AcDbEntity
  8
2
100
AcDbBlockEnd
  0
BLOCK
  5
106AC97
330
106AC96
100
AcDbEntity
  8
0
100
AcDbBlockBegin
  2
*D13
 70
     1
 10
0.0
 20
0.0
 30
0.0
  3
*D13
  1

  0
LINE
  5
106AC99
330
106AC96
100
AcDbEntity
  8
SK2
 62
     0
370
    -2
100
AcDbLine
 10
21.119686056817
 20
2.2905
 30
0.0
 11
21.119686056817
 21
36.0
 31
0.0
  0
LINE
  5
106AC9A
330
106AC96
100
AcDbEntity
  8
SK2
 62
     0
370
    -2
100
AcDbLine
 10
1.953987871165
 20
2.2905
 30
0.0
 11
1.953987871164999
 21
36.0
 31
0.0
  0
LINE
  5
106AC9B
330
106AC96
100
AcDbEntity
  8
SK2
 62
     0
370
    -2
100
AcDbLine
 10
18.119686056817
 20
35.0
 30
0.0
 11
4.953987871164999
 21
35.0
 31
0.0
  0
SOLID
  5
106AC9C
330
106AC96
100
AcDbEntity
  8
SK2
 62
     0
100
AcDbTrace
 10
18.119686056817
 20
34.5
 30
0.0
 11
18.119686056817
 21
35.5
 31
0.0
 12
21.119686056817
 22
35.0
 32
0.0
 13
21.119686056817
 23
35.0
 33
0.0
  0
SOLID
  5
106AC9D
330
106AC96
100
AcDbEntity
  8
SK2
 62
     0
100
AcDbTrace
 10
4.953987871164999
 20
35.5
 30
0.0
 11
4.953987871164999
 21
34.5
 31
0.0
 12
1.953987871164999
 22
35.0
 32
0.0
 13
1.953987871164999
 23
35.0
 33
0.0
  0
MTEXT
  5
106AC9E
330
106AC96
100
AcDbEntity
  8
SK2
  6
ByBlock
 62
     0
100
AcDbMText
 10
11.536836963991
 20
37.61125
 30
0.0
 40
3.5
 41
0.0
 71
     5
 72
     1
  1
\A1;19.2
 73
     1
 44
1.0
  0
POINT
  5
106AC9F
330
106AC96
100
AcDbEntity
  8
Defpoints
 62
     0
100
AcDbPoint
 10
21.119686056817
 20
1.7905
 30
0.0
  0
POINT
  5
106ACA0
330
106AC96
100
AcDbEntity
  8
Defpoints
 62
     0
100
AcDbPoint
 10
1.953987871165
 20
1.7905
 30
0.0
  0
POINT
  5
106ACA1
330
106AC96
100
AcDbEntity
  8
Defpoints
 62
     0
100
AcDbPoint
 10
1.953987871165
 20
35.0
 30
0.0
  0
ENDBLK
  5
106AC98
330
106AC96
100
AcDbEntity
  8
0
100
AcDbBlockEnd
  0
ENDSEC
  0
SECTION
  2
ENTITIES
  0
DIMENSION
  5
38E
330
30
100
AcDbEntity
  8
SK2
100
AcDbDimension
  2
*D0
 10
1.953987871165001
 20
-40.0
 30
0.0
 11
21.953987871165
 21
-40.0
 31
0.0
 70
   160
  1
<>
 71
     5
 42
40.0
  3
STANDARD
100
AcDbAlignedDimension
 13
41.953987871165
 23
-0.61
 33
0.0
 14
1.953987871165
 24
-1.7905
 34
0.0
100
AcDbRotatedDimension
1001
ACAD
1000
DSTYLE
1002
{
1070
   271
1070
     0
1070
   279
1070
     0
1070
    74
1070
     0
1002
}
  0
DIMENSION
  5
39C
330
30
100
AcDbEntity
  8
SK2
100
AcDbDimension
  2
*D1
 10
15.4039
 20
1.790500000000005
 30
0.0
 11
15.4039
 21
17.04475000000001
 31
0.0
 70
   160
  1
%%c<>
 71
     5
 42
3.581
  3
STANDARD
100
AcDbAlignedDimension
 13
1.953987871164999
 23
-1.7905
 33
0.0
 14
1.953987871164999
 24
1.7905
 34
0.0
 50
-90.0
100
AcDbRotatedDimension
1001
ACAD
1000
DSTYLE
1002
{
1070
    76
1070
     1
1070
    75
1070
     1
1070
   271
1070
     3
1070
   279
1070
     0
1070
    74
1070
     0
1002
}
  0
DIMENSION
  5
3AA
330
30
100
AcDbEntity
  8
SK2
100
AcDbDimension
  2
*D2
 10
1.953987871164999
 20
-16.0
 30
0.0
 11
-9.109012128835001
 21
-16.0
 31
0.0
 70
   160
  1
<>
 71
     5
 42
4.8
  3
STANDARD
100
AcDbAlignedDimension
 13
6.753987871165
 23
-1.7905
 33
0.0
 14
1.953987871165
 24
-1.7905
 34
0.0
100
AcDbRotatedDimension
1001
ACAD
1000
DSTYLE
1002
{
1070
   271
1070
     1
1070
   279
1070
     0
1070
    74
1070
     0
1002
}
  0
DIMENSION
  5
3B8
330
30
100
AcDbEntity
  8
2
100
AcDbDimension
  2
*D3
 10
34.053987871165
 20
-24.0
 30
0.0
 11
53.0
 21
-24.0
 31
0.0
 70
   160
  1
<>
 71
     5
 42
7.899999999999999
  3
STANDARD
100
AcDbAlignedDimension
 13
41.953987871165
 23
-0.61
 33
0.0
 14
34.053987871165
 24
-0.8
 34
0.0
100
AcDbRotatedDimension
1001
ACAD
1000
DSTYLE
1002
{
1070
   271
1070
     1
1070
   279
1070
     0
1070
    74
1070
     0
1002
}
1001
ACAD_DSTYLE_DIMFLIPARROW_SYMBOL
1070
   385
1070
     0
1001
ACAD_DSTYLE_DIMFLIPARROW_WHICH_SYMBOL
1070
   386
1070
     3
  0
DIMENSION
  5
3C6
330
30
100
AcDbEntity
  8
2
100
AcDbDimension
  2
*D4
 10
33.053987871165
 20
-32.0
 30
0.0
 11
25.013737871165
 21
-32.0
 31
0.0
 70
   160
  1
<>
 71
     5
 42
8.899999999999999
  3
STANDARD
100
AcDbAlignedDimension
 13
41.953987871165
 23
-0.61
 33
0.0
 14
33.053987871165
 24
-0.8
 34
0.0
100
AcDbRotatedDimension
1001
ACAD
1000
DSTYLE
1002
{
1070
   271
1070
     1
1070
   279
1070
     0
1070
    74
1070
     0
1002
}
1001
ACAD_DSTYLE_DIMFLIPARROW_SYMBOL
1070
   385
1070
     0
1001
ACAD_DSTYLE_DIMFLIPARROW_WHICH_SYMBOL
1070
   386
1070
     3
  0
DIMENSION
  5
3D4
330
30
100
AcDbEntity
  8
2
100
AcDbDimension
  2
*D5
 10
21.119686056817
 20
35.0
 30
0.0
 11
31.869686056817
 21
35.0
 31
0.0
 70
   160
  1
<>
 71
     5
 42
21.5
  3
STANDARD
100
AcDbAlignedDimension
 13
42.619686056817
 23
0.0
 33
0.0
 14
21.119686056817
 24
1.7905
 34
0.0
100
AcDbRotatedDimension
1001
ACAD
1000
DSTYLE
1002
{
1070
   271
1070
     1
1070
   279
1070
     0
1070
    74
1070
     0
1002
}
  0
LINE
  5
36
330
30
100
AcDbEntity
  8
1
100
AcDbLine
 10
21.119686056817
 20
1.7905
 30
0.0
 11
21.119686056817
 21
-1.7905
 31
0.0
  0
LINE
  5
37
330
30
100
AcDbEntity
  8
1
100
AcDbLine
 10
21.119686056817
 20
-1.7905
 30
0.0
 11
28.053887450587
 21
-1.7905
 31
0.0
  0
LINE
  5
38
330
30
100
AcDbEntity
  8
1
100
AcDbLine
 10
28.053887450587
 20
-1.7905
 30
0.0
 11
33.053987871165
 21
-0.8
 31
0.0
  0
LINE
  5
39
330
30
100
AcDbEntity
  8
1
100
AcDbLine
 10
33.053987871165
 20
-0.8
 30
0.0
 11
34.053987871165
 21
-0.8
 31
0.0
  0
LINE
  5
3A
330
30
100
AcDbEntity
  8
1
100
AcDbLine
 10
34.053987871165
 20
-0.8
 30
0.0
 11
40.553987871165
 21
-0.8
 31
0.0
  0
LINE
  5
3B
330
30
100
AcDbEntity
  8
1
100
AcDbLine
 10
40.553987871165
 20
-0.8
 30
0.0
 11
41.953987871165
 21
-0.61
 31
0.0
  0
LINE
  5
3C
330
30
100
AcDbEntity
  8
1
100
AcDbLine
 10
41.953987871165
 20
-0.61
 30
0.0
 11
42.619686056817
 21
0.0
 31
0.0
  0
LINE
  5
3D
330
30
100
AcDbEntity
  8
1
100
AcDbLine
 10
42.619686056817
 20
0.0
 30
0.0
 11
41.953987871165
 21
0.61
 31
0.0
  0
LINE
  5
3E
330
30
100
AcDbEntity
  8
1
100
AcDbLine
 10
41.953987871165
 20
0.61
 30
0.0
 11
40.553987871165
 21
0.8
 31
0.0
  0
LINE
  5
3F
330
30
100
AcDbEntity
  8
1
100
AcDbLine
 10
40.553987871165
 20
0.8
 30
0.0
 11
34.053987871165
 21
0.8
 31
0.0
  0
LINE
  5
40
330
30
100
AcDbEntity
  8
1
100
AcDbLine
 10
34.053987871165
 20
0.8
 30
0.0
 11
33.053987871165
 21
0.8
 31
0.0
  0
LINE
  5
41
330
30
100
AcDbEntity
  8
1
100
AcDbLine
 10
33.053987871165
 20
0.8
 30
0.0
 11
28.053887450587
 21
1.7905
 31
0.0
  0
LINE
  5
42
330
30
100
AcDbEntity
  8
1
100
AcDbLine
 10
28.053887450587
 20
1.7905
 30
0.0
 11
21.119686056817
 21
1.7905
 31
0.0
  0
LINE
  5
43
330
30
100
AcDbEntity
  8
1
100
AcDbLine
 10
41.953987871165
 20
-0.61
 30
0.0
 11
41.953987871165
 21
0.61
 31
0.0
  0
LINE
  5
44
330
30
100
AcDbEntity
  8
1
100
AcDbLine
 10
40.553987871165
 20
0.8
 30
0.0
 11
40.553987871165
 21
-0.8
 31
0.0
  0
LINE
  5
45
330
30
100
AcDbEntity
  8
1
100
AcDbLine
 10
40.541352723483
 20
-0.8
 30
0.0
 11
40.49301939015
 21
-0.8
 31
0.0
  0
LINE
  5
46
330
30
100
AcDbEntity
  8
1
100
AcDbLine
 10
40.49301939015
 20
-0.8
 30
0.0
 11
40.444686056817
 21
-0.8
 31
0.0
  0
LINE
  5
47
330
30
100
AcDbEntity
  8
1
100
AcDbLine
 10
40.444686056817
 20
-0.8
 30
0.0
 11
40.396352723483
 21
-0.8
 31
0.0
  0
LINE
  5
48
330
30
100
AcDbEntity
  8
1
100
AcDbLine
 10
40.396352723483
 20
-0.8
 30
0.0
 11
40.34801939015
 21
-0.8
 31
0.0
  0
LINE
  5
49
330
30
100
AcDbEntity
  8
1
100
AcDbLine
 10
40.34801939015
 20
-0.8
 30
0.0
 11
40.299686056817
 21
-0.8
 31
0.0
  0
LINE
  5
4A
330
30
100
AcDbEntity
  8
1
100
AcDbLine
 10
40.299686056817
 20
-0.8
 30
0.0
 11
40.251352723483
 21
-0.8
 31
0.0
  0
LINE
  5
4B
330
30
100
AcDbEntity
  8
1
100
AcDbLine
 10
40.251352723483
 20
-0.8
 30
0.0
 11
40.20301939015
 21
-0.8
 31
0.0
  0
LINE
  5
4C
330
30
100
AcDbEntity
  8
1
100
AcDbLine
 10
40.20301939015
 20
-0.8
 30
0.0
 11
40.154686056817
 21
-0.8
 31
0.0
  0
LINE
  5
4D
330
30
100
AcDbEntity
  8
1
100
AcDbLine
 10
40.154686056817
 20
-0.8
 30
0.0
 11
40.106352723483
 21
-0.8
 31
0.0
  0
LINE
  5
4E
330
30
100
AcDbEntity
  8
1
100
AcDbLine
 10
40.106352723483
 20
-0.8
 30
0.0
 11
40.05801939015
 21
-0.8
 31
0.0
  0
LINE
  5
4F
330
30
100
AcDbEntity
  8
1
100
AcDbLine
 10
40.05801939015
 20
-0.8
 30
0.0
 11
40.009686056817
 21
-0.8
 31
0.0
  0
LINE
  5
50
330
30
100
AcDbEntity
  8
1
100
AcDbLine
 10
40.009686056817
 20
-0.8
 30
0.0
 11
39.961352723483
 21
-0.8
 31
0.0
  0
LINE
  5
51
330
30
100
AcDbEntity
  8
1
100
AcDbLine
 10
39.961352723483
 20
-0.8
 30
0.0
 11
39.91301939015
 21
-0.8
 31
0.0
  0
LINE
  5
52
330
30
100
AcDbEntity
  8
1
100
AcDbLine
 10
39.91301939015
 20
-0.8
 30
0.0
 11
39.864686056817
 21
-0.8
 31
0.0
  0
LINE
  5
53
330
30
100
AcDbEntity
  8
1
100
AcDbLine
 10
39.864686056817
 20
-0.8
 30
0.0
 11
39.816352723483
 21
-0.8
 31
0.0
  0
LINE
  5
54
330
30
100
AcDbEntity
  8
1
100
AcDbLine
 10
39.816352723483
 20
-0.8
 30
0.0
 11
39.76801939015
 21
-0.8
 31
0.0
  0
LINE
  5
55
330
30
100
AcDbEntity
  8
1
100
AcDbLine
 10
39.76801939015
 20
-0.8
 30
0.0
 11
39.719686056817
 21
-0.8
 31
0.0
  0
LINE
  5
56
330
30
100
AcDbEntity
  8
1
100
AcDbLine
 10
39.719686056817
 20
-0.8
 30
0.0
 11
39.671352723483
 21
-0.8
 31
0.0
  0
LINE
  5
57
330
30
100
AcDbEntity
  8
1
100
AcDbLine
 10
39.671352723483
 20
-0.8
 30
0.0
 11
39.62301939015
 21
-0.8
 31
0.0
  0
LINE
  5
58
330
30
100
AcDbEntity
  8
1
100
AcDbLine
 10
39.62301939015
 20
-0.8
 30
0.0
 11
39.574686056817
 21
-0.8
 31
0.0
  0
LINE
  5
59
330
30
100
AcDbEntity
  8
1
100
AcDbLine
 10
39.574686056817
 20
-0.8
 30
0.0
 11
39.526352723483
 21
-0.8
 31
0.0
  0
LINE
  5
5A
330
30
100
AcDbEntity
  8
1
100
AcDbLine
 10
39.526352723483
 20
-0.8
 30
0.0
 11
39.47801939015
 21
-0.8
 31
0.0
  0
LINE
  5
5B
330
30
100
AcDbEntity
  8
1
100
AcDbLine
 10
39.47801939015
 20
-0.8
 30
0.0
 11
39.429686056817
 21
-0.8
 31
0.0
  0
LINE
  5
5C
330
30
100
AcDbEntity
  8
1
100
AcDbLine
 10
39.429686056817
 20
-0.8
 30
0.0
 11
39.381352723483
 21
-0.8
 31
0.0
  0
LINE
  5
5D
330
30
100
AcDbEntity
  8
1
100
AcDbLine
 10
39.381352723483
 20
-0.8
 30
0.0
 11
39.33301939015
 21
-0.8
 31
0.0
  0
LINE
  5
5E
330
30
100
AcDbEntity
  8
1
100
AcDbLine
 10
39.33301939015
 20
-0.8
 30
0.0
 11
39.284686056817
 21
-0.8
 31
0.0
  0
LINE
  5
5F
330
30
100
AcDbEntity
  8
1
100
AcDbLine
 10
39.284686056817
 20
-0.8
 30
0.0
 11
39.236352723483
 21
-0.8
 31
0.0
  0
LINE
  5
60
330
30
100
AcDbEntity
  8
1
100
AcDbLine
 10
39.236352723483
 20
-0.8
 30
0.0
 11
39.18801939015
 21
-0.8
 31
0.0
  0
LINE
  5
61
330
30
100
AcDbEntity
  8
1
100
AcDbLine
 10
39.18801939015
 20
-0.8
 30
0.0
 11
39.139686056817
 21
-0.8
 31
0.0
  0
LINE
  5
62
330
30
100
AcDbEntity
  8
1
100
AcDbLine
 10
39.139686056817
 20
-0.8
 30
0.0
 11
39.091352723483
 21
-0.8
 31
0.0
  0
LINE
  5
63
330
30
100
AcDbEntity
  8
1
100
AcDbLine
 10
39.091352723483
 20
-0.8
 30
0.0
 11
39.04301939015
 21
-0.8
 31
0.0
  0
LINE
  5
64
330
30
100
AcDbEntity
  8
1
100
AcDbLine
 10
39.04301939015
 20
-0.8
 30
0.0
 11
38.994686056817
 21
-0.8
 31
0.0
  0
LINE
  5
65
330
30
100
AcDbEntity
  8
1
100
AcDbLine
 10
38.994686056817
 20
-0.8
 30
0.0
 11
38.946352723483
 21
-0.8
 31
0.0
  0
LINE
  5
66
330
30
100
AcDbEntity
  8
1
100
AcDbLine
 10
38.946352723483
 20
-0.8
 30
0.0
 11
38.89801939015
 21
-0.8
 31
0.0
  0
LINE
  5
67
330
30
100
AcDbEntity
  8
1
100
AcDbLine
 10
38.89801939015
 20
-0.8
 30
0.0
 11
38.849686056817
 21
-0.8
 31
0.0
  0
LINE
  5
68
330
30
100
AcDbEntity
  8
1
100
AcDbLine
 10
38.849686056817
 20
-0.8
 30
0.0
 11
38.801352723483
 21
-0.8
 31
0.0
  0
LINE
  5
69
330
30
100
AcDbEntity
  8
1
100
AcDbLine
 10
38.801352723483
 20
-0.8
 30
0.0
 11
38.75301939015
 21
-0.8
 31
0.0
  0
LINE
  5
6A
330
30
100
AcDbEntity
  8
1
100
AcDbLine
 10
38.75301939015
 20
-0.8
 30
0.0
 11
38.704686056817
 21
-0.8
 31
0.0
  0
LINE
  5
6B
330
30
100
AcDbEntity
  8
1
100
AcDbLine
 10
38.704686056817
 20
-0.8
 30
0.0
 11
38.656352723483
 21
-0.8
 31
0.0
  0
LINE
  5
6C
330
30
100
AcDbEntity
  8
1
100
AcDbLine
 10
38.656352723483
 20
-0.8
 30
0.0
 11
38.60801939015
 21
-0.8
 31
0.0
  0
LINE
  5
6D
330
30
100
AcDbEntity
  8
1
100
AcDbLine
 10
38.60801939015
 20
-0.8
 30
0.0
 11
38.559686056817
 21
-0.8
 31
0.0
  0
LINE
  5
6E
330
30
100
AcDbEntity
  8
1
100
AcDbLine
 10
38.559686056817
 20
-0.8
 30
0.0
 11
38.511352723483
 21
-0.8
 31
0.0
  0
LINE
  5
6F
330
30
100
AcDbEntity
  8
1
100
AcDbLine
 10
38.511352723483
 20
-0.8
 30
0.0
 11
38.46301939015
 21
-0.8
 31
0.0
  0
LINE
  5
70
330
30
100
AcDbEntity
  8
1
100
AcDbLine
 10
38.46301939015
 20
-0.8
 30
0.0
 11
38.414686056817
 21
-0.8
 31
0.0
  0
LINE
  5
71
330
30
100
AcDbEntity
  8
1
100
AcDbLine
 10
38.414686056817
 20
-0.8
 30
0.0
 11
38.366352723483
 21
-0.8
 31
0.0
  0
LINE
  5
72
330
30
100
AcDbEntity
  8
1
100
AcDbLine
 10
38.366352723483
 20
-0.8
 30
0.0
 11
38.31801939015
 21
-0.8
 31
0.0
  0
LINE
  5
73
330
30
100
AcDbEntity
  8
1
100
AcDbLine
 10
38.31801939015
 20
-0.8
 30
0.0
 11
38.269686056817
 21
-0.8
 31
0.0
  0
LINE
  5
74
330
30
100
AcDbEntity
  8
1
100
AcDbLine
 10
38.269686056817
 20
-0.8
 30
0.0
 11
38.221352723483
 21
-0.8
 31
0.0
  0
LINE
  5
75
330
30
100
AcDbEntity
  8
1
100
AcDbLine
 10
38.221352723483
 20
-0.8
 30
0.0
 11
38.17301939015
 21
-0.8
 31
0.0
  0
LINE
  5
76
330
30
100
AcDbEntity
  8
1
100
AcDbLine
 10
38.17301939015
 20
-0.8
 30
0.0
 11
38.124686056817
 21
-0.8
 31
0.0
  0
LINE
  5
77
330
30
100
AcDbEntity
  8
1
100
AcDbLine
 10
38.124686056817
 20
-0.8
 30
0.0
 11
38.076352723483
 21
-0.8
 31
0.0
  0
LINE
  5
78
330
30
100
AcDbEntity
  8
1
100
AcDbLine
 10
38.076352723483
 20
-0.8
 30
0.0
 11
38.02801939015
 21
-0.8
 31
0.0
  0
LINE
  5
79
330
30
100
AcDbEntity
  8
1
100
AcDbLine
 10
38.02801939015
 20
-0.8
 30
0.0
 11
37.979686056817
 21
-0.8
 31
0.0
  0
LINE
  5
7A
330
30
100
AcDbEntity
  8
1
100
AcDbLine
 10
37.979686056817
 20
-0.8
 30
0.0
 11
37.931352723483
 21
-0.8
 31
0.0
  0
LINE
  5
7B
330
30
100
AcDbEntity
  8
1
100
AcDbLine
 10
37.931352723483
 20
-0.8
 30
0.0
 11
37.88301939015
 21
-0.8
 31
0.0
  0
LINE
  5
7C
330
30
100
AcDbEntity
  8
1
100
AcDbLine
 10
37.88301939015
 20
-0.8
 30
0.0
 11
37.834686056817
 21
-0.8
 31
0.0
  0
LINE
  5
7D
330
30
100
AcDbEntity
  8
1
100
AcDbLine
 10
37.834686056817
 20
-0.8
 30
0.0
 11
37.786352723483
 21
-0.8
 31
0.0
  0
LINE
  5
7E
330
30
100
AcDbEntity
  8
1
100
AcDbLine
 10
37.786352723483
 20
-0.8
 30
0.0
 11
37.73801939015
 21
-0.8
 31
0.0
  0
LINE
  5
7F
330
30
100
AcDbEntity
  8
1
100
AcDbLine
 10
37.73801939015
 20
-0.8
 30
0.0
 11
37.689686056817
 21
-0.8
 31
0.0
  0
LINE
  5
80
330
30
100
AcDbEntity
  8
1
100
AcDbLine
 10
37.689686056817
 20
-0.8
 30
0.0
 11
37.641352723483
 21
-0.8
 31
0.0
  0
LINE
  5
81
330
30
100
AcDbEntity
  8
1
100
AcDbLine
 10
37.641352723483
 20
-0.8
 30
0.0
 11
37.59301939015
 21
-0.8
 31
0.0
  0
LINE
  5
82
330
30
100
AcDbEntity
  8
1
100
AcDbLine
 10
37.59301939015
 20
-0.8
 30
0.0
 11
37.544686056817
 21
-0.8
 31
0.0
  0
LINE
  5
83
330
30
100
AcDbEntity
  8
1
100
AcDbLine
 10
37.544686056817
 20
-0.8
 30
0.0
 11
37.496352723483
 21
-0.8
 31
0.0
  0
LINE
  5
84
330
30
100
AcDbEntity
  8
1
100
AcDbLine
 10
37.496352723483
 20
-0.8
 30
0.0
 11
37.44801939015
 21
-0.8
 31
0.0
  0
LINE
  5
85
330
30
100
AcDbEntity
  8
1
100
AcDbLine
 10
37.44801939015
 20
-0.8
 30
0.0
 11
37.399686056817
 21
-0.8
 31
0.0
  0
LINE
  5
86
330
30
100
AcDbEntity
  8
1
100
AcDbLine
 10
37.399686056817
 20
-0.8
 30
0.0
 11
37.351352723483
 21
-0.8
 31
0.0
  0
LINE
  5
87
330
30
100
AcDbEntity
  8
1
100
AcDbLine
 10
37.351352723483
 20
-0.8
 30
0.0
 11
37.30301939015
 21
-0.8
 31
0.0
  0
LINE
  5
88
330
30
100
AcDbEntity
  8
1
100
AcDbLine
 10
37.30301939015
 20
-0.8
 30
0.0
 11
37.254686056817
 21
-0.8
 31
0.0
  0
LINE
  5
89
330
30
100
AcDbEntity
  8
1
100
AcDbLine
 10
37.254686056817
 20
-0.8
 30
0.0
 11
37.206352723483
 21
-0.8
 31
0.0
  0
LINE
  5
8A
330
30
100
AcDbEntity
  8
1
100
AcDbLine
 10
37.206352723483
 20
-0.8
 30
0.0
 11
37.15801939015
 21
-0.8
 31
0.0
  0
LINE
  5
8B
330
30
100
AcDbEntity
  8
1
100
AcDbLine
 10
37.15801939015
 20
-0.8
 30
0.0
 11
37.109686056817
 21
-0.8
 31
0.0
  0
LINE
  5
8C
330
30
100
AcDbEntity
  8
1
100
AcDbLine
 10
37.109686056817
 20
-0.8
 30
0.0
 11
37.061352723483
 21
-0.8
 31
0.0
  0
LINE
  5
8D
330
30
100
AcDbEntity
  8
1
100
AcDbLine
 10
37.061352723483
 20
-0.8
 30
0.0
 11
37.01301939015
 21
-0.8
 31
0.0
  0
LINE
  5
8E
330
30
100
AcDbEntity
  8
1
100
AcDbLine
 10
37.01301939015
 20
-0.8
 30
0.0
 11
36.964686056817
 21
-0.8
 31
0.0
  0
LINE
  5
8F
330
30
100
AcDbEntity
  8
1
100
AcDbLine
 10
36.964686056817
 20
-0.8
 30
0.0
 11
36.916352723483
 21
-0.8
 31
0.0
  0
LINE
  5
90
330
30
100
AcDbEntity
  8
1
100
AcDbLine
 10
36.916352723483
 20
-0.8
 30
0.0
 11
36.86801939015
 21
-0.8
 31
0.0
  0
LINE
  5
91
330
30
100
AcDbEntity
  8
1
100
AcDbLine
 10
36.86801939015
 20
-0.8
 30
0.0
 11
36.819686056817
 21
-0.8
 31
0.0
  0
LINE
  5
92
330
30
100
AcDbEntity
  8
1
100
AcDbLine
 10
36.819686056817
 20
-0.8
 30
0.0
 11
36.771352723483
 21
-0.8
 31
0.0
  0
LINE
  5
93
330
30
100
AcDbEntity
  8
1
100
AcDbLine
 10
36.771352723483
 20
-0.8
 30
0.0
 11
36.72301939015
 21
-0.8
 31
0.0
  0
LINE
  5
94
330
30
100
AcDbEntity
  8
1
100
AcDbLine
 10
36.72301939015
 20
-0.8
 30
0.0
 11
36.674686056817
 21
-0.8
 31
0.0
  0
LINE
  5
95
330
30
100
AcDbEntity
  8
1
100
AcDbLine
 10
36.674686056817
 20
-0.8
 30
0.0
 11
36.626352723483
 21
-0.8
 31
0.0
  0
LINE
  5
96
330
30
100
AcDbEntity
  8
1
100
AcDbLine
 10
36.626352723483
 20
-0.8
 30
0.0
 11
36.57801939015
 21
-0.8
 31
0.0
  0
LINE
  5
97
330
30
100
AcDbEntity
  8
1
100
AcDbLine
 10
36.57801939015
 20
-0.8
 30
0.0
 11
36.529686056817
 21
-0.8
 31
0.0
  0
LINE
  5
98
330
30
100
AcDbEntity
  8
1
100
AcDbLine
 10
36.529686056817
 20
-0.8
 30
0.0
 11
36.481352723483
 21
-0.8
 31
0.0
  0
LINE
  5
99
330
30
100
AcDbEntity
  8
1
100
AcDbLine
 10
36.481352723483
 20
-0.8
 30
0.0
 11
36.43301939015
 21
-0.8
 31
0.0
  0
LINE
  5
9A
330
30
100
AcDbEntity
  8
1
100
AcDbLine
 10
36.43301939015
 20
-0.8
 30
0.0
 11
36.384686056817
 21
-0.8
 31
0.0
  0
LINE
  5
9B
330
30
100
AcDbEntity
  8
1
100
AcDbLine
 10
36.384686056817
 20
-0.8
 30
0.0
 11
36.336352723483
 21
-0.8
 31
0.0
  0
LINE
  5
9C
330
30
100
AcDbEntity
  8
1
100
AcDbLine
 10
36.336352723483
 20
-0.8
 30
0.0
 11
36.28801939015
 21
-0.8
 31
0.0
  0
LINE
  5
9D
330
30
100
AcDbEntity
  8
1
100
AcDbLine
 10
36.28801939015
 20
-0.8
 30
0.0
 11
36.239686056817
 21
-0.8
 31
0.0
  0
LINE
  5
9E
330
30
100
AcDbEntity
  8
1
100
AcDbLine
 10
36.239686056817
 20
-0.8
 30
0.0
 11
36.191352723483
 21
-0.8
 31
0.0
  0
LINE
  5
9F
330
30
100
AcDbEntity
  8
1
100
AcDbLine
 10
36.191352723483
 20
-0.8
 30
0.0
 11
36.14301939015
 21
-0.8
 31
0.0
  0
LINE
  5
A0
330
30
100
AcDbEntity
  8
1
100
AcDbLine
 10
36.14301939015
 20
-0.8
 30
0.0
 11
36.094686056817
 21
-0.8
 31
0.0
  0
LINE
  5
A1
330
30
100
AcDbEntity
  8
1
100
AcDbLine
 10
36.094686056817
 20
-0.8
 30
0.0
 11
36.046352723483
 21
-0.8
 31
0.0
  0
LINE
  5
A2
330
30
100
AcDbEntity
  8
1
100
AcDbLine
 10
36.046352723483
 20
-0.8
 30
0.0
 11
35.99801939015
 21
-0.8
 31
0.0
  0
LINE
  5
A3
330
30
100
AcDbEntity
  8
1
100
AcDbLine
 10
35.99801939015
 20
-0.8
 30
0.0
 11
35.949686056817
 21
-0.8
 31
0.0
  0
LINE
  5
A4
330
30
100
AcDbEntity
  8
1
100
AcDbLine
 10
35.949686056817
 20
-0.8
 30
0.0
 11
35.901352723483
 21
-0.8
 31
0.0
  0
LINE
  5
A5
330
30
100
AcDbEntity
  8
1
100
AcDbLine
 10
35.901352723483
 20
-0.8
 30
0.0
 11
35.85301939015
 21
-0.8
 31
0.0
  0
LINE
  5
A6
330
30
100
AcDbEntity
  8
1
100
AcDbLine
 10
35.85301939015
 20
-0.8
 30
0.0
 11
35.804686056817
 21
-0.8
 31
0.0
  0
LINE
  5
A7
330
30
100
AcDbEntity
  8
1
100
AcDbLine
 10
35.804686056817
 20
-0.8
 30
0.0
 11
35.756352723483
 21
-0.8
 31
0.0
  0
LINE
  5
A8
330
30
100
AcDbEntity
  8
1
100
AcDbLine
 10
35.756352723483
 20
-0.8
 30
0.0
 11
35.70801939015
 21
-0.8
 31
0.0
  0
LINE
  5
A9
330
30
100
AcDbEntity
  8
1
100
AcDbLine
 10
35.70801939015
 20
-0.8
 30
0.0
 11
35.659686056817
 21
-0.8
 31
0.0
  0
LINE
  5
AA
330
30
100
AcDbEntity
  8
1
100
AcDbLine
 10
35.659686056817
 20
-0.8
 30
0.0
 11
35.611352723483
 21
-0.8
 31
0.0
  0
LINE
  5
AB
330
30
100
AcDbEntity
  8
1
100
AcDbLine
 10
35.611352723483
 20
-0.8
 30
0.0
 11
35.56301939015
 21
-0.8
 31
0.0
  0
LINE
  5
AC
330
30
100
AcDbEntity
  8
1
100
AcDbLine
 10
35.56301939015
 20
-0.8
 30
0.0
 11
35.514686056817
 21
-0.8
 31
0.0
  0
LINE
  5
AD
330
30
100
AcDbEntity
  8
1
100
AcDbLine
 10
35.514686056817
 20
-0.8
 30
0.0
 11
35.466352723483
 21
-0.8
 31
0.0
  0
LINE
  5
AE
330
30
100
AcDbEntity
  8
1
100
AcDbLine
 10
35.466352723483
 20
-0.8
 30
0.0
 11
35.41801939015
 21
-0.8
 31
0.0
  0
LINE
  5
AF
330
30
100
AcDbEntity
  8
1
100
AcDbLine
 10
35.41801939015
 20
-0.8
 30
0.0
 11
35.369686056817
 21
-0.8
 31
0.0
  0
LINE
  5
B0
330
30
100
AcDbEntity
  8
1
100
AcDbLine
 10
35.369686056817
 20
-0.8
 30
0.0
 11
35.321352723483
 21
-0.8
 31
0.0
  0
LINE
  5
B1
330
30
100
AcDbEntity
  8
1
100
AcDbLine
 10
35.321352723483
 20
-0.8
 30
0.0
 11
35.27301939015
 21
-0.8
 31
0.0
  0
LINE
  5
B2
330
30
100
AcDbEntity
  8
1
100
AcDbLine
 10
35.27301939015
 20
-0.8
 30
0.0
 11
35.224686056817
 21
-0.8
 31
0.0
  0
LINE
  5
B3
330
30
100
AcDbEntity
  8
1
100
AcDbLine
 10
35.224686056817
 20
-0.8
 30
0.0
 11
35.176352723483
 21
-0.8
 31
0.0
  0
LINE
  5
B4
330
30
100
AcDbEntity
  8
1
100
AcDbLine
 10
35.176352723483
 20
-0.8
 30
0.0
 11
35.12801939015
 21
-0.8
 31
0.0
  0
LINE
  5
B5
330
30
100
AcDbEntity
  8
1
100
AcDbLine
 10
35.12801939015
 20
-0.8
 30
0.0
 11
35.079686056817
 21
-0.8
 31
0.0
  0
LINE
  5
B6
330
30
100
AcDbEntity
  8
1
100
AcDbLine
 10
35.079686056817
 20
-0.8
 30
0.0
 11
35.031352723483
 21
-0.8
 31
0.0
  0
LINE
  5
B7
330
30
100
AcDbEntity
  8
1
100
AcDbLine
 10
35.031352723483
 20
-0.8
 30
0.0
 11
34.98301939015
 21
-0.8
 31
0.0
  0
LINE
  5
B8
330
30
100
AcDbEntity
  8
1
100
AcDbLine
 10
34.98301939015
 20
-0.8
 30
0.0
 11
34.934686056817
 21
-0.8
 31
0.0
  0
LINE
  5
B9
330
30
100
AcDbEntity
  8
1
100
AcDbLine
 10
34.934686056817
 20
-0.8
 30
0.0
 11
34.886352723483
 21
-0.8
 31
0.0
  0
LINE
  5
BA
330
30
100
AcDbEntity
  8
1
100
AcDbLine
 10
34.886352723483
 20
-0.8
 30
0.0
 11
34.83801939015
 21
-0.8
 31
0.0
  0
LINE
  5
BB
330
30
100
AcDbEntity
  8
1
100
AcDbLine
 10
34.83801939015
 20
-0.8
 30
0.0
 11
34.789686056817
 21
-0.8
 31
0.0
  0
LINE
  5
BC
330
30
100
AcDbEntity
  8
1
100
AcDbLine
 10
34.789686056817
 20
-0.8
 30
0.0
 11
34.741352723483
 21
-0.8
 31
0.0
  0
LINE
  5
BD
330
30
100
AcDbEntity
  8
1
100
AcDbLine
 10
34.741352723483
 20
-0.8
 30
0.0
 11
34.69301939015
 21
-0.8
 31
0.0
  0
LINE
  5
BE
330
30
100
AcDbEntity
  8
1
100
AcDbLine
 10
34.69301939015
 20
-0.8
 30
0.0
 11
34.644686056817
 21
-0.8
 31
0.0
  0
LINE
  5
BF
330
30
100
AcDbEntity
  8
1
100
AcDbLine
 10
34.644686056817
 20
-0.8
 30
0.0
 11
34.596352723483
 21
-0.8
 31
0.0
  0
LINE
  5
C0
330
30
100
AcDbEntity
  8
1
100
AcDbLine
 10
34.596352723483
 20
-0.8
 30
0.0
 11
34.54801939015
 21
-0.8
 31
0.0
  0
LINE
  5
C1
330
30
100
AcDbEntity
  8
1
100
AcDbLine
 10
34.54801939015
 20
-0.8
 30
0.0
 11
34.499686056817
 21
-0.8
 31
0.0
  0
LINE
  5
C2
330
30
100
AcDbEntity
  8
1
100
AcDbLine
 10
34.499686056817
 20
-0.8
 30
0.0
 11
34.451352723483
 21
-0.8
 31
0.0
  0
LINE
  5
C3
330
30
100
AcDbEntity
  8
1
100
AcDbLine
 10
34.451352723483
 20
-0.8
 30
0.0
 11
34.40301939015
 21
-0.8
 31
0.0
  0
LINE
  5
C4
330
30
100
AcDbEntity
  8
1
100
AcDbLine
 10
34.40301939015
 20
-0.8
 30
0.0
 11
34.354686056817
 21
-0.8
 31
0.0
  0
LINE
  5
C5
330
30
100
AcDbEntity
  8
1
100
AcDbLine
 10
34.354686056817
 20
-0.8
 30
0.0
 11
34.306352723483
 21
-0.8
 31
0.0
  0
LINE
  5
C6
330
30
100
AcDbEntity
  8
1
100
AcDbLine
 10
34.306352723483
 20
-0.8
 30
0.0
 11
34.25801939015
 21
-0.8
 31
0.0
  0
LINE
  5
C7
330
30
100
AcDbEntity
  8
1
100
AcDbLine
 10
34.25801939015
 20
-0.8
 30
0.0
 11
34.209686056817
 21
-0.8
 31
0.0
  0
LINE
  5
C8
330
30
100
AcDbEntity
  8
1
100
AcDbLine
 10
34.209686056817
 20
-0.8
 30
0.0
 11
34.161352723483
 21
-0.8
 31
0.0
  0
LINE
  5
C9
330
30
100
AcDbEntity
  8
1
100
AcDbLine
 10
34.161352723483
 20
-0.8
 30
0.0
 11
34.11301939015
 21
-0.8
 31
0.0
  0
LINE
  5
CA
330
30
100
AcDbEntity
  8
1
100
AcDbLine
 10
34.11301939015
 20
-0.8
 30
0.0
 11
34.064686056817
 21
-0.8
 31
0.0
  0
LINE
  5
CB
330
30
100
AcDbEntity
  8
1
100
AcDbLine
 10
34.064686056817
 20
-0.8
 30
0.0
 11
34.016352723483
 21
-0.8
 31
0.0
  0
LINE
  5
CC
330
30
100
AcDbEntity
  8
1
100
AcDbLine
 10
34.016352723483
 20
-0.8
 30
0.0
 11
33.96801939015
 21
-0.8
 31
0.0
  0
LINE
  5
CD
330
30
100
AcDbEntity
  8
1
100
AcDbLine
 10
33.96801939015
 20
-0.8
 30
0.0
 11
33.919686056817
 21
-0.8
 31
0.0
  0
LINE
  5
CE
330
30
100
AcDbEntity
  8
1
100
AcDbLine
 10
33.919686056817
 20
-0.8
 30
0.0
 11
33.871352723483
 21
-0.8
 31
0.0
  0
LINE
  5
CF
330
30
100
AcDbEntity
  8
1
100
AcDbLine
 10
33.871352723483
 20
-0.8
 30
0.0
 11
33.82301939015
 21
-0.8
 31
0.0
  0
LINE
  5
D0
330
30
100
AcDbEntity
  8
1
100
AcDbLine
 10
33.82301939015
 20
-0.8
 30
0.0
 11
33.774686056817
 21
-0.8
 31
0.0
  0
LINE
  5
D1
330
30
100
AcDbEntity
  8
1
100
AcDbLine
 10
33.774686056817
 20
-0.8
 30
0.0
 11
33.726352723483
 21
-0.8
 31
0.0
  0
LINE
  5
D2
330
30
100
AcDbEntity
  8
1
100
AcDbLine
 10
33.726352723483
 20
-0.8
 30
0.0
 11
33.67801939015
 21
-0.8
 31
0.0
  0
LINE
  5
D3
330
30
100
AcDbEntity
  8
1
100
AcDbLine
 10
33.67801939015
 20
-0.8
 30
0.0
 11
33.629686056817
 21
-0.8
 31
0.0
  0
LINE
  5
D4
330
30
100
AcDbEntity
  8
1
100
AcDbLine
 10
33.629686056817
 20
-0.8
 30
0.0
 11
33.581352723483
 21
-0.8
 31
0.0
  0
LINE
  5
D5
330
30
100
AcDbEntity
  8
1
100
AcDbLine
 10
33.581352723483
 20
-0.8
 30
0.0
 11
33.53301939015
 21
-0.8
 31
0.0
  0
LINE
  5
D6
330
30
100
AcDbEntity
  8
1
100
AcDbLine
 10
33.53301939015
 20
-0.8
 30
0.0
 11
33.484686056817
 21
-0.8
 31
0.0
  0
LINE
  5
D7
330
30
100
AcDbEntity
  8
1
100
AcDbLine
 10
33.484686056817
 20
-0.8
 30
0.0
 11
33.436352723483
 21
-0.8
 31
0.0
  0
LINE
  5
D8
330
30
100
AcDbEntity
  8
1
100
AcDbLine
 10
33.436352723483
 20
-0.8
 30
0.0
 11
33.38801939015
 21
-0.8
 31
0.0
  0
LINE
  5
D9
330
30
100
AcDbEntity
  8
1
100
AcDbLine
 10
33.38801939015
 20
-0.8
 30
0.0
 11
33.339686056817
 21
-0.8
 31
0.0
  0
LINE
  5
DA
330
30
100
AcDbEntity
  8
1
100
AcDbLine
 10
33.339686056817
 20
-0.8
 30
0.0
 11
33.291352723483
 21
-0.8
 31
0.0
  0
LINE
  5
DB
330
30
100
AcDbEntity
  8
1
100
AcDbLine
 10
33.291352723483
 20
-0.8
 30
0.0
 11
33.24301939015
 21
-0.8
 31
0.0
  0
LINE
  5
DC
330
30
100
AcDbEntity
  8
1
100
AcDbLine
 10
33.24301939015
 20
-0.8
 30
0.0
 11
33.194686056817
 21
-0.8
 31
0.0
  0
LINE
  5
DD
330
30
100
AcDbEntity
  8
1
100
AcDbLine
 10
33.194686056817
 20
-0.8
 30
0.0
 11
33.146352723483
 21
-0.8
 31
0.0
  0
LINE
  5
DE
330
30
100
AcDbEntity
  8
1
100
AcDbLine
 10
33.146352723483
 20
-0.8
 30
0.0
 11
33.09801939015
 21
-0.8
 31
0.0
  0
LINE
  5
DF
330
30
100
AcDbEntity
  8
1
100
AcDbLine
 10
33.09801939015
 20
-0.8
 30
0.0
 11
33.049686056817
 21
-0.80085217009
 31
0.0
  0
LINE
  5
E0
330
30
100
AcDbEntity
  8
1
100
AcDbLine
 10
33.049686056817
 20
-0.80085217009
 30
0.0
 11
33.001352723483
 21
-0.810426485383
 31
0.0
  0
LINE
  5
E1
330
30
100
AcDbEntity
  8
1
100
AcDbLine
 10
33.001352723483
 20
-0.810426485383
 30
0.0
 11
32.95301939015
 21
-0.820000261723
 31
0.0
  0
LINE
  5
E2
330
30
100
AcDbEntity
  8
1
100
AcDbLine
 10
32.95301939015
 20
-0.820000261723
 30
0.0
 11
32.904686056817
 21
-0.829573517858
 31
0.0
  0
LINE
  5
E3
330
30
100
AcDbEntity
  8
1
100
AcDbLine
 10
32.904686056817
 20
-0.829573517858
 30
0.0
 11
32.856352723483
 21
-0.839146271674
 31
0.0
  0
LINE
  5
E4
330
30
100
AcDbEntity
  8
1
100
AcDbLine
 10
32.856352723483
 20
-0.839146271674
 30
0.0
 11
32.80801939015
 21
-0.848718540247
 31
0.0
  0
LINE
  5
E5
330
30
100
AcDbEntity
  8
1
100
AcDbLine
 10
32.80801939015
 20
-0.848718540247
 30
0.0
 11
32.759686056817
 21
-0.858290339886
 31
0.0
  0
LINE
  5
E6
330
30
100
AcDbEntity
  8
1
100
AcDbLine
 10
32.759686056817
 20
-0.858290339886
 30
0.0
 11
32.711352723483
 21
-0.867861686177
 31
0.0
  0
LINE
  5
E7
330
30
100
AcDbEntity
  8
1
100
AcDbLine
 10
32.711352723483
 20
-0.867861686177
 30
0.0
 11
32.66301939015
 21
-0.877432594023
 31
0.0
  0
LINE
  5
E8
330
30
100
AcDbEntity
  8
1
100
AcDbLine
 10
32.66301939015
 20
-0.877432594023
 30
0.0
 11
32.614686056817
 21
-0.887003077677
 31
0.0
  0
LINE
  5
E9
330
30
100
AcDbEntity
  8
1
100
AcDbLine
 10
32.614686056817
 20
-0.887003077677
 30
0.0
 11
32.566352723483
 21
-0.896573150784
 31
0.0
  0
LINE
  5
EA
330
30
100
AcDbEntity
  8
1
100
AcDbLine
 10
32.566352723483
 20
-0.896573150784
 30
0.0
 11
32.51801939015
 21
-0.906142826407
 31
0.0
  0
LINE
  5
EB
330
30
100
AcDbEntity
  8
1
100
AcDbLine
 10
32.51801939015
 20
-0.906142826407
 30
0.0
 11
32.469686056817
 21
-0.915712117062
 31
0.0
  0
LINE
  5
EC
330
30
100
AcDbEntity
  8
1
100
AcDbLine
 10
32.469686056817
 20
-0.915712117062
 30
0.0
 11
32.421352723483
 21
-0.925281034743
 31
0.0
  0
LINE
  5
ED
330
30
100
AcDbEntity
  8
1
100
AcDbLine
 10
32.421352723483
 20
-0.925281034743
 30
0.0
 11
32.37301939015
 21
-0.93484959095
 31
0.0
  0
LINE
  5
EE
330
30
100
AcDbEntity
  8
1
100
AcDbLine
 10
32.37301939015
 20
-0.93484959095
 30
0.0
 11
32.324686056817
 21
-0.944417796717
 31
0.0
  0
LINE
  5
EF
330
30
100
AcDbEntity
  8
1
100
AcDbLine
 10
32.324686056817
 20
-0.944417796717
 30
0.0
 11
32.276352723483
 21
-0.953985662631
 31
0.0
  0
LINE
  5
F0
330
30
100
AcDbEntity
  8
1
100
AcDbLine
 10
32.276352723483
 20
-0.953985662631
 30
0.0
 11
32.22801939015
 21
-0.963553198857
 31
0.0
  0
LINE
  5
F1
330
30
100
AcDbEntity
  8
1
100
AcDbLine
 10
32.22801939015
 20
-0.963553198857
 30
0.0
 11
32.179686056817
 21
-0.973120415158
 31
0.0
  0
LINE
  5
F2
330
30
100
AcDbEntity
  8
1
100
AcDbLine
 10
32.179686056817
 20
-0.973120415158
 30
0.0
 11
32.131352723483
 21
-0.982687320916
 31
0.0
  0
LINE
  5
F3
330
30
100
AcDbEntity
  8
1
100
AcDbLine
 10
32.131352723483
 20
-0.982687320916
 30
0.0
 11
32.08301939015
 21
-0.992253925149
 31
0.0
  0
LINE
  5
F4
330
30
100
AcDbEntity
  8
1
100
AcDbLine
 10
32.08301939015
 20
-0.992253925149
 30
0.0
 11
32.034686056817
 21
-1.001820236527
 31
0.0
  0
LINE
  5
F5
330
30
100
AcDbEntity
  8
1
100
AcDbLine
 10
32.034686056817
 20
-1.001820236527
 30
0.0
 11
31.986352723483
 21
-1.011386263394
 31
0.0
  0
LINE
  5
F6
330
30
100
AcDbEntity
  8
1
100
AcDbLine
 10
31.986352723483
 20
-1.011386263394
 30
0.0
 11
31.93801939015
 21
-1.020952013777
 31
0.0
  0
LINE
  5
F7
330
30
100
AcDbEntity
  8
1
100
AcDbLine
 10
31.93801939015
 20
-1.020952013777
 30
0.0
 11
31.889686056817
 21
-1.030517495406
 31
0.0
  0
LINE
  5
F8
330
30
100
AcDbEntity
  8
1
100
AcDbLine
 10
31.889686056817
 20
-1.030517495406
 30
0.0
 11
31.841352723483
 21
-1.040082715721
 31
0.0
  0
LINE
  5
F9
330
30
100
AcDbEntity
  8
1
100
AcDbLine
 10
31.841352723483
 20
-1.040082715721
 30
0.0
 11
31.79301939015
 21
-1.049647681895
 31
0.0
  0
LINE
  5
FA
330
30
100
AcDbEntity
  8
1
100
AcDbLine
 10
31.79301939015
 20
-1.049647681895
 30
0.0
 11
31.744686056817
 21
-1.059212400838
 31
0.0
  0
LINE
  5
FB
330
30
100
AcDbEntity
  8
1
100
AcDbLine
 10
31.744686056817
 20
-1.059212400838
 30
0.0
 11
31.696352723483
 21
-1.068776879211
 31
0.0
  0
LINE
  5
FC
330
30
100
AcDbEntity
  8
1
100
AcDbLine
 10
31.696352723483
 20
-1.068776879211
 30
0.0
 11
31.64801939015
 21
-1.078341123438
 31
0.0
  0
LINE
  5
FD
330
30
100
AcDbEntity
  8
1
100
AcDbLine
 10
31.64801939015
 20
-1.078341123438
 30
0.0
 11
31.599686056817
 21
-1.087905139719
 31
0.0
  0
LINE
  5
FE
330
30
100
AcDbEntity
  8
1
100
AcDbLine
 10
31.599686056817
 20
-1.087905139719
 30
0.0
 11
31.551352723483
 21
-1.097468934032
 31
0.0
  0
LINE
  5
FF
330
30
100
AcDbEntity
  8
1
100
AcDbLine
 10
31.551352723483
 20
-1.097468934032
 30
0.0
 11
31.50301939015
 21
-1.107032512151
 31
0.0
  0
LINE
  5
100
330
30
100
AcDbEntity
  8
1
100
AcDbLine
 10
31.50301939015
 20
-1.107032512151
 30
0.0
 11
31.454686056817
 21
-1.116595879651
 31
0.0
  0
LINE
  5
101
330
30
100
AcDbEntity
  8
1
100
AcDbLine
 10
31.454686056817
 20
-1.116595879651
 30
0.0
 11
31.406352723483
 21
-1.126159041916
 31
0.0
  0
LINE
  5
102
330
30
100
AcDbEntity
  8
1
100
AcDbLine
 10
31.406352723483
 20
-1.126159041916
 30
0.0
 11
31.35801939015
 21
-1.135722004148
 31
0.0
  0
LINE
  5
103
330
30
100
AcDbEntity
  8
1
100
AcDbLine
 10
31.35801939015
 20
-1.135722004148
 30
0.0
 11
31.309686056817
 21
-1.145284771376
 31
0.0
  0
LINE
  5
104
330
30
100
AcDbEntity
  8
1
100
AcDbLine
 10
31.309686056817
 20
-1.145284771376
 30
0.0
 11
31.261352723483
 21
-1.154847348459
 31
0.0
  0
LINE
  5
105
330
30
100
AcDbEntity
  8
1
100
AcDbLine
 10
31.261352723483
 20
-1.154847348459
 30
0.0
 11
31.21301939015
 21
-1.164409740098
 31
0.0
  0
LINE
  5
106
330
30
100
AcDbEntity
  8
1
100
AcDbLine
 10
31.21301939015
 20
-1.164409740098
 30
0.0
 11
31.164686056817
 21
-1.17397195084
 31
0.0
  0
LINE
  5
107
330
30
100
AcDbEntity
  8
1
100
AcDbLine
 10
31.164686056817
 20
-1.17397195084
 30
0.0
 11
31.116352723483
 21
-1.183533985084
 31
0.0
  0
LINE
  5
108
330
30
100
AcDbEntity
  8
1
100
AcDbLine
 10
31.116352723483
 20
-1.183533985084
 30
0.0
 11
31.06801939015
 21
-1.193095847087
 31
0.0
  0
LINE
  5
109
330
30
100
AcDbEntity
  8
1
100
AcDbLine
 10
31.06801939015
 20
-1.193095847087
 30
0.0
 11
31.019686056817
 21
-1.202657540971
 31
0.0
  0
LINE
  5
10A
330
30
100
AcDbEntity
  8
1
100
AcDbLine
 10
31.019686056817
 20
-1.202657540971
 30
0.0
 11
30.971352723483
 21
-1.212219070726
 31
0.0
  0
LINE
  5
10B
330
30
100
AcDbEntity
  8
1
100
AcDbLine
 10
30.971352723483
 20
-1.212219070726
 30
0.0
 11
30.92301939015
 21
-1.22178044022
 31
0.0
  0
LINE
  5
10C
330
30
100
AcDbEntity
  8
1
100
AcDbLine
 10
30.92301939015
 20
-1.22178044022
 30
0.0
 11
30.874686056817
 21
-1.231341653196
 31
0.0
  0
LINE
  5
10D
330
30
100
AcDbEntity
  8
1
100
AcDbLine
 10
30.874686056817
 20
-1.231341653196
 30
0.0
 11
30.826352723483
 21
-1.240902713284
 31
0.0
  0
LINE
  5
10E
330
30
100
AcDbEntity
  8
1
100
AcDbLine
 10
30.826352723483
 20
-1.240902713284
 30
0.0
 11
30.77801939015
 21
-1.250463624002
 31
0.0
  0
LINE
  5
10F
330
30
100
AcDbEntity
  8
1
100
AcDbLine
 10
30.77801939015
 20
-1.250463624002
 30
0.0
 11
30.729686056817
 21
-1.26002438876
 31
0.0
  0
LINE
  5
110
330
30
100
AcDbEntity
  8
1
100
AcDbLine
 10
30.729686056817
 20
-1.26002438876
 30
0.0
 11
30.681352723483
 21
-1.269585010867
 31
0.0
  0
LINE
  5
111
330
30
100
AcDbEntity
  8
1
100
AcDbLine
 10
30.681352723483
 20
-1.269585010867
 30
0.0
 11
30.63301939015
 21
-1.279145493531
 31
0.0
  0
LINE
  5
112
330
30
100
AcDbEntity
  8
1
100
AcDbLine
 10
30.63301939015
 20
-1.279145493531
 30
0.0
 11
30.584686056817
 21
-1.288705839864
 31
0.0
  0
LINE
  5
113
330
30
100
AcDbEntity
  8
1
100
AcDbLine
 10
30.584686056817
 20
-1.288705839864
 30
0.0
 11
30.536352723483
 21
-1.298266052888
 31
0.0
  0
LINE
  5
114
330
30
100
AcDbEntity
  8
1
100
AcDbLine
 10
30.536352723483
 20
-1.298266052888
 30
0.0
 11
30.48801939015
 21
-1.307826135534
 31
0.0
  0
LINE
  5
115
330
30
100
AcDbEntity
  8
1
100
AcDbLine
 10
30.48801939015
 20
-1.307826135534
 30
0.0
 11
30.439686056817
 21
-1.31738609065
 31
0.0
  0
LINE
  5
116
330
30
100
AcDbEntity
  8
1
100
AcDbLine
 10
30.439686056817
 20
-1.31738609065
 30
0.0
 11
30.391352723483
 21
-1.326945920999
 31
0.0
  0
LINE
  5
117
330
30
100
AcDbEntity
  8
1
100
AcDbLine
 10
30.391352723483
 20
-1.326945920999
 30
0.0
 11
30.34301939015
 21
-1.336505629268
 31
0.0
  0
LINE
  5
118
330
30
100
AcDbEntity
  8
1
100
AcDbLine
 10
30.34301939015
 20
-1.336505629268
 30
0.0
 11
30.294686056817
 21
-1.346065218064
 31
0.0
  0
LINE
  5
119
330
30
100
AcDbEntity
  8
1
100
AcDbLine
 10
30.294686056817
 20
-1.346065218064
 30
0.0
 11
30.246352723483
 21
-1.355624689923
 31
0.0
  0
LINE
  5
11A
330
30
100
AcDbEntity
  8
1
100
AcDbLine
 10
30.246352723483
 20
-1.355624689923
 30
0.0
 11
30.19801939015
 21
-1.365184047307
 31
0.0
  0
LINE
  5
11B
330
30
100
AcDbEntity
  8
1
100
AcDbLine
 10
30.19801939015
 20
-1.365184047307
 30
0.0
 11
30.149686056817
 21
-1.374743292613
 31
0.0
  0
LINE
  5
11C
330
30
100
AcDbEntity
  8
1
100
AcDbLine
 10
30.149686056817
 20
-1.374743292613
 30
0.0
 11
30.101352723483
 21
-1.384302428167
 31
0.0
  0
LINE
  5
11D
330
30
100
AcDbEntity
  8
1
100
AcDbLine
 10
30.101352723483
 20
-1.384302428167
 30
0.0
 11
30.05301939015
 21
-1.393861456235
 31
0.0
  0
LINE
  5
11E
330
30
100
AcDbEntity
  8
1
100
AcDbLine
 10
30.05301939015
 20
-1.393861456235
 30
0.0
 11
30.004686056817
 21
-1.403420379018
 31
0.0
  0
LINE
  5
11F
330
30
100
AcDbEntity
  8
1
100
AcDbLine
 10
30.004686056817
 20
-1.403420379018
 30
0.0
 11
29.956352723483
 21
-1.412979198661
 31
0.0
  0
LINE
  5
120
330
30
100
AcDbEntity
  8
1
100
AcDbLine
 10
29.956352723483
 20
-1.412979198661
 30
0.0
 11
29.90801939015
 21
-1.422537917247
 31
0.0
  0
LINE
  5
121
330
30
100
AcDbEntity
  8
1
100
AcDbLine
 10
29.90801939015
 20
-1.422537917247
 30
0.0
 11
29.859686056817
 21
-1.432096536805
 31
0.0
  0
LINE
  5
122
330
30
100
AcDbEntity
  8
1
100
AcDbLine
 10
29.859686056817
 20
-1.432096536805
 30
0.0
 11
29.811352723483
 21
-1.441655059311
 31
0.0
  0
LINE
  5
123
330
30
100
AcDbEntity
  8
1
100
AcDbLine
 10
29.811352723483
 20
-1.441655059311
 30
0.0
 11
29.76301939015
 21
-1.451213486688
 31
0.0
  0
LINE
  5
124
330
30
100
AcDbEntity
  8
1
100
AcDbLine
 10
29.76301939015
 20
-1.451213486688
 30
0.0
 11
29.714686056817
 21
-1.460771820807
 31
0.0
  0
LINE
  5
125
330
30
100
AcDbEntity
  8
1
100
AcDbLine
 10
29.714686056817
 20
-1.460771820807
 30
0.0
 11
29.666352723483
 21
-1.470330063493
 31
0.0
  0
LINE
  5
126
330
30
100
AcDbEntity
  8
1
100
AcDbLine
 10
29.666352723483
 20
-1.470330063493
 30
0.0
 11
29.61801939015
 21
-1.479888216522
 31
0.0
  0
LINE
  5
127
330
30
100
AcDbEntity
  8
1
100
AcDbLine
 10
29.61801939015
 20
-1.479888216522
 30
0.0
 11
29.569686056817
 21
-1.489446281624
 31
0.0
  0
LINE
  5
128
330
30
100
AcDbEntity
  8
1
100
AcDbLine
 10
29.569686056817
 20
-1.489446281624
 30
0.0
 11
29.521352723483
 21
-1.499004260486
 31
0.0
  0
LINE
  5
129
330
30
100
AcDbEntity
  8
1
100
AcDbLine
 10
29.521352723483
 20
-1.499004260486
 30
0.0
 11
29.47301939015
 21
-1.508562154751
 31
0.0
  0
LINE
  5
12A
330
30
100
AcDbEntity
  8
1
100
AcDbLine
 10
29.47301939015
 20
-1.508562154751
 30
0.0
 11
29.424686056817
 21
-1.518119966021
 31
0.0
  0
LINE
  5
12B
330
30
100
AcDbEntity
  8
1
100
AcDbLine
 10
29.424686056817
 20
-1.518119966021
 30
0.0
 11
29.376352723483
 21
-1.527677695858
 31
0.0
  0
LINE
  5
12C
330
30
100
AcDbEntity
  8
1
100
AcDbLine
 10
29.376352723483
 20
-1.527677695858
 30
0.0
 11
29.32801939015
 21
-1.537235345785
 31
0.0
  0
LINE
  5
12D
330
30
100
AcDbEntity
  8
1
100
AcDbLine
 10
29.32801939015
 20
-1.537235345785
 30
0.0
 11
29.279686056817
 21
-1.546792917286
 31
0.0
  0
LINE
  5
12E
330
30
100
AcDbEntity
  8
1
100
AcDbLine
 10
29.279686056817
 20
-1.546792917286
 30
0.0
 11
29.231352723483
 21
-1.55635041181
 31
0.0
  0
LINE
  5
12F
330
30
100
AcDbEntity
  8
1
100
AcDbLine
 10
29.231352723483
 20
-1.55635041181
 30
0.0
 11
29.18301939015
 21
-1.56590783077
 31
0.0
  0
LINE
  5
130
330
30
100
AcDbEntity
  8
1
100
AcDbLine
 10
29.18301939015
 20
-1.56590783077
 30
0.0
 11
29.134686056817
 21
-1.575465175546
 31
0.0
  0
LINE
  5
131
330
30
100
AcDbEntity
  8
1
100
AcDbLine
 10
29.134686056817
 20
-1.575465175546
 30
0.0
 11
29.086352723483
 21
-1.585022447481
 31
0.0
  0
LINE
  5
132
330
30
100
AcDbEntity
  8
1
100
AcDbLine
 10
29.086352723483
 20
-1.585022447481
 30
0.0
 11
29.03801939015
 21
-1.594579647889
 31
0.0
  0
LINE
  5
133
330
30
100
AcDbEntity
  8
1
100
AcDbLine
 10
29.03801939015
 20
-1.594579647889
 30
0.0
 11
28.989686056817
 21
-1.604136778051
 31
0.0
  0
LINE
  5
134
330
30
100
AcDbEntity
  8
1
100
AcDbLine
 10
28.989686056817
 20
-1.604136778051
 30
0.0
 11
28.941352723483
 21
-1.613693839219
 31
0.0
  0
LINE
  5
135
330
30
100
AcDbEntity
  8
1
100
AcDbLine
 10
28.941352723483
 20
-1.613693839219
 30
0.0
 11
28.89301939015
 21
-1.623250832614
 31
0.0
  0
LINE
  5
136
330
30
100
AcDbEntity
  8
1
100
AcDbLine
 10
28.89301939015
 20
-1.623250832614
 30
0.0
 11
28.844686056817
 21
-1.632807759429
 31
0.0
  0
LINE
  5
137
330
30
100
AcDbEntity
  8
1
100
AcDbLine
 10
28.844686056817
 20
-1.632807759429
 30
0.0
 11
28.796352723483
 21
-1.64236462083
 31
0.0
  0
LINE
  5
138
330
30
100
AcDbEntity
  8
1
100
AcDbLine
 10
28.796352723483
 20
-1.64236462083
 30
0.0
 11
28.74801939015
 21
-1.651921417953
 31
0.0
  0
LINE
  5
139
330
30
100
AcDbEntity
  8
1
100
AcDbLine
 10
28.74801939015
 20
-1.651921417953
 30
0.0
 11
28.699686056817
 21
-1.661478151911
 31
0.0
  0
LINE
  5
13A
330
30
100
AcDbEntity
  8
1
100
AcDbLine
 10
28.699686056817
 20
-1.661478151911
 30
0.0
 11
28.651352723483
 21
-1.671034823791
 31
0.0
  0
LINE
  5
13B
330
30
100
AcDbEntity
  8
1
100
AcDbLine
 10
28.651352723483
 20
-1.671034823791
 30
0.0
 11
28.60301939015
 21
-1.680591434653
 31
0.0
  0
LINE
  5
13C
330
30
100
AcDbEntity
  8
1
100
AcDbLine
 10
28.60301939015
 20
-1.680591434653
 30
0.0
 11
28.554686056817
 21
-1.690147985534
 31
0.0
  0
LINE
  5
13D
330
30
100
AcDbEntity
  8
1
100
AcDbLine
 10
28.554686056817
 20
-1.690147985534
 30
0.0
 11
28.506352723483
 21
-1.699704477451
 31
0.0
  0
LINE
  5
13E
330
30
100
AcDbEntity
  8
1
100
AcDbLine
 10
28.506352723483
 20
-1.699704477451
 30
0.0
 11
28.45801939015
 21
-1.709260911392
 31
0.0
  0
LINE
  5
13F
330
30
100
AcDbEntity
  8
1
100
AcDbLine
 10
28.45801939015
 20
-1.709260911392
 30
0.0
 11
28.409686056817
 21
-1.718817288328
 31
0.0
  0
LINE
  5
140
330
30
100
AcDbEntity
  8
1
100
AcDbLine
 10
28.409686056817
 20
-1.718817288328
 30
0.0
 11
28.361352723483
 21
-1.728373609206
 31
0.0
  0
LINE
  5
141
330
30
100
AcDbEntity
  8
1
100
AcDbLine
 10
28.361352723483
 20
-1.728373609206
 30
0.0
 11
28.31301939015
 21
-1.737929874953
 31
0.0
  0
LINE
  5
142
330
30
100
AcDbEntity
  8
1
100
AcDbLine
 10
28.31301939015
 20
-1.737929874953
 30
0.0
 11
28.264686056817
 21
-1.747486086476
 31
0.0
  0
LINE
  5
143
330
30
100
AcDbEntity
  8
1
100
AcDbLine
 10
28.264686056817
 20
-1.747486086476
 30
0.0
 11
28.216352723483
 21
-1.757042244661
 31
0.0
  0
LINE
  5
144
330
30
100
AcDbEntity
  8
1
100
AcDbLine
 10
28.216352723483
 20
-1.757042244661
 30
0.0
 11
28.16801939015
 21
-1.766598350376
 31
0.0
  0
LINE
  5
145
330
30
100
AcDbEntity
  8
1
100
AcDbLine
 10
28.16801939015
 20
-1.766598350376
 30
0.0
 11
28.119686056817
 21
-1.776154404469
 31
0.0
  0
LINE
  5
146
330
30
100
AcDbEntity
  8
1
100
AcDbLine
 10
28.119686056817
 20
-1.776154404469
 30
0.0
 11
28.161781262272
 21
-1.76912666517
 31
0.0
  0
LINE
  5
147
330
30
100
AcDbEntity
  8
1
100
AcDbLine
 10
28.053887450587
 20
-1.7905
 30
0.0
 11
28.053887450587
 21
1.7905
 31
0.0
  0
LINE
  5
148
330
30
100
AcDbEntity
  8
1
100
AcDbLine
 10
28.053887450587
 20
1.7905
 30
0.0
 11
28.053887450587
 21
-1.7905
 31
0.0
  0
LINE
  5
149
330
30
100
AcDbEntity
  8
1
100
AcDbLine
 10
28.161781262272
 20
1.76912666517
 30
0.0
 11
28.16801939015
 21
1.617453653499
 31
0.0
  0
LINE
  5
14A
330
30
100
AcDbEntity
  8
1
100
AcDbLine
 10
28.16801939015
 20
1.617453653499
 30
0.0
 11
28.216352723483
 21
1.46444826999
 31
0.0
  0
LINE
  5
14B
330
30
100
AcDbEntity
  8
1
100
AcDbLine
 10
28.216352723483
 20
1.46444826999
 30
0.0
 11
28.264686056817
 21
1.317069903038
 31
0.0
  0
LINE
  5
14C
330
30
100
AcDbEntity
  8
1
100
AcDbLine
 10
28.264686056817
 20
1.317069903038
 30
0.0
 11
28.31301939015
 21
1.175250199925
 31
0.0
  0
LINE
  5
14D
330
30
100
AcDbEntity
  8
1
100
AcDbLine
 10
28.31301939015
 20
1.175250199925
 30
0.0
 11
28.361352723483
 21
1.038920806069
 31
0.0
  0
LINE
  5
14E
330
30
100
AcDbEntity
  8
1
100
AcDbLine
 10
28.361352723483
 20
1.038920806069
 30
0.0
 11
28.409686056817
 21
0.908013364972
 31
0.0
  0
LINE
  5
14F
330
30
100
AcDbEntity
  8
1
100
AcDbLine
 10
28.409686056817
 20
0.908013364972
 30
0.0
 11
28.45801939015
 21
0.782459518166
 31
0.0
  0
LINE
  5
150
330
30
100
AcDbEntity
  8
1
100
AcDbLine
 10
28.45801939015
 20
0.782459518166
 30
0.0
 11
28.506352723483
 21
0.662190905156
 31
0.0
  0
LINE
  5
151
330
30
100
AcDbEntity
  8
1
100
AcDbLine
 10
28.506352723483
 20
0.662190905156
 30
0.0
 11
28.554686056817
 21
0.547139163365
 31
0.0
  0
LINE
  5
152
330
30
100
AcDbEntity
  8
1
100
AcDbLine
 10
28.554686056817
 20
0.547139163365
 30
0.0
 11
28.60301939015
 21
0.437235928072
 31
0.0
  0
LINE
  5
153
330
30
100
AcDbEntity
  8
1
100
AcDbLine
 10
28.60301939015
 20
0.437235928072
 30
0.0
 11
28.651352723483
 21
0.33241283235
 31
0.0
  0
LINE
  5
154
330
30
100
AcDbEntity
  8
1
100
AcDbLine
 10
28.651352723483
 20
0.33241283235
 30
0.0
 11
28.699686056817
 21
0.232601507004
 31
0.0
  0
LINE
  5
155
330
30
100
AcDbEntity
  8
1
100
AcDbLine
 10
28.699686056817
 20
0.232601507004
 30
0.0
 11
28.74801939015
 21
0.137733580503
 31
0.0
  0
LINE
  5
156
330
30
100
AcDbEntity
  8
1
100
AcDbLine
 10
28.74801939015
 20
0.137733580503
 30
0.0
 11
28.796352723483
 21
0.047740678913
 31
0.0
  0
LINE
  5
157
330
30
100
AcDbEntity
  8
1
100
AcDbLine
 10
28.796352723483
 20
0.047740678913
 30
0.0
 11
28.844686056817
 21
-0.037445574174
 31
0.0
  0
LINE
  5
158
330
30
100
AcDbEntity
  8
1
100
AcDbLine
 10
28.844686056817
 20
-0.037445574174
 30
0.0
 11
28.89301939015
 21
-0.117893557717
 31
0.0
  0
LINE
  5
159
330
30
100
AcDbEntity
  8
1
100
AcDbLine
 10
28.89301939015
 20
-0.117893557717
 30
0.0
 11
28.941352723483
 21
-0.193671653296
 31
0.0
  0
LINE
  5
15A
330
30
100
AcDbEntity
  8
1
100
AcDbLine
 10
28.941352723483
 20
-0.193671653296
 30
0.0
 11
28.989686056817
 21
-0.264848245197
 31
0.0
  0
LINE
  5
15B
330
30
100
AcDbEntity
  8
1
100
AcDbLine
 10
28.989686056817
 20
-0.264848245197
 30
0.0
 11
29.03801939015
 21
-0.331491720487
 31
0.0
  0
LINE
  5
15C
330
30
100
AcDbEntity
  8
1
100
AcDbLine
 10
29.03801939015
 20
-0.331491720487
 30
0.0
 11
29.086352723483
 21
-0.393670469107
 31
0.0
  0
LINE
  5
15D
330
30
100
AcDbEntity
  8
1
100
AcDbLine
 10
29.086352723483
 20
-0.393670469107
 30
0.0
 11
29.134686056817
 21
-0.451452883953
 31
0.0
  0
LINE
  5
15E
330
30
100
AcDbEntity
  8
1
100
AcDbLine
 10
29.134686056817
 20
-0.451452883953
 30
0.0
 11
29.18301939015
 21
-0.504907360969
 31
0.0
  0
LINE
  5
15F
330
30
100
AcDbEntity
  8
1
100
AcDbLine
 10
29.18301939015
 20
-0.504907360969
 30
0.0
 11
29.231352723483
 21
-0.554102299244
 31
0.0
  0
LINE
  5
160
330
30
100
AcDbEntity
  8
1
100
AcDbLine
 10
29.231352723483
 20
-0.554102299244
 30
0.0
 11
29.279686056817
 21
-0.599106101105
 31
0.0
  0
LINE
  5
161
330
30
100
AcDbEntity
  8
1
100
AcDbLine
 10
29.279686056817
 20
-0.599106101105
 30
0.0
 11
29.32801939015
 21
-0.639987172224
 31
0.0
  0
LINE
  5
162
330
30
100
AcDbEntity
  8
1
100
AcDbLine
 10
29.32801939015
 20
-0.639987172224
 30
0.0
 11
29.376352723483
 21
-0.676813921721
 31
0.0
  0
LINE
  5
163
330
30
100
AcDbEntity
  8
1
100
AcDbLine
 10
29.376352723483
 20
-0.676813921721
 30
0.0
 11
29.424686056817
 21
-0.709654762274
 31
0.0
  0
LINE
  5
164
330
30
100
AcDbEntity
  8
1
100
AcDbLine
 10
29.424686056817
 20
-0.709654762274
 30
0.0
 11
29.47301939015
 21
-0.738578110232
 31
0.0
  0
LINE
  5
165
330
30
100
AcDbEntity
  8
1
100
AcDbLine
 10
29.47301939015
 20
-0.738578110232
 30
0.0
 11
29.521352723483
 21
-0.763652385734
 31
0.0
  0
LINE
  5
166
330
30
100
AcDbEntity
  8
1
100
AcDbLine
 10
29.521352723483
 20
-0.763652385734
 30
0.0
 11
29.569686056817
 21
-0.784946012833
 31
0.0
  0
LINE
  5
167
330
30
100
AcDbEntity
  8
1
100
AcDbLine
 10
29.569686056817
 20
-0.784946012833
 30
0.0
 11
29.61801939015
 21
-0.802527419622
 31
0.0
  0
LINE
  5
168
330
30
100
AcDbEntity
  8
1
100
AcDbLine
 10
29.61801939015
 20
-0.802527419622
 30
0.0
 11
29.666352723483
 21
-0.816465038366
 31
0.0
  0
LINE
  5
169
330
30
100
AcDbEntity
  8
1
100
AcDbLine
 10
29.666352723483
 20
-0.816465038366
 30
0.0
 11
29.714686056817
 21
-0.826827305644
 31
0.0
  0
LINE
  5
16A
330
30
100
AcDbEntity
  8
1
100
AcDbLine
 10
29.714686056817
 20
-0.826827305644
 30
0.0
 11
29.76301939015
 21
-0.833682662488
 31
0.0
  0
LINE
  5
16B
330
30
100
AcDbEntity
  8
1
100
AcDbLine
 10
29.76301939015
 20
-0.833682662488
 30
0.0
 11
29.811352723483
 21
-0.837099554534
 31
0.0
  0
LINE
  5
16C
330
30
100
AcDbEntity
  8
1
100
AcDbLine
 10
29.811352723483
 20
-0.837099554534
 30
0.0
 11
29.859686056817
 21
-0.837146432179
 31
0.0
  0
LINE
  5
16D
330
30
100
AcDbEntity
  8
1
100
AcDbLine
 10
29.859686056817
 20
-0.837146432179
 30
0.0
 11
29.90801939015
 21
-0.833891750741
 31
0.0
  0
LINE
  5
16E
330
30
100
AcDbEntity
  8
1
100
AcDbLine
 10
29.90801939015
 20
-0.833891750741
 30
0.0
 11
29.956352723483
 21
-0.827802331789
 31
0.0
  0
LINE
  5
16F
330
30
100
AcDbEntity
  8
1
100
AcDbLine
 10
29.956352723483
 20
-0.827802331789
 30
0.0
 11
30.004686056817
 21
-0.821311127923
 31
0.0
  0
LINE
  5
170
330
30
100
AcDbEntity
  8
1
100
AcDbLine
 10
30.004686056817
 20
-0.821311127923
 30
0.0
 11
30.05301939015
 21
-0.814819341615
 31
0.0
  0
LINE
  5
171
330
30
100
AcDbEntity
  8
1
100
AcDbLine
 10
30.05301939015
 20
-0.814819341615
 30
0.0
 11
30.101352723483
 21
-0.808326960623
 31
0.0
  0
LINE
  5
172
330
30
100
AcDbEntity
  8
1
100
AcDbLine
 10
30.101352723483
 20
-0.808326960623
 30
0.0
 11
30.149686056817
 21
-0.801833972358
 31
0.0
  0
LINE
  5
173
330
30
100
AcDbEntity
  8
1
100
AcDbLine
 10
30.149686056817
 20
-0.801833972358
 30
0.0
 11
30.19801939015
 21
-0.795340363874
 31
0.0
  0
LINE
  5
174
330
30
100
AcDbEntity
  8
1
100
AcDbLine
 10
30.19801939015
 20
-0.795340363874
 30
0.0
 11
30.246352723483
 21
-0.788846121849
 31
0.0
  0
LINE
  5
175
330
30
100
AcDbEntity
  8
1
100
AcDbLine
 10
30.246352723483
 20
-0.788846121849
 30
0.0
 11
30.294686056817
 21
-0.78235123258
 31
0.0
  0
LINE
  5
176
330
30
100
AcDbEntity
  8
1
100
AcDbLine
 10
30.294686056817
 20
-0.78235123258
 30
0.0
 11
30.34301939015
 21
-0.77585568196
 31
0.0
  0
LINE
  5
177
330
30
100
AcDbEntity
  8
1
100
AcDbLine
 10
30.34301939015
 20
-0.77585568196
 30
0.0
 11
30.391352723483
 21
-0.769359455471
 31
0.0
  0
LINE
  5
178
330
30
100
AcDbEntity
  8
1
100
AcDbLine
 10
30.391352723483
 20
-0.769359455471
 30
0.0
 11
30.439686056817
 21
-0.762862538164
 31
0.0
  0
LINE
  5
179
330
30
100
AcDbEntity
  8
1
100
AcDbLine
 10
30.439686056817
 20
-0.762862538164
 30
0.0
 11
30.48801939015
 21
-0.756364914644
 31
0.0
  0
LINE
  5
17A
330
30
100
AcDbEntity
  8
1
100
AcDbLine
 10
30.48801939015
 20
-0.756364914644
 30
0.0
 11
30.536352723483
 21
-0.749866569055
 31
0.0
  0
LINE
  5
17B
330
30
100
AcDbEntity
  8
1
100
AcDbLine
 10
30.536352723483
 20
-0.749866569055
 30
0.0
 11
30.584686056817
 21
-0.743367485057
 31
0.0
  0
LINE
  5
17C
330
30
100
AcDbEntity
  8
1
100
AcDbLine
 10
30.584686056817
 20
-0.743367485057
 30
0.0
 11
30.63301939015
 21
-0.736867645817
 31
0.0
  0
LINE
  5
17D
330
30
100
AcDbEntity
  8
1
100
AcDbLine
 10
30.63301939015
 20
-0.736867645817
 30
0.0
 11
30.681352723483
 21
-0.730367033979
 31
0.0
  0
LINE
  5
17E
330
30
100
AcDbEntity
  8
1
100
AcDbLine
 10
30.681352723483
 20
-0.730367033979
 30
0.0
 11
30.729686056817
 21
-0.723865631652
 31
0.0
  0
LINE
  5
17F
330
30
100
AcDbEntity
  8
1
100
AcDbLine
 10
30.729686056817
 20
-0.723865631652
 30
0.0
 11
30.77801939015
 21
-0.717363420385
 31
0.0
  0
LINE
  5
180
330
30
100
AcDbEntity
  8
1
100
AcDbLine
 10
30.77801939015
 20
-0.717363420385
 30
0.0
 11
30.826352723483
 21
-0.710860381147
 31
0.0
  0
LINE
  5
181
330
30
100
AcDbEntity
  8
1
100
AcDbLine
 10
30.826352723483
 20
-0.710860381147
 30
0.0
 11
30.874686056817
 21
-0.704356494301
 31
0.0
  0
LINE
  5
182
330
30
100
AcDbEntity
  8
1
100
AcDbLine
 10
30.874686056817
 20
-0.704356494301
 30
0.0
 11
30.92301939015
 21
-0.697851739583
 31
0.0
  0
LINE
  5
183
330
30
100
AcDbEntity
  8
1
100
AcDbLine
 10
30.92301939015
 20
-0.697851739583
 30
0.0
 11
30.971352723483
 21
-0.691346096073
 31
0.0
  0
LINE
  5
184
330
30
100
AcDbEntity
  8
1
100
AcDbLine
 10
30.971352723483
 20
-0.691346096073
 30
0.0
 11
31.019686056817
 21
-0.684839542174
 31
0.0
  0
LINE
  5
185
330
30
100
AcDbEntity
  8
1
100
AcDbLine
 10
31.019686056817
 20
-0.684839542174
 30
0.0
 11
31.06801939015
 21
-0.678332055575
 31
0.0
  0
LINE
  5
186
330
30
100
AcDbEntity
  8
1
100
AcDbLine
 10
31.06801939015
 20
-0.678332055575
 30
0.0
 11
31.116352723483
 21
-0.671823613231
 31
0.0
  0
LINE
  5
187
330
30
100
AcDbEntity
  8
1
100
AcDbLine
 10
31.116352723483
 20
-0.671823613231
 30
0.0
 11
31.164686056817
 21
-0.665314191327
 31
0.0
  0
LINE
  5
188
330
30
100
AcDbEntity
  8
1
100
AcDbLine
 10
31.164686056817
 20
-0.665314191327
 30
0.0
 11
31.21301939015
 21
-0.658803765245
 31
0.0
  0
LINE
  5
189
330
30
100
AcDbEntity
  8
1
100
AcDbLine
 10
31.21301939015
 20
-0.658803765245
 30
0.0
 11
31.261352723483
 21
-0.652292309532
 31
0.0
  0
LINE
  5
18A
330
30
100
AcDbEntity
  8
1
100
AcDbLine
 10
31.261352723483
 20
-0.652292309532
 30
0.0
 11
31.309686056817
 21
-0.645779797864
 31
0.0
  0
LINE
  5
18B
330
30
100
AcDbEntity
  8
1
100
AcDbLine
 10
31.309686056817
 20
-0.645779797864
 30
0.0
 11
31.35801939015
 21
-0.639266203005
 31
0.0
  0
LINE
  5
18C
330
30
100
AcDbEntity
  8
1
100
AcDbLine
 10
31.35801939015
 20
-0.639266203005
 30
0.0
 11
31.406352723483
 21
-0.632751496772
 31
0.0
  0
LINE
  5
18D
330
30
100
AcDbEntity
  8
1
100
AcDbLine
 10
31.406352723483
 20
-0.632751496772
 30
0.0
 11
31.454686056817
 21
-0.626235649991
 31
0.0
  0
LINE
  5
18E
330
30
100
AcDbEntity
  8
1
100
AcDbLine
 10
31.454686056817
 20
-0.626235649991
 30
0.0
 11
31.50301939015
 21
-0.619718632449
 31
0.0
  0
LINE
  5
18F
330
30
100
AcDbEntity
  8
1
100
AcDbLine
 10
31.50301939015
 20
-0.619718632449
 30
0.0
 11
31.551352723483
 21
-0.613200412854
 31
0.0
  0
LINE
  5
190
330
30
100
AcDbEntity
  8
1
100
AcDbLine
 10
31.551352723483
 20
-0.613200412854
 30
0.0
 11
31.599686056817
 21
-0.606680958782
 31
0.0
  0
LINE
  5
191
330
30
100
AcDbEntity
  8
1
100
AcDbLine
 10
31.599686056817
 20
-0.606680958782
 30
0.0
 11
31.64801939015
 21
-0.600160236625
 31
0.0
  0
LINE
  5
192
330
30
100
AcDbEntity
  8
1
100
AcDbLine
 10
31.64801939015
 20
-0.600160236625
 30
0.0
 11
31.696352723483
 21
-0.593638211537
 31
0.0
  0
LINE
  5
193
330
30
100
AcDbEntity
  8
1
100
AcDbLine
 10
31.696352723483
 20
-0.593638211537
 30
0.0
 11
31.744686056817
 21
-0.587114847378
 31
0.0
  0
LINE
  5
194
330
30
100
AcDbEntity
  8
1
100
AcDbLine
 10
31.744686056817
 20
-0.587114847378
 30
0.0
 11
31.79301939015
 21
-0.580590106648
 31
0.0
  0
LINE
  5
195
330
30
100
AcDbEntity
  8
1
100
AcDbLine
 10
31.79301939015
 20
-0.580590106648
 30
0.0
 11
31.841352723483
 21
-0.574063950428
 31
0.0
  0
LINE
  5
196
330
30
100
AcDbEntity
  8
1
100
AcDbLine
 10
31.841352723483
 20
-0.574063950428
 30
0.0
 11
31.889686056817
 21
-0.567536338306
 31
0.0
  0
LINE
  5
197
330
30
100
AcDbEntity
  8
1
100
AcDbLine
 10
31.889686056817
 20
-0.567536338306
 30
0.0
 11
31.93801939015
 21
-0.561007228312
 31
0.0
  0
LINE
  5
198
330
30
100
AcDbEntity
  8
1
100
AcDbLine
 10
31.93801939015
 20
-0.561007228312
 30
0.0
 11
31.986352723483
 21
-0.554476576832
 31
0.0
  0
LINE
  5
199
330
30
100
AcDbEntity
  8
1
100
AcDbLine
 10
31.986352723483
 20
-0.554476576832
 30
0.0
 11
32.034686056817
 21
-0.547944338534
 31
0.0
  0
LINE
  5
19A
330
30
100
AcDbEntity
  8
1
100
AcDbLine
 10
32.034686056817
 20
-0.547944338534
 30
0.0
 11
32.08301939015
 21
-0.541410466279
 31
0.0
  0
LINE
  5
19B
330
30
100
AcDbEntity
  8
1
100
AcDbLine
 10
32.08301939015
 20
-0.541410466279
 30
0.0
 11
32.131352723483
 21
-0.53487491103
 31
0.0
  0
LINE
  5
19C
330
30
100
AcDbEntity
  8
1
100
AcDbLine
 10
32.131352723483
 20
-0.53487491103
 30
0.0
 11
32.179686056817
 21
-0.528337621752
 31
0.0
  0
LINE
  5
19D
330
30
100
AcDbEntity
  8
1
100
AcDbLine
 10
32.179686056817
 20
-0.528337621752
 30
0.0
 11
32.22801939015
 21
-0.521798545314
 31
0.0
  0
LINE
  5
19E
330
30
100
AcDbEntity
  8
1
100
AcDbLine
 10
32.22801939015
 20
-0.521798545314
 30
0.0
 11
32.276352723483
 21
-0.515257626375
 31
0.0
  0
LINE
  5
19F
330
30
100
AcDbEntity
  8
1
100
AcDbLine
 10
32.276352723483
 20
-0.515257626375
 30
0.0
 11
32.324686056817
 21
-0.50871480727
 31
0.0
  0
LINE
  5
1A0
330
30
100
AcDbEntity
  8
1
100
AcDbLine
 10
32.324686056817
 20
-0.50871480727
 30
0.0
 11
32.37301939015
 21
-0.502170027884
 31
0.0
  0
LINE
  5
1A1
330
30
100
AcDbEntity
  8
1
100
AcDbLine
 10
32.37301939015
 20
-0.502170027884
 30
0.0
 11
32.421352723483
 21
-0.495623225519
 31
0.0
  0
LINE
  5
1A2
330
30
100
AcDbEntity
  8
1
100
AcDbLine
 10
32.421352723483
 20
-0.495623225519
 30
0.0
 11
32.469686056817
 21
-0.489074334754
 31
0.0
  0
LINE
  5
1A3
330
30
100
AcDbEntity
  8
1
100
AcDbLine
 10
32.469686056817
 20
-0.489074334754
 30
0.0
 11
32.51801939015
 21
-0.482523287295
 31
0.0
  0
LINE
  5
1A4
330
30
100
AcDbEntity
  8
1
100
AcDbLine
 10
32.51801939015
 20
-0.482523287295
 30
0.0
 11
32.566352723483
 21
-0.475970011814
 31
0.0
  0
LINE
  5
1A5
330
30
100
AcDbEntity
  8
1
100
AcDbLine
 10
32.566352723483
 20
-0.475970011814
 30
0.0
 11
32.614686056817
 21
-0.469414433774
 31
0.0
  0
LINE
  5
1A6
330
30
100
AcDbEntity
  8
1
100
AcDbLine
 10
32.614686056817
 20
-0.469414433774
 30
0.0
 11
32.66301939015
 21
-0.46285647525
 31
0.0
  0
LINE
  5
1A7
330
30
100
AcDbEntity
  8
1
100
AcDbLine
 10
32.66301939015
 20
-0.46285647525
 30
0.0
 11
32.711352723483
 21
-0.456296054729
 31
0.0
  0
LINE
  5
1A8
330
30
100
AcDbEntity
  8
1
100
AcDbLine
 10
32.711352723483
 20
-0.456296054729
 30
0.0
 11
32.759686056817
 21
-0.449733086903
 31
0.0
  0
LINE
  5
1A9
330
30
100
AcDbEntity
  8
1
100
AcDbLine
 10
32.759686056817
 20
-0.449733086903
 30
0.0
 11
32.80801939015
 21
-0.443167482439
 31
0.0
  0
LINE
  5
1AA
330
30
100
AcDbEntity
  8
1
100
AcDbLine
 10
32.80801939015
 20
-0.443167482439
 30
0.0
 11
32.856352723483
 21
-0.436599147739
 31
0.0
  0
LINE
  5
1AB
330
30
100
AcDbEntity
  8
1
100
AcDbLine
 10
32.856352723483
 20
-0.436599147739
 30
0.0
 11
32.904686056817
 21
-0.430027984681
 31
0.0
  0
LINE
  5
1AC
330
30
100
AcDbEntity
  8
1
100
AcDbLine
 10
32.904686056817
 20
-0.430027984681
 30
0.0
 11
32.95301939015
 21
-0.423453890338
 31
0.0
  0
LINE
  5
1AD
330
30
100
AcDbEntity
  8
1
100
AcDbLine
 10
32.95301939015
 20
-0.423453890338
 30
0.0
 11
33.001352723483
 21
-0.416876756678
 31
0.0
  0
LINE
  5
1AE
330
30
100
AcDbEntity
  8
1
100
AcDbLine
 10
33.001352723483
 20
-0.416876756678
 30
0.0
 11
33.049686056817
 21
-0.410296470242
 31
0.0
  0
LINE
  5
1AF
330
30
100
AcDbEntity
  8
1
100
AcDbLine
 10
33.049686056817
 20
-0.410296470242
 30
0.0
 11
33.09801939015
 21
-0.409710647875
 31
0.0
  0
LINE
  5
1B0
330
30
100
AcDbEntity
  8
1
100
AcDbLine
 10
33.09801939015
 20
-0.409710647875
 30
0.0
 11
33.146352723483
 21
-0.409710647875
 31
0.0
  0
LINE
  5
1B1
330
30
100
AcDbEntity
  8
1
100
AcDbLine
 10
33.146352723483
 20
-0.409710647875
 30
0.0
 11
33.194686056817
 21
-0.409710647875
 31
0.0
  0
LINE
  5
1B2
330
30
100
AcDbEntity
  8
1
100
AcDbLine
 10
33.194686056817
 20
-0.409710647875
 30
0.0
 11
33.24301939015
 21
-0.409710647875
 31
0.0
  0
LINE
  5
1B3
330
30
100
AcDbEntity
  8
1
100
AcDbLine
 10
33.24301939015
 20
-0.409710647875
 30
0.0
 11
33.291352723483
 21
-0.409710647875
 31
0.0
  0
LINE
  5
1B4
330
30
100
AcDbEntity
  8
1
100
AcDbLine
 10
33.291352723483
 20
-0.409710647875
 30
0.0
 11
33.339686056817
 21
-0.409710647875
 31
0.0
  0
LINE
  5
1B5
330
30
100
AcDbEntity
  8
1
100
AcDbLine
 10
33.339686056817
 20
-0.409710647875
 30
0.0
 11
33.38801939015
 21
-0.409710647875
 31
0.0
  0
LINE
  5
1B6
330
30
100
AcDbEntity
  8
1
100
AcDbLine
 10
33.38801939015
 20
-0.409710647875
 30
0.0
 11
33.436352723483
 21
-0.409710647875
 31
0.0
  0
LINE
  5
1B7
330
30
100
AcDbEntity
  8
1
100
AcDbLine
 10
33.436352723483
 20
-0.409710647875
 30
0.0
 11
33.484686056817
 21
-0.409710647875
 31
0.0
  0
LINE
  5
1B8
330
30
100
AcDbEntity
  8
1
100
AcDbLine
 10
33.484686056817
 20
-0.409710647875
 30
0.0
 11
33.53301939015
 21
-0.409710647875
 31
0.0
  0
LINE
  5
1B9
330
30
100
AcDbEntity
  8
1
100
AcDbLine
 10
33.53301939015
 20
-0.409710647875
 30
0.0
 11
33.581352723483
 21
-0.409710647875
 31
0.0
  0
LINE
  5
1BA
330
30
100
AcDbEntity
  8
1
100
AcDbLine
 10
33.581352723483
 20
-0.409710647875
 30
0.0
 11
33.629686056817
 21
-0.409710647875
 31
0.0
  0
LINE
  5
1BB
330
30
100
AcDbEntity
  8
1
100
AcDbLine
 10
33.629686056817
 20
-0.409710647875
 30
0.0
 11
33.67801939015
 21
-0.409710647875
 31
0.0
  0
LINE
  5
1BC
330
30
100
AcDbEntity
  8
1
100
AcDbLine
 10
33.67801939015
 20
-0.409710647875
 30
0.0
 11
33.726352723483
 21
-0.409710647875
 31
0.0
  0
LINE
  5
1BD
330
30
100
AcDbEntity
  8
1
100
AcDbLine
 10
33.726352723483
 20
-0.409710647875
 30
0.0
 11
33.774686056817
 21
-0.409710647875
 31
0.0
  0
LINE
  5
1BE
330
30
100
AcDbEntity
  8
1
100
AcDbLine
 10
33.774686056817
 20
-0.409710647875
 30
0.0
 11
33.82301939015
 21
-0.409710647875
 31
0.0
  0
LINE
  5
1BF
330
30
100
AcDbEntity
  8
1
100
AcDbLine
 10
33.82301939015
 20
-0.409710647875
 30
0.0
 11
33.871352723483
 21
-0.409710647875
 31
0.0
  0
LINE
  5
1C0
330
30
100
AcDbEntity
  8
1
100
AcDbLine
 10
33.871352723483
 20
-0.409710647875
 30
0.0
 11
33.919686056817
 21
-0.409710647875
 31
0.0
  0
LINE
  5
1C1
330
30
100
AcDbEntity
  8
1
100
AcDbLine
 10
33.919686056817
 20
-0.409710647875
 30
0.0
 11
33.96801939015
 21
-0.409710647875
 31
0.0
  0
LINE
  5
1C2
330
30
100
AcDbEntity
  8
1
100
AcDbLine
 10
33.96801939015
 20
-0.409710647875
 30
0.0
 11
34.016352723483
 21
-0.409710647875
 31
0.0
  0
LINE
  5
1C3
330
30
100
AcDbEntity
  8
1
100
AcDbLine
 10
34.016352723483
 20
-0.409710647875
 30
0.0
 11
34.064686056817
 21
-0.409710647875
 31
0.0
  0
LINE
  5
1C4
330
30
100
AcDbEntity
  8
1
100
AcDbLine
 10
34.064686056817
 20
-0.409710647875
 30
0.0
 11
34.11301939015
 21
-0.409710647875
 31
0.0
  0
LINE
  5
1C5
330
30
100
AcDbEntity
  8
1
100
AcDbLine
 10
34.11301939015
 20
-0.409710647875
 30
0.0
 11
34.161352723483
 21
-0.409710647875
 31
0.0
  0
LINE
  5
1C6
330
30
100
AcDbEntity
  8
1
100
AcDbLine
 10
34.161352723483
 20
-0.409710647875
 30
0.0
 11
34.209686056817
 21
-0.409710647875
 31
0.0
  0
LINE
  5
1C7
330
30
100
AcDbEntity
  8
1
100
AcDbLine
 10
34.209686056817
 20
-0.409710647875
 30
0.0
 11
34.25801939015
 21
-0.409710647875
 31
0.0
  0
LINE
  5
1C8
330
30
100
AcDbEntity
  8
1
100
AcDbLine
 10
34.25801939015
 20
-0.409710647875
 30
0.0
 11
34.306352723483
 21
-0.409710647875
 31
0.0
  0
LINE
  5
1C9
330
30
100
AcDbEntity
  8
1
100
AcDbLine
 10
34.306352723483
 20
-0.409710647875
 30
0.0
 11
34.354686056817
 21
-0.409710647875
 31
0.0
  0
LINE
  5
1CA
330
30
100
AcDbEntity
  8
1
100
AcDbLine
 10
34.354686056817
 20
-0.409710647875
 30
0.0
 11
34.40301939015
 21
-0.409710647875
 31
0.0
  0
LINE
  5
1CB
330
30
100
AcDbEntity
  8
1
100
AcDbLine
 10
34.40301939015
 20
-0.409710647875
 30
0.0
 11
34.451352723483
 21
-0.409710647875
 31
0.0
  0
LINE
  5
1CC
330
30
100
AcDbEntity
  8
1
100
AcDbLine
 10
34.451352723483
 20
-0.409710647875
 30
0.0
 11
34.499686056817
 21
-0.409710647875
 31
0.0
  0
LINE
  5
1CD
330
30
100
AcDbEntity
  8
1
100
AcDbLine
 10
34.499686056817
 20
-0.409710647875
 30
0.0
 11
34.54801939015
 21
-0.409710647875
 31
0.0
  0
LINE
  5
1CE
330
30
100
AcDbEntity
  8
1
100
AcDbLine
 10
34.54801939015
 20
-0.409710647875
 30
0.0
 11
34.596352723483
 21
-0.409710647875
 31
0.0
  0
LINE
  5
1CF
330
30
100
AcDbEntity
  8
1
100
AcDbLine
 10
34.596352723483
 20
-0.409710647875
 30
0.0
 11
34.644686056817
 21
-0.409710647875
 31
0.0
  0
LINE
  5
1D0
330
30
100
AcDbEntity
  8
1
100
AcDbLine
 10
34.644686056817
 20
-0.409710647875
 30
0.0
 11
34.69301939015
 21
-0.409710647875
 31
0.0
  0
LINE
  5
1D1
330
30
100
AcDbEntity
  8
1
100
AcDbLine
 10
34.69301939015
 20
-0.409710647875
 30
0.0
 11
34.741352723483
 21
-0.409710647875
 31
0.0
  0
LINE
  5
1D2
330
30
100
AcDbEntity
  8
1
100
AcDbLine
 10
34.741352723483
 20
-0.409710647875
 30
0.0
 11
34.789686056817
 21
-0.409710647875
 31
0.0
  0
LINE
  5
1D3
330
30
100
AcDbEntity
  8
1
100
AcDbLine
 10
34.789686056817
 20
-0.409710647875
 30
0.0
 11
34.83801939015
 21
-0.409710647875
 31
0.0
  0
LINE
  5
1D4
330
30
100
AcDbEntity
  8
1
100
AcDbLine
 10
34.83801939015
 20
-0.409710647875
 30
0.0
 11
34.886352723483
 21
-0.409710647875
 31
0.0
  0
LINE
  5
1D5
330
30
100
AcDbEntity
  8
1
100
AcDbLine
 10
34.886352723483
 20
-0.409710647875
 30
0.0
 11
34.934686056817
 21
-0.409710647875
 31
0.0
  0
LINE
  5
1D6
330
30
100
AcDbEntity
  8
1
100
AcDbLine
 10
34.934686056817
 20
-0.409710647875
 30
0.0
 11
34.98301939015
 21
-0.409710647875
 31
0.0
  0
LINE
  5
1D7
330
30
100
AcDbEntity
  8
1
100
AcDbLine
 10
34.98301939015
 20
-0.409710647875
 30
0.0
 11
35.031352723483
 21
-0.409710647875
 31
0.0
  0
LINE
  5
1D8
330
30
100
AcDbEntity
  8
1
100
AcDbLine
 10
35.031352723483
 20
-0.409710647875
 30
0.0
 11
35.079686056817
 21
-0.409710647875
 31
0.0
  0
LINE
  5
1D9
330
30
100
AcDbEntity
  8
1
100
AcDbLine
 10
35.079686056817
 20
-0.409710647875
 30
0.0
 11
35.12801939015
 21
-0.409710647875
 31
0.0
  0
LINE
  5
1DA
330
30
100
AcDbEntity
  8
1
100
AcDbLine
 10
35.12801939015
 20
-0.409710647875
 30
0.0
 11
35.176352723483
 21
-0.409710647875
 31
0.0
  0
LINE
  5
1DB
330
30
100
AcDbEntity
  8
1
100
AcDbLine
 10
35.176352723483
 20
-0.409710647875
 30
0.0
 11
35.224686056817
 21
-0.409710647875
 31
0.0
  0
LINE
  5
1DC
330
30
100
AcDbEntity
  8
1
100
AcDbLine
 10
35.224686056817
 20
-0.409710647875
 30
0.0
 11
35.27301939015
 21
-0.409710647875
 31
0.0
  0
LINE
  5
1DD
330
30
100
AcDbEntity
  8
1
100
AcDbLine
 10
35.27301939015
 20
-0.409710647875
 30
0.0
 11
35.321352723483
 21
-0.409710647875
 31
0.0
  0
LINE
  5
1DE
330
30
100
AcDbEntity
  8
1
100
AcDbLine
 10
35.321352723483
 20
-0.409710647875
 30
0.0
 11
35.369686056817
 21
-0.409710647875
 31
0.0
  0
LINE
  5
1DF
330
30
100
AcDbEntity
  8
1
100
AcDbLine
 10
35.369686056817
 20
-0.409710647875
 30
0.0
 11
35.41801939015
 21
-0.409710647875
 31
0.0
  0
LINE
  5
1E0
330
30
100
AcDbEntity
  8
1
100
AcDbLine
 10
35.41801939015
 20
-0.409710647875
 30
0.0
 11
35.466352723483
 21
-0.409710647875
 31
0.0
  0
LINE
  5
1E1
330
30
100
AcDbEntity
  8
1
100
AcDbLine
 10
35.466352723483
 20
-0.409710647875
 30
0.0
 11
35.514686056817
 21
-0.409710647875
 31
0.0
  0
LINE
  5
1E2
330
30
100
AcDbEntity
  8
1
100
AcDbLine
 10
35.514686056817
 20
-0.409710647875
 30
0.0
 11
35.56301939015
 21
-0.409710647875
 31
0.0
  0
LINE
  5
1E3
330
30
100
AcDbEntity
  8
1
100
AcDbLine
 10
35.56301939015
 20
-0.409710647875
 30
0.0
 11
35.611352723483
 21
-0.409710647875
 31
0.0
  0
LINE
  5
1E4
330
30
100
AcDbEntity
  8
1
100
AcDbLine
 10
35.611352723483
 20
-0.409710647875
 30
0.0
 11
35.659686056817
 21
-0.409710647875
 31
0.0
  0
LINE
  5
1E5
330
30
100
AcDbEntity
  8
1
100
AcDbLine
 10
35.659686056817
 20
-0.409710647875
 30
0.0
 11
35.70801939015
 21
-0.409710647875
 31
0.0
  0
LINE
  5
1E6
330
30
100
AcDbEntity
  8
1
100
AcDbLine
 10
35.70801939015
 20
-0.409710647875
 30
0.0
 11
35.756352723483
 21
-0.409710647875
 31
0.0
  0
LINE
  5
1E7
330
30
100
AcDbEntity
  8
1
100
AcDbLine
 10
35.756352723483
 20
-0.409710647875
 30
0.0
 11
35.804686056817
 21
-0.409710647875
 31
0.0
  0
LINE
  5
1E8
330
30
100
AcDbEntity
  8
1
100
AcDbLine
 10
35.804686056817
 20
-0.409710647875
 30
0.0
 11
35.85301939015
 21
-0.409710647875
 31
0.0
  0
LINE
  5
1E9
330
30
100
AcDbEntity
  8
1
100
AcDbLine
 10
35.85301939015
 20
-0.409710647875
 30
0.0
 11
35.901352723483
 21
-0.409710647875
 31
0.0
  0
LINE
  5
1EA
330
30
100
AcDbEntity
  8
1
100
AcDbLine
 10
35.901352723483
 20
-0.409710647875
 30
0.0
 11
35.949686056817
 21
-0.409710647875
 31
0.0
  0
LINE
  5
1EB
330
30
100
AcDbEntity
  8
1
100
AcDbLine
 10
35.949686056817
 20
-0.409710647875
 30
0.0
 11
35.99801939015
 21
-0.409710647875
 31
0.0
  0
LINE
  5
1EC
330
30
100
AcDbEntity
  8
1
100
AcDbLine
 10
35.99801939015
 20
-0.409710647875
 30
0.0
 11
36.046352723483
 21
-0.409710647875
 31
0.0
  0
LINE
  5
1ED
330
30
100
AcDbEntity
  8
1
100
AcDbLine
 10
36.046352723483
 20
-0.409710647875
 30
0.0
 11
36.094686056817
 21
-0.409710647875
 31
0.0
  0
LINE
  5
1EE
330
30
100
AcDbEntity
  8
1
100
AcDbLine
 10
36.094686056817
 20
-0.409710647875
 30
0.0
 11
36.14301939015
 21
-0.409710647875
 31
0.0
  0
LINE
  5
1EF
330
30
100
AcDbEntity
  8
1
100
AcDbLine
 10
36.14301939015
 20
-0.409710647875
 30
0.0
 11
36.191352723483
 21
-0.409710647875
 31
0.0
  0
LINE
  5
1F0
330
30
100
AcDbEntity
  8
1
100
AcDbLine
 10
36.191352723483
 20
-0.409710647875
 30
0.0
 11
36.239686056817
 21
-0.409710647875
 31
0.0
  0
LINE
  5
1F1
330
30
100
AcDbEntity
  8
1
100
AcDbLine
 10
36.239686056817
 20
-0.409710647875
 30
0.0
 11
36.28801939015
 21
-0.409710647875
 31
0.0
  0
LINE
  5
1F2
330
30
100
AcDbEntity
  8
1
100
AcDbLine
 10
36.28801939015
 20
-0.409710647875
 30
0.0
 11
36.336352723483
 21
-0.409710647875
 31
0.0
  0
LINE
  5
1F3
330
30
100
AcDbEntity
  8
1
100
AcDbLine
 10
36.336352723483
 20
-0.409710647875
 30
0.0
 11
36.384686056817
 21
-0.409710647875
 31
0.0
  0
LINE
  5
1F4
330
30
100
AcDbEntity
  8
1
100
AcDbLine
 10
36.384686056817
 20
-0.409710647875
 30
0.0
 11
36.43301939015
 21
-0.409710647875
 31
0.0
  0
LINE
  5
1F5
330
30
100
AcDbEntity
  8
1
100
AcDbLine
 10
36.43301939015
 20
-0.409710647875
 30
0.0
 11
36.481352723483
 21
-0.409710647875
 31
0.0
  0
LINE
  5
1F6
330
30
100
AcDbEntity
  8
1
100
AcDbLine
 10
36.481352723483
 20
-0.409710647875
 30
0.0
 11
36.529686056817
 21
-0.409710647875
 31
0.0
  0
LINE
  5
1F7
330
30
100
AcDbEntity
  8
1
100
AcDbLine
 10
36.529686056817
 20
-0.409710647875
 30
0.0
 11
36.57801939015
 21
-0.409710647875
 31
0.0
  0
LINE
  5
1F8
330
30
100
AcDbEntity
  8
1
100
AcDbLine
 10
36.57801939015
 20
-0.409710647875
 30
0.0
 11
36.626352723483
 21
-0.409710647875
 31
0.0
  0
LINE
  5
1F9
330
30
100
AcDbEntity
  8
1
100
AcDbLine
 10
36.626352723483
 20
-0.409710647875
 30
0.0
 11
36.674686056817
 21
-0.409710647875
 31
0.0
  0
LINE
  5
1FA
330
30
100
AcDbEntity
  8
1
100
AcDbLine
 10
36.674686056817
 20
-0.409710647875
 30
0.0
 11
36.72301939015
 21
-0.409710647875
 31
0.0
  0
LINE
  5
1FB
330
30
100
AcDbEntity
  8
1
100
AcDbLine
 10
36.72301939015
 20
-0.409710647875
 30
0.0
 11
36.771352723483
 21
-0.409710647875
 31
0.0
  0
LINE
  5
1FC
330
30
100
AcDbEntity
  8
1
100
AcDbLine
 10
36.771352723483
 20
-0.409710647875
 30
0.0
 11
36.819686056817
 21
-0.409710647875
 31
0.0
  0
LINE
  5
1FD
330
30
100
AcDbEntity
  8
1
100
AcDbLine
 10
36.819686056817
 20
-0.409710647875
 30
0.0
 11
36.86801939015
 21
-0.409710647875
 31
0.0
  0
LINE
  5
1FE
330
30
100
AcDbEntity
  8
1
100
AcDbLine
 10
36.86801939015
 20
-0.409710647875
 30
0.0
 11
36.916352723483
 21
-0.409710647875
 31
0.0
  0
LINE
  5
1FF
330
30
100
AcDbEntity
  8
1
100
AcDbLine
 10
36.916352723483
 20
-0.409710647875
 30
0.0
 11
36.964686056817
 21
-0.409710647875
 31
0.0
  0
LINE
  5
200
330
30
100
AcDbEntity
  8
1
100
AcDbLine
 10
36.964686056817
 20
-0.409710647875
 30
0.0
 11
37.01301939015
 21
-0.409710647875
 31
0.0
  0
LINE
  5
201
330
30
100
AcDbEntity
  8
1
100
AcDbLine
 10
37.01301939015
 20
-0.409710647875
 30
0.0
 11
37.061352723483
 21
-0.409710647875
 31
0.0
  0
LINE
  5
202
330
30
100
AcDbEntity
  8
1
100
AcDbLine
 10
37.061352723483
 20
-0.409710647875
 30
0.0
 11
37.109686056817
 21
-0.409710647875
 31
0.0
  0
LINE
  5
203
330
30
100
AcDbEntity
  8
1
100
AcDbLine
 10
37.109686056817
 20
-0.409710647875
 30
0.0
 11
37.15801939015
 21
-0.409710647875
 31
0.0
  0
LINE
  5
204
330
30
100
AcDbEntity
  8
1
100
AcDbLine
 10
37.15801939015
 20
-0.409710647875
 30
0.0
 11
37.206352723483
 21
-0.409710647875
 31
0.0
  0
LINE
  5
205
330
30
100
AcDbEntity
  8
1
100
AcDbLine
 10
37.206352723483
 20
-0.409710647875
 30
0.0
 11
37.254686056817
 21
-0.409710647875
 31
0.0
  0
LINE
  5
206
330
30
100
AcDbEntity
  8
1
100
AcDbLine
 10
37.254686056817
 20
-0.409710647875
 30
0.0
 11
37.30301939015
 21
-0.409710647875
 31
0.0
  0
LINE
  5
207
330
30
100
AcDbEntity
  8
1
100
AcDbLine
 10
37.30301939015
 20
-0.409710647875
 30
0.0
 11
37.351352723483
 21
-0.409710647875
 31
0.0
  0
LINE
  5
208
330
30
100
AcDbEntity
  8
1
100
AcDbLine
 10
37.351352723483
 20
-0.409710647875
 30
0.0
 11
37.399686056817
 21
-0.409710647875
 31
0.0
  0
LINE
  5
209
330
30
100
AcDbEntity
  8
1
100
AcDbLine
 10
37.399686056817
 20
-0.409710647875
 30
0.0
 11
37.44801939015
 21
-0.409710647875
 31
0.0
  0
LINE
  5
20A
330
30
100
AcDbEntity
  8
1
100
AcDbLine
 10
37.44801939015
 20
-0.409710647875
 30
0.0
 11
37.496352723483
 21
-0.409710647875
 31
0.0
  0
LINE
  5
20B
330
30
100
AcDbEntity
  8
1
100
AcDbLine
 10
37.496352723483
 20
-0.409710647875
 30
0.0
 11
37.544686056817
 21
-0.409710647875
 31
0.0
  0
LINE
  5
20C
330
30
100
AcDbEntity
  8
1
100
AcDbLine
 10
37.544686056817
 20
-0.409710647875
 30
0.0
 11
37.59301939015
 21
-0.409710647875
 31
0.0
  0
LINE
  5
20D
330
30
100
AcDbEntity
  8
1
100
AcDbLine
 10
37.59301939015
 20
-0.409710647875
 30
0.0
 11
37.641352723483
 21
-0.409710647875
 31
0.0
  0
LINE
  5
20E
330
30
100
AcDbEntity
  8
1
100
AcDbLine
 10
37.641352723483
 20
-0.409710647875
 30
0.0
 11
37.689686056817
 21
-0.409710647875
 31
0.0
  0
LINE
  5
20F
330
30
100
AcDbEntity
  8
1
100
AcDbLine
 10
37.689686056817
 20
-0.409710647875
 30
0.0
 11
37.73801939015
 21
-0.409710647875
 31
0.0
  0
LINE
  5
210
330
30
100
AcDbEntity
  8
1
100
AcDbLine
 10
37.73801939015
 20
-0.409710647875
 30
0.0
 11
37.786352723483
 21
-0.409710647875
 31
0.0
  0
LINE
  5
211
330
30
100
AcDbEntity
  8
1
100
AcDbLine
 10
37.786352723483
 20
-0.409710647875
 30
0.0
 11
37.834686056817
 21
-0.409710647875
 31
0.0
  0
LINE
  5
212
330
30
100
AcDbEntity
  8
1
100
AcDbLine
 10
37.834686056817
 20
-0.409710647875
 30
0.0
 11
37.88301939015
 21
-0.409710647875
 31
0.0
  0
LINE
  5
213
330
30
100
AcDbEntity
  8
1
100
AcDbLine
 10
37.88301939015
 20
-0.409710647875
 30
0.0
 11
37.931352723483
 21
-0.409710647875
 31
0.0
  0
LINE
  5
214
330
30
100
AcDbEntity
  8
1
100
AcDbLine
 10
37.931352723483
 20
-0.409710647875
 30
0.0
 11
37.979686056817
 21
-0.409710647875
 31
0.0
  0
LINE
  5
215
330
30
100
AcDbEntity
  8
1
100
AcDbLine
 10
37.979686056817
 20
-0.409710647875
 30
0.0
 11
38.02801939015
 21
-0.409710647875
 31
0.0
  0
LINE
  5
216
330
30
100
AcDbEntity
  8
1
100
AcDbLine
 10
38.02801939015
 20
-0.409710647875
 30
0.0
 11
38.076352723483
 21
-0.409710647875
 31
0.0
  0
LINE
  5
217
330
30
100
AcDbEntity
  8
1
100
AcDbLine
 10
38.076352723483
 20
-0.409710647875
 30
0.0
 11
38.124686056817
 21
-0.409710647875
 31
0.0
  0
LINE
  5
218
330
30
100
AcDbEntity
  8
1
100
AcDbLine
 10
38.124686056817
 20
-0.409710647875
 30
0.0
 11
38.17301939015
 21
-0.409710647875
 31
0.0
  0
LINE
  5
219
330
30
100
AcDbEntity
  8
1
100
AcDbLine
 10
38.17301939015
 20
-0.409710647875
 30
0.0
 11
38.221352723483
 21
-0.409710647875
 31
0.0
  0
LINE
  5
21A
330
30
100
AcDbEntity
  8
1
100
AcDbLine
 10
38.221352723483
 20
-0.409710647875
 30
0.0
 11
38.269686056817
 21
-0.409710647875
 31
0.0
  0
LINE
  5
21B
330
30
100
AcDbEntity
  8
1
100
AcDbLine
 10
38.269686056817
 20
-0.409710647875
 30
0.0
 11
38.31801939015
 21
-0.409710647875
 31
0.0
  0
LINE
  5
21C
330
30
100
AcDbEntity
  8
1
100
AcDbLine
 10
38.31801939015
 20
-0.409710647875
 30
0.0
 11
38.366352723483
 21
-0.409710647875
 31
0.0
  0
LINE
  5
21D
330
30
100
AcDbEntity
  8
1
100
AcDbLine
 10
38.366352723483
 20
-0.409710647875
 30
0.0
 11
38.414686056817
 21
-0.409710647875
 31
0.0
  0
LINE
  5
21E
330
30
100
AcDbEntity
  8
1
100
AcDbLine
 10
38.414686056817
 20
-0.409710647875
 30
0.0
 11
38.46301939015
 21
-0.409710647875
 31
0.0
  0
LINE
  5
21F
330
30
100
AcDbEntity
  8
1
100
AcDbLine
 10
38.46301939015
 20
-0.409710647875
 30
0.0
 11
38.511352723483
 21
-0.409710647875
 31
0.0
  0
LINE
  5
220
330
30
100
AcDbEntity
  8
1
100
AcDbLine
 10
38.511352723483
 20
-0.409710647875
 30
0.0
 11
38.559686056817
 21
-0.409710647875
 31
0.0
  0
LINE
  5
221
330
30
100
AcDbEntity
  8
1
100
AcDbLine
 10
38.559686056817
 20
-0.409710647875
 30
0.0
 11
38.60801939015
 21
-0.409710647875
 31
0.0
  0
LINE
  5
222
330
30
100
AcDbEntity
  8
1
100
AcDbLine
 10
38.60801939015
 20
-0.409710647875
 30
0.0
 11
38.656352723483
 21
-0.409710647875
 31
0.0
  0
LINE
  5
223
330
30
100
AcDbEntity
  8
1
100
AcDbLine
 10
38.656352723483
 20
-0.409710647875
 30
0.0
 11
38.704686056817
 21
-0.409710647875
 31
0.0
  0
LINE
  5
224
330
30
100
AcDbEntity
  8
1
100
AcDbLine
 10
38.704686056817
 20
-0.409710647875
 30
0.0
 11
38.75301939015
 21
-0.409710647875
 31
0.0
  0
LINE
  5
225
330
30
100
AcDbEntity
  8
1
100
AcDbLine
 10
38.75301939015
 20
-0.409710647875
 30
0.0
 11
38.801352723483
 21
-0.409710647875
 31
0.0
  0
LINE
  5
226
330
30
100
AcDbEntity
  8
1
100
AcDbLine
 10
38.801352723483
 20
-0.409710647875
 30
0.0
 11
38.849686056817
 21
-0.409710647875
 31
0.0
  0
LINE
  5
227
330
30
100
AcDbEntity
  8
1
100
AcDbLine
 10
38.849686056817
 20
-0.409710647875
 30
0.0
 11
38.89801939015
 21
-0.409710647875
 31
0.0
  0
LINE
  5
228
330
30
100
AcDbEntity
  8
1
100
AcDbLine
 10
38.89801939015
 20
-0.409710647875
 30
0.0
 11
38.946352723483
 21
-0.409710647875
 31
0.0
  0
LINE
  5
229
330
30
100
AcDbEntity
  8
1
100
AcDbLine
 10
38.946352723483
 20
-0.409710647875
 30
0.0
 11
38.994686056817
 21
-0.409710647875
 31
0.0
  0
LINE
  5
22A
330
30
100
AcDbEntity
  8
1
100
AcDbLine
 10
38.994686056817
 20
-0.409710647875
 30
0.0
 11
39.04301939015
 21
-0.409710647875
 31
0.0
  0
LINE
  5
22B
330
30
100
AcDbEntity
  8
1
100
AcDbLine
 10
39.04301939015
 20
-0.409710647875
 30
0.0
 11
39.091352723483
 21
-0.409710647875
 31
0.0
  0
LINE
  5
22C
330
30
100
AcDbEntity
  8
1
100
AcDbLine
 10
39.091352723483
 20
-0.409710647875
 30
0.0
 11
39.139686056817
 21
-0.409710647875
 31
0.0
  0
LINE
  5
22D
330
30
100
AcDbEntity
  8
1
100
AcDbLine
 10
39.139686056817
 20
-0.409710647875
 30
0.0
 11
39.18801939015
 21
-0.409710647875
 31
0.0
  0
LINE
  5
22E
330
30
100
AcDbEntity
  8
1
100
AcDbLine
 10
39.18801939015
 20
-0.409710647875
 30
0.0
 11
39.236352723483
 21
-0.409710647875
 31
0.0
  0
LINE
  5
22F
330
30
100
AcDbEntity
  8
1
100
AcDbLine
 10
39.236352723483
 20
-0.409710647875
 30
0.0
 11
39.284686056817
 21
-0.409710647875
 31
0.0
  0
LINE
  5
230
330
30
100
AcDbEntity
  8
1
100
AcDbLine
 10
39.284686056817
 20
-0.409710647875
 30
0.0
 11
39.33301939015
 21
-0.409710647875
 31
0.0
  0
LINE
  5
231
330
30
100
AcDbEntity
  8
1
100
AcDbLine
 10
39.33301939015
 20
-0.409710647875
 30
0.0
 11
39.381352723483
 21
-0.409710647875
 31
0.0
  0
LINE
  5
232
330
30
100
AcDbEntity
  8
1
100
AcDbLine
 10
39.381352723483
 20
-0.409710647875
 30
0.0
 11
39.429686056817
 21
-0.409710647875
 31
0.0
  0
LINE
  5
233
330
30
100
AcDbEntity
  8
1
100
AcDbLine
 10
39.429686056817
 20
-0.409710647875
 30
0.0
 11
39.47801939015
 21
-0.409710647875
 31
0.0
  0
LINE
  5
234
330
30
100
AcDbEntity
  8
1
100
AcDbLine
 10
39.47801939015
 20
-0.409710647875
 30
0.0
 11
39.526352723483
 21
-0.409710647875
 31
0.0
  0
LINE
  5
235
330
30
100
AcDbEntity
  8
1
100
AcDbLine
 10
39.526352723483
 20
-0.409710647875
 30
0.0
 11
39.574686056817
 21
-0.409710647875
 31
0.0
  0
LINE
  5
236
330
30
100
AcDbEntity
  8
1
100
AcDbLine
 10
39.574686056817
 20
-0.409710647875
 30
0.0
 11
39.62301939015
 21
-0.409710647875
 31
0.0
  0
LINE
  5
237
330
30
100
AcDbEntity
  8
1
100
AcDbLine
 10
39.62301939015
 20
-0.409710647875
 30
0.0
 11
39.671352723483
 21
-0.409710647875
 31
0.0
  0
LINE
  5
238
330
30
100
AcDbEntity
  8
1
100
AcDbLine
 10
39.671352723483
 20
-0.409710647875
 30
0.0
 11
39.719686056817
 21
-0.409710647875
 31
0.0
  0
LINE
  5
239
330
30
100
AcDbEntity
  8
1
100
AcDbLine
 10
39.719686056817
 20
-0.409710647875
 30
0.0
 11
39.76801939015
 21
-0.409710647875
 31
0.0
  0
LINE
  5
23A
330
30
100
AcDbEntity
  8
1
100
AcDbLine
 10
39.76801939015
 20
-0.409710647875
 30
0.0
 11
39.816352723483
 21
-0.409710647875
 31
0.0
  0
LINE
  5
23B
330
30
100
AcDbEntity
  8
1
100
AcDbLine
 10
39.816352723483
 20
-0.409710647875
 30
0.0
 11
39.864686056817
 21
-0.409710647875
 31
0.0
  0
LINE
  5
23C
330
30
100
AcDbEntity
  8
1
100
AcDbLine
 10
39.864686056817
 20
-0.409710647875
 30
0.0
 11
39.91301939015
 21
-0.409710647875
 31
0.0
  0
LINE
  5
23D
330
30
100
AcDbEntity
  8
1
100
AcDbLine
 10
39.91301939015
 20
-0.409710647875
 30
0.0
 11
39.961352723483
 21
-0.409710647875
 31
0.0
  0
LINE
  5
23E
330
30
100
AcDbEntity
  8
1
100
AcDbLine
 10
39.961352723483
 20
-0.409710647875
 30
0.0
 11
40.009686056817
 21
-0.409710647875
 31
0.0
  0
LINE
  5
23F
330
30
100
AcDbEntity
  8
1
100
AcDbLine
 10
40.009686056817
 20
-0.409710647875
 30
0.0
 11
40.05801939015
 21
-0.409710647875
 31
0.0
  0
LINE
  5
240
330
30
100
AcDbEntity
  8
1
100
AcDbLine
 10
40.05801939015
 20
-0.409710647875
 30
0.0
 11
40.106352723483
 21
-0.409710647875
 31
0.0
  0
LINE
  5
241
330
30
100
AcDbEntity
  8
1
100
AcDbLine
 10
40.106352723483
 20
-0.409710647875
 30
0.0
 11
40.154686056817
 21
-0.409710647875
 31
0.0
  0
LINE
  5
242
330
30
100
AcDbEntity
  8
1
100
AcDbLine
 10
40.154686056817
 20
-0.409710647875
 30
0.0
 11
40.20301939015
 21
-0.409710647875
 31
0.0
  0
LINE
  5
243
330
30
100
AcDbEntity
  8
1
100
AcDbLine
 10
40.20301939015
 20
-0.409710647875
 30
0.0
 11
40.251352723483
 21
-0.409710647875
 31
0.0
  0
LINE
  5
244
330
30
100
AcDbEntity
  8
1
100
AcDbLine
 10
40.251352723483
 20
-0.409710647875
 30
0.0
 11
40.299686056817
 21
-0.409710647875
 31
0.0
  0
LINE
  5
245
330
30
100
AcDbEntity
  8
1
100
AcDbLine
 10
40.299686056817
 20
-0.409710647875
 30
0.0
 11
40.34801939015
 21
-0.409710647875
 31
0.0
  0
LINE
  5
246
330
30
100
AcDbEntity
  8
1
100
AcDbLine
 10
40.34801939015
 20
-0.409710647875
 30
0.0
 11
40.396352723483
 21
-0.409710647875
 31
0.0
  0
LINE
  5
247
330
30
100
AcDbEntity
  8
1
100
AcDbLine
 10
40.396352723483
 20
-0.409710647875
 30
0.0
 11
40.444686056817
 21
-0.409710647875
 31
0.0
  0
LINE
  5
248
330
30
100
AcDbEntity
  8
1
100
AcDbLine
 10
40.444686056817
 20
-0.409710647875
 30
0.0
 11
40.49301939015
 21
-0.409710647875
 31
0.0
  0
LINE
  5
249
330
30
100
AcDbEntity
  8
1
100
AcDbLine
 10
40.49301939015
 20
-0.409710647875
 30
0.0
 11
40.541352723483
 21
-0.409710647875
 31
0.0
  0
LINE
  5
24A
330
30
100
AcDbEntity
  8
1
100
AcDbLine
 10
40.541352723483
 20
-0.409710647875
 30
0.0
 11
40.589686056817
 21
-0.406379645011
 31
0.0
  0
LINE
  5
24B
330
30
100
AcDbEntity
  8
1
100
AcDbLine
 10
40.589686056817
 20
-0.406379645011
 30
0.0
 11
40.63801939015
 21
-0.401868286633
 31
0.0
  0
LINE
  5
24C
330
30
100
AcDbEntity
  8
1
100
AcDbLine
 10
40.63801939015
 20
-0.401868286633
 30
0.0
 11
40.686352723483
 21
-0.397355316784
 31
0.0
  0
LINE
  5
24D
330
30
100
AcDbEntity
  8
1
100
AcDbLine
 10
40.686352723483
 20
-0.397355316784
 30
0.0
 11
40.734686056817
 21
-0.392840692776
 31
0.0
  0
LINE
  5
24E
330
30
100
AcDbEntity
  8
1
100
AcDbLine
 10
40.734686056817
 20
-0.392840692776
 30
0.0
 11
40.78301939015
 21
-0.388324370385
 31
0.0
  0
LINE
  5
24F
330
30
100
AcDbEntity
  8
1
100
AcDbLine
 10
40.78301939015
 20
-0.388324370385
 30
0.0
 11
40.831352723483
 21
-0.383806303777
 31
0.0
  0
LINE
  5
250
330
30
100
AcDbEntity
  8
1
100
AcDbLine
 10
40.831352723483
 20
-0.383806303777
 30
0.0
 11
40.879686056817
 21
-0.379286445436
 31
0.0
  0
LINE
  5
251
330
30
100
AcDbEntity
  8
1
100
AcDbLine
 10
40.879686056817
 20
-0.379286445436
 30
0.0
 11
40.92801939015
 21
-0.374764746084
 31
0.0
  0
LINE
  5
252
330
30
100
AcDbEntity
  8
1
100
AcDbLine
 10
40.92801939015
 20
-0.374764746084
 30
0.0
 11
40.976352723483
 21
-0.370241154598
 31
0.0
  0
LINE
  5
253
330
30
100
AcDbEntity
  8
1
100
AcDbLine
 10
40.976352723483
 20
-0.370241154598
 30
0.0
 11
41.024686056817
 21
-0.365715617923
 31
0.0
  0
LINE
  5
254
330
30
100
AcDbEntity
  8
1
100
AcDbLine
 10
41.024686056817
 20
-0.365715617923
 30
0.0
 11
41.07301939015
 21
-0.361188080977
 31
0.0
  0
LINE
  5
255
330
30
100
AcDbEntity
  8
1
100
AcDbLine
 10
41.07301939015
 20
-0.361188080977
 30
0.0
 11
41.121352723483
 21
-0.356658486551
 31
0.0
  0
LINE
  5
256
330
30
100
AcDbEntity
  8
1
100
AcDbLine
 10
41.121352723483
 20
-0.356658486551
 30
0.0
 11
41.169686056817
 21
-0.352126775208
 31
0.0
  0
LINE
  5
257
330
30
100
AcDbEntity
  8
1
100
AcDbLine
 10
41.169686056817
 20
-0.352126775208
 30
0.0
 11
41.21801939015
 21
-0.34759288517
 31
0.0
  0
LINE
  5
258
330
30
100
AcDbEntity
  8
1
100
AcDbLine
 10
41.21801939015
 20
-0.34759288517
 30
0.0
 11
41.266352723483
 21
-0.343056752198
 31
0.0
  0
LINE
  5
259
330
30
100
AcDbEntity
  8
1
100
AcDbLine
 10
41.266352723483
 20
-0.343056752198
 30
0.0
 11
41.314686056817
 21
-0.338518309471
 31
0.0
  0
LINE
  5
25A
330
30
100
AcDbEntity
  8
1
100
AcDbLine
 10
41.314686056817
 20
-0.338518309471
 30
0.0
 11
41.36301939015
 21
-0.33397748745
 31
0.0
  0
LINE
  5
25B
330
30
100
AcDbEntity
  8
1
100
AcDbLine
 10
41.36301939015
 20
-0.33397748745
 30
0.0
 11
41.411352723483
 21
-0.329434213737
 31
0.0
  0
LINE
  5
25C
330
30
100
AcDbEntity
  8
1
100
AcDbLine
 10
41.411352723483
 20
-0.329434213737
 30
0.0
 11
41.459686056817
 21
-0.324888412927
 31
0.0
  0
LINE
  5
25D
330
30
100
AcDbEntity
  8
1
100
AcDbLine
 10
41.459686056817
 20
-0.324888412927
 30
0.0
 11
41.50801939015
 21
-0.320340006444
 31
0.0
  0
LINE
  5
25E
330
30
100
AcDbEntity
  8
1
100
AcDbLine
 10
41.50801939015
 20
-0.320340006444
 30
0.0
 11
41.556352723483
 21
-0.315788912373
 31
0.0
  0
LINE
  5
25F
330
30
100
AcDbEntity
  8
1
100
AcDbLine
 10
41.556352723483
 20
-0.315788912373
 30
0.0
 11
41.604686056817
 21
-0.311235045279
 31
0.0
  0
LINE
  5
260
330
30
100
AcDbEntity
  8
1
100
AcDbLine
 10
41.604686056817
 20
-0.311235045279
 30
0.0
 11
41.65301939015
 21
-0.306678316008
 31
0.0
  0
LINE
  5
261
330
30
100
AcDbEntity
  8
1
100
AcDbLine
 10
41.65301939015
 20
-0.306678316008
 30
0.0
 11
41.701352723483
 21
-0.302118631488
 31
0.0
  0
LINE
  5
262
330
30
100
AcDbEntity
  8
1
100
AcDbLine
 10
41.701352723483
 20
-0.302118631488
 30
0.0
 11
41.749686056817
 21
-0.297555894499
 31
0.0
  0
LINE
  5
263
330
30
100
AcDbEntity
  8
1
100
AcDbLine
 10
41.749686056817
 20
-0.297555894499
 30
0.0
 11
41.79801939015
 21
-0.292990003442
 31
0.0
  0
LINE
  5
264
330
30
100
AcDbEntity
  8
1
100
AcDbLine
 10
41.79801939015
 20
-0.292990003442
 30
0.0
 11
41.846352723483
 21
-0.288420852082
 31
0.0
  0
LINE
  5
265
330
30
100
AcDbEntity
  8
1
100
AcDbLine
 10
41.846352723483
 20
-0.288420852082
 30
0.0
 11
41.894686056817
 21
-0.283848329278
 31
0.0
  0
LINE
  5
266
330
30
100
AcDbEntity
  8
1
100
AcDbLine
 10
41.894686056817
 20
-0.283848329278
 30
0.0
 11
41.94301939015
 21
-0.279272318694
 31
0.0
  0
LINE
  5
267
330
30
100
AcDbEntity
  8
1
100
AcDbLine
 10
41.94301939015
 20
-0.279272318694
 30
0.0
 11
41.991352723483
 21
-0.25428174303
 31
0.0
  0
LINE
  5
268
330
30
100
AcDbEntity
  8
1
100
AcDbLine
 10
41.991352723483
 20
-0.25428174303
 30
0.0
 11
42.039686056817
 21
-0.223117432512
 31
0.0
  0
LINE
  5
269
330
30
100
AcDbEntity
  8
1
100
AcDbLine
 10
42.039686056817
 20
-0.223117432512
 30
0.0
 11
42.08801939015
 21
-0.19169105064
 31
0.0
  0
LINE
  5
26A
330
30
100
AcDbEntity
  8
1
100
AcDbLine
 10
42.08801939015
 20
-0.19169105064
 30
0.0
 11
42.136352723483
 21
-0.159913789754
 31
0.0
  0
LINE
  5
26B
330
30
100
AcDbEntity
  8
1
100
AcDbLine
 10
42.136352723483
 20
-0.159913789754
 30
0.0
 11
42.184686056817
 21
-0.127649661943
 31
0.0
  0
LINE
  5
26C
330
30
100
AcDbEntity
  8
1
100
AcDbLine
 10
42.184686056817
 20
-0.127649661943
 30
0.0
 11
42.23301939015
 21
-0.094677472441
 31
0.0
  0
LINE
  5
26D
330
30
100
AcDbEntity
  8
1
100
AcDbLine
 10
42.23301939015
 20
-0.094677472441
 30
0.0
 11
42.281352723483
 21
-0.06060607539
 31
0.0
  0
LINE
  5
26E
330
30
100
AcDbEntity
  8
1
100
AcDbLine
 10
42.281352723483
 20
-0.06060607539
 30
0.0
 11
42.329686056817
 21
-0.024651435311
 31
0.0
  0
LINE
  5
26F
330
30
100
AcDbEntity
  8
1
100
AcDbLine
 10
42.329686056817
 20
-0.024651435311
 30
0.0
 11
42.37801939015
 21
0.015137832026
 31
0.0
  0
LINE
  5
270
330
30
100
AcDbEntity
  8
1
100
AcDbLine
 10
42.37801939015
 20
0.015137832026
 30
0.0
 11
42.426352723483
 21
0.067029399229
 31
0.0
  0
LINE
  5
271
330
30
100
AcDbEntity
  8
1
100
AcDbLine
 10
42.426352723483
 20
0.169708674577
 30
0.0
 11
42.426352723483
 21
0.067029399229
 31
0.0
  0
LINE
  5
272
330
30
100
AcDbEntity
  8
1
100
AcDbLine
 10
42.426352723483
 20
0.067029399229
 30
0.0
 11
42.426352723483
 21
0.169708674577
 31
0.0
  0
LINE
  5
273
330
30
100
AcDbEntity
  8
1
100
AcDbLine
 10
42.426352723483
 20
0.169708674577
 30
0.0
 11
42.37801939015
 21
0.217670592788
 31
0.0
  0
LINE
  5
274
330
30
100
AcDbEntity
  8
1
100
AcDbLine
 10
42.37801939015
 20
0.217670592788
 30
0.0
 11
42.329686056817
 21
0.263070251433
 31
0.0
  0
LINE
  5
275
330
30
100
AcDbEntity
  8
1
100
AcDbLine
 10
42.329686056817
 20
0.263070251433
 30
0.0
 11
42.281352723483
 21
0.308111405044
 31
0.0
  0
LINE
  5
276
330
30
100
AcDbEntity
  8
1
100
AcDbLine
 10
42.281352723483
 20
0.308111405044
 30
0.0
 11
42.23301939015
 21
0.352932868835
 31
0.0
  0
LINE
  5
277
330
30
100
AcDbEntity
  8
1
100
AcDbLine
 10
42.23301939015
 20
0.352932868835
 30
0.0
 11
42.184686056817
 21
0.397609679647
 31
0.0
  0
LINE
  5
278
330
30
100
AcDbEntity
  8
1
100
AcDbLine
 10
42.184686056817
 20
0.397609679647
 30
0.0
 11
42.136352723483
 21
0.442186074707
 31
0.0
  0
LINE
  5
279
330
30
100
AcDbEntity
  8
1
100
AcDbLine
 10
42.136352723483
 20
0.442186074707
 30
0.0
 11
42.08801939015
 21
0.486689868812
 31
0.0
  0
LINE
  5
27A
330
30
100
AcDbEntity
  8
1
100
AcDbLine
 10
42.08801939015
 20
0.486689868812
 30
0.0
 11
42.039686056817
 21
0.531139446568
 31
0.0
  0
LINE
  5
27B
330
30
100
AcDbEntity
  8
1
100
AcDbLine
 10
42.039686056817
 20
0.531139446568
 30
0.0
 11
41.991352723483
 21
0.575547455055
 31
0.0
  0
LINE
  5
27C
330
30
100
AcDbEntity
  8
1
100
AcDbLine
 10
41.991352723483
 20
0.575547455055
 30
0.0
 11
41.94301939015
 21
0.611346264634
 31
0.0
  0
LINE
  5
27D
330
30
100
AcDbEntity
  8
1
100
AcDbLine
 10
41.94301939015
 20
0.611346264634
 30
0.0
 11
41.894686056817
 21
0.61791693765
 31
0.0
  0
LINE
  5
27E
330
30
100
AcDbEntity
  8
1
100
AcDbLine
 10
41.894686056817
 20
0.61791693765
 30
0.0
 11
41.846352723483
 21
0.624487037407
 31
0.0
  0
LINE
  5
27F
330
30
100
AcDbEntity
  8
1
100
AcDbLine
 10
41.846352723483
 20
0.624487037407
 30
0.0
 11
41.79801939015
 21
0.631056581922
 31
0.0
  0
LINE
  5
280
330
30
100
AcDbEntity
  8
1
100
AcDbLine
 10
41.79801939015
 20
0.631056581922
 30
0.0
 11
41.749686056817
 21
0.637625588463
 31
0.0
  0
LINE
  5
281
330
30
100
AcDbEntity
  8
1
100
AcDbLine
 10
41.749686056817
 20
0.637625588463
 30
0.0
 11
41.701352723483
 21
0.644194073587
 31
0.0
  0
LINE
  5
282
330
30
100
AcDbEntity
  8
1
100
AcDbLine
 10
41.701352723483
 20
0.644194073587
 30
0.0
 11
41.65301939015
 21
0.650762053178
 31
0.0
  0
LINE
  5
283
330
30
100
AcDbEntity
  8
1
100
AcDbLine
 10
41.65301939015
 20
0.650762053178
 30
0.0
 11
41.604686056817
 21
0.65732954248
 31
0.0
  0
LINE
  5
284
330
30
100
AcDbEntity
  8
1
100
AcDbLine
 10
41.604686056817
 20
0.65732954248
 30
0.0
 11
41.556352723483
 21
0.663896556129
 31
0.0
  0
LINE
  5
285
330
30
100
AcDbEntity
  8
1
100
AcDbLine
 10
41.556352723483
 20
0.663896556129
 30
0.0
 11
41.50801939015
 21
0.670463108184
 31
0.0
  0
LINE
  5
286
330
30
100
AcDbEntity
  8
1
100
AcDbLine
 10
41.50801939015
 20
0.670463108184
 30
0.0
 11
41.459686056817
 21
0.677029212154
 31
0.0
  0
LINE
  5
287
330
30
100
AcDbEntity
  8
1
100
AcDbLine
 10
41.459686056817
 20
0.677029212154
 30
0.0
 11
41.411352723483
 21
0.683594881023
 31
0.0
  0
LINE
  5
288
330
30
100
AcDbEntity
  8
1
100
AcDbLine
 10
41.411352723483
 20
0.683594881023
 30
0.0
 11
41.36301939015
 21
0.690160127281
 31
0.0
  0
LINE
  5
289
330
30
100
AcDbEntity
  8
1
100
AcDbLine
 10
41.36301939015
 20
0.690160127281
 30
0.0
 11
41.314686056817
 21
0.696724962941
 31
0.0
  0
LINE
  5
28A
330
30
100
AcDbEntity
  8
1
100
AcDbLine
 10
41.314686056817
 20
0.696724962941
 30
0.0
 11
41.266352723483
 21
0.703289399565
 31
0.0
  0
LINE
  5
28B
330
30
100
AcDbEntity
  8
1
100
AcDbLine
 10
41.266352723483
 20
0.703289399565
 30
0.0
 11
41.21801939015
 21
0.709853448285
 31
0.0
  0
LINE
  5
28C
330
30
100
AcDbEntity
  8
1
100
AcDbLine
 10
41.21801939015
 20
0.709853448285
 30
0.0
 11
41.169686056817
 21
0.716417119822
 31
0.0
  0
LINE
  5
28D
330
30
100
AcDbEntity
  8
1
100
AcDbLine
 10
41.169686056817
 20
0.716417119822
 30
0.0
 11
41.121352723483
 21
0.722980424503
 31
0.0
  0
LINE
  5
28E
330
30
100
AcDbEntity
  8
1
100
AcDbLine
 10
41.121352723483
 20
0.722980424503
 30
0.0
 11
41.07301939015
 21
0.729543372284
 31
0.0
  0
LINE
  5
28F
330
30
100
AcDbEntity
  8
1
100
AcDbLine
 10
41.07301939015
 20
0.729543372284
 30
0.0
 11
41.024686056817
 21
0.73610597276
 31
0.0
  0
LINE
  5
290
330
30
100
AcDbEntity
  8
1
100
AcDbLine
 10
41.024686056817
 20
0.73610597276
 30
0.0
 11
40.976352723483
 21
0.742668235188
 31
0.0
  0
LINE
  5
291
330
30
100
AcDbEntity
  8
1
100
AcDbLine
 10
40.976352723483
 20
0.742668235188
 30
0.0
 11
40.92801939015
 21
0.749230168497
 31
0.0
  0
LINE
  5
292
330
30
100
AcDbEntity
  8
1
100
AcDbLine
 10
40.92801939015
 20
0.749230168497
 30
0.0
 11
40.879686056817
 21
0.755791781303
 31
0.0
  0
LINE
  5
293
330
30
100
AcDbEntity
  8
1
100
AcDbLine
 10
40.879686056817
 20
0.755791781303
 30
0.0
 11
40.831352723483
 21
0.762353081924
 31
0.0
  0
LINE
  5
294
330
30
100
AcDbEntity
  8
1
100
AcDbLine
 10
40.831352723483
 20
0.762353081924
 30
0.0
 11
40.78301939015
 21
0.768914078393
 31
0.0
  0
LINE
  5
295
330
30
100
AcDbEntity
  8
1
100
AcDbLine
 10
40.78301939015
 20
0.768914078393
 30
0.0
 11
40.734686056817
 21
0.775474778469
 31
0.0
  0
LINE
  5
296
330
30
100
AcDbEntity
  8
1
100
AcDbLine
 10
40.734686056817
 20
0.775474778469
 30
0.0
 11
40.686352723483
 21
0.782035189649
 31
0.0
  0
LINE
  5
297
330
30
100
AcDbEntity
  8
1
100
AcDbLine
 10
40.686352723483
 20
0.782035189649
 30
0.0
 11
40.63801939015
 21
0.788595319178
 31
0.0
  0
LINE
  5
298
330
30
100
AcDbEntity
  8
1
100
AcDbLine
 10
40.63801939015
 20
0.788595319178
 30
0.0
 11
40.589686056817
 21
0.795155174062
 31
0.0
  0
LINE
  5
299
330
30
100
AcDbEntity
  8
1
100
AcDbLine
 10
40.589686056817
 20
0.795155174062
 30
0.0
 11
40.541352723483
 21
0.8
 31
0.0
  0
LINE
  5
29A
330
30
100
AcDbEntity
  8
1
100
AcDbLine
 10
40.541352723483
 20
0.8
 30
0.0
 11
40.49301939015
 21
0.8
 31
0.0
  0
LINE
  5
29B
330
30
100
AcDbEntity
  8
1
100
AcDbLine
 10
40.49301939015
 20
0.8
 30
0.0
 11
40.444686056817
 21
0.8
 31
0.0
  0
LINE
  5
29C
330
30
100
AcDbEntity
  8
1
100
AcDbLine
 10
40.444686056817
 20
0.8
 30
0.0
 11
40.396352723483
 21
0.8
 31
0.0
  0
LINE
  5
29D
330
30
100
AcDbEntity
  8
1
100
AcDbLine
 10
40.396352723483
 20
0.8
 30
0.0
 11
40.34801939015
 21
0.8
 31
0.0
  0
LINE
  5
29E
330
30
100
AcDbEntity
  8
1
100
AcDbLine
 10
40.34801939015
 20
0.8
 30
0.0
 11
40.299686056817
 21
0.8
 31
0.0
  0
LINE
  5
29F
330
30
100
AcDbEntity
  8
1
100
AcDbLine
 10
40.299686056817
 20
0.8
 30
0.0
 11
40.251352723483
 21
0.8
 31
0.0
  0
LINE
  5
2A0
330
30
100
AcDbEntity
  8
1
100
AcDbLine
 10
40.251352723483
 20
0.8
 30
0.0
 11
40.20301939015
 21
0.8
 31
0.0
  0
LINE
  5
2A1
330
30
100
AcDbEntity
  8
1
100
AcDbLine
 10
40.20301939015
 20
0.8
 30
0.0
 11
40.154686056817
 21
0.8
 31
0.0
  0
LINE
  5
2A2
330
30
100
AcDbEntity
  8
1
100
AcDbLine
 10
40.154686056817
 20
0.8
 30
0.0
 11
40.106352723483
 21
0.8
 31
0.0
  0
LINE
  5
2A3
330
30
100
AcDbEntity
  8
1
100
AcDbLine
 10
40.106352723483
 20
0.8
 30
0.0
 11
40.05801939015
 21
0.8
 31
0.0
  0
LINE
  5
2A4
330
30
100
AcDbEntity
  8
1
100
AcDbLine
 10
40.05801939015
 20
0.8
 30
0.0
 11
40.009686056817
 21
0.8
 31
0.0
  0
LINE
  5
2A5
330
30
100
AcDbEntity
  8
1
100
AcDbLine
 10
40.009686056817
 20
0.8
 30
0.0
 11
39.961352723483
 21
0.8
 31
0.0
  0
LINE
  5
2A6
330
30
100
AcDbEntity
  8
1
100
AcDbLine
 10
39.961352723483
 20
0.8
 30
0.0
 11
39.91301939015
 21
0.8
 31
0.0
  0
LINE
  5
2A7
330
30
100
AcDbEntity
  8
1
100
AcDbLine
 10
39.91301939015
 20
0.8
 30
0.0
 11
39.864686056817
 21
0.8
 31
0.0
  0
LINE
  5
2A8
330
30
100
AcDbEntity
  8
1
100
AcDbLine
 10
39.864686056817
 20
0.8
 30
0.0
 11
39.816352723483
 21
0.8
 31
0.0
  0
LINE
  5
2A9
330
30
100
AcDbEntity
  8
1
100
AcDbLine
 10
39.816352723483
 20
0.8
 30
0.0
 11
39.76801939015
 21
0.8
 31
0.0
  0
LINE
  5
2AA
330
30
100
AcDbEntity
  8
1
100
AcDbLine
 10
39.76801939015
 20
0.8
 30
0.0
 11
39.719686056817
 21
0.8
 31
0.0
  0
LINE
  5
2AB
330
30
100
AcDbEntity
  8
1
100
AcDbLine
 10
39.719686056817
 20
0.8
 30
0.0
 11
39.671352723483
 21
0.8
 31
0.0
  0
LINE
  5
2AC
330
30
100
AcDbEntity
  8
1
100
AcDbLine
 10
39.671352723483
 20
0.8
 30
0.0
 11
39.62301939015
 21
0.8
 31
0.0
  0
LINE
  5
2AD
330
30
100
AcDbEntity
  8
1
100
AcDbLine
 10
39.62301939015
 20
0.8
 30
0.0
 11
39.574686056817
 21
0.8
 31
0.0
  0
LINE
  5
2AE
330
30
100
AcDbEntity
  8
1
100
AcDbLine
 10
39.574686056817
 20
0.8
 30
0.0
 11
39.526352723483
 21
0.8
 31
0.0
  0
LINE
  5
2AF
330
30
100
AcDbEntity
  8
1
100
AcDbLine
 10
39.526352723483
 20
0.8
 30
0.0
 11
39.47801939015
 21
0.8
 31
0.0
  0
LINE
  5
2B0
330
30
100
AcDbEntity
  8
1
100
AcDbLine
 10
39.47801939015
 20
0.8
 30
0.0
 11
39.429686056817
 21
0.8
 31
0.0
  0
LINE
  5
2B1
330
30
100
AcDbEntity
  8
1
100
AcDbLine
 10
39.429686056817
 20
0.8
 30
0.0
 11
39.381352723483
 21
0.8
 31
0.0
  0
LINE
  5
2B2
330
30
100
AcDbEntity
  8
1
100
AcDbLine
 10
39.381352723483
 20
0.8
 30
0.0
 11
39.33301939015
 21
0.8
 31
0.0
  0
LINE
  5
2B3
330
30
100
AcDbEntity
  8
1
100
AcDbLine
 10
39.33301939015
 20
0.8
 30
0.0
 11
39.284686056817
 21
0.8
 31
0.0
  0
LINE
  5
2B4
330
30
100
AcDbEntity
  8
1
100
AcDbLine
 10
39.284686056817
 20
0.8
 30
0.0
 11
39.236352723483
 21
0.8
 31
0.0
  0
LINE
  5
2B5
330
30
100
AcDbEntity
  8
1
100
AcDbLine
 10
39.236352723483
 20
0.8
 30
0.0
 11
39.18801939015
 21
0.8
 31
0.0
  0
LINE
  5
2B6
330
30
100
AcDbEntity
  8
1
100
AcDbLine
 10
39.18801939015
 20
0.8
 30
0.0
 11
39.139686056817
 21
0.8
 31
0.0
  0
LINE
  5
2B7
330
30
100
AcDbEntity
  8
1
100
AcDbLine
 10
39.139686056817
 20
0.8
 30
0.0
 11
39.091352723483
 21
0.8
 31
0.0
  0
LINE
  5
2B8
330
30
100
AcDbEntity
  8
1
100
AcDbLine
 10
39.091352723483
 20
0.8
 30
0.0
 11
39.04301939015
 21
0.8
 31
0.0
  0
LINE
  5
2B9
330
30
100
AcDbEntity
  8
1
100
AcDbLine
 10
39.04301939015
 20
0.8
 30
0.0
 11
38.994686056817
 21
0.8
 31
0.0
  0
LINE
  5
2BA
330
30
100
AcDbEntity
  8
1
100
AcDbLine
 10
38.994686056817
 20
0.8
 30
0.0
 11
38.946352723483
 21
0.8
 31
0.0
  0
LINE
  5
2BB
330
30
100
AcDbEntity
  8
1
100
AcDbLine
 10
38.946352723483
 20
0.8
 30
0.0
 11
38.89801939015
 21
0.8
 31
0.0
  0
LINE
  5
2BC
330
30
100
AcDbEntity
  8
1
100
AcDbLine
 10
38.89801939015
 20
0.8
 30
0.0
 11
38.849686056817
 21
0.8
 31
0.0
  0
LINE
  5
2BD
330
30
100
AcDbEntity
  8
1
100
AcDbLine
 10
38.849686056817
 20
0.8
 30
0.0
 11
38.801352723483
 21
0.8
 31
0.0
  0
LINE
  5
2BE
330
30
100
AcDbEntity
  8
1
100
AcDbLine
 10
38.801352723483
 20
0.8
 30
0.0
 11
38.75301939015
 21
0.8
 31
0.0
  0
LINE
  5
2BF
330
30
100
AcDbEntity
  8
1
100
AcDbLine
 10
38.75301939015
 20
0.8
 30
0.0
 11
38.704686056817
 21
0.8
 31
0.0
  0
LINE
  5
2C0
330
30
100
AcDbEntity
  8
1
100
AcDbLine
 10
38.704686056817
 20
0.8
 30
0.0
 11
38.656352723483
 21
0.8
 31
0.0
  0
LINE
  5
2C1
330
30
100
AcDbEntity
  8
1
100
AcDbLine
 10
38.656352723483
 20
0.8
 30
0.0
 11
38.60801939015
 21
0.8
 31
0.0
  0
LINE
  5
2C2
330
30
100
AcDbEntity
  8
1
100
AcDbLine
 10
38.60801939015
 20
0.8
 30
0.0
 11
38.559686056817
 21
0.8
 31
0.0
  0
LINE
  5
2C3
330
30
100
AcDbEntity
  8
1
100
AcDbLine
 10
38.559686056817
 20
0.8
 30
0.0
 11
38.511352723483
 21
0.8
 31
0.0
  0
LINE
  5
2C4
330
30
100
AcDbEntity
  8
1
100
AcDbLine
 10
38.511352723483
 20
0.8
 30
0.0
 11
38.46301939015
 21
0.8
 31
0.0
  0
LINE
  5
2C5
330
30
100
AcDbEntity
  8
1
100
AcDbLine
 10
38.46301939015
 20
0.8
 30
0.0
 11
38.414686056817
 21
0.8
 31
0.0
  0
LINE
  5
2C6
330
30
100
AcDbEntity
  8
1
100
AcDbLine
 10
38.414686056817
 20
0.8
 30
0.0
 11
38.366352723483
 21
0.8
 31
0.0
  0
LINE
  5
2C7
330
30
100
AcDbEntity
  8
1
100
AcDbLine
 10
38.366352723483
 20
0.8
 30
0.0
 11
38.31801939015
 21
0.8
 31
0.0
  0
LINE
  5
2C8
330
30
100
AcDbEntity
  8
1
100
AcDbLine
 10
38.31801939015
 20
0.8
 30
0.0
 11
38.269686056817
 21
0.8
 31
0.0
  0
LINE
  5
2C9
330
30
100
AcDbEntity
  8
1
100
AcDbLine
 10
38.269686056817
 20
0.8
 30
0.0
 11
38.221352723483
 21
0.8
 31
0.0
  0
LINE
  5
2CA
330
30
100
AcDbEntity
  8
1
100
AcDbLine
 10
38.221352723483
 20
0.8
 30
0.0
 11
38.17301939015
 21
0.8
 31
0.0
  0
LINE
  5
2CB
330
30
100
AcDbEntity
  8
1
100
AcDbLine
 10
38.17301939015
 20
0.8
 30
0.0
 11
38.124686056817
 21
0.8
 31
0.0
  0
LINE
  5
2CC
330
30
100
AcDbEntity
  8
1
100
AcDbLine
 10
38.124686056817
 20
0.8
 30
0.0
 11
38.076352723483
 21
0.8
 31
0.0
  0
LINE
  5
2CD
330
30
100
AcDbEntity
  8
1
100
AcDbLine
 10
38.076352723483
 20
0.8
 30
0.0
 11
38.02801939015
 21
0.8
 31
0.0
  0
LINE
  5
2CE
330
30
100
AcDbEntity
  8
1
100
AcDbLine
 10
38.02801939015
 20
0.8
 30
0.0
 11
37.979686056817
 21
0.8
 31
0.0
  0
LINE
  5
2CF
330
30
100
AcDbEntity
  8
1
100
AcDbLine
 10
37.979686056817
 20
0.8
 30
0.0
 11
37.931352723483
 21
0.8
 31
0.0
  0
LINE
  5
2D0
330
30
100
AcDbEntity
  8
1
100
AcDbLine
 10
37.931352723483
 20
0.8
 30
0.0
 11
37.88301939015
 21
0.8
 31
0.0
  0
LINE
  5
2D1
330
30
100
AcDbEntity
  8
1
100
AcDbLine
 10
37.88301939015
 20
0.8
 30
0.0
 11
37.834686056817
 21
0.8
 31
0.0
  0
LINE
  5
2D2
330
30
100
AcDbEntity
  8
1
100
AcDbLine
 10
37.834686056817
 20
0.8
 30
0.0
 11
37.786352723483
 21
0.8
 31
0.0
  0
LINE
  5
2D3
330
30
100
AcDbEntity
  8
1
100
AcDbLine
 10
37.786352723483
 20
0.8
 30
0.0
 11
37.73801939015
 21
0.8
 31
0.0
  0
LINE
  5
2D4
330
30
100
AcDbEntity
  8
1
100
AcDbLine
 10
37.73801939015
 20
0.8
 30
0.0
 11
37.689686056817
 21
0.8
 31
0.0
  0
LINE
  5
2D5
330
30
100
AcDbEntity
  8
1
100
AcDbLine
 10
37.689686056817
 20
0.8
 30
0.0
 11
37.641352723483
 21
0.8
 31
0.0
  0
LINE
  5
2D6
330
30
100
AcDbEntity
  8
1
100
AcDbLine
 10
37.641352723483
 20
0.8
 30
0.0
 11
37.59301939015
 21
0.8
 31
0.0
  0
LINE
  5
2D7
330
30
100
AcDbEntity
  8
1
100
AcDbLine
 10
37.59301939015
 20
0.8
 30
0.0
 11
37.544686056817
 21
0.8
 31
0.0
  0
LINE
  5
2D8
330
30
100
AcDbEntity
  8
1
100
AcDbLine
 10
37.544686056817
 20
0.8
 30
0.0
 11
37.496352723483
 21
0.8
 31
0.0
  0
LINE
  5
2D9
330
30
100
AcDbEntity
  8
1
100
AcDbLine
 10
37.496352723483
 20
0.8
 30
0.0
 11
37.44801939015
 21
0.8
 31
0.0
  0
LINE
  5
2DA
330
30
100
AcDbEntity
  8
1
100
AcDbLine
 10
37.44801939015
 20
0.8
 30
0.0
 11
37.399686056817
 21
0.8
 31
0.0
  0
LINE
  5
2DB
330
30
100
AcDbEntity
  8
1
100
AcDbLine
 10
37.399686056817
 20
0.8
 30
0.0
 11
37.351352723483
 21
0.8
 31
0.0
  0
LINE
  5
2DC
330
30
100
AcDbEntity
  8
1
100
AcDbLine
 10
37.351352723483
 20
0.8
 30
0.0
 11
37.30301939015
 21
0.8
 31
0.0
  0
LINE
  5
2DD
330
30
100
AcDbEntity
  8
1
100
AcDbLine
 10
37.30301939015
 20
0.8
 30
0.0
 11
37.254686056817
 21
0.8
 31
0.0
  0
LINE
  5
2DE
330
30
100
AcDbEntity
  8
1
100
AcDbLine
 10
37.254686056817
 20
0.8
 30
0.0
 11
37.206352723483
 21
0.8
 31
0.0
  0
LINE
  5
2DF
330
30
100
AcDbEntity
  8
1
100
AcDbLine
 10
37.206352723483
 20
0.8
 30
0.0
 11
37.15801939015
 21
0.8
 31
0.0
  0
LINE
  5
2E0
330
30
100
AcDbEntity
  8
1
100
AcDbLine
 10
37.15801939015
 20
0.8
 30
0.0
 11
37.109686056817
 21
0.8
 31
0.0
  0
LINE
  5
2E1
330
30
100
AcDbEntity
  8
1
100
AcDbLine
 10
37.109686056817
 20
0.8
 30
0.0
 11
37.061352723483
 21
0.8
 31
0.0
  0
LINE
  5
2E2
330
30
100
AcDbEntity
  8
1
100
AcDbLine
 10
37.061352723483
 20
0.8
 30
0.0
 11
37.01301939015
 21
0.8
 31
0.0
  0
LINE
  5
2E3
330
30
100
AcDbEntity
  8
1
100
AcDbLine
 10
37.01301939015
 20
0.8
 30
0.0
 11
36.964686056817
 21
0.8
 31
0.0
  0
LINE
  5
2E4
330
30
100
AcDbEntity
  8
1
100
AcDbLine
 10
36.964686056817
 20
0.8
 30
0.0
 11
36.916352723483
 21
0.8
 31
0.0
  0
LINE
  5
2E5
330
30
100
AcDbEntity
  8
1
100
AcDbLine
 10
36.916352723483
 20
0.8
 30
0.0
 11
36.86801939015
 21
0.8
 31
0.0
  0
LINE
  5
2E6
330
30
100
AcDbEntity
  8
1
100
AcDbLine
 10
36.86801939015
 20
0.8
 30
0.0
 11
36.819686056817
 21
0.8
 31
0.0
  0
LINE
  5
2E7
330
30
100
AcDbEntity
  8
1
100
AcDbLine
 10
36.819686056817
 20
0.8
 30
0.0
 11
36.771352723483
 21
0.8
 31
0.0
  0
LINE
  5
2E8
330
30
100
AcDbEntity
  8
1
100
AcDbLine
 10
36.771352723483
 20
0.8
 30
0.0
 11
36.72301939015
 21
0.8
 31
0.0
  0
LINE
  5
2E9
330
30
100
AcDbEntity
  8
1
100
AcDbLine
 10
36.72301939015
 20
0.8
 30
0.0
 11
36.674686056817
 21
0.8
 31
0.0
  0
LINE
  5
2EA
330
30
100
AcDbEntity
  8
1
100
AcDbLine
 10
36.674686056817
 20
0.8
 30
0.0
 11
36.626352723483
 21
0.8
 31
0.0
  0
LINE
  5
2EB
330
30
100
AcDbEntity
  8
1
100
AcDbLine
 10
36.626352723483
 20
0.8
 30
0.0
 11
36.57801939015
 21
0.8
 31
0.0
  0
LINE
  5
2EC
330
30
100
AcDbEntity
  8
1
100
AcDbLine
 10
36.57801939015
 20
0.8
 30
0.0
 11
36.529686056817
 21
0.8
 31
0.0
  0
LINE
  5
2ED
330
30
100
AcDbEntity
  8
1
100
AcDbLine
 10
36.529686056817
 20
0.8
 30
0.0
 11
36.481352723483
 21
0.8
 31
0.0
  0
LINE
  5
2EE
330
30
100
AcDbEntity
  8
1
100
AcDbLine
 10
36.481352723483
 20
0.8
 30
0.0
 11
36.43301939015
 21
0.8
 31
0.0
  0
LINE
  5
2EF
330
30
100
AcDbEntity
  8
1
100
AcDbLine
 10
36.43301939015
 20
0.8
 30
0.0
 11
36.384686056817
 21
0.8
 31
0.0
  0
LINE
  5
2F0
330
30
100
AcDbEntity
  8
1
100
AcDbLine
 10
36.384686056817
 20
0.8
 30
0.0
 11
36.336352723483
 21
0.8
 31
0.0
  0
LINE
  5
2F1
330
30
100
AcDbEntity
  8
1
100
AcDbLine
 10
36.336352723483
 20
0.8
 30
0.0
 11
36.28801939015
 21
0.8
 31
0.0
  0
LINE
  5
2F2
330
30
100
AcDbEntity
  8
1
100
AcDbLine
 10
36.28801939015
 20
0.8
 30
0.0
 11
36.239686056817
 21
0.8
 31
0.0
  0
LINE
  5
2F3
330
30
100
AcDbEntity
  8
1
100
AcDbLine
 10
36.239686056817
 20
0.8
 30
0.0
 11
36.191352723483
 21
0.8
 31
0.0
  0
LINE
  5
2F4
330
30
100
AcDbEntity
  8
1
100
AcDbLine
 10
36.191352723483
 20
0.8
 30
0.0
 11
36.14301939015
 21
0.8
 31
0.0
  0
LINE
  5
2F5
330
30
100
AcDbEntity
  8
1
100
AcDbLine
 10
36.14301939015
 20
0.8
 30
0.0
 11
36.094686056817
 21
0.8
 31
0.0
  0
LINE
  5
2F6
330
30
100
AcDbEntity
  8
1
100
AcDbLine
 10
36.094686056817
 20
0.8
 30
0.0
 11
36.046352723483
 21
0.8
 31
0.0
  0
LINE
  5
2F7
330
30
100
AcDbEntity
  8
1
100
AcDbLine
 10
36.046352723483
 20
0.8
 30
0.0
 11
35.99801939015
 21
0.8
 31
0.0
  0
LINE
  5
2F8
330
30
100
AcDbEntity
  8
1
100
AcDbLine
 10
35.99801939015
 20
0.8
 30
0.0
 11
35.949686056817
 21
0.8
 31
0.0
  0
LINE
  5
2F9
330
30
100
AcDbEntity
  8
1
100
AcDbLine
 10
35.949686056817
 20
0.8
 30
0.0
 11
35.901352723483
 21
0.8
 31
0.0
  0
LINE
  5
2FA
330
30
100
AcDbEntity
  8
1
100
AcDbLine
 10
35.901352723483
 20
0.8
 30
0.0
 11
35.85301939015
 21
0.8
 31
0.0
  0
LINE
  5
2FB
330
30
100
AcDbEntity
  8
1
100
AcDbLine
 10
35.85301939015
 20
0.8
 30
0.0
 11
35.804686056817
 21
0.8
 31
0.0
  0
LINE
  5
2FC
330
30
100
AcDbEntity
  8
1
100
AcDbLine
 10
35.804686056817
 20
0.8
 30
0.0
 11
35.756352723483
 21
0.8
 31
0.0
  0
LINE
  5
2FD
330
30
100
AcDbEntity
  8
1
100
AcDbLine
 10
35.756352723483
 20
0.8
 30
0.0
 11
35.70801939015
 21
0.8
 31
0.0
  0
LINE
  5
2FE
330
30
100
AcDbEntity
  8
1
100
AcDbLine
 10
35.70801939015
 20
0.8
 30
0.0
 11
35.659686056817
 21
0.8
 31
0.0
  0
LINE
  5
2FF
330
30
100
AcDbEntity
  8
1
100
AcDbLine
 10
35.659686056817
 20
0.8
 30
0.0
 11
35.611352723483
 21
0.8
 31
0.0
  0
LINE
  5
300
330
30
100
AcDbEntity
  8
1
100
AcDbLine
 10
35.611352723483
 20
0.8
 30
0.0
 11
35.56301939015
 21
0.8
 31
0.0
  0
LINE
  5
301
330
30
100
AcDbEntity
  8
1
100
AcDbLine
 10
35.56301939015
 20
0.8
 30
0.0
 11
35.514686056817
 21
0.8
 31
0.0
  0
LINE
  5
302
330
30
100
AcDbEntity
  8
1
100
AcDbLine
 10
35.514686056817
 20
0.8
 30
0.0
 11
35.466352723483
 21
0.8
 31
0.0
  0
LINE
  5
303
330
30
100
AcDbEntity
  8
1
100
AcDbLine
 10
35.466352723483
 20
0.8
 30
0.0
 11
35.41801939015
 21
0.8
 31
0.0
  0
LINE
  5
304
330
30
100
AcDbEntity
  8
1
100
AcDbLine
 10
35.41801939015
 20
0.8
 30
0.0
 11
35.369686056817
 21
0.8
 31
0.0
  0
LINE
  5
305
330
30
100
AcDbEntity
  8
1
100
AcDbLine
 10
35.369686056817
 20
0.8
 30
0.0
 11
35.321352723483
 21
0.8
 31
0.0
  0
LINE
  5
306
330
30
100
AcDbEntity
  8
1
100
AcDbLine
 10
35.321352723483
 20
0.8
 30
0.0
 11
35.27301939015
 21
0.8
 31
0.0
  0
LINE
  5
307
330
30
100
AcDbEntity
  8
1
100
AcDbLine
 10
35.27301939015
 20
0.8
 30
0.0
 11
35.224686056817
 21
0.8
 31
0.0
  0
LINE
  5
308
330
30
100
AcDbEntity
  8
1
100
AcDbLine
 10
35.224686056817
 20
0.8
 30
0.0
 11
35.176352723483
 21
0.8
 31
0.0
  0
LINE
  5
309
330
30
100
AcDbEntity
  8
1
100
AcDbLine
 10
35.176352723483
 20
0.8
 30
0.0
 11
35.12801939015
 21
0.8
 31
0.0
  0
LINE
  5
30A
330
30
100
AcDbEntity
  8
1
100
AcDbLine
 10
35.12801939015
 20
0.8
 30
0.0
 11
35.079686056817
 21
0.8
 31
0.0
  0
LINE
  5
30B
330
30
100
AcDbEntity
  8
1
100
AcDbLine
 10
35.079686056817
 20
0.8
 30
0.0
 11
35.031352723483
 21
0.8
 31
0.0
  0
LINE
  5
30C
330
30
100
AcDbEntity
  8
1
100
AcDbLine
 10
35.031352723483
 20
0.8
 30
0.0
 11
34.98301939015
 21
0.8
 31
0.0
  0
LINE
  5
30D
330
30
100
AcDbEntity
  8
1
100
AcDbLine
 10
34.98301939015
 20
0.8
 30
0.0
 11
34.934686056817
 21
0.8
 31
0.0
  0
LINE
  5
30E
330
30
100
AcDbEntity
  8
1
100
AcDbLine
 10
34.934686056817
 20
0.8
 30
0.0
 11
34.886352723483
 21
0.8
 31
0.0
  0
LINE
  5
30F
330
30
100
AcDbEntity
  8
1
100
AcDbLine
 10
34.886352723483
 20
0.8
 30
0.0
 11
34.83801939015
 21
0.8
 31
0.0
  0
LINE
  5
310
330
30
100
AcDbEntity
  8
1
100
AcDbLine
 10
34.83801939015
 20
0.8
 30
0.0
 11
34.789686056817
 21
0.8
 31
0.0
  0
LINE
  5
311
330
30
100
AcDbEntity
  8
1
100
AcDbLine
 10
34.789686056817
 20
0.8
 30
0.0
 11
34.741352723483
 21
0.8
 31
0.0
  0
LINE
  5
312
330
30
100
AcDbEntity
  8
1
100
AcDbLine
 10
34.741352723483
 20
0.8
 30
0.0
 11
34.69301939015
 21
0.8
 31
0.0
  0
LINE
  5
313
330
30
100
AcDbEntity
  8
1
100
AcDbLine
 10
34.69301939015
 20
0.8
 30
0.0
 11
34.644686056817
 21
0.8
 31
0.0
  0
LINE
  5
314
330
30
100
AcDbEntity
  8
1
100
AcDbLine
 10
34.644686056817
 20
0.8
 30
0.0
 11
34.596352723483
 21
0.8
 31
0.0
  0
LINE
  5
315
330
30
100
AcDbEntity
  8
1
100
AcDbLine
 10
34.596352723483
 20
0.8
 30
0.0
 11
34.54801939015
 21
0.8
 31
0.0
  0
LINE
  5
316
330
30
100
AcDbEntity
  8
1
100
AcDbLine
 10
34.54801939015
 20
0.8
 30
0.0
 11
34.499686056817
 21
0.8
 31
0.0
  0
LINE
  5
317
330
30
100
AcDbEntity
  8
1
100
AcDbLine
 10
34.499686056817
 20
0.8
 30
0.0
 11
34.451352723483
 21
0.8
 31
0.0
  0
LINE
  5
318
330
30
100
AcDbEntity
  8
1
100
AcDbLine
 10
34.451352723483
 20
0.8
 30
0.0
 11
34.40301939015
 21
0.8
 31
0.0
  0
LINE
  5
319
330
30
100
AcDbEntity
  8
1
100
AcDbLine
 10
34.40301939015
 20
0.8
 30
0.0
 11
34.354686056817
 21
0.8
 31
0.0
  0
LINE
  5
31A
330
30
100
AcDbEntity
  8
1
100
AcDbLine
 10
34.354686056817
 20
0.8
 30
0.0
 11
34.306352723483
 21
0.8
 31
0.0
  0
LINE
  5
31B
330
30
100
AcDbEntity
  8
1
100
AcDbLine
 10
34.306352723483
 20
0.8
 30
0.0
 11
34.25801939015
 21
0.8
 31
0.0
  0
LINE
  5
31C
330
30
100
AcDbEntity
  8
1
100
AcDbLine
 10
34.25801939015
 20
0.8
 30
0.0
 11
34.209686056817
 21
0.8
 31
0.0
  0
LINE
  5
31D
330
30
100
AcDbEntity
  8
1
100
AcDbLine
 10
34.209686056817
 20
0.8
 30
0.0
 11
34.161352723483
 21
0.8
 31
0.0
  0
LINE
  5
31E
330
30
100
AcDbEntity
  8
1
100
AcDbLine
 10
34.161352723483
 20
0.8
 30
0.0
 11
34.11301939015
 21
0.8
 31
0.0
  0
LINE
  5
31F
330
30
100
AcDbEntity
  8
1
100
AcDbLine
 10
34.11301939015
 20
0.8
 30
0.0
 11
34.064686056817
 21
0.8
 31
0.0
  0
LINE
  5
320
330
30
100
AcDbEntity
  8
1
100
AcDbLine
 10
34.064686056817
 20
0.8
 30
0.0
 11
34.016352723483
 21
0.8
 31
0.0
  0
LINE
  5
321
330
30
100
AcDbEntity
  8
1
100
AcDbLine
 10
34.016352723483
 20
0.8
 30
0.0
 11
33.96801939015
 21
0.8
 31
0.0
  0
LINE
  5
322
330
30
100
AcDbEntity
  8
1
100
AcDbLine
 10
33.96801939015
 20
0.8
 30
0.0
 11
33.919686056817
 21
0.8
 31
0.0
  0
LINE
  5
323
330
30
100
AcDbEntity
  8
1
100
AcDbLine
 10
33.919686056817
 20
0.8
 30
0.0
 11
33.871352723483
 21
0.8
 31
0.0
  0
LINE
  5
324
330
30
100
AcDbEntity
  8
1
100
AcDbLine
 10
33.871352723483
 20
0.8
 30
0.0
 11
33.82301939015
 21
0.8
 31
0.0
  0
LINE
  5
325
330
30
100
AcDbEntity
  8
1
100
AcDbLine
 10
33.82301939015
 20
0.8
 30
0.0
 11
33.774686056817
 21
0.8
 31
0.0
  0
LINE
  5
326
330
30
100
AcDbEntity
  8
1
100
AcDbLine
 10
33.774686056817
 20
0.8
 30
0.0
 11
33.726352723483
 21
0.8
 31
0.0
  0
LINE
  5
327
330
30
100
AcDbEntity
  8
1
100
AcDbLine
 10
33.726352723483
 20
0.8
 30
0.0
 11
33.67801939015
 21
0.8
 31
0.0
  0
LINE
  5
328
330
30
100
AcDbEntity
  8
1
100
AcDbLine
 10
33.67801939015
 20
0.8
 30
0.0
 11
33.629686056817
 21
0.8
 31
0.0
  0
LINE
  5
329
330
30
100
AcDbEntity
  8
1
100
AcDbLine
 10
33.629686056817
 20
0.8
 30
0.0
 11
33.581352723483
 21
0.8
 31
0.0
  0
LINE
  5
32A
330
30
100
AcDbEntity
  8
1
100
AcDbLine
 10
33.581352723483
 20
0.8
 30
0.0
 11
33.53301939015
 21
0.8
 31
0.0
  0
LINE
  5
32B
330
30
100
AcDbEntity
  8
1
100
AcDbLine
 10
33.53301939015
 20
0.8
 30
0.0
 11
33.484686056817
 21
0.8
 31
0.0
  0
LINE
  5
32C
330
30
100
AcDbEntity
  8
1
100
AcDbLine
 10
33.484686056817
 20
0.8
 30
0.0
 11
33.436352723483
 21
0.8
 31
0.0
  0
LINE
  5
32D
330
30
100
AcDbEntity
  8
1
100
AcDbLine
 10
33.436352723483
 20
0.8
 30
0.0
 11
33.38801939015
 21
0.8
 31
0.0
  0
LINE
  5
32E
330
30
100
AcDbEntity
  8
1
100
AcDbLine
 10
33.38801939015
 20
0.8
 30
0.0
 11
33.339686056817
 21
0.8
 31
0.0
  0
LINE
  5
32F
330
30
100
AcDbEntity
  8
1
100
AcDbLine
 10
33.339686056817
 20
0.8
 30
0.0
 11
33.291352723483
 21
0.8
 31
0.0
  0
LINE
  5
330
330
30
100
AcDbEntity
  8
1
100
AcDbLine
 10
33.291352723483
 20
0.8
 30
0.0
 11
33.24301939015
 21
0.8
 31
0.0
  0
LINE
  5
331
330
30
100
AcDbEntity
  8
1
100
AcDbLine
 10
33.24301939015
 20
0.8
 30
0.0
 11
33.194686056817
 21
0.8
 31
0.0
  0
LINE
  5
332
330
30
100
AcDbEntity
  8
1
100
AcDbLine
 10
33.194686056817
 20
0.8
 30
0.0
 11
33.146352723483
 21
0.8
 31
0.0
  0
LINE
  5
333
330
30
100
AcDbEntity
  8
1
100
AcDbLine
 10
33.146352723483
 20
0.8
 30
0.0
 11
33.09801939015
 21
0.8
 31
0.0
  0
LINE
  5
334
330
30
100
AcDbEntity
  8
1
100
AcDbLine
 10
33.053987871165
 20
0.8
 30
0.0
 11
33.053987871165
 21
-0.8
 31
0.0
  0
LINE
  5
335
330
30
100
AcDbEntity
  8
1
100
AcDbLine
 10
34.053987871165
 20
-0.8
 30
0.0
 11
34.053987871165
 21
0.8
 31
0.0
  0
LINE
  5
336
330
30
100
AcDbEntity
  8
1
100
AcDbLine
 10
34.053987871165
 20
0.8
 30
0.0
 11
34.053987871165
 21
-0.8
 31
0.0
  0
LINE
  5
337
330
30
100
AcDbEntity
  8
SK1
100
AcDbLine
 10
21.119686056817
 20
1.7905
 30
0.0
 11
1.953987871165
 21
1.7905
 31
0.0
  0
LINE
  5
338
330
30
100
AcDbEntity
  8
SK1
100
AcDbLine
 10
1.953987871165
 20
1.7905
 30
0.0
 11
0.0
 21
0.0
 31
0.0
  0
LINE
  5
339
330
30
100
AcDbEntity
  8
SK1
100
AcDbLine
 10
21.119686056817
 20
-1.7905
 30
0.0
 11
1.953987871165
 21
-1.7905
 31
0.0
  0
LINE
  5
33A
330
30
100
AcDbEntity
  8
SK1
100
AcDbLine
 10
1.953987871165
 20
-1.7905
 30
0.0
 11
0.0
 21
0.0
 31
0.0
  0
LINE
  5
33B
330
30
100
AcDbEntity
  8
SK1
100
AcDbLine
 10
1.953987871165
 20
1.7905
 30
0.0
 11
1.953987871165
 21
-1.7905
 31
0.0
  0
LINE
  5
33C
330
30
100
AcDbEntity
  8
SK1
100
AcDbLine
 10
1.953987871165
 20
1.7905
 30
0.0
 11
1.953987871165
 21
-1.7905
 31
0.0
  0
LINE
  5
33D
330
30
100
AcDbEntity
  8
SK1
100
AcDbLine
 10
22.159786056817
 20
1.40688
 30
0.0
 11
22.526586056817
 21
1.0401
 31
0.0
  0
LINE
  5
33E
330
30
100
AcDbEntity
  8
SK1
100
AcDbLine
 10
21.652486056817
 20
1.66666
 30
0.0
 11
22.786386056817
 21
0.532833
 31
0.0
  0
LINE
  5
33F
330
30
100
AcDbEntity
  8
SK1
100
AcDbLine
 10
21.335086056817
 20
1.73657
 30
0.0
 11
22.856286056817
 21
0.215434
 31
0.0
  0
LINE
  5
340
330
30
100
AcDbEntity
  8
SK1
100
AcDbLine
 10
21.119686056817
 20
1.70452
 30
0.0
 11
22.824186056817
 21
0.0
 31
0.0
  0
LINE
  5
341
330
30
100
AcDbEntity
  8
SK1
100
AcDbLine
 10
21.119686056817
 20
1.45703
 30
0.0
 11
22.576686056817
 21
0.0
 31
0.0
  0
LINE
  5
342
330
30
100
AcDbEntity
  8
SK1
100
AcDbLine
 10
21.119686056817
 20
1.20954
 30
0.0
 11
22.329186056817
 21
0.0
 31
0.0
  0
LINE
  5
343
330
30
100
AcDbEntity
  8
SK1
100
AcDbLine
 10
21.119686056817
 20
0.962054
 30
0.0
 11
22.081786056817
 21
0.0
 31
0.0
  0
LINE
  5
344
330
30
100
AcDbEntity
  8
SK1
100
AcDbLine
 10
21.119686056817
 20
0.714566
 30
0.0
 11
21.834286056817
 21
0.0
 31
0.0
  0
LINE
  5
345
330
30
100
AcDbEntity
  8
SK1
100
AcDbLine
 10
21.119686056817
 20
0.467079
 30
0.0
 11
21.586786056817
 21
0.0
 31
0.0
  0
LINE
  5
346
330
30
100
AcDbEntity
  8
SK1
100
AcDbLine
 10
21.119686056817
 20
0.219592
 30
0.0
 11
21.339286056817
 21
0.0
 31
0.0
  0
LINE
  5
347
330
30
100
AcDbEntity
  8
SK1
100
AcDbLine
 10
21.119686056817
 20
1.70452
 30
0.0
 11
21.163786056817
 21
1.74861
 31
0.0
  0
LINE
  5
348
330
30
100
AcDbEntity
  8
SK1
100
AcDbLine
 10
21.119686056817
 20
1.45703
 30
0.0
 11
21.390686056817
 21
1.72802
 31
0.0
  0
LINE
  5
349
330
30
100
AcDbEntity
  8
SK1
100
AcDbLine
 10
21.119686056817
 20
1.20954
 30
0.0
 11
21.593886056817
 21
1.6837
 31
0.0
  0
LINE
  5
34A
330
30
100
AcDbEntity
  8
SK1
100
AcDbLine
 10
21.119686056817
 20
0.962054
 30
0.0
 11
21.778486056817
 21
1.62082
 31
0.0
  0
LINE
  5
34B
330
30
100
AcDbEntity
  8
SK1
100
AcDbLine
 10
21.119686056817
 20
0.714566
 30
0.0
 11
21.946786056817
 21
1.54167
 31
0.0
  0
LINE
  5
34C
330
30
100
AcDbEntity
  8
SK1
100
AcDbLine
 10
21.119686056817
 20
0.467079
 30
0.0
 11
22.100686056817
 21
1.44812
 31
0.0
  0
LINE
  5
34D
330
30
100
AcDbEntity
  8
SK1
100
AcDbLine
 10
21.119686056817
 20
0.219592
 30
0.0
 11
22.242286056817
 21
1.34216
 31
0.0
  0
LINE
  5
34E
330
30
100
AcDbEntity
  8
SK1
100
AcDbLine
 10
21.147586056817
 20
0.0
 30
0.0
 11
22.370486056817
 21
1.22288
 31
0.0
  0
LINE
  5
34F
330
30
100
AcDbEntity
  8
SK1
100
AcDbLine
 10
21.395086056817
 20
0.0
 30
0.0
 11
22.486686056817
 21
1.09157
 31
0.0
  0
LINE
  5
350
330
30
100
AcDbEntity
  8
SK1
100
AcDbLine
 10
21.642586056817
 20
0.0
 30
0.0
 11
22.590386056817
 21
0.947822
 31
0.0
  0
LINE
  5
351
330
30
100
AcDbEntity
  8
SK1
100
AcDbLine
 10
21.890086056817
 20
0.0
 30
0.0
 11
22.680186056817
 21
0.790145
 31
0.0
  0
LINE
  5
352
330
30
100
AcDbEntity
  8
SK1
100
AcDbLine
 10
22.137486056817
 20
0.0
 30
0.0
 11
22.756086056817
 21
0.618517
 31
0.0
  0
LINE
  5
353
330
30
100
AcDbEntity
  8
SK1
100
AcDbLine
 10
22.384986056817
 20
0.0
 30
0.0
 11
22.815686056817
 21
0.430696
 31
0.0
  0
LINE
  5
354
330
30
100
AcDbEntity
  8
SK1
100
AcDbLine
 10
22.632486056817
 20
0.0
 30
0.0
 11
22.855286056817
 21
0.222827
 31
0.0
  0
LINE
  5
355
330
30
100
AcDbEntity
  8
SK1
100
AcDbLine
 10
21.119686056817
 20
0.0
 30
0.0
 11
21.119686056817
 21
1.75
 31
0.0
  0
LINE
  5
356
330
30
100
AcDbEntity
  8
SK1
100
AcDbLine
 10
21.119686056817
 20
0.0
 30
0.0
 11
22.869686056817
 21
0.0
 31
0.0
  0
ARC
  5
357
330
30
100
AcDbEntity
  8
SK1
100
AcDbCircle
 10
21.119686056817
 20
0.0
 30
0.0
 40
1.75
100
AcDbArc
 50
0.0
 51
90.0
  0
ARC
  5
358
330
30
100
AcDbEntity
  8
SK1
100
AcDbCircle
 10
21.119686056817
 20
0.0
 30
0.0
 40
1.75
100
AcDbArc
 50
90.0
 51
180.0
  0
LINE
  5
359
330
30
100
AcDbEntity
  8
SK1
100
AcDbLine
 10
21.091786056817
 20
0.0
 30
0.0
 11
21.119686056817
 21
-0.0278958
 31
0.0
  0
LINE
  5
35A
330
30
100
AcDbEntity
  8
SK1
100
AcDbLine
 10
20.844286056817
 20
0.0
 30
0.0
 11
21.119686056817
 21
-0.275383
 31
0.0
  0
LINE
  5
35B
330
30
100
AcDbEntity
  8
SK1
100
AcDbLine
 10
20.596786056817
 20
0.0
 30
0.0
 11
21.119686056817
 21
-0.522871
 31
0.0
  0
LINE
  5
35C
330
30
100
AcDbEntity
  8
SK1
100
AcDbLine
 10
20.349286056817
 20
0.0
 30
0.0
 11
21.119686056817
 21
-0.770358
 31
0.0
  0
LINE
  5
35D
330
30
100
AcDbEntity
  8
SK1
100
AcDbLine
 10
20.101886056817
 20
0.0
 30
0.0
 11
21.119686056817
 21
-1.01785
 31
0.0
  0
LINE
  5
35E
330
30
100
AcDbEntity
  8
SK1
100
AcDbLine
 10
19.854386056817
 20
0.0
 30
0.0
 11
21.119686056817
 21
-1.26533
 31
0.0
  0
LINE
  5
35F
330
30
100
AcDbEntity
  8
SK1
100
AcDbLine
 10
19.606886056817
 20
0.0
 30
0.0
 11
21.119686056817
 21
-1.51282
 31
0.0
  0
LINE
  5
360
330
30
100
AcDbEntity
  8
SK1
100
AcDbLine
 10
19.369986056817
 20
-0.0106419
 30
0.0
 11
21.109086056817
 21
-1.74967
 31
0.0
  0
LINE
  5
361
330
30
100
AcDbEntity
  8
SK1
100
AcDbLine
 10
19.393286056817
 20
-0.281429
 30
0.0
 11
20.838286056817
 21
-1.72637
 31
0.0
  0
LINE
  5
362
330
30
100
AcDbEntity
  8
SK1
100
AcDbLine
 10
19.483586056817
 20
-0.619147
 30
0.0
 11
20.500586056817
 21
-1.63613
 31
0.0
  0
LINE
  5
363
330
30
100
AcDbEntity
  8
SK1
100
AcDbLine
 10
19.371086056817
 20
-0.0440984
 30
0.0
 11
19.415186056817
 21
0.0
 31
0.0
  0
LINE
  5
364
330
30
100
AcDbEntity
  8
SK1
100
AcDbLine
 10
19.391686056817
 20
-0.270991
 30
0.0
 11
19.662686056817
 21
0.0
 31
0.0
  0
LINE
  5
365
330
30
100
AcDbEntity
  8
SK1
100
AcDbLine
 10
19.435986056817
 20
-0.474162
 30
0.0
 11
19.910186056817
 21
0.0
 31
0.0
  0
LINE
  5
366
330
30
100
AcDbEntity
  8
SK1
100
AcDbLine
 10
19.498886056817
 20
-0.658762
 30
0.0
 11
20.157586056817
 21
0.0
 31
0.0
  0
LINE
  5
367
330
30
100
AcDbEntity
  8
SK1
100
AcDbLine
 10
19.577986056817
 20
-0.827105
 30
0.0
 11
20.405086056817
 21
0.0
 31
0.0
  0
LINE
  5
368
330
30
100
AcDbEntity
  8
SK1
100
AcDbLine
 10
19.671586056817
 20
-0.981039
 30
0.0
 11
20.652586056817
 21
0.0
 31
0.0
  0
LINE
  5
369
330
30
100
AcDbEntity
  8
SK1
100
AcDbLine
 10
19.777486056817
 20
-1.12257
 30
0.0
 11
20.900086056817
 21
0.0
 31
0.0
  0
LINE
  5
36A
330
30
100
AcDbEntity
  8
SK1
100
AcDbLine
 10
19.896786056817
 20
-1.25077
 30
0.0
 11
21.119686056817
 21
-0.0278958
 31
0.0
  0
LINE
  5
36B
330
30
100
AcDbEntity
  8
SK1
100
AcDbLine
 10
20.028086056817
 20
-1.36695
 30
0.0
 11
21.119686056817
 21
-0.275383
 31
0.0
  0
LINE
  5
36C
330
30
100
AcDbEntity
  8
SK1
100
AcDbLine
 10
20.171886056817
 20
-1.47069
 30
0.0
 11
21.119686056817
 21
-0.522871
 31
0.0
  0
LINE
  5
36D
330
30
100
AcDbEntity
  8
SK1
100
AcDbLine
 10
20.329586056817
 20
-1.5605
 30
0.0
 11
21.119686056817
 21
-0.770358
 31
0.0
  0
LINE
  5
36E
330
30
100
AcDbEntity
  8
SK1
100
AcDbLine
 10
20.501186056817
 20
-1.63636
 30
0.0
 11
21.119686056817
 21
-1.01785
 31
0.0
  0
LINE
  5
36F
330
30
100
AcDbEntity
  8
SK1
100
AcDbLine
 10
20.688986056817
 20
-1.69603
 30
0.0
 11
21.119686056817
 21
-1.26533
 31
0.0
  0
LINE
  5
370
330
30
100
AcDbEntity
  8
SK1
100
AcDbLine
 10
20.896886056817
 20
-1.73565
 30
0.0
 11
21.119686056817
 21
-1.51282
 31
0.0
  0
LINE
  5
371
330
30
100
AcDbEntity
  8
SK1
100
AcDbLine
 10
21.119686056817
 20
0.0
 30
0.0
 11
19.369686056817
 21
0.0
 31
0.0
  0
LINE
  5
372
330
30
100
AcDbEntity
  8
SK1
100
AcDbLine
 10
21.119686056817
 20
-1.75
 30
0.0
 11
21.119686056817
 21
0.0
 31
0.0
  0
ARC
  5
373
330
30
100
AcDbEntity
  8
SK1
100
AcDbCircle
 10
21.119686056817
 20
0.0
 30
0.0
 40
1.75
100
AcDbArc
 50
180.0
 51
270.0
  0
ARC
  5
374
330
30
100
AcDbEntity
  8
SK1
100
AcDbCircle
 10
21.119686056817
 20
0.0
 30
0.0
 40
1.75
100
AcDbArc
 50
270.0
 51
0.0
  0
LINE
  5
3D5
330
30
100
AcDbEntity
  8
NOCUT
100
AcDbLine
 10
34.053987871165
 20
0.0
 30
0.0
 11
34.053987871165
 21
0.8
 31
0.0
  0
LINE
  5
3D6
330
30
100
AcDbEntity
  8
NOCUT
100
AcDbLine
 10
34.053987871165
 20
0.8
 30
0.0
 11
33.053987871165
 21
0.8
 31
0.0
  0
LINE
  5
3D7
330
30
100
AcDbEntity
  8
NOCUT
100
AcDbLine
 10
33.053987871165
 20
0.8
 30
0.0
 11
28.053887450587
 21
1.7905
 31
0.0
  0
LINE
  5
3D8
330
30
100
AcDbEntity
  8
NOCUT
100
AcDbLine
 10
28.053887450587
 20
1.7905
 30
0.0
 11
21.119686056817
 21
1.7905
 31
0.0
  0
LINE
  5
3D9
330
30
100
AcDbEntity
  8
NOCUT
100
AcDbLine
 10
21.119686056817
 20
1.7905
 30
0.0
 11
21.119686056817
 21
0.0
 31
0.0
  0
LINE
  5
3DA
330
30
100
AcDbEntity
  8
NOCUT
100
AcDbLine
 10
21.119686056817
 20
0.0
 30
0.0
 11
34.053987871165
 21
0.0
 31
0.0
  0
LINE
  5
3DB
330
30
100
AcDbEntity
  8
CUT
100
AcDbLine
 10
42.619686056817
 20
0.0
 30
0.0
 11
41.953987871165
 21
0.61
 31
0.0
  0
LINE
  5
3DC
330
30
100
AcDbEntity
  8
CUT
100
AcDbLine
 10
41.953987871165
 20
0.61
 30
0.0
 11
40.553987871165
 21
0.8
 31
0.0
  0
LINE
  5
3DD
330
30
100
AcDbEntity
  8
CUT
100
AcDbLine
 10
40.553987871165
 20
0.8
 30
0.0
 11
34.053987871165
 21
0.8
 31
0.0
  0
LINE
  5
3DE
330
30
100
AcDbEntity
  8
CUT
100
AcDbLine
 10
34.053987871165
 20
0.8
 30
0.0
 11
34.053987871165
 21
0.0
 31
0.0
  0
LINE
  5
3DF
330
30
100
AcDbEntity
  8
CUT
100
AcDbLine
 10
34.053987871165
 20
0.0
 30
0.0
 11
42.619686056817
 21
0.0
 31
0.0
  0
LINE
  5
3E0
330
30
100
AcDbEntity
  8
4
100
AcDbLine
 10
21.119686056817
 20
0.0
 30
0.0
 11
42.619686056817
 21
0.0
 31
0.0
  0
LINE
  5
3E1
330
30
100
AcDbEntity
  8
SK4
100
AcDbLine
 10
-1.0
 20
0.0
 30
0.0
 11
43.619686056817
 21
0.0
 31
0.0
  0
LINE
  5
3E2
330
30
100
AcDbEntity
  8
1
100
AcDbLine
 10
41.950303660638
 20
0.6105
 30
0.0
 11
34.053987871165
 21
0.6105
 31
0.0
  0
LINE
  5
3E3
330
30
100
AcDbEntity
  8
1
100
AcDbLine
 10
41.666509415448
 20
0.649014933276
 30
0.0
 11
41.644272808354
 21
0.6105
 31
0.0
  0
LINE
  5
3E4
330
30
100
AcDbEntity
  8
1
100
AcDbLine
 10
41.644272808354
 20
0.6105
 30
0.0
 11
41.624130339759
 21
0.6105
 31
0.0
  0
LINE
  5
3E5
330
30
100
AcDbEntity
  8
1
100
AcDbLine
 10
41.624130339759
 20
0.6105
 30
0.0
 11
41.603987871165
 21
0.6105
 31
0.0
  0
LINE
  5
3E6
330
30
100
AcDbEntity
  8
1
100
AcDbLine
 10
41.603987871165
 20
0.6105
 30
0.0
 11
41.57454545764
 21
0.661495756121
 31
0.0
  0
LINE
  5
3E7
330
30
100
AcDbEntity
  8
1
100
AcDbLine
 10
41.341940879057
 20
0.693063520357
 30
0.0
 11
41.294272808354
 21
0.6105
 31
0.0
  0
LINE
  5
3E8
330
30
100
AcDbEntity
  8
1
100
AcDbLine
 10
41.294272808354
 20
0.6105
 30
0.0
 11
41.274130339759
 21
0.6105
 31
0.0
  0
LINE
  5
3E9
330
30
100
AcDbEntity
  8
1
100
AcDbLine
 10
41.274130339759
 20
0.6105
 30
0.0
 11
41.253987871165
 21
0.6105
 31
0.0
  0
LINE
  5
3EA
330
30
100
AcDbEntity
  8
1
100
AcDbLine
 10
41.253987871165
 20
0.6105
 30
0.0
 11
41.194789826951
 21
0.713034020286
 31
0.0
  0
LINE
  5
3EB
330
30
100
AcDbEntity
  8
1
100
AcDbLine
 10
41.017372342666
 20
0.737112107439
 30
0.0
 11
40.944272808354
 21
0.6105
 31
0.0
  0
LINE
  5
3EC
330
30
100
AcDbEntity
  8
1
100
AcDbLine
 10
40.944272808354
 20
0.6105
 30
0.0
 11
40.924130339759
 21
0.6105
 31
0.0
  0
LINE
  5
3ED
330
30
100
AcDbEntity
  8
1
100
AcDbLine
 10
40.924130339759
 20
0.6105
 30
0.0
 11
40.903987871165
 21
0.6105
 31
0.0
  0
LINE
  5
3EE
330
30
100
AcDbEntity
  8
1
100
AcDbLine
 10
40.903987871165
 20
0.6105
 30
0.0
 11
40.815034196262
 21
0.764572284451
 31
0.0
  0
LINE
  5
3EF
330
30
100
AcDbEntity
  8
1
100
AcDbLine
 10
40.692803806275
 20
0.781160694521
 30
0.0
 11
40.594272808354
 21
0.6105
 31
0.0
  0
LINE
  5
3F0
330
30
100
AcDbEntity
  8
1
100
AcDbLine
 10
40.594272808354
 20
0.6105
 30
0.0
 11
40.574130339759
 21
0.6105
 31
0.0
  0
LINE
  5
3F1
330
30
100
AcDbEntity
  8
1
100
AcDbLine
 10
40.574130339759
 20
0.6105
 30
0.0
 11
40.553987871165
 21
0.6105
 31
0.0
  0
LINE
  5
3F2
330
30
100
AcDbEntity
  8
1
100
AcDbLine
 10
40.553987871165
 20
0.6105
 30
0.0
 11
40.444579995153
 21
0.8
 31
0.0
  0
LINE
  5
3F3
330
30
100
AcDbEntity
  8
1
100
AcDbLine
 10
40.444579995153
 20
0.8
 30
0.0
 11
40.399130339759
 21
0.8
 31
0.0
  0
LINE
  5
3F4
330
30
100
AcDbEntity
  8
1
100
AcDbLine
 10
40.399130339759
 20
0.8
 30
0.0
 11
40.353680684365
 21
0.8
 31
0.0
  0
LINE
  5
3F5
330
30
100
AcDbEntity
  8
1
100
AcDbLine
 10
40.353680684365
 20
0.8
 30
0.0
 11
40.244272808354
 21
0.6105
 31
0.0
  0
LINE
  5
3F6
330
30
100
AcDbEntity
  8
1
100
AcDbLine
 10
40.244272808354
 20
0.6105
 30
0.0
 11
40.224130339759
 21
0.6105
 31
0.0
  0
LINE
  5
3F7
330
30
100
AcDbEntity
  8
1
100
AcDbLine
 10
40.224130339759
 20
0.6105
 30
0.0
 11
40.203987871165
 21
0.6105
 31
0.0
  0
LINE
  5
3F8
330
30
100
AcDbEntity
  8
1
100
AcDbLine
 10
40.203987871165
 20
0.6105
 30
0.0
 11
40.094579995153
 21
0.8
 31
0.0
  0
LINE
  5
3F9
330
30
100
AcDbEntity
  8
1
100
AcDbLine
 10
40.094579995153
 20
0.8
 30
0.0
 11
40.049130339759
 21
0.8
 31
0.0
  0
LINE
  5
3FA
330
30
100
AcDbEntity
  8
1
100
AcDbLine
 10
40.049130339759
 20
0.8
 30
0.0
 11
40.003680684365
 21
0.8
 31
0.0
  0
LINE
  5
3FB
330
30
100
AcDbEntity
  8
1
100
AcDbLine
 10
40.003680684365
 20
0.8
 30
0.0
 11
39.894272808354
 21
0.6105
 31
0.0
  0
LINE
  5
3FC
330
30
100
AcDbEntity
  8
1
100
AcDbLine
 10
39.894272808354
 20
0.6105
 30
0.0
 11
39.874130339759
 21
0.6105
 31
0.0
  0
LINE
  5
3FD
330
30
100
AcDbEntity
  8
1
100
AcDbLine
 10
39.874130339759
 20
0.6105
 30
0.0
 11
39.853987871165
 21
0.6105
 31
0.0
  0
LINE
  5
3FE
330
30
100
AcDbEntity
  8
1
100
AcDbLine
 10
39.853987871165
 20
0.6105
 30
0.0
 11
39.744579995153
 21
0.8
 31
0.0
  0
LINE
  5
3FF
330
30
100
AcDbEntity
  8
1
100
AcDbLine
 10
39.744579995153
 20
0.8
 30
0.0
 11
39.699130339759
 21
0.8
 31
0.0
  0
LINE
  5
400
330
30
100
AcDbEntity
  8
1
100
AcDbLine
 10
39.699130339759
 20
0.8
 30
0.0
 11
39.653680684365
 21
0.8
 31
0.0
  0
LINE
  5
401
330
30
100
AcDbEntity
  8
1
100
AcDbLine
 10
39.653680684365
 20
0.8
 30
0.0
 11
39.544272808354
 21
0.6105
 31
0.0
  0
LINE
  5
402
330
30
100
AcDbEntity
  8
1
100
AcDbLine
 10
39.544272808354
 20
0.6105
 30
0.0
 11
39.524130339759
 21
0.6105
 31
0.0
  0
LINE
  5
403
330
30
100
AcDbEntity
  8
1
100
AcDbLine
 10
39.524130339759
 20
0.6105
 30
0.0
 11
39.503987871165
 21
0.6105
 31
0.0
  0
LINE
  5
404
330
30
100
AcDbEntity
  8
1
100
AcDbLine
 10
39.503987871165
 20
0.6105
 30
0.0
 11
39.394579995153
 21
0.8
 31
0.0
  0
LINE
  5
405
330
30
100
AcDbEntity
  8
1
100
AcDbLine
 10
39.394579995153
 20
0.8
 30
0.0
 11
39.349130339759
 21
0.8
 31
0.0
  0
LINE
  5
406
330
30
100
AcDbEntity
  8
1
100
AcDbLine
 10
39.349130339759
 20
0.8
 30
0.0
 11
39.303680684365
 21
0.8
 31
0.0
  0
LINE
  5
407
330
30
100
AcDbEntity
  8
1
100
AcDbLine
 10
39.303680684365
 20
0.8
 30
0.0
 11
39.194272808354
 21
0.6105
 31
0.0
  0
LINE
  5
408
330
30
100
AcDbEntity
  8
1
100
AcDbLine
 10
39.194272808354
 20
0.6105
 30
0.0
 11
39.174130339759
 21
0.6105
 31
0.0
  0
LINE
  5
409
330
30
100
AcDbEntity
  8
1
100
AcDbLine
 10
39.174130339759
 20
0.6105
 30
0.0
 11
39.153987871165
 21
0.6105
 31
0.0
  0
LINE
  5
40A
330
30
100
AcDbEntity
  8
1
100
AcDbLine
 10
39.153987871165
 20
0.6105
 30
0.0
 11
39.044579995153
 21
0.8
 31
0.0
  0
LINE
  5
40B
330
30
100
AcDbEntity
  8
1
100
AcDbLine
 10
39.044579995153
 20
0.8
 30
0.0
 11
38.999130339759
 21
0.8
 31
0.0
  0
LINE
  5
40C
330
30
100
AcDbEntity
  8
1
100
AcDbLine
 10
38.999130339759
 20
0.8
 30
0.0
 11
38.953680684365
 21
0.8
 31
0.0
  0
LINE
  5
40D
330
30
100
AcDbEntity
  8
1
100
AcDbLine
 10
38.953680684365
 20
0.8
 30
0.0
 11
38.844272808354
 21
0.6105
 31
0.0
  0
LINE
  5
40E
330
30
100
AcDbEntity
  8
1
100
AcDbLine
 10
38.844272808354
 20
0.6105
 30
0.0
 11
38.824130339759
 21
0.6105
 31
0.0
  0
LINE
  5
40F
330
30
100
AcDbEntity
  8
1
100
AcDbLine
 10
38.824130339759
 20
0.6105
 30
0.0
 11
38.803987871165
 21
0.6105
 31
0.0
  0
LINE
  5
410
330
30
100
AcDbEntity
  8
1
100
AcDbLine
 10
38.803987871165
 20
0.6105
 30
0.0
 11
38.694579995153
 21
0.8
 31
0.0
  0
LINE
  5
411
330
30
100
AcDbEntity
  8
1
100
AcDbLine
 10
38.694579995153
 20
0.8
 30
0.0
 11
38.649130339759
 21
0.8
 31
0.0
  0
LINE
  5
412
330
30
100
AcDbEntity
  8
1
100
AcDbLine
 10
38.649130339759
 20
0.8
 30
0.0
 11
38.603680684365
 21
0.8
 31
0.0
  0
LINE
  5
413
330
30
100
AcDbEntity
  8
1
100
AcDbLine
 10
38.603680684365
 20
0.8
 30
0.0
 11
38.494272808354
 21
0.6105
 31
0.0
  0
LINE
  5
414
330
30
100
AcDbEntity
  8
1
100
AcDbLine
 10
38.494272808354
 20
0.6105
 30
0.0
 11
38.474130339759
 21
0.6105
 31
0.0
  0
LINE
  5
415
330
30
100
AcDbEntity
  8
1
100
AcDbLine
 10
38.474130339759
 20
0.6105
 30
0.0
 11
38.453987871165
 21
0.6105
 31
0.0
  0
LINE
  5
416
330
30
100
AcDbEntity
  8
1
100
AcDbLine
 10
38.453987871165
 20
0.6105
 30
0.0
 11
38.344579995153
 21
0.8
 31
0.0
  0
LINE
  5
417
330
30
100
AcDbEntity
  8
1
100
AcDbLine
 10
38.344579995153
 20
0.8
 30
0.0
 11
38.299130339759
 21
0.8
 31
0.0
  0
LINE
  5
418
330
30
100
AcDbEntity
  8
1
100
AcDbLine
 10
38.299130339759
 20
0.8
 30
0.0
 11
38.253680684365
 21
0.8
 31
0.0
  0
LINE
  5
419
330
30
100
AcDbEntity
  8
1
100
AcDbLine
 10
38.253680684365
 20
0.8
 30
0.0
 11
38.144272808354
 21
0.6105
 31
0.0
  0
LINE
  5
41A
330
30
100
AcDbEntity
  8
1
100
AcDbLine
 10
38.144272808354
 20
0.6105
 30
0.0
 11
38.124130339759
 21
0.6105
 31
0.0
  0
LINE
  5
41B
330
30
100
AcDbEntity
  8
1
100
AcDbLine
 10
38.124130339759
 20
0.6105
 30
0.0
 11
38.103987871165
 21
0.6105
 31
0.0
  0
LINE
  5
41C
330
30
100
AcDbEntity
  8
1
100
AcDbLine
 10
38.103987871165
 20
0.6105
 30
0.0
 11
37.994579995153
 21
0.8
 31
0.0
  0
LINE
  5
41D
330
30
100
AcDbEntity
  8
1
100
AcDbLine
 10
37.994579995153
 20
0.8
 30
0.0
 11
37.949130339759
 21
0.8
 31
0.0
  0
LINE
  5
41E
330
30
100
AcDbEntity
  8
1
100
AcDbLine
 10
37.949130339759
 20
0.8
 30
0.0
 11
37.903680684365
 21
0.8
 31
0.0
  0
LINE
  5
41F
330
30
100
AcDbEntity
  8
1
100
AcDbLine
 10
37.903680684365
 20
0.8
 30
0.0
 11
37.794272808354
 21
0.6105
 31
0.0
  0
LINE
  5
420
330
30
100
AcDbEntity
  8
1
100
AcDbLine
 10
37.794272808354
 20
0.6105
 30
0.0
 11
37.774130339759
 21
0.6105
 31
0.0
  0
LINE
  5
421
330
30
100
AcDbEntity
  8
1
100
AcDbLine
 10
37.774130339759
 20
0.6105
 30
0.0
 11
37.753987871165
 21
0.6105
 31
0.0
  0
LINE
  5
422
330
30
100
AcDbEntity
  8
1
100
AcDbLine
 10
37.753987871165
 20
0.6105
 30
0.0
 11
37.644579995153
 21
0.8
 31
0.0
  0
LINE
  5
423
330
30
100
AcDbEntity
  8
1
100
AcDbLine
 10
37.644579995153
 20
0.8
 30
0.0
 11
37.599130339759
 21
0.8
 31
0.0
  0
LINE
  5
424
330
30
100
AcDbEntity
  8
1
100
AcDbLine
 10
37.599130339759
 20
0.8
 30
0.0
 11
37.553680684365
 21
0.8
 31
0.0
  0
LINE
  5
425
330
30
100
AcDbEntity
  8
1
100
AcDbLine
 10
37.553680684365
 20
0.8
 30
0.0
 11
37.444272808354
 21
0.6105
 31
0.0
  0
LINE
  5
426
330
30
100
AcDbEntity
  8
1
100
AcDbLine
 10
37.444272808354
 20
0.6105
 30
0.0
 11
37.424130339759
 21
0.6105
 31
0.0
  0
LINE
  5
427
330
30
100
AcDbEntity
  8
1
100
AcDbLine
 10
37.424130339759
 20
0.6105
 30
0.0
 11
37.403987871165
 21
0.6105
 31
0.0
  0
LINE
  5
428
330
30
100
AcDbEntity
  8
1
100
AcDbLine
 10
37.403987871165
 20
0.6105
 30
0.0
 11
37.294579995153
 21
0.8
 31
0.0
  0
LINE
  5
429
330
30
100
AcDbEntity
  8
1
100
AcDbLine
 10
37.294579995153
 20
0.8
 30
0.0
 11
37.249130339759
 21
0.8
 31
0.0
  0
LINE
  5
42A
330
30
100
AcDbEntity
  8
1
100
AcDbLine
 10
37.249130339759
 20
0.8
 30
0.0
 11
37.203680684365
 21
0.8
 31
0.0
  0
LINE
  5
42B
330
30
100
AcDbEntity
  8
1
100
AcDbLine
 10
37.203680684365
 20
0.8
 30
0.0
 11
37.094272808354
 21
0.6105
 31
0.0
  0
LINE
  5
42C
330
30
100
AcDbEntity
  8
1
100
AcDbLine
 10
37.094272808354
 20
0.6105
 30
0.0
 11
37.074130339759
 21
0.6105
 31
0.0
  0
LINE
  5
42D
330
30
100
AcDbEntity
  8
1
100
AcDbLine
 10
37.074130339759
 20
0.6105
 30
0.0
 11
37.053987871165
 21
0.6105
 31
0.0
  0
LINE
  5
42E
330
30
100
AcDbEntity
  8
1
100
AcDbLine
 10
37.053987871165
 20
0.6105
 30
0.0
 11
36.944579995153
 21
0.8
 31
0.0
  0
LINE
  5
42F
330
30
100
AcDbEntity
  8
1
100
AcDbLine
 10
36.944579995153
 20
0.8
 30
0.0
 11
36.899130339759
 21
0.8
 31
0.0
  0
LINE
  5
430
330
30
100
AcDbEntity
  8
1
100
AcDbLine
 10
36.899130339759
 20
0.8
 30
0.0
 11
36.853680684365
 21
0.8
 31
0.0
  0
LINE
  5
431
330
30
100
AcDbEntity
  8
1
100
AcDbLine
 10
36.853680684365
 20
0.8
 30
0.0
 11
36.744272808354
 21
0.6105
 31
0.0
  0
LINE
  5
432
330
30
100
AcDbEntity
  8
1
100
AcDbLine
 10
36.744272808354
 20
0.6105
 30
0.0
 11
36.724130339759
 21
0.6105
 31
0.0
  0
LINE
  5
433
330
30
100
AcDbEntity
  8
1
100
AcDbLine
 10
36.724130339759
 20
0.6105
 30
0.0
 11
36.703987871165
 21
0.6105
 31
0.0
  0
LINE
  5
434
330
30
100
AcDbEntity
  8
1
100
AcDbLine
 10
36.703987871165
 20
0.6105
 30
0.0
 11
36.594579995153
 21
0.8
 31
0.0
  0
LINE
  5
435
330
30
100
AcDbEntity
  8
1
100
AcDbLine
 10
36.594579995153
 20
0.8
 30
0.0
 11
36.549130339759
 21
0.8
 31
0.0
  0
LINE
  5
436
330
30
100
AcDbEntity
  8
1
100
AcDbLine
 10
36.549130339759
 20
0.8
 30
0.0
 11
36.503680684365
 21
0.8
 31
0.0
  0
LINE
  5
437
330
30
100
AcDbEntity
  8
1
100
AcDbLine
 10
36.503680684365
 20
0.8
 30
0.0
 11
36.394272808354
 21
0.6105
 31
0.0
  0
LINE
  5
438
330
30
100
AcDbEntity
  8
1
100
AcDbLine
 10
36.394272808354
 20
0.6105
 30
0.0
 11
36.374130339759
 21
0.6105
 31
0.0
  0
LINE
  5
439
330
30
100
AcDbEntity
  8
1
100
AcDbLine
 10
36.374130339759
 20
0.6105
 30
0.0
 11
36.353987871165
 21
0.6105
 31
0.0
  0
LINE
  5
43A
330
30
100
AcDbEntity
  8
1
100
AcDbLine
 10
36.353987871165
 20
0.6105
 30
0.0
 11
36.244579995153
 21
0.8
 31
0.0
  0
LINE
  5
43B
330
30
100
AcDbEntity
  8
1
100
AcDbLine
 10
36.244579995153
 20
0.8
 30
0.0
 11
36.199130339759
 21
0.8
 31
0.0
  0
LINE
  5
43C
330
30
100
AcDbEntity
  8
1
100
AcDbLine
 10
36.199130339759
 20
0.8
 30
0.0
 11
36.153680684365
 21
0.8
 31
0.0
  0
LINE
  5
43D
330
30
100
AcDbEntity
  8
1
100
AcDbLine
 10
36.153680684365
 20
0.8
 30
0.0
 11
36.044272808354
 21
0.6105
 31
0.0
  0
LINE
  5
43E
330
30
100
AcDbEntity
  8
1
100
AcDbLine
 10
36.044272808354
 20
0.6105
 30
0.0
 11
36.024130339759
 21
0.6105
 31
0.0
  0
LINE
  5
43F
330
30
100
AcDbEntity
  8
1
100
AcDbLine
 10
36.024130339759
 20
0.6105
 30
0.0
 11
36.003987871165
 21
0.6105
 31
0.0
  0
LINE
  5
440
330
30
100
AcDbEntity
  8
1
100
AcDbLine
 10
36.003987871165
 20
0.6105
 30
0.0
 11
35.894579995153
 21
0.8
 31
0.0
  0
LINE
  5
441
330
30
100
AcDbEntity
  8
1
100
AcDbLine
 10
35.894579995153
 20
0.8
 30
0.0
 11
35.849130339759
 21
0.8
 31
0.0
  0
LINE
  5
442
330
30
100
AcDbEntity
  8
1
100
AcDbLine
 10
35.849130339759
 20
0.8
 30
0.0
 11
35.803680684365
 21
0.8
 31
0.0
  0
LINE
  5
443
330
30
100
AcDbEntity
  8
1
100
AcDbLine
 10
35.803680684365
 20
0.8
 30
0.0
 11
35.694272808354
 21
0.6105
 31
0.0
  0
LINE
  5
444
330
30
100
AcDbEntity
  8
1
100
AcDbLine
 10
35.694272808354
 20
0.6105
 30
0.0
 11
35.674130339759
 21
0.6105
 31
0.0
  0
LINE
  5
445
330
30
100
AcDbEntity
  8
1
100
AcDbLine
 10
35.674130339759
 20
0.6105
 30
0.0
 11
35.653987871165
 21
0.6105
 31
0.0
  0
LINE
  5
446
330
30
100
AcDbEntity
  8
1
100
AcDbLine
 10
35.653987871165
 20
0.6105
 30
0.0
 11
35.544579995153
 21
0.8
 31
0.0
  0
LINE
  5
447
330
30
100
AcDbEntity
  8
1
100
AcDbLine
 10
35.544579995153
 20
0.8
 30
0.0
 11
35.499130339759
 21
0.8
 31
0.0
  0
LINE
  5
448
330
30
100
AcDbEntity
  8
1
100
AcDbLine
 10
35.499130339759
 20
0.8
 30
0.0
 11
35.453680684365
 21
0.8
 31
0.0
  0
LINE
  5
449
330
30
100
AcDbEntity
  8
1
100
AcDbLine
 10
35.453680684365
 20
0.8
 30
0.0
 11
35.344272808354
 21
0.6105
 31
0.0
  0
LINE
  5
44A
330
30
100
AcDbEntity
  8
1
100
AcDbLine
 10
35.344272808354
 20
0.6105
 30
0.0
 11
35.324130339759
 21
0.6105
 31
0.0
  0
LINE
  5
44B
330
30
100
AcDbEntity
  8
1
100
AcDbLine
 10
35.324130339759
 20
0.6105
 30
0.0
 11
35.303987871165
 21
0.6105
 31
0.0
  0
LINE
  5
44C
330
30
100
AcDbEntity
  8
1
100
AcDbLine
 10
35.303987871165
 20
0.6105
 30
0.0
 11
35.194579995153
 21
0.8
 31
0.0
  0
LINE
  5
44D
330
30
100
AcDbEntity
  8
1
100
AcDbLine
 10
35.194579995153
 20
0.8
 30
0.0
 11
35.149130339759
 21
0.8
 31
0.0
  0
LINE
  5
44E
330
30
100
AcDbEntity
  8
1
100
AcDbLine
 10
35.149130339759
 20
0.8
 30
0.0
 11
35.103680684365
 21
0.8
 31
0.0
  0
LINE
  5
44F
330
30
100
AcDbEntity
  8
1
100
AcDbLine
 10
35.103680684365
 20
0.8
 30
0.0
 11
34.994272808354
 21
0.6105
 31
0.0
  0
LINE
  5
450
330
30
100
AcDbEntity
  8
1
100
AcDbLine
 10
34.994272808354
 20
0.6105
 30
0.0
 11
34.974130339759
 21
0.6105
 31
0.0
  0
LINE
  5
451
330
30
100
AcDbEntity
  8
1
100
AcDbLine
 10
34.974130339759
 20
0.6105
 30
0.0
 11
34.953987871165
 21
0.6105
 31
0.0
  0
LINE
  5
452
330
30
100
AcDbEntity
  8
1
100
AcDbLine
 10
34.953987871165
 20
0.6105
 30
0.0
 11
34.844579995153
 21
0.8
 31
0.0
  0
LINE
  5
453
330
30
100
AcDbEntity
  8
1
100
AcDbLine
 10
34.844579995153
 20
0.8
 30
0.0
 11
34.799130339759
 21
0.8
 31
0.0
  0
LINE
  5
454
330
30
100
AcDbEntity
  8
1
100
AcDbLine
 10
34.799130339759
 20
0.8
 30
0.0
 11
34.753680684365
 21
0.8
 31
0.0
  0
LINE
  5
455
330
30
100
AcDbEntity
  8
1
100
AcDbLine
 10
34.753680684365
 20
0.8
 30
0.0
 11
34.644272808354
 21
0.6105
 31
0.0
  0
LINE
  5
456
330
30
100
AcDbEntity
  8
1
100
AcDbLine
 10
34.644272808354
 20
0.6105
 30
0.0
 11
34.624130339759
 21
0.6105
 31
0.0
  0
LINE
  5
457
330
30
100
AcDbEntity
  8
1
100
AcDbLine
 10
34.624130339759
 20
0.6105
 30
0.0
 11
34.603987871165
 21
0.6105
 31
0.0
  0
LINE
  5
458
330
30
100
AcDbEntity
  8
1
100
AcDbLine
 10
34.603987871165
 20
0.6105
 30
0.0
 11
34.494579995153
 21
0.8
 31
0.0
  0
LINE
  5
459
330
30
100
AcDbEntity
  8
1
100
AcDbLine
 10
34.494579995153
 20
0.8
 30
0.0
 11
34.449130339759
 21
0.8
 31
0.0
  0
LINE
  5
45A
330
30
100
AcDbEntity
  8
1
100
AcDbLine
 10
34.449130339759
 20
0.8
 30
0.0
 11
34.403680684365
 21
0.8
 31
0.0
  0
LINE
  5
45B
330
30
100
AcDbEntity
  8
1
100
AcDbLine
 10
34.403680684365
 20
0.8
 30
0.0
 11
34.294272808354
 21
0.6105
 31
0.0
  0
LINE
  5
45C
330
30
100
AcDbEntity
  8
1
100
AcDbLine
 10
34.294272808354
 20
0.6105
 30
0.0
 11
34.274130339759
 21
0.6105
 31
0.0
  0
LINE
  5
45D
330
30
100
AcDbEntity
  8
1
100
AcDbLine
 10
34.274130339759
 20
0.6105
 30
0.0
 11
34.253987871165
 21
0.6105
 31
0.0
  0
LINE
  5
45E
330
30
100
AcDbEntity
  8
1
100
AcDbLine
 10
34.253987871165
 20
0.6105
 30
0.0
 11
34.144579995153
 21
0.8
 31
0.0
  0
LINE
  5
45F
330
30
100
AcDbEntity
  8
1
100
AcDbLine
 10
34.144579995153
 20
0.8
 30
0.0
 11
34.099130339759
 21
0.8
 31
0.0
  0
LINE
  5
460
330
30
100
AcDbEntity
  8
1
100
AcDbLine
 10
34.099130339759
 20
0.8
 30
0.0
 11
34.053987871165
 21
0.8
 31
0.0
  0
LINE
  5
461
330
30
100
AcDbEntity
  8
1
100
AcDbLine
 10
34.053987871165
 20
0.8
 30
0.0
 11
34.053680684365
 21
0.8
 31
0.0
  0
LINE
  5
462
330
30
100
AcDbEntity
  8
1
100
AcDbLine
 10
41.950303660638
 20
-0.6105
 30
0.0
 11
34.053987871165
 21
-0.6105
 31
0.0
  0
LINE
  5
463
330
30
100
AcDbEntity
  8
1
100
AcDbLine
 10
41.666509415448
 20
-0.649014933276
 30
0.0
 11
41.644272808354
 21
-0.6105
 31
0.0
  0
LINE
  5
464
330
30
100
AcDbEntity
  8
1
100
AcDbLine
 10
41.644272808354
 20
-0.6105
 30
0.0
 11
41.624130339759
 21
-0.6105
 31
0.0
  0
LINE
  5
465
330
30
100
AcDbEntity
  8
1
100
AcDbLine
 10
41.624130339759
 20
-0.6105
 30
0.0
 11
41.603987871165
 21
-0.6105
 31
0.0
  0
LINE
  5
466
330
30
100
AcDbEntity
  8
1
100
AcDbLine
 10
41.603987871165
 20
-0.6105
 30
0.0
 11
41.57454545764
 21
-0.661495756121
 31
0.0
  0
LINE
  5
467
330
30
100
AcDbEntity
  8
1
100
AcDbLine
 10
41.341940879057
 20
-0.693063520357
 30
0.0
 11
41.294272808354
 21
-0.6105
 31
0.0
  0
LINE
  5
468
330
30
100
AcDbEntity
  8
1
100
AcDbLine
 10
41.294272808354
 20
-0.6105
 30
0.0
 11
41.274130339759
 21
-0.6105
 31
0.0
  0
LINE
  5
469
330
30
100
AcDbEntity
  8
1
100
AcDbLine
 10
41.274130339759
 20
-0.6105
 30
0.0
 11
41.253987871165
 21
-0.6105
 31
0.0
  0
LINE
  5
46A
330
30
100
AcDbEntity
  8
1
100
AcDbLine
 10
41.253987871165
 20
-0.6105
 30
0.0
 11
41.194789826951
 21
-0.713034020286
 31
0.0
  0
LINE
  5
46B
330
30
100
AcDbEntity
  8
1
100
AcDbLine
 10
41.017372342666
 20
-0.737112107439
 30
0.0
 11
40.944272808354
 21
-0.6105
 31
0.0
  0
LINE
  5
46C
330
30
100
AcDbEntity
  8
1
100
AcDbLine
 10
40.944272808354
 20
-0.6105
 30
0.0
 11
40.924130339759
 21
-0.6105
 31
0.0
  0
LINE
  5
46D
330
30
100
AcDbEntity
  8
1
100
AcDbLine
 10
40.924130339759
 20
-0.6105
 30
0.0
 11
40.903987871165
 21
-0.6105
 31
0.0
  0
LINE
  5
46E
330
30
100
AcDbEntity
  8
1
100
AcDbLine
 10
40.903987871165
 20
-0.6105
 30
0.0
 11
40.815034196262
 21
-0.764572284451
 31
0.0
  0
LINE
  5
46F
330
30
100
AcDbEntity
  8
1
100
AcDbLine
 10
40.692803806275
 20
-0.781160694521
 30
0.0
 11
40.594272808354
 21
-0.6105
 31
0.0
  0
LINE
  5
470
330
30
100
AcDbEntity
  8
1
100
AcDbLine
 10
40.594272808354
 20
-0.6105
 30
0.0
 11
40.574130339759
 21
-0.6105
 31
0.0
  0
LINE
  5
471
330
30
100
AcDbEntity
  8
1
100
AcDbLine
 10
40.574130339759
 20
-0.6105
 30
0.0
 11
40.553987871165
 21
-0.6105
 31
0.0
  0
LINE
  5
472
330
30
100
AcDbEntity
  8
1
100
AcDbLine
 10
40.553987871165
 20
-0.6105
 30
0.0
 11
40.444579995153
 21
-0.8
 31
0.0
  0
LINE
  5
473
330
30
100
AcDbEntity
  8
1
100
AcDbLine
 10
40.444579995153
 20
-0.8
 30
0.0
 11
40.399130339759
 21
-0.8
 31
0.0
  0
LINE
  5
474
330
30
100
AcDbEntity
  8
1
100
AcDbLine
 10
40.399130339759
 20
-0.8
 30
0.0
 11
40.353680684365
 21
-0.8
 31
0.0
  0
LINE
  5
475
330
30
100
AcDbEntity
  8
1
100
AcDbLine
 10
40.353680684365
 20
-0.8
 30
0.0
 11
40.244272808354
 21
-0.6105
 31
0.0
  0
LINE
  5
476
330
30
100
AcDbEntity
  8
1
100
AcDbLine
 10
40.244272808354
 20
-0.6105
 30
0.0
 11
40.224130339759
 21
-0.6105
 31
0.0
  0
LINE
  5
477
330
30
100
AcDbEntity
  8
1
100
AcDbLine
 10
40.224130339759
 20
-0.6105
 30
0.0
 11
40.203987871165
 21
-0.6105
 31
0.0
  0
LINE
  5
478
330
30
100
AcDbEntity
  8
1
100
AcDbLine
 10
40.203987871165
 20
-0.6105
 30
0.0
 11
40.094579995153
 21
-0.8
 31
0.0
  0
LINE
  5
479
330
30
100
AcDbEntity
  8
1
100
AcDbLine
 10
40.094579995153
 20
-0.8
 30
0.0
 11
40.049130339759
 21
-0.8
 31
0.0
  0
LINE
  5
47A
330
30
100
AcDbEntity
  8
1
100
AcDbLine
 10
40.049130339759
 20
-0.8
 30
0.0
 11
40.003680684365
 21
-0.8
 31
0.0
  0
LINE
  5
47B
330
30
100
AcDbEntity
  8
1
100
AcDbLine
 10
40.003680684365
 20
-0.8
 30
0.0
 11
39.894272808354
 21
-0.6105
 31
0.0
  0
LINE
  5
47C
330
30
100
AcDbEntity
  8
1
100
AcDbLine
 10
39.894272808354
 20
-0.6105
 30
0.0
 11
39.874130339759
 21
-0.6105
 31
0.0
  0
LINE
  5
47D
330
30
100
AcDbEntity
  8
1
100
AcDbLine
 10
39.874130339759
 20
-0.6105
 30
0.0
 11
39.853987871165
 21
-0.6105
 31
0.0
  0
LINE
  5
47E
330
30
100
AcDbEntity
  8
1
100
AcDbLine
 10
39.853987871165
 20
-0.6105
 30
0.0
 11
39.744579995153
 21
-0.8
 31
0.0
  0
LINE
  5
47F
330
30
100
AcDbEntity
  8
1
100
AcDbLine
 10
39.744579995153
 20
-0.8
 30
0.0
 11
39.699130339759
 21
-0.8
 31
0.0
  0
LINE
  5
480
330
30
100
AcDbEntity
  8
1
100
AcDbLine
 10
39.699130339759
 20
-0.8
 30
0.0
 11
39.653680684365
 21
-0.8
 31
0.0
  0
LINE
  5
481
330
30
100
AcDbEntity
  8
1
100
AcDbLine
 10
39.653680684365
 20
-0.8
 30
0.0
 11
39.544272808354
 21
-0.6105
 31
0.0
  0
LINE
  5
482
330
30
100
AcDbEntity
  8
1
100
AcDbLine
 10
39.544272808354
 20
-0.6105
 30
0.0
 11
39.524130339759
 21
-0.6105
 31
0.0
  0
LINE
  5
483
330
30
100
AcDbEntity
  8
1
100
AcDbLine
 10
39.524130339759
 20
-0.6105
 30
0.0
 11
39.503987871165
 21
-0.6105
 31
0.0
  0
LINE
  5
484
330
30
100
AcDbEntity
  8
1
100
AcDbLine
 10
39.503987871165
 20
-0.6105
 30
0.0
 11
39.394579995153
 21
-0.8
 31
0.0
  0
LINE
  5
485
330
30
100
AcDbEntity
  8
1
100
AcDbLine
 10
39.394579995153
 20
-0.8
 30
0.0
 11
39.349130339759
 21
-0.8
 31
0.0
  0
LINE
  5
486
330
30
100
AcDbEntity
  8
1
100
AcDbLine
 10
39.349130339759
 20
-0.8
 30
0.0
 11
39.303680684365
 21
-0.8
 31
0.0
  0
LINE
  5
487
330
30
100
AcDbEntity
  8
1
100
AcDbLine
 10
39.303680684365
 20
-0.8
 30
0.0
 11
39.194272808354
 21
-0.6105
 31
0.0
  0
LINE
  5
488
330
30
100
AcDbEntity
  8
1
100
AcDbLine
 10
39.194272808354
 20
-0.6105
 30
0.0
 11
39.174130339759
 21
-0.6105
 31
0.0
  0
LINE
  5
489
330
30
100
AcDbEntity
  8
1
100
AcDbLine
 10
39.174130339759
 20
-0.6105
 30
0.0
 11
39.153987871165
 21
-0.6105
 31
0.0
  0
LINE
  5
48A
330
30
100
AcDbEntity
  8
1
100
AcDbLine
 10
39.153987871165
 20
-0.6105
 30
0.0
 11
39.044579995153
 21
-0.8
 31
0.0
  0
LINE
  5
48B
330
30
100
AcDbEntity
  8
1
100
AcDbLine
 10
39.044579995153
 20
-0.8
 30
0.0
 11
38.999130339759
 21
-0.8
 31
0.0
  0
LINE
  5
48C
330
30
100
AcDbEntity
  8
1
100
AcDbLine
 10
38.999130339759
 20
-0.8
 30
0.0
 11
38.953680684365
 21
-0.8
 31
0.0
  0
LINE
  5
48D
330
30
100
AcDbEntity
  8
1
100
AcDbLine
 10
38.953680684365
 20
-0.8
 30
0.0
 11
38.844272808354
 21
-0.6105
 31
0.0
  0
LINE
  5
48E
330
30
100
AcDbEntity
  8
1
100
AcDbLine
 10
38.844272808354
 20
-0.6105
 30
0.0
 11
38.824130339759
 21
-0.6105
 31
0.0
  0
LINE
  5
48F
330
30
100
AcDbEntity
  8
1
100
AcDbLine
 10
38.824130339759
 20
-0.6105
 30
0.0
 11
38.803987871165
 21
-0.6105
 31
0.0
  0
LINE
  5
490
330
30
100
AcDbEntity
  8
1
100
AcDbLine
 10
38.803987871165
 20
-0.6105
 30
0.0
 11
38.694579995153
 21
-0.8
 31
0.0
  0
LINE
  5
491
330
30
100
AcDbEntity
  8
1
100
AcDbLine
 10
38.694579995153
 20
-0.8
 30
0.0
 11
38.649130339759
 21
-0.8
 31
0.0
  0
LINE
  5
492
330
30
100
AcDbEntity
  8
1
100
AcDbLine
 10
38.649130339759
 20
-0.8
 30
0.0
 11
38.603680684365
 21
-0.8
 31
0.0
  0
LINE
  5
493
330
30
100
AcDbEntity
  8
1
100
AcDbLine
 10
38.603680684365
 20
-0.8
 30
0.0
 11
38.494272808354
 21
-0.6105
 31
0.0
  0
LINE
  5
494
330
30
100
AcDbEntity
  8
1
100
AcDbLine
 10
38.494272808354
 20
-0.6105
 30
0.0
 11
38.474130339759
 21
-0.6105
 31
0.0
  0
LINE
  5
495
330
30
100
AcDbEntity
  8
1
100
AcDbLine
 10
38.474130339759
 20
-0.6105
 30
0.0
 11
38.453987871165
 21
-0.6105
 31
0.0
  0
LINE
  5
496
330
30
100
AcDbEntity
  8
1
100
AcDbLine
 10
38.453987871165
 20
-0.6105
 30
0.0
 11
38.344579995153
 21
-0.8
 31
0.0
  0
LINE
  5
497
330
30
100
AcDbEntity
  8
1
100
AcDbLine
 10
38.344579995153
 20
-0.8
 30
0.0
 11
38.299130339759
 21
-0.8
 31
0.0
  0
LINE
  5
498
330
30
100
AcDbEntity
  8
1
100
AcDbLine
 10
38.299130339759
 20
-0.8
 30
0.0
 11
38.253680684365
 21
-0.8
 31
0.0
  0
LINE
  5
499
330
30
100
AcDbEntity
  8
1
100
AcDbLine
 10
38.253680684365
 20
-0.8
 30
0.0
 11
38.144272808354
 21
-0.6105
 31
0.0
  0
LINE
  5
49A
330
30
100
AcDbEntity
  8
1
100
AcDbLine
 10
38.144272808354
 20
-0.6105
 30
0.0
 11
38.124130339759
 21
-0.6105
 31
0.0
  0
LINE
  5
49B
330
30
100
AcDbEntity
  8
1
100
AcDbLine
 10
38.124130339759
 20
-0.6105
 30
0.0
 11
38.103987871165
 21
-0.6105
 31
0.0
  0
LINE
  5
49C
330
30
100
AcDbEntity
  8
1
100
AcDbLine
 10
38.103987871165
 20
-0.6105
 30
0.0
 11
37.994579995153
 21
-0.8
 31
0.0
  0
LINE
  5
49D
330
30
100
AcDbEntity
  8
1
100
AcDbLine
 10
37.994579995153
 20
-0.8
 30
0.0
 11
37.949130339759
 21
-0.8
 31
0.0
  0
LINE
  5
49E
330
30
100
AcDbEntity
  8
1
100
AcDbLine
 10
37.949130339759
 20
-0.8
 30
0.0
 11
37.903680684365
 21
-0.8
 31
0.0
  0
LINE
  5
49F
330
30
100
AcDbEntity
  8
1
100
AcDbLine
 10
37.903680684365
 20
-0.8
 30
0.0
 11
37.794272808354
 21
-0.6105
 31
0.0
  0
LINE
  5
4A0
330
30
100
AcDbEntity
  8
1
100
AcDbLine
 10
37.794272808354
 20
-0.6105
 30
0.0
 11
37.774130339759
 21
-0.6105
 31
0.0
  0
LINE
  5
4A1
330
30
100
AcDbEntity
  8
1
100
AcDbLine
 10
37.774130339759
 20
-0.6105
 30
0.0
 11
37.753987871165
 21
-0.6105
 31
0.0
  0
LINE
  5
4A2
330
30
100
AcDbEntity
  8
1
100
AcDbLine
 10
37.753987871165
 20
-0.6105
 30
0.0
 11
37.644579995153
 21
-0.8
 31
0.0
  0
LINE
  5
4A3
330
30
100
AcDbEntity
  8
1
100
AcDbLine
 10
37.644579995153
 20
-0.8
 30
0.0
 11
37.599130339759
 21
-0.8
 31
0.0
  0
LINE
  5
4A4
330
30
100
AcDbEntity
  8
1
100
AcDbLine
 10
37.599130339759
 20
-0.8
 30
0.0
 11
37.553680684365
 21
-0.8
 31
0.0
  0
LINE
  5
4A5
330
30
100
AcDbEntity
  8
1
100
AcDbLine
 10
37.553680684365
 20
-0.8
 30
0.0
 11
37.444272808354
 21
-0.6105
 31
0.0
  0
LINE
  5
4A6
330
30
100
AcDbEntity
  8
1
100
AcDbLine
 10
37.444272808354
 20
-0.6105
 30
0.0
 11
37.424130339759
 21
-0.6105
 31
0.0
  0
LINE
  5
4A7
330
30
100
AcDbEntity
  8
1
100
AcDbLine
 10
37.424130339759
 20
-0.6105
 30
0.0
 11
37.403987871165
 21
-0.6105
 31
0.0
  0
LINE
  5
4A8
330
30
100
AcDbEntity
  8
1
100
AcDbLine
 10
37.403987871165
 20
-0.6105
 30
0.0
 11
37.294579995153
 21
-0.8
 31
0.0
  0
LINE
  5
4A9
330
30
100
AcDbEntity
  8
1
100
AcDbLine
 10
37.294579995153
 20
-0.8
 30
0.0
 11
37.249130339759
 21
-0.8
 31
0.0
  0
LINE
  5
4AA
330
30
100
AcDbEntity
  8
1
100
AcDbLine
 10
37.249130339759
 20
-0.8
 30
0.0
 11
37.203680684365
 21
-0.8
 31
0.0
  0
LINE
  5
4AB
330
30
100
AcDbEntity
  8
1
100
AcDbLine
 10
37.203680684365
 20
-0.8
 30
0.0
 11
37.094272808354
 21
-0.6105
 31
0.0
  0
LINE
  5
4AC
330
30
100
AcDbEntity
  8
1
100
AcDbLine
 10
37.094272808354
 20
-0.6105
 30
0.0
 11
37.074130339759
 21
-0.6105
 31
0.0
  0
LINE
  5
4AD
330
30
100
AcDbEntity
  8
1
100
AcDbLine
 10
37.074130339759
 20
-0.6105
 30
0.0
 11
37.053987871165
 21
-0.6105
 31
0.0
  0
LINE
  5
4AE
330
30
100
AcDbEntity
  8
1
100
AcDbLine
 10
37.053987871165
 20
-0.6105
 30
0.0
 11
36.944579995153
 21
-0.8
 31
0.0
  0
LINE
  5
4AF
330
30
100
AcDbEntity
  8
1
100
AcDbLine
 10
36.944579995153
 20
-0.8
 30
0.0
 11
36.899130339759
 21
-0.8
 31
0.0
  0
LINE
  5
4B0
330
30
100
AcDbEntity
  8
1
100
AcDbLine
 10
36.899130339759
 20
-0.8
 30
0.0
 11
36.853680684365
 21
-0.8
 31
0.0
  0
LINE
  5
4B1
330
30
100
AcDbEntity
  8
1
100
AcDbLine
 10
36.853680684365
 20
-0.8
 30
0.0
 11
36.744272808354
 21
-0.6105
 31
0.0
  0
LINE
  5
4B2
330
30
100
AcDbEntity
  8
1
100
AcDbLine
 10
36.744272808354
 20
-0.6105
 30
0.0
 11
36.724130339759
 21
-0.6105
 31
0.0
  0
LINE
  5
4B3
330
30
100
AcDbEntity
  8
1
100
AcDbLine
 10
36.724130339759
 20
-0.6105
 30
0.0
 11
36.703987871165
 21
-0.6105
 31
0.0
  0
LINE
  5
4B4
330
30
100
AcDbEntity
  8
1
100
AcDbLine
 10
36.703987871165
 20
-0.6105
 30
0.0
 11
36.594579995153
 21
-0.8
 31
0.0
  0
LINE
  5
4B5
330
30
100
AcDbEntity
  8
1
100
AcDbLine
 10
36.594579995153
 20
-0.8
 30
0.0
 11
36.549130339759
 21
-0.8
 31
0.0
  0
LINE
  5
4B6
330
30
100
AcDbEntity
  8
1
100
AcDbLine
 10
36.549130339759
 20
-0.8
 30
0.0
 11
36.503680684365
 21
-0.8
 31
0.0
  0
LINE
  5
4B7
330
30
100
AcDbEntity
  8
1
100
AcDbLine
 10
36.503680684365
 20
-0.8
 30
0.0
 11
36.394272808354
 21
-0.6105
 31
0.0
  0
LINE
  5
4B8
330
30
100
AcDbEntity
  8
1
100
AcDbLine
 10
36.394272808354
 20
-0.6105
 30
0.0
 11
36.374130339759
 21
-0.6105
 31
0.0
  0
LINE
  5
4B9
330
30
100
AcDbEntity
  8
1
100
AcDbLine
 10
36.374130339759
 20
-0.6105
 30
0.0
 11
36.353987871165
 21
-0.6105
 31
0.0
  0
LINE
  5
4BA
330
30
100
AcDbEntity
  8
1
100
AcDbLine
 10
36.353987871165
 20
-0.6105
 30
0.0
 11
36.244579995153
 21
-0.8
 31
0.0
  0
LINE
  5
4BB
330
30
100
AcDbEntity
  8
1
100
AcDbLine
 10
36.244579995153
 20
-0.8
 30
0.0
 11
36.199130339759
 21
-0.8
 31
0.0
  0
LINE
  5
4BC
330
30
100
AcDbEntity
  8
1
100
AcDbLine
 10
36.199130339759
 20
-0.8
 30
0.0
 11
36.153680684365
 21
-0.8
 31
0.0
  0
LINE
  5
4BD
330
30
100
AcDbEntity
  8
1
100
AcDbLine
 10
36.153680684365
 20
-0.8
 30
0.0
 11
36.044272808354
 21
-0.6105
 31
0.0
  0
LINE
  5
4BE
330
30
100
AcDbEntity
  8
1
100
AcDbLine
 10
36.044272808354
 20
-0.6105
 30
0.0
 11
36.024130339759
 21
-0.6105
 31
0.0
  0
LINE
  5
4BF
330
30
100
AcDbEntity
  8
1
100
AcDbLine
 10
36.024130339759
 20
-0.6105
 30
0.0
 11
36.003987871165
 21
-0.6105
 31
0.0
  0
LINE
  5
4C0
330
30
100
AcDbEntity
  8
1
100
AcDbLine
 10
36.003987871165
 20
-0.6105
 30
0.0
 11
35.894579995153
 21
-0.8
 31
0.0
  0
LINE
  5
4C1
330
30
100
AcDbEntity
  8
1
100
AcDbLine
 10
35.894579995153
 20
-0.8
 30
0.0
 11
35.849130339759
 21
-0.8
 31
0.0
  0
LINE
  5
4C2
330
30
100
AcDbEntity
  8
1
100
AcDbLine
 10
35.849130339759
 20
-0.8
 30
0.0
 11
35.803680684365
 21
-0.8
 31
0.0
  0
LINE
  5
4C3
330
30
100
AcDbEntity
  8
1
100
AcDbLine
 10
35.803680684365
 20
-0.8
 30
0.0
 11
35.694272808354
 21
-0.6105
 31
0.0
  0
LINE
  5
4C4
330
30
100
AcDbEntity
  8
1
100
AcDbLine
 10
35.694272808354
 20
-0.6105
 30
0.0
 11
35.674130339759
 21
-0.6105
 31
0.0
  0
LINE
  5
4C5
330
30
100
AcDbEntity
  8
1
100
AcDbLine
 10
35.674130339759
 20
-0.6105
 30
0.0
 11
35.653987871165
 21
-0.6105
 31
0.0
  0
LINE
  5
4C6
330
30
100
AcDbEntity
  8
1
100
AcDbLine
 10
35.653987871165
 20
-0.6105
 30
0.0
 11
35.544579995153
 21
-0.8
 31
0.0
  0
LINE
  5
4C7
330
30
100
AcDbEntity
  8
1
100
AcDbLine
 10
35.544579995153
 20
-0.8
 30
0.0
 11
35.499130339759
 21
-0.8
 31
0.0
  0
LINE
  5
4C8
330
30
100
AcDbEntity
  8
1
100
AcDbLine
 10
35.499130339759
 20
-0.8
 30
0.0
 11
35.453680684365
 21
-0.8
 31
0.0
  0
LINE
  5
4C9
330
30
100
AcDbEntity
  8
1
100
AcDbLine
 10
35.453680684365
 20
-0.8
 30
0.0
 11
35.344272808354
 21
-0.6105
 31
0.0
  0
LINE
  5
4CA
330
30
100
AcDbEntity
  8
1
100
AcDbLine
 10
35.344272808354
 20
-0.6105
 30
0.0
 11
35.324130339759
 21
-0.6105
 31
0.0
  0
LINE
  5
4CB
330
30
100
AcDbEntity
  8
1
100
AcDbLine
 10
35.324130339759
 20
-0.6105
 30
0.0
 11
35.303987871165
 21
-0.6105
 31
0.0
  0
LINE
  5
4CC
330
30
100
AcDbEntity
  8
1
100
AcDbLine
 10
35.303987871165
 20
-0.6105
 30
0.0
 11
35.194579995153
 21
-0.8
 31
0.0
  0
LINE
  5
4CD
330
30
100
AcDbEntity
  8
1
100
AcDbLine
 10
35.194579995153
 20
-0.8
 30
0.0
 11
35.149130339759
 21
-0.8
 31
0.0
  0
LINE
  5
4CE
330
30
100
AcDbEntity
  8
1
100
AcDbLine
 10
35.149130339759
 20
-0.8
 30
0.0
 11
35.103680684365
 21
-0.8
 31
0.0
  0
LINE
  5
4CF
330
30
100
AcDbEntity
  8
1
100
AcDbLine
 10
35.103680684365
 20
-0.8
 30
0.0
 11
34.994272808354
 21
-0.6105
 31
0.0
  0
LINE
  5
4D0
330
30
100
AcDbEntity
  8
1
100
AcDbLine
 10
34.994272808354
 20
-0.6105
 30
0.0
 11
34.974130339759
 21
-0.6105
 31
0.0
  0
LINE
  5
4D1
330
30
100
AcDbEntity
  8
1
100
AcDbLine
 10
34.974130339759
 20
-0.6105
 30
0.0
 11
34.953987871165
 21
-0.6105
 31
0.0
  0
LINE
  5
4D2
330
30
100
AcDbEntity
  8
1
100
AcDbLine
 10
34.953987871165
 20
-0.6105
 30
0.0
 11
34.844579995153
 21
-0.8
 31
0.0
  0
LINE
  5
4D3
330
30
100
AcDbEntity
  8
1
100
AcDbLine
 10
34.844579995153
 20
-0.8
 30
0.0
 11
34.799130339759
 21
-0.8
 31
0.0
  0
LINE
  5
4D4
330
30
100
AcDbEntity
  8
1
100
AcDbLine
 10
34.799130339759
 20
-0.8
 30
0.0
 11
34.753680684365
 21
-0.8
 31
0.0
  0
LINE
  5
4D5
330
30
100
AcDbEntity
  8
1
100
AcDbLine
 10
34.753680684365
 20
-0.8
 30
0.0
 11
34.644272808354
 21
-0.6105
 31
0.0
  0
LINE
  5
4D6
330
30
100
AcDbEntity
  8
1
100
AcDbLine
 10
34.644272808354
 20
-0.6105
 30
0.0
 11
34.624130339759
 21
-0.6105
 31
0.0
  0
LINE
  5
4D7
330
30
100
AcDbEntity
  8
1
100
AcDbLine
 10
34.624130339759
 20
-0.6105
 30
0.0
 11
34.603987871165
 21
-0.6105
 31
0.0
  0
LINE
  5
4D8
330
30
100
AcDbEntity
  8
1
100
AcDbLine
 10
34.603987871165
 20
-0.6105
 30
0.0
 11
34.494579995153
 21
-0.8
 31
0.0
  0
LINE
  5
4D9
330
30
100
AcDbEntity
  8
1
100
AcDbLine
 10
34.494579995153
 20
-0.8
 30
0.0
 11
34.449130339759
 21
-0.8
 31
0.0
  0
LINE
  5
4DA
330
30
100
AcDbEntity
  8
1
100
AcDbLine
 10
34.449130339759
 20
-0.8
 30
0.0
 11
34.403680684365
 21
-0.8
 31
0.0
  0
LINE
  5
4DB
330
30
100
AcDbEntity
  8
1
100
AcDbLine
 10
34.403680684365
 20
-0.8
 30
0.0
 11
34.294272808354
 21
-0.6105
 31
0.0
  0
LINE
  5
4DC
330
30
100
AcDbEntity
  8
1
100
AcDbLine
 10
34.294272808354
 20
-0.6105
 30
0.0
 11
34.274130339759
 21
-0.6105
 31
0.0
  0
LINE
  5
4DD
330
30
100
AcDbEntity
  8
1
100
AcDbLine
 10
34.274130339759
 20
-0.6105
 30
0.0
 11
34.253987871165
 21
-0.6105
 31
0.0
  0
LINE
  5
4DE
330
30
100
AcDbEntity
  8
1
100
AcDbLine
 10
34.253987871165
 20
-0.6105
 30
0.0
 11
34.144579995153
 21
-0.8
 31
0.0
  0
LINE
  5
4DF
330
30
100
AcDbEntity
  8
1
100
AcDbLine
 10
34.144579995153
 20
-0.8
 30
0.0
 11
34.099130339759
 21
-0.8
 31
0.0
  0
LINE
  5
4E0
330
30
100
AcDbEntity
  8
1
100
AcDbLine
 10
34.099130339759
 20
-0.8
 30
0.0
 11
34.053987871165
 21
-0.8
 31
0.0
  0
LINE
  5
4E1
330
30
100
AcDbEntity
  8
1
100
AcDbLine
 10
34.053987871165
 20
-0.8
 30
0.0
 11
34.053680684365
 21
-0.8
 31
0.0
  0
LINE
  5
4E2
330
30
100
AcDbEntity
  8
SK1
100
AcDbLine
 10
6.753987871165
 20
0.804086040245
 30
0.0
 11
6.753987871165
 21
1.7905
 31
0.0
  0
LINE
  5
4E3
330
30
100
AcDbEntity
  8
SK1
100
AcDbLine
 10
6.753987871165
 20
1.7905
 30
0.0
 11
1.953987871165
 21
1.7905
 31
0.0
  0
LINE
  5
4E4
330
30
100
AcDbEntity
  8
SK1
100
AcDbLine
 10
1.953987871165
 20
1.7905
 30
0.0
 11
1.953987871165
 21
0.804086040245
 31
0.0
  0
LINE
  5
4E5
330
30
100
AcDbEntity
  8
SK1
100
AcDbLine
 10
1.953987871165
 20
0.804086040245
 30
0.0
 11
6.753987871165
 21
0.804086040245
 31
0.0
  0
LINE
  5
4E6
330
30
100
AcDbEntity
  8
SK1
100
AcDbLine
 10
6.753987871165
 20
0.804086040245
 30
0.0
 11
1.953987871165
 21
1.7905
 31
0.0
  0
LINE
  5
4E7
330
30
100
AcDbEntity
  8
SK1
100
AcDbLine
 10
6.753987871165
 20
1.7905
 30
0.0
 11
1.953987871165
 21
0.804086040245
 31
0.0
  0
LINE
  5
4E8
330
30
100
AcDbEntity
  8
SK1
100
AcDbLine
 10
6.753987871165
 20
-0.804086040245
 30
0.0
 11
6.753987871165
 21
-1.7905
 31
0.0
  0
LINE
  5
4E9
330
30
100
AcDbEntity
  8
SK1
100
AcDbLine
 10
6.753987871165
 20
-1.7905
 30
0.0
 11
1.953987871165
 21
-1.7905
 31
0.0
  0
LINE
  5
4EA
330
30
100
AcDbEntity
  8
SK1
100
AcDbLine
 10
1.953987871165
 20
-1.7905
 30
0.0
 11
1.953987871165
 21
-0.804086040245
 31
0.0
  0
LINE
  5
4EB
330
30
100
AcDbEntity
  8
SK1
100
AcDbLine
 10
1.953987871165
 20
-0.804086040245
 30
0.0
 11
6.753987871165
 21
-0.804086040245
 31
0.0
  0
LINE
  5
4EC
330
30
100
AcDbEntity
  8
SK1
100
AcDbLine
 10
6.753987871165
 20
-0.804086040245
 30
0.0
 11
1.953987871165
 21
-1.7905
 31
0.0
  0
LINE
  5
4ED
330
30
100
AcDbEntity
  8
SK1
100
AcDbLine
 10
6.753987871165
 20
-1.7905
 30
0.0
 11
1.953987871165
 21
-0.804086040245
 31
0.0
  0
LINE
  5
4EE
330
30
100
AcDbEntity
  8
INFTOTAL
100
AcDbLine
 10
-15.0
 20
45.0
 30
0.0
 11
90.0
 21
45.0
 31
0.0
  0
LINE
  5
4EF
330
30
100
AcDbEntity
  8
INFTOTAL
100
AcDbLine
 10
90.0
 20
45.0
 30
0.0
 11
90.0
 21
-45.0
 31
0.0
  0
LINE
  5
4F0
330
30
100
AcDbEntity
  8
INFTOTAL
100
AcDbLine
 10
90.0
 20
-45.0
 30
0.0
 11
-15.0
 21
-45.0
 31
0.0
  0
LINE
  5
4F1
330
30
100
AcDbEntity
  8
INFTOTAL
100
AcDbLine
 10
-15.0
 20
-45.0
 30
0.0
 11
-15.0
 21
45.0
 31
0.0
  0
DIMENSION
  5
106AC05
330
30
100
AcDbEntity
  8
2
100
AcDbDimension
  2
*D7
 10
40.553987871165
 20
-16.0
 30
0.0
 11
53.0
 21
-16.0
 31
0.0
 70
   160
  1
<>
 71
     5
 42
1.399999999999999
  3
STANDARD
100
AcDbAlignedDimension
 13
41.953987871165
 23
-0.6099999999999999
 33
0.0
 14
40.553987871165
 24
-0.7999999999999998
 34
0.0
100
AcDbRotatedDimension
1001
ACAD
1000
DSTYLE
1002
{
1070
   271
1070
     1
1070
   279
1070
     0
1070
    74
1070
     0
1002
}
  0
DIMENSION
  5
106AC3C
330
30
100
AcDbEntity
  8
2
100
AcDbDimension
  2
*D9
 10
70.0
 20
0.6100000000000012
 30
0.0
 11
70.0
 21
14.7495
 31
0.0
 70
   160
  1
%%c<>
 71
     5
 42
1.22
  3
STANDARD
100
AcDbAlignedDimension
 13
41.953987871165
 23
-0.6099999999999999
 33
0.0
 14
41.953987871165
 24
0.6099999999999999
 34
0.0
 50
-90.0
100
AcDbRotatedDimension
1001
ACAD
1000
DSTYLE
1002
{
1070
   271
1070
     2
1070
   279
1070
     0
1070
    74
1070
     0
1002
}
  0
DIMENSION
  5
106AC6A
330
30
100
AcDbEntity
  8
2
100
AcDbDimension
  2
*D11
 10
78.0
 20
0.8000000000000043
 30
0.0
 11
78.0
 21
20.94900000000001
 31
0.0
 70
   160
  1
M1.6X0.35
 71
     5
 42
1.6
  3
STANDARD
100
AcDbAlignedDimension
 13
40.553987871165
 23
-0.8
 33
0.0
 14
40.553987871165
 24
0.8
 34
0.0
 50
-90.0
100
AcDbRotatedDimension
1001
ACAD
1000
DSTYLE
1002
{
1070
   271
1070
     2
1070
   279
1070
     0
1070
    74
1070
     0
1002
}
  0
DIMENSION
  5
106AC95
330
30
100
AcDbEntity
  8
SK2
100
AcDbDimension
  2
*D13
 10
1.953987871164999
 20
35.0
 30
0.0
 11
11.536836963991
 21
35.0
 31
0.0
 70
   160
  1
<>
 71
     5
 42
19.165698185652
  3
STANDARD
100
AcDbAlignedDimension
 13
21.119686056817
 23
1.7905
 33
0.0
 14
1.953987871165
 24
1.7905
 34
0.0
100
AcDbRotatedDimension
1001
ACAD
1000
DSTYLE
1002
{
1070
   271
1070
     1
1070
   279
1070
     0
1070
    74
1070
     0
1002
}
  0
ENDSEC
  0
SECTION
  2
OBJECTS
  0
DICTIONARY
  5
4F2
330
0
100
AcDbDictionary
281
     1
  3
ACAD_GROUP
350
4F3
  3
ACAD_IMAGE_VARS
350
106ABDF
  3
ACAD_LAYOUT
350
106AB97
  3
ACAD_MATERIAL
350
106ABBC
  3
ACAD_MLEADERSTYLE
350
106ABDB
  3
ACAD_MLINESTYLE
350
106AB92
  3
ACAD_PLOTSETTINGS
350
106AB94
  3
ACAD_PLOTSTYLENAME
350
106AB95
  3
ACAD_SCALELIST
350
106AB9A
  3
ACAD_TABLESTYLE
350
106ABD9
  3
ACAD_VISUALSTYLE
350
106ABC0
  3
AcDbVariableDictionary
350
106ACA4
  3
APPDATA
350
106ABDD
  3
DWGPROPS
350
106AD2D
  3
FX_DICT_DIMENSION_PALETTE
350
106ABE2
  3
FX_DICT_DIMENSION_PALETTE_RECENTLIST
350
106AC18
  3
PRINTCONFIG
350
106AD2A
  0
DICTIONARY
  5
106AD2E
330
2
100
AcDbDictionary
280
     1
281
     1
  3
ACAD_XREC_ROUNDTRIP
360
106AD2F
  0
DICTIONARY
  5
106ACA2
330
30
100
AcDbDictionary
280
     1
281
     1
  3
DIM_BOUNDING_BOXES_V1
360
106ACA3
  0
DICTIONARY
  5
4F3
102
{ACAD_REACTORS
330
4F2
102
}
330
4F2
100
AcDbDictionary
281
     1
  0
RASTERVARIABLES
  5
106ABDF
102
{ACAD_REACTORS
330
4F2
102
}
330
4F2
100
AcDbRasterVariables
 90
        0
 70
     1
 71
     1
 72
     0
  0
DICTIONARY
  5
106AB97
102
{ACAD_REACTORS
330
4F2
102
}
330
4F2
100
AcDbDictionary
281
     1
  3
Model
350
106AB98
  3
シート 1
350
106AB99
  0
DICTIONARY
  5
106ABBC
102
{ACAD_REACTORS
330
4F2
102
}
330
4F2
100
AcDbDictionary
281
     1
  3
ByBlock
350
106ABBE
  3
ByLayer
350
106ABBD
  3
Global
350
106ABBF
  0
DICTIONARY
  5
106ABDB
102
{ACAD_REACTORS
330
4F2
102
}
330
4F2
100
AcDbDictionary
281
     1
  3
Standard
350
106ABDC
  0
DICTIONARY
  5
106AB92
102
{ACAD_REACTORS
330
4F2
102
}
330
4F2
100
AcDbDictionary
281
     1
  3
Standard
350
106AB93
  0
DICTIONARY
  5
106AB94
102
{ACAD_REACTORS
330
4F2
102
}
330
4F2
100
AcDbDictionary
281
     1
  0
ACDBDICTIONARYWDFLT
  5
106AB95
102
{ACAD_REACTORS
330
4F2
102
}
330
4F2
100
AcDbDictionary
281
     1
  3
Normal
350
106AB96
100
AcDbDictionaryWithDefault
340
106AB96
  0
DICTIONARY
  5
106AB9A
102
{ACAD_REACTORS
330
4F2
102
}
330
4F2
100
AcDbDictionary
281
     1
  3
A0
350
106AB9B
  3
A1
350
106AB9C
  3
A2
350
106AB9D
  3
A3
350
106AB9E
  3
A4
350
106AB9F
  3
A5
350
106ABA0
  3
A6
350
106ABA1
  3
A7
350
106ABA2
  3
A8
350
106ABA3
  3
A9
350
106ABA4
  3
B0
350
106ABA5
  3
B1
350
106ABA6
  3
B2
350
106ABA7
  3
B3
350
106ABA8
  3
B4
350
106ABA9
  3
B5
350
106ABAA
  3
B6
350
106ABAB
  3
B7
350
106ABAC
  3
B8
350
106ABAD
  3
B9
350
106ABAE
  3
C0
350
106ABAF
  3
C1
350
106ABB0
  3
C2
350
106ABB1
  3
C3
350
106ABB2
  3
C4
350
106ABB3
  3
C5
350
106ABB4
  3
C6
350
106ABB5
  3
C7
350
106ABB6
  3
C8
350
106ABB7
  3
C9
350
106ABB8
  3
D0
350
106ABB9
  3
D1
350
106ABBA
  3
D2
350
106ABBB
  0
DICTIONARY
  5
106ABD9
102
{ACAD_REACTORS
330
4F2
102
}
330
4F2
100
AcDbDictionary
281
     1
  3
Standard
350
106ABDA
  0
DICTIONARY
  5
106ABC0
102
{ACAD_REACTORS
330
4F2
102
}
330
4F2
100
AcDbDictionary
281
     1
  3
2dWireframe
350
106ABC5
  3
Basic
350
106ABC8
  3
Brighten
350
106ABCC
  3
ColorChange
350
106ABD0
  3
Conceptual
350
106ABCA
  3
Dim
350
106ABCB
  3
EdgeColorOff
350
106ABD3
  3
Facepattern
350
106ABCF
  3
Flat
350
106ABC1
  3
FlatWithEdges
350
106ABC2
  3
Gouraud
350
106ABC3
  3
GouraudWithEdges
350
106ABC4
  3
Hidden
350
106ABC7
  3
JitterOff
350
106ABD1
  3
Linepattern
350
106ABCE
  3
OverhangOff
350
106ABD2
  3
Realistic
350
106ABC9
  3
Shaded
350
106ABD8
  3
Shaded with edges
350
106ABD7
  3
Shades of Gray
350
106ABD4
  3
Sketchy
350
106ABD5
  3
Thicken
350
106ABCD
  3
Wireframe
350
106ABC6
  3
X-Ray
350
106ABD6
  0
DICTIONARY
  5
106ACA4
102
{ACAD_REACTORS
330
4F2
102
}
330
4F2
100
AcDbDictionary
281
     1
  3
CANNOSCALE
350
106AD30
  3
CMLEADERSTYLE
350
106ACA6
  3
CTABLESTYLE
350
106ACA5
  3
DIMASSOC
350
106ACA9
  3
HIDETEXT
350
106ACAA
  3
MSLTSCALE
350
106ACB1
  0
DICTIONARY
  5
106ABDD
102
{ACAD_REACTORS
330
4F2
102
}
330
4F2
100
AcDbDictionary
281
     1
  0
XRECORD
  5
106AD2D
102
{ACAD_REACTORS
330
4F2
102
}
330
4F2
100
AcDbXrecord
280
     1
  1
DWGPROPS COOKIE
  2

  3

  4

  6

  7

  8
usr2460
  9

300
=
301
=
302
=
303
=
304
=
305
=
306
=
307
=
308
=
309
=
 40
0.0
 41
0.0
 42
2460864.126456111
  1

 90
        0
  0
DICTIONARY
  5
106ABE2
102
{ACAD_REACTORS
330
4F2
102
}
330
4F2
100
AcDbDictionary
281
     1
1001
FX_DIMP_FAV_VERSION
1071
        1
  0
DICTIONARY
  5
106AC18
102
{ACAD_REACTORS
330
4F2
102
}
330
4F2
100
AcDbDictionary
281
     1
  3
0
350
106AC1A
1001
FX_DIMP_RECENT_VERSION
1071
        1
  0
DICTIONARYVAR
  5
106AD2A
102
{ACAD_REACTORS
330
4F2
102
}
330
4F2
100
DictionaryVariables
280
     0
  1
0
  0
XRECORD
  5
106AD2F
102
{ACAD_REACTORS
330
106AD2E
102
}
330
106AD2E
100
AcDbXrecord
280
     1
102
VTR_0.000_0.000_1.000_1.000_VISUALSTYLE
340
106ABC5
102
VTR_0.000_0.000_1.000_1.000_GRIDDISPLAY
 70
     3
102
VTR_0.000_0.000_1.000_1.000_GRIDMAJOR
 70
     5
102
VTR_0.000_0.000_1.000_1.000_DEFAULTLIGHTING
280
     1
102
VTR_0.000_0.000_1.000_1.000_DEFAULTLIGHTINGTYPE
 70
     1
102
VTR_0.000_0.000_1.000_1.000_BRIGHTNESS
141
0.0
102
VTR_0.000_0.000_1.000_1.000_CONTRAST
142
0.0
  0
DICTIONARY
  5
106ACA3
102
{ACAD_REACTORS
330
106ACA2
102
}
330
106ACA2
100
AcDbDictionary
281
     1
  0
LAYOUT
  5
106AB98
102
{ACAD_REACTORS
330
106AB97
102
}
330
106AB97
100
AcDbPlotSettings
  1

  2
none_device
  4
Letter_(8.50_x_11.00_Inches)
  6

 40
6.35
 41
6.35
 42
6.35
 43
6.35
 44
215.9
 45
279.4
 46
0.0
 47
0.0
 48
0.0
 49
0.0
140
0.0
141
0.0
142
1.0
143
2.21959459445662
 70
  1712
 72
     0
 73
     0
 74
     0
  7

 75
     0
147
0.4505327245333333
148
-39.40881537143161
149
0.0
100
AcDbLayout
  1
Model
 70
     1
 71
     0
 10
0.0
 20
0.0
 11
12.0
 21
9.0
 12
0.0
 22
0.0
 32
0.0
 14
-15.0
 24
-45.0
 34
0.0
 15
89.99999999999999
 25
45.0
 35
0.0
146
0.0
 13
0.0
 23
0.0
 33
0.0
 16
1.0
 26
0.0
 36
0.0
 17
0.0
 27
1.0
 37
0.0
 76
     0
330
30
331
106AB91
  0
LAYOUT
  5
106AB99
102
{ACAD_REACTORS
330
106AB97
102
}
330
106AB97
100
AcDbPlotSettings
  1

  2
none_device
  4

  6

 40
0.0
 41
0.0
 42
0.0
 43
0.0
 44
0.0
 45
0.0
 46
0.0
 47
0.0
 48
0.0
 49
0.0
140
0.0
141
0.0
142
1.0
143
1.0
 70
   688
 72
     0
 73
     0
 74
     5
  7

 75
    16
147
1.0
148
0.0
149
0.0
100
AcDbLayout
  1
シート 1
 70
     1
 71
     1
 10
0.0
 20
0.0
 11
0.0
 21
0.0
 12
0.0
 22
0.0
 32
0.0
 14
1.000000000000000E+20
 24
1.000000000000000E+20
 34
1.000000000000000E+20
 15
-1.000000000000000E+20
 25
-1.000000000000000E+20
 35
-1.000000000000000E+20
146
0.0
 13
0.0
 23
0.0
 33
0.0
 16
1.0
 26
0.0
 36
0.0
 17
0.0
 27
1.0
 37
0.0
 76
     0
330
31
  0
MATERIAL
  5
106ABBE
102
{ACAD_REACTORS
330
106ABBC
102
}
102
{ACAD_XDICTIONARY
360
106AD31
102
}
330
106ABBC
100
AcDbMaterial
  1
ByBlock
  0
MATERIAL
  5
106ABBD
102
{ACAD_REACTORS
330
106ABBC
102
}
102
{ACAD_XDICTIONARY
360
106AD33
102
}
330
106ABBC
100
AcDbMaterial
  1
ByLayer
  0
MATERIAL
  5
106ABBF
102
{ACAD_REACTORS
330
106ABBC
102
}
102
{ACAD_XDICTIONARY
360
106AD35
102
}
330
106ABBC
100
AcDbMaterial
  1
Global
  0
MLEADERSTYLE
  5
106ABDC
102
{ACAD_REACTORS
330
106ABDB
102
}
102
{ACAD_XDICTIONARY
360
106AD37
102
}
330
106ABDB
100
AcDbMLeaderStyle
170
     2
171
     1
172
     0
 90
        2
 40
0.0
 41
0.0
173
     1
 91
-1056964608
340
4
 92
       -2
290
     1
 42
0.09
291
     1
 43
0.36
  3
Standard
341
0
 44
0.18
300

342
28
174
     1
178
     1
175
     1
176
     0
 93
-1056964608
 45
0.18
292
     0
297
     0
 46
0.18
343
0
 94
-1056964608
 47
1.0
 49
1.0
140
1.0
293
     1
141
0.0
294
     1
177
     0
142
1.0
295
     0
296
     0
143
0.125
1001
ACAD_MLEADERVER
1070
     2
  0
MLINESTYLE
  5
106AB93
102
{ACAD_REACTORS
330
106AB92
102
}
330
106AB92
100
AcDbMlineStyle
  2
Standard
 70
     0
  3

 62
   256
 51
90.0
 52
90.0
 71
     2
 49
0.5
 62
   256
  6
BYLAYER
 49
-0.5
 62
   256
  6
BYLAYER
  0
ACDBPLACEHOLDER
  5
106AB96
102
{ACAD_REACTORS
330
106AB95
102
}
330
106AB95
  0
SCALE
  5
106AB9B
102
{ACAD_REACTORS
330
106AB9A
102
}
330
106AB9A
100
AcDbScale
 70
     0
300
1:1
140
1.0
141
1.0
290
     1
  0
SCALE
  5
106AB9C
102
{ACAD_REACTORS
330
106AB9A
102
}
330
106AB9A
100
AcDbScale
 70
     0
300
1:2
140
1.0
141
2.0
290
     0
  0
SCALE
  5
106AB9D
102
{ACAD_REACTORS
330
106AB9A
102
}
330
106AB9A
100
AcDbScale
 70
     0
300
1:4
140
1.0
141
4.0
290
     0
  0
SCALE
  5
106AB9E
102
{ACAD_REACTORS
330
106AB9A
102
}
330
106AB9A
100
AcDbScale
 70
     0
300
1:5
140
1.0
141
5.0
290
     0
  0
SCALE
  5
106AB9F
102
{ACAD_REACTORS
330
106AB9A
102
}
330
106AB9A
100
AcDbScale
 70
     0
300
1:8
140
1.0
141
8.0
290
     0
  0
SCALE
  5
106ABA0
102
{ACAD_REACTORS
330
106AB9A
102
}
330
106AB9A
100
AcDbScale
 70
     0
300
1:10
140
1.0
141
10.0
290
     0
  0
SCALE
  5
106ABA1
102
{ACAD_REACTORS
330
106AB9A
102
}
330
106AB9A
100
AcDbScale
 70
     0
300
1:16
140
1.0
141
16.0
290
     0
  0
SCALE
  5
106ABA2
102
{ACAD_REACTORS
330
106AB9A
102
}
330
106AB9A
100
AcDbScale
 70
     0
300
1:20
140
1.0
141
20.0
290
     0
  0
SCALE
  5
106ABA3
102
{ACAD_REACTORS
330
106AB9A
102
}
330
106AB9A
100
AcDbScale
 70
     0
300
1:30
140
1.0
141
30.0
290
     0
  0
SCALE
  5
106ABA4
102
{ACAD_REACTORS
330
106AB9A
102
}
330
106AB9A
100
AcDbScale
 70
     0
300
1:40
140
1.0
141
40.0
290
     0
  0
SCALE
  5
106ABA5
102
{ACAD_REACTORS
330
106AB9A
102
}
330
106AB9A
100
AcDbScale
 70
     0
300
1:50
140
1.0
141
50.0
290
     0
  0
SCALE
  5
106ABA6
102
{ACAD_REACTORS
330
106AB9A
102
}
330
106AB9A
100
AcDbScale
 70
     0
300
1:100
140
1.0
141
100.0
290
     0
  0
SCALE
  5
106ABA7
102
{ACAD_REACTORS
330
106AB9A
102
}
330
106AB9A
100
AcDbScale
 70
     0
300
2:1
140
2.0
141
1.0
290
     0
  0
SCALE
  5
106ABA8
102
{ACAD_REACTORS
330
106AB9A
102
}
330
106AB9A
100
AcDbScale
 70
     0
300
4:1
140
4.0
141
1.0
290
     0
  0
SCALE
  5
106ABA9
102
{ACAD_REACTORS
330
106AB9A
102
}
330
106AB9A
100
AcDbScale
 70
     0
300
8:1
140
8.0
141
1.0
290
     0
  0
SCALE
  5
106ABAA
102
{ACAD_REACTORS
330
106AB9A
102
}
330
106AB9A
100
AcDbScale
 70
     0
300
10:1
140
10.0
141
1.0
290
     0
  0
SCALE
  5
106ABAB
102
{ACAD_REACTORS
330
106AB9A
102
}
330
106AB9A
100
AcDbScale
 70
     0
300
100:1
140
100.0
141
1.0
290
     0
  0
SCALE
  5
106ABAC
102
{ACAD_REACTORS
330
106AB9A
102
}
330
106AB9A
100
AcDbScale
 70
     0
300
1/128" = 1'-0"
140
0.0078125
141
12.0
290
     0
  0
SCALE
  5
106ABAD
102
{ACAD_REACTORS
330
106AB9A
102
}
330
106AB9A
100
AcDbScale
 70
     0
300
1/64" = 1'-0"
140
0.015625
141
12.0
290
     0
  0
SCALE
  5
106ABAE
102
{ACAD_REACTORS
330
106AB9A
102
}
330
106AB9A
100
AcDbScale
 70
     0
300
1/32" = 1'-0"
140
0.03125
141
12.0
290
     0
  0
SCALE
  5
106ABAF
102
{ACAD_REACTORS
330
106AB9A
102
}
330
106AB9A
100
AcDbScale
 70
     0
300
1/16" = 1'-0"
140
0.0625
141
12.0
290
     0
  0
SCALE
  5
106ABB0
102
{ACAD_REACTORS
330
106AB9A
102
}
330
106AB9A
100
AcDbScale
 70
     0
300
3/32" = 1'-0"
140
0.09375
141
12.0
290
     0
  0
SCALE
  5
106ABB1
102
{ACAD_REACTORS
330
106AB9A
102
}
330
106AB9A
100
AcDbScale
 70
     0
300
1/8" = 1'-0"
140
0.125
141
12.0
290
     0
  0
SCALE
  5
106ABB2
102
{ACAD_REACTORS
330
106AB9A
102
}
330
106AB9A
100
AcDbScale
 70
     0
300
3/16" = 1'-0"
140
0.1875
141
12.0
290
     0
  0
SCALE
  5
106ABB3
102
{ACAD_REACTORS
330
106AB9A
102
}
330
106AB9A
100
AcDbScale
 70
     0
300
1/4" = 1'-0"
140
0.25
141
12.0
290
     0
  0
SCALE
  5
106ABB4
102
{ACAD_REACTORS
330
106AB9A
102
}
330
106AB9A
100
AcDbScale
 70
     0
300
3/8" = 1'-0"
140
0.375
141
12.0
290
     0
  0
SCALE
  5
106ABB5
102
{ACAD_REACTORS
330
106AB9A
102
}
330
106AB9A
100
AcDbScale
 70
     0
300
1/2" = 1'-0"
140
0.5
141
12.0
290
     0
  0
SCALE
  5
106ABB6
102
{ACAD_REACTORS
330
106AB9A
102
}
330
106AB9A
100
AcDbScale
 70
     0
300
3/4" = 1'-0"
140
0.75
141
12.0
290
     0
  0
SCALE
  5
106ABB7
102
{ACAD_REACTORS
330
106AB9A
102
}
330
106AB9A
100
AcDbScale
 70
     0
300
1" = 1'-0"
140
1.0
141
12.0
290
     0
  0
SCALE
  5
106ABB8
102
{ACAD_REACTORS
330
106AB9A
102
}
330
106AB9A
100
AcDbScale
 70
     0
300
1-1/2" = 1'-0"
140
1.5
141
12.0
290
     0
  0
SCALE
  5
106ABB9
102
{ACAD_REACTORS
330
106AB9A
102
}
330
106AB9A
100
AcDbScale
 70
     0
300
3" = 1'-0"
140
3.0
141
12.0
290
     0
  0
SCALE
  5
106ABBA
102
{ACAD_REACTORS
330
106AB9A
102
}
330
106AB9A
100
AcDbScale
 70
     0
300
6" = 1'-0"
140
6.0
141
12.0
290
     0
  0
SCALE
  5
106ABBB
102
{ACAD_REACTORS
330
106AB9A
102
}
330
106AB9A
100
AcDbScale
 70
     0
300
1'-0" = 1'-0"
140
12.0
141
12.0
290
     0
  0
TABLESTYLE
  5
106ABDA
102
{ACAD_REACTORS
330
106ABD9
102
}
330
106ABD9
100
AcDbTableStyle
  3
Standard
 70
     0
 71
     0
 40
0.06
 41
0.06
280
     0
281
     0
  7
Monospac821 BT
140
0.18
170
     2
 62
     0
 63
   257
283
     0
274
    -2
284
     1
 64
     0
275
    -2
285
     1
 65
     0
276
    -2
286
     1
 66
     0
277
    -2
287
     1
 67
     0
278
    -2
288
     1
 68
     0
279
    -2
289
     1
 69
     0
  7
Monospac821 BT
140
0.25
170
     5
 62
     0
 63
   257
283
     0
274
    -2
284
     1
 64
     0
275
    -2
285
     1
 65
     0
276
    -2
286
     1
 66
     0
277
    -2
287
     1
 67
     0
278
    -2
288
     1
 68
     0
279
    -2
289
     1
 69
     0
  7
Monospac821 BT
140
0.18
170
     5
 62
     0
 63
   257
283
     0
274
    -2
284
     1
 64
     0
275
    -2
285
     1
 65
     0
276
    -2
286
     1
 66
     0
277
    -2
287
     1
 67
     0
278
    -2
288
     1
 68
     0
279
    -2
289
     1
 69
     0
  0
VISUALSTYLE
  5
106ABC5
102
{ACAD_REACTORS
330
106ABC0
102
}
102
{ACAD_XDICTIONARY
360
106AD39
102
}
330
106ABC0
100
AcDbVisualStyle
  2
2dWireframe
 70
     4
 71
     0
 72
     2
 73
     0
 90
        0
 40
0.6
 41
30.0
 62
     5
 63
     7
 74
     1
 91
        4
 64
     7
 65
   257
 75
     1
175
     1
 42
1.0
 92
        0
 66
   257
 43
1.0
 76
     1
 77
     6
 78
     2
 67
     7
 79
     5
170
     0
171
     0
290
     0
174
     0
 93
        1
 44
0.0
173
     0
291
     0
 45
0.0
1001
ACAD
1000
AcDbSavedByObjectVersion
1070
     0
  0
VISUALSTYLE
  5
106ABC8
102
{ACAD_REACTORS
330
106ABC0
102
}
102
{ACAD_XDICTIONARY
360
106AD3B
102
}
330
106ABC0
100
AcDbVisualStyle
  2
Basic
 70
     7
 71
     1
 72
     0
 73
     1
 90
        0
 40
0.6
 41
30.0
 62
     5
 63
     7
 74
     0
 91
        4
 64
     7
 65
   257
 75
     1
175
     1
 42
1.0
 92
        8
 66
     7
 43
1.0
 76
     1
 77
     6
 78
     2
 67
     7
 79
     5
170
     0
171
     0
290
     0
174
     0
 93
        1
 44
0.0
173
     0
291
     1
 45
0.0
1001
ACAD
1000
AcDbSavedByObjectVersion
1070
     0
  0
VISUALSTYLE
  5
106ABCC
102
{ACAD_REACTORS
330
106ABC0
102
}
102
{ACAD_XDICTIONARY
360
106AD3D
102
}
330
106ABC0
100
AcDbVisualStyle
  2
Brighten
 70
    12
 71
     2
 72
     2
 73
     0
 90
        0
 40
0.6
 41
30.0
 62
     5
 63
     7
 74
     1
 91
        4
 64
     7
 65
   257
 75
     1
175
     1
 42
1.0
 92
        8
 66
     7
 43
1.0
 76
     1
 77
     6
 78
     2
 67
     7
 79
     5
170
     0
171
     0
290
     0
174
     0
 93
        1
 44
50.0
173
     0
291
     1
 45
0.0
1001
ACAD
1000
AcDbSavedByObjectVersion
1070
     0
  0
VISUALSTYLE
  5
106ABD0
102
{ACAD_REACTORS
330
106ABC0
102
}
102
{ACAD_XDICTIONARY
360
106AD3F
102
}
330
106ABC0
100
AcDbVisualStyle
  2
ColorChange
 70
    16
 71
     2
 72
     2
 73
     3
 90
        0
 40
0.6
 41
30.0
 62
     5
 63
     8
 74
     1
 91
        4
 64
     7
 65
   257
 75
     1
175
     1
 42
1.0
 92
        8
 66
     8
 43
1.0
 76
     1
 77
     6
 78
     2
 67
     7
 79
     5
170
     0
171
     0
290
     0
174
     0
 93
        1
 44
0.0
173
     0
291
     1
 45
0.0
1001
ACAD
1000
AcDbSavedByObjectVersion
1070
     0
  0
VISUALSTYLE
  5
106ABCA
102
{ACAD_REACTORS
330
106ABC0
102
}
102
{ACAD_XDICTIONARY
360
106AD41
102
}
330
106ABC0
100
AcDbVisualStyle
  2
Conceptual
 70
     9
 71
     3
 72
     2
 73
     0
 90
        0
 40
0.6
 41
30.0
 62
     5
 63
     7
 74
     2
 91
        2
 64
     7
 65
   257
 75
     1
175
     1
 42
179.0
 92
        8
 66
     7
 43
1.0
 76
     1
 77
     6
 78
     2
 67
     7
 79
     3
170
     0
171
     0
290
     0
174
     0
 93
        1
 44
0.0
173
     0
291
     0
 45
0.0
1001
ACAD
1000
AcDbSavedByObjectVersion
1070
     0
  0
VISUALSTYLE
  5
106ABCB
102
{ACAD_REACTORS
330
106ABC0
102
}
102
{ACAD_XDICTIONARY
360
106AD43
102
}
330
106ABC0
100
AcDbVisualStyle
  2
Dim
 70
    11
 71
     2
 72
     2
 73
     0
 90
        0
 40
0.6
 41
30.0
 62
     5
 63
     7
 74
     1
 91
        4
 64
     7
 65
   257
 75
     1
175
     1
 42
1.0
 92
        8
 66
     7
 43
1.0
 76
     1
 77
     6
 78
     2
 67
     7
 79
     5
170
     0
171
     0
290
     0
174
     0
 93
        1
 44
-50.0
173
     0
291
     1
 45
0.0
1001
ACAD
1000
AcDbSavedByObjectVersion
1070
     0
  0
VISUALSTYLE
  5
106ABD3
102
{ACAD_REACTORS
330
106ABC0
102
}
102
{ACAD_XDICTIONARY
360
106AD45
102
}
330
106ABC0
100
AcDbVisualStyle
  2
EdgeColorOff
 70
    22
 71
     2
 72
     2
 73
     0
 90
        0
 40
0.6
 41
30.0
 62
     5
 63
     7
 74
     1
 91
        4
 64
     7
 65
   257
 75
     1
175
     1
 42
1.0
 92
        8
 66
     7
 43
1.0
 76
     1
 77
     6
 78
     2
 67
     7
 79
     5
170
     0
171
     0
290
     0
174
     0
 93
        1
 44
0.0
173
     0
291
     1
 45
0.0
1001
ACAD
1000
AcDbSavedByObjectVersion
1070
     0
  0
VISUALSTYLE
  5
106ABCF
102
{ACAD_REACTORS
330
106ABC0
102
}
102
{ACAD_XDICTIONARY
360
106AD47
102
}
330
106ABC0
100
AcDbVisualStyle
  2
Facepattern
 70
    15
 71
     2
 72
     2
 73
     0
 90
        0
 40
0.6
 41
30.0
 62
     5
 63
     7
 74
     1
 91
        4
 64
     7
 65
   257
 75
     1
175
     1
 42
1.0
 92
        8
 66
     7
 43
1.0
 76
     1
 77
     6
 78
     2
 67
     7
 79
     5
170
     0
171
     0
290
     0
174
     0
 93
        1
 44
0.0
173
     0
291
     1
 45
0.0
1001
ACAD
1000
AcDbSavedByObjectVersion
1070
     0
  0
VISUALSTYLE
  5
106ABC1
102
{ACAD_REACTORS
330
106ABC0
102
}
102
{ACAD_XDICTIONARY
360
106AD49
102
}
330
106ABC0
100
AcDbVisualStyle
  2
Flat
 70
     0
 71
     2
 72
     1
 73
     1
 90
        2
 40
0.6
 41
30.0
 62
     5
 63
     7
 74
     0
 91
        0
 64
     7
 65
   257
 75
     1
175
     1
 42
1.0
 92
        8
 66
     7
 43
1.0
 76
     1
 77
     6
 78
     2
 67
     7
 79
     5
170
     0
171
     0
290
     0
174
     0
 93
       13
 44
0.0
173
     0
291
     1
 45
0.0
1001
ACAD
1000
AcDbSavedByObjectVersion
1070
     0
  0
VISUALSTYLE
  5
106ABC2
102
{ACAD_REACTORS
330
106ABC0
102
}
102
{ACAD_XDICTIONARY
360
106AD4B
102
}
330
106ABC0
100
AcDbVisualStyle
  2
FlatWithEdges
 70
     1
 71
     2
 72
     1
 73
     1
 90
        2
 40
0.6
 41
30.0
 62
     5
 63
     7
 74
     1
 91
        0
 64
     7
 65
   257
 75
     1
175
     1
 42
1.0
 92
        0
 66
   257
 43
1.0
 76
     1
 77
     6
 78
     2
 67
     7
 79
     5
170
     0
171
     0
290
     0
174
     0
 93
       13
 44
0.0
173
     0
291
     1
 45
0.0
1001
ACAD
1000
AcDbSavedByObjectVersion
1070
     0
  0
VISUALSTYLE
  5
106ABC3
102
{ACAD_REACTORS
330
106ABC0
102
}
102
{ACAD_XDICTIONARY
360
106AD4D
102
}
330
106ABC0
100
AcDbVisualStyle
  2
Gouraud
 70
     2
 71
     2
 72
     2
 73
     1
 90
        2
 40
0.6
 41
30.0
 62
     5
 63
     7
 74
     0
 91
        0
 64
     7
 65
   257
 75
     1
175
     1
 42
1.0
 92
        0
 66
     7
 43
1.0
 76
     1
 77
     6
 78
     2
 67
     7
 79
     5
170
     0
171
     0
290
     0
174
     0
 93
       13
 44
0.0
173
     0
291
     1
 45
0.0
1001
ACAD
1000
AcDbSavedByObjectVersion
1070
     0
  0
VISUALSTYLE
  5
106ABC4
102
{ACAD_REACTORS
330
106ABC0
102
}
102
{ACAD_XDICTIONARY
360
106AD4F
102
}
330
106ABC0
100
AcDbVisualStyle
  2
GouraudWithEdges
 70
     3
 71
     2
 72
     2
 73
     1
 90
        2
 40
0.6
 41
30.0
 62
     5
 63
     7
 74
     1
 91
        0
 64
     7
 65
   257
 75
     1
175
     1
 42
1.0
 92
        0
 66
   257
 43
1.0
 76
     1
 77
     6
 78
     2
 67
     7
 79
     5
170
     0
171
     0
290
     0
174
     0
 93
       13
 44
0.0
173
     0
291
     1
 45
0.0
1001
ACAD
1000
AcDbSavedByObjectVersion
1070
     0
  0
VISUALSTYLE
  5
106ABC7
102
{ACAD_REACTORS
330
106ABC0
102
}
102
{ACAD_XDICTIONARY
360
106AD51
102
}
330
106ABC0
100
AcDbVisualStyle
  2
Hidden
 70
     6
 71
     1
 72
     2
 73
     2
 90
        0
 40
0.6
 41
30.0
 62
     5
 63
     7
 74
     2
 91
        2
 64
     7
 65
   257
 75
     2
175
     1
 42
40.0
 92
        0
 66
   257
 43
1.0
 76
     1
 77
     6
 78
     2
 67
     7
 79
     3
170
     0
171
     0
290
     0
174
     0
 93
        1
 44
0.0
173
     0
291
     0
 45
0.0
1001
ACAD
1000
AcDbSavedByObjectVersion
1070
     0
  0
VISUALSTYLE
  5
106ABD1
102
{ACAD_REACTORS
330
106ABC0
102
}
102
{ACAD_XDICTIONARY
360
106AD53
102
}
330
106ABC0
100
AcDbVisualStyle
  2
JitterOff
 70
    20
 71
     2
 72
     2
 73
     0
 90
        0
 40
0.6
 41
30.0
 62
     5
 63
     7
 74
     1
 91
        4
 64
     7
 65
   257
 75
     1
175
     1
 42
1.0
 92
       10
 66
     7
 43
1.0
 76
     1
 77
     6
 78
     2
 67
     7
 79
     5
170
     0
171
     0
290
     0
174
     0
 93
        1
 44
0.0
173
     0
291
     1
 45
0.0
1001
ACAD
1000
AcDbSavedByObjectVersion
1070
     0
  0
VISUALSTYLE
  5
106ABCE
102
{ACAD_REACTORS
330
106ABC0
102
}
102
{ACAD_XDICTIONARY
360
106AD55
102
}
330
106ABC0
100
AcDbVisualStyle
  2
Linepattern
 70
    14
 71
     2
 72
     2
 73
     0
 90
        0
 40
0.6
 41
30.0
 62
     5
 63
     7
 74
     1
 91
        4
 64
     7
 65
   257
 75
     7
175
     7
 42
1.0
 92
        8
 66
     7
 43
1.0
 76
     1
 77
     6
 78
     2
 67
     7
 79
     5
170
     0
171
     0
290
     0
174
     0
 93
        1
 44
0.0
173
     0
291
     1
 45
0.0
1001
ACAD
1000
AcDbSavedByObjectVersion
1070
     0
  0
VISUALSTYLE
  5
106ABD2
102
{ACAD_REACTORS
330
106ABC0
102
}
102
{ACAD_XDICTIONARY
360
106AD57
102
}
330
106ABC0
100
AcDbVisualStyle
  2
OverhangOff
 70
    21
 71
     2
 72
     2
 73
     0
 90
        0
 40
0.6
 41
30.0
 62
     5
 63
     7
 74
     1
 91
        4
 64
     7
 65
   257
 75
     1
175
     1
 42
1.0
 92
        9
 66
     7
 43
1.0
 76
     1
 77
     6
 78
     2
 67
     7
 79
     5
170
     0
171
     0
290
     0
174
     0
 93
        1
 44
0.0
173
     0
291
     1
 45
0.0
1001
ACAD
1000
AcDbSavedByObjectVersion
1070
     0
  0
VISUALSTYLE
  5
106ABC9
102
{ACAD_REACTORS
330
106ABC0
102
}
102
{ACAD_XDICTIONARY
360
106AD59
102
}
330
106ABC0
100
AcDbVisualStyle
  2
Realistic
 70
     8
 71
     2
 72
     3
 73
     0
 90
        2
 40
0.6
 41
30.0
 62
     5
 63
     7
 74
     0
 91
        0
 64
     7
 65
   257
 75
     1
175
     1
 42
1.0
 92
        8
 66
   257
 43
1.0
 76
     1
 77
     6
 78
     2
 67
     7
 79
     3
170
     0
171
     0
290
     0
174
     0
 93
       13
 44
0.0
173
     0
291
     0
 45
0.0
1001
ACAD
1000
AcDbSavedByObjectVersion
1070
     0
  0
VISUALSTYLE
  5
106ABD8
102
{ACAD_REACTORS
330
106ABC0
102
}
102
{ACAD_XDICTIONARY
360
106AD5B
102
}
330
106ABC0
100
AcDbVisualStyle
  2
Shaded
 70
    27
 71
     2
 72
     2
 73
     1
 90
        2
 40
0.6
 41
30.0
 62
     5
 63
     7
 74
     0
 91
        4
 64
     7
 65
   257
 75
     1
175
     1
 42
1.0
 92
        8
 66
   257
 43
1.0
 76
     1
 77
     6
 78
     2
 67
     8
 79
     3
170
     0
171
     0
290
     0
174
     0
 93
        5
 44
0.0
173
     0
291
     0
 45
0.0
1001
ACAD
1000
AcDbSavedByObjectVersion
1070
     0
  0
VISUALSTYLE
  5
106ABD7
102
{ACAD_REACTORS
330
106ABC0
102
}
102
{ACAD_XDICTIONARY
360
106AD5D
102
}
330
106ABC0
100
AcDbVisualStyle
  2
Shaded with edges
 70
    26
 71
     2
 72
     2
 73
     1
 90
        2
 40
0.6
 41
30.0
 62
     5
 63
     7
 74
     1
 91
       10
 64
     7
 65
   257
 75
     2
175
     1
 42
1.0
 92
        8
 66
   257
 43
1.0
 76
     1
 77
     6
 78
     2
 67
     7
 79
     3
170
     0
171
     0
290
     0
174
     0
 93
        5
 44
0.0
173
     0
291
     0
 45
0.0
1001
ACAD
1000
AcDbSavedByObjectVersion
1070
     0
  0
VISUALSTYLE
  5
106ABD4
102
{ACAD_REACTORS
330
106ABC0
102
}
102
{ACAD_XDICTIONARY
360
106AD5F
102
}
330
106ABC0
100
AcDbVisualStyle
  2
Shades of Gray
 70
    23
 71
     2
 72
     2
 73
     3
 90
        0
 40
0.6
 41
30.0
 62
     5
 63
     7
 74
     2
 91
        2
 64
     7
 65
     7
 75
     1
175
     1
 42
40.0
 92
        8
 66
     7
 43
1.0
 76
     1
 77
     6
 78
     2
 67
     7
 79
     3
170
     0
171
     0
290
     0
174
     0
 93
        1
 44
0.0
173
     0
291
     0
 45
0.0
1001
ACAD
1000
AcDbSavedByObjectVersion
1070
     0
  0
VISUALSTYLE
  5
106ABD5
102
{ACAD_REACTORS
330
106ABC0
102
}
102
{ACAD_XDICTIONARY
360
106AD61
102
}
330
106ABC0
100
AcDbVisualStyle
  2
Sketchy
 70
    24
 71
     1
 72
     2
 73
     2
 90
        0
 40
0.6
 41
30.0
 62
     5
 63
     7
 74
     2
 91
        2
 64
     7
 65
     7
 75
     1
175
     1
 42
40.0
 92
       11
 66
     7
 43
1.0
 76
     1
 77
     6
 78
     2
 67
     7
 79
     6
170
     0
171
     0
290
     0
174
     0
 93
        1
 44
0.0
173
     0
291
     0
 45
0.0
1001
ACAD
1000
AcDbSavedByObjectVersion
1070
     0
  0
VISUALSTYLE
  5
106ABCD
102
{ACAD_REACTORS
330
106ABC0
102
}
102
{ACAD_XDICTIONARY
360
106AD63
102
}
330
106ABC0
100
AcDbVisualStyle
  2
Thicken
 70
    13
 71
     2
 72
     2
 73
     0
 90
        0
 40
0.6
 41
30.0
 62
     5
 63
     7
 74
     1
 91
        4
 64
     7
 65
   257
 75
     1
175
     1
 42
1.0
 92
       12
 66
     7
 43
1.0
 76
     1
 77
     6
 78
     2
 67
     7
 79
     5
170
     0
171
     0
290
     0
174
     0
 93
        1
 44
0.0
173
     0
291
     1
 45
0.0
1001
ACAD
1000
AcDbSavedByObjectVersion
1070
     0
  0
VISUALSTYLE
  5
106ABC6
102
{ACAD_REACTORS
330
106ABC0
102
}
102
{ACAD_XDICTIONARY
360
106AD65
102
}
330
106ABC0
100
AcDbVisualStyle
  2
Wireframe
 70
     5
 71
     0
 72
     2
 73
     0
 90
        0
 40
0.6
 41
30.0
 62
     5
 63
     7
 74
     1
 91
        4
 64
     7
 65
   257
 75
     1
175
     1
 42
1.0
 92
        0
 66
   257
 43
1.0
 76
     1
 77
     6
 78
     2
 67
     7
 79
     3
170
     0
171
     0
290
     0
174
     0
 93
        1
 44
0.0
173
     0
291
     0
 45
0.0
1001
ACAD
1000
AcDbSavedByObjectVersion
1070
     0
  0
VISUALSTYLE
  5
106ABD6
102
{ACAD_REACTORS
330
106ABC0
102
}
102
{ACAD_XDICTIONARY
360
106AD67
102
}
330
106ABC0
100
AcDbVisualStyle
  2
X-Ray
 70
    25
 71
     2
 72
     2
 73
     1
 90
        1
 40
0.5
 41
30.0
 62
     5
 63
     7
 74
     1
 91
        0
 64
     7
 65
   257
 75
     1
175
     1
 42
1.0
 92
        8
 66
     7
 43
1.0
 76
     1
 77
     6
 78
     2
 67
     7
 79
     3
170
     0
171
     0
290
     0
174
     0
 93
       13
 44
0.0
173
     0
291
     0
 45
0.0
1001
ACAD
1000
AcDbSavedByObjectVersion
1070
     0
  0
DICTIONARYVAR
  5
106AD30
102
{ACAD_REACTORS
330
106ACA4
102
}
330
106ACA4
100
DictionaryVariables
280
     0
  1
1:1
  0
DICTIONARYVAR
  5
106ACA6
102
{ACAD_REACTORS
330
106ACA4
102
}
330
106ACA4
100
DictionaryVariables
280
     0
  1
Standard
  0
DICTIONARYVAR
  5
106ACA5
102
{ACAD_REACTORS
330
106ACA4
102
}
330
106ACA4
100
DictionaryVariables
280
     0
  1
Standard
  0
DICTIONARYVAR
  5
106ACA9
102
{ACAD_REACTORS
330
106ACA4
102
}
330
106ACA4
100
DictionaryVariables
280
     0
  1
2
  0
DICTIONARYVAR
  5
106ACAA
102
{ACAD_REACTORS
330
106ACA4
102
}
330
106ACA4
100
DictionaryVariables
280
     0
  1
1
  0
DICTIONARYVAR
  5
106ACB1
102
{ACAD_REACTORS
330
106ACA4
102
}
330
106ACA4
100
DictionaryVariables
280
     0
  1
1
  0
XRECORD
  5
106AC1A
102
{ACAD_REACTORS
330
106AC18
102
}
330
106AC18
100
AcDbXrecord
280
     1
  2

  2

  2

 40
0.0
 40
1.0
 90
      113
 40
0.0
 90
        0
 90
        0
 90
       24
 90
      728
  2

  2

  2

  2

290
     1
290
     1
  2
0
  2

  0
DICTIONARY
  5
106AD31
330
106ABBE
100
AcDbDictionary
280
     1
281
     1
  3
ACAD_XREC_ROUNDTRIP
360
106AD32
  0
DICTIONARY
  5
106AD33
330
106ABBD
100
AcDbDictionary
280
     1
281
     1
  3
ACAD_XREC_ROUNDTRIP
360
106AD34
  0
DICTIONARY
  5
106AD35
330
106ABBF
100
AcDbDictionary
280
     1
281
     1
  3
ACAD_XREC_ROUNDTRIP
360
106AD36
  0
DICTIONARY
  5
106AD37
330
106ABDC
100
AcDbDictionary
280
     1
281
     1
  3
ACAD_XREC_ROUNDTRIP
360
106AD38
  0
DICTIONARY
  5
106AD39
330
106ABC5
100
AcDbDictionary
280
     1
281
     1
  3
ACAD_XREC_ROUNDTRIP
360
106AD3A
  0
DICTIONARY
  5
106AD3B
330
106ABC8
100
AcDbDictionary
280
     1
281
     1
  3
ACAD_XREC_ROUNDTRIP
360
106AD3C
  0
DICTIONARY
  5
106AD3D
330
106ABCC
100
AcDbDictionary
280
     1
281
     1
  3
ACAD_XREC_ROUNDTRIP
360
106AD3E
  0
DICTIONARY
  5
106AD3F
330
106ABD0
100
AcDbDictionary
280
     1
281
     1
  3
ACAD_XREC_ROUNDTRIP
360
106AD40
  0
DICTIONARY
  5
106AD41
330
106ABCA
100
AcDbDictionary
280
     1
281
     1
  3
ACAD_XREC_ROUNDTRIP
360
106AD42
  0
DICTIONARY
  5
106AD43
330
106ABCB
100
AcDbDictionary
280
     1
281
     1
  3
ACAD_XREC_ROUNDTRIP
360
106AD44
  0
DICTIONARY
  5
106AD45
330
106ABD3
100
AcDbDictionary
280
     1
281
     1
  3
ACAD_XREC_ROUNDTRIP
360
106AD46
  0
DICTIONARY
  5
106AD47
330
106ABCF
100
AcDbDictionary
280
     1
281
     1
  3
ACAD_XREC_ROUNDTRIP
360
106AD48
  0
DICTIONARY
  5
106AD49
330
106ABC1
100
AcDbDictionary
280
     1
281
     1
  3
ACAD_XREC_ROUNDTRIP
360
106AD4A
  0
DICTIONARY
  5
106AD4B
330
106ABC2
100
AcDbDictionary
280
     1
281
     1
  3
ACAD_XREC_ROUNDTRIP
360
106AD4C
  0
DICTIONARY
  5
106AD4D
330
106ABC3
100
AcDbDictionary
280
     1
281
     1
  3
ACAD_XREC_ROUNDTRIP
360
106AD4E
  0
DICTIONARY
  5
106AD4F
330
106ABC4
100
AcDbDictionary
280
     1
281
     1
  3
ACAD_XREC_ROUNDTRIP
360
106AD50
  0
DICTIONARY
  5
106AD51
330
106ABC7
100
AcDbDictionary
280
     1
281
     1
  3
ACAD_XREC_ROUNDTRIP
360
106AD52
  0
DICTIONARY
  5
106AD53
330
106ABD1
100
AcDbDictionary
280
     1
281
     1
  3
ACAD_XREC_ROUNDTRIP
360
106AD54
  0
DICTIONARY
  5
106AD55
330
106ABCE
100
AcDbDictionary
280
     1
281
     1
  3
ACAD_XREC_ROUNDTRIP
360
106AD56
  0
DICTIONARY
  5
106AD57
330
106ABD2
100
AcDbDictionary
280
     1
281
     1
  3
ACAD_XREC_ROUNDTRIP
360
106AD58
  0
DICTIONARY
  5
106AD59
330
106ABC9
100
AcDbDictionary
280
     1
281
     1
  3
ACAD_XREC_ROUNDTRIP
360
106AD5A
  0
DICTIONARY
  5
106AD5B
330
106ABD8
100
AcDbDictionary
280
     1
281
     1
  3
ACAD_XREC_ROUNDTRIP
360
106AD5C
  0
DICTIONARY
  5
106AD5D
330
106ABD7
100
AcDbDictionary
280
     1
281
     1
  3
ACAD_XREC_ROUNDTRIP
360
106AD5E
  0
DICTIONARY
  5
106AD5F
330
106ABD4
100
AcDbDictionary
280
     1
281
     1
  3
ACAD_XREC_ROUNDTRIP
360
106AD60
  0
DICTIONARY
  5
106AD61
330
106ABD5
100
AcDbDictionary
280
     1
281
     1
  3
ACAD_XREC_ROUNDTRIP
360
106AD62
  0
DICTIONARY
  5
106AD63
330
106ABCD
100
AcDbDictionary
280
     1
281
     1
  3
ACAD_XREC_ROUNDTRIP
360
106AD64
  0
DICTIONARY
  5
106AD65
330
106ABC6
100
AcDbDictionary
280
     1
281
     1
  3
ACAD_XREC_ROUNDTRIP
360
106AD66
  0
DICTIONARY
  5
106AD67
330
106ABD6
100
AcDbDictionary
280
     1
281
     1
  3
ACAD_XREC_ROUNDTRIP
360
106AD68
  0
XRECORD
  5
106AD32
102
{ACAD_REACTORS
330
106AD31
102
}
330
106AD31
100
AcDbXrecord
280
     1
102
MATERIAL
148
0.0
149
0.0
149
0.0
 93
        0
 94
      127
282
     0
 72
     1
 77
     1
171
     1
175
     1
179
     1
273
     0
  0
XRECORD
  5
106AD34
102
{ACAD_REACTORS
330
106AD33
102
}
330
106AD33
100
AcDbXrecord
280
     1
102
MATERIAL
148
0.0
149
0.0
149
0.0
 93
        0
 94
      127
282
     0
 72
     1
 77
     1
171
     1
175
     1
179
     1
273
     0
  0
XRECORD
  5
106AD36
102
{ACAD_REACTORS
330
106AD35
102
}
330
106AD35
100
AcDbXrecord
280
     1
102
MATERIAL
148
0.0
149
0.0
149
0.0
 93
        0
 94
      127
282
     0
 72
     1
 77
     1
171
     1
175
     1
179
     1
273
     0
  0
XRECORD
  5
106AD38
102
{ACAD_REACTORS
330
106AD37
102
}
330
106AD37
100
AcDbXrecord
280
     1
102
ACAD_ROUNDTRIP_2010_MLEADER_STYLE
  0
XRECORD
  5
106AD3A
102
{ACAD_REACTORS
330
106AD39
102
}
330
106AD39
100
AcDbXrecord
280
     1
102
RTVSPropertyOp0
 70
     1
102
RTVSPropertyOp1
 70
     1
102
RTVSPropertyOp2
 70
     1
102
RTVSPropertyOp3
 70
     1
102
RTVSPropertyOp4
 70
     1
102
RTVSPropertyOp5
 70
     1
102
RTVSPropertyOp6
 70
     1
102
RTVSPropertyOp7
 70
     1
102
RTVSPropertyOp8
 70
     1
102
RTVSPropertyOp9
 70
     1
102
RTVSPropertyOp10
 70
     1
102
RTVSPropertyOp11
 70
     1
102
RTVSPropertyOp12
 70
     1
102
RTVSPropertyOp13
 70
     1
102
RTVSPropertyOp14
 70
     1
102
RTVSPropertyOp15
 70
     1
102
RTVSPropertyOp16
 70
     1
102
RTVSPropertyOp17
 70
     1
102
RTVSPropertyOp18
 70
     1
102
RTVSPropertyOp19
 70
     1
102
RTVSPropertyOp20
 70
     1
102
RTVSPropertyOp21
 70
     1
102
RTVSPropertyOp22
 70
     1
102
RTVSPropertyOp23
 70
     1
102
RTVSPropertyOp24
 70
     1
102
RTVSPropertyOp25
 70
     1
102
RTVSPropertyOp26
 70
     1
102
RTVSPropertyOp27
 70
     1
102
RTVSPropertyOp28
 70
     1
102
RTVSPropertyOp29
 70
     1
102
RTVSPropertyOp30
 70
     1
102
RTVSPropertyOp31
 70
     1
102
RTVSPropertyOp32
 70
     1
102
RTVSPropertyOp33
 70
     1
102
RTVSPropertyOp34
 70
     1
102
RTVSPropertyOp35
 70
     1
102
RTVSPropertyOp36
 70
     1
102
RTVSPropertyOp37
 70
     1
102
RTVSPropertyOp38
 70
     1
102
RTVSPropertyOp39
 70
     1
102
RTVSPropertyOp40
 70
     1
102
RTVSPropertyOp41
 70
     1
102
RTVSPropertyOp42
 70
     1
102
RTVSPropertyOp43
 70
     1
102
RTVSPropertyOp44
 70
     1
102
RTVSPropertyOp45
 70
     1
102
RTVSPropertyOp46
 70
     1
102
RTVSPropertyOp47
 70
     1
102
RTVSPropertyOp48
 70
     1
102
RTVSPropertyOp49
 70
     1
102
RTVSPropertyOp50
 70
     1
102
RTVSPropertyOp51
 70
     0
102
RTVSPropertyOp52
 70
     0
102
RTVSPropertyOp53
 70
     1
102
RTVSPropertyOp54
 70
     1
102
RTVSPropertyOp55
 70
     1
102
RTVSPropertyOp56
 70
     1
102
RTVSPropertyOp57
 70
     1
102
RTVSPost2010Prop28
280
     1
102
RTVSPost2010PropOp28
 70
     1
102
RTVSPost2010Prop29
280
     1
102
RTVSPost2010PropOp29
 70
     1
102
RTVSPost2010Prop30
280
     0
102
RTVSPost2010PropOp30
 70
     1
102
RTVSPost2010Prop31
280
     0
102
RTVSPost2010PropOp31
 70
     1
102
RTVSPost2010Prop32
280
     0
102
RTVSPost2010PropOp32
 70
     1
102
RTVSPost2010Prop33
280
     0
102
RTVSPost2010PropOp33
 70
     1
102
RTVSPost2010Prop34
280
     0
102
RTVSPost2010PropOp34
 70
     1
102
RTVSPost2010Prop35
280
     0
102
RTVSPost2010PropOp35
 70
     1
102
RTVSPost2010Prop36
280
     0
102
RTVSPost2010PropOp36
 70
     1
102
RTVSPost2010Prop37
 90
       50
102
RTVSPost2010PropOp37
 70
     1
102
RTVSPost2010Prop38
140
0.0
102
RTVSPost2010PropOp38
 70
     1
102
RTVSPost2010Prop39
140
1.0
102
RTVSPost2010PropOp39
 70
     1
102
RTVSPost2010Prop40
 90
        0
102
RTVSPost2010PropOp40
 70
     1
102
RTVSPost2010Prop41ColorIndex
 90
       18
102
RTVSPost2010Prop41ColorRGB
 90
        0
102
RTVSPost2010PropOp41
 70
     1
102
RTVSPost2010Prop42
 90
       50
102
RTVSPost2010PropOp42
 70
     1
102
RTVSPost2010Prop43
 90
        3
102
RTVSPost2010PropOp43
 70
     1
102
RTVSPost2010Prop44ColorIndex
 90
        5
102
RTVSPost2010Prop44ColorRGB
 90
      255
102
RTVSPost2010PropOp44
 70
     1
102
RTVSPost2010Prop45
280
     0
102
RTVSPost2010PropOp45
 70
     1
102
RTVSPost2010Prop46
 90
       50
102
RTVSPost2010PropOp46
 70
     1
102
RTVSPost2010Prop47
 90
       50
102
RTVSPost2010PropOp47
 70
     1
102
RTVSPost2010Prop48
 90
       50
102
RTVSPost2010PropOp48
 70
     1
102
RTVSPost2010Prop49
280
     0
102
RTVSPost2010PropOp49
 70
     1
102
RTVSPost2010Prop50
 90
       50
102
RTVSPost2010PropOp50
 70
     1
102
RTVSPost2010Prop51ColorIndex
 90
      256
102
RTVSPost2010Prop51ColorRGB
 90
-16777216
102
RTVSPost2010PropOp51
 70
     0
102
RTVSPost2010Prop52
140
1.0
102
RTVSPost2010PropOp52
 70
     0
102
RTVSPost2010Prop53
 90
        2
102
RTVSPost2010PropOp53
 70
     1
102
RTVSPost2010Prop54
  1
strokes_ogs.tif
102
RTVSPost2010PropOp54
 70
     1
102
RTVSPost2010Prop55
280
     0
102
RTVSPost2010PropOp55
 70
     1
102
RTVSPost2010Prop56
140
1.0
102
RTVSPost2010PropOp56
 70
     1
102
RTVSPost2010Prop57
140
1.0
102
RTVSPost2010PropOp57
 70
     1
  0
XRECORD
  5
106AD3C
102
{ACAD_REACTORS
330
106AD3B
102
}
330
106AD3B
100
AcDbXrecord
280
     1
102
RTVSPropertyOp0
 70
     1
102
RTVSPropertyOp1
 70
     1
102
RTVSPropertyOp2
 70
     1
102
RTVSPropertyOp3
 70
     1
102
RTVSPropertyOp4
 70
     1
102
RTVSPropertyOp5
 70
     1
102
RTVSPropertyOp6
 70
     1
102
RTVSPropertyOp7
 70
     1
102
RTVSPropertyOp8
 70
     1
102
RTVSPropertyOp9
 70
     1
102
RTVSPropertyOp10
 70
     1
102
RTVSPropertyOp11
 70
     1
102
RTVSPropertyOp12
 70
     1
102
RTVSPropertyOp13
 70
     1
102
RTVSPropertyOp14
 70
     1
102
RTVSPropertyOp15
 70
     1
102
RTVSPropertyOp16
 70
     1
102
RTVSPropertyOp17
 70
     1
102
RTVSPropertyOp18
 70
     1
102
RTVSPropertyOp19
 70
     1
102
RTVSPropertyOp20
 70
     1
102
RTVSPropertyOp21
 70
     1
102
RTVSPropertyOp22
 70
     1
102
RTVSPropertyOp23
 70
     1
102
RTVSPropertyOp24
 70
     1
102
RTVSPropertyOp25
 70
     1
102
RTVSPropertyOp26
 70
     1
102
RTVSPropertyOp27
 70
     1
102
RTVSPropertyOp28
 70
     1
102
RTVSPropertyOp29
 70
     1
102
RTVSPropertyOp30
 70
     1
102
RTVSPropertyOp31
 70
     1
102
RTVSPropertyOp32
 70
     1
102
RTVSPropertyOp33
 70
     1
102
RTVSPropertyOp34
 70
     1
102
RTVSPropertyOp35
 70
     1
102
RTVSPropertyOp36
 70
     1
102
RTVSPropertyOp37
 70
     1
102
RTVSPropertyOp38
 70
     1
102
RTVSPropertyOp39
 70
     1
102
RTVSPropertyOp40
 70
     1
102
RTVSPropertyOp41
 70
     1
102
RTVSPropertyOp42
 70
     1
102
RTVSPropertyOp43
 70
     1
102
RTVSPropertyOp44
 70
     1
102
RTVSPropertyOp45
 70
     1
102
RTVSPropertyOp46
 70
     1
102
RTVSPropertyOp47
 70
     1
102
RTVSPropertyOp48
 70
     1
102
RTVSPropertyOp49
 70
     1
102
RTVSPropertyOp50
 70
     1
102
RTVSPropertyOp51
 70
     0
102
RTVSPropertyOp52
 70
     0
102
RTVSPropertyOp53
 70
     1
102
RTVSPropertyOp54
 70
     1
102
RTVSPropertyOp55
 70
     1
102
RTVSPropertyOp56
 70
     1
102
RTVSPropertyOp57
 70
     1
102
RTVSPost2010Prop28
280
     0
102
RTVSPost2010PropOp28
 70
     1
102
RTVSPost2010Prop29
280
     1
102
RTVSPost2010PropOp29
 70
     1
102
RTVSPost2010Prop30
280
     1
102
RTVSPost2010PropOp30
 70
     1
102
RTVSPost2010Prop31
280
     0
102
RTVSPost2010PropOp31
 70
     1
102
RTVSPost2010Prop32
280
     0
102
RTVSPost2010PropOp32
 70
     1
102
RTVSPost2010Prop33
280
     0
102
RTVSPost2010PropOp33
 70
     1
102
RTVSPost2010Prop34
280
     0
102
RTVSPost2010PropOp34
 70
     1
102
RTVSPost2010Prop35
280
     0
102
RTVSPost2010PropOp35
 70
     1
102
RTVSPost2010Prop36
280
     0
102
RTVSPost2010PropOp36
 70
     1
102
RTVSPost2010Prop37
 90
       50
102
RTVSPost2010PropOp37
 70
     1
102
RTVSPost2010Prop38
140
0.0
102
RTVSPost2010PropOp38
 70
     1
102
RTVSPost2010Prop39
140
1.0
102
RTVSPost2010PropOp39
 70
     1
102
RTVSPost2010Prop40
 90
        0
102
RTVSPost2010PropOp40
 70
     1
102
RTVSPost2010Prop41ColorIndex
 90
       18
102
RTVSPost2010Prop41ColorRGB
 90
        0
102
RTVSPost2010PropOp41
 70
     1
102
RTVSPost2010Prop42
 90
       50
102
RTVSPost2010PropOp42
 70
     1
102
RTVSPost2010Prop43
 90
        3
102
RTVSPost2010PropOp43
 70
     1
102
RTVSPost2010Prop44ColorIndex
 90
        5
102
RTVSPost2010Prop44ColorRGB
 90
      255
102
RTVSPost2010PropOp44
 70
     1
102
RTVSPost2010Prop45
280
     0
102
RTVSPost2010PropOp45
 70
     1
102
RTVSPost2010Prop46
 90
       50
102
RTVSPost2010PropOp46
 70
     1
102
RTVSPost2010Prop47
 90
       50
102
RTVSPost2010PropOp47
 70
     1
102
RTVSPost2010Prop48
 90
       50
102
RTVSPost2010PropOp48
 70
     1
102
RTVSPost2010Prop49
280
     0
102
RTVSPost2010PropOp49
 70
     1
102
RTVSPost2010Prop50
 90
       50
102
RTVSPost2010PropOp50
 70
     1
102
RTVSPost2010Prop51ColorIndex
 90
      256
102
RTVSPost2010Prop51ColorRGB
 90
-16777216
102
RTVSPost2010PropOp51
 70
     0
102
RTVSPost2010Prop52
140
1.0
102
RTVSPost2010PropOp52
 70
     0
102
RTVSPost2010Prop53
 90
        2
102
RTVSPost2010PropOp53
 70
     1
102
RTVSPost2010Prop54
  1
strokes_ogs.tif
102
RTVSPost2010PropOp54
 70
     1
102
RTVSPost2010Prop55
280
     0
102
RTVSPost2010PropOp55
 70
     1
102
RTVSPost2010Prop56
140
1.0
102
RTVSPost2010PropOp56
 70
     1
102
RTVSPost2010Prop57
140
1.0
102
RTVSPost2010PropOp57
 70
     1
  0
XRECORD
  5
106AD3E
102
{ACAD_REACTORS
330
106AD3D
102
}
330
106AD3D
100
AcDbXrecord
280
     1
102
RTVSPropertyOp0
 70
     1
102
RTVSPropertyOp1
 70
     1
102
RTVSPropertyOp2
 70
     1
102
RTVSPropertyOp3
 70
     1
102
RTVSPropertyOp4
 70
     1
102
RTVSPropertyOp5
 70
     1
102
RTVSPropertyOp6
 70
     1
102
RTVSPropertyOp7
 70
     1
102
RTVSPropertyOp8
 70
     1
102
RTVSPropertyOp9
 70
     1
102
RTVSPropertyOp10
 70
     1
102
RTVSPropertyOp11
 70
     1
102
RTVSPropertyOp12
 70
     1
102
RTVSPropertyOp13
 70
     1
102
RTVSPropertyOp14
 70
     1
102
RTVSPropertyOp15
 70
     1
102
RTVSPropertyOp16
 70
     1
102
RTVSPropertyOp17
 70
     1
102
RTVSPropertyOp18
 70
     1
102
RTVSPropertyOp19
 70
     1
102
RTVSPropertyOp20
 70
     1
102
RTVSPropertyOp21
 70
     1
102
RTVSPropertyOp22
 70
     1
102
RTVSPropertyOp23
 70
     1
102
RTVSPropertyOp24
 70
     1
102
RTVSPropertyOp25
 70
     1
102
RTVSPropertyOp26
 70
     1
102
RTVSPropertyOp27
 70
     1
102
RTVSPropertyOp28
 70
     1
102
RTVSPropertyOp29
 70
     1
102
RTVSPropertyOp30
 70
     1
102
RTVSPropertyOp31
 70
     1
102
RTVSPropertyOp32
 70
     1
102
RTVSPropertyOp33
 70
     1
102
RTVSPropertyOp34
 70
     1
102
RTVSPropertyOp35
 70
     1
102
RTVSPropertyOp36
 70
     1
102
RTVSPropertyOp37
 70
     1
102
RTVSPropertyOp38
 70
     1
102
RTVSPropertyOp39
 70
     1
102
RTVSPropertyOp40
 70
     1
102
RTVSPropertyOp41
 70
     1
102
RTVSPropertyOp42
 70
     1
102
RTVSPropertyOp43
 70
     1
102
RTVSPropertyOp44
 70
     1
102
RTVSPropertyOp45
 70
     1
102
RTVSPropertyOp46
 70
     1
102
RTVSPropertyOp47
 70
     1
102
RTVSPropertyOp48
 70
     1
102
RTVSPropertyOp49
 70
     1
102
RTVSPropertyOp50
 70
     1
102
RTVSPropertyOp51
 70
     0
102
RTVSPropertyOp52
 70
     0
102
RTVSPropertyOp53
 70
     1
102
RTVSPropertyOp54
 70
     1
102
RTVSPropertyOp55
 70
     1
102
RTVSPropertyOp56
 70
     1
102
RTVSPropertyOp57
 70
     1
102
RTVSPost2010Prop28
280
     0
102
RTVSPost2010PropOp28
 70
     1
102
RTVSPost2010Prop29
280
     1
102
RTVSPost2010PropOp29
 70
     1
102
RTVSPost2010Prop30
280
     1
102
RTVSPost2010PropOp30
 70
     1
102
RTVSPost2010Prop31
280
     0
102
RTVSPost2010PropOp31
 70
     1
102
RTVSPost2010Prop32
280
     0
102
RTVSPost2010PropOp32
 70
     1
102
RTVSPost2010Prop33
280
     0
102
RTVSPost2010PropOp33
 70
     1
102
RTVSPost2010Prop34
280
     0
102
RTVSPost2010PropOp34
 70
     1
102
RTVSPost2010Prop35
280
     0
102
RTVSPost2010PropOp35
 70
     1
102
RTVSPost2010Prop36
280
     0
102
RTVSPost2010PropOp36
 70
     1
102
RTVSPost2010Prop37
 90
       50
102
RTVSPost2010PropOp37
 70
     1
102
RTVSPost2010Prop38
140
0.0
102
RTVSPost2010PropOp38
 70
     1
102
RTVSPost2010Prop39
140
1.0
102
RTVSPost2010PropOp39
 70
     1
102
RTVSPost2010Prop40
 90
        0
102
RTVSPost2010PropOp40
 70
     1
102
RTVSPost2010Prop41ColorIndex
 90
       18
102
RTVSPost2010Prop41ColorRGB
 90
        0
102
RTVSPost2010PropOp41
 70
     1
102
RTVSPost2010Prop42
 90
       50
102
RTVSPost2010PropOp42
 70
     1
102
RTVSPost2010Prop43
 90
        3
102
RTVSPost2010PropOp43
 70
     1
102
RTVSPost2010Prop44ColorIndex
 90
        5
102
RTVSPost2010Prop44ColorRGB
 90
      255
102
RTVSPost2010PropOp44
 70
     1
102
RTVSPost2010Prop45
280
     0
102
RTVSPost2010PropOp45
 70
     1
102
RTVSPost2010Prop46
 90
       50
102
RTVSPost2010PropOp46
 70
     1
102
RTVSPost2010Prop47
 90
       50
102
RTVSPost2010PropOp47
 70
     1
102
RTVSPost2010Prop48
 90
       50
102
RTVSPost2010PropOp48
 70
     1
102
RTVSPost2010Prop49
280
     0
102
RTVSPost2010PropOp49
 70
     1
102
RTVSPost2010Prop50
 90
       50
102
RTVSPost2010PropOp50
 70
     1
102
RTVSPost2010Prop51ColorIndex
 90
      256
102
RTVSPost2010Prop51ColorRGB
 90
-16777216
102
RTVSPost2010PropOp51
 70
     0
102
RTVSPost2010Prop52
140
1.0
102
RTVSPost2010PropOp52
 70
     0
102
RTVSPost2010Prop53
 90
        2
102
RTVSPost2010PropOp53
 70
     1
102
RTVSPost2010Prop54
  1
strokes_ogs.tif
102
RTVSPost2010PropOp54
 70
     1
102
RTVSPost2010Prop55
280
     0
102
RTVSPost2010PropOp55
 70
     1
102
RTVSPost2010Prop56
140
1.0
102
RTVSPost2010PropOp56
 70
     1
102
RTVSPost2010Prop57
140
1.0
102
RTVSPost2010PropOp57
 70
     1
  0
XRECORD
  5
106AD40
102
{ACAD_REACTORS
330
106AD3F
102
}
330
106AD3F
100
AcDbXrecord
280
     1
102
RTVSPropertyOp0
 70
     1
102
RTVSPropertyOp1
 70
     1
102
RTVSPropertyOp2
 70
     1
102
RTVSPropertyOp3
 70
     1
102
RTVSPropertyOp4
 70
     1
102
RTVSPropertyOp5
 70
     1
102
RTVSPropertyOp6
 70
     1
102
RTVSPropertyOp7
 70
     1
102
RTVSPropertyOp8
 70
     1
102
RTVSPropertyOp9
 70
     1
102
RTVSPropertyOp10
 70
     1
102
RTVSPropertyOp11
 70
     1
102
RTVSPropertyOp12
 70
     1
102
RTVSPropertyOp13
 70
     1
102
RTVSPropertyOp14
 70
     1
102
RTVSPropertyOp15
 70
     1
102
RTVSPropertyOp16
 70
     1
102
RTVSPropertyOp17
 70
     1
102
RTVSPropertyOp18
 70
     1
102
RTVSPropertyOp19
 70
     1
102
RTVSPropertyOp20
 70
     1
102
RTVSPropertyOp21
 70
     1
102
RTVSPropertyOp22
 70
     1
102
RTVSPropertyOp23
 70
     1
102
RTVSPropertyOp24
 70
     1
102
RTVSPropertyOp25
 70
     1
102
RTVSPropertyOp26
 70
     1
102
RTVSPropertyOp27
 70
     1
102
RTVSPropertyOp28
 70
     1
102
RTVSPropertyOp29
 70
     1
102
RTVSPropertyOp30
 70
     1
102
RTVSPropertyOp31
 70
     1
102
RTVSPropertyOp32
 70
     1
102
RTVSPropertyOp33
 70
     1
102
RTVSPropertyOp34
 70
     1
102
RTVSPropertyOp35
 70
     1
102
RTVSPropertyOp36
 70
     1
102
RTVSPropertyOp37
 70
     1
102
RTVSPropertyOp38
 70
     1
102
RTVSPropertyOp39
 70
     1
102
RTVSPropertyOp40
 70
     1
102
RTVSPropertyOp41
 70
     1
102
RTVSPropertyOp42
 70
     1
102
RTVSPropertyOp43
 70
     1
102
RTVSPropertyOp44
 70
     1
102
RTVSPropertyOp45
 70
     1
102
RTVSPropertyOp46
 70
     1
102
RTVSPropertyOp47
 70
     1
102
RTVSPropertyOp48
 70
     1
102
RTVSPropertyOp49
 70
     1
102
RTVSPropertyOp50
 70
     1
102
RTVSPropertyOp51
 70
     0
102
RTVSPropertyOp52
 70
     0
102
RTVSPropertyOp53
 70
     1
102
RTVSPropertyOp54
 70
     1
102
RTVSPropertyOp55
 70
     1
102
RTVSPropertyOp56
 70
     1
102
RTVSPropertyOp57
 70
     1
102
RTVSPost2010Prop28
280
     0
102
RTVSPost2010PropOp28
 70
     1
102
RTVSPost2010Prop29
280
     1
102
RTVSPost2010PropOp29
 70
     1
102
RTVSPost2010Prop30
280
     1
102
RTVSPost2010PropOp30
 70
     1
102
RTVSPost2010Prop31
280
     0
102
RTVSPost2010PropOp31
 70
     1
102
RTVSPost2010Prop32
280
     0
102
RTVSPost2010PropOp32
 70
     1
102
RTVSPost2010Prop33
280
     0
102
RTVSPost2010PropOp33
 70
     1
102
RTVSPost2010Prop34
280
     0
102
RTVSPost2010PropOp34
 70
     1
102
RTVSPost2010Prop35
280
     0
102
RTVSPost2010PropOp35
 70
     1
102
RTVSPost2010Prop36
280
     0
102
RTVSPost2010PropOp36
 70
     1
102
RTVSPost2010Prop37
 90
       50
102
RTVSPost2010PropOp37
 70
     1
102
RTVSPost2010Prop38
140
0.0
102
RTVSPost2010PropOp38
 70
     1
102
RTVSPost2010Prop39
140
1.0
102
RTVSPost2010PropOp39
 70
     1
102
RTVSPost2010Prop40
 90
        0
102
RTVSPost2010PropOp40
 70
     1
102
RTVSPost2010Prop41ColorIndex
 90
       18
102
RTVSPost2010Prop41ColorRGB
 90
        0
102
RTVSPost2010PropOp41
 70
     1
102
RTVSPost2010Prop42
 90
       50
102
RTVSPost2010PropOp42
 70
     1
102
RTVSPost2010Prop43
 90
        3
102
RTVSPost2010PropOp43
 70
     1
102
RTVSPost2010Prop44ColorIndex
 90
        5
102
RTVSPost2010Prop44ColorRGB
 90
      255
102
RTVSPost2010PropOp44
 70
     1
102
RTVSPost2010Prop45
280
     0
102
RTVSPost2010PropOp45
 70
     1
102
RTVSPost2010Prop46
 90
       50
102
RTVSPost2010PropOp46
 70
     1
102
RTVSPost2010Prop47
 90
       50
102
RTVSPost2010PropOp47
 70
     1
102
RTVSPost2010Prop48
 90
       50
102
RTVSPost2010PropOp48
 70
     1
102
RTVSPost2010Prop49
280
     0
102
RTVSPost2010PropOp49
 70
     1
102
RTVSPost2010Prop50
 90
       50
102
RTVSPost2010PropOp50
 70
     1
102
RTVSPost2010Prop51ColorIndex
 90
      256
102
RTVSPost2010Prop51ColorRGB
 90
-16777216
102
RTVSPost2010PropOp51
 70
     0
102
RTVSPost2010Prop52
140
1.0
102
RTVSPost2010PropOp52
 70
     0
102
RTVSPost2010Prop53
 90
        2
102
RTVSPost2010PropOp53
 70
     1
102
RTVSPost2010Prop54
  1
strokes_ogs.tif
102
RTVSPost2010PropOp54
 70
     1
102
RTVSPost2010Prop55
280
     0
102
RTVSPost2010PropOp55
 70
     1
102
RTVSPost2010Prop56
140
1.0
102
RTVSPost2010PropOp56
 70
     1
102
RTVSPost2010Prop57
140
1.0
102
RTVSPost2010PropOp57
 70
     1
  0
XRECORD
  5
106AD42
102
{ACAD_REACTORS
330
106AD41
102
}
330
106AD41
100
AcDbXrecord
280
     1
102
RTVSPropertyOp0
 70
     1
102
RTVSPropertyOp1
 70
     1
102
RTVSPropertyOp2
 70
     1
102
RTVSPropertyOp3
 70
     1
102
RTVSPropertyOp4
 70
     1
102
RTVSPropertyOp5
 70
     1
102
RTVSPropertyOp6
 70
     1
102
RTVSPropertyOp7
 70
     1
102
RTVSPropertyOp8
 70
     1
102
RTVSPropertyOp9
 70
     1
102
RTVSPropertyOp10
 70
     1
102
RTVSPropertyOp11
 70
     1
102
RTVSPropertyOp12
 70
     1
102
RTVSPropertyOp13
 70
     1
102
RTVSPropertyOp14
 70
     1
102
RTVSPropertyOp15
 70
     1
102
RTVSPropertyOp16
 70
     1
102
RTVSPropertyOp17
 70
     1
102
RTVSPropertyOp18
 70
     1
102
RTVSPropertyOp19
 70
     1
102
RTVSPropertyOp20
 70
     1
102
RTVSPropertyOp21
 70
     1
102
RTVSPropertyOp22
 70
     1
102
RTVSPropertyOp23
 70
     1
102
RTVSPropertyOp24
 70
     1
102
RTVSPropertyOp25
 70
     1
102
RTVSPropertyOp26
 70
     1
102
RTVSPropertyOp27
 70
     1
102
RTVSPropertyOp28
 70
     1
102
RTVSPropertyOp29
 70
     1
102
RTVSPropertyOp30
 70
     1
102
RTVSPropertyOp31
 70
     1
102
RTVSPropertyOp32
 70
     1
102
RTVSPropertyOp33
 70
     1
102
RTVSPropertyOp34
 70
     1
102
RTVSPropertyOp35
 70
     1
102
RTVSPropertyOp36
 70
     1
102
RTVSPropertyOp37
 70
     1
102
RTVSPropertyOp38
 70
     1
102
RTVSPropertyOp39
 70
     1
102
RTVSPropertyOp40
 70
     1
102
RTVSPropertyOp41
 70
     1
102
RTVSPropertyOp42
 70
     1
102
RTVSPropertyOp43
 70
     1
102
RTVSPropertyOp44
 70
     1
102
RTVSPropertyOp45
 70
     1
102
RTVSPropertyOp46
 70
     1
102
RTVSPropertyOp47
 70
     1
102
RTVSPropertyOp48
 70
     1
102
RTVSPropertyOp49
 70
     1
102
RTVSPropertyOp50
 70
     1
102
RTVSPropertyOp51
 70
     0
102
RTVSPropertyOp52
 70
     0
102
RTVSPropertyOp53
 70
     1
102
RTVSPropertyOp54
 70
     1
102
RTVSPropertyOp55
 70
     1
102
RTVSPropertyOp56
 70
     1
102
RTVSPropertyOp57
 70
     1
102
RTVSPost2010Prop28
280
     0
102
RTVSPost2010PropOp28
 70
     1
102
RTVSPost2010Prop29
280
     1
102
RTVSPost2010PropOp29
 70
     1
102
RTVSPost2010Prop30
280
     1
102
RTVSPost2010PropOp30
 70
     1
102
RTVSPost2010Prop31
280
     0
102
RTVSPost2010PropOp31
 70
     1
102
RTVSPost2010Prop32
280
     0
102
RTVSPost2010PropOp32
 70
     1
102
RTVSPost2010Prop33
280
     0
102
RTVSPost2010PropOp33
 70
     1
102
RTVSPost2010Prop34
280
     0
102
RTVSPost2010PropOp34
 70
     1
102
RTVSPost2010Prop35
280
     0
102
RTVSPost2010PropOp35
 70
     1
102
RTVSPost2010Prop36
280
     0
102
RTVSPost2010PropOp36
 70
     1
102
RTVSPost2010Prop37
 90
       50
102
RTVSPost2010PropOp37
 70
     1
102
RTVSPost2010Prop38
140
0.0
102
RTVSPost2010PropOp38
 70
     1
102
RTVSPost2010Prop39
140
1.0
102
RTVSPost2010PropOp39
 70
     1
102
RTVSPost2010Prop40
 90
        0
102
RTVSPost2010PropOp40
 70
     1
102
RTVSPost2010Prop41ColorIndex
 90
       18
102
RTVSPost2010Prop41ColorRGB
 90
        0
102
RTVSPost2010PropOp41
 70
     1
102
RTVSPost2010Prop42
 90
       50
102
RTVSPost2010PropOp42
 70
     1
102
RTVSPost2010Prop43
 90
        3
102
RTVSPost2010PropOp43
 70
     1
102
RTVSPost2010Prop44ColorIndex
 90
        5
102
RTVSPost2010Prop44ColorRGB
 90
      255
102
RTVSPost2010PropOp44
 70
     1
102
RTVSPost2010Prop45
280
     0
102
RTVSPost2010PropOp45
 70
     1
102
RTVSPost2010Prop46
 90
       50
102
RTVSPost2010PropOp46
 70
     1
102
RTVSPost2010Prop47
 90
       50
102
RTVSPost2010PropOp47
 70
     1
102
RTVSPost2010Prop48
 90
       50
102
RTVSPost2010PropOp48
 70
     1
102
RTVSPost2010Prop49
280
     0
102
RTVSPost2010PropOp49
 70
     1
102
RTVSPost2010Prop50
 90
       50
102
RTVSPost2010PropOp50
 70
     1
102
RTVSPost2010Prop51ColorIndex
 90
      256
102
RTVSPost2010Prop51ColorRGB
 90
-16777216
102
RTVSPost2010PropOp51
 70
     0
102
RTVSPost2010Prop52
140
1.0
102
RTVSPost2010PropOp52
 70
     0
102
RTVSPost2010Prop53
 90
        2
102
RTVSPost2010PropOp53
 70
     1
102
RTVSPost2010Prop54
  1
strokes_ogs.tif
102
RTVSPost2010PropOp54
 70
     1
102
RTVSPost2010Prop55
280
     0
102
RTVSPost2010PropOp55
 70
     1
102
RTVSPost2010Prop56
140
1.0
102
RTVSPost2010PropOp56
 70
     1
102
RTVSPost2010Prop57
140
1.0
102
RTVSPost2010PropOp57
 70
     1
  0
XRECORD
  5
106AD44
102
{ACAD_REACTORS
330
106AD43
102
}
330
106AD43
100
AcDbXrecord
280
     1
102
RTVSPropertyOp0
 70
     1
102
RTVSPropertyOp1
 70
     1
102
RTVSPropertyOp2
 70
     1
102
RTVSPropertyOp3
 70
     1
102
RTVSPropertyOp4
 70
     1
102
RTVSPropertyOp5
 70
     1
102
RTVSPropertyOp6
 70
     1
102
RTVSPropertyOp7
 70
     1
102
RTVSPropertyOp8
 70
     1
102
RTVSPropertyOp9
 70
     1
102
RTVSPropertyOp10
 70
     1
102
RTVSPropertyOp11
 70
     1
102
RTVSPropertyOp12
 70
     1
102
RTVSPropertyOp13
 70
     1
102
RTVSPropertyOp14
 70
     1
102
RTVSPropertyOp15
 70
     1
102
RTVSPropertyOp16
 70
     1
102
RTVSPropertyOp17
 70
     1
102
RTVSPropertyOp18
 70
     1
102
RTVSPropertyOp19
 70
     1
102
RTVSPropertyOp20
 70
     1
102
RTVSPropertyOp21
 70
     1
102
RTVSPropertyOp22
 70
     1
102
RTVSPropertyOp23
 70
     1
102
RTVSPropertyOp24
 70
     1
102
RTVSPropertyOp25
 70
     1
102
RTVSPropertyOp26
 70
     1
102
RTVSPropertyOp27
 70
     1
102
RTVSPropertyOp28
 70
     1
102
RTVSPropertyOp29
 70
     1
102
RTVSPropertyOp30
 70
     1
102
RTVSPropertyOp31
 70
     1
102
RTVSPropertyOp32
 70
     1
102
RTVSPropertyOp33
 70
     1
102
RTVSPropertyOp34
 70
     1
102
RTVSPropertyOp35
 70
     1
102
RTVSPropertyOp36
 70
     1
102
RTVSPropertyOp37
 70
     1
102
RTVSPropertyOp38
 70
     1
102
RTVSPropertyOp39
 70
     1
102
RTVSPropertyOp40
 70
     1
102
RTVSPropertyOp41
 70
     1
102
RTVSPropertyOp42
 70
     1
102
RTVSPropertyOp43
 70
     1
102
RTVSPropertyOp44
 70
     1
102
RTVSPropertyOp45
 70
     1
102
RTVSPropertyOp46
 70
     1
102
RTVSPropertyOp47
 70
     1
102
RTVSPropertyOp48
 70
     1
102
RTVSPropertyOp49
 70
     1
102
RTVSPropertyOp50
 70
     1
102
RTVSPropertyOp51
 70
     0
102
RTVSPropertyOp52
 70
     0
102
RTVSPropertyOp53
 70
     1
102
RTVSPropertyOp54
 70
     1
102
RTVSPropertyOp55
 70
     1
102
RTVSPropertyOp56
 70
     1
102
RTVSPropertyOp57
 70
     1
102
RTVSPost2010Prop28
280
     0
102
RTVSPost2010PropOp28
 70
     1
102
RTVSPost2010Prop29
280
     1
102
RTVSPost2010PropOp29
 70
     1
102
RTVSPost2010Prop30
280
     1
102
RTVSPost2010PropOp30
 70
     1
102
RTVSPost2010Prop31
280
     0
102
RTVSPost2010PropOp31
 70
     1
102
RTVSPost2010Prop32
280
     0
102
RTVSPost2010PropOp32
 70
     1
102
RTVSPost2010Prop33
280
     0
102
RTVSPost2010PropOp33
 70
     1
102
RTVSPost2010Prop34
280
     0
102
RTVSPost2010PropOp34
 70
     1
102
RTVSPost2010Prop35
280
     0
102
RTVSPost2010PropOp35
 70
     1
102
RTVSPost2010Prop36
280
     0
102
RTVSPost2010PropOp36
 70
     1
102
RTVSPost2010Prop37
 90
       50
102
RTVSPost2010PropOp37
 70
     1
102
RTVSPost2010Prop38
140
0.0
102
RTVSPost2010PropOp38
 70
     1
102
RTVSPost2010Prop39
140
1.0
102
RTVSPost2010PropOp39
 70
     1
102
RTVSPost2010Prop40
 90
        0
102
RTVSPost2010PropOp40
 70
     1
102
RTVSPost2010Prop41ColorIndex
 90
       18
102
RTVSPost2010Prop41ColorRGB
 90
        0
102
RTVSPost2010PropOp41
 70
     1
102
RTVSPost2010Prop42
 90
       50
102
RTVSPost2010PropOp42
 70
     1
102
RTVSPost2010Prop43
 90
        3
102
RTVSPost2010PropOp43
 70
     1
102
RTVSPost2010Prop44ColorIndex
 90
        5
102
RTVSPost2010Prop44ColorRGB
 90
      255
102
RTVSPost2010PropOp44
 70
     1
102
RTVSPost2010Prop45
280
     0
102
RTVSPost2010PropOp45
 70
     1
102
RTVSPost2010Prop46
 90
       50
102
RTVSPost2010PropOp46
 70
     1
102
RTVSPost2010Prop47
 90
       50
102
RTVSPost2010PropOp47
 70
     1
102
RTVSPost2010Prop48
 90
       50
102
RTVSPost2010PropOp48
 70
     1
102
RTVSPost2010Prop49
280
     0
102
RTVSPost2010PropOp49
 70
     1
102
RTVSPost2010Prop50
 90
       50
102
RTVSPost2010PropOp50
 70
     1
102
RTVSPost2010Prop51ColorIndex
 90
      256
102
RTVSPost2010Prop51ColorRGB
 90
-16777216
102
RTVSPost2010PropOp51
 70
     0
102
RTVSPost2010Prop52
140
1.0
102
RTVSPost2010PropOp52
 70
     0
102
RTVSPost2010Prop53
 90
        2
102
RTVSPost2010PropOp53
 70
     1
102
RTVSPost2010Prop54
  1
strokes_ogs.tif
102
RTVSPost2010PropOp54
 70
     1
102
RTVSPost2010Prop55
280
     0
102
RTVSPost2010PropOp55
 70
     1
102
RTVSPost2010Prop56
140
1.0
102
RTVSPost2010PropOp56
 70
     1
102
RTVSPost2010Prop57
140
1.0
102
RTVSPost2010PropOp57
 70
     1
  0
XRECORD
  5
106AD46
102
{ACAD_REACTORS
330
106AD45
102
}
330
106AD45
100
AcDbXrecord
280
     1
102
RTVSPropertyOp0
 70
     0
102
RTVSPropertyOp1
 70
     0
102
RTVSPropertyOp2
 70
     0
102
RTVSPropertyOp3
 70
     0
102
RTVSPropertyOp4
 70
     0
102
RTVSPropertyOp5
 70
     0
102
RTVSPropertyOp6
 70
     0
102
RTVSPropertyOp7
 70
     0
102
RTVSPropertyOp8
 70
     0
102
RTVSPropertyOp9
 70
     0
102
RTVSPropertyOp10
 70
     0
102
RTVSPropertyOp11
 70
     0
102
RTVSPropertyOp12
 70
     0
102
RTVSPropertyOp13
 70
     0
102
RTVSPropertyOp14
 70
     2
102
RTVSPropertyOp15
 70
     0
102
RTVSPropertyOp16
 70
     0
102
RTVSPropertyOp17
 70
     0
102
RTVSPropertyOp18
 70
     0
102
RTVSPropertyOp19
 70
     0
102
RTVSPropertyOp20
 70
     0
102
RTVSPropertyOp21
 70
     0
102
RTVSPropertyOp22
 70
     0
102
RTVSPropertyOp23
 70
     0
102
RTVSPropertyOp24
 70
     0
102
RTVSPropertyOp25
 70
     0
102
RTVSPropertyOp26
 70
     0
102
RTVSPropertyOp27
 70
     0
102
RTVSPropertyOp28
 70
     0
102
RTVSPropertyOp29
 70
     0
102
RTVSPropertyOp30
 70
     0
102
RTVSPropertyOp31
 70
     0
102
RTVSPropertyOp32
 70
     0
102
RTVSPropertyOp33
 70
     0
102
RTVSPropertyOp34
 70
     0
102
RTVSPropertyOp35
 70
     0
102
RTVSPropertyOp36
 70
     0
102
RTVSPropertyOp37
 70
     0
102
RTVSPropertyOp38
 70
     0
102
RTVSPropertyOp39
 70
     0
102
RTVSPropertyOp40
 70
     0
102
RTVSPropertyOp41
 70
     0
102
RTVSPropertyOp42
 70
     0
102
RTVSPropertyOp43
 70
     0
102
RTVSPropertyOp44
 70
     0
102
RTVSPropertyOp45
 70
     0
102
RTVSPropertyOp46
 70
     0
102
RTVSPropertyOp47
 70
     0
102
RTVSPropertyOp48
 70
     0
102
RTVSPropertyOp49
 70
     0
102
RTVSPropertyOp50
 70
     0
102
RTVSPropertyOp51
 70
     0
102
RTVSPropertyOp52
 70
     0
102
RTVSPropertyOp53
 70
     0
102
RTVSPropertyOp54
 70
     0
102
RTVSPropertyOp55
 70
     0
102
RTVSPropertyOp56
 70
     0
102
RTVSPropertyOp57
 70
     0
102
RTVSPost2010Prop28
280
     0
102
RTVSPost2010PropOp28
 70
     0
102
RTVSPost2010Prop29
280
     1
102
RTVSPost2010PropOp29
 70
     0
102
RTVSPost2010Prop30
280
     1
102
RTVSPost2010PropOp30
 70
     0
102
RTVSPost2010Prop31
280
     0
102
RTVSPost2010PropOp31
 70
     0
102
RTVSPost2010Prop32
280
     0
102
RTVSPost2010PropOp32
 70
     0
102
RTVSPost2010Prop33
280
     0
102
RTVSPost2010PropOp33
 70
     0
102
RTVSPost2010Prop34
280
     0
102
RTVSPost2010PropOp34
 70
     0
102
RTVSPost2010Prop35
280
     0
102
RTVSPost2010PropOp35
 70
     0
102
RTVSPost2010Prop36
280
     0
102
RTVSPost2010PropOp36
 70
     0
102
RTVSPost2010Prop37
 90
       50
102
RTVSPost2010PropOp37
 70
     0
102
RTVSPost2010Prop38
140
0.0
102
RTVSPost2010PropOp38
 70
     0
102
RTVSPost2010Prop39
140
1.0
102
RTVSPost2010PropOp39
 70
     0
102
RTVSPost2010Prop40
 90
        0
102
RTVSPost2010PropOp40
 70
     0
102
RTVSPost2010Prop41ColorIndex
 90
       18
102
RTVSPost2010Prop41ColorRGB
 90
        0
102
RTVSPost2010PropOp41
 70
     0
102
RTVSPost2010Prop42
 90
       50
102
RTVSPost2010PropOp42
 70
     0
102
RTVSPost2010Prop43
 90
        3
102
RTVSPost2010PropOp43
 70
     0
102
RTVSPost2010Prop44ColorIndex
 90
        5
102
RTVSPost2010Prop44ColorRGB
 90
      255
102
RTVSPost2010PropOp44
 70
     0
102
RTVSPost2010Prop45
280
     0
102
RTVSPost2010PropOp45
 70
     0
102
RTVSPost2010Prop46
 90
       50
102
RTVSPost2010PropOp46
 70
     0
102
RTVSPost2010Prop47
 90
       50
102
RTVSPost2010PropOp47
 70
     0
102
RTVSPost2010Prop48
 90
       50
102
RTVSPost2010PropOp48
 70
     0
102
RTVSPost2010Prop49
280
     0
102
RTVSPost2010PropOp49
 70
     0
102
RTVSPost2010Prop50
 90
       50
102
RTVSPost2010PropOp50
 70
     0
102
RTVSPost2010Prop51ColorIndex
 90
      256
102
RTVSPost2010Prop51ColorRGB
 90
-16777216
102
RTVSPost2010PropOp51
 70
     0
102
RTVSPost2010Prop52
140
1.0
102
RTVSPost2010PropOp52
 70
     0
102
RTVSPost2010Prop53
 90
        2
102
RTVSPost2010PropOp53
 70
     0
102
RTVSPost2010Prop54
  1
strokes_ogs.tif
102
RTVSPost2010PropOp54
 70
     0
102
RTVSPost2010Prop55
280
     0
102
RTVSPost2010PropOp55
 70
     0
102
RTVSPost2010Prop56
140
1.0
102
RTVSPost2010PropOp56
 70
     0
102
RTVSPost2010Prop57
140
1.0
102
RTVSPost2010PropOp57
 70
     0
  0
XRECORD
  5
106AD48
102
{ACAD_REACTORS
330
106AD47
102
}
330
106AD47
100
AcDbXrecord
280
     1
102
RTVSPropertyOp0
 70
     1
102
RTVSPropertyOp1
 70
     1
102
RTVSPropertyOp2
 70
     1
102
RTVSPropertyOp3
 70
     1
102
RTVSPropertyOp4
 70
     1
102
RTVSPropertyOp5
 70
     1
102
RTVSPropertyOp6
 70
     1
102
RTVSPropertyOp7
 70
     1
102
RTVSPropertyOp8
 70
     1
102
RTVSPropertyOp9
 70
     1
102
RTVSPropertyOp10
 70
     1
102
RTVSPropertyOp11
 70
     1
102
RTVSPropertyOp12
 70
     1
102
RTVSPropertyOp13
 70
     1
102
RTVSPropertyOp14
 70
     1
102
RTVSPropertyOp15
 70
     1
102
RTVSPropertyOp16
 70
     1
102
RTVSPropertyOp17
 70
     1
102
RTVSPropertyOp18
 70
     1
102
RTVSPropertyOp19
 70
     1
102
RTVSPropertyOp20
 70
     1
102
RTVSPropertyOp21
 70
     1
102
RTVSPropertyOp22
 70
     1
102
RTVSPropertyOp23
 70
     1
102
RTVSPropertyOp24
 70
     1
102
RTVSPropertyOp25
 70
     1
102
RTVSPropertyOp26
 70
     1
102
RTVSPropertyOp27
 70
     1
102
RTVSPropertyOp28
 70
     1
102
RTVSPropertyOp29
 70
     1
102
RTVSPropertyOp30
 70
     1
102
RTVSPropertyOp31
 70
     1
102
RTVSPropertyOp32
 70
     1
102
RTVSPropertyOp33
 70
     1
102
RTVSPropertyOp34
 70
     1
102
RTVSPropertyOp35
 70
     1
102
RTVSPropertyOp36
 70
     1
102
RTVSPropertyOp37
 70
     1
102
RTVSPropertyOp38
 70
     1
102
RTVSPropertyOp39
 70
     1
102
RTVSPropertyOp40
 70
     1
102
RTVSPropertyOp41
 70
     1
102
RTVSPropertyOp42
 70
     1
102
RTVSPropertyOp43
 70
     1
102
RTVSPropertyOp44
 70
     1
102
RTVSPropertyOp45
 70
     1
102
RTVSPropertyOp46
 70
     1
102
RTVSPropertyOp47
 70
     1
102
RTVSPropertyOp48
 70
     1
102
RTVSPropertyOp49
 70
     1
102
RTVSPropertyOp50
 70
     1
102
RTVSPropertyOp51
 70
     0
102
RTVSPropertyOp52
 70
     0
102
RTVSPropertyOp53
 70
     1
102
RTVSPropertyOp54
 70
     1
102
RTVSPropertyOp55
 70
     1
102
RTVSPropertyOp56
 70
     1
102
RTVSPropertyOp57
 70
     1
102
RTVSPost2010Prop28
280
     0
102
RTVSPost2010PropOp28
 70
     1
102
RTVSPost2010Prop29
280
     1
102
RTVSPost2010PropOp29
 70
     1
102
RTVSPost2010Prop30
280
     1
102
RTVSPost2010PropOp30
 70
     1
102
RTVSPost2010Prop31
280
     0
102
RTVSPost2010PropOp31
 70
     1
102
RTVSPost2010Prop32
280
     0
102
RTVSPost2010PropOp32
 70
     1
102
RTVSPost2010Prop33
280
     0
102
RTVSPost2010PropOp33
 70
     1
102
RTVSPost2010Prop34
280
     0
102
RTVSPost2010PropOp34
 70
     1
102
RTVSPost2010Prop35
280
     0
102
RTVSPost2010PropOp35
 70
     1
102
RTVSPost2010Prop36
280
     0
102
RTVSPost2010PropOp36
 70
     1
102
RTVSPost2010Prop37
 90
       50
102
RTVSPost2010PropOp37
 70
     1
102
RTVSPost2010Prop38
140
0.0
102
RTVSPost2010PropOp38
 70
     1
102
RTVSPost2010Prop39
140
1.0
102
RTVSPost2010PropOp39
 70
     1
102
RTVSPost2010Prop40
 90
        0
102
RTVSPost2010PropOp40
 70
     1
102
RTVSPost2010Prop41ColorIndex
 90
       18
102
RTVSPost2010Prop41ColorRGB
 90
        0
102
RTVSPost2010PropOp41
 70
     1
102
RTVSPost2010Prop42
 90
       50
102
RTVSPost2010PropOp42
 70
     1
102
RTVSPost2010Prop43
 90
        3
102
RTVSPost2010PropOp43
 70
     1
102
RTVSPost2010Prop44ColorIndex
 90
        5
102
RTVSPost2010Prop44ColorRGB
 90
      255
102
RTVSPost2010PropOp44
 70
     1
102
RTVSPost2010Prop45
280
     0
102
RTVSPost2010PropOp45
 70
     1
102
RTVSPost2010Prop46
 90
       50
102
RTVSPost2010PropOp46
 70
     1
102
RTVSPost2010Prop47
 90
       50
102
RTVSPost2010PropOp47
 70
     1
102
RTVSPost2010Prop48
 90
       50
102
RTVSPost2010PropOp48
 70
     1
102
RTVSPost2010Prop49
280
     0
102
RTVSPost2010PropOp49
 70
     1
102
RTVSPost2010Prop50
 90
       50
102
RTVSPost2010PropOp50
 70
     1
102
RTVSPost2010Prop51ColorIndex
 90
      256
102
RTVSPost2010Prop51ColorRGB
 90
-16777216
102
RTVSPost2010PropOp51
 70
     0
102
RTVSPost2010Prop52
140
1.0
102
RTVSPost2010PropOp52
 70
     0
102
RTVSPost2010Prop53
 90
        2
102
RTVSPost2010PropOp53
 70
     1
102
RTVSPost2010Prop54
  1
strokes_ogs.tif
102
RTVSPost2010PropOp54
 70
     1
102
RTVSPost2010Prop55
280
     0
102
RTVSPost2010PropOp55
 70
     1
102
RTVSPost2010Prop56
140
1.0
102
RTVSPost2010PropOp56
 70
     1
102
RTVSPost2010Prop57
140
1.0
102
RTVSPost2010PropOp57
 70
     1
  0
XRECORD
  5
106AD4A
102
{ACAD_REACTORS
330
106AD49
102
}
330
106AD49
100
AcDbXrecord
280
     1
102
RTVSPropertyOp0
 70
     1
102
RTVSPropertyOp1
 70
     1
102
RTVSPropertyOp2
 70
     1
102
RTVSPropertyOp3
 70
     1
102
RTVSPropertyOp4
 70
     1
102
RTVSPropertyOp5
 70
     1
102
RTVSPropertyOp6
 70
     1
102
RTVSPropertyOp7
 70
     1
102
RTVSPropertyOp8
 70
     1
102
RTVSPropertyOp9
 70
     1
102
RTVSPropertyOp10
 70
     1
102
RTVSPropertyOp11
 70
     1
102
RTVSPropertyOp12
 70
     1
102
RTVSPropertyOp13
 70
     1
102
RTVSPropertyOp14
 70
     1
102
RTVSPropertyOp15
 70
     1
102
RTVSPropertyOp16
 70
     1
102
RTVSPropertyOp17
 70
     1
102
RTVSPropertyOp18
 70
     1
102
RTVSPropertyOp19
 70
     1
102
RTVSPropertyOp20
 70
     1
102
RTVSPropertyOp21
 70
     1
102
RTVSPropertyOp22
 70
     1
102
RTVSPropertyOp23
 70
     1
102
RTVSPropertyOp24
 70
     1
102
RTVSPropertyOp25
 70
     1
102
RTVSPropertyOp26
 70
     1
102
RTVSPropertyOp27
 70
     1
102
RTVSPropertyOp28
 70
     1
102
RTVSPropertyOp29
 70
     1
102
RTVSPropertyOp30
 70
     1
102
RTVSPropertyOp31
 70
     1
102
RTVSPropertyOp32
 70
     1
102
RTVSPropertyOp33
 70
     1
102
RTVSPropertyOp34
 70
     1
102
RTVSPropertyOp35
 70
     1
102
RTVSPropertyOp36
 70
     1
102
RTVSPropertyOp37
 70
     1
102
RTVSPropertyOp38
 70
     1
102
RTVSPropertyOp39
 70
     1
102
RTVSPropertyOp40
 70
     1
102
RTVSPropertyOp41
 70
     1
102
RTVSPropertyOp42
 70
     1
102
RTVSPropertyOp43
 70
     1
102
RTVSPropertyOp44
 70
     1
102
RTVSPropertyOp45
 70
     1
102
RTVSPropertyOp46
 70
     1
102
RTVSPropertyOp47
 70
     1
102
RTVSPropertyOp48
 70
     1
102
RTVSPropertyOp49
 70
     1
102
RTVSPropertyOp50
 70
     1
102
RTVSPropertyOp51
 70
     0
102
RTVSPropertyOp52
 70
     0
102
RTVSPropertyOp53
 70
     1
102
RTVSPropertyOp54
 70
     1
102
RTVSPropertyOp55
 70
     1
102
RTVSPropertyOp56
 70
     1
102
RTVSPropertyOp57
 70
     1
102
RTVSPost2010Prop28
280
     0
102
RTVSPost2010PropOp28
 70
     1
102
RTVSPost2010Prop29
280
     1
102
RTVSPost2010PropOp29
 70
     1
102
RTVSPost2010Prop30
280
     1
102
RTVSPost2010PropOp30
 70
     1
102
RTVSPost2010Prop31
280
     0
102
RTVSPost2010PropOp31
 70
     1
102
RTVSPost2010Prop32
280
     0
102
RTVSPost2010PropOp32
 70
     1
102
RTVSPost2010Prop33
280
     0
102
RTVSPost2010PropOp33
 70
     1
102
RTVSPost2010Prop34
280
     0
102
RTVSPost2010PropOp34
 70
     1
102
RTVSPost2010Prop35
280
     0
102
RTVSPost2010PropOp35
 70
     1
102
RTVSPost2010Prop36
280
     0
102
RTVSPost2010PropOp36
 70
     1
102
RTVSPost2010Prop37
 90
       50
102
RTVSPost2010PropOp37
 70
     1
102
RTVSPost2010Prop38
140
0.0
102
RTVSPost2010PropOp38
 70
     1
102
RTVSPost2010Prop39
140
1.0
102
RTVSPost2010PropOp39
 70
     1
102
RTVSPost2010Prop40
 90
        0
102
RTVSPost2010PropOp40
 70
     1
102
RTVSPost2010Prop41ColorIndex
 90
       18
102
RTVSPost2010Prop41ColorRGB
 90
        0
102
RTVSPost2010PropOp41
 70
     1
102
RTVSPost2010Prop42
 90
       50
102
RTVSPost2010PropOp42
 70
     1
102
RTVSPost2010Prop43
 90
        3
102
RTVSPost2010PropOp43
 70
     1
102
RTVSPost2010Prop44ColorIndex
 90
        5
102
RTVSPost2010Prop44ColorRGB
 90
      255
102
RTVSPost2010PropOp44
 70
     1
102
RTVSPost2010Prop45
280
     0
102
RTVSPost2010PropOp45
 70
     1
102
RTVSPost2010Prop46
 90
       50
102
RTVSPost2010PropOp46
 70
     1
102
RTVSPost2010Prop47
 90
       50
102
RTVSPost2010PropOp47
 70
     1
102
RTVSPost2010Prop48
 90
       50
102
RTVSPost2010PropOp48
 70
     1
102
RTVSPost2010Prop49
280
     0
102
RTVSPost2010PropOp49
 70
     1
102
RTVSPost2010Prop50
 90
       50
102
RTVSPost2010PropOp50
 70
     1
102
RTVSPost2010Prop51ColorIndex
 90
      256
102
RTVSPost2010Prop51ColorRGB
 90
-16777216
102
RTVSPost2010PropOp51
 70
     0
102
RTVSPost2010Prop52
140
1.0
102
RTVSPost2010PropOp52
 70
     0
102
RTVSPost2010Prop53
 90
        2
102
RTVSPost2010PropOp53
 70
     1
102
RTVSPost2010Prop54
  1
strokes_ogs.tif
102
RTVSPost2010PropOp54
 70
     1
102
RTVSPost2010Prop55
280
     0
102
RTVSPost2010PropOp55
 70
     1
102
RTVSPost2010Prop56
140
1.0
102
RTVSPost2010PropOp56
 70
     1
102
RTVSPost2010Prop57
140
1.0
102
RTVSPost2010PropOp57
 70
     1
  0
XRECORD
  5
106AD4C
102
{ACAD_REACTORS
330
106AD4B
102
}
330
106AD4B
100
AcDbXrecord
280
     1
102
RTVSPropertyOp0
 70
     1
102
RTVSPropertyOp1
 70
     1
102
RTVSPropertyOp2
 70
     1
102
RTVSPropertyOp3
 70
     1
102
RTVSPropertyOp4
 70
     1
102
RTVSPropertyOp5
 70
     1
102
RTVSPropertyOp6
 70
     1
102
RTVSPropertyOp7
 70
     1
102
RTVSPropertyOp8
 70
     1
102
RTVSPropertyOp9
 70
     1
102
RTVSPropertyOp10
 70
     1
102
RTVSPropertyOp11
 70
     1
102
RTVSPropertyOp12
 70
     1
102
RTVSPropertyOp13
 70
     1
102
RTVSPropertyOp14
 70
     1
102
RTVSPropertyOp15
 70
     1
102
RTVSPropertyOp16
 70
     1
102
RTVSPropertyOp17
 70
     1
102
RTVSPropertyOp18
 70
     1
102
RTVSPropertyOp19
 70
     1
102
RTVSPropertyOp20
 70
     1
102
RTVSPropertyOp21
 70
     1
102
RTVSPropertyOp22
 70
     1
102
RTVSPropertyOp23
 70
     1
102
RTVSPropertyOp24
 70
     1
102
RTVSPropertyOp25
 70
     1
102
RTVSPropertyOp26
 70
     1
102
RTVSPropertyOp27
 70
     1
102
RTVSPropertyOp28
 70
     1
102
RTVSPropertyOp29
 70
     1
102
RTVSPropertyOp30
 70
     1
102
RTVSPropertyOp31
 70
     1
102
RTVSPropertyOp32
 70
     1
102
RTVSPropertyOp33
 70
     1
102
RTVSPropertyOp34
 70
     1
102
RTVSPropertyOp35
 70
     1
102
RTVSPropertyOp36
 70
     1
102
RTVSPropertyOp37
 70
     1
102
RTVSPropertyOp38
 70
     1
102
RTVSPropertyOp39
 70
     1
102
RTVSPropertyOp40
 70
     1
102
RTVSPropertyOp41
 70
     1
102
RTVSPropertyOp42
 70
     1
102
RTVSPropertyOp43
 70
     1
102
RTVSPropertyOp44
 70
     1
102
RTVSPropertyOp45
 70
     1
102
RTVSPropertyOp46
 70
     1
102
RTVSPropertyOp47
 70
     1
102
RTVSPropertyOp48
 70
     1
102
RTVSPropertyOp49
 70
     1
102
RTVSPropertyOp50
 70
     1
102
RTVSPropertyOp51
 70
     0
102
RTVSPropertyOp52
 70
     0
102
RTVSPropertyOp53
 70
     1
102
RTVSPropertyOp54
 70
     1
102
RTVSPropertyOp55
 70
     1
102
RTVSPropertyOp56
 70
     1
102
RTVSPropertyOp57
 70
     1
102
RTVSPost2010Prop28
280
     0
102
RTVSPost2010PropOp28
 70
     1
102
RTVSPost2010Prop29
280
     1
102
RTVSPost2010PropOp29
 70
     1
102
RTVSPost2010Prop30
280
     1
102
RTVSPost2010PropOp30
 70
     1
102
RTVSPost2010Prop31
280
     0
102
RTVSPost2010PropOp31
 70
     1
102
RTVSPost2010Prop32
280
     0
102
RTVSPost2010PropOp32
 70
     1
102
RTVSPost2010Prop33
280
     0
102
RTVSPost2010PropOp33
 70
     1
102
RTVSPost2010Prop34
280
     0
102
RTVSPost2010PropOp34
 70
     1
102
RTVSPost2010Prop35
280
     0
102
RTVSPost2010PropOp35
 70
     1
102
RTVSPost2010Prop36
280
     0
102
RTVSPost2010PropOp36
 70
     1
102
RTVSPost2010Prop37
 90
       50
102
RTVSPost2010PropOp37
 70
     1
102
RTVSPost2010Prop38
140
0.0
102
RTVSPost2010PropOp38
 70
     1
102
RTVSPost2010Prop39
140
1.0
102
RTVSPost2010PropOp39
 70
     1
102
RTVSPost2010Prop40
 90
        0
102
RTVSPost2010PropOp40
 70
     1
102
RTVSPost2010Prop41ColorIndex
 90
       18
102
RTVSPost2010Prop41ColorRGB
 90
        0
102
RTVSPost2010PropOp41
 70
     1
102
RTVSPost2010Prop42
 90
       50
102
RTVSPost2010PropOp42
 70
     1
102
RTVSPost2010Prop43
 90
        3
102
RTVSPost2010PropOp43
 70
     1
102
RTVSPost2010Prop44ColorIndex
 90
        5
102
RTVSPost2010Prop44ColorRGB
 90
      255
102
RTVSPost2010PropOp44
 70
     1
102
RTVSPost2010Prop45
280
     0
102
RTVSPost2010PropOp45
 70
     1
102
RTVSPost2010Prop46
 90
       50
102
RTVSPost2010PropOp46
 70
     1
102
RTVSPost2010Prop47
 90
       50
102
RTVSPost2010PropOp47
 70
     1
102
RTVSPost2010Prop48
 90
       50
102
RTVSPost2010PropOp48
 70
     1
102
RTVSPost2010Prop49
280
     0
102
RTVSPost2010PropOp49
 70
     1
102
RTVSPost2010Prop50
 90
       50
102
RTVSPost2010PropOp50
 70
     1
102
RTVSPost2010Prop51ColorIndex
 90
      256
102
RTVSPost2010Prop51ColorRGB
 90
-16777216
102
RTVSPost2010PropOp51
 70
     0
102
RTVSPost2010Prop52
140
1.0
102
RTVSPost2010PropOp52
 70
     0
102
RTVSPost2010Prop53
 90
        2
102
RTVSPost2010PropOp53
 70
     1
102
RTVSPost2010Prop54
  1
strokes_ogs.tif
102
RTVSPost2010PropOp54
 70
     1
102
RTVSPost2010Prop55
280
     0
102
RTVSPost2010PropOp55
 70
     1
102
RTVSPost2010Prop56
140
1.0
102
RTVSPost2010PropOp56
 70
     1
102
RTVSPost2010Prop57
140
1.0
102
RTVSPost2010PropOp57
 70
     1
  0
XRECORD
  5
106AD4E
102
{ACAD_REACTORS
330
106AD4D
102
}
330
106AD4D
100
AcDbXrecord
280
     1
102
RTVSPropertyOp0
 70
     1
102
RTVSPropertyOp1
 70
     1
102
RTVSPropertyOp2
 70
     1
102
RTVSPropertyOp3
 70
     1
102
RTVSPropertyOp4
 70
     1
102
RTVSPropertyOp5
 70
     1
102
RTVSPropertyOp6
 70
     1
102
RTVSPropertyOp7
 70
     1
102
RTVSPropertyOp8
 70
     1
102
RTVSPropertyOp9
 70
     1
102
RTVSPropertyOp10
 70
     1
102
RTVSPropertyOp11
 70
     1
102
RTVSPropertyOp12
 70
     1
102
RTVSPropertyOp13
 70
     1
102
RTVSPropertyOp14
 70
     1
102
RTVSPropertyOp15
 70
     1
102
RTVSPropertyOp16
 70
     1
102
RTVSPropertyOp17
 70
     1
102
RTVSPropertyOp18
 70
     1
102
RTVSPropertyOp19
 70
     1
102
RTVSPropertyOp20
 70
     1
102
RTVSPropertyOp21
 70
     1
102
RTVSPropertyOp22
 70
     1
102
RTVSPropertyOp23
 70
     1
102
RTVSPropertyOp24
 70
     1
102
RTVSPropertyOp25
 70
     1
102
RTVSPropertyOp26
 70
     1
102
RTVSPropertyOp27
 70
     1
102
RTVSPropertyOp28
 70
     1
102
RTVSPropertyOp29
 70
     1
102
RTVSPropertyOp30
 70
     1
102
RTVSPropertyOp31
 70
     1
102
RTVSPropertyOp32
 70
     1
102
RTVSPropertyOp33
 70
     1
102
RTVSPropertyOp34
 70
     1
102
RTVSPropertyOp35
 70
     1
102
RTVSPropertyOp36
 70
     1
102
RTVSPropertyOp37
 70
     1
102
RTVSPropertyOp38
 70
     1
102
RTVSPropertyOp39
 70
     1
102
RTVSPropertyOp40
 70
     1
102
RTVSPropertyOp41
 70
     1
102
RTVSPropertyOp42
 70
     1
102
RTVSPropertyOp43
 70
     1
102
RTVSPropertyOp44
 70
     1
102
RTVSPropertyOp45
 70
     1
102
RTVSPropertyOp46
 70
     1
102
RTVSPropertyOp47
 70
     1
102
RTVSPropertyOp48
 70
     1
102
RTVSPropertyOp49
 70
     1
102
RTVSPropertyOp50
 70
     1
102
RTVSPropertyOp51
 70
     0
102
RTVSPropertyOp52
 70
     0
102
RTVSPropertyOp53
 70
     1
102
RTVSPropertyOp54
 70
     1
102
RTVSPropertyOp55
 70
     1
102
RTVSPropertyOp56
 70
     1
102
RTVSPropertyOp57
 70
     1
102
RTVSPost2010Prop28
280
     0
102
RTVSPost2010PropOp28
 70
     1
102
RTVSPost2010Prop29
280
     1
102
RTVSPost2010PropOp29
 70
     1
102
RTVSPost2010Prop30
280
     1
102
RTVSPost2010PropOp30
 70
     1
102
RTVSPost2010Prop31
280
     0
102
RTVSPost2010PropOp31
 70
     1
102
RTVSPost2010Prop32
280
     0
102
RTVSPost2010PropOp32
 70
     1
102
RTVSPost2010Prop33
280
     0
102
RTVSPost2010PropOp33
 70
     1
102
RTVSPost2010Prop34
280
     0
102
RTVSPost2010PropOp34
 70
     1
102
RTVSPost2010Prop35
280
     0
102
RTVSPost2010PropOp35
 70
     1
102
RTVSPost2010Prop36
280
     0
102
RTVSPost2010PropOp36
 70
     1
102
RTVSPost2010Prop37
 90
       50
102
RTVSPost2010PropOp37
 70
     1
102
RTVSPost2010Prop38
140
0.0
102
RTVSPost2010PropOp38
 70
     1
102
RTVSPost2010Prop39
140
1.0
102
RTVSPost2010PropOp39
 70
     1
102
RTVSPost2010Prop40
 90
        0
102
RTVSPost2010PropOp40
 70
     1
102
RTVSPost2010Prop41ColorIndex
 90
       18
102
RTVSPost2010Prop41ColorRGB
 90
        0
102
RTVSPost2010PropOp41
 70
     1
102
RTVSPost2010Prop42
 90
       50
102
RTVSPost2010PropOp42
 70
     1
102
RTVSPost2010Prop43
 90
        3
102
RTVSPost2010PropOp43
 70
     1
102
RTVSPost2010Prop44ColorIndex
 90
        5
102
RTVSPost2010Prop44ColorRGB
 90
      255
102
RTVSPost2010PropOp44
 70
     1
102
RTVSPost2010Prop45
280
     0
102
RTVSPost2010PropOp45
 70
     1
102
RTVSPost2010Prop46
 90
       50
102
RTVSPost2010PropOp46
 70
     1
102
RTVSPost2010Prop47
 90
       50
102
RTVSPost2010PropOp47
 70
     1
102
RTVSPost2010Prop48
 90
       50
102
RTVSPost2010PropOp48
 70
     1
102
RTVSPost2010Prop49
280
     0
102
RTVSPost2010PropOp49
 70
     1
102
RTVSPost2010Prop50
 90
       50
102
RTVSPost2010PropOp50
 70
     1
102
RTVSPost2010Prop51ColorIndex
 90
      256
102
RTVSPost2010Prop51ColorRGB
 90
-16777216
102
RTVSPost2010PropOp51
 70
     0
102
RTVSPost2010Prop52
140
1.0
102
RTVSPost2010PropOp52
 70
     0
102
RTVSPost2010Prop53
 90
        2
102
RTVSPost2010PropOp53
 70
     1
102
RTVSPost2010Prop54
  1
strokes_ogs.tif
102
RTVSPost2010PropOp54
 70
     1
102
RTVSPost2010Prop55
280
     0
102
RTVSPost2010PropOp55
 70
     1
102
RTVSPost2010Prop56
140
1.0
102
RTVSPost2010PropOp56
 70
     1
102
RTVSPost2010Prop57
140
1.0
102
RTVSPost2010PropOp57
 70
     1
  0
XRECORD
  5
106AD50
102
{ACAD_REACTORS
330
106AD4F
102
}
330
106AD4F
100
AcDbXrecord
280
     1
102
RTVSPropertyOp0
 70
     1
102
RTVSPropertyOp1
 70
     1
102
RTVSPropertyOp2
 70
     1
102
RTVSPropertyOp3
 70
     1
102
RTVSPropertyOp4
 70
     1
102
RTVSPropertyOp5
 70
     1
102
RTVSPropertyOp6
 70
     1
102
RTVSPropertyOp7
 70
     1
102
RTVSPropertyOp8
 70
     1
102
RTVSPropertyOp9
 70
     1
102
RTVSPropertyOp10
 70
     1
102
RTVSPropertyOp11
 70
     1
102
RTVSPropertyOp12
 70
     1
102
RTVSPropertyOp13
 70
     1
102
RTVSPropertyOp14
 70
     1
102
RTVSPropertyOp15
 70
     1
102
RTVSPropertyOp16
 70
     1
102
RTVSPropertyOp17
 70
     1
102
RTVSPropertyOp18
 70
     1
102
RTVSPropertyOp19
 70
     1
102
RTVSPropertyOp20
 70
     1
102
RTVSPropertyOp21
 70
     1
102
RTVSPropertyOp22
 70
     1
102
RTVSPropertyOp23
 70
     1
102
RTVSPropertyOp24
 70
     1
102
RTVSPropertyOp25
 70
     1
102
RTVSPropertyOp26
 70
     1
102
RTVSPropertyOp27
 70
     1
102
RTVSPropertyOp28
 70
     1
102
RTVSPropertyOp29
 70
     1
102
RTVSPropertyOp30
 70
     1
102
RTVSPropertyOp31
 70
     1
102
RTVSPropertyOp32
 70
     1
102
RTVSPropertyOp33
 70
     1
102
RTVSPropertyOp34
 70
     1
102
RTVSPropertyOp35
 70
     1
102
RTVSPropertyOp36
 70
     1
102
RTVSPropertyOp37
 70
     1
102
RTVSPropertyOp38
 70
     1
102
RTVSPropertyOp39
 70
     1
102
RTVSPropertyOp40
 70
     1
102
RTVSPropertyOp41
 70
     1
102
RTVSPropertyOp42
 70
     1
102
RTVSPropertyOp43
 70
     1
102
RTVSPropertyOp44
 70
     1
102
RTVSPropertyOp45
 70
     1
102
RTVSPropertyOp46
 70
     1
102
RTVSPropertyOp47
 70
     1
102
RTVSPropertyOp48
 70
     1
102
RTVSPropertyOp49
 70
     1
102
RTVSPropertyOp50
 70
     1
102
RTVSPropertyOp51
 70
     0
102
RTVSPropertyOp52
 70
     0
102
RTVSPropertyOp53
 70
     1
102
RTVSPropertyOp54
 70
     1
102
RTVSPropertyOp55
 70
     1
102
RTVSPropertyOp56
 70
     1
102
RTVSPropertyOp57
 70
     1
102
RTVSPost2010Prop28
280
     0
102
RTVSPost2010PropOp28
 70
     1
102
RTVSPost2010Prop29
280
     1
102
RTVSPost2010PropOp29
 70
     1
102
RTVSPost2010Prop30
280
     1
102
RTVSPost2010PropOp30
 70
     1
102
RTVSPost2010Prop31
280
     0
102
RTVSPost2010PropOp31
 70
     1
102
RTVSPost2010Prop32
280
     0
102
RTVSPost2010PropOp32
 70
     1
102
RTVSPost2010Prop33
280
     0
102
RTVSPost2010PropOp33
 70
     1
102
RTVSPost2010Prop34
280
     0
102
RTVSPost2010PropOp34
 70
     1
102
RTVSPost2010Prop35
280
     0
102
RTVSPost2010PropOp35
 70
     1
102
RTVSPost2010Prop36
280
     0
102
RTVSPost2010PropOp36
 70
     1
102
RTVSPost2010Prop37
 90
       50
102
RTVSPost2010PropOp37
 70
     1
102
RTVSPost2010Prop38
140
0.0
102
RTVSPost2010PropOp38
 70
     1
102
RTVSPost2010Prop39
140
1.0
102
RTVSPost2010PropOp39
 70
     1
102
RTVSPost2010Prop40
 90
        0
102
RTVSPost2010PropOp40
 70
     1
102
RTVSPost2010Prop41ColorIndex
 90
       18
102
RTVSPost2010Prop41ColorRGB
 90
        0
102
RTVSPost2010PropOp41
 70
     1
102
RTVSPost2010Prop42
 90
       50
102
RTVSPost2010PropOp42
 70
     1
102
RTVSPost2010Prop43
 90
        3
102
RTVSPost2010PropOp43
 70
     1
102
RTVSPost2010Prop44ColorIndex
 90
        5
102
RTVSPost2010Prop44ColorRGB
 90
      255
102
RTVSPost2010PropOp44
 70
     1
102
RTVSPost2010Prop45
280
     0
102
RTVSPost2010PropOp45
 70
     1
102
RTVSPost2010Prop46
 90
       50
102
RTVSPost2010PropOp46
 70
     1
102
RTVSPost2010Prop47
 90
       50
102
RTVSPost2010PropOp47
 70
     1
102
RTVSPost2010Prop48
 90
       50
102
RTVSPost2010PropOp48
 70
     1
102
RTVSPost2010Prop49
280
     0
102
RTVSPost2010PropOp49
 70
     1
102
RTVSPost2010Prop50
 90
       50
102
RTVSPost2010PropOp50
 70
     1
102
RTVSPost2010Prop51ColorIndex
 90
      256
102
RTVSPost2010Prop51ColorRGB
 90
-16777216
102
RTVSPost2010PropOp51
 70
     0
102
RTVSPost2010Prop52
140
1.0
102
RTVSPost2010PropOp52
 70
     0
102
RTVSPost2010Prop53
 90
        2
102
RTVSPost2010PropOp53
 70
     1
102
RTVSPost2010Prop54
  1
strokes_ogs.tif
102
RTVSPost2010PropOp54
 70
     1
102
RTVSPost2010Prop55
280
     0
102
RTVSPost2010PropOp55
 70
     1
102
RTVSPost2010Prop56
140
1.0
102
RTVSPost2010PropOp56
 70
     1
102
RTVSPost2010Prop57
140
1.0
102
RTVSPost2010PropOp57
 70
     1
  0
XRECORD
  5
106AD52
102
{ACAD_REACTORS
330
106AD51
102
}
330
106AD51
100
AcDbXrecord
280
     1
102
RTVSPropertyOp0
 70
     1
102
RTVSPropertyOp1
 70
     1
102
RTVSPropertyOp2
 70
     1
102
RTVSPropertyOp3
 70
     1
102
RTVSPropertyOp4
 70
     1
102
RTVSPropertyOp5
 70
     1
102
RTVSPropertyOp6
 70
     1
102
RTVSPropertyOp7
 70
     1
102
RTVSPropertyOp8
 70
     1
102
RTVSPropertyOp9
 70
     1
102
RTVSPropertyOp10
 70
     1
102
RTVSPropertyOp11
 70
     1
102
RTVSPropertyOp12
 70
     1
102
RTVSPropertyOp13
 70
     1
102
RTVSPropertyOp14
 70
     1
102
RTVSPropertyOp15
 70
     1
102
RTVSPropertyOp16
 70
     1
102
RTVSPropertyOp17
 70
     1
102
RTVSPropertyOp18
 70
     1
102
RTVSPropertyOp19
 70
     1
102
RTVSPropertyOp20
 70
     1
102
RTVSPropertyOp21
 70
     1
102
RTVSPropertyOp22
 70
     1
102
RTVSPropertyOp23
 70
     1
102
RTVSPropertyOp24
 70
     1
102
RTVSPropertyOp25
 70
     1
102
RTVSPropertyOp26
 70
     1
102
RTVSPropertyOp27
 70
     1
102
RTVSPropertyOp28
 70
     1
102
RTVSPropertyOp29
 70
     1
102
RTVSPropertyOp30
 70
     1
102
RTVSPropertyOp31
 70
     1
102
RTVSPropertyOp32
 70
     1
102
RTVSPropertyOp33
 70
     1
102
RTVSPropertyOp34
 70
     1
102
RTVSPropertyOp35
 70
     1
102
RTVSPropertyOp36
 70
     1
102
RTVSPropertyOp37
 70
     1
102
RTVSPropertyOp38
 70
     1
102
RTVSPropertyOp39
 70
     1
102
RTVSPropertyOp40
 70
     1
102
RTVSPropertyOp41
 70
     1
102
RTVSPropertyOp42
 70
     1
102
RTVSPropertyOp43
 70
     1
102
RTVSPropertyOp44
 70
     1
102
RTVSPropertyOp45
 70
     1
102
RTVSPropertyOp46
 70
     1
102
RTVSPropertyOp47
 70
     1
102
RTVSPropertyOp48
 70
     1
102
RTVSPropertyOp49
 70
     1
102
RTVSPropertyOp50
 70
     1
102
RTVSPropertyOp51
 70
     0
102
RTVSPropertyOp52
 70
     0
102
RTVSPropertyOp53
 70
     1
102
RTVSPropertyOp54
 70
     1
102
RTVSPropertyOp55
 70
     1
102
RTVSPropertyOp56
 70
     1
102
RTVSPropertyOp57
 70
     1
102
RTVSPost2010Prop28
280
     0
102
RTVSPost2010PropOp28
 70
     1
102
RTVSPost2010Prop29
280
     1
102
RTVSPost2010PropOp29
 70
     1
102
RTVSPost2010Prop30
280
     1
102
RTVSPost2010PropOp30
 70
     1
102
RTVSPost2010Prop31
280
     0
102
RTVSPost2010PropOp31
 70
     1
102
RTVSPost2010Prop32
280
     0
102
RTVSPost2010PropOp32
 70
     1
102
RTVSPost2010Prop33
280
     0
102
RTVSPost2010PropOp33
 70
     1
102
RTVSPost2010Prop34
280
     0
102
RTVSPost2010PropOp34
 70
     1
102
RTVSPost2010Prop35
280
     0
102
RTVSPost2010PropOp35
 70
     1
102
RTVSPost2010Prop36
280
     0
102
RTVSPost2010PropOp36
 70
     1
102
RTVSPost2010Prop37
 90
       50
102
RTVSPost2010PropOp37
 70
     1
102
RTVSPost2010Prop38
140
0.0
102
RTVSPost2010PropOp38
 70
     1
102
RTVSPost2010Prop39
140
1.0
102
RTVSPost2010PropOp39
 70
     1
102
RTVSPost2010Prop40
 90
        0
102
RTVSPost2010PropOp40
 70
     1
102
RTVSPost2010Prop41ColorIndex
 90
       18
102
RTVSPost2010Prop41ColorRGB
 90
        0
102
RTVSPost2010PropOp41
 70
     1
102
RTVSPost2010Prop42
 90
       50
102
RTVSPost2010PropOp42
 70
     1
102
RTVSPost2010Prop43
 90
        3
102
RTVSPost2010PropOp43
 70
     1
102
RTVSPost2010Prop44ColorIndex
 90
        5
102
RTVSPost2010Prop44ColorRGB
 90
      255
102
RTVSPost2010PropOp44
 70
     1
102
RTVSPost2010Prop45
280
     0
102
RTVSPost2010PropOp45
 70
     1
102
RTVSPost2010Prop46
 90
       50
102
RTVSPost2010PropOp46
 70
     1
102
RTVSPost2010Prop47
 90
       50
102
RTVSPost2010PropOp47
 70
     1
102
RTVSPost2010Prop48
 90
       50
102
RTVSPost2010PropOp48
 70
     1
102
RTVSPost2010Prop49
280
     0
102
RTVSPost2010PropOp49
 70
     1
102
RTVSPost2010Prop50
 90
       50
102
RTVSPost2010PropOp50
 70
     1
102
RTVSPost2010Prop51ColorIndex
 90
      256
102
RTVSPost2010Prop51ColorRGB
 90
-16777216
102
RTVSPost2010PropOp51
 70
     0
102
RTVSPost2010Prop52
140
1.0
102
RTVSPost2010PropOp52
 70
     0
102
RTVSPost2010Prop53
 90
        2
102
RTVSPost2010PropOp53
 70
     1
102
RTVSPost2010Prop54
  1
strokes_ogs.tif
102
RTVSPost2010PropOp54
 70
     1
102
RTVSPost2010Prop55
280
     0
102
RTVSPost2010PropOp55
 70
     1
102
RTVSPost2010Prop56
140
1.0
102
RTVSPost2010PropOp56
 70
     1
102
RTVSPost2010Prop57
140
1.0
102
RTVSPost2010PropOp57
 70
     1
  0
XRECORD
  5
106AD54
102
{ACAD_REACTORS
330
106AD53
102
}
330
106AD53
100
AcDbXrecord
280
     1
102
RTVSPropertyOp0
 70
     0
102
RTVSPropertyOp1
 70
     0
102
RTVSPropertyOp2
 70
     0
102
RTVSPropertyOp3
 70
     0
102
RTVSPropertyOp4
 70
     0
102
RTVSPropertyOp5
 70
     0
102
RTVSPropertyOp6
 70
     0
102
RTVSPropertyOp7
 70
     0
102
RTVSPropertyOp8
 70
     0
102
RTVSPropertyOp9
 70
     0
102
RTVSPropertyOp10
 70
     0
102
RTVSPropertyOp11
 70
     0
102
RTVSPropertyOp12
 70
     0
102
RTVSPropertyOp13
 70
     0
102
RTVSPropertyOp14
 70
     2
102
RTVSPropertyOp15
 70
     0
102
RTVSPropertyOp16
 70
     0
102
RTVSPropertyOp17
 70
     0
102
RTVSPropertyOp18
 70
     0
102
RTVSPropertyOp19
 70
     0
102
RTVSPropertyOp20
 70
     0
102
RTVSPropertyOp21
 70
     0
102
RTVSPropertyOp22
 70
     0
102
RTVSPropertyOp23
 70
     0
102
RTVSPropertyOp24
 70
     0
102
RTVSPropertyOp25
 70
     0
102
RTVSPropertyOp26
 70
     0
102
RTVSPropertyOp27
 70
     0
102
RTVSPropertyOp28
 70
     0
102
RTVSPropertyOp29
 70
     0
102
RTVSPropertyOp30
 70
     0
102
RTVSPropertyOp31
 70
     0
102
RTVSPropertyOp32
 70
     0
102
RTVSPropertyOp33
 70
     0
102
RTVSPropertyOp34
 70
     0
102
RTVSPropertyOp35
 70
     0
102
RTVSPropertyOp36
 70
     0
102
RTVSPropertyOp37
 70
     0
102
RTVSPropertyOp38
 70
     0
102
RTVSPropertyOp39
 70
     0
102
RTVSPropertyOp40
 70
     0
102
RTVSPropertyOp41
 70
     0
102
RTVSPropertyOp42
 70
     0
102
RTVSPropertyOp43
 70
     0
102
RTVSPropertyOp44
 70
     0
102
RTVSPropertyOp45
 70
     0
102
RTVSPropertyOp46
 70
     0
102
RTVSPropertyOp47
 70
     0
102
RTVSPropertyOp48
 70
     0
102
RTVSPropertyOp49
 70
     0
102
RTVSPropertyOp50
 70
     0
102
RTVSPropertyOp51
 70
     0
102
RTVSPropertyOp52
 70
     0
102
RTVSPropertyOp53
 70
     0
102
RTVSPropertyOp54
 70
     0
102
RTVSPropertyOp55
 70
     0
102
RTVSPropertyOp56
 70
     0
102
RTVSPropertyOp57
 70
     0
102
RTVSPost2010Prop28
280
     0
102
RTVSPost2010PropOp28
 70
     0
102
RTVSPost2010Prop29
280
     1
102
RTVSPost2010PropOp29
 70
     0
102
RTVSPost2010Prop30
280
     1
102
RTVSPost2010PropOp30
 70
     0
102
RTVSPost2010Prop31
280
     0
102
RTVSPost2010PropOp31
 70
     0
102
RTVSPost2010Prop32
280
     0
102
RTVSPost2010PropOp32
 70
     0
102
RTVSPost2010Prop33
280
     0
102
RTVSPost2010PropOp33
 70
     0
102
RTVSPost2010Prop34
280
     0
102
RTVSPost2010PropOp34
 70
     0
102
RTVSPost2010Prop35
280
     0
102
RTVSPost2010PropOp35
 70
     0
102
RTVSPost2010Prop36
280
     0
102
RTVSPost2010PropOp36
 70
     0
102
RTVSPost2010Prop37
 90
       50
102
RTVSPost2010PropOp37
 70
     0
102
RTVSPost2010Prop38
140
0.0
102
RTVSPost2010PropOp38
 70
     0
102
RTVSPost2010Prop39
140
1.0
102
RTVSPost2010PropOp39
 70
     0
102
RTVSPost2010Prop40
 90
        0
102
RTVSPost2010PropOp40
 70
     0
102
RTVSPost2010Prop41ColorIndex
 90
       18
102
RTVSPost2010Prop41ColorRGB
 90
        0
102
RTVSPost2010PropOp41
 70
     0
102
RTVSPost2010Prop42
 90
       50
102
RTVSPost2010PropOp42
 70
     0
102
RTVSPost2010Prop43
 90
        3
102
RTVSPost2010PropOp43
 70
     0
102
RTVSPost2010Prop44ColorIndex
 90
        5
102
RTVSPost2010Prop44ColorRGB
 90
      255
102
RTVSPost2010PropOp44
 70
     0
102
RTVSPost2010Prop45
280
     0
102
RTVSPost2010PropOp45
 70
     0
102
RTVSPost2010Prop46
 90
       50
102
RTVSPost2010PropOp46
 70
     0
102
RTVSPost2010Prop47
 90
       50
102
RTVSPost2010PropOp47
 70
     0
102
RTVSPost2010Prop48
 90
       50
102
RTVSPost2010PropOp48
 70
     0
102
RTVSPost2010Prop49
280
     0
102
RTVSPost2010PropOp49
 70
     0
102
RTVSPost2010Prop50
 90
       50
102
RTVSPost2010PropOp50
 70
     0
102
RTVSPost2010Prop51ColorIndex
 90
      256
102
RTVSPost2010Prop51ColorRGB
 90
-16777216
102
RTVSPost2010PropOp51
 70
     0
102
RTVSPost2010Prop52
140
1.0
102
RTVSPost2010PropOp52
 70
     0
102
RTVSPost2010Prop53
 90
        2
102
RTVSPost2010PropOp53
 70
     0
102
RTVSPost2010Prop54
  1
strokes_ogs.tif
102
RTVSPost2010PropOp54
 70
     0
102
RTVSPost2010Prop55
280
     0
102
RTVSPost2010PropOp55
 70
     0
102
RTVSPost2010Prop56
140
1.0
102
RTVSPost2010PropOp56
 70
     0
102
RTVSPost2010Prop57
140
1.0
102
RTVSPost2010PropOp57
 70
     0
  0
XRECORD
  5
106AD56
102
{ACAD_REACTORS
330
106AD55
102
}
330
106AD55
100
AcDbXrecord
280
     1
102
RTVSPropertyOp0
 70
     1
102
RTVSPropertyOp1
 70
     1
102
RTVSPropertyOp2
 70
     1
102
RTVSPropertyOp3
 70
     1
102
RTVSPropertyOp4
 70
     1
102
RTVSPropertyOp5
 70
     1
102
RTVSPropertyOp6
 70
     1
102
RTVSPropertyOp7
 70
     1
102
RTVSPropertyOp8
 70
     1
102
RTVSPropertyOp9
 70
     1
102
RTVSPropertyOp10
 70
     1
102
RTVSPropertyOp11
 70
     1
102
RTVSPropertyOp12
 70
     1
102
RTVSPropertyOp13
 70
     1
102
RTVSPropertyOp14
 70
     1
102
RTVSPropertyOp15
 70
     1
102
RTVSPropertyOp16
 70
     1
102
RTVSPropertyOp17
 70
     1
102
RTVSPropertyOp18
 70
     1
102
RTVSPropertyOp19
 70
     1
102
RTVSPropertyOp20
 70
     1
102
RTVSPropertyOp21
 70
     1
102
RTVSPropertyOp22
 70
     1
102
RTVSPropertyOp23
 70
     1
102
RTVSPropertyOp24
 70
     1
102
RTVSPropertyOp25
 70
     1
102
RTVSPropertyOp26
 70
     1
102
RTVSPropertyOp27
 70
     1
102
RTVSPropertyOp28
 70
     1
102
RTVSPropertyOp29
 70
     1
102
RTVSPropertyOp30
 70
     1
102
RTVSPropertyOp31
 70
     1
102
RTVSPropertyOp32
 70
     1
102
RTVSPropertyOp33
 70
     1
102
RTVSPropertyOp34
 70
     1
102
RTVSPropertyOp35
 70
     1
102
RTVSPropertyOp36
 70
     1
102
RTVSPropertyOp37
 70
     1
102
RTVSPropertyOp38
 70
     1
102
RTVSPropertyOp39
 70
     1
102
RTVSPropertyOp40
 70
     1
102
RTVSPropertyOp41
 70
     1
102
RTVSPropertyOp42
 70
     1
102
RTVSPropertyOp43
 70
     1
102
RTVSPropertyOp44
 70
     1
102
RTVSPropertyOp45
 70
     1
102
RTVSPropertyOp46
 70
     1
102
RTVSPropertyOp47
 70
     1
102
RTVSPropertyOp48
 70
     1
102
RTVSPropertyOp49
 70
     1
102
RTVSPropertyOp50
 70
     1
102
RTVSPropertyOp51
 70
     0
102
RTVSPropertyOp52
 70
     0
102
RTVSPropertyOp53
 70
     1
102
RTVSPropertyOp54
 70
     1
102
RTVSPropertyOp55
 70
     1
102
RTVSPropertyOp56
 70
     1
102
RTVSPropertyOp57
 70
     1
102
RTVSPost2010Prop28
280
     0
102
RTVSPost2010PropOp28
 70
     1
102
RTVSPost2010Prop29
280
     1
102
RTVSPost2010PropOp29
 70
     1
102
RTVSPost2010Prop30
280
     1
102
RTVSPost2010PropOp30
 70
     1
102
RTVSPost2010Prop31
280
     0
102
RTVSPost2010PropOp31
 70
     1
102
RTVSPost2010Prop32
280
     0
102
RTVSPost2010PropOp32
 70
     1
102
RTVSPost2010Prop33
280
     0
102
RTVSPost2010PropOp33
 70
     1
102
RTVSPost2010Prop34
280
     0
102
RTVSPost2010PropOp34
 70
     1
102
RTVSPost2010Prop35
280
     0
102
RTVSPost2010PropOp35
 70
     1
102
RTVSPost2010Prop36
280
     0
102
RTVSPost2010PropOp36
 70
     1
102
RTVSPost2010Prop37
 90
       50
102
RTVSPost2010PropOp37
 70
     1
102
RTVSPost2010Prop38
140
0.0
102
RTVSPost2010PropOp38
 70
     1
102
RTVSPost2010Prop39
140
1.0
102
RTVSPost2010PropOp39
 70
     1
102
RTVSPost2010Prop40
 90
        0
102
RTVSPost2010PropOp40
 70
     1
102
RTVSPost2010Prop41ColorIndex
 90
       18
102
RTVSPost2010Prop41ColorRGB
 90
        0
102
RTVSPost2010PropOp41
 70
     1
102
RTVSPost2010Prop42
 90
       50
102
RTVSPost2010PropOp42
 70
     1
102
RTVSPost2010Prop43
 90
        3
102
RTVSPost2010PropOp43
 70
     1
102
RTVSPost2010Prop44ColorIndex
 90
        5
102
RTVSPost2010Prop44ColorRGB
 90
      255
102
RTVSPost2010PropOp44
 70
     1
102
RTVSPost2010Prop45
280
     0
102
RTVSPost2010PropOp45
 70
     1
102
RTVSPost2010Prop46
 90
       50
102
RTVSPost2010PropOp46
 70
     1
102
RTVSPost2010Prop47
 90
       50
102
RTVSPost2010PropOp47
 70
     1
102
RTVSPost2010Prop48
 90
       50
102
RTVSPost2010PropOp48
 70
     1
102
RTVSPost2010Prop49
280
     0
102
RTVSPost2010PropOp49
 70
     1
102
RTVSPost2010Prop50
 90
       50
102
RTVSPost2010PropOp50
 70
     1
102
RTVSPost2010Prop51ColorIndex
 90
      256
102
RTVSPost2010Prop51ColorRGB
 90
-16777216
102
RTVSPost2010PropOp51
 70
     0
102
RTVSPost2010Prop52
140
1.0
102
RTVSPost2010PropOp52
 70
     0
102
RTVSPost2010Prop53
 90
        2
102
RTVSPost2010PropOp53
 70
     1
102
RTVSPost2010Prop54
  1
strokes_ogs.tif
102
RTVSPost2010PropOp54
 70
     1
102
RTVSPost2010Prop55
280
     0
102
RTVSPost2010PropOp55
 70
     1
102
RTVSPost2010Prop56
140
1.0
102
RTVSPost2010PropOp56
 70
     1
102
RTVSPost2010Prop57
140
1.0
102
RTVSPost2010PropOp57
 70
     1
  0
XRECORD
  5
106AD58
102
{ACAD_REACTORS
330
106AD57
102
}
330
106AD57
100
AcDbXrecord
280
     1
102
RTVSPropertyOp0
 70
     0
102
RTVSPropertyOp1
 70
     0
102
RTVSPropertyOp2
 70
     0
102
RTVSPropertyOp3
 70
     0
102
RTVSPropertyOp4
 70
     0
102
RTVSPropertyOp5
 70
     0
102
RTVSPropertyOp6
 70
     0
102
RTVSPropertyOp7
 70
     0
102
RTVSPropertyOp8
 70
     0
102
RTVSPropertyOp9
 70
     0
102
RTVSPropertyOp10
 70
     0
102
RTVSPropertyOp11
 70
     0
102
RTVSPropertyOp12
 70
     0
102
RTVSPropertyOp13
 70
     0
102
RTVSPropertyOp14
 70
     2
102
RTVSPropertyOp15
 70
     0
102
RTVSPropertyOp16
 70
     0
102
RTVSPropertyOp17
 70
     0
102
RTVSPropertyOp18
 70
     0
102
RTVSPropertyOp19
 70
     0
102
RTVSPropertyOp20
 70
     0
102
RTVSPropertyOp21
 70
     0
102
RTVSPropertyOp22
 70
     0
102
RTVSPropertyOp23
 70
     0
102
RTVSPropertyOp24
 70
     0
102
RTVSPropertyOp25
 70
     0
102
RTVSPropertyOp26
 70
     0
102
RTVSPropertyOp27
 70
     0
102
RTVSPropertyOp28
 70
     0
102
RTVSPropertyOp29
 70
     0
102
RTVSPropertyOp30
 70
     0
102
RTVSPropertyOp31
 70
     0
102
RTVSPropertyOp32
 70
     0
102
RTVSPropertyOp33
 70
     0
102
RTVSPropertyOp34
 70
     0
102
RTVSPropertyOp35
 70
     0
102
RTVSPropertyOp36
 70
     0
102
RTVSPropertyOp37
 70
     0
102
RTVSPropertyOp38
 70
     0
102
RTVSPropertyOp39
 70
     0
102
RTVSPropertyOp40
 70
     0
102
RTVSPropertyOp41
 70
     0
102
RTVSPropertyOp42
 70
     0
102
RTVSPropertyOp43
 70
     0
102
RTVSPropertyOp44
 70
     0
102
RTVSPropertyOp45
 70
     0
102
RTVSPropertyOp46
 70
     0
102
RTVSPropertyOp47
 70
     0
102
RTVSPropertyOp48
 70
     0
102
RTVSPropertyOp49
 70
     0
102
RTVSPropertyOp50
 70
     0
102
RTVSPropertyOp51
 70
     0
102
RTVSPropertyOp52
 70
     0
102
RTVSPropertyOp53
 70
     0
102
RTVSPropertyOp54
 70
     0
102
RTVSPropertyOp55
 70
     0
102
RTVSPropertyOp56
 70
     0
102
RTVSPropertyOp57
 70
     0
102
RTVSPost2010Prop28
280
     0
102
RTVSPost2010PropOp28
 70
     0
102
RTVSPost2010Prop29
280
     1
102
RTVSPost2010PropOp29
 70
     0
102
RTVSPost2010Prop30
280
     1
102
RTVSPost2010PropOp30
 70
     0
102
RTVSPost2010Prop31
280
     0
102
RTVSPost2010PropOp31
 70
     0
102
RTVSPost2010Prop32
280
     0
102
RTVSPost2010PropOp32
 70
     0
102
RTVSPost2010Prop33
280
     0
102
RTVSPost2010PropOp33
 70
     0
102
RTVSPost2010Prop34
280
     0
102
RTVSPost2010PropOp34
 70
     0
102
RTVSPost2010Prop35
280
     0
102
RTVSPost2010PropOp35
 70
     0
102
RTVSPost2010Prop36
280
     0
102
RTVSPost2010PropOp36
 70
     0
102
RTVSPost2010Prop37
 90
       50
102
RTVSPost2010PropOp37
 70
     0
102
RTVSPost2010Prop38
140
0.0
102
RTVSPost2010PropOp38
 70
     0
102
RTVSPost2010Prop39
140
1.0
102
RTVSPost2010PropOp39
 70
     0
102
RTVSPost2010Prop40
 90
        0
102
RTVSPost2010PropOp40
 70
     0
102
RTVSPost2010Prop41ColorIndex
 90
       18
102
RTVSPost2010Prop41ColorRGB
 90
        0
102
RTVSPost2010PropOp41
 70
     0
102
RTVSPost2010Prop42
 90
       50
102
RTVSPost2010PropOp42
 70
     0
102
RTVSPost2010Prop43
 90
        3
102
RTVSPost2010PropOp43
 70
     0
102
RTVSPost2010Prop44ColorIndex
 90
        5
102
RTVSPost2010Prop44ColorRGB
 90
      255
102
RTVSPost2010PropOp44
 70
     0
102
RTVSPost2010Prop45
280
     0
102
RTVSPost2010PropOp45
 70
     0
102
RTVSPost2010Prop46
 90
       50
102
RTVSPost2010PropOp46
 70
     0
102
RTVSPost2010Prop47
 90
       50
102
RTVSPost2010PropOp47
 70
     0
102
RTVSPost2010Prop48
 90
       50
102
RTVSPost2010PropOp48
 70
     0
102
RTVSPost2010Prop49
280
     0
102
RTVSPost2010PropOp49
 70
     0
102
RTVSPost2010Prop50
 90
       50
102
RTVSPost2010PropOp50
 70
     0
102
RTVSPost2010Prop51ColorIndex
 90
      256
102
RTVSPost2010Prop51ColorRGB
 90
-16777216
102
RTVSPost2010PropOp51
 70
     0
102
RTVSPost2010Prop52
140
1.0
102
RTVSPost2010PropOp52
 70
     0
102
RTVSPost2010Prop53
 90
        2
102
RTVSPost2010PropOp53
 70
     0
102
RTVSPost2010Prop54
  1
strokes_ogs.tif
102
RTVSPost2010PropOp54
 70
     0
102
RTVSPost2010Prop55
280
     0
102
RTVSPost2010PropOp55
 70
     0
102
RTVSPost2010Prop56
140
1.0
102
RTVSPost2010PropOp56
 70
     0
102
RTVSPost2010Prop57
140
1.0
102
RTVSPost2010PropOp57
 70
     0
  0
XRECORD
  5
106AD5A
102
{ACAD_REACTORS
330
106AD59
102
}
330
106AD59
100
AcDbXrecord
280
     1
102
RTVSPropertyOp0
 70
     1
102
RTVSPropertyOp1
 70
     1
102
RTVSPropertyOp2
 70
     1
102
RTVSPropertyOp3
 70
     1
102
RTVSPropertyOp4
 70
     1
102
RTVSPropertyOp5
 70
     1
102
RTVSPropertyOp6
 70
     1
102
RTVSPropertyOp7
 70
     1
102
RTVSPropertyOp8
 70
     1
102
RTVSPropertyOp9
 70
     1
102
RTVSPropertyOp10
 70
     1
102
RTVSPropertyOp11
 70
     1
102
RTVSPropertyOp12
 70
     1
102
RTVSPropertyOp13
 70
     1
102
RTVSPropertyOp14
 70
     1
102
RTVSPropertyOp15
 70
     1
102
RTVSPropertyOp16
 70
     1
102
RTVSPropertyOp17
 70
     1
102
RTVSPropertyOp18
 70
     1
102
RTVSPropertyOp19
 70
     1
102
RTVSPropertyOp20
 70
     1
102
RTVSPropertyOp21
 70
     1
102
RTVSPropertyOp22
 70
     1
102
RTVSPropertyOp23
 70
     1
102
RTVSPropertyOp24
 70
     1
102
RTVSPropertyOp25
 70
     1
102
RTVSPropertyOp26
 70
     1
102
RTVSPropertyOp27
 70
     1
102
RTVSPropertyOp28
 70
     1
102
RTVSPropertyOp29
 70
     1
102
RTVSPropertyOp30
 70
     1
102
RTVSPropertyOp31
 70
     1
102
RTVSPropertyOp32
 70
     1
102
RTVSPropertyOp33
 70
     1
102
RTVSPropertyOp34
 70
     1
102
RTVSPropertyOp35
 70
     1
102
RTVSPropertyOp36
 70
     1
102
RTVSPropertyOp37
 70
     1
102
RTVSPropertyOp38
 70
     1
102
RTVSPropertyOp39
 70
     1
102
RTVSPropertyOp40
 70
     1
102
RTVSPropertyOp41
 70
     1
102
RTVSPropertyOp42
 70
     1
102
RTVSPropertyOp43
 70
     1
102
RTVSPropertyOp44
 70
     1
102
RTVSPropertyOp45
 70
     1
102
RTVSPropertyOp46
 70
     1
102
RTVSPropertyOp47
 70
     1
102
RTVSPropertyOp48
 70
     1
102
RTVSPropertyOp49
 70
     1
102
RTVSPropertyOp50
 70
     1
102
RTVSPropertyOp51
 70
     0
102
RTVSPropertyOp52
 70
     0
102
RTVSPropertyOp53
 70
     1
102
RTVSPropertyOp54
 70
     1
102
RTVSPropertyOp55
 70
     1
102
RTVSPropertyOp56
 70
     1
102
RTVSPropertyOp57
 70
     1
102
RTVSPost2010Prop28
280
     0
102
RTVSPost2010PropOp28
 70
     1
102
RTVSPost2010Prop29
280
     1
102
RTVSPost2010PropOp29
 70
     1
102
RTVSPost2010Prop30
280
     1
102
RTVSPost2010PropOp30
 70
     1
102
RTVSPost2010Prop31
280
     0
102
RTVSPost2010PropOp31
 70
     1
102
RTVSPost2010Prop32
280
     0
102
RTVSPost2010PropOp32
 70
     1
102
RTVSPost2010Prop33
280
     0
102
RTVSPost2010PropOp33
 70
     1
102
RTVSPost2010Prop34
280
     0
102
RTVSPost2010PropOp34
 70
     1
102
RTVSPost2010Prop35
280
     0
102
RTVSPost2010PropOp35
 70
     1
102
RTVSPost2010Prop36
280
     0
102
RTVSPost2010PropOp36
 70
     1
102
RTVSPost2010Prop37
 90
       50
102
RTVSPost2010PropOp37
 70
     1
102
RTVSPost2010Prop38
140
0.0
102
RTVSPost2010PropOp38
 70
     1
102
RTVSPost2010Prop39
140
1.0
102
RTVSPost2010PropOp39
 70
     1
102
RTVSPost2010Prop40
 90
        0
102
RTVSPost2010PropOp40
 70
     1
102
RTVSPost2010Prop41ColorIndex
 90
       18
102
RTVSPost2010Prop41ColorRGB
 90
        0
102
RTVSPost2010PropOp41
 70
     1
102
RTVSPost2010Prop42
 90
       50
102
RTVSPost2010PropOp42
 70
     1
102
RTVSPost2010Prop43
 90
        3
102
RTVSPost2010PropOp43
 70
     1
102
RTVSPost2010Prop44ColorIndex
 90
        5
102
RTVSPost2010Prop44ColorRGB
 90
      255
102
RTVSPost2010PropOp44
 70
     1
102
RTVSPost2010Prop45
280
     0
102
RTVSPost2010PropOp45
 70
     1
102
RTVSPost2010Prop46
 90
       50
102
RTVSPost2010PropOp46
 70
     1
102
RTVSPost2010Prop47
 90
       50
102
RTVSPost2010PropOp47
 70
     1
102
RTVSPost2010Prop48
 90
       50
102
RTVSPost2010PropOp48
 70
     1
102
RTVSPost2010Prop49
280
     0
102
RTVSPost2010PropOp49
 70
     1
102
RTVSPost2010Prop50
 90
       50
102
RTVSPost2010PropOp50
 70
     1
102
RTVSPost2010Prop51ColorIndex
 90
      256
102
RTVSPost2010Prop51ColorRGB
 90
-16777216
102
RTVSPost2010PropOp51
 70
     0
102
RTVSPost2010Prop52
140
1.0
102
RTVSPost2010PropOp52
 70
     0
102
RTVSPost2010Prop53
 90
        2
102
RTVSPost2010PropOp53
 70
     1
102
RTVSPost2010Prop54
  1
strokes_ogs.tif
102
RTVSPost2010PropOp54
 70
     1
102
RTVSPost2010Prop55
280
     0
102
RTVSPost2010PropOp55
 70
     1
102
RTVSPost2010Prop56
140
1.0
102
RTVSPost2010PropOp56
 70
     1
102
RTVSPost2010Prop57
140
1.0
102
RTVSPost2010PropOp57
 70
     1
  0
XRECORD
  5
106AD5C
102
{ACAD_REACTORS
330
106AD5B
102
}
330
106AD5B
100
AcDbXrecord
280
     1
102
RTVSPropertyOp0
 70
     1
102
RTVSPropertyOp1
 70
     1
102
RTVSPropertyOp2
 70
     1
102
RTVSPropertyOp3
 70
     1
102
RTVSPropertyOp4
 70
     1
102
RTVSPropertyOp5
 70
     1
102
RTVSPropertyOp6
 70
     1
102
RTVSPropertyOp7
 70
     1
102
RTVSPropertyOp8
 70
     1
102
RTVSPropertyOp9
 70
     1
102
RTVSPropertyOp10
 70
     1
102
RTVSPropertyOp11
 70
     1
102
RTVSPropertyOp12
 70
     1
102
RTVSPropertyOp13
 70
     1
102
RTVSPropertyOp14
 70
     1
102
RTVSPropertyOp15
 70
     1
102
RTVSPropertyOp16
 70
     1
102
RTVSPropertyOp17
 70
     1
102
RTVSPropertyOp18
 70
     1
102
RTVSPropertyOp19
 70
     1
102
RTVSPropertyOp20
 70
     1
102
RTVSPropertyOp21
 70
     1
102
RTVSPropertyOp22
 70
     1
102
RTVSPropertyOp23
 70
     1
102
RTVSPropertyOp24
 70
     1
102
RTVSPropertyOp25
 70
     1
102
RTVSPropertyOp26
 70
     1
102
RTVSPropertyOp27
 70
     1
102
RTVSPropertyOp28
 70
     1
102
RTVSPropertyOp29
 70
     1
102
RTVSPropertyOp30
 70
     1
102
RTVSPropertyOp31
 70
     1
102
RTVSPropertyOp32
 70
     1
102
RTVSPropertyOp33
 70
     1
102
RTVSPropertyOp34
 70
     1
102
RTVSPropertyOp35
 70
     1
102
RTVSPropertyOp36
 70
     1
102
RTVSPropertyOp37
 70
     1
102
RTVSPropertyOp38
 70
     1
102
RTVSPropertyOp39
 70
     1
102
RTVSPropertyOp40
 70
     1
102
RTVSPropertyOp41
 70
     1
102
RTVSPropertyOp42
 70
     1
102
RTVSPropertyOp43
 70
     1
102
RTVSPropertyOp44
 70
     1
102
RTVSPropertyOp45
 70
     1
102
RTVSPropertyOp46
 70
     1
102
RTVSPropertyOp47
 70
     1
102
RTVSPropertyOp48
 70
     1
102
RTVSPropertyOp49
 70
     1
102
RTVSPropertyOp50
 70
     1
102
RTVSPropertyOp51
 70
     0
102
RTVSPropertyOp52
 70
     0
102
RTVSPropertyOp53
 70
     1
102
RTVSPropertyOp54
 70
     1
102
RTVSPropertyOp55
 70
     1
102
RTVSPropertyOp56
 70
     1
102
RTVSPropertyOp57
 70
     1
102
RTVSPost2010Prop28
280
     0
102
RTVSPost2010PropOp28
 70
     1
102
RTVSPost2010Prop29
280
     1
102
RTVSPost2010PropOp29
 70
     1
102
RTVSPost2010Prop30
280
     1
102
RTVSPost2010PropOp30
 70
     1
102
RTVSPost2010Prop31
280
     0
102
RTVSPost2010PropOp31
 70
     1
102
RTVSPost2010Prop32
280
     0
102
RTVSPost2010PropOp32
 70
     1
102
RTVSPost2010Prop33
280
     0
102
RTVSPost2010PropOp33
 70
     1
102
RTVSPost2010Prop34
280
     0
102
RTVSPost2010PropOp34
 70
     1
102
RTVSPost2010Prop35
280
     0
102
RTVSPost2010PropOp35
 70
     1
102
RTVSPost2010Prop36
280
     0
102
RTVSPost2010PropOp36
 70
     1
102
RTVSPost2010Prop37
 90
       50
102
RTVSPost2010PropOp37
 70
     1
102
RTVSPost2010Prop38
140
0.0
102
RTVSPost2010PropOp38
 70
     1
102
RTVSPost2010Prop39
140
1.0
102
RTVSPost2010PropOp39
 70
     1
102
RTVSPost2010Prop40
 90
        0
102
RTVSPost2010PropOp40
 70
     1
102
RTVSPost2010Prop41ColorIndex
 90
       18
102
RTVSPost2010Prop41ColorRGB
 90
        0
102
RTVSPost2010PropOp41
 70
     1
102
RTVSPost2010Prop42
 90
       50
102
RTVSPost2010PropOp42
 70
     1
102
RTVSPost2010Prop43
 90
        3
102
RTVSPost2010PropOp43
 70
     1
102
RTVSPost2010Prop44ColorIndex
 90
        5
102
RTVSPost2010Prop44ColorRGB
 90
      255
102
RTVSPost2010PropOp44
 70
     1
102
RTVSPost2010Prop45
280
     0
102
RTVSPost2010PropOp45
 70
     1
102
RTVSPost2010Prop46
 90
       50
102
RTVSPost2010PropOp46
 70
     1
102
RTVSPost2010Prop47
 90
       50
102
RTVSPost2010PropOp47
 70
     1
102
RTVSPost2010Prop48
 90
       50
102
RTVSPost2010PropOp48
 70
     1
102
RTVSPost2010Prop49
280
     0
102
RTVSPost2010PropOp49
 70
     1
102
RTVSPost2010Prop50
 90
       50
102
RTVSPost2010PropOp50
 70
     1
102
RTVSPost2010Prop51ColorIndex
 90
      256
102
RTVSPost2010Prop51ColorRGB
 90
-16777216
102
RTVSPost2010PropOp51
 70
     0
102
RTVSPost2010Prop52
140
1.0
102
RTVSPost2010PropOp52
 70
     0
102
RTVSPost2010Prop53
 90
        2
102
RTVSPost2010PropOp53
 70
     1
102
RTVSPost2010Prop54
  1
strokes_ogs.tif
102
RTVSPost2010PropOp54
 70
     1
102
RTVSPost2010Prop55
280
     0
102
RTVSPost2010PropOp55
 70
     1
102
RTVSPost2010Prop56
140
1.0
102
RTVSPost2010PropOp56
 70
     1
102
RTVSPost2010Prop57
140
1.0
102
RTVSPost2010PropOp57
 70
     1
  0
XRECORD
  5
106AD5E
102
{ACAD_REACTORS
330
106AD5D
102
}
330
106AD5D
100
AcDbXrecord
280
     1
102
RTVSPropertyOp0
 70
     1
102
RTVSPropertyOp1
 70
     1
102
RTVSPropertyOp2
 70
     1
102
RTVSPropertyOp3
 70
     1
102
RTVSPropertyOp4
 70
     1
102
RTVSPropertyOp5
 70
     1
102
RTVSPropertyOp6
 70
     1
102
RTVSPropertyOp7
 70
     1
102
RTVSPropertyOp8
 70
     1
102
RTVSPropertyOp9
 70
     1
102
RTVSPropertyOp10
 70
     1
102
RTVSPropertyOp11
 70
     1
102
RTVSPropertyOp12
 70
     1
102
RTVSPropertyOp13
 70
     1
102
RTVSPropertyOp14
 70
     1
102
RTVSPropertyOp15
 70
     1
102
RTVSPropertyOp16
 70
     1
102
RTVSPropertyOp17
 70
     1
102
RTVSPropertyOp18
 70
     1
102
RTVSPropertyOp19
 70
     1
102
RTVSPropertyOp20
 70
     1
102
RTVSPropertyOp21
 70
     1
102
RTVSPropertyOp22
 70
     1
102
RTVSPropertyOp23
 70
     1
102
RTVSPropertyOp24
 70
     1
102
RTVSPropertyOp25
 70
     1
102
RTVSPropertyOp26
 70
     1
102
RTVSPropertyOp27
 70
     1
102
RTVSPropertyOp28
 70
     1
102
RTVSPropertyOp29
 70
     1
102
RTVSPropertyOp30
 70
     1
102
RTVSPropertyOp31
 70
     1
102
RTVSPropertyOp32
 70
     1
102
RTVSPropertyOp33
 70
     1
102
RTVSPropertyOp34
 70
     1
102
RTVSPropertyOp35
 70
     1
102
RTVSPropertyOp36
 70
     1
102
RTVSPropertyOp37
 70
     1
102
RTVSPropertyOp38
 70
     1
102
RTVSPropertyOp39
 70
     1
102
RTVSPropertyOp40
 70
     1
102
RTVSPropertyOp41
 70
     1
102
RTVSPropertyOp42
 70
     1
102
RTVSPropertyOp43
 70
     1
102
RTVSPropertyOp44
 70
     1
102
RTVSPropertyOp45
 70
     1
102
RTVSPropertyOp46
 70
     1
102
RTVSPropertyOp47
 70
     1
102
RTVSPropertyOp48
 70
     1
102
RTVSPropertyOp49
 70
     1
102
RTVSPropertyOp50
 70
     1
102
RTVSPropertyOp51
 70
     0
102
RTVSPropertyOp52
 70
     0
102
RTVSPropertyOp53
 70
     1
102
RTVSPropertyOp54
 70
     1
102
RTVSPropertyOp55
 70
     1
102
RTVSPropertyOp56
 70
     1
102
RTVSPropertyOp57
 70
     1
102
RTVSPost2010Prop28
280
     0
102
RTVSPost2010PropOp28
 70
     1
102
RTVSPost2010Prop29
280
     1
102
RTVSPost2010PropOp29
 70
     1
102
RTVSPost2010Prop30
280
     1
102
RTVSPost2010PropOp30
 70
     1
102
RTVSPost2010Prop31
280
     0
102
RTVSPost2010PropOp31
 70
     1
102
RTVSPost2010Prop32
280
     0
102
RTVSPost2010PropOp32
 70
     1
102
RTVSPost2010Prop33
280
     0
102
RTVSPost2010PropOp33
 70
     1
102
RTVSPost2010Prop34
280
     0
102
RTVSPost2010PropOp34
 70
     1
102
RTVSPost2010Prop35
280
     0
102
RTVSPost2010PropOp35
 70
     1
102
RTVSPost2010Prop36
280
     0
102
RTVSPost2010PropOp36
 70
     1
102
RTVSPost2010Prop37
 90
       50
102
RTVSPost2010PropOp37
 70
     1
102
RTVSPost2010Prop38
140
0.0
102
RTVSPost2010PropOp38
 70
     1
102
RTVSPost2010Prop39
140
1.0
102
RTVSPost2010PropOp39
 70
     1
102
RTVSPost2010Prop40
 90
        0
102
RTVSPost2010PropOp40
 70
     1
102
RTVSPost2010Prop41ColorIndex
 90
       18
102
RTVSPost2010Prop41ColorRGB
 90
        0
102
RTVSPost2010PropOp41
 70
     1
102
RTVSPost2010Prop42
 90
       50
102
RTVSPost2010PropOp42
 70
     1
102
RTVSPost2010Prop43
 90
        3
102
RTVSPost2010PropOp43
 70
     1
102
RTVSPost2010Prop44ColorIndex
 90
        5
102
RTVSPost2010Prop44ColorRGB
 90
      255
102
RTVSPost2010PropOp44
 70
     1
102
RTVSPost2010Prop45
280
     0
102
RTVSPost2010PropOp45
 70
     1
102
RTVSPost2010Prop46
 90
       50
102
RTVSPost2010PropOp46
 70
     1
102
RTVSPost2010Prop47
 90
       50
102
RTVSPost2010PropOp47
 70
     1
102
RTVSPost2010Prop48
 90
       50
102
RTVSPost2010PropOp48
 70
     1
102
RTVSPost2010Prop49
280
     0
102
RTVSPost2010PropOp49
 70
     1
102
RTVSPost2010Prop50
 90
       50
102
RTVSPost2010PropOp50
 70
     1
102
RTVSPost2010Prop51ColorIndex
 90
      256
102
RTVSPost2010Prop51ColorRGB
 90
-16777216
102
RTVSPost2010PropOp51
 70
     0
102
RTVSPost2010Prop52
140
1.0
102
RTVSPost2010PropOp52
 70
     0
102
RTVSPost2010Prop53
 90
        2
102
RTVSPost2010PropOp53
 70
     1
102
RTVSPost2010Prop54
  1
strokes_ogs.tif
102
RTVSPost2010PropOp54
 70
     1
102
RTVSPost2010Prop55
280
     0
102
RTVSPost2010PropOp55
 70
     1
102
RTVSPost2010Prop56
140
1.0
102
RTVSPost2010PropOp56
 70
     1
102
RTVSPost2010Prop57
140
1.0
102
RTVSPost2010PropOp57
 70
     1
  0
XRECORD
  5
106AD60
102
{ACAD_REACTORS
330
106AD5F
102
}
330
106AD5F
100
AcDbXrecord
280
     1
102
RTVSPropertyOp0
 70
     1
102
RTVSPropertyOp1
 70
     1
102
RTVSPropertyOp2
 70
     1
102
RTVSPropertyOp3
 70
     1
102
RTVSPropertyOp4
 70
     1
102
RTVSPropertyOp5
 70
     1
102
RTVSPropertyOp6
 70
     1
102
RTVSPropertyOp7
 70
     1
102
RTVSPropertyOp8
 70
     1
102
RTVSPropertyOp9
 70
     1
102
RTVSPropertyOp10
 70
     1
102
RTVSPropertyOp11
 70
     1
102
RTVSPropertyOp12
 70
     1
102
RTVSPropertyOp13
 70
     1
102
RTVSPropertyOp14
 70
     1
102
RTVSPropertyOp15
 70
     1
102
RTVSPropertyOp16
 70
     1
102
RTVSPropertyOp17
 70
     1
102
RTVSPropertyOp18
 70
     1
102
RTVSPropertyOp19
 70
     1
102
RTVSPropertyOp20
 70
     1
102
RTVSPropertyOp21
 70
     1
102
RTVSPropertyOp22
 70
     1
102
RTVSPropertyOp23
 70
     1
102
RTVSPropertyOp24
 70
     1
102
RTVSPropertyOp25
 70
     1
102
RTVSPropertyOp26
 70
     1
102
RTVSPropertyOp27
 70
     1
102
RTVSPropertyOp28
 70
     1
102
RTVSPropertyOp29
 70
     1
102
RTVSPropertyOp30
 70
     1
102
RTVSPropertyOp31
 70
     1
102
RTVSPropertyOp32
 70
     1
102
RTVSPropertyOp33
 70
     1
102
RTVSPropertyOp34
 70
     1
102
RTVSPropertyOp35
 70
     1
102
RTVSPropertyOp36
 70
     1
102
RTVSPropertyOp37
 70
     1
102
RTVSPropertyOp38
 70
     1
102
RTVSPropertyOp39
 70
     1
102
RTVSPropertyOp40
 70
     1
102
RTVSPropertyOp41
 70
     1
102
RTVSPropertyOp42
 70
     1
102
RTVSPropertyOp43
 70
     1
102
RTVSPropertyOp44
 70
     1
102
RTVSPropertyOp45
 70
     1
102
RTVSPropertyOp46
 70
     1
102
RTVSPropertyOp47
 70
     1
102
RTVSPropertyOp48
 70
     1
102
RTVSPropertyOp49
 70
     1
102
RTVSPropertyOp50
 70
     1
102
RTVSPropertyOp51
 70
     0
102
RTVSPropertyOp52
 70
     0
102
RTVSPropertyOp53
 70
     1
102
RTVSPropertyOp54
 70
     1
102
RTVSPropertyOp55
 70
     1
102
RTVSPropertyOp56
 70
     1
102
RTVSPropertyOp57
 70
     1
102
RTVSPost2010Prop28
280
     0
102
RTVSPost2010PropOp28
 70
     1
102
RTVSPost2010Prop29
280
     1
102
RTVSPost2010PropOp29
 70
     1
102
RTVSPost2010Prop30
280
     1
102
RTVSPost2010PropOp30
 70
     1
102
RTVSPost2010Prop31
280
     0
102
RTVSPost2010PropOp31
 70
     1
102
RTVSPost2010Prop32
280
     0
102
RTVSPost2010PropOp32
 70
     1
102
RTVSPost2010Prop33
280
     0
102
RTVSPost2010PropOp33
 70
     1
102
RTVSPost2010Prop34
280
     0
102
RTVSPost2010PropOp34
 70
     1
102
RTVSPost2010Prop35
280
     0
102
RTVSPost2010PropOp35
 70
     1
102
RTVSPost2010Prop36
280
     0
102
RTVSPost2010PropOp36
 70
     1
102
RTVSPost2010Prop37
 90
       50
102
RTVSPost2010PropOp37
 70
     1
102
RTVSPost2010Prop38
140
0.0
102
RTVSPost2010PropOp38
 70
     1
102
RTVSPost2010Prop39
140
1.0
102
RTVSPost2010PropOp39
 70
     1
102
RTVSPost2010Prop40
 90
        0
102
RTVSPost2010PropOp40
 70
     1
102
RTVSPost2010Prop41ColorIndex
 90
       18
102
RTVSPost2010Prop41ColorRGB
 90
        0
102
RTVSPost2010PropOp41
 70
     1
102
RTVSPost2010Prop42
 90
       50
102
RTVSPost2010PropOp42
 70
     1
102
RTVSPost2010Prop43
 90
        3
102
RTVSPost2010PropOp43
 70
     1
102
RTVSPost2010Prop44ColorIndex
 90
        5
102
RTVSPost2010Prop44ColorRGB
 90
      255
102
RTVSPost2010PropOp44
 70
     1
102
RTVSPost2010Prop45
280
     0
102
RTVSPost2010PropOp45
 70
     1
102
RTVSPost2010Prop46
 90
       50
102
RTVSPost2010PropOp46
 70
     1
102
RTVSPost2010Prop47
 90
       50
102
RTVSPost2010PropOp47
 70
     1
102
RTVSPost2010Prop48
 90
       50
102
RTVSPost2010PropOp48
 70
     1
102
RTVSPost2010Prop49
280
     0
102
RTVSPost2010PropOp49
 70
     1
102
RTVSPost2010Prop50
 90
       50
102
RTVSPost2010PropOp50
 70
     1
102
RTVSPost2010Prop51ColorIndex
 90
      256
102
RTVSPost2010Prop51ColorRGB
 90
-16777216
102
RTVSPost2010PropOp51
 70
     0
102
RTVSPost2010Prop52
140
1.0
102
RTVSPost2010PropOp52
 70
     0
102
RTVSPost2010Prop53
 90
        2
102
RTVSPost2010PropOp53
 70
     1
102
RTVSPost2010Prop54
  1
strokes_ogs.tif
102
RTVSPost2010PropOp54
 70
     1
102
RTVSPost2010Prop55
280
     0
102
RTVSPost2010PropOp55
 70
     1
102
RTVSPost2010Prop56
140
1.0
102
RTVSPost2010PropOp56
 70
     1
102
RTVSPost2010Prop57
140
1.0
102
RTVSPost2010PropOp57
 70
     1
  0
XRECORD
  5
106AD62
102
{ACAD_REACTORS
330
106AD61
102
}
330
106AD61
100
AcDbXrecord
280
     1
102
RTVSPropertyOp0
 70
     1
102
RTVSPropertyOp1
 70
     1
102
RTVSPropertyOp2
 70
     1
102
RTVSPropertyOp3
 70
     1
102
RTVSPropertyOp4
 70
     1
102
RTVSPropertyOp5
 70
     1
102
RTVSPropertyOp6
 70
     1
102
RTVSPropertyOp7
 70
     1
102
RTVSPropertyOp8
 70
     1
102
RTVSPropertyOp9
 70
     1
102
RTVSPropertyOp10
 70
     1
102
RTVSPropertyOp11
 70
     1
102
RTVSPropertyOp12
 70
     1
102
RTVSPropertyOp13
 70
     1
102
RTVSPropertyOp14
 70
     1
102
RTVSPropertyOp15
 70
     1
102
RTVSPropertyOp16
 70
     1
102
RTVSPropertyOp17
 70
     1
102
RTVSPropertyOp18
 70
     1
102
RTVSPropertyOp19
 70
     1
102
RTVSPropertyOp20
 70
     1
102
RTVSPropertyOp21
 70
     1
102
RTVSPropertyOp22
 70
     1
102
RTVSPropertyOp23
 70
     1
102
RTVSPropertyOp24
 70
     1
102
RTVSPropertyOp25
 70
     1
102
RTVSPropertyOp26
 70
     1
102
RTVSPropertyOp27
 70
     1
102
RTVSPropertyOp28
 70
     1
102
RTVSPropertyOp29
 70
     1
102
RTVSPropertyOp30
 70
     1
102
RTVSPropertyOp31
 70
     1
102
RTVSPropertyOp32
 70
     1
102
RTVSPropertyOp33
 70
     1
102
RTVSPropertyOp34
 70
     1
102
RTVSPropertyOp35
 70
     1
102
RTVSPropertyOp36
 70
     1
102
RTVSPropertyOp37
 70
     1
102
RTVSPropertyOp38
 70
     1
102
RTVSPropertyOp39
 70
     1
102
RTVSPropertyOp40
 70
     1
102
RTVSPropertyOp41
 70
     1
102
RTVSPropertyOp42
 70
     1
102
RTVSPropertyOp43
 70
     1
102
RTVSPropertyOp44
 70
     1
102
RTVSPropertyOp45
 70
     1
102
RTVSPropertyOp46
 70
     1
102
RTVSPropertyOp47
 70
     1
102
RTVSPropertyOp48
 70
     1
102
RTVSPropertyOp49
 70
     1
102
RTVSPropertyOp50
 70
     1
102
RTVSPropertyOp51
 70
     0
102
RTVSPropertyOp52
 70
     0
102
RTVSPropertyOp53
 70
     1
102
RTVSPropertyOp54
 70
     1
102
RTVSPropertyOp55
 70
     1
102
RTVSPropertyOp56
 70
     1
102
RTVSPropertyOp57
 70
     1
102
RTVSPost2010Prop28
280
     0
102
RTVSPost2010PropOp28
 70
     1
102
RTVSPost2010Prop29
280
     1
102
RTVSPost2010PropOp29
 70
     1
102
RTVSPost2010Prop30
280
     1
102
RTVSPost2010PropOp30
 70
     1
102
RTVSPost2010Prop31
280
     0
102
RTVSPost2010PropOp31
 70
     1
102
RTVSPost2010Prop32
280
     0
102
RTVSPost2010PropOp32
 70
     1
102
RTVSPost2010Prop33
280
     0
102
RTVSPost2010PropOp33
 70
     1
102
RTVSPost2010Prop34
280
     0
102
RTVSPost2010PropOp34
 70
     1
102
RTVSPost2010Prop35
280
     0
102
RTVSPost2010PropOp35
 70
     1
102
RTVSPost2010Prop36
280
     0
102
RTVSPost2010PropOp36
 70
     1
102
RTVSPost2010Prop37
 90
       50
102
RTVSPost2010PropOp37
 70
     1
102
RTVSPost2010Prop38
140
0.0
102
RTVSPost2010PropOp38
 70
     1
102
RTVSPost2010Prop39
140
1.0
102
RTVSPost2010PropOp39
 70
     1
102
RTVSPost2010Prop40
 90
        0
102
RTVSPost2010PropOp40
 70
     1
102
RTVSPost2010Prop41ColorIndex
 90
       18
102
RTVSPost2010Prop41ColorRGB
 90
        0
102
RTVSPost2010PropOp41
 70
     1
102
RTVSPost2010Prop42
 90
       50
102
RTVSPost2010PropOp42
 70
     1
102
RTVSPost2010Prop43
 90
        3
102
RTVSPost2010PropOp43
 70
     1
102
RTVSPost2010Prop44ColorIndex
 90
        5
102
RTVSPost2010Prop44ColorRGB
 90
      255
102
RTVSPost2010PropOp44
 70
     1
102
RTVSPost2010Prop45
280
     0
102
RTVSPost2010PropOp45
 70
     1
102
RTVSPost2010Prop46
 90
       50
102
RTVSPost2010PropOp46
 70
     1
102
RTVSPost2010Prop47
 90
       50
102
RTVSPost2010PropOp47
 70
     1
102
RTVSPost2010Prop48
 90
       50
102
RTVSPost2010PropOp48
 70
     1
102
RTVSPost2010Prop49
280
     0
102
RTVSPost2010PropOp49
 70
     1
102
RTVSPost2010Prop50
 90
       50
102
RTVSPost2010PropOp50
 70
     1
102
RTVSPost2010Prop51ColorIndex
 90
      256
102
RTVSPost2010Prop51ColorRGB
 90
-16777216
102
RTVSPost2010PropOp51
 70
     0
102
RTVSPost2010Prop52
140
1.0
102
RTVSPost2010PropOp52
 70
     0
102
RTVSPost2010Prop53
 90
        2
102
RTVSPost2010PropOp53
 70
     1
102
RTVSPost2010Prop54
  1
strokes_ogs.tif
102
RTVSPost2010PropOp54
 70
     1
102
RTVSPost2010Prop55
280
     0
102
RTVSPost2010PropOp55
 70
     1
102
RTVSPost2010Prop56
140
1.0
102
RTVSPost2010PropOp56
 70
     1
102
RTVSPost2010Prop57
140
1.0
102
RTVSPost2010PropOp57
 70
     1
  0
XRECORD
  5
106AD64
102
{ACAD_REACTORS
330
106AD63
102
}
330
106AD63
100
AcDbXrecord
280
     1
102
RTVSPropertyOp0
 70
     1
102
RTVSPropertyOp1
 70
     1
102
RTVSPropertyOp2
 70
     1
102
RTVSPropertyOp3
 70
     1
102
RTVSPropertyOp4
 70
     1
102
RTVSPropertyOp5
 70
     1
102
RTVSPropertyOp6
 70
     1
102
RTVSPropertyOp7
 70
     1
102
RTVSPropertyOp8
 70
     1
102
RTVSPropertyOp9
 70
     1
102
RTVSPropertyOp10
 70
     1
102
RTVSPropertyOp11
 70
     1
102
RTVSPropertyOp12
 70
     1
102
RTVSPropertyOp13
 70
     1
102
RTVSPropertyOp14
 70
     1
102
RTVSPropertyOp15
 70
     1
102
RTVSPropertyOp16
 70
     1
102
RTVSPropertyOp17
 70
     1
102
RTVSPropertyOp18
 70
     1
102
RTVSPropertyOp19
 70
     1
102
RTVSPropertyOp20
 70
     1
102
RTVSPropertyOp21
 70
     1
102
RTVSPropertyOp22
 70
     1
102
RTVSPropertyOp23
 70
     1
102
RTVSPropertyOp24
 70
     1
102
RTVSPropertyOp25
 70
     1
102
RTVSPropertyOp26
 70
     1
102
RTVSPropertyOp27
 70
     1
102
RTVSPropertyOp28
 70
     1
102
RTVSPropertyOp29
 70
     1
102
RTVSPropertyOp30
 70
     1
102
RTVSPropertyOp31
 70
     1
102
RTVSPropertyOp32
 70
     1
102
RTVSPropertyOp33
 70
     1
102
RTVSPropertyOp34
 70
     1
102
RTVSPropertyOp35
 70
     1
102
RTVSPropertyOp36
 70
     1
102
RTVSPropertyOp37
 70
     1
102
RTVSPropertyOp38
 70
     1
102
RTVSPropertyOp39
 70
     1
102
RTVSPropertyOp40
 70
     1
102
RTVSPropertyOp41
 70
     1
102
RTVSPropertyOp42
 70
     1
102
RTVSPropertyOp43
 70
     1
102
RTVSPropertyOp44
 70
     1
102
RTVSPropertyOp45
 70
     1
102
RTVSPropertyOp46
 70
     1
102
RTVSPropertyOp47
 70
     1
102
RTVSPropertyOp48
 70
     1
102
RTVSPropertyOp49
 70
     1
102
RTVSPropertyOp50
 70
     1
102
RTVSPropertyOp51
 70
     0
102
RTVSPropertyOp52
 70
     0
102
RTVSPropertyOp53
 70
     1
102
RTVSPropertyOp54
 70
     1
102
RTVSPropertyOp55
 70
     1
102
RTVSPropertyOp56
 70
     1
102
RTVSPropertyOp57
 70
     1
102
RTVSPost2010Prop28
280
     0
102
RTVSPost2010PropOp28
 70
     1
102
RTVSPost2010Prop29
280
     1
102
RTVSPost2010PropOp29
 70
     1
102
RTVSPost2010Prop30
280
     1
102
RTVSPost2010PropOp30
 70
     1
102
RTVSPost2010Prop31
280
     0
102
RTVSPost2010PropOp31
 70
     1
102
RTVSPost2010Prop32
280
     0
102
RTVSPost2010PropOp32
 70
     1
102
RTVSPost2010Prop33
280
     0
102
RTVSPost2010PropOp33
 70
     1
102
RTVSPost2010Prop34
280
     0
102
RTVSPost2010PropOp34
 70
     1
102
RTVSPost2010Prop35
280
     0
102
RTVSPost2010PropOp35
 70
     1
102
RTVSPost2010Prop36
280
     0
102
RTVSPost2010PropOp36
 70
     1
102
RTVSPost2010Prop37
 90
       50
102
RTVSPost2010PropOp37
 70
     1
102
RTVSPost2010Prop38
140
0.0
102
RTVSPost2010PropOp38
 70
     1
102
RTVSPost2010Prop39
140
1.0
102
RTVSPost2010PropOp39
 70
     1
102
RTVSPost2010Prop40
 90
        0
102
RTVSPost2010PropOp40
 70
     1
102
RTVSPost2010Prop41ColorIndex
 90
       18
102
RTVSPost2010Prop41ColorRGB
 90
        0
102
RTVSPost2010PropOp41
 70
     1
102
RTVSPost2010Prop42
 90
       50
102
RTVSPost2010PropOp42
 70
     1
102
RTVSPost2010Prop43
 90
        3
102
RTVSPost2010PropOp43
 70
     1
102
RTVSPost2010Prop44ColorIndex
 90
        5
102
RTVSPost2010Prop44ColorRGB
 90
      255
102
RTVSPost2010PropOp44
 70
     1
102
RTVSPost2010Prop45
280
     0
102
RTVSPost2010PropOp45
 70
     1
102
RTVSPost2010Prop46
 90
       50
102
RTVSPost2010PropOp46
 70
     1
102
RTVSPost2010Prop47
 90
       50
102
RTVSPost2010PropOp47
 70
     1
102
RTVSPost2010Prop48
 90
       50
102
RTVSPost2010PropOp48
 70
     1
102
RTVSPost2010Prop49
280
     0
102
RTVSPost2010PropOp49
 70
     1
102
RTVSPost2010Prop50
 90
       50
102
RTVSPost2010PropOp50
 70
     1
102
RTVSPost2010Prop51ColorIndex
 90
      256
102
RTVSPost2010Prop51ColorRGB
 90
-16777216
102
RTVSPost2010PropOp51
 70
     0
102
RTVSPost2010Prop52
140
1.0
102
RTVSPost2010PropOp52
 70
     0
102
RTVSPost2010Prop53
 90
        2
102
RTVSPost2010PropOp53
 70
     1
102
RTVSPost2010Prop54
  1
strokes_ogs.tif
102
RTVSPost2010PropOp54
 70
     1
102
RTVSPost2010Prop55
280
     0
102
RTVSPost2010PropOp55
 70
     1
102
RTVSPost2010Prop56
140
1.0
102
RTVSPost2010PropOp56
 70
     1
102
RTVSPost2010Prop57
140
1.0
102
RTVSPost2010PropOp57
 70
     1
  0
XRECORD
  5
106AD66
102
{ACAD_REACTORS
330
106AD65
102
}
330
106AD65
100
AcDbXrecord
280
     1
102
RTVSPropertyOp0
 70
     1
102
RTVSPropertyOp1
 70
     1
102
RTVSPropertyOp2
 70
     1
102
RTVSPropertyOp3
 70
     1
102
RTVSPropertyOp4
 70
     1
102
RTVSPropertyOp5
 70
     1
102
RTVSPropertyOp6
 70
     1
102
RTVSPropertyOp7
 70
     1
102
RTVSPropertyOp8
 70
     1
102
RTVSPropertyOp9
 70
     1
102
RTVSPropertyOp10
 70
     1
102
RTVSPropertyOp11
 70
     1
102
RTVSPropertyOp12
 70
     1
102
RTVSPropertyOp13
 70
     1
102
RTVSPropertyOp14
 70
     1
102
RTVSPropertyOp15
 70
     1
102
RTVSPropertyOp16
 70
     1
102
RTVSPropertyOp17
 70
     1
102
RTVSPropertyOp18
 70
     1
102
RTVSPropertyOp19
 70
     1
102
RTVSPropertyOp20
 70
     1
102
RTVSPropertyOp21
 70
     1
102
RTVSPropertyOp22
 70
     1
102
RTVSPropertyOp23
 70
     1
102
RTVSPropertyOp24
 70
     1
102
RTVSPropertyOp25
 70
     1
102
RTVSPropertyOp26
 70
     1
102
RTVSPropertyOp27
 70
     1
102
RTVSPropertyOp28
 70
     1
102
RTVSPropertyOp29
 70
     1
102
RTVSPropertyOp30
 70
     1
102
RTVSPropertyOp31
 70
     1
102
RTVSPropertyOp32
 70
     1
102
RTVSPropertyOp33
 70
     1
102
RTVSPropertyOp34
 70
     1
102
RTVSPropertyOp35
 70
     1
102
RTVSPropertyOp36
 70
     1
102
RTVSPropertyOp37
 70
     1
102
RTVSPropertyOp38
 70
     1
102
RTVSPropertyOp39
 70
     1
102
RTVSPropertyOp40
 70
     1
102
RTVSPropertyOp41
 70
     1
102
RTVSPropertyOp42
 70
     1
102
RTVSPropertyOp43
 70
     1
102
RTVSPropertyOp44
 70
     1
102
RTVSPropertyOp45
 70
     1
102
RTVSPropertyOp46
 70
     1
102
RTVSPropertyOp47
 70
     1
102
RTVSPropertyOp48
 70
     1
102
RTVSPropertyOp49
 70
     1
102
RTVSPropertyOp50
 70
     1
102
RTVSPropertyOp51
 70
     0
102
RTVSPropertyOp52
 70
     0
102
RTVSPropertyOp53
 70
     1
102
RTVSPropertyOp54
 70
     1
102
RTVSPropertyOp55
 70
     1
102
RTVSPropertyOp56
 70
     1
102
RTVSPropertyOp57
 70
     1
102
RTVSPost2010Prop28
280
     0
102
RTVSPost2010PropOp28
 70
     1
102
RTVSPost2010Prop29
280
     1
102
RTVSPost2010PropOp29
 70
     1
102
RTVSPost2010Prop30
280
     1
102
RTVSPost2010PropOp30
 70
     1
102
RTVSPost2010Prop31
280
     0
102
RTVSPost2010PropOp31
 70
     1
102
RTVSPost2010Prop32
280
     0
102
RTVSPost2010PropOp32
 70
     1
102
RTVSPost2010Prop33
280
     0
102
RTVSPost2010PropOp33
 70
     1
102
RTVSPost2010Prop34
280
     0
102
RTVSPost2010PropOp34
 70
     1
102
RTVSPost2010Prop35
280
     0
102
RTVSPost2010PropOp35
 70
     1
102
RTVSPost2010Prop36
280
     0
102
RTVSPost2010PropOp36
 70
     1
102
RTVSPost2010Prop37
 90
       50
102
RTVSPost2010PropOp37
 70
     1
102
RTVSPost2010Prop38
140
0.0
102
RTVSPost2010PropOp38
 70
     1
102
RTVSPost2010Prop39
140
1.0
102
RTVSPost2010PropOp39
 70
     1
102
RTVSPost2010Prop40
 90
        0
102
RTVSPost2010PropOp40
 70
     1
102
RTVSPost2010Prop41ColorIndex
 90
       18
102
RTVSPost2010Prop41ColorRGB
 90
        0
102
RTVSPost2010PropOp41
 70
     1
102
RTVSPost2010Prop42
 90
       50
102
RTVSPost2010PropOp42
 70
     1
102
RTVSPost2010Prop43
 90
        3
102
RTVSPost2010PropOp43
 70
     1
102
RTVSPost2010Prop44ColorIndex
 90
        5
102
RTVSPost2010Prop44ColorRGB
 90
      255
102
RTVSPost2010PropOp44
 70
     1
102
RTVSPost2010Prop45
280
     0
102
RTVSPost2010PropOp45
 70
     1
102
RTVSPost2010Prop46
 90
       50
102
RTVSPost2010PropOp46
 70
     1
102
RTVSPost2010Prop47
 90
       50
102
RTVSPost2010PropOp47
 70
     1
102
RTVSPost2010Prop48
 90
       50
102
RTVSPost2010PropOp48
 70
     1
102
RTVSPost2010Prop49
280
     0
102
RTVSPost2010PropOp49
 70
     1
102
RTVSPost2010Prop50
 90
       50
102
RTVSPost2010PropOp50
 70
     1
102
RTVSPost2010Prop51ColorIndex
 90
      256
102
RTVSPost2010Prop51ColorRGB
 90
-16777216
102
RTVSPost2010PropOp51
 70
     0
102
RTVSPost2010Prop52
140
1.0
102
RTVSPost2010PropOp52
 70
     0
102
RTVSPost2010Prop53
 90
        2
102
RTVSPost2010PropOp53
 70
     1
102
RTVSPost2010Prop54
  1
strokes_ogs.tif
102
RTVSPost2010PropOp54
 70
     1
102
RTVSPost2010Prop55
280
     0
102
RTVSPost2010PropOp55
 70
     1
102
RTVSPost2010Prop56
140
1.0
102
RTVSPost2010PropOp56
 70
     1
102
RTVSPost2010Prop57
140
1.0
102
RTVSPost2010PropOp57
 70
     1
  0
XRECORD
  5
106AD68
102
{ACAD_REACTORS
330
106AD67
102
}
330
106AD67
100
AcDbXrecord
280
     1
102
RTVSPropertyOp0
 70
     1
102
RTVSPropertyOp1
 70
     1
102
RTVSPropertyOp2
 70
     1
102
RTVSPropertyOp3
 70
     1
102
RTVSPropertyOp4
 70
     1
102
RTVSPropertyOp5
 70
     1
102
RTVSPropertyOp6
 70
     1
102
RTVSPropertyOp7
 70
     1
102
RTVSPropertyOp8
 70
     1
102
RTVSPropertyOp9
 70
     1
102
RTVSPropertyOp10
 70
     1
102
RTVSPropertyOp11
 70
     1
102
RTVSPropertyOp12
 70
     1
102
RTVSPropertyOp13
 70
     1
102
RTVSPropertyOp14
 70
     1
102
RTVSPropertyOp15
 70
     1
102
RTVSPropertyOp16
 70
     1
102
RTVSPropertyOp17
 70
     1
102
RTVSPropertyOp18
 70
     1
102
RTVSPropertyOp19
 70
     1
102
RTVSPropertyOp20
 70
     1
102
RTVSPropertyOp21
 70
     1
102
RTVSPropertyOp22
 70
     1
102
RTVSPropertyOp23
 70
     1
102
RTVSPropertyOp24
 70
     1
102
RTVSPropertyOp25
 70
     1
102
RTVSPropertyOp26
 70
     1
102
RTVSPropertyOp27
 70
     1
102
RTVSPropertyOp28
 70
     1
102
RTVSPropertyOp29
 70
     1
102
RTVSPropertyOp30
 70
     1
102
RTVSPropertyOp31
 70
     1
102
RTVSPropertyOp32
 70
     1
102
RTVSPropertyOp33
 70
     1
102
RTVSPropertyOp34
 70
     1
102
RTVSPropertyOp35
 70
     1
102
RTVSPropertyOp36
 70
     1
102
RTVSPropertyOp37
 70
     1
102
RTVSPropertyOp38
 70
     1
102
RTVSPropertyOp39
 70
     1
102
RTVSPropertyOp40
 70
     1
102
RTVSPropertyOp41
 70
     1
102
RTVSPropertyOp42
 70
     1
102
RTVSPropertyOp43
 70
     1
102
RTVSPropertyOp44
 70
     1
102
RTVSPropertyOp45
 70
     1
102
RTVSPropertyOp46
 70
     1
102
RTVSPropertyOp47
 70
     1
102
RTVSPropertyOp48
 70
     1
102
RTVSPropertyOp49
 70
     1
102
RTVSPropertyOp50
 70
     1
102
RTVSPropertyOp51
 70
     0
102
RTVSPropertyOp52
 70
     0
102
RTVSPropertyOp53
 70
     1
102
RTVSPropertyOp54
 70
     1
102
RTVSPropertyOp55
 70
     1
102
RTVSPropertyOp56
 70
     1
102
RTVSPropertyOp57
 70
     1
102
RTVSPost2010Prop28
280
     0
102
RTVSPost2010PropOp28
 70
     1
102
RTVSPost2010Prop29
280
     1
102
RTVSPost2010PropOp29
 70
     1
102
RTVSPost2010Prop30
280
     1
102
RTVSPost2010PropOp30
 70
     1
102
RTVSPost2010Prop31
280
     0
102
RTVSPost2010PropOp31
 70
     1
102
RTVSPost2010Prop32
280
     0
102
RTVSPost2010PropOp32
 70
     1
102
RTVSPost2010Prop33
280
     0
102
RTVSPost2010PropOp33
 70
     1
102
RTVSPost2010Prop34
280
     0
102
RTVSPost2010PropOp34
 70
     1
102
RTVSPost2010Prop35
280
     0
102
RTVSPost2010PropOp35
 70
     1
102
RTVSPost2010Prop36
280
     0
102
RTVSPost2010PropOp36
 70
     1
102
RTVSPost2010Prop37
 90
       50
102
RTVSPost2010PropOp37
 70
     1
102
RTVSPost2010Prop38
140
0.0
102
RTVSPost2010PropOp38
 70
     1
102
RTVSPost2010Prop39
140
1.0
102
RTVSPost2010PropOp39
 70
     1
102
RTVSPost2010Prop40
 90
        0
102
RTVSPost2010PropOp40
 70
     1
102
RTVSPost2010Prop41ColorIndex
 90
       18
102
RTVSPost2010Prop41ColorRGB
 90
        0
102
RTVSPost2010PropOp41
 70
     1
102
RTVSPost2010Prop42
 90
       50
102
RTVSPost2010PropOp42
 70
     1
102
RTVSPost2010Prop43
 90
        3
102
RTVSPost2010PropOp43
 70
     1
102
RTVSPost2010Prop44ColorIndex
 90
        5
102
RTVSPost2010Prop44ColorRGB
 90
      255
102
RTVSPost2010PropOp44
 70
     1
102
RTVSPost2010Prop45
280
     0
102
RTVSPost2010PropOp45
 70
     1
102
RTVSPost2010Prop46
 90
       50
102
RTVSPost2010PropOp46
 70
     1
102
RTVSPost2010Prop47
 90
       50
102
RTVSPost2010PropOp47
 70
     1
102
RTVSPost2010Prop48
 90
       50
102
RTVSPost2010PropOp48
 70
     1
102
RTVSPost2010Prop49
280
     0
102
RTVSPost2010PropOp49
 70
     1
102
RTVSPost2010Prop50
 90
       50
102
RTVSPost2010PropOp50
 70
     1
102
RTVSPost2010Prop51ColorIndex
 90
      256
102
RTVSPost2010Prop51ColorRGB
 90
-16777216
102
RTVSPost2010PropOp51
 70
     0
102
RTVSPost2010Prop52
140
1.0
102
RTVSPost2010PropOp52
 70
     0
102
RTVSPost2010Prop53
 90
        2
102
RTVSPost2010PropOp53
 70
     1
102
RTVSPost2010Prop54
  1
strokes_ogs.tif
102
RTVSPost2010PropOp54
 70
     1
102
RTVSPost2010Prop55
280
     0
102
RTVSPost2010PropOp55
 70
     1
102
RTVSPost2010Prop56
140
1.0
102
RTVSPost2010PropOp56
 70
     1
102
RTVSPost2010Prop57
140
1.0
102
RTVSPost2010PropOp57
 70
     1
  0
ENDSEC
  0
EOF
