  0
SECTION
  2
HEADER
  9
$ACADVER
  1
AC1015
  9
$ACADMAINTVER
 70
     6
  9
$DWGCODEPAGE
  3
ANSI_932
  9
$INSBASE
 10
0.0
 20
0.0
 30
0.0
  9
$EXTMIN
 10
-15.0
 20
-45.0
 30
0.0
  9
$EXTMAX
 10
89.99999999999999
 20
45.0
 30
0.0
  9
$LIMMIN
 10
0.0
 20
0.0
  9
$LIMMAX
 10
12.0
 20
9.0
  9
$ORTHOMODE
 70
     0
  9
$REGENMODE
 70
     1
  9
$FILLMODE
 70
     1
  9
$QTEXTMODE
 70
     0
  9
$MIRRTEXT
 70
     1
  9
$LTSCALE
 40
1.0
  9
$ATTMODE
 70
     1
  9
$TEXTSIZE
 40
0.2
  9
$TRACEWID
 40
0.05
  9
$TEXTSTYLE
  7
Standard
  9
$CLAYER
  8
0
  9
$CELTYPE
  6
ByBlock
  9
$CECOLOR
 62
   256
  9
$CELTSCALE
 40
1.0
  9
$DISPSILH
 70
     0
  9
$DIMSCALE
 40
1.0
  9
$DIMASZ
 40
0.18
  9
$DIMEXO
 40
0.0625
  9
$DIMDLI
 40
0.38
  9
$DIMRND
 40
0.0
  9
$DIMDLE
 40
0.0
  9
$DIMEXE
 40
0.18
  9
$DIMTP
 40
0.0
  9
$DIMTM
 40
0.0
  9
$DIMTXT
 40
0.18
  9
$DIMCEN
 40
0.09
  9
$DIMTSZ
 40
0.0
  9
$DIMTOL
 70
     0
  9
$DIMLIM
 70
     0
  9
$DIMTIH
 70
     1
  9
$DIMTOH
 70
     1
  9
$DIMSE1
 70
     0
  9
$DIMSE2
 70
     0
  9
$DIMTAD
 70
     0
  9
$DIMZIN
 70
     0
  9
$DIMBLK
  1

  9
$DIMASO
 70
     1
  9
$DIMSHO
 70
     1
  9
$DIMPOST
  1

  9
$DIMAPOST
  1

  9
$DIMALT
 70
     0
  9
$DIMALTD
 70
     2
  9
$DIMALTF
 40
25.4
  9
$DIMLFAC
 40
1.0
  9
$DIMTOFL
 70
     0
  9
$DIMTVP
 40
0.0
  9
$DIMTIX
 70
     0
  9
$DIMSOXD
 70
     0
  9
$DIMSAH
 70
     0
  9
$DIMBLK1
  1

  9
$DIMBLK2
  1

  9
$DIMSTYLE
  2
STANDARD
  9
$DIMCLRD
 70
     0
  9
$DIMCLRE
 70
     0
  9
$DIMCLRT
 70
     0
  9
$DIMTFAC
 40
1.0
  9
$DIMGAP
 40
0.09
  9
$DIMJUST
 70
     0
  9
$DIMSD1
 70
     0
  9
$DIMSD2
 70
     0
  9
$DIMTOLJ
 70
     1
  9
$DIMTZIN
 70
     0
  9
$DIMALTZ
 70
     0
  9
$DIMALTTZ
 70
     0
  9
$DIMUPT
 70
     0
  9
$DIMDEC
 70
     4
  9
$DIMTDEC
 70
     4
  9
$DIMALTU
 70
     2
  9
$DIMALTTD
 70
     2
  9
$DIMTXSTY
  7
Standard
  9
$DIMAUNIT
 70
     0
  9
$DIMADEC
 70
     0
  9
$DIMALTRND
 40
0.0
  9
$DIMAZIN
 70
     0
  9
$DIMDSEP
 70
    46
  9
$DIMATFIT
 70
     3
  9
$DIMFRAC
 70
     0
  9
$DIMLDRBLK
  1

  9
$DIMLUNIT
 70
     2
  9
$DIMLWD
 70
    -2
  9
$DIMLWE
 70
    -2
  9
$DIMTMOVE
 70
     0
  9
$LUNITS
 70
     2
  9
$LUPREC
 70
     4
  9
$SKETCHINC
 40
0.1
  9
$FILLETRAD
 40
0.5
  9
$AUNITS
 70
     0
  9
$AUPREC
 70
     0
  9
$MENU
  1
.
  9
$ELEVATION
 40
0.0
  9
$PELEVATION
 40
0.0
  9
$THICKNESS
 40
0.0
  9
$LIMCHECK
 70
     0
  9
$CHAMFERA
 40
0.0
  9
$CHAMFERB
 40
0.0
  9
$CHAMFERC
 40
0.0
  9
$CHAMFERD
 40
0.0
  9
$SKPOLY
 70
     0
  9
$TDCREATE
 40
2447893.375
  9
$TDUCREATE
 40
0.0
  9
$TDUPDATE
 40
2460864.502198403
  9
$TDUUPDATE
 40
2460864.127198403
  9
$TDINDWG
 40
0.0038834491
  9
$TDUSRTIMER
 40
0.0007346644
  9
$USRTIMER
 70
     1
  9
$ANGBASE
 50
0.0
  9
$ANGDIR
 70
     0
  9
$PDMODE
 70
     0
  9
$PDSIZE
 40
0.0
  9
$PLINEWID
 40
0.0
  9
$SPLFRAME
 70
     0
  9
$SPLINETYPE
 70
     6
  9
$SPLINESEGS
 70
     8
  9
$HANDSEED
  5
106AD26
  9
$SURFTAB1
 70
     6
  9
$SURFTAB2
 70
     6
  9
$SURFTYPE
 70
     6
  9
$SURFU
 70
     6
  9
$SURFV
 70
     6
  9
$UCSBASE
  2

  9
$UCSNAME
  2

  9
$UCSORG
 10
0.0
 20
0.0
 30
0.0
  9
$UCSXDIR
 10
1.0
 20
0.0
 30
0.0
  9
$UCSYDIR
 10
0.0
 20
1.0
 30
0.0
  9
$UCSORTHOREF
  2

  9
$UCSORTHOVIEW
 70
     0
  9
$UCSORGTOP
 10
0.0
 20
0.0
 30
0.0
  9
$UCSORGBOTTOM
 10
0.0
 20
0.0
 30
0.0
  9
$UCSORGLEFT
 10
0.0
 20
0.0
 30
0.0
  9
$UCSORGRIGHT
 10
0.0
 20
0.0
 30
0.0
  9
$UCSORGFRONT
 10
0.0
 20
0.0
 30
0.0
  9
$UCSORGBACK
 10
0.0
 20
0.0
 30
0.0
  9
$PUCSBASE
  2

  9
$PUCSNAME
  2

  9
$PUCSORG
 10
0.0
 20
0.0
 30
0.0
  9
$PUCSXDIR
 10
1.0
 20
0.0
 30
0.0
  9
$PUCSYDIR
 10
0.0
 20
1.0
 30
0.0
  9
$PUCSORTHOREF
  2

  9
$PUCSORTHOVIEW
 70
     0
  9
$PUCSORGTOP
 10
0.0
 20
0.0
 30
0.0
  9
$PUCSORGBOTTOM
 10
0.0
 20
0.0
 30
0.0
  9
$PUCSORGLEFT
 10
0.0
 20
0.0
 30
0.0
  9
$PUCSORGRIGHT
 10
0.0
 20
0.0
 30
0.0
  9
$PUCSORGFRONT
 10
0.0
 20
0.0
 30
0.0
  9
$PUCSORGBACK
 10
0.0
 20
0.0
 30
0.0
  9
$USERI1
 70
     0
  9
$USERI2
 70
     0
  9
$USERI3
 70
     0
  9
$USERI4
 70
     0
  9
$USERI5
 70
     0
  9
$USERR1
 40
0.0
  9
$USERR2
 40
0.0
  9
$USERR3
 40
0.0
  9
$USERR4
 40
0.0
  9
$USERR5
 40
0.0
  9
$WORLDVIEW
 70
     1
  9
$SHADEDGE
 70
     3
  9
$SHADEDIF
 70
    70
  9
$TILEMODE
 70
     1
  9
$MAXACTVP
 70
    64
  9
$PINSBASE
 10
0.0
 20
0.0
 30
0.0
  9
$PLIMCHECK
 70
     0
  9
$PEXTMIN
 10
1.000000000000000E+20
 20
1.000000000000000E+20
 30
1.000000000000000E+20
  9
$PEXTMAX
 10
-1.000000000000000E+20
 20
-1.000000000000000E+20
 30
-1.000000000000000E+20
  9
$PLIMMIN
 10
0.0
 20
0.0
  9
$PLIMMAX
 10
0.0
 20
0.0
  9
$UNITMODE
 70
     0
  9
$VISRETAIN
 70
     1
  9
$PLINEGEN
 70
     0
  9
$PSLTSCALE
 70
     1
  9
$TREEDEPTH
 70
  3020
  9
$CMLSTYLE
  2
Standard
  9
$CMLJUST
 70
     0
  9
$CMLSCALE
 40
1.0
  9
$PROXYGRAPHICS
 70
     1
  9
$MEASUREMENT
 70
     0
  9
$CELWEIGHT
370
    -1
  9
$ENDCAPS
280
     0
  9
$JOINSTYLE
280
     0
  9
$LWDISPLAY
290
     0
  9
$INSUNITS
 70
     0
  9
$HYPERLINKBASE
  1

  9
$STYLESHEET
  1

  9
$XEDIT
290
     1
  9
$CEPSNTYPE
380
     0
  9
$PSTYLEMODE
290
     1
  9
$FINGERPRINTGUID
  2
{9d4a9eee-f60b-483a-864f-25f18d25567c}
  9
$VERSIONGUID
  2
{FAEB1C32-E019-11D5-929B-00C0DF256EC4}
  9
$EXTNAMES
290
     1
  9
$PSVPSCALE
 40
0.0
  9
$OLESTARTUP
290
     0
  0
ENDSEC
  0
SECTION
  2
CLASSES
  0
CLASS
  1
IMAGEDEF
  2
AcDbRasterImageDef
  3
ISM
 90
        0
280
     0
281
     0
  0
CLASS
  1
IMAGE
  2
AcDbRasterImage
  3
ISM
 90
      127
280
     0
281
     1
  0
CLASS
  1
IMAGEDEF_REACTOR
  2
AcDbRasterImageDefReactor
  3
ISM
 90
        1
280
     0
281
     0
  0
CLASS
  1
ACDBDICTIONARYWDFLT
  2
AcDbDictionaryWithDefault
  3
ObjectDBX Classes
 90
        0
280
     0
281
     0
  0
CLASS
  1
SCALE
  2
AcDbScale
  3
ObjectDBX Classes
 90
     1153
280
     0
281
     0
  0
CLASS
  1
MATERIAL
  2
AcDbMaterial
  3
ObjectDBX Classes
 90
     1153
280
     0
281
     0
  0
CLASS
  1
VISUALSTYLE
  2
AcDbVisualStyle
  3
ObjectDBX Classes
 90
     4095
280
     0
281
     0
  0
CLASS
  1
TABLESTYLE
  2
AcDbTableStyle
  3
ObjectDBX Classes
 90
     4095
280
     0
281
     0
  0
CLASS
  1
MLEADERSTYLE
  2
AcDbMLeaderStyle
  3
ACDB_MLEADERSTYLE_CLASS
 90
     4095
280
     0
281
     0
  0
CLASS
  1
SUN
  2
AcDbSun
  3
SCENEOE
 90
     1153
280
     0
281
     0
  0
CLASS
  1
RASTERVARIABLES
  2
AcDbRasterVariables
  3
ISM
 90
        0
280
     0
281
     0
  0
CLASS
  1
DICTIONARYVAR
  2
AcDbDictionaryVar
  3
ObjectDBX Classes
 90
        0
280
     0
281
     0
  0
CLASS
  1
ACDBPLACEHOLDER
  2
AcDbPlaceHolder
  3
ObjectDBX Classes
 90
        0
280
     0
281
     0
  0
CLASS
  1
LAYOUT
  2
AcDbLayout
  3
ObjectDBX Classes
 90
        0
280
     0
281
     0
  0
ENDSEC
  0
SECTION
  2
TABLES
  0
TABLE
  2
VPORT
  5
2
102
{ACAD_XDICTIONARY
360
106ACEB
102
}
330
0
100
AcDbSymbolTable
 70
     1
  0
VPORT
  5
106AB91
330
2
100
AcDbSymbolTableRecord
100
AcDbViewportTableRecord
  2
*Active
 70
     0
 10
0.0
 20
0.0
 11
1.0
 21
1.0
 12
37.5
 22
0.0
 13
0.0
 23
0.0
 14
0.5
 24
0.5
 15
0.5
 25
0.5
 16
0.0
 26
0.0
 36
1.0
 17
0.0
 27
0.0
 37
0.0
 40
91.8
 41
2.05750350631136
 42
50.0
 43
0.0
 44
0.0
 50
0.0
 51
0.0
 71
    16
 72
   100
 73
     1
 74
     3
 75
     0
 76
     0
 77
     0
 78
     0
281
     0
 65
     1
110
0.0
120
0.0
130
0.0
111
1.0
121
0.0
131
0.0
112
0.0
122
1.0
132
0.0
 79
     0
146
0.0
  0
ENDTAB
  0
TABLE
  2
LTYPE
  5
3
330
0
100
AcDbSymbolTable
 70
     3
  0
LTYPE
  5
4
330
3
100
AcDbSymbolTableRecord
100
AcDbLinetypeTableRecord
  2
ByBlock
 70
     0
  3

 72
    65
 73
     0
 40
0.0
  0
LTYPE
  5
5
330
3
100
AcDbSymbolTableRecord
100
AcDbLinetypeTableRecord
  2
ByLayer
 70
     0
  3

 72
    65
 73
     0
 40
0.0
  0
LTYPE
  5
6
330
3
100
AcDbSymbolTableRecord
100
AcDbLinetypeTableRecord
  2
CONTINUOUS
 70
     0
  3
Solid Line
 72
    65
 73
     0
 40
0.0
  0
LTYPE
  5
7
330
3
100
AcDbSymbolTableRecord
100
AcDbLinetypeTableRecord
  2
DASH
 70
     0
  3
Hidden
 72
    65
 73
     2
 40
2.5
 49
1.5
 74
     0
 49
-1.0
 74
     0
  0
LTYPE
  5
8
330
3
100
AcDbSymbolTableRecord
100
AcDbLinetypeTableRecord
  2
LONGDASHDASH
 70
     0
  3
__ . __
 72
    65
 73
     4
 40
7.0
 49
4.0
 74
     0
 49
-1.0
 74
     0
 49
1.0
 74
     0
 49
-1.0
 74
     0
  0
ENDTAB
  0
TABLE
  2
LAYER
  5
9
330
0
100
AcDbSymbolTable
 70
    11
  0
LAYER
  5
A
330
9
100
AcDbSymbolTableRecord
100
AcDbLayerTableRecord
  2
0
 70
     0
 62
     7
  6
CONTINUOUS
370
    -3
390
106AB96
  0
LAYER
  5
C
330
9
100
AcDbSymbolTableRecord
100
AcDbLayerTableRecord
  2
1
 70
     0
 62
     4
  6
CONTINUOUS
370
    50
390
106AB96
  0
LAYER
  5
D
330
9
100
AcDbSymbolTableRecord
100
AcDbLayerTableRecord
  2
2
 70
     0
 62
     7
  6
CONTINUOUS
370
    25
390
106AB96
  0
LAYER
  5
F
330
9
100
AcDbSymbolTableRecord
100
AcDbLayerTableRecord
  2
4
 70
     0
 62
     2
  6
LONGDASHDASH
370
    25
390
106AB96
  0
LAYER
  5
13
330
9
100
AcDbSymbolTableRecord
100
AcDbLayerTableRecord
  2
SK1
 70
     0
 62
     4
  6
CONTINUOUS
370
    50
390
106AB96
  0
LAYER
  5
14
330
9
100
AcDbSymbolTableRecord
100
AcDbLayerTableRecord
  2
SK2
 70
     0
 62
     7
  6
CONTINUOUS
370
    25
390
106AB96
  0
LAYER
  5
16
330
9
100
AcDbSymbolTableRecord
100
AcDbLayerTableRecord
  2
SK4
 70
     0
 62
     2
  6
LONGDASHDASH
370
    25
390
106AB96
  0
LAYER
  5
21
330
9
100
AcDbSymbolTableRecord
100
AcDbLayerTableRecord
  2
NOCUT
 70
     0
 62
     7
  6
CONTINUOUS
370
    25
390
106AB96
  0
LAYER
  5
22
330
9
100
AcDbSymbolTableRecord
100
AcDbLayerTableRecord
  2
CUT
 70
     0
 62
     1
  6
CONTINUOUS
370
    25
390
106AB96
  0
LAYER
  5
26
330
9
100
AcDbSymbolTableRecord
100
AcDbLayerTableRecord
  2
INFTOTAL
 70
     0
 62
     9
  6
CONTINUOUS
370
    18
390
106AB96
  0
LAYER
  5
106ABE1
330
9
100
AcDbSymbolTableRecord
100
AcDbLayerTableRecord
  2
Defpoints
 70
     0
 62
     7
  6
CONTINUOUS
290
     0
370
    -3
390
106AB96
  0
ENDTAB
  0
TABLE
  2
STYLE
  5
27
330
0
100
AcDbSymbolTable
 70
     2
  0
STYLE
  5
28
330
27
100
AcDbSymbolTableRecord
100
AcDbTextStyleTableRecord
  2
Monospac821 BT
 70
     0
 40
3.5
 41
1.0
 50
0.0
 71
     0
 42
3.0
  3

  4

1001
ACAD
1000
Monospac821 BT
1071
      256
  0
STYLE
  5
106AB90
330
27
100
AcDbSymbolTableRecord
100
AcDbTextStyleTableRecord
  2
Standard
 70
     0
 40
0.0
 41
1.0
 50
0.0
 71
     0
 42
0.2
  3
txt
  4

  0
ENDTAB
  0
TABLE
  2
VIEW
  5
29
330
0
100
AcDbSymbolTable
 70
     0
  0
ENDTAB
  0
TABLE
  2
UCS
  5
2A
330
0
100
AcDbSymbolTable
 70
     0
  0
ENDTAB
  0
TABLE
  2
APPID
  5
2B
330
0
100
AcDbSymbolTable
 70
     5
  0
APPID
  5
2C
330
2B
100
AcDbSymbolTableRecord
100
AcDbRegAppTableRecord
  2
ACAD
 70
     0
  0
APPID
  5
106AC3F
330
2B
100
AcDbSymbolTableRecord
100
AcDbRegAppTableRecord
  2
FX_DIMP_FAV_VERSION
 70
     0
  0
APPID
  5
106ACE9
330
2B
100
AcDbSymbolTableRecord
100
AcDbRegAppTableRecord
  2
ACAD_DSTYLE_DIMFLIPARROW_SYMBOL
 70
     0
  0
APPID
  5
106ACEA
330
2B
100
AcDbSymbolTableRecord
100
AcDbRegAppTableRecord
  2
ACAD_DSTYLE_DIMFLIPARROW_WHICH_SYMBOL
 70
     0
  0
APPID
  5
106AD23
330
2B
100
AcDbSymbolTableRecord
100
AcDbRegAppTableRecord
  2
ACAD_MLEADERVER
 70
     0
  0
ENDTAB
  0
TABLE
  2
DIMSTYLE
  5
2D
330
0
100
AcDbSymbolTable
 70
     1
100
AcDbDimStyleTable
  0
DIMSTYLE
105
2E
102
{ACAD_REACTORS
330
106ABF2
330
106AC05
330
106AC20
330
106AC30
330
106AC54
330
106AC67
330
106AC82
330
106AC92
102
}
330
2D
100
AcDbSymbolTableRecord
100
AcDbDimStyleTableRecord
  2
STANDARD
 70
     0
 41
3.0
 42
0.5
 44
1.0
 73
     0
 77
     1
 78
     1
140
3.5
141
2.5
143
0.03937007874
147
0.8
172
     1
174
     1
178
     0
179
     1
271
     2
279
     1
284
     1
340
28
  0
ENDTAB
  0
TABLE
  2
BLOCK_RECORD
  5
2F
330
0
100
AcDbSymbolTable
 70
    14
  0
BLOCK_RECORD
  5
30
102
{ACAD_XDICTIONARY
360
106AC9F
102
}
330
2F
100
AcDbSymbolTableRecord
100
AcDbBlockTableRecord
  2
*Model_Space
340
106AB98
  0
BLOCK_RECORD
  5
31
330
2F
100
AcDbSymbolTableRecord
100
AcDbBlockTableRecord
  2
*Paper_Space
340
106AB99
  0
BLOCK_RECORD
  5
390
330
2F
100
AcDbSymbolTableRecord
100
AcDbBlockTableRecord
  2
*D0
340
0
  0
BLOCK_RECORD
  5
39E
330
2F
100
AcDbSymbolTableRecord
100
AcDbBlockTableRecord
  2
*D1
340
0
  0
BLOCK_RECORD
  5
3AC
330
2F
100
AcDbSymbolTableRecord
100
AcDbBlockTableRecord
  2
*D2
340
0
  0
BLOCK_RECORD
  5
3BA
330
2F
100
AcDbSymbolTableRecord
100
AcDbBlockTableRecord
  2
*D3
340
0
  0
BLOCK_RECORD
  5
3C8
330
2F
100
AcDbSymbolTableRecord
100
AcDbBlockTableRecord
  2
*D4
340
0
  0
BLOCK_RECORD
  5
3D6
330
2F
100
AcDbSymbolTableRecord
100
AcDbBlockTableRecord
  2
*D5
340
0
  0
BLOCK_RECORD
  5
106ABF3
330
2F
100
AcDbSymbolTableRecord
100
AcDbBlockTableRecord
  2
*D7
340
0
  0
BLOCK_RECORD
  5
106AC06
330
2F
100
AcDbSymbolTableRecord
100
AcDbBlockTableRecord
  2
*D8
340
0
  0
BLOCK_RECORD
  5
106AC21
330
2F
100
AcDbSymbolTableRecord
100
AcDbBlockTableRecord
  2
*D10
340
0
  0
BLOCK_RECORD
  5
106AC31
330
2F
100
AcDbSymbolTableRecord
100
AcDbBlockTableRecord
  2
*D11
340
0
  0
BLOCK_RECORD
  5
106AC55
330
2F
100
AcDbSymbolTableRecord
100
AcDbBlockTableRecord
  2
*D13
340
0
  0
BLOCK_RECORD
  5
106AC68
330
2F
100
AcDbSymbolTableRecord
100
AcDbBlockTableRecord
  2
*D14
340
0
  0
BLOCK_RECORD
  5
106AC83
330
2F
100
AcDbSymbolTableRecord
100
AcDbBlockTableRecord
  2
*D16
340
0
  0
BLOCK_RECORD
  5
106AC93
330
2F
100
AcDbSymbolTableRecord
100
AcDbBlockTableRecord
  2
*D17
340
0
  0
ENDTAB
  0
ENDSEC
  0
SECTION
  2
BLOCKS
  0
BLOCK
  5
32
330
30
100
AcDbEntity
  8
0
100
AcDbBlockBegin
  2
*Model_Space
 70
     0
 10
0.0
 20
0.0
 30
0.0
  3
*Model_Space
  1

  0
ENDBLK
  5
33
330
30
100
AcDbEntity
  8
0
100
AcDbBlockEnd
  0
BLOCK
  5
34
330
31
100
AcDbEntity
 67
     1
  8
0
100
AcDbBlockBegin
  2
*Paper_Space
 70
     0
 10
0.0
 20
0.0
 30
0.0
  3
*Paper_Space
  1

  0
ENDBLK
  5
35
330
31
100
AcDbEntity
 67
     1
  8
0
100
AcDbBlockEnd
  0
BLOCK
  5
38E
330
390
100
AcDbEntity
  8
SK2
100
AcDbBlockBegin
  2
*D0
 70
     1
 10
0.0
 20
0.0
 30
0.0
  3
*D0
  1

  0
LINE
  5
391
330
390
100
AcDbEntity
  8
SK2
 62
     0
370
    -2
100
AcDbLine
 10
41.953987871165
 20
-1.16
 30
0.0
 11
41.953987871165
 21
-41.0
 31
0.0
  0
LINE
  5
392
330
390
100
AcDbEntity
  8
SK2
 62
     0
370
    -2
100
AcDbLine
 10
1.953987871165
 20
-2.2905
 30
0.0
 11
1.953987871165001
 21
-41.0
 31
0.0
  0
LINE
  5
393
330
390
100
AcDbEntity
  8
SK2
 62
     0
370
    -2
100
AcDbLine
 10
38.953987871165
 20
-40.0
 30
0.0
 11
4.953987871165001
 21
-40.0
 31
0.0
  0
SOLID
  5
394
330
390
100
AcDbEntity
  8
SK2
 62
     0
100
AcDbTrace
 10
38.953987871165
 20
-40.5
 30
0.0
 11
38.953987871165
 21
-39.5
 31
0.0
 12
41.953987871165
 22
-40.0
 32
0.0
 13
41.953987871165
 23
-40.0
 33
0.0
  0
SOLID
  5
395
330
390
100
AcDbEntity
  8
SK2
 62
     0
100
AcDbTrace
 10
4.953987871165001
 20
-39.5
 30
0.0
 11
4.953987871165001
 21
-40.5
 31
0.0
 12
1.953987871165001
 22
-40.0
 32
0.0
 13
1.953987871165001
 23
-40.0
 33
0.0
  0
MTEXT
  5
396
330
390
100
AcDbEntity
  8
SK2
  6
ByBlock
 62
     0
100
AcDbMText
 10
21.953987871165
 20
-37.38875
 30
0.0
 40
3.5
 41
0.0
 71
     5
 72
     1
  1
\A1;40
 73
     1
 44
1.0
  0
POINT
  5
397
330
390
100
AcDbEntity
  8
Defpoints
 62
     0
100
AcDbPoint
 10
41.953987871165
 20
-0.66
 30
0.0
  0
POINT
  5
398
330
390
100
AcDbEntity
  8
Defpoints
 62
     0
100
AcDbPoint
 10
1.953987871165
 20
-1.7905
 30
0.0
  0
POINT
  5
399
330
390
100
AcDbEntity
  8
Defpoints
 62
     0
100
AcDbPoint
 10
1.953987871165
 20
-40.0
 30
0.0
  0
ENDBLK
  5
39A
330
390
100
AcDbEntity
  8
SK2
100
AcDbBlockEnd
  0
BLOCK
  5
39C
330
39E
100
AcDbEntity
  8
SK2
100
AcDbBlockBegin
  2
*D1
 70
     1
 10
0.0
 20
0.0
 30
0.0
  3
*D1
  1

  0
LINE
  5
39F
330
39E
100
AcDbEntity
  8
SK2
 62
     0
370
    -2
100
AcDbLine
 10
14.604
 20
1.790500000000002
 30
0.0
 11
14.604
 21
26.29900000000001
 31
0.0
  0
LINE
  5
3A0
330
39E
100
AcDbEntity
  8
SK2
 62
     0
370
    -2
100
AcDbLine
 10
14.604
 20
-1.790499999999998
 30
0.0
 11
14.604
 21
1.790500000000002
 31
0.0
  0
LINE
  5
3A1
330
39E
100
AcDbEntity
  8
SK2
 62
     0
370
    -2
100
AcDbLine
 10
14.604
 20
-4.790499999999998
 30
0.0
 11
14.604
 21
-7.790499999999998
 31
0.0
  0
LINE
  5
3A2
330
39E
100
AcDbEntity
  8
SK2
 62
     0
370
    -2
100
AcDbLine
 10
14.604
 20
4.790500000000002
 30
0.0
 11
14.604
 21
7.790500000000002
 31
0.0
  0
SOLID
  5
3A3
330
39E
100
AcDbEntity
  8
SK2
 62
     0
100
AcDbTrace
 10
15.104
 20
-4.790499999999998
 30
0.0
 11
14.104
 21
-4.790499999999998
 31
0.0
 12
14.604
 22
-1.790499999999998
 32
0.0
 13
14.604
 23
-1.790499999999998
 33
0.0
  0
SOLID
  5
3A4
330
39E
100
AcDbEntity
  8
SK2
 62
     0
100
AcDbTrace
 10
14.104
 20
4.790500000000002
 30
0.0
 11
15.104
 21
4.790500000000002
 31
0.0
 12
14.604
 22
1.790500000000002
 32
0.0
 13
14.604
 23
1.790500000000002
 33
0.0
  0
MTEXT
  5
3A5
330
39E
100
AcDbEntity
  8
SK2
  6
ByBlock
 62
     0
100
AcDbMText
 10
11.942
 20
17.04475
 30
0.0
 40
3.5
 41
0.0
 71
     5
 72
     1
  1
\A1;%%c3.581
 11
0.0
 21
1.0
 31
0.0
 73
     1
 44
1.0
  0
POINT
  5
3A6
330
39E
100
AcDbEntity
  8
Defpoints
 62
     0
100
AcDbPoint
 10
1.953987871164999
 20
-1.7905
 30
0.0
  0
POINT
  5
3A7
330
39E
100
AcDbEntity
  8
Defpoints
 62
     0
100
AcDbPoint
 10
1.953987871164999
 20
1.7905
 30
0.0
  0
POINT
  5
106ABE2
330
39E
100
AcDbEntity
  8
Defpoints
 62
     0
100
AcDbPoint
 10
14.604
 20
1.790500000000001
 30
0.0
  0
ENDBLK
  5
3A8
330
39E
100
AcDbEntity
  8
SK2
100
AcDbBlockEnd
  0
BLOCK
  5
3AA
330
3AC
100
AcDbEntity
  8
SK2
100
AcDbBlockBegin
  2
*D2
 70
     1
 10
0.0
 20
0.0
 30
0.0
  3
*D2
  1

  0
LINE
  5
3AD
330
3AC
100
AcDbEntity
  8
SK2
 62
     0
370
    -2
100
AcDbLine
 10
6.753987871165
 20
-2.2905
 30
0.0
 11
6.753987871165
 21
-17.0
 31
0.0
  0
LINE
  5
3AE
330
3AC
100
AcDbEntity
  8
SK2
 62
     0
370
    -2
100
AcDbLine
 10
1.953987871165
 20
-2.2905
 30
0.0
 11
1.953987871164999
 21
-17.0
 31
0.0
  0
LINE
  5
3AF
330
3AC
100
AcDbEntity
  8
SK2
 62
     0
370
    -2
100
AcDbLine
 10
1.953987871164999
 20
-16.0
 30
0.0
 11
-14.172012128835
 21
-16.0
 31
0.0
  0
LINE
  5
3B0
330
3AC
100
AcDbEntity
  8
SK2
 62
     0
370
    -2
100
AcDbLine
 10
6.753987871165
 20
-16.0
 30
0.0
 11
1.953987871164999
 21
-16.0
 31
0.0
  0
LINE
  5
3B1
330
3AC
100
AcDbEntity
  8
SK2
 62
     0
370
    -2
100
AcDbLine
 10
9.753987871165
 20
-16.0
 30
0.0
 11
12.753987871165
 21
-16.0
 31
0.0
  0
LINE
  5
3B2
330
3AC
100
AcDbEntity
  8
SK2
 62
     0
370
    -2
100
AcDbLine
 10
-1.046012128835001
 20
-16.0
 30
0.0
 11
-4.046012128835001
 21
-16.0
 31
0.0
  0
SOLID
  5
3B3
330
3AC
100
AcDbEntity
  8
SK2
 62
     0
100
AcDbTrace
 10
9.753987871165
 20
-15.5
 30
0.0
 11
9.753987871165
 21
-16.5
 31
0.0
 12
6.753987871165
 22
-16.0
 32
0.0
 13
6.753987871165
 23
-16.0
 33
0.0
  0
SOLID
  5
3B4
330
3AC
100
AcDbEntity
  8
SK2
 62
     0
100
AcDbTrace
 10
-1.046012128835001
 20
-16.5
 30
0.0
 11
-1.046012128835001
 21
-15.5
 31
0.0
 12
1.953987871164999
 22
-16.0
 32
0.0
 13
1.953987871164999
 23
-16.0
 33
0.0
  0
MTEXT
  5
3B5
330
3AC
100
AcDbEntity
  8
SK2
  6
ByBlock
 62
     0
100
AcDbMText
 10
-9.109012128835001
 20
-13.38875
 30
0.0
 40
3.5
 41
0.0
 71
     5
 72
     1
  1
\A1;4.8
 73
     1
 44
1.0
  0
POINT
  5
106ABE4
330
3AC
100
AcDbEntity
  8
Defpoints
 62
     0
100
AcDbPoint
 10
6.753987871165
 20
-1.7905
 30
0.0
  0
POINT
  5
106ABE5
330
3AC
100
AcDbEntity
  8
Defpoints
 62
     0
100
AcDbPoint
 10
1.953987871165
 20
-1.7905
 30
0.0
  0
POINT
  5
106AC3D
330
3AC
100
AcDbEntity
  8
Defpoints
 62
     0
100
AcDbPoint
 10
1.953987871165
 20
-16.0
 30
0.0
  0
ENDBLK
  5
3B6
330
3AC
100
AcDbEntity
  8
SK2
100
AcDbBlockEnd
  0
BLOCK
  5
3B8
330
3BA
100
AcDbEntity
  8
2
100
AcDbBlockBegin
  2
*D3
 70
     1
 10
0.0
 20
0.0
 30
0.0
  3
*D3
  1

  0
LINE
  5
3BB
330
3BA
100
AcDbEntity
  8
2
 62
     0
370
    -2
100
AcDbLine
 10
41.953987871165
 20
-1.16
 30
0.0
 11
41.953987871165
 21
-25.0
 31
0.0
  0
LINE
  5
3BC
330
3BA
100
AcDbEntity
  8
2
 62
     0
370
    -2
100
AcDbLine
 10
32.453987871165
 20
-1.35
 30
0.0
 11
32.453987871165
 21
-25.0
 31
0.0
  0
LINE
  5
3BD
330
3BA
100
AcDbEntity
  8
2
 62
     0
370
    -2
100
AcDbLine
 10
41.953987871165
 20
-24.0
 30
0.0
 11
58.0455
 21
-24.0
 31
0.0
  0
LINE
  5
3BE
330
3BA
100
AcDbEntity
  8
2
 62
     0
370
    -2
100
AcDbLine
 10
41.953987871165
 20
-24.0
 30
0.0
 11
32.453987871165
 21
-24.0
 31
0.0
  0
LINE
  5
3BF
330
3BA
100
AcDbEntity
  8
2
 62
     0
370
    -2
100
AcDbLine
 10
44.953987871165
 20
-24.0
 30
0.0
 11
47.953987871165
 21
-24.0
 31
0.0
  0
LINE
  5
3C0
330
3BA
100
AcDbEntity
  8
2
 62
     0
370
    -2
100
AcDbLine
 10
29.453987871165
 20
-24.0
 30
0.0
 11
26.453987871165
 21
-24.0
 31
0.0
  0
SOLID
  5
3C1
330
3BA
100
AcDbEntity
  8
2
 62
     0
100
AcDbTrace
 10
44.953987871165
 20
-23.5
 30
0.0
 11
44.953987871165
 21
-24.5
 31
0.0
 12
41.953987871165
 22
-24.0
 32
0.0
 13
41.953987871165
 23
-24.0
 33
0.0
  0
SOLID
  5
3C2
330
3BA
100
AcDbEntity
  8
2
 62
     0
100
AcDbTrace
 10
29.453987871165
 20
-24.5
 30
0.0
 11
29.453987871165
 21
-23.5
 31
0.0
 12
32.453987871165
 22
-24.0
 32
0.0
 13
32.453987871165
 23
-24.0
 33
0.0
  0
MTEXT
  5
3C3
330
3BA
100
AcDbEntity
  8
2
  6
ByBlock
 62
     0
100
AcDbMText
 10
53.0
 20
-21.38875
 30
0.0
 40
3.5
 41
0.0
 71
     5
 72
     1
  1
\A1;9.5
 73
     1
 44
1.0
  0
POINT
  5
106AC43
330
3BA
100
AcDbEntity
  8
Defpoints
 62
     0
100
AcDbPoint
 10
41.953987871165
 20
-0.66
 30
0.0
  0
POINT
  5
106AC44
330
3BA
100
AcDbEntity
  8
Defpoints
 62
     0
100
AcDbPoint
 10
32.453987871165
 20
-0.85
 30
0.0
  0
POINT
  5
106AC45
330
3BA
100
AcDbEntity
  8
Defpoints
 62
     0
100
AcDbPoint
 10
32.453987871165
 20
-24.0
 30
0.0
  0
ENDBLK
  5
3C4
330
3BA
100
AcDbEntity
  8
2
100
AcDbBlockEnd
  0
BLOCK
  5
3C6
330
3C8
100
AcDbEntity
  8
2
100
AcDbBlockBegin
  2
*D4
 70
     1
 10
0.0
 20
0.0
 30
0.0
  3
*D4
  1

  0
LINE
  5
3C9
330
3C8
100
AcDbEntity
  8
2
 62
     0
370
    -2
100
AcDbLine
 10
41.953987871165
 20
-1.16
 30
0.0
 11
41.953987871165
 21
-33.0
 31
0.0
  0
LINE
  5
3CA
330
3C8
100
AcDbEntity
  8
2
 62
     0
370
    -2
100
AcDbLine
 10
31.453987871165
 20
-1.35
 30
0.0
 11
31.453987871165
 21
-33.0
 31
0.0
  0
LINE
  5
3CB
330
3C8
100
AcDbEntity
  8
2
 62
     0
370
    -2
100
AcDbLine
 10
31.453987871165
 20
-32.0
 30
0.0
 11
15.667987871165
 21
-32.0
 31
0.0
  0
LINE
  5
3CC
330
3C8
100
AcDbEntity
  8
2
 62
     0
370
    -2
100
AcDbLine
 10
41.953987871165
 20
-32.0
 30
0.0
 11
31.453987871165
 21
-32.0
 31
0.0
  0
LINE
  5
3CD
330
3C8
100
AcDbEntity
  8
2
 62
     0
370
    -2
100
AcDbLine
 10
44.953987871165
 20
-32.0
 30
0.0
 11
47.953987871165
 21
-32.0
 31
0.0
  0
LINE
  5
3CE
330
3C8
100
AcDbEntity
  8
2
 62
     0
370
    -2
100
AcDbLine
 10
28.453987871165
 20
-32.0
 30
0.0
 11
25.453987871165
 21
-32.0
 31
0.0
  0
SOLID
  5
3CF
330
3C8
100
AcDbEntity
  8
2
 62
     0
100
AcDbTrace
 10
44.953987871165
 20
-31.5
 30
0.0
 11
44.953987871165
 21
-32.5
 31
0.0
 12
41.953987871165
 22
-32.0
 32
0.0
 13
41.953987871165
 23
-32.0
 33
0.0
  0
SOLID
  5
3D0
330
3C8
100
AcDbEntity
  8
2
 62
     0
100
AcDbTrace
 10
28.453987871165
 20
-32.5
 30
0.0
 11
28.453987871165
 21
-31.5
 31
0.0
 12
31.453987871165
 22
-32.0
 32
0.0
 13
31.453987871165
 23
-32.0
 33
0.0
  0
MTEXT
  5
3D1
330
3C8
100
AcDbEntity
  8
2
  6
ByBlock
 62
     0
100
AcDbMText
 10
22.060987871165
 20
-29.38875
 30
0.0
 40
3.5
 41
0.0
 71
     5
 72
     1
  1
\A1;10.5
 73
     1
 44
1.0
  0
POINT
  5
106AC40
330
3C8
100
AcDbEntity
  8
Defpoints
 62
     0
100
AcDbPoint
 10
41.953987871165
 20
-0.66
 30
0.0
  0
POINT
  5
106AC41
330
3C8
100
AcDbEntity
  8
Defpoints
 62
     0
100
AcDbPoint
 10
31.453987871165
 20
-0.85
 30
0.0
  0
POINT
  5
106AC42
330
3C8
100
AcDbEntity
  8
Defpoints
 62
     0
100
AcDbPoint
 10
31.453987871165
 20
-32.0
 30
0.0
  0
ENDBLK
  5
3D2
330
3C8
100
AcDbEntity
  8
2
100
AcDbBlockEnd
  0
BLOCK
  5
3D4
330
3D6
100
AcDbEntity
  8
2
100
AcDbBlockBegin
  2
*D5
 70
     1
 10
0.0
 20
0.0
 30
0.0
  3
*D5
  1

  0
LINE
  5
3D7
330
3D6
100
AcDbEntity
  8
2
 62
     0
370
    -2
100
AcDbLine
 10
42.67425148187
 20
0.5
 30
0.0
 11
42.67425148187
 21
36.0
 31
0.0
  0
LINE
  5
3D8
330
3D6
100
AcDbEntity
  8
2
 62
     0
370
    -2
100
AcDbLine
 10
21.17425148187
 20
2.2905
 30
0.0
 11
21.17425148187
 21
36.0
 31
0.0
  0
LINE
  5
3D9
330
3D6
100
AcDbEntity
  8
2
 62
     0
370
    -2
100
AcDbLine
 10
39.67425148187
 20
35.0
 30
0.0
 11
24.17425148187
 21
35.0
 31
0.0
  0
SOLID
  5
3DA
330
3D6
100
AcDbEntity
  8
2
 62
     0
100
AcDbTrace
 10
39.67425148187
 20
34.5
 30
0.0
 11
39.67425148187
 21
35.5
 31
0.0
 12
42.67425148187
 22
35.0
 32
0.0
 13
42.67425148187
 23
35.0
 33
0.0
  0
SOLID
  5
3DB
330
3D6
100
AcDbEntity
  8
2
 62
     0
100
AcDbTrace
 10
24.17425148187
 20
35.5
 30
0.0
 11
24.17425148187
 21
34.5
 31
0.0
 12
21.17425148187
 22
35.0
 32
0.0
 13
21.17425148187
 23
35.0
 33
0.0
  0
MTEXT
  5
3DC
330
3D6
100
AcDbEntity
  8
2
  6
ByBlock
 62
     0
100
AcDbMText
 10
31.92425148187
 20
37.61125
 30
0.0
 40
3.5
 41
0.0
 71
     5
 72
     1
  1
\A1;21.5
 73
     1
 44
1.0
  0
POINT
  5
3DD
330
3D6
100
AcDbEntity
  8
Defpoints
 62
     0
100
AcDbPoint
 10
42.67425148187
 20
0.0
 30
0.0
  0
POINT
  5
3DE
330
3D6
100
AcDbEntity
  8
Defpoints
 62
     0
100
AcDbPoint
 10
21.17425148187
 20
1.7905
 30
0.0
  0
POINT
  5
3DF
330
3D6
100
AcDbEntity
  8
Defpoints
 62
     0
100
AcDbPoint
 10
21.17425148187
 20
35.0
 30
0.0
  0
ENDBLK
  5
3E0
330
3D6
100
AcDbEntity
  8
2
100
AcDbBlockEnd
  0
BLOCK
  5
106ABF4
330
106ABF3
100
AcDbEntity
  8
SK2
100
AcDbBlockBegin
  2
*D7
 70
     1
 10
0.0
 20
0.0
 30
0.0
  3
*D7
  1

  0
LINE
  5
106ABF5
330
106ABF3
100
AcDbEntity
  8
SK2
 62
     0
370
    -2
100
AcDbLine
 10
3.081749999999996
 20
6.0
 30
0.0
 11
5.581749999999996
 21
6.0
 31
0.0
  0
LINE
  5
106ABF6
330
106ABF3
100
AcDbEntity
  8
SK2
 62
     0
370
    -2
100
AcDbLine
 10
3.081749999999996
 20
9.581
 30
0.0
 11
5.581749999999996
 21
9.581
 31
0.0
  0
LINE
  5
106ABF7
330
106ABF3
100
AcDbEntity
  8
SK2
 62
     0
370
    -2
100
AcDbLine
 10
4.581749999999996
 20
9.581
 30
0.0
 11
4.581749999999996
 21
34.0895
 31
0.0
  0
LINE
  5
106ABF8
330
106ABF3
100
AcDbEntity
  8
SK2
 62
     0
370
    -2
100
AcDbLine
 10
4.581749999999996
 20
6.0
 30
0.0
 11
4.581749999999996
 21
9.581
 31
0.0
  0
LINE
  5
106ABF9
330
106ABF3
100
AcDbEntity
  8
SK2
 62
     0
370
    -2
100
AcDbLine
 10
4.581749999999996
 20
3.0
 30
0.0
 11
4.581749999999996
 21
0.0
 31
0.0
  0
LINE
  5
106ABFA
330
106ABF3
100
AcDbEntity
  8
SK2
 62
     0
370
    -2
100
AcDbLine
 10
4.581749999999996
 20
12.581
 30
0.0
 11
4.581749999999996
 21
15.581
 31
0.0
  0
SOLID
  5
106ABFB
330
106ABF3
100
AcDbEntity
  8
SK2
 62
     0
100
AcDbTrace
 10
5.081749999999996
 20
3.0
 30
0.0
 11
4.081749999999996
 21
3.0
 31
0.0
 12
4.581749999999996
 22
6.0
 32
0.0
 13
4.581749999999996
 23
6.0
 33
0.0
  0
SOLID
  5
106ABFC
330
106ABF3
100
AcDbEntity
  8
SK2
 62
     0
100
AcDbTrace
 10
4.081749999999996
 20
12.581
 30
0.0
 11
5.081749999999996
 21
12.581
 31
0.0
 12
4.581749999999996
 22
9.581
 32
0.0
 13
4.581749999999996
 23
9.581
 33
0.0
  0
MTEXT
  5
106ABFD
330
106ABF3
100
AcDbEntity
  8
SK2
  6
ByBlock
 62
     0
100
AcDbMText
 10
1.919749999999998
 20
24.83525
 30
0.0
 40
3.5
 41
0.0
 71
     5
 72
     1
  1
\A1;%%c3.581
 11
0.0
 21
1.0
 31
0.0
 73
     1
 44
1.0
  0
POINT
  5
106ABFE
330
106ABF3
100
AcDbEntity
  8
Defpoints
 62
     0
100
AcDbPoint
 10
2.581749999999996
 20
6.0
 30
0.0
  0
POINT
  5
106ABFF
330
106ABF3
100
AcDbEntity
  8
Defpoints
 62
     0
100
AcDbPoint
 10
2.581749999999996
 20
9.581
 30
0.0
  0
POINT
  5
106AC00
330
106ABF3
100
AcDbEntity
  8
Defpoints
 62
     0
100
AcDbPoint
 10
4.581749999999996
 20
9.581
 30
0.0
  0
ENDBLK
  5
106AC01
330
106ABF3
100
AcDbEntity
  8
SK2
100
AcDbBlockEnd
  0
BLOCK
  5
106AC07
330
106AC06
100
AcDbEntity
  8
0
100
AcDbBlockBegin
  2
*D8
 70
     1
 10
0.0
 20
0.0
 30
0.0
  3
*D8
  1

  0
LINE
  5
106AC09
330
106AC06
100
AcDbEntity
  8
2
 62
     0
370
    -2
100
AcDbLine
 10
42.453987871165
 20
-0.6600000000000001
 30
0.0
 11
71.0
 21
-0.6599999999999983
 31
0.0
  0
LINE
  5
106AC0A
330
106AC06
100
AcDbEntity
  8
2
 62
     0
370
    -2
100
AcDbLine
 10
42.453987871165
 20
0.6600000000000001
 30
0.0
 11
71.0
 21
0.660000000000002
 31
0.0
  0
LINE
  5
106AC0B
330
106AC06
100
AcDbEntity
  8
2
 62
     0
370
    -2
100
AcDbLine
 10
70.0
 20
0.6600000000000019
 30
0.0
 11
70.0
 21
22.939
 31
0.0
  0
LINE
  5
106AC0C
330
106AC06
100
AcDbEntity
  8
2
 62
     0
370
    -2
100
AcDbLine
 10
70.0
 20
-0.6599999999999984
 30
0.0
 11
70.0
 21
0.6600000000000019
 31
0.0
  0
LINE
  5
106AC0D
330
106AC06
100
AcDbEntity
  8
2
 62
     0
370
    -2
100
AcDbLine
 10
70.0
 20
-3.659999999999998
 30
0.0
 11
70.0
 21
-6.659999999999998
 31
0.0
  0
LINE
  5
106AC0E
330
106AC06
100
AcDbEntity
  8
2
 62
     0
370
    -2
100
AcDbLine
 10
70.0
 20
3.660000000000002
 30
0.0
 11
70.0
 21
6.660000000000002
 31
0.0
  0
SOLID
  5
106AC0F
330
106AC06
100
AcDbEntity
  8
2
 62
     0
100
AcDbTrace
 10
70.5
 20
-3.659999999999998
 30
0.0
 11
69.5
 21
-3.659999999999998
 31
0.0
 12
70.0
 22
-0.6599999999999984
 32
0.0
 13
70.0
 23
-0.6599999999999984
 33
0.0
  0
SOLID
  5
106AC10
330
106AC06
100
AcDbEntity
  8
2
 62
     0
100
AcDbTrace
 10
69.5
 20
3.660000000000002
 30
0.0
 11
70.5
 21
3.660000000000002
 31
0.0
 12
70.0
 22
0.6600000000000019
 32
0.0
 13
70.0
 23
0.6600000000000019
 33
0.0
  0
MTEXT
  5
106AC11
330
106AC06
100
AcDbEntity
  8
2
  6
ByBlock
 62
     0
100
AcDbMText
 10
67.338
 20
14.7995
 30
0.0
 40
3.5
 41
0.0
 71
     5
 72
     1
  1
\A1;%%c1.32
 11
0.0
 21
1.0
 31
0.0
 73
     1
 44
1.0
  0
POINT
  5
106AC12
330
106AC06
100
AcDbEntity
  8
Defpoints
 62
     0
100
AcDbPoint
 10
41.953987871165
 20
-0.6600000000000001
 30
0.0
  0
POINT
  5
106AC13
330
106AC06
100
AcDbEntity
  8
Defpoints
 62
     0
100
AcDbPoint
 10
41.953987871165
 20
0.6600000000000001
 30
0.0
  0
POINT
  5
106AC14
330
106AC06
100
AcDbEntity
  8
Defpoints
 62
     0
100
AcDbPoint
 10
70.0
 20
0.6600000000000018
 30
0.0
  0
ENDBLK
  5
106AC08
330
106AC06
100
AcDbEntity
  8
0
100
AcDbBlockEnd
  0
BLOCK
  5
106AC22
330
106AC21
100
AcDbEntity
  8
2
100
AcDbBlockBegin
  2
*D10
 70
     1
 10
0.0
 20
0.0
 30
0.0
  3
*D10
  1

  0
LINE
  5
106AC23
330
106AC21
100
AcDbEntity
  8
2
 62
     0
370
    -2
100
AcDbLine
 10
9.5
 20
13.6305
 30
0.0
 11
9.5
 21
0.0000000000000018
 31
0.0
  0
LINE
  5
106AC24
330
106AC21
100
AcDbEntity
  8
2
 62
     0
370
    -2
100
AcDbLine
 10
0.0
 20
13.4405
 30
0.0
 11
0.0
 21
0.0000000000000018
 31
0.0
  0
LINE
  5
106AC25
330
106AC21
100
AcDbEntity
  8
2
 62
     0
370
    -2
100
AcDbLine
 10
6.5
 20
1.000000000000002
 30
0.0
 11
3.0
 21
1.000000000000002
 31
0.0
  0
SOLID
  5
106AC26
330
106AC21
100
AcDbEntity
  8
2
 62
     0
100
AcDbTrace
 10
6.5
 20
0.5000000000000018
 30
0.0
 11
6.5
 21
1.500000000000002
 31
0.0
 12
9.5
 22
1.000000000000002
 32
0.0
 13
9.5
 23
1.000000000000002
 33
0.0
  0
SOLID
  5
106AC27
330
106AC21
100
AcDbEntity
  8
2
 62
     0
100
AcDbTrace
 10
3.0
 20
1.500000000000002
 30
0.0
 11
3.0
 21
0.5000000000000018
 31
0.0
 12
0.0
 22
1.000000000000002
 32
0.0
 13
0.0
 23
1.000000000000002
 33
0.0
  0
MTEXT
  5
106AC28
330
106AC21
100
AcDbEntity
  8
2
  6
ByBlock
 62
     0
100
AcDbMText
 10
4.75
 20
3.611250000000002
 30
0.0
 40
3.5
 41
0.0
 71
     5
 72
     1
  1
\A1;9.5
 73
     1
 44
1.0
  0
POINT
  5
106AC29
330
106AC21
100
AcDbEntity
  8
Defpoints
 62
     0
100
AcDbPoint
 10
9.5
 20
14.1305
 30
0.0
  0
POINT
  5
106AC2A
330
106AC21
100
AcDbEntity
  8
Defpoints
 62
     0
100
AcDbPoint
 10
0.0
 20
13.9405
 30
0.0
  0
POINT
  5
106AC2B
330
106AC21
100
AcDbEntity
  8
Defpoints
 62
     0
100
AcDbPoint
 10
0.0
 20
1.000000000000002
 30
0.0
  0
ENDBLK
  5
106AC2C
330
106AC21
100
AcDbEntity
  8
2
100
AcDbBlockEnd
  0
BLOCK
  5
106AC32
330
106AC31
100
AcDbEntity
  8
0
100
AcDbBlockBegin
  2
*D11
 70
     1
 10
0.0
 20
0.0
 30
0.0
  3
*D11
  1

  0
LINE
  5
106AC34
330
106AC31
100
AcDbEntity
  8
2
 62
     0
370
    -2
100
AcDbLine
 10
41.953987871165
 20
-1.16
 30
0.0
 11
41.953987871165
 21
-17.0
 31
0.0
  0
LINE
  5
106AC35
330
106AC31
100
AcDbEntity
  8
2
 62
     0
370
    -2
100
AcDbLine
 10
40.553987871165
 20
-1.35
 30
0.0
 11
40.553987871165
 21
-17.0
 31
0.0
  0
LINE
  5
106AC36
330
106AC31
100
AcDbEntity
  8
2
 62
     0
370
    -2
100
AcDbLine
 10
41.953987871165
 20
-16.0
 30
0.0
 11
57.89675
 21
-16.0
 31
0.0
  0
LINE
  5
106AC37
330
106AC31
100
AcDbEntity
  8
2
 62
     0
370
    -2
100
AcDbLine
 10
41.953987871165
 20
-16.0
 30
0.0
 11
40.553987871165
 21
-16.0
 31
0.0
  0
LINE
  5
106AC38
330
106AC31
100
AcDbEntity
  8
2
 62
     0
370
    -2
100
AcDbLine
 10
44.953987871165
 20
-16.0
 30
0.0
 11
47.953987871165
 21
-16.0
 31
0.0
  0
LINE
  5
106AC39
330
106AC31
100
AcDbEntity
  8
2
 62
     0
370
    -2
100
AcDbLine
 10
37.553987871165
 20
-16.0
 30
0.0
 11
34.553987871165
 21
-16.0
 31
0.0
  0
SOLID
  5
106AC3A
330
106AC31
100
AcDbEntity
  8
2
 62
     0
100
AcDbTrace
 10
44.953987871165
 20
-15.5
 30
0.0
 11
44.953987871165
 21
-16.5
 31
0.0
 12
41.953987871165
 22
-16.0
 32
0.0
 13
41.953987871165
 23
-16.0
 33
0.0
  0
SOLID
  5
106AC3B
330
106AC31
100
AcDbEntity
  8
2
 62
     0
100
AcDbTrace
 10
37.553987871165
 20
-16.5
 30
0.0
 11
37.553987871165
 21
-15.5
 31
0.0
 12
40.553987871165
 22
-16.0
 32
0.0
 13
40.553987871165
 23
-16.0
 33
0.0
  0
MTEXT
  5
106AC3C
330
106AC31
100
AcDbEntity
  8
2
  6
ByBlock
 62
     0
100
AcDbMText
 10
53.0
 20
-13.4395
 30
0.0
 40
3.5
 41
0.0
 71
     5
 72
     1
  1
\A1;1.4
 73
     1
 44
1.0
  0
POINT
  5
106AC46
330
106AC31
100
AcDbEntity
  8
Defpoints
 62
     0
100
AcDbPoint
 10
41.953987871165
 20
-0.6600000000000001
 30
0.0
  0
POINT
  5
106AC47
330
106AC31
100
AcDbEntity
  8
Defpoints
 62
     0
100
AcDbPoint
 10
40.553987871165
 20
-0.8500000000000001
 30
0.0
  0
POINT
  5
106AC48
330
106AC31
100
AcDbEntity
  8
Defpoints
 62
     0
100
AcDbPoint
 10
40.553987871165
 20
-16.0
 30
0.0
  0
ENDBLK
  5
106AC33
330
106AC31
100
AcDbEntity
  8
0
100
AcDbBlockEnd
  0
BLOCK
  5
106AC56
330
106AC55
100
AcDbEntity
  8
0
100
AcDbBlockBegin
  2
*D13
 70
     1
 10
0.0
 20
0.0
 30
0.0
  3
*D13
  1

  0
LINE
  5
106AC57
330
106AC55
100
AcDbEntity
  8
2
 62
     0
370
    -2
100
AcDbLine
 10
0.5
 20
5.999999999999998
 30
0.0
 11
29.046012128835
 21
6.0
 31
0.0
  0
LINE
  5
106AC58
330
106AC55
100
AcDbEntity
  8
2
 62
     0
370
    -2
100
AcDbLine
 10
0.5
 20
7.319999999999999
 30
0.0
 11
29.046012128835
 21
7.32
 31
0.0
  0
LINE
  5
106AC59
330
106AC55
100
AcDbEntity
  8
2
 62
     0
370
    -2
100
AcDbLine
 10
28.046012128835
 20
7.32
 30
0.0
 11
28.046012128835
 21
29.599
 31
0.0
  0
LINE
  5
106AC5A
330
106AC55
100
AcDbEntity
  8
2
 62
     0
370
    -2
100
AcDbLine
 10
28.046012128835
 20
6.0
 30
0.0
 11
28.046012128835
 21
7.32
 31
0.0
  0
LINE
  5
106AC5B
330
106AC55
100
AcDbEntity
  8
2
 62
     0
370
    -2
100
AcDbLine
 10
28.046012128835
 20
3.0
 30
0.0
 11
28.046012128835
 21
0.0
 31
0.0
  0
LINE
  5
106AC5C
330
106AC55
100
AcDbEntity
  8
2
 62
     0
370
    -2
100
AcDbLine
 10
28.046012128835
 20
10.32
 30
0.0
 11
28.046012128835
 21
13.32
 31
0.0
  0
SOLID
  5
106AC5D
330
106AC55
100
AcDbEntity
  8
2
 62
     0
100
AcDbTrace
 10
28.546012128835
 20
3.0
 30
0.0
 11
27.546012128835
 21
3.0
 31
0.0
 12
28.046012128835
 22
6.0
 32
0.0
 13
28.046012128835
 23
6.0
 33
0.0
  0
SOLID
  5
106AC5E
330
106AC55
100
AcDbEntity
  8
2
 62
     0
100
AcDbTrace
 10
27.546012128835
 20
10.32
 30
0.0
 11
28.546012128835
 21
10.32
 31
0.0
 12
28.046012128835
 22
7.32
 32
0.0
 13
28.046012128835
 23
7.32
 33
0.0
  0
MTEXT
  5
106AC5F
330
106AC55
100
AcDbEntity
  8
2
  6
ByBlock
 62
     0
100
AcDbMText
 10
25.384012128835
 20
21.4595
 30
0.0
 40
3.5
 41
0.0
 71
     5
 72
     1
  1
\A1;%%c1.32
 11
0.0
 21
1.0
 31
0.0
 73
     1
 44
1.0
  0
POINT
  5
106AC60
330
106AC55
100
AcDbEntity
  8
Defpoints
 62
     0
100
AcDbPoint
 10
0.0
 20
5.999999999999998
 30
0.0
  0
POINT
  5
106AC61
330
106AC55
100
AcDbEntity
  8
Defpoints
 62
     0
100
AcDbPoint
 10
0.0
 20
7.319999999999999
 30
0.0
  0
POINT
  5
106AC62
330
106AC55
100
AcDbEntity
  8
Defpoints
 62
     0
100
AcDbPoint
 10
28.046012128835
 20
7.32
 30
0.0
  0
ENDBLK
  5
106AC63
330
106AC55
100
AcDbEntity
  8
0
100
AcDbBlockEnd
  0
BLOCK
  5
106AC69
330
106AC68
100
AcDbEntity
  8
0
100
AcDbBlockBegin
  2
*D14
 70
     1
 10
0.0
 20
0.0
 30
0.0
  3
*D14
  1

  0
LINE
  5
106AC6B
330
106AC68
100
AcDbEntity
  8
2
 62
     0
370
    -2
100
AcDbLine
 10
41.053987871165
 20
-0.85
 30
0.0
 11
79.0
 21
-0.8499999999999978
 31
0.0
  0
LINE
  5
106AC6C
330
106AC68
100
AcDbEntity
  8
2
 62
     0
370
    -2
100
AcDbLine
 10
41.053987871165
 20
0.8500000000000001
 30
0.0
 11
79.0
 21
0.8500000000000051
 31
0.0
  0
LINE
  5
106AC6D
330
106AC68
100
AcDbEntity
  8
2
 62
     0
370
    -2
100
AcDbLine
 10
78.0
 20
0.850000000000005
 30
0.0
 11
78.0
 21
35.14800000000001
 31
0.0
  0
LINE
  5
106AC6E
330
106AC68
100
AcDbEntity
  8
2
 62
     0
370
    -2
100
AcDbLine
 10
78.0
 20
-0.8499999999999979
 30
0.0
 11
78.0
 21
0.850000000000005
 31
0.0
  0
LINE
  5
106AC6F
330
106AC68
100
AcDbEntity
  8
2
 62
     0
370
    -2
100
AcDbLine
 10
78.0
 20
-3.849999999999998
 30
0.0
 11
78.0
 21
-6.849999999999998
 31
0.0
  0
LINE
  5
106AC70
330
106AC68
100
AcDbEntity
  8
2
 62
     0
370
    -2
100
AcDbLine
 10
78.0
 20
3.850000000000005
 30
0.0
 11
78.0
 21
6.850000000000005
 31
0.0
  0
SOLID
  5
106AC71
330
106AC68
100
AcDbEntity
  8
2
 62
     0
100
AcDbTrace
 10
78.5
 20
-3.849999999999998
 30
0.0
 11
77.5
 21
-3.849999999999998
 31
0.0
 12
78.0
 22
-0.8499999999999979
 32
0.0
 13
78.0
 23
-0.8499999999999979
 33
0.0
  0
SOLID
  5
106AC72
330
106AC68
100
AcDbEntity
  8
2
 62
     0
100
AcDbTrace
 10
77.5
 20
3.850000000000005
 30
0.0
 11
78.5
 21
3.850000000000005
 31
0.0
 12
78.0
 22
0.850000000000005
 32
0.0
 13
78.0
 23
0.850000000000005
 33
0.0
  0
MTEXT
  5
106AC73
330
106AC68
100
AcDbEntity
  8
2
  6
ByBlock
 62
     0
100
AcDbMText
 10
75.38875
 20
20.99900000000001
 30
0.0
 40
3.5
 41
0.0
 71
     5
 72
     1
  1
\A1;M1.7X0.35
 11
0.0
 21
1.0
 31
0.0
 73
     1
 44
1.0
  0
POINT
  5
106AC74
330
106AC68
100
AcDbEntity
  8
Defpoints
 62
     0
100
AcDbPoint
 10
40.553987871165
 20
-0.85
 30
0.0
  0
POINT
  5
106AC75
330
106AC68
100
AcDbEntity
  8
Defpoints
 62
     0
100
AcDbPoint
 10
40.553987871165
 20
0.85
 30
0.0
  0
POINT
  5
106AC76
330
106AC68
100
AcDbEntity
  8
Defpoints
 62
     0
100
AcDbPoint
 10
78.0
 20
0.8500000000000023
 30
0.0
  0
ENDBLK
  5
106AC6A
330
106AC68
100
AcDbEntity
  8
0
100
AcDbBlockEnd
  0
BLOCK
  5
106AC84
330
106AC83
100
AcDbEntity
  8
2
100
AcDbBlockBegin
  2
*D16
 70
     1
 10
0.0
 20
0.0
 30
0.0
  3
*D16
  1

  0
LINE
  5
106AC85
330
106AC83
100
AcDbEntity
  8
2
 62
     0
370
    -2
100
AcDbLine
 10
21.5
 20
0.5
 30
0.0
 11
21.5
 21
36.0
 31
0.0
  0
LINE
  5
106AC86
330
106AC83
100
AcDbEntity
  8
2
 62
     0
370
    -2
100
AcDbLine
 10
0.0
 20
2.2905
 30
0.0
 11
0.0
 21
36.0
 31
0.0
  0
LINE
  5
106AC87
330
106AC83
100
AcDbEntity
  8
2
 62
     0
370
    -2
100
AcDbLine
 10
18.5
 20
35.0
 30
0.0
 11
3.0
 21
35.0
 31
0.0
  0
SOLID
  5
106AC88
330
106AC83
100
AcDbEntity
  8
2
 62
     0
100
AcDbTrace
 10
18.5
 20
34.5
 30
0.0
 11
18.5
 21
35.5
 31
0.0
 12
21.5
 22
35.0
 32
0.0
 13
21.5
 23
35.0
 33
0.0
  0
SOLID
  5
106AC89
330
106AC83
100
AcDbEntity
  8
2
 62
     0
100
AcDbTrace
 10
3.0
 20
35.5
 30
0.0
 11
3.0
 21
34.5
 31
0.0
 12
0.0
 22
35.0
 32
0.0
 13
0.0
 23
35.0
 33
0.0
  0
MTEXT
  5
106AC8A
330
106AC83
100
AcDbEntity
  8
2
  6
ByBlock
 62
     0
100
AcDbMText
 10
10.75
 20
37.61125
 30
0.0
 40
3.5
 41
0.0
 71
     5
 72
     1
  1
\A1;21.5
 73
     1
 44
1.0
  0
POINT
  5
106AC8B
330
106AC83
100
AcDbEntity
  8
Defpoints
 62
     0
100
AcDbPoint
 10
21.5
 20
0.0
 30
0.0
  0
POINT
  5
106AC8C
330
106AC83
100
AcDbEntity
  8
Defpoints
 62
     0
100
AcDbPoint
 10
0.0
 20
1.7905
 30
0.0
  0
POINT
  5
106AC8D
330
106AC83
100
AcDbEntity
  8
Defpoints
 62
     0
100
AcDbPoint
 10
0.0
 20
35.0
 30
0.0
  0
ENDBLK
  5
106AC8E
330
106AC83
100
AcDbEntity
  8
2
100
AcDbBlockEnd
  0
BLOCK
  5
106AC94
330
106AC93
100
AcDbEntity
  8
0
100
AcDbBlockBegin
  2
*D17
 70
     1
 10
0.0
 20
0.0
 30
0.0
  3
*D17
  1

  0
LINE
  5
106AC96
330
106AC93
100
AcDbEntity
  8
SK2
 62
     0
370
    -2
100
AcDbLine
 10
21.17425148187
 20
2.2905
 30
0.0
 11
21.17425148187
 21
36.0
 31
0.0
  0
LINE
  5
106AC97
330
106AC93
100
AcDbEntity
  8
SK2
 62
     0
370
    -2
100
AcDbLine
 10
1.953987871165
 20
2.2905
 30
0.0
 11
1.953987871164999
 21
36.0
 31
0.0
  0
LINE
  5
106AC98
330
106AC93
100
AcDbEntity
  8
SK2
 62
     0
370
    -2
100
AcDbLine
 10
18.17425148187
 20
35.0
 30
0.0
 11
4.953987871164999
 21
35.0
 31
0.0
  0
SOLID
  5
106AC99
330
106AC93
100
AcDbEntity
  8
SK2
 62
     0
100
AcDbTrace
 10
18.17425148187
 20
34.5
 30
0.0
 11
18.17425148187
 21
35.5
 31
0.0
 12
21.17425148187
 22
35.0
 32
0.0
 13
21.17425148187
 23
35.0
 33
0.0
  0
SOLID
  5
106AC9A
330
106AC93
100
AcDbEntity
  8
SK2
 62
     0
100
AcDbTrace
 10
4.953987871164999
 20
35.5
 30
0.0
 11
4.953987871164999
 21
34.5
 31
0.0
 12
1.953987871164999
 22
35.0
 32
0.0
 13
1.953987871164999
 23
35.0
 33
0.0
  0
MTEXT
  5
106AC9B
330
106AC93
100
AcDbEntity
  8
SK2
  6
ByBlock
 62
     0
100
AcDbMText
 10
11.5641196765175
 20
37.61125
 30
0.0
 40
3.5
 41
0.0
 71
     5
 72
     1
  1
\A1;19.2
 73
     1
 44
1.0
  0
POINT
  5
106AC9C
330
106AC93
100
AcDbEntity
  8
Defpoints
 62
     0
100
AcDbPoint
 10
21.17425148187
 20
1.7905
 30
0.0
  0
POINT
  5
106AC9D
330
106AC93
100
AcDbEntity
  8
Defpoints
 62
     0
100
AcDbPoint
 10
1.953987871165
 20
1.7905
 30
0.0
  0
POINT
  5
106AC9E
330
106AC93
100
AcDbEntity
  8
Defpoints
 62
     0
100
AcDbPoint
 10
1.953987871165
 20
35.0
 30
0.0
  0
ENDBLK
  5
106AC95
330
106AC93
100
AcDbEntity
  8
0
100
AcDbBlockEnd
  0
ENDSEC
  0
SECTION
  2
ENTITIES
  0
DIMENSION
  5
39B
330
30
100
AcDbEntity
  8
SK2
100
AcDbDimension
  2
*D0
 10
1.953987871165001
 20
-40.0
 30
0.0
 11
21.953987871165
 21
-40.0
 31
0.0
 70
   160
  1
<>
 71
     5
 42
40.0
  3
STANDARD
100
AcDbAlignedDimension
 13
41.953987871165
 23
-0.66
 33
0.0
 14
1.953987871165
 24
-1.7905
 34
0.0
100
AcDbRotatedDimension
1001
ACAD
1000
DSTYLE
1002
{
1070
   271
1070
     0
1070
   279
1070
     0
1070
    74
1070
     0
1002
}
  0
DIMENSION
  5
3A9
330
30
100
AcDbEntity
  8
SK2
100
AcDbDimension
  2
*D1
 10
14.604
 20
1.790500000000002
 30
0.0
 11
14.604
 21
17.04475
 31
0.0
 70
   160
  1
%%c<>
 71
     5
 42
3.581
  3
STANDARD
100
AcDbAlignedDimension
 13
1.953987871164999
 23
-1.7905
 33
0.0
 14
1.953987871164999
 24
1.7905
 34
0.0
 50
-90.0
100
AcDbRotatedDimension
1001
ACAD
1000
DSTYLE
1002
{
1070
    76
1070
     1
1070
    75
1070
     1
1070
   271
1070
     3
1070
   279
1070
     0
1070
    74
1070
     0
1002
}
  0
DIMENSION
  5
3B7
330
30
100
AcDbEntity
  8
SK2
100
AcDbDimension
  2
*D2
 10
1.953987871164999
 20
-16.0
 30
0.0
 11
-9.109012128835001
 21
-16.0
 31
0.0
 70
   160
  1
<>
 71
     5
 42
4.8
  3
STANDARD
100
AcDbAlignedDimension
 13
6.753987871165
 23
-1.7905
 33
0.0
 14
1.953987871165
 24
-1.7905
 34
0.0
100
AcDbRotatedDimension
1001
ACAD
1000
DSTYLE
1002
{
1070
   271
1070
     1
1070
   279
1070
     0
1070
    74
1070
     0
1002
}
  0
DIMENSION
  5
3C5
330
30
100
AcDbEntity
  8
2
100
AcDbDimension
  2
*D3
 10
32.453987871165
 20
-24.0
 30
0.0
 11
53.0
 21
-24.0
 31
0.0
 70
   160
  1
<>
 71
     5
 42
9.5
  3
STANDARD
100
AcDbAlignedDimension
 13
41.953987871165
 23
-0.66
 33
0.0
 14
32.453987871165
 24
-0.85
 34
0.0
100
AcDbRotatedDimension
1001
ACAD
1000
DSTYLE
1002
{
1070
   271
1070
     1
1070
   279
1070
     0
1070
    74
1070
     0
1002
}
1001
ACAD_DSTYLE_DIMFLIPARROW_SYMBOL
1070
   385
1070
     0
1001
ACAD_DSTYLE_DIMFLIPARROW_WHICH_SYMBOL
1070
   386
1070
     3
  0
DIMENSION
  5
3D3
330
30
100
AcDbEntity
  8
2
100
AcDbDimension
  2
*D4
 10
31.453987871165
 20
-32.0
 30
0.0
 11
22.060987871165
 21
-32.0
 31
0.0
 70
   160
  1
<>
 71
     5
 42
10.5
  3
STANDARD
100
AcDbAlignedDimension
 13
41.953987871165
 23
-0.66
 33
0.0
 14
31.453987871165
 24
-0.85
 34
0.0
100
AcDbRotatedDimension
1001
ACAD
1000
DSTYLE
1002
{
1070
   271
1070
     1
1070
   279
1070
     0
1070
    74
1070
     0
1002
}
1001
ACAD_DSTYLE_DIMFLIPARROW_SYMBOL
1070
   385
1070
     0
1001
ACAD_DSTYLE_DIMFLIPARROW_WHICH_SYMBOL
1070
   386
1070
     3
  0
DIMENSION
  5
3E1
330
30
100
AcDbEntity
  8
2
100
AcDbDimension
  2
*D5
 10
21.17425148187
 20
35.0
 30
0.0
 11
31.92425148187
 21
35.0
 31
0.0
 70
   160
  1
<>
 71
     5
 42
21.5
  3
STANDARD
100
AcDbAlignedDimension
 13
42.67425148187
 23
0.0
 33
0.0
 14
21.17425148187
 24
1.7905
 34
0.0
100
AcDbRotatedDimension
1001
ACAD
1000
DSTYLE
1002
{
1070
   271
1070
     1
1070
   279
1070
     0
1070
    74
1070
     0
1002
}
  0
LINE
  5
36
330
30
100
AcDbEntity
  8
1
100
AcDbLine
 10
21.17425148187
 20
1.7905
 30
0.0
 11
21.17425148187
 21
-1.7905
 31
0.0
  0
LINE
  5
37
330
30
100
AcDbEntity
  8
1
100
AcDbLine
 10
21.17425148187
 20
-1.7905
 30
0.0
 11
26.4540543535
 21
-1.7905
 31
0.0
  0
LINE
  5
38
330
30
100
AcDbEntity
  8
1
100
AcDbLine
 10
26.4540543535
 20
-1.7905
 30
0.0
 11
31.453987871165
 21
-0.85
 31
0.0
  0
LINE
  5
39
330
30
100
AcDbEntity
  8
1
100
AcDbLine
 10
31.453987871165
 20
-0.85
 30
0.0
 11
32.453987871165
 21
-0.85
 31
0.0
  0
LINE
  5
3A
330
30
100
AcDbEntity
  8
1
100
AcDbLine
 10
32.453987871165
 20
-0.85
 30
0.0
 11
40.553987871165
 21
-0.85
 31
0.0
  0
LINE
  5
3B
330
30
100
AcDbEntity
  8
1
100
AcDbLine
 10
40.553987871165
 20
-0.85
 30
0.0
 11
41.953987871165
 21
-0.66
 31
0.0
  0
LINE
  5
3C
330
30
100
AcDbEntity
  8
1
100
AcDbLine
 10
41.953987871165
 20
-0.66
 30
0.0
 11
42.67425148187
 21
0.0
 31
0.0
  0
LINE
  5
3D
330
30
100
AcDbEntity
  8
1
100
AcDbLine
 10
42.67425148187
 20
0.0
 30
0.0
 11
41.953987871165
 21
0.66
 31
0.0
  0
LINE
  5
3E
330
30
100
AcDbEntity
  8
1
100
AcDbLine
 10
41.953987871165
 20
0.66
 30
0.0
 11
40.553987871165
 21
0.85
 31
0.0
  0
LINE
  5
3F
330
30
100
AcDbEntity
  8
1
100
AcDbLine
 10
40.553987871165
 20
0.85
 30
0.0
 11
32.453987871165
 21
0.85
 31
0.0
  0
LINE
  5
40
330
30
100
AcDbEntity
  8
1
100
AcDbLine
 10
32.453987871165
 20
0.85
 30
0.0
 11
31.453987871165
 21
0.85
 31
0.0
  0
LINE
  5
41
330
30
100
AcDbEntity
  8
1
100
AcDbLine
 10
31.453987871165
 20
0.85
 30
0.0
 11
26.4540543535
 21
1.7905
 31
0.0
  0
LINE
  5
42
330
30
100
AcDbEntity
  8
1
100
AcDbLine
 10
26.4540543535
 20
1.7905
 30
0.0
 11
21.17425148187
 21
1.7905
 31
0.0
  0
LINE
  5
43
330
30
100
AcDbEntity
  8
1
100
AcDbLine
 10
41.953987871165
 20
-0.66
 30
0.0
 11
41.953987871165
 21
0.66
 31
0.0
  0
LINE
  5
44
330
30
100
AcDbEntity
  8
1
100
AcDbLine
 10
40.553987871165
 20
0.85
 30
0.0
 11
40.553987871165
 21
-0.85
 31
0.0
  0
LINE
  5
45
330
30
100
AcDbEntity
  8
1
100
AcDbLine
 10
40.51425148187
 20
-0.85
 30
0.0
 11
40.46025148187
 21
-0.85
 31
0.0
  0
LINE
  5
46
330
30
100
AcDbEntity
  8
1
100
AcDbLine
 10
40.46025148187
 20
-0.85
 30
0.0
 11
40.40625148187
 21
-0.85
 31
0.0
  0
LINE
  5
47
330
30
100
AcDbEntity
  8
1
100
AcDbLine
 10
40.40625148187
 20
-0.85
 30
0.0
 11
40.35225148187
 21
-0.85
 31
0.0
  0
LINE
  5
48
330
30
100
AcDbEntity
  8
1
100
AcDbLine
 10
40.35225148187
 20
-0.85
 30
0.0
 11
40.29825148187
 21
-0.85
 31
0.0
  0
LINE
  5
49
330
30
100
AcDbEntity
  8
1
100
AcDbLine
 10
40.29825148187
 20
-0.85
 30
0.0
 11
40.24425148187
 21
-0.85
 31
0.0
  0
LINE
  5
4A
330
30
100
AcDbEntity
  8
1
100
AcDbLine
 10
40.24425148187
 20
-0.85
 30
0.0
 11
40.19025148187
 21
-0.85
 31
0.0
  0
LINE
  5
4B
330
30
100
AcDbEntity
  8
1
100
AcDbLine
 10
40.19025148187
 20
-0.85
 30
0.0
 11
40.13625148187
 21
-0.85
 31
0.0
  0
LINE
  5
4C
330
30
100
AcDbEntity
  8
1
100
AcDbLine
 10
40.13625148187
 20
-0.85
 30
0.0
 11
40.08225148187
 21
-0.85
 31
0.0
  0
LINE
  5
4D
330
30
100
AcDbEntity
  8
1
100
AcDbLine
 10
40.08225148187
 20
-0.85
 30
0.0
 11
40.02825148187
 21
-0.85
 31
0.0
  0
LINE
  5
4E
330
30
100
AcDbEntity
  8
1
100
AcDbLine
 10
40.02825148187
 20
-0.85
 30
0.0
 11
39.97425148187
 21
-0.85
 31
0.0
  0
LINE
  5
4F
330
30
100
AcDbEntity
  8
1
100
AcDbLine
 10
39.97425148187
 20
-0.85
 30
0.0
 11
39.92025148187
 21
-0.85
 31
0.0
  0
LINE
  5
50
330
30
100
AcDbEntity
  8
1
100
AcDbLine
 10
39.92025148187
 20
-0.85
 30
0.0
 11
39.86625148187
 21
-0.85
 31
0.0
  0
LINE
  5
51
330
30
100
AcDbEntity
  8
1
100
AcDbLine
 10
39.86625148187
 20
-0.85
 30
0.0
 11
39.81225148187
 21
-0.85
 31
0.0
  0
LINE
  5
52
330
30
100
AcDbEntity
  8
1
100
AcDbLine
 10
39.81225148187
 20
-0.85
 30
0.0
 11
39.75825148187
 21
-0.85
 31
0.0
  0
LINE
  5
53
330
30
100
AcDbEntity
  8
1
100
AcDbLine
 10
39.75825148187
 20
-0.85
 30
0.0
 11
39.70425148187
 21
-0.85
 31
0.0
  0
LINE
  5
54
330
30
100
AcDbEntity
  8
1
100
AcDbLine
 10
39.70425148187
 20
-0.85
 30
0.0
 11
39.65025148187
 21
-0.85
 31
0.0
  0
LINE
  5
55
330
30
100
AcDbEntity
  8
1
100
AcDbLine
 10
39.65025148187
 20
-0.85
 30
0.0
 11
39.59625148187
 21
-0.85
 31
0.0
  0
LINE
  5
56
330
30
100
AcDbEntity
  8
1
100
AcDbLine
 10
39.59625148187
 20
-0.85
 30
0.0
 11
39.54225148187
 21
-0.85
 31
0.0
  0
LINE
  5
57
330
30
100
AcDbEntity
  8
1
100
AcDbLine
 10
39.54225148187
 20
-0.85
 30
0.0
 11
39.48825148187
 21
-0.85
 31
0.0
  0
LINE
  5
58
330
30
100
AcDbEntity
  8
1
100
AcDbLine
 10
39.48825148187
 20
-0.85
 30
0.0
 11
39.43425148187
 21
-0.85
 31
0.0
  0
LINE
  5
59
330
30
100
AcDbEntity
  8
1
100
AcDbLine
 10
39.43425148187
 20
-0.85
 30
0.0
 11
39.38025148187
 21
-0.85
 31
0.0
  0
LINE
  5
5A
330
30
100
AcDbEntity
  8
1
100
AcDbLine
 10
39.38025148187
 20
-0.85
 30
0.0
 11
39.32625148187
 21
-0.85
 31
0.0
  0
LINE
  5
5B
330
30
100
AcDbEntity
  8
1
100
AcDbLine
 10
39.32625148187
 20
-0.85
 30
0.0
 11
39.27225148187
 21
-0.85
 31
0.0
  0
LINE
  5
5C
330
30
100
AcDbEntity
  8
1
100
AcDbLine
 10
39.27225148187
 20
-0.85
 30
0.0
 11
39.21825148187
 21
-0.85
 31
0.0
  0
LINE
  5
5D
330
30
100
AcDbEntity
  8
1
100
AcDbLine
 10
39.21825148187
 20
-0.85
 30
0.0
 11
39.16425148187
 21
-0.85
 31
0.0
  0
LINE
  5
5E
330
30
100
AcDbEntity
  8
1
100
AcDbLine
 10
39.16425148187
 20
-0.85
 30
0.0
 11
39.11025148187
 21
-0.85
 31
0.0
  0
LINE
  5
5F
330
30
100
AcDbEntity
  8
1
100
AcDbLine
 10
39.11025148187
 20
-0.85
 30
0.0
 11
39.05625148187
 21
-0.85
 31
0.0
  0
LINE
  5
60
330
30
100
AcDbEntity
  8
1
100
AcDbLine
 10
39.05625148187
 20
-0.85
 30
0.0
 11
39.00225148187
 21
-0.85
 31
0.0
  0
LINE
  5
61
330
30
100
AcDbEntity
  8
1
100
AcDbLine
 10
39.00225148187
 20
-0.85
 30
0.0
 11
38.94825148187
 21
-0.85
 31
0.0
  0
LINE
  5
62
330
30
100
AcDbEntity
  8
1
100
AcDbLine
 10
38.94825148187
 20
-0.85
 30
0.0
 11
38.89425148187
 21
-0.85
 31
0.0
  0
LINE
  5
63
330
30
100
AcDbEntity
  8
1
100
AcDbLine
 10
38.89425148187
 20
-0.85
 30
0.0
 11
38.84025148187
 21
-0.85
 31
0.0
  0
LINE
  5
64
330
30
100
AcDbEntity
  8
1
100
AcDbLine
 10
38.84025148187
 20
-0.85
 30
0.0
 11
38.78625148187
 21
-0.85
 31
0.0
  0
LINE
  5
65
330
30
100
AcDbEntity
  8
1
100
AcDbLine
 10
38.78625148187
 20
-0.85
 30
0.0
 11
38.73225148187
 21
-0.85
 31
0.0
  0
LINE
  5
66
330
30
100
AcDbEntity
  8
1
100
AcDbLine
 10
38.73225148187
 20
-0.85
 30
0.0
 11
38.67825148187
 21
-0.85
 31
0.0
  0
LINE
  5
67
330
30
100
AcDbEntity
  8
1
100
AcDbLine
 10
38.67825148187
 20
-0.85
 30
0.0
 11
38.62425148187
 21
-0.85
 31
0.0
  0
LINE
  5
68
330
30
100
AcDbEntity
  8
1
100
AcDbLine
 10
38.62425148187
 20
-0.85
 30
0.0
 11
38.57025148187
 21
-0.85
 31
0.0
  0
LINE
  5
69
330
30
100
AcDbEntity
  8
1
100
AcDbLine
 10
38.57025148187
 20
-0.85
 30
0.0
 11
38.51625148187
 21
-0.85
 31
0.0
  0
LINE
  5
6A
330
30
100
AcDbEntity
  8
1
100
AcDbLine
 10
38.51625148187
 20
-0.85
 30
0.0
 11
38.46225148187
 21
-0.85
 31
0.0
  0
LINE
  5
6B
330
30
100
AcDbEntity
  8
1
100
AcDbLine
 10
38.46225148187
 20
-0.85
 30
0.0
 11
38.40825148187
 21
-0.85
 31
0.0
  0
LINE
  5
6C
330
30
100
AcDbEntity
  8
1
100
AcDbLine
 10
38.40825148187
 20
-0.85
 30
0.0
 11
38.35425148187
 21
-0.85
 31
0.0
  0
LINE
  5
6D
330
30
100
AcDbEntity
  8
1
100
AcDbLine
 10
38.35425148187
 20
-0.85
 30
0.0
 11
38.30025148187
 21
-0.85
 31
0.0
  0
LINE
  5
6E
330
30
100
AcDbEntity
  8
1
100
AcDbLine
 10
38.30025148187
 20
-0.85
 30
0.0
 11
38.24625148187
 21
-0.85
 31
0.0
  0
LINE
  5
6F
330
30
100
AcDbEntity
  8
1
100
AcDbLine
 10
38.24625148187
 20
-0.85
 30
0.0
 11
38.19225148187
 21
-0.85
 31
0.0
  0
LINE
  5
70
330
30
100
AcDbEntity
  8
1
100
AcDbLine
 10
38.19225148187
 20
-0.85
 30
0.0
 11
38.13825148187
 21
-0.85
 31
0.0
  0
LINE
  5
71
330
30
100
AcDbEntity
  8
1
100
AcDbLine
 10
38.13825148187
 20
-0.85
 30
0.0
 11
38.08425148187
 21
-0.85
 31
0.0
  0
LINE
  5
72
330
30
100
AcDbEntity
  8
1
100
AcDbLine
 10
38.08425148187
 20
-0.85
 30
0.0
 11
38.03025148187
 21
-0.85
 31
0.0
  0
LINE
  5
73
330
30
100
AcDbEntity
  8
1
100
AcDbLine
 10
38.03025148187
 20
-0.85
 30
0.0
 11
37.97625148187
 21
-0.85
 31
0.0
  0
LINE
  5
74
330
30
100
AcDbEntity
  8
1
100
AcDbLine
 10
37.97625148187
 20
-0.85
 30
0.0
 11
37.92225148187
 21
-0.85
 31
0.0
  0
LINE
  5
75
330
30
100
AcDbEntity
  8
1
100
AcDbLine
 10
37.92225148187
 20
-0.85
 30
0.0
 11
37.86825148187
 21
-0.85
 31
0.0
  0
LINE
  5
76
330
30
100
AcDbEntity
  8
1
100
AcDbLine
 10
37.86825148187
 20
-0.85
 30
0.0
 11
37.81425148187
 21
-0.85
 31
0.0
  0
LINE
  5
77
330
30
100
AcDbEntity
  8
1
100
AcDbLine
 10
37.81425148187
 20
-0.85
 30
0.0
 11
37.76025148187
 21
-0.85
 31
0.0
  0
LINE
  5
78
330
30
100
AcDbEntity
  8
1
100
AcDbLine
 10
37.76025148187
 20
-0.85
 30
0.0
 11
37.70625148187
 21
-0.85
 31
0.0
  0
LINE
  5
79
330
30
100
AcDbEntity
  8
1
100
AcDbLine
 10
37.70625148187
 20
-0.85
 30
0.0
 11
37.65225148187
 21
-0.85
 31
0.0
  0
LINE
  5
7A
330
30
100
AcDbEntity
  8
1
100
AcDbLine
 10
37.65225148187
 20
-0.85
 30
0.0
 11
37.59825148187
 21
-0.85
 31
0.0
  0
LINE
  5
7B
330
30
100
AcDbEntity
  8
1
100
AcDbLine
 10
37.59825148187
 20
-0.85
 30
0.0
 11
37.54425148187
 21
-0.85
 31
0.0
  0
LINE
  5
7C
330
30
100
AcDbEntity
  8
1
100
AcDbLine
 10
37.54425148187
 20
-0.85
 30
0.0
 11
37.49025148187
 21
-0.85
 31
0.0
  0
LINE
  5
7D
330
30
100
AcDbEntity
  8
1
100
AcDbLine
 10
37.49025148187
 20
-0.85
 30
0.0
 11
37.43625148187
 21
-0.85
 31
0.0
  0
LINE
  5
7E
330
30
100
AcDbEntity
  8
1
100
AcDbLine
 10
37.43625148187
 20
-0.85
 30
0.0
 11
37.38225148187
 21
-0.85
 31
0.0
  0
LINE
  5
7F
330
30
100
AcDbEntity
  8
1
100
AcDbLine
 10
37.38225148187
 20
-0.85
 30
0.0
 11
37.32825148187
 21
-0.85
 31
0.0
  0
LINE
  5
80
330
30
100
AcDbEntity
  8
1
100
AcDbLine
 10
37.32825148187
 20
-0.85
 30
0.0
 11
37.27425148187
 21
-0.85
 31
0.0
  0
LINE
  5
81
330
30
100
AcDbEntity
  8
1
100
AcDbLine
 10
37.27425148187
 20
-0.85
 30
0.0
 11
37.22025148187
 21
-0.85
 31
0.0
  0
LINE
  5
82
330
30
100
AcDbEntity
  8
1
100
AcDbLine
 10
37.22025148187
 20
-0.85
 30
0.0
 11
37.16625148187
 21
-0.85
 31
0.0
  0
LINE
  5
83
330
30
100
AcDbEntity
  8
1
100
AcDbLine
 10
37.16625148187
 20
-0.85
 30
0.0
 11
37.11225148187
 21
-0.85
 31
0.0
  0
LINE
  5
84
330
30
100
AcDbEntity
  8
1
100
AcDbLine
 10
37.11225148187
 20
-0.85
 30
0.0
 11
37.05825148187
 21
-0.85
 31
0.0
  0
LINE
  5
85
330
30
100
AcDbEntity
  8
1
100
AcDbLine
 10
37.05825148187
 20
-0.85
 30
0.0
 11
37.00425148187
 21
-0.85
 31
0.0
  0
LINE
  5
86
330
30
100
AcDbEntity
  8
1
100
AcDbLine
 10
37.00425148187
 20
-0.85
 30
0.0
 11
36.95025148187
 21
-0.85
 31
0.0
  0
LINE
  5
87
330
30
100
AcDbEntity
  8
1
100
AcDbLine
 10
36.95025148187
 20
-0.85
 30
0.0
 11
36.89625148187
 21
-0.85
 31
0.0
  0
LINE
  5
88
330
30
100
AcDbEntity
  8
1
100
AcDbLine
 10
36.89625148187
 20
-0.85
 30
0.0
 11
36.84225148187
 21
-0.85
 31
0.0
  0
LINE
  5
89
330
30
100
AcDbEntity
  8
1
100
AcDbLine
 10
36.84225148187
 20
-0.85
 30
0.0
 11
36.78825148187
 21
-0.85
 31
0.0
  0
LINE
  5
8A
330
30
100
AcDbEntity
  8
1
100
AcDbLine
 10
36.78825148187
 20
-0.85
 30
0.0
 11
36.73425148187
 21
-0.85
 31
0.0
  0
LINE
  5
8B
330
30
100
AcDbEntity
  8
1
100
AcDbLine
 10
36.73425148187
 20
-0.85
 30
0.0
 11
36.68025148187
 21
-0.85
 31
0.0
  0
LINE
  5
8C
330
30
100
AcDbEntity
  8
1
100
AcDbLine
 10
36.68025148187
 20
-0.85
 30
0.0
 11
36.62625148187
 21
-0.85
 31
0.0
  0
LINE
  5
8D
330
30
100
AcDbEntity
  8
1
100
AcDbLine
 10
36.62625148187
 20
-0.85
 30
0.0
 11
36.57225148187
 21
-0.85
 31
0.0
  0
LINE
  5
8E
330
30
100
AcDbEntity
  8
1
100
AcDbLine
 10
36.57225148187
 20
-0.85
 30
0.0
 11
36.51825148187
 21
-0.85
 31
0.0
  0
LINE
  5
8F
330
30
100
AcDbEntity
  8
1
100
AcDbLine
 10
36.51825148187
 20
-0.85
 30
0.0
 11
36.46425148187
 21
-0.85
 31
0.0
  0
LINE
  5
90
330
30
100
AcDbEntity
  8
1
100
AcDbLine
 10
36.46425148187
 20
-0.85
 30
0.0
 11
36.41025148187
 21
-0.85
 31
0.0
  0
LINE
  5
91
330
30
100
AcDbEntity
  8
1
100
AcDbLine
 10
36.41025148187
 20
-0.85
 30
0.0
 11
36.35625148187
 21
-0.85
 31
0.0
  0
LINE
  5
92
330
30
100
AcDbEntity
  8
1
100
AcDbLine
 10
36.35625148187
 20
-0.85
 30
0.0
 11
36.30225148187
 21
-0.85
 31
0.0
  0
LINE
  5
93
330
30
100
AcDbEntity
  8
1
100
AcDbLine
 10
36.30225148187
 20
-0.85
 30
0.0
 11
36.24825148187
 21
-0.85
 31
0.0
  0
LINE
  5
94
330
30
100
AcDbEntity
  8
1
100
AcDbLine
 10
36.24825148187
 20
-0.85
 30
0.0
 11
36.19425148187
 21
-0.85
 31
0.0
  0
LINE
  5
95
330
30
100
AcDbEntity
  8
1
100
AcDbLine
 10
36.19425148187
 20
-0.85
 30
0.0
 11
36.14025148187
 21
-0.85
 31
0.0
  0
LINE
  5
96
330
30
100
AcDbEntity
  8
1
100
AcDbLine
 10
36.14025148187
 20
-0.85
 30
0.0
 11
36.08625148187
 21
-0.85
 31
0.0
  0
LINE
  5
97
330
30
100
AcDbEntity
  8
1
100
AcDbLine
 10
36.08625148187
 20
-0.85
 30
0.0
 11
36.03225148187
 21
-0.85
 31
0.0
  0
LINE
  5
98
330
30
100
AcDbEntity
  8
1
100
AcDbLine
 10
36.03225148187
 20
-0.85
 30
0.0
 11
35.97825148187
 21
-0.85
 31
0.0
  0
LINE
  5
99
330
30
100
AcDbEntity
  8
1
100
AcDbLine
 10
35.97825148187
 20
-0.85
 30
0.0
 11
35.92425148187
 21
-0.85
 31
0.0
  0
LINE
  5
9A
330
30
100
AcDbEntity
  8
1
100
AcDbLine
 10
35.92425148187
 20
-0.85
 30
0.0
 11
35.87025148187
 21
-0.85
 31
0.0
  0
LINE
  5
9B
330
30
100
AcDbEntity
  8
1
100
AcDbLine
 10
35.87025148187
 20
-0.85
 30
0.0
 11
35.81625148187
 21
-0.85
 31
0.0
  0
LINE
  5
9C
330
30
100
AcDbEntity
  8
1
100
AcDbLine
 10
35.81625148187
 20
-0.85
 30
0.0
 11
35.76225148187
 21
-0.85
 31
0.0
  0
LINE
  5
9D
330
30
100
AcDbEntity
  8
1
100
AcDbLine
 10
35.76225148187
 20
-0.85
 30
0.0
 11
35.70825148187
 21
-0.85
 31
0.0
  0
LINE
  5
9E
330
30
100
AcDbEntity
  8
1
100
AcDbLine
 10
35.70825148187
 20
-0.85
 30
0.0
 11
35.65425148187
 21
-0.85
 31
0.0
  0
LINE
  5
9F
330
30
100
AcDbEntity
  8
1
100
AcDbLine
 10
35.65425148187
 20
-0.85
 30
0.0
 11
35.60025148187
 21
-0.85
 31
0.0
  0
LINE
  5
A0
330
30
100
AcDbEntity
  8
1
100
AcDbLine
 10
35.60025148187
 20
-0.85
 30
0.0
 11
35.54625148187
 21
-0.85
 31
0.0
  0
LINE
  5
A1
330
30
100
AcDbEntity
  8
1
100
AcDbLine
 10
35.54625148187
 20
-0.85
 30
0.0
 11
35.49225148187
 21
-0.85
 31
0.0
  0
LINE
  5
A2
330
30
100
AcDbEntity
  8
1
100
AcDbLine
 10
35.49225148187
 20
-0.85
 30
0.0
 11
35.43825148187
 21
-0.85
 31
0.0
  0
LINE
  5
A3
330
30
100
AcDbEntity
  8
1
100
AcDbLine
 10
35.43825148187
 20
-0.85
 30
0.0
 11
35.38425148187
 21
-0.85
 31
0.0
  0
LINE
  5
A4
330
30
100
AcDbEntity
  8
1
100
AcDbLine
 10
35.38425148187
 20
-0.85
 30
0.0
 11
35.33025148187
 21
-0.85
 31
0.0
  0
LINE
  5
A5
330
30
100
AcDbEntity
  8
1
100
AcDbLine
 10
35.33025148187
 20
-0.85
 30
0.0
 11
35.27625148187
 21
-0.85
 31
0.0
  0
LINE
  5
A6
330
30
100
AcDbEntity
  8
1
100
AcDbLine
 10
35.27625148187
 20
-0.85
 30
0.0
 11
35.22225148187
 21
-0.85
 31
0.0
  0
LINE
  5
A7
330
30
100
AcDbEntity
  8
1
100
AcDbLine
 10
35.22225148187
 20
-0.85
 30
0.0
 11
35.16825148187
 21
-0.85
 31
0.0
  0
LINE
  5
A8
330
30
100
AcDbEntity
  8
1
100
AcDbLine
 10
35.16825148187
 20
-0.85
 30
0.0
 11
35.11425148187
 21
-0.85
 31
0.0
  0
LINE
  5
A9
330
30
100
AcDbEntity
  8
1
100
AcDbLine
 10
35.11425148187
 20
-0.85
 30
0.0
 11
35.06025148187
 21
-0.85
 31
0.0
  0
LINE
  5
AA
330
30
100
AcDbEntity
  8
1
100
AcDbLine
 10
35.06025148187
 20
-0.85
 30
0.0
 11
35.00625148187
 21
-0.85
 31
0.0
  0
LINE
  5
AB
330
30
100
AcDbEntity
  8
1
100
AcDbLine
 10
35.00625148187
 20
-0.85
 30
0.0
 11
34.95225148187
 21
-0.85
 31
0.0
  0
LINE
  5
AC
330
30
100
AcDbEntity
  8
1
100
AcDbLine
 10
34.95225148187
 20
-0.85
 30
0.0
 11
34.89825148187
 21
-0.85
 31
0.0
  0
LINE
  5
AD
330
30
100
AcDbEntity
  8
1
100
AcDbLine
 10
34.89825148187
 20
-0.85
 30
0.0
 11
34.84425148187
 21
-0.85
 31
0.0
  0
LINE
  5
AE
330
30
100
AcDbEntity
  8
1
100
AcDbLine
 10
34.84425148187
 20
-0.85
 30
0.0
 11
34.79025148187
 21
-0.85
 31
0.0
  0
LINE
  5
AF
330
30
100
AcDbEntity
  8
1
100
AcDbLine
 10
34.79025148187
 20
-0.85
 30
0.0
 11
34.73625148187
 21
-0.85
 31
0.0
  0
LINE
  5
B0
330
30
100
AcDbEntity
  8
1
100
AcDbLine
 10
34.73625148187
 20
-0.85
 30
0.0
 11
34.68225148187
 21
-0.85
 31
0.0
  0
LINE
  5
B1
330
30
100
AcDbEntity
  8
1
100
AcDbLine
 10
34.68225148187
 20
-0.85
 30
0.0
 11
34.62825148187
 21
-0.85
 31
0.0
  0
LINE
  5
B2
330
30
100
AcDbEntity
  8
1
100
AcDbLine
 10
34.62825148187
 20
-0.85
 30
0.0
 11
34.57425148187
 21
-0.85
 31
0.0
  0
LINE
  5
B3
330
30
100
AcDbEntity
  8
1
100
AcDbLine
 10
34.57425148187
 20
-0.85
 30
0.0
 11
34.52025148187
 21
-0.85
 31
0.0
  0
LINE
  5
B4
330
30
100
AcDbEntity
  8
1
100
AcDbLine
 10
34.52025148187
 20
-0.85
 30
0.0
 11
34.46625148187
 21
-0.85
 31
0.0
  0
LINE
  5
B5
330
30
100
AcDbEntity
  8
1
100
AcDbLine
 10
34.46625148187
 20
-0.85
 30
0.0
 11
34.41225148187
 21
-0.85
 31
0.0
  0
LINE
  5
B6
330
30
100
AcDbEntity
  8
1
100
AcDbLine
 10
34.41225148187
 20
-0.85
 30
0.0
 11
34.35825148187
 21
-0.85
 31
0.0
  0
LINE
  5
B7
330
30
100
AcDbEntity
  8
1
100
AcDbLine
 10
34.35825148187
 20
-0.85
 30
0.0
 11
34.30425148187
 21
-0.85
 31
0.0
  0
LINE
  5
B8
330
30
100
AcDbEntity
  8
1
100
AcDbLine
 10
34.30425148187
 20
-0.85
 30
0.0
 11
34.25025148187
 21
-0.85
 31
0.0
  0
LINE
  5
B9
330
30
100
AcDbEntity
  8
1
100
AcDbLine
 10
34.25025148187
 20
-0.85
 30
0.0
 11
34.19625148187
 21
-0.85
 31
0.0
  0
LINE
  5
BA
330
30
100
AcDbEntity
  8
1
100
AcDbLine
 10
34.19625148187
 20
-0.85
 30
0.0
 11
34.14225148187
 21
-0.85
 31
0.0
  0
LINE
  5
BB
330
30
100
AcDbEntity
  8
1
100
AcDbLine
 10
34.14225148187
 20
-0.85
 30
0.0
 11
34.08825148187
 21
-0.85
 31
0.0
  0
LINE
  5
BC
330
30
100
AcDbEntity
  8
1
100
AcDbLine
 10
34.08825148187
 20
-0.85
 30
0.0
 11
34.03425148187
 21
-0.85
 31
0.0
  0
LINE
  5
BD
330
30
100
AcDbEntity
  8
1
100
AcDbLine
 10
34.03425148187
 20
-0.85
 30
0.0
 11
33.98025148187
 21
-0.85
 31
0.0
  0
LINE
  5
BE
330
30
100
AcDbEntity
  8
1
100
AcDbLine
 10
33.98025148187
 20
-0.85
 30
0.0
 11
33.92625148187
 21
-0.85
 31
0.0
  0
LINE
  5
BF
330
30
100
AcDbEntity
  8
1
100
AcDbLine
 10
33.92625148187
 20
-0.85
 30
0.0
 11
33.87225148187
 21
-0.85
 31
0.0
  0
LINE
  5
C0
330
30
100
AcDbEntity
  8
1
100
AcDbLine
 10
33.87225148187
 20
-0.85
 30
0.0
 11
33.81825148187
 21
-0.85
 31
0.0
  0
LINE
  5
C1
330
30
100
AcDbEntity
  8
1
100
AcDbLine
 10
33.81825148187
 20
-0.85
 30
0.0
 11
33.76425148187
 21
-0.85
 31
0.0
  0
LINE
  5
C2
330
30
100
AcDbEntity
  8
1
100
AcDbLine
 10
33.76425148187
 20
-0.85
 30
0.0
 11
33.71025148187
 21
-0.85
 31
0.0
  0
LINE
  5
C3
330
30
100
AcDbEntity
  8
1
100
AcDbLine
 10
33.71025148187
 20
-0.85
 30
0.0
 11
33.65625148187
 21
-0.85
 31
0.0
  0
LINE
  5
C4
330
30
100
AcDbEntity
  8
1
100
AcDbLine
 10
33.65625148187
 20
-0.85
 30
0.0
 11
33.60225148187
 21
-0.85
 31
0.0
  0
LINE
  5
C5
330
30
100
AcDbEntity
  8
1
100
AcDbLine
 10
33.60225148187
 20
-0.85
 30
0.0
 11
33.54825148187
 21
-0.85
 31
0.0
  0
LINE
  5
C6
330
30
100
AcDbEntity
  8
1
100
AcDbLine
 10
33.54825148187
 20
-0.85
 30
0.0
 11
33.49425148187
 21
-0.85
 31
0.0
  0
LINE
  5
C7
330
30
100
AcDbEntity
  8
1
100
AcDbLine
 10
33.49425148187
 20
-0.85
 30
0.0
 11
33.44025148187
 21
-0.85
 31
0.0
  0
LINE
  5
C8
330
30
100
AcDbEntity
  8
1
100
AcDbLine
 10
33.44025148187
 20
-0.85
 30
0.0
 11
33.38625148187
 21
-0.85
 31
0.0
  0
LINE
  5
C9
330
30
100
AcDbEntity
  8
1
100
AcDbLine
 10
33.38625148187
 20
-0.85
 30
0.0
 11
33.33225148187
 21
-0.85
 31
0.0
  0
LINE
  5
CA
330
30
100
AcDbEntity
  8
1
100
AcDbLine
 10
33.33225148187
 20
-0.85
 30
0.0
 11
33.27825148187
 21
-0.85
 31
0.0
  0
LINE
  5
CB
330
30
100
AcDbEntity
  8
1
100
AcDbLine
 10
33.27825148187
 20
-0.85
 30
0.0
 11
33.22425148187
 21
-0.85
 31
0.0
  0
LINE
  5
CC
330
30
100
AcDbEntity
  8
1
100
AcDbLine
 10
33.22425148187
 20
-0.85
 30
0.0
 11
33.17025148187
 21
-0.85
 31
0.0
  0
LINE
  5
CD
330
30
100
AcDbEntity
  8
1
100
AcDbLine
 10
33.17025148187
 20
-0.85
 30
0.0
 11
33.11625148187
 21
-0.85
 31
0.0
  0
LINE
  5
CE
330
30
100
AcDbEntity
  8
1
100
AcDbLine
 10
33.11625148187
 20
-0.85
 30
0.0
 11
33.06225148187
 21
-0.85
 31
0.0
  0
LINE
  5
CF
330
30
100
AcDbEntity
  8
1
100
AcDbLine
 10
33.06225148187
 20
-0.85
 30
0.0
 11
33.00825148187
 21
-0.85
 31
0.0
  0
LINE
  5
D0
330
30
100
AcDbEntity
  8
1
100
AcDbLine
 10
33.00825148187
 20
-0.85
 30
0.0
 11
32.95425148187
 21
-0.85
 31
0.0
  0
LINE
  5
D1
330
30
100
AcDbEntity
  8
1
100
AcDbLine
 10
32.95425148187
 20
-0.85
 30
0.0
 11
32.90025148187
 21
-0.85
 31
0.0
  0
LINE
  5
D2
330
30
100
AcDbEntity
  8
1
100
AcDbLine
 10
32.90025148187
 20
-0.85
 30
0.0
 11
32.84625148187
 21
-0.85
 31
0.0
  0
LINE
  5
D3
330
30
100
AcDbEntity
  8
1
100
AcDbLine
 10
32.84625148187
 20
-0.85
 30
0.0
 11
32.79225148187
 21
-0.85
 31
0.0
  0
LINE
  5
D4
330
30
100
AcDbEntity
  8
1
100
AcDbLine
 10
32.79225148187
 20
-0.85
 30
0.0
 11
32.73825148187
 21
-0.85
 31
0.0
  0
LINE
  5
D5
330
30
100
AcDbEntity
  8
1
100
AcDbLine
 10
32.73825148187
 20
-0.85
 30
0.0
 11
32.68425148187
 21
-0.85
 31
0.0
  0
LINE
  5
D6
330
30
100
AcDbEntity
  8
1
100
AcDbLine
 10
32.68425148187
 20
-0.85
 30
0.0
 11
32.63025148187
 21
-0.85
 31
0.0
  0
LINE
  5
D7
330
30
100
AcDbEntity
  8
1
100
AcDbLine
 10
32.63025148187
 20
-0.85
 30
0.0
 11
32.57625148187
 21
-0.85
 31
0.0
  0
LINE
  5
D8
330
30
100
AcDbEntity
  8
1
100
AcDbLine
 10
32.57625148187
 20
-0.85
 30
0.0
 11
32.52225148187
 21
-0.85
 31
0.0
  0
LINE
  5
D9
330
30
100
AcDbEntity
  8
1
100
AcDbLine
 10
32.52225148187
 20
-0.85
 30
0.0
 11
32.46825148187
 21
-0.85
 31
0.0
  0
LINE
  5
DA
330
30
100
AcDbEntity
  8
1
100
AcDbLine
 10
32.46825148187
 20
-0.85
 30
0.0
 11
32.41425148187
 21
-0.85
 31
0.0
  0
LINE
  5
DB
330
30
100
AcDbEntity
  8
1
100
AcDbLine
 10
32.41425148187
 20
-0.85
 30
0.0
 11
32.36025148187
 21
-0.85
 31
0.0
  0
LINE
  5
DC
330
30
100
AcDbEntity
  8
1
100
AcDbLine
 10
32.36025148187
 20
-0.85
 30
0.0
 11
32.30625148187
 21
-0.85
 31
0.0
  0
LINE
  5
DD
330
30
100
AcDbEntity
  8
1
100
AcDbLine
 10
32.30625148187
 20
-0.85
 30
0.0
 11
32.25225148187
 21
-0.85
 31
0.0
  0
LINE
  5
DE
330
30
100
AcDbEntity
  8
1
100
AcDbLine
 10
32.25225148187
 20
-0.85
 30
0.0
 11
32.19825148187
 21
-0.85
 31
0.0
  0
LINE
  5
DF
330
30
100
AcDbEntity
  8
1
100
AcDbLine
 10
32.19825148187
 20
-0.85
 30
0.0
 11
32.14425148187
 21
-0.85
 31
0.0
  0
LINE
  5
E0
330
30
100
AcDbEntity
  8
1
100
AcDbLine
 10
32.14425148187
 20
-0.85
 30
0.0
 11
32.09025148187
 21
-0.85
 31
0.0
  0
LINE
  5
E1
330
30
100
AcDbEntity
  8
1
100
AcDbLine
 10
32.09025148187
 20
-0.85
 30
0.0
 11
32.03625148187
 21
-0.85
 31
0.0
  0
LINE
  5
E2
330
30
100
AcDbEntity
  8
1
100
AcDbLine
 10
32.03625148187
 20
-0.85
 30
0.0
 11
31.98225148187
 21
-0.85
 31
0.0
  0
LINE
  5
E3
330
30
100
AcDbEntity
  8
1
100
AcDbLine
 10
31.98225148187
 20
-0.85
 30
0.0
 11
31.92825148187
 21
-0.85
 31
0.0
  0
LINE
  5
E4
330
30
100
AcDbEntity
  8
1
100
AcDbLine
 10
31.92825148187
 20
-0.85
 30
0.0
 11
31.87425148187
 21
-0.85
 31
0.0
  0
LINE
  5
E5
330
30
100
AcDbEntity
  8
1
100
AcDbLine
 10
31.87425148187
 20
-0.85
 30
0.0
 11
31.82025148187
 21
-0.85
 31
0.0
  0
LINE
  5
E6
330
30
100
AcDbEntity
  8
1
100
AcDbLine
 10
31.82025148187
 20
-0.85
 30
0.0
 11
31.76625148187
 21
-0.85
 31
0.0
  0
LINE
  5
E7
330
30
100
AcDbEntity
  8
1
100
AcDbLine
 10
31.76625148187
 20
-0.85
 30
0.0
 11
31.71225148187
 21
-0.85
 31
0.0
  0
LINE
  5
E8
330
30
100
AcDbEntity
  8
1
100
AcDbLine
 10
31.71225148187
 20
-0.85
 30
0.0
 11
31.65825148187
 21
-0.85
 31
0.0
  0
LINE
  5
E9
330
30
100
AcDbEntity
  8
1
100
AcDbLine
 10
31.65825148187
 20
-0.85
 30
0.0
 11
31.60425148187
 21
-0.85
 31
0.0
  0
LINE
  5
EA
330
30
100
AcDbEntity
  8
1
100
AcDbLine
 10
31.60425148187
 20
-0.85
 30
0.0
 11
31.55025148187
 21
-0.85
 31
0.0
  0
LINE
  5
EB
330
30
100
AcDbEntity
  8
1
100
AcDbLine
 10
31.55025148187
 20
-0.85
 30
0.0
 11
31.49625148187
 21
-0.85
 31
0.0
  0
LINE
  5
EC
330
30
100
AcDbEntity
  8
1
100
AcDbLine
 10
31.49625148187
 20
-0.85
 30
0.0
 11
31.44225148187
 21
-0.852207630198
 31
0.0
  0
LINE
  5
ED
330
30
100
AcDbEntity
  8
1
100
AcDbLine
 10
31.44225148187
 20
-0.852207630198
 30
0.0
 11
31.38825148187
 21
-0.862364745792
 31
0.0
  0
LINE
  5
EE
330
30
100
AcDbEntity
  8
1
100
AcDbLine
 10
31.38825148187
 20
-0.862364745792
 30
0.0
 11
31.33425148187
 21
-0.872521293058
 31
0.0
  0
LINE
  5
EF
330
30
100
AcDbEntity
  8
1
100
AcDbLine
 10
31.33425148187
 20
-0.872521293058
 30
0.0
 11
31.28025148187
 21
-0.882677291707
 31
0.0
  0
LINE
  5
F0
330
30
100
AcDbEntity
  8
1
100
AcDbLine
 10
31.28025148187
 20
-0.882677291707
 30
0.0
 11
31.22625148187
 21
-0.892832760549
 31
0.0
  0
LINE
  5
F1
330
30
100
AcDbEntity
  8
1
100
AcDbLine
 10
31.22625148187
 20
-0.892832760549
 30
0.0
 11
31.17225148187
 21
-0.902987717541
 31
0.0
  0
LINE
  5
F2
330
30
100
AcDbEntity
  8
1
100
AcDbLine
 10
31.17225148187
 20
-0.902987717541
 30
0.0
 11
31.11825148187
 21
-0.913142179837
 31
0.0
  0
LINE
  5
F3
330
30
100
AcDbEntity
  8
1
100
AcDbLine
 10
31.11825148187
 20
-0.913142179837
 30
0.0
 11
31.06425148187
 21
-0.923296163832
 31
0.0
  0
LINE
  5
F4
330
30
100
AcDbEntity
  8
1
100
AcDbLine
 10
31.06425148187
 20
-0.923296163832
 30
0.0
 11
31.01025148187
 21
-0.933449685206
 31
0.0
  0
LINE
  5
F5
330
30
100
AcDbEntity
  8
1
100
AcDbLine
 10
31.01025148187
 20
-0.933449685206
 30
0.0
 11
30.95625148187
 21
-0.943602758957
 31
0.0
  0
LINE
  5
F6
330
30
100
AcDbEntity
  8
1
100
AcDbLine
 10
30.95625148187
 20
-0.943602758957
 30
0.0
 11
30.90225148187
 21
-0.953755399444
 31
0.0
  0
LINE
  5
F7
330
30
100
AcDbEntity
  8
1
100
AcDbLine
 10
30.90225148187
 20
-0.953755399444
 30
0.0
 11
30.84825148187
 21
-0.963907620415
 31
0.0
  0
LINE
  5
F8
330
30
100
AcDbEntity
  8
1
100
AcDbLine
 10
30.84825148187
 20
-0.963907620415
 30
0.0
 11
30.79425148187
 21
-0.974059435045
 31
0.0
  0
LINE
  5
F9
330
30
100
AcDbEntity
  8
1
100
AcDbLine
 10
30.79425148187
 20
-0.974059435045
 30
0.0
 11
30.74025148187
 21
-0.984210855959
 31
0.0
  0
LINE
  5
FA
330
30
100
AcDbEntity
  8
1
100
AcDbLine
 10
30.74025148187
 20
-0.984210855959
 30
0.0
 11
30.68625148187
 21
-0.994361895267
 31
0.0
  0
LINE
  5
FB
330
30
100
AcDbEntity
  8
1
100
AcDbLine
 10
30.68625148187
 20
-0.994361895267
 30
0.0
 11
30.63225148187
 21
-1.004512564585
 31
0.0
  0
LINE
  5
FC
330
30
100
AcDbEntity
  8
1
100
AcDbLine
 10
30.63225148187
 20
-1.004512564585
 30
0.0
 11
30.57825148187
 21
-1.014662875063
 31
0.0
  0
LINE
  5
FD
330
30
100
AcDbEntity
  8
1
100
AcDbLine
 10
30.57825148187
 20
-1.014662875063
 30
0.0
 11
30.52425148187
 21
-1.024812837407
 31
0.0
  0
LINE
  5
FE
330
30
100
AcDbEntity
  8
1
100
AcDbLine
 10
30.52425148187
 20
-1.024812837407
 30
0.0
 11
30.47025148187
 21
-1.034962461899
 31
0.0
  0
LINE
  5
FF
330
30
100
AcDbEntity
  8
1
100
AcDbLine
 10
30.47025148187
 20
-1.034962461899
 30
0.0
 11
30.41625148187
 21
-1.045111758424
 31
0.0
  0
LINE
  5
100
330
30
100
AcDbEntity
  8
1
100
AcDbLine
 10
30.41625148187
 20
-1.045111758424
 30
0.0
 11
30.36225148187
 21
-1.055260736479
 31
0.0
  0
LINE
  5
101
330
30
100
AcDbEntity
  8
1
100
AcDbLine
 10
30.36225148187
 20
-1.055260736479
 30
0.0
 11
30.30825148187
 21
-1.065409405203
 31
0.0
  0
LINE
  5
102
330
30
100
AcDbEntity
  8
1
100
AcDbLine
 10
30.30825148187
 20
-1.065409405203
 30
0.0
 11
30.25425148187
 21
-1.075557773386
 31
0.0
  0
LINE
  5
103
330
30
100
AcDbEntity
  8
1
100
AcDbLine
 10
30.25425148187
 20
-1.075557773386
 30
0.0
 11
30.20025148187
 21
-1.085705849486
 31
0.0
  0
LINE
  5
104
330
30
100
AcDbEntity
  8
1
100
AcDbLine
 10
30.20025148187
 20
-1.085705849486
 30
0.0
 11
30.14625148187
 21
-1.09585364165
 31
0.0
  0
LINE
  5
105
330
30
100
AcDbEntity
  8
1
100
AcDbLine
 10
30.14625148187
 20
-1.09585364165
 30
0.0
 11
30.09225148187
 21
-1.106001157722
 31
0.0
  0
LINE
  5
106
330
30
100
AcDbEntity
  8
1
100
AcDbLine
 10
30.09225148187
 20
-1.106001157722
 30
0.0
 11
30.03825148187
 21
-1.116148405261
 31
0.0
  0
LINE
  5
107
330
30
100
AcDbEntity
  8
1
100
AcDbLine
 10
30.03825148187
 20
-1.116148405261
 30
0.0
 11
29.98425148187
 21
-1.126295391552
 31
0.0
  0
LINE
  5
108
330
30
100
AcDbEntity
  8
1
100
AcDbLine
 10
29.98425148187
 20
-1.126295391552
 30
0.0
 11
29.93025148187
 21
-1.136442123617
 31
0.0
  0
LINE
  5
109
330
30
100
AcDbEntity
  8
1
100
AcDbLine
 10
29.93025148187
 20
-1.136442123617
 30
0.0
 11
29.87625148187
 21
-1.14658860823
 31
0.0
  0
LINE
  5
10A
330
30
100
AcDbEntity
  8
1
100
AcDbLine
 10
29.87625148187
 20
-1.14658860823
 30
0.0
 11
29.82225148187
 21
-1.156734851927
 31
0.0
  0
LINE
  5
10B
330
30
100
AcDbEntity
  8
1
100
AcDbLine
 10
29.82225148187
 20
-1.156734851927
 30
0.0
 11
29.76825148187
 21
-1.166880861014
 31
0.0
  0
LINE
  5
10C
330
30
100
AcDbEntity
  8
1
100
AcDbLine
 10
29.76825148187
 20
-1.166880861014
 30
0.0
 11
29.71425148187
 21
-1.17702664158
 31
0.0
  0
LINE
  5
10D
330
30
100
AcDbEntity
  8
1
100
AcDbLine
 10
29.71425148187
 20
-1.17702664158
 30
0.0
 11
29.66025148187
 21
-1.187172199505
 31
0.0
  0
LINE
  5
10E
330
30
100
AcDbEntity
  8
1
100
AcDbLine
 10
29.66025148187
 20
-1.187172199505
 30
0.0
 11
29.60625148187
 21
-1.197317540466
 31
0.0
  0
LINE
  5
10F
330
30
100
AcDbEntity
  8
1
100
AcDbLine
 10
29.60625148187
 20
-1.197317540466
 30
0.0
 11
29.55225148187
 21
-1.207462669953
 31
0.0
  0
LINE
  5
110
330
30
100
AcDbEntity
  8
1
100
AcDbLine
 10
29.55225148187
 20
-1.207462669953
 30
0.0
 11
29.49825148187
 21
-1.21760759327
 31
0.0
  0
LINE
  5
111
330
30
100
AcDbEntity
  8
1
100
AcDbLine
 10
29.49825148187
 20
-1.21760759327
 30
0.0
 11
29.44425148187
 21
-1.227752315543
 31
0.0
  0
LINE
  5
112
330
30
100
AcDbEntity
  8
1
100
AcDbLine
 10
29.44425148187
 20
-1.227752315543
 30
0.0
 11
29.39025148187
 21
-1.237896841733
 31
0.0
  0
LINE
  5
113
330
30
100
AcDbEntity
  8
1
100
AcDbLine
 10
29.39025148187
 20
-1.237896841733
 30
0.0
 11
29.33625148187
 21
-1.248041176637
 31
0.0
  0
LINE
  5
114
330
30
100
AcDbEntity
  8
1
100
AcDbLine
 10
29.33625148187
 20
-1.248041176637
 30
0.0
 11
29.28225148187
 21
-1.258185324897
 31
0.0
  0
LINE
  5
115
330
30
100
AcDbEntity
  8
1
100
AcDbLine
 10
29.28225148187
 20
-1.258185324897
 30
0.0
 11
29.22825148187
 21
-1.268329291007
 31
0.0
  0
LINE
  5
116
330
30
100
AcDbEntity
  8
1
100
AcDbLine
 10
29.22825148187
 20
-1.268329291007
 30
0.0
 11
29.17425148187
 21
-1.278473079315
 31
0.0
  0
LINE
  5
117
330
30
100
AcDbEntity
  8
1
100
AcDbLine
 10
29.17425148187
 20
-1.278473079315
 30
0.0
 11
29.12025148187
 21
-1.288616694034
 31
0.0
  0
LINE
  5
118
330
30
100
AcDbEntity
  8
1
100
AcDbLine
 10
29.12025148187
 20
-1.288616694034
 30
0.0
 11
29.06625148187
 21
-1.298760139246
 31
0.0
  0
LINE
  5
119
330
30
100
AcDbEntity
  8
1
100
AcDbLine
 10
29.06625148187
 20
-1.298760139246
 30
0.0
 11
29.01225148187
 21
-1.308903418902
 31
0.0
  0
LINE
  5
11A
330
30
100
AcDbEntity
  8
1
100
AcDbLine
 10
29.01225148187
 20
-1.308903418902
 30
0.0
 11
28.95825148187
 21
-1.319046536834
 31
0.0
  0
LINE
  5
11B
330
30
100
AcDbEntity
  8
1
100
AcDbLine
 10
28.95825148187
 20
-1.319046536834
 30
0.0
 11
28.90425148187
 21
-1.329189496757
 31
0.0
  0
LINE
  5
11C
330
30
100
AcDbEntity
  8
1
100
AcDbLine
 10
28.90425148187
 20
-1.329189496757
 30
0.0
 11
28.85025148187
 21
-1.339332302271
 31
0.0
  0
LINE
  5
11D
330
30
100
AcDbEntity
  8
1
100
AcDbLine
 10
28.85025148187
 20
-1.339332302271
 30
0.0
 11
28.79625148187
 21
-1.349474956868
 31
0.0
  0
LINE
  5
11E
330
30
100
AcDbEntity
  8
1
100
AcDbLine
 10
28.79625148187
 20
-1.349474956868
 30
0.0
 11
28.74225148187
 21
-1.359617463937
 31
0.0
  0
LINE
  5
11F
330
30
100
AcDbEntity
  8
1
100
AcDbLine
 10
28.74225148187
 20
-1.359617463937
 30
0.0
 11
28.68825148187
 21
-1.369759826764
 31
0.0
  0
LINE
  5
120
330
30
100
AcDbEntity
  8
1
100
AcDbLine
 10
28.68825148187
 20
-1.369759826764
 30
0.0
 11
28.63425148187
 21
-1.37990204854
 31
0.0
  0
LINE
  5
121
330
30
100
AcDbEntity
  8
1
100
AcDbLine
 10
28.63425148187
 20
-1.37990204854
 30
0.0
 11
28.58025148187
 21
-1.390044132361
 31
0.0
  0
LINE
  5
122
330
30
100
AcDbEntity
  8
1
100
AcDbLine
 10
28.58025148187
 20
-1.390044132361
 30
0.0
 11
28.52625148187
 21
-1.400186081234
 31
0.0
  0
LINE
  5
123
330
30
100
AcDbEntity
  8
1
100
AcDbLine
 10
28.52625148187
 20
-1.400186081234
 30
0.0
 11
28.47225148187
 21
-1.410327898079
 31
0.0
  0
LINE
  5
124
330
30
100
AcDbEntity
  8
1
100
AcDbLine
 10
28.47225148187
 20
-1.410327898079
 30
0.0
 11
28.41825148187
 21
-1.420469585732
 31
0.0
  0
LINE
  5
125
330
30
100
AcDbEntity
  8
1
100
AcDbLine
 10
28.41825148187
 20
-1.420469585732
 30
0.0
 11
28.36425148187
 21
-1.430611146948
 31
0.0
  0
LINE
  5
126
330
30
100
AcDbEntity
  8
1
100
AcDbLine
 10
28.36425148187
 20
-1.430611146948
 30
0.0
 11
28.31025148187
 21
-1.440752584406
 31
0.0
  0
LINE
  5
127
330
30
100
AcDbEntity
  8
1
100
AcDbLine
 10
28.31025148187
 20
-1.440752584406
 30
0.0
 11
28.25625148187
 21
-1.450893900707
 31
0.0
  0
LINE
  5
128
330
30
100
AcDbEntity
  8
1
100
AcDbLine
 10
28.25625148187
 20
-1.450893900707
 30
0.0
 11
28.20225148187
 21
-1.461035098382
 31
0.0
  0
LINE
  5
129
330
30
100
AcDbEntity
  8
1
100
AcDbLine
 10
28.20225148187
 20
-1.461035098382
 30
0.0
 11
28.14825148187
 21
-1.471176179891
 31
0.0
  0
LINE
  5
12A
330
30
100
AcDbEntity
  8
1
100
AcDbLine
 10
28.14825148187
 20
-1.471176179891
 30
0.0
 11
28.09425148187
 21
-1.481317147626
 31
0.0
  0
LINE
  5
12B
330
30
100
AcDbEntity
  8
1
100
AcDbLine
 10
28.09425148187
 20
-1.481317147626
 30
0.0
 11
28.04025148187
 21
-1.491458003915
 31
0.0
  0
LINE
  5
12C
330
30
100
AcDbEntity
  8
1
100
AcDbLine
 10
28.04025148187
 20
-1.491458003915
 30
0.0
 11
27.98625148187
 21
-1.501598751022
 31
0.0
  0
LINE
  5
12D
330
30
100
AcDbEntity
  8
1
100
AcDbLine
 10
27.98625148187
 20
-1.501598751022
 30
0.0
 11
27.93225148187
 21
-1.51173939115
 31
0.0
  0
LINE
  5
12E
330
30
100
AcDbEntity
  8
1
100
AcDbLine
 10
27.93225148187
 20
-1.51173939115
 30
0.0
 11
27.87825148187
 21
-1.521879926443
 31
0.0
  0
LINE
  5
12F
330
30
100
AcDbEntity
  8
1
100
AcDbLine
 10
27.87825148187
 20
-1.521879926443
 30
0.0
 11
27.82425148187
 21
-1.532020358989
 31
0.0
  0
LINE
  5
130
330
30
100
AcDbEntity
  8
1
100
AcDbLine
 10
27.82425148187
 20
-1.532020358989
 30
0.0
 11
27.77025148187
 21
-1.542160690819
 31
0.0
  0
LINE
  5
131
330
30
100
AcDbEntity
  8
1
100
AcDbLine
 10
27.77025148187
 20
-1.542160690819
 30
0.0
 11
27.71625148187
 21
-1.552300923914
 31
0.0
  0
LINE
  5
132
330
30
100
AcDbEntity
  8
1
100
AcDbLine
 10
27.71625148187
 20
-1.552300923914
 30
0.0
 11
27.66225148187
 21
-1.5624410602
 31
0.0
  0
LINE
  5
133
330
30
100
AcDbEntity
  8
1
100
AcDbLine
 10
27.66225148187
 20
-1.5624410602
 30
0.0
 11
27.60825148187
 21
-1.572581101555
 31
0.0
  0
LINE
  5
134
330
30
100
AcDbEntity
  8
1
100
AcDbLine
 10
27.60825148187
 20
-1.572581101555
 30
0.0
 11
27.55425148187
 21
-1.582721049809
 31
0.0
  0
LINE
  5
135
330
30
100
AcDbEntity
  8
1
100
AcDbLine
 10
27.55425148187
 20
-1.582721049809
 30
0.0
 11
27.50025148187
 21
-1.592860906743
 31
0.0
  0
LINE
  5
136
330
30
100
AcDbEntity
  8
1
100
AcDbLine
 10
27.50025148187
 20
-1.592860906743
 30
0.0
 11
27.44625148187
 21
-1.603000674097
 31
0.0
  0
LINE
  5
137
330
30
100
AcDbEntity
  8
1
100
AcDbLine
 10
27.44625148187
 20
-1.603000674097
 30
0.0
 11
27.39225148187
 21
-1.613140353562
 31
0.0
  0
LINE
  5
138
330
30
100
AcDbEntity
  8
1
100
AcDbLine
 10
27.39225148187
 20
-1.613140353562
 30
0.0
 11
27.33825148187
 21
-1.62327994679
 31
0.0
  0
LINE
  5
139
330
30
100
AcDbEntity
  8
1
100
AcDbLine
 10
27.33825148187
 20
-1.62327994679
 30
0.0
 11
27.28425148187
 21
-1.633419455392
 31
0.0
  0
LINE
  5
13A
330
30
100
AcDbEntity
  8
1
100
AcDbLine
 10
27.28425148187
 20
-1.633419455392
 30
0.0
 11
27.23025148187
 21
-1.643558880937
 31
0.0
  0
LINE
  5
13B
330
30
100
AcDbEntity
  8
1
100
AcDbLine
 10
27.23025148187
 20
-1.643558880937
 30
0.0
 11
27.17625148187
 21
-1.653698224958
 31
0.0
  0
LINE
  5
13C
330
30
100
AcDbEntity
  8
1
100
AcDbLine
 10
27.17625148187
 20
-1.653698224958
 30
0.0
 11
27.12225148187
 21
-1.663837488947
 31
0.0
  0
LINE
  5
13D
330
30
100
AcDbEntity
  8
1
100
AcDbLine
 10
27.12225148187
 20
-1.663837488947
 30
0.0
 11
27.06825148187
 21
-1.673976674364
 31
0.0
  0
LINE
  5
13E
330
30
100
AcDbEntity
  8
1
100
AcDbLine
 10
27.06825148187
 20
-1.673976674364
 30
0.0
 11
27.01425148187
 21
-1.68411578263
 31
0.0
  0
LINE
  5
13F
330
30
100
AcDbEntity
  8
1
100
AcDbLine
 10
27.01425148187
 20
-1.68411578263
 30
0.0
 11
26.96025148187
 21
-1.694254815135
 31
0.0
  0
LINE
  5
140
330
30
100
AcDbEntity
  8
1
100
AcDbLine
 10
26.96025148187
 20
-1.694254815135
 30
0.0
 11
26.90625148187
 21
-1.704393773233
 31
0.0
  0
LINE
  5
141
330
30
100
AcDbEntity
  8
1
100
AcDbLine
 10
26.90625148187
 20
-1.704393773233
 30
0.0
 11
26.85225148187
 21
-1.714532658248
 31
0.0
  0
LINE
  5
142
330
30
100
AcDbEntity
  8
1
100
AcDbLine
 10
26.85225148187
 20
-1.714532658248
 30
0.0
 11
26.79825148187
 21
-1.724671471471
 31
0.0
  0
LINE
  5
143
330
30
100
AcDbEntity
  8
1
100
AcDbLine
 10
26.79825148187
 20
-1.724671471471
 30
0.0
 11
26.74425148187
 21
-1.734810214165
 31
0.0
  0
LINE
  5
144
330
30
100
AcDbEntity
  8
1
100
AcDbLine
 10
26.74425148187
 20
-1.734810214165
 30
0.0
 11
26.69025148187
 21
-1.744948887562
 31
0.0
  0
LINE
  5
145
330
30
100
AcDbEntity
  8
1
100
AcDbLine
 10
26.69025148187
 20
-1.744948887562
 30
0.0
 11
26.63625148187
 21
-1.755087492865
 31
0.0
  0
LINE
  5
146
330
30
100
AcDbEntity
  8
1
100
AcDbLine
 10
26.63625148187
 20
-1.755087492865
 30
0.0
 11
26.58225148187
 21
-1.765226031251
 31
0.0
  0
LINE
  5
147
330
30
100
AcDbEntity
  8
1
100
AcDbLine
 10
26.58225148187
 20
-1.765226031251
 30
0.0
 11
26.52825148187
 21
-1.775364503869
 31
0.0
  0
LINE
  5
148
330
30
100
AcDbEntity
  8
1
100
AcDbLine
 10
26.52825148187
 20
-1.775364503869
 30
0.0
 11
26.47425148187
 21
-1.785502911841
 31
0.0
  0
LINE
  5
149
330
30
100
AcDbEntity
  8
1
100
AcDbLine
 10
26.47425148187
 20
-1.785502911841
 30
0.0
 11
26.521600710969
 21
-1.77779436122
 31
0.0
  0
LINE
  5
14A
330
30
100
AcDbEntity
  8
1
100
AcDbLine
 10
26.4540543535
 20
-1.7905
 30
0.0
 11
26.4540543535
 21
1.7905
 31
0.0
  0
LINE
  5
14B
330
30
100
AcDbEntity
  8
1
100
AcDbLine
 10
26.4540543535
 20
1.7905
 30
0.0
 11
26.4540543535
 21
-1.7905
 31
0.0
  0
LINE
  5
14C
330
30
100
AcDbEntity
  8
1
100
AcDbLine
 10
26.521600710969
 20
1.77779436122
 30
0.0
 11
26.52825148187
 21
1.620536106796
 31
0.0
  0
LINE
  5
14D
330
30
100
AcDbEntity
  8
1
100
AcDbLine
 10
26.52825148187
 20
1.620536106796
 30
0.0
 11
26.58225148187
 21
1.461575535934
 31
0.0
  0
LINE
  5
14E
330
30
100
AcDbEntity
  8
1
100
AcDbLine
 10
26.58225148187
 20
1.461575535934
 30
0.0
 11
26.63625148187
 21
1.308546403076
 31
0.0
  0
LINE
  5
14F
330
30
100
AcDbEntity
  8
1
100
AcDbLine
 10
26.63625148187
 20
1.308546403076
 30
0.0
 11
26.69025148187
 21
1.161373909705
 31
0.0
  0
LINE
  5
150
330
30
100
AcDbEntity
  8
1
100
AcDbLine
 10
26.69025148187
 20
1.161373909705
 30
0.0
 11
26.74425148187
 21
1.019983254901
 31
0.0
  0
LINE
  5
151
330
30
100
AcDbEntity
  8
1
100
AcDbLine
 10
26.74425148187
 20
1.019983254901
 30
0.0
 11
26.79825148187
 21
0.884299635264
 31
0.0
  0
LINE
  5
152
330
30
100
AcDbEntity
  8
1
100
AcDbLine
 10
26.79825148187
 20
0.884299635264
 30
0.0
 11
26.85225148187
 21
0.754248244844
 31
0.0
  0
LINE
  5
153
330
30
100
AcDbEntity
  8
1
100
AcDbLine
 10
26.85225148187
 20
0.754248244844
 30
0.0
 11
26.90625148187
 21
0.629754275064
 31
0.0
  0
LINE
  5
154
330
30
100
AcDbEntity
  8
1
100
AcDbLine
 10
26.90625148187
 20
0.629754275064
 30
0.0
 11
26.96025148187
 21
0.510742914638
 31
0.0
  0
LINE
  5
155
330
30
100
AcDbEntity
  8
1
100
AcDbLine
 10
26.96025148187
 20
0.510742914638
 30
0.0
 11
27.01425148187
 21
0.397139349493
 31
0.0
  0
LINE
  5
156
330
30
100
AcDbEntity
  8
1
100
AcDbLine
 10
27.01425148187
 20
0.397139349493
 30
0.0
 11
27.06825148187
 21
0.288868762683
 31
0.0
  0
LINE
  5
157
330
30
100
AcDbEntity
  8
1
100
AcDbLine
 10
27.06825148187
 20
0.288868762683
 30
0.0
 11
27.12225148187
 21
0.185856334296
 31
0.0
  0
LINE
  5
158
330
30
100
AcDbEntity
  8
1
100
AcDbLine
 10
27.12225148187
 20
0.185856334296
 30
0.0
 11
27.17625148187
 21
0.088027241368
 31
0.0
  0
LINE
  5
159
330
30
100
AcDbEntity
  8
1
100
AcDbLine
 10
27.17625148187
 20
0.088027241368
 30
0.0
 11
27.23025148187
 21
-0.004693342214
 31
0.0
  0
LINE
  5
15A
330
30
100
AcDbEntity
  8
1
100
AcDbLine
 10
27.23025148187
 20
-0.004693342214
 30
0.0
 11
27.28425148187
 21
-0.092380245811
 31
0.0
  0
LINE
  5
15B
330
30
100
AcDbEntity
  8
1
100
AcDbLine
 10
27.28425148187
 20
-0.092380245811
 30
0.0
 11
27.33825148187
 21
-0.175108302137
 31
0.0
  0
LINE
  5
15C
330
30
100
AcDbEntity
  8
1
100
AcDbLine
 10
27.33825148187
 20
-0.175108302137
 30
0.0
 11
27.39225148187
 21
-0.252952347358
 31
0.0
  0
LINE
  5
15D
330
30
100
AcDbEntity
  8
1
100
AcDbLine
 10
27.39225148187
 20
-0.252952347358
 30
0.0
 11
27.44625148187
 21
-0.325987221211
 31
0.0
  0
LINE
  5
15E
330
30
100
AcDbEntity
  8
1
100
AcDbLine
 10
27.44625148187
 20
-0.325987221211
 30
0.0
 11
27.50025148187
 21
-0.394287767113
 31
0.0
  0
LINE
  5
15F
330
30
100
AcDbEntity
  8
1
100
AcDbLine
 10
27.50025148187
 20
-0.394287767113
 30
0.0
 11
27.55425148187
 21
-0.457928832281
 31
0.0
  0
LINE
  5
160
330
30
100
AcDbEntity
  8
1
100
AcDbLine
 10
27.55425148187
 20
-0.457928832281
 30
0.0
 11
27.60825148187
 21
-0.516985267858
 31
0.0
  0
LINE
  5
161
330
30
100
AcDbEntity
  8
1
100
AcDbLine
 10
27.60825148187
 20
-0.516985267858
 30
0.0
 11
27.66225148187
 21
-0.571531929039
 31
0.0
  0
LINE
  5
162
330
30
100
AcDbEntity
  8
1
100
AcDbLine
 10
27.66225148187
 20
-0.571531929039
 30
0.0
 11
27.71625148187
 21
-0.621643675206
 31
0.0
  0
LINE
  5
163
330
30
100
AcDbEntity
  8
1
100
AcDbLine
 10
27.71625148187
 20
-0.621643675206
 30
0.0
 11
27.77025148187
 21
-0.667395370069
 31
0.0
  0
LINE
  5
164
330
30
100
AcDbEntity
  8
1
100
AcDbLine
 10
27.77025148187
 20
-0.667395370069
 30
0.0
 11
27.82425148187
 21
-0.708861881806
 31
0.0
  0
LINE
  5
165
330
30
100
AcDbEntity
  8
1
100
AcDbLine
 10
27.82425148187
 20
-0.708861881806
 30
0.0
 11
27.87825148187
 21
-0.746118083218
 31
0.0
  0
LINE
  5
166
330
30
100
AcDbEntity
  8
1
100
AcDbLine
 10
27.87825148187
 20
-0.746118083218
 30
0.0
 11
27.93225148187
 21
-0.779238851884
 31
0.0
  0
LINE
  5
167
330
30
100
AcDbEntity
  8
1
100
AcDbLine
 10
27.93225148187
 20
-0.779238851884
 30
0.0
 11
27.98625148187
 21
-0.808299070324
 31
0.0
  0
LINE
  5
168
330
30
100
AcDbEntity
  8
1
100
AcDbLine
 10
27.98625148187
 20
-0.808299070324
 30
0.0
 11
28.04025148187
 21
-0.833373626169
 31
0.0
  0
LINE
  5
169
330
30
100
AcDbEntity
  8
1
100
AcDbLine
 10
28.04025148187
 20
-0.833373626169
 30
0.0
 11
28.09425148187
 21
-0.854537412338
 31
0.0
  0
LINE
  5
16A
330
30
100
AcDbEntity
  8
1
100
AcDbLine
 10
28.09425148187
 20
-0.854537412338
 30
0.0
 11
28.14825148187
 21
-0.871865327223
 31
0.0
  0
LINE
  5
16B
330
30
100
AcDbEntity
  8
1
100
AcDbLine
 10
28.14825148187
 20
-0.871865327223
 30
0.0
 11
28.20225148187
 21
-0.885432274881
 31
0.0
  0
LINE
  5
16C
330
30
100
AcDbEntity
  8
1
100
AcDbLine
 10
28.20225148187
 20
-0.885432274881
 30
0.0
 11
28.25625148187
 21
-0.895313165233
 31
0.0
  0
LINE
  5
16D
330
30
100
AcDbEntity
  8
1
100
AcDbLine
 10
28.25625148187
 20
-0.895313165233
 30
0.0
 11
28.31025148187
 21
-0.901582914276
 31
0.0
  0
LINE
  5
16E
330
30
100
AcDbEntity
  8
1
100
AcDbLine
 10
28.31025148187
 20
-0.901582914276
 30
0.0
 11
28.36425148187
 21
-0.904316444298
 31
0.0
  0
LINE
  5
16F
330
30
100
AcDbEntity
  8
1
100
AcDbLine
 10
28.36425148187
 20
-0.904316444298
 30
0.0
 11
28.41825148187
 21
-0.903588684107
 31
0.0
  0
LINE
  5
170
330
30
100
AcDbEntity
  8
1
100
AcDbLine
 10
28.41825148187
 20
-0.903588684107
 30
0.0
 11
28.47225148187
 21
-0.899474569267
 31
0.0
  0
LINE
  5
171
330
30
100
AcDbEntity
  8
1
100
AcDbLine
 10
28.47225148187
 20
-0.899474569267
 30
0.0
 11
28.52625148187
 21
-0.892456623275
 31
0.0
  0
LINE
  5
172
330
30
100
AcDbEntity
  8
1
100
AcDbLine
 10
28.52625148187
 20
-0.892456623275
 30
0.0
 11
28.58025148187
 21
-0.885027167269
 31
0.0
  0
LINE
  5
173
330
30
100
AcDbEntity
  8
1
100
AcDbLine
 10
28.58025148187
 20
-0.885027167269
 30
0.0
 11
28.63425148187
 21
-0.877596887761
 31
0.0
  0
LINE
  5
174
330
30
100
AcDbEntity
  8
1
100
AcDbLine
 10
28.63425148187
 20
-0.877596887761
 30
0.0
 11
28.68825148187
 21
-0.870165766154
 31
0.0
  0
LINE
  5
175
330
30
100
AcDbEntity
  8
1
100
AcDbLine
 10
28.68825148187
 20
-0.870165766154
 30
0.0
 11
28.74225148187
 21
-0.862733783285
 31
0.0
  0
LINE
  5
176
330
30
100
AcDbEntity
  8
1
100
AcDbLine
 10
28.74225148187
 20
-0.862733783285
 30
0.0
 11
28.79625148187
 21
-0.855300919403
 31
0.0
  0
LINE
  5
177
330
30
100
AcDbEntity
  8
1
100
AcDbLine
 10
28.79625148187
 20
-0.855300919403
 30
0.0
 11
28.85025148187
 21
-0.847867154145
 31
0.0
  0
LINE
  5
178
330
30
100
AcDbEntity
  8
1
100
AcDbLine
 10
28.85025148187
 20
-0.847867154145
 30
0.0
 11
28.90425148187
 21
-0.840432466513
 31
0.0
  0
LINE
  5
179
330
30
100
AcDbEntity
  8
1
100
AcDbLine
 10
28.90425148187
 20
-0.840432466513
 30
0.0
 11
28.95825148187
 21
-0.832996834851
 31
0.0
  0
LINE
  5
17A
330
30
100
AcDbEntity
  8
1
100
AcDbLine
 10
28.95825148187
 20
-0.832996834851
 30
0.0
 11
29.01225148187
 21
-0.825560236814
 31
0.0
  0
LINE
  5
17B
330
30
100
AcDbEntity
  8
1
100
AcDbLine
 10
29.01225148187
 20
-0.825560236814
 30
0.0
 11
29.06625148187
 21
-0.818122649344
 31
0.0
  0
LINE
  5
17C
330
30
100
AcDbEntity
  8
1
100
AcDbLine
 10
29.06625148187
 20
-0.818122649344
 30
0.0
 11
29.12025148187
 21
-0.810684048642
 31
0.0
  0
LINE
  5
17D
330
30
100
AcDbEntity
  8
1
100
AcDbLine
 10
29.12025148187
 20
-0.810684048642
 30
0.0
 11
29.17425148187
 21
-0.803244410135
 31
0.0
  0
LINE
  5
17E
330
30
100
AcDbEntity
  8
1
100
AcDbLine
 10
29.17425148187
 20
-0.803244410135
 30
0.0
 11
29.22825148187
 21
-0.795803708444
 31
0.0
  0
LINE
  5
17F
330
30
100
AcDbEntity
  8
1
100
AcDbLine
 10
29.22825148187
 20
-0.795803708444
 30
0.0
 11
29.28225148187
 21
-0.788361917354
 31
0.0
  0
LINE
  5
180
330
30
100
AcDbEntity
  8
1
100
AcDbLine
 10
29.28225148187
 20
-0.788361917354
 30
0.0
 11
29.33625148187
 21
-0.780919009776
 31
0.0
  0
LINE
  5
181
330
30
100
AcDbEntity
  8
1
100
AcDbLine
 10
29.33625148187
 20
-0.780919009776
 30
0.0
 11
29.39025148187
 21
-0.773474957711
 31
0.0
  0
LINE
  5
182
330
30
100
AcDbEntity
  8
1
100
AcDbLine
 10
29.39025148187
 20
-0.773474957711
 30
0.0
 11
29.44425148187
 21
-0.766029732212
 31
0.0
  0
LINE
  5
183
330
30
100
AcDbEntity
  8
1
100
AcDbLine
 10
29.44425148187
 20
-0.766029732212
 30
0.0
 11
29.49825148187
 21
-0.758583303343
 31
0.0
  0
LINE
  5
184
330
30
100
AcDbEntity
  8
1
100
AcDbLine
 10
29.49825148187
 20
-0.758583303343
 30
0.0
 11
29.55225148187
 21
-0.751135640133
 31
0.0
  0
LINE
  5
185
330
30
100
AcDbEntity
  8
1
100
AcDbLine
 10
29.55225148187
 20
-0.751135640133
 30
0.0
 11
29.60625148187
 21
-0.743686710538
 31
0.0
  0
LINE
  5
186
330
30
100
AcDbEntity
  8
1
100
AcDbLine
 10
29.60625148187
 20
-0.743686710538
 30
0.0
 11
29.66025148187
 21
-0.736236481386
 31
0.0
  0
LINE
  5
187
330
30
100
AcDbEntity
  8
1
100
AcDbLine
 10
29.66025148187
 20
-0.736236481386
 30
0.0
 11
29.71425148187
 21
-0.728784918332
 31
0.0
  0
LINE
  5
188
330
30
100
AcDbEntity
  8
1
100
AcDbLine
 10
29.71425148187
 20
-0.728784918332
 30
0.0
 11
29.76825148187
 21
-0.721331985802
 31
0.0
  0
LINE
  5
189
330
30
100
AcDbEntity
  8
1
100
AcDbLine
 10
29.76825148187
 20
-0.721331985802
 30
0.0
 11
29.82225148187
 21
-0.713877646941
 31
0.0
  0
LINE
  5
18A
330
30
100
AcDbEntity
  8
1
100
AcDbLine
 10
29.82225148187
 20
-0.713877646941
 30
0.0
 11
29.87625148187
 21
-0.70642186355
 31
0.0
  0
LINE
  5
18B
330
30
100
AcDbEntity
  8
1
100
AcDbLine
 10
29.87625148187
 20
-0.70642186355
 30
0.0
 11
29.93025148187
 21
-0.698964596027
 31
0.0
  0
LINE
  5
18C
330
30
100
AcDbEntity
  8
1
100
AcDbLine
 10
29.93025148187
 20
-0.698964596027
 30
0.0
 11
29.98425148187
 21
-0.691505803302
 31
0.0
  0
LINE
  5
18D
330
30
100
AcDbEntity
  8
1
100
AcDbLine
 10
29.98425148187
 20
-0.691505803302
 30
0.0
 11
30.03825148187
 21
-0.684045442764
 31
0.0
  0
LINE
  5
18E
330
30
100
AcDbEntity
  8
1
100
AcDbLine
 10
30.03825148187
 20
-0.684045442764
 30
0.0
 11
30.09225148187
 21
-0.676583470192
 31
0.0
  0
LINE
  5
18F
330
30
100
AcDbEntity
  8
1
100
AcDbLine
 10
30.09225148187
 20
-0.676583470192
 30
0.0
 11
30.14625148187
 21
-0.669119839676
 31
0.0
  0
LINE
  5
190
330
30
100
AcDbEntity
  8
1
100
AcDbLine
 10
30.14625148187
 20
-0.669119839676
 30
0.0
 11
30.20025148187
 21
-0.661654503535
 31
0.0
  0
LINE
  5
191
330
30
100
AcDbEntity
  8
1
100
AcDbLine
 10
30.20025148187
 20
-0.661654503535
 30
0.0
 11
30.25425148187
 21
-0.654187412231
 31
0.0
  0
LINE
  5
192
330
30
100
AcDbEntity
  8
1
100
AcDbLine
 10
30.25425148187
 20
-0.654187412231
 30
0.0
 11
30.30825148187
 21
-0.646718514276
 31
0.0
  0
LINE
  5
193
330
30
100
AcDbEntity
  8
1
100
AcDbLine
 10
30.30825148187
 20
-0.646718514276
 30
0.0
 11
30.36225148187
 21
-0.639247756134
 31
0.0
  0
LINE
  5
194
330
30
100
AcDbEntity
  8
1
100
AcDbLine
 10
30.36225148187
 20
-0.639247756134
 30
0.0
 11
30.41625148187
 21
-0.631775082119
 31
0.0
  0
LINE
  5
195
330
30
100
AcDbEntity
  8
1
100
AcDbLine
 10
30.41625148187
 20
-0.631775082119
 30
0.0
 11
30.47025148187
 21
-0.624300434287
 31
0.0
  0
LINE
  5
196
330
30
100
AcDbEntity
  8
1
100
AcDbLine
 10
30.47025148187
 20
-0.624300434287
 30
0.0
 11
30.52425148187
 21
-0.616823752315
 31
0.0
  0
LINE
  5
197
330
30
100
AcDbEntity
  8
1
100
AcDbLine
 10
30.52425148187
 20
-0.616823752315
 30
0.0
 11
30.57825148187
 21
-0.609344973379
 31
0.0
  0
LINE
  5
198
330
30
100
AcDbEntity
  8
1
100
AcDbLine
 10
30.57825148187
 20
-0.609344973379
 30
0.0
 11
30.63225148187
 21
-0.601864032023
 31
0.0
  0
LINE
  5
199
330
30
100
AcDbEntity
  8
1
100
AcDbLine
 10
30.63225148187
 20
-0.601864032023
 30
0.0
 11
30.68625148187
 21
-0.594380860019
 31
0.0
  0
LINE
  5
19A
330
30
100
AcDbEntity
  8
1
100
AcDbLine
 10
30.68625148187
 20
-0.594380860019
 30
0.0
 11
30.74025148187
 21
-0.586895386216
 31
0.0
  0
LINE
  5
19B
330
30
100
AcDbEntity
  8
1
100
AcDbLine
 10
30.74025148187
 20
-0.586895386216
 30
0.0
 11
30.79425148187
 21
-0.579407536379
 31
0.0
  0
LINE
  5
19C
330
30
100
AcDbEntity
  8
1
100
AcDbLine
 10
30.79425148187
 20
-0.579407536379
 30
0.0
 11
30.84825148187
 21
-0.571917233023
 31
0.0
  0
LINE
  5
19D
330
30
100
AcDbEntity
  8
1
100
AcDbLine
 10
30.84825148187
 20
-0.571917233023
 30
0.0
 11
30.90225148187
 21
-0.56442439523
 31
0.0
  0
LINE
  5
19E
330
30
100
AcDbEntity
  8
1
100
AcDbLine
 10
30.90225148187
 20
-0.56442439523
 30
0.0
 11
30.95625148187
 21
-0.556928938454
 31
0.0
  0
LINE
  5
19F
330
30
100
AcDbEntity
  8
1
100
AcDbLine
 10
30.95625148187
 20
-0.556928938454
 30
0.0
 11
31.01025148187
 21
-0.549430774316
 31
0.0
  0
LINE
  5
1A0
330
30
100
AcDbEntity
  8
1
100
AcDbLine
 10
31.01025148187
 20
-0.549430774316
 30
0.0
 11
31.06425148187
 21
-0.541929810378
 31
0.0
  0
LINE
  5
1A1
330
30
100
AcDbEntity
  8
1
100
AcDbLine
 10
31.06425148187
 20
-0.541929810378
 30
0.0
 11
31.11825148187
 21
-0.534425949912
 31
0.0
  0
LINE
  5
1A2
330
30
100
AcDbEntity
  8
1
100
AcDbLine
 10
31.11825148187
 20
-0.534425949912
 30
0.0
 11
31.17225148187
 21
-0.526919091641
 31
0.0
  0
LINE
  5
1A3
330
30
100
AcDbEntity
  8
1
100
AcDbLine
 10
31.17225148187
 20
-0.526919091641
 30
0.0
 11
31.22625148187
 21
-0.519409129466
 31
0.0
  0
LINE
  5
1A4
330
30
100
AcDbEntity
  8
1
100
AcDbLine
 10
31.22625148187
 20
-0.519409129466
 30
0.0
 11
31.28025148187
 21
-0.511895952177
 31
0.0
  0
LINE
  5
1A5
330
30
100
AcDbEntity
  8
1
100
AcDbLine
 10
31.28025148187
 20
-0.511895952177
 30
0.0
 11
31.33425148187
 21
-0.504379443134
 31
0.0
  0
LINE
  5
1A6
330
30
100
AcDbEntity
  8
1
100
AcDbLine
 10
31.33425148187
 20
-0.504379443134
 30
0.0
 11
31.38825148187
 21
-0.49685947993
 31
0.0
  0
LINE
  5
1A7
330
30
100
AcDbEntity
  8
1
100
AcDbLine
 10
31.38825148187
 20
-0.49685947993
 30
0.0
 11
31.44225148187
 21
-0.489335934029
 31
0.0
  0
LINE
  5
1A8
330
30
100
AcDbEntity
  8
1
100
AcDbLine
 10
31.44225148187
 20
-0.489335934029
 30
0.0
 11
31.49625148187
 21
-0.487700275455
 31
0.0
  0
LINE
  5
1A9
330
30
100
AcDbEntity
  8
1
100
AcDbLine
 10
31.49625148187
 20
-0.487700275455
 30
0.0
 11
31.55025148187
 21
-0.487700275455
 31
0.0
  0
LINE
  5
1AA
330
30
100
AcDbEntity
  8
1
100
AcDbLine
 10
31.55025148187
 20
-0.487700275455
 30
0.0
 11
31.60425148187
 21
-0.487700275455
 31
0.0
  0
LINE
  5
1AB
330
30
100
AcDbEntity
  8
1
100
AcDbLine
 10
31.60425148187
 20
-0.487700275455
 30
0.0
 11
31.65825148187
 21
-0.487700275455
 31
0.0
  0
LINE
  5
1AC
330
30
100
AcDbEntity
  8
1
100
AcDbLine
 10
31.65825148187
 20
-0.487700275455
 30
0.0
 11
31.71225148187
 21
-0.487700275455
 31
0.0
  0
LINE
  5
1AD
330
30
100
AcDbEntity
  8
1
100
AcDbLine
 10
31.71225148187
 20
-0.487700275455
 30
0.0
 11
31.76625148187
 21
-0.487700275455
 31
0.0
  0
LINE
  5
1AE
330
30
100
AcDbEntity
  8
1
100
AcDbLine
 10
31.76625148187
 20
-0.487700275455
 30
0.0
 11
31.82025148187
 21
-0.487700275455
 31
0.0
  0
LINE
  5
1AF
330
30
100
AcDbEntity
  8
1
100
AcDbLine
 10
31.82025148187
 20
-0.487700275455
 30
0.0
 11
31.87425148187
 21
-0.487700275455
 31
0.0
  0
LINE
  5
1B0
330
30
100
AcDbEntity
  8
1
100
AcDbLine
 10
31.87425148187
 20
-0.487700275455
 30
0.0
 11
31.92825148187
 21
-0.487700275455
 31
0.0
  0
LINE
  5
1B1
330
30
100
AcDbEntity
  8
1
100
AcDbLine
 10
31.92825148187
 20
-0.487700275455
 30
0.0
 11
31.98225148187
 21
-0.487700275455
 31
0.0
  0
LINE
  5
1B2
330
30
100
AcDbEntity
  8
1
100
AcDbLine
 10
31.98225148187
 20
-0.487700275455
 30
0.0
 11
32.03625148187
 21
-0.487700275455
 31
0.0
  0
LINE
  5
1B3
330
30
100
AcDbEntity
  8
1
100
AcDbLine
 10
32.03625148187
 20
-0.487700275455
 30
0.0
 11
32.09025148187
 21
-0.487700275455
 31
0.0
  0
LINE
  5
1B4
330
30
100
AcDbEntity
  8
1
100
AcDbLine
 10
32.09025148187
 20
-0.487700275455
 30
0.0
 11
32.14425148187
 21
-0.487700275455
 31
0.0
  0
LINE
  5
1B5
330
30
100
AcDbEntity
  8
1
100
AcDbLine
 10
32.14425148187
 20
-0.487700275455
 30
0.0
 11
32.19825148187
 21
-0.487700275455
 31
0.0
  0
LINE
  5
1B6
330
30
100
AcDbEntity
  8
1
100
AcDbLine
 10
32.19825148187
 20
-0.487700275455
 30
0.0
 11
32.25225148187
 21
-0.487700275455
 31
0.0
  0
LINE
  5
1B7
330
30
100
AcDbEntity
  8
1
100
AcDbLine
 10
32.25225148187
 20
-0.487700275455
 30
0.0
 11
32.30625148187
 21
-0.487700275455
 31
0.0
  0
LINE
  5
1B8
330
30
100
AcDbEntity
  8
1
100
AcDbLine
 10
32.30625148187
 20
-0.487700275455
 30
0.0
 11
32.36025148187
 21
-0.487700275455
 31
0.0
  0
LINE
  5
1B9
330
30
100
AcDbEntity
  8
1
100
AcDbLine
 10
32.36025148187
 20
-0.487700275455
 30
0.0
 11
32.41425148187
 21
-0.487700275455
 31
0.0
  0
LINE
  5
1BA
330
30
100
AcDbEntity
  8
1
100
AcDbLine
 10
32.41425148187
 20
-0.487700275455
 30
0.0
 11
32.46825148187
 21
-0.487700275455
 31
0.0
  0
LINE
  5
1BB
330
30
100
AcDbEntity
  8
1
100
AcDbLine
 10
32.46825148187
 20
-0.487700275455
 30
0.0
 11
32.52225148187
 21
-0.487700275455
 31
0.0
  0
LINE
  5
1BC
330
30
100
AcDbEntity
  8
1
100
AcDbLine
 10
32.52225148187
 20
-0.487700275455
 30
0.0
 11
32.57625148187
 21
-0.487700275455
 31
0.0
  0
LINE
  5
1BD
330
30
100
AcDbEntity
  8
1
100
AcDbLine
 10
32.57625148187
 20
-0.487700275455
 30
0.0
 11
32.63025148187
 21
-0.487700275455
 31
0.0
  0
LINE
  5
1BE
330
30
100
AcDbEntity
  8
1
100
AcDbLine
 10
32.63025148187
 20
-0.487700275455
 30
0.0
 11
32.68425148187
 21
-0.487700275455
 31
0.0
  0
LINE
  5
1BF
330
30
100
AcDbEntity
  8
1
100
AcDbLine
 10
32.68425148187
 20
-0.487700275455
 30
0.0
 11
32.73825148187
 21
-0.487700275455
 31
0.0
  0
LINE
  5
1C0
330
30
100
AcDbEntity
  8
1
100
AcDbLine
 10
32.73825148187
 20
-0.487700275455
 30
0.0
 11
32.79225148187
 21
-0.487700275455
 31
0.0
  0
LINE
  5
1C1
330
30
100
AcDbEntity
  8
1
100
AcDbLine
 10
32.79225148187
 20
-0.487700275455
 30
0.0
 11
32.84625148187
 21
-0.487700275455
 31
0.0
  0
LINE
  5
1C2
330
30
100
AcDbEntity
  8
1
100
AcDbLine
 10
32.84625148187
 20
-0.487700275455
 30
0.0
 11
32.90025148187
 21
-0.487700275455
 31
0.0
  0
LINE
  5
1C3
330
30
100
AcDbEntity
  8
1
100
AcDbLine
 10
32.90025148187
 20
-0.487700275455
 30
0.0
 11
32.95425148187
 21
-0.487700275455
 31
0.0
  0
LINE
  5
1C4
330
30
100
AcDbEntity
  8
1
100
AcDbLine
 10
32.95425148187
 20
-0.487700275455
 30
0.0
 11
33.00825148187
 21
-0.487700275455
 31
0.0
  0
LINE
  5
1C5
330
30
100
AcDbEntity
  8
1
100
AcDbLine
 10
33.00825148187
 20
-0.487700275455
 30
0.0
 11
33.06225148187
 21
-0.487700275455
 31
0.0
  0
LINE
  5
1C6
330
30
100
AcDbEntity
  8
1
100
AcDbLine
 10
33.06225148187
 20
-0.487700275455
 30
0.0
 11
33.11625148187
 21
-0.487700275455
 31
0.0
  0
LINE
  5
1C7
330
30
100
AcDbEntity
  8
1
100
AcDbLine
 10
33.11625148187
 20
-0.487700275455
 30
0.0
 11
33.17025148187
 21
-0.487700275455
 31
0.0
  0
LINE
  5
1C8
330
30
100
AcDbEntity
  8
1
100
AcDbLine
 10
33.17025148187
 20
-0.487700275455
 30
0.0
 11
33.22425148187
 21
-0.487700275455
 31
0.0
  0
LINE
  5
1C9
330
30
100
AcDbEntity
  8
1
100
AcDbLine
 10
33.22425148187
 20
-0.487700275455
 30
0.0
 11
33.27825148187
 21
-0.487700275455
 31
0.0
  0
LINE
  5
1CA
330
30
100
AcDbEntity
  8
1
100
AcDbLine
 10
33.27825148187
 20
-0.487700275455
 30
0.0
 11
33.33225148187
 21
-0.487700275455
 31
0.0
  0
LINE
  5
1CB
330
30
100
AcDbEntity
  8
1
100
AcDbLine
 10
33.33225148187
 20
-0.487700275455
 30
0.0
 11
33.38625148187
 21
-0.487700275455
 31
0.0
  0
LINE
  5
1CC
330
30
100
AcDbEntity
  8
1
100
AcDbLine
 10
33.38625148187
 20
-0.487700275455
 30
0.0
 11
33.44025148187
 21
-0.487700275455
 31
0.0
  0
LINE
  5
1CD
330
30
100
AcDbEntity
  8
1
100
AcDbLine
 10
33.44025148187
 20
-0.487700275455
 30
0.0
 11
33.49425148187
 21
-0.487700275455
 31
0.0
  0
LINE
  5
1CE
330
30
100
AcDbEntity
  8
1
100
AcDbLine
 10
33.49425148187
 20
-0.487700275455
 30
0.0
 11
33.54825148187
 21
-0.487700275455
 31
0.0
  0
LINE
  5
1CF
330
30
100
AcDbEntity
  8
1
100
AcDbLine
 10
33.54825148187
 20
-0.487700275455
 30
0.0
 11
33.60225148187
 21
-0.487700275455
 31
0.0
  0
LINE
  5
1D0
330
30
100
AcDbEntity
  8
1
100
AcDbLine
 10
33.60225148187
 20
-0.487700275455
 30
0.0
 11
33.65625148187
 21
-0.487700275455
 31
0.0
  0
LINE
  5
1D1
330
30
100
AcDbEntity
  8
1
100
AcDbLine
 10
33.65625148187
 20
-0.487700275455
 30
0.0
 11
33.71025148187
 21
-0.487700275455
 31
0.0
  0
LINE
  5
1D2
330
30
100
AcDbEntity
  8
1
100
AcDbLine
 10
33.71025148187
 20
-0.487700275455
 30
0.0
 11
33.76425148187
 21
-0.487700275455
 31
0.0
  0
LINE
  5
1D3
330
30
100
AcDbEntity
  8
1
100
AcDbLine
 10
33.76425148187
 20
-0.487700275455
 30
0.0
 11
33.81825148187
 21
-0.487700275455
 31
0.0
  0
LINE
  5
1D4
330
30
100
AcDbEntity
  8
1
100
AcDbLine
 10
33.81825148187
 20
-0.487700275455
 30
0.0
 11
33.87225148187
 21
-0.487700275455
 31
0.0
  0
LINE
  5
1D5
330
30
100
AcDbEntity
  8
1
100
AcDbLine
 10
33.87225148187
 20
-0.487700275455
 30
0.0
 11
33.92625148187
 21
-0.487700275455
 31
0.0
  0
LINE
  5
1D6
330
30
100
AcDbEntity
  8
1
100
AcDbLine
 10
33.92625148187
 20
-0.487700275455
 30
0.0
 11
33.98025148187
 21
-0.487700275455
 31
0.0
  0
LINE
  5
1D7
330
30
100
AcDbEntity
  8
1
100
AcDbLine
 10
33.98025148187
 20
-0.487700275455
 30
0.0
 11
34.03425148187
 21
-0.487700275455
 31
0.0
  0
LINE
  5
1D8
330
30
100
AcDbEntity
  8
1
100
AcDbLine
 10
34.03425148187
 20
-0.487700275455
 30
0.0
 11
34.08825148187
 21
-0.487700275455
 31
0.0
  0
LINE
  5
1D9
330
30
100
AcDbEntity
  8
1
100
AcDbLine
 10
34.08825148187
 20
-0.487700275455
 30
0.0
 11
34.14225148187
 21
-0.487700275455
 31
0.0
  0
LINE
  5
1DA
330
30
100
AcDbEntity
  8
1
100
AcDbLine
 10
34.14225148187
 20
-0.487700275455
 30
0.0
 11
34.19625148187
 21
-0.487700275455
 31
0.0
  0
LINE
  5
1DB
330
30
100
AcDbEntity
  8
1
100
AcDbLine
 10
34.19625148187
 20
-0.487700275455
 30
0.0
 11
34.25025148187
 21
-0.487700275455
 31
0.0
  0
LINE
  5
1DC
330
30
100
AcDbEntity
  8
1
100
AcDbLine
 10
34.25025148187
 20
-0.487700275455
 30
0.0
 11
34.30425148187
 21
-0.487700275455
 31
0.0
  0
LINE
  5
1DD
330
30
100
AcDbEntity
  8
1
100
AcDbLine
 10
34.30425148187
 20
-0.487700275455
 30
0.0
 11
34.35825148187
 21
-0.487700275455
 31
0.0
  0
LINE
  5
1DE
330
30
100
AcDbEntity
  8
1
100
AcDbLine
 10
34.35825148187
 20
-0.487700275455
 30
0.0
 11
34.41225148187
 21
-0.487700275455
 31
0.0
  0
LINE
  5
1DF
330
30
100
AcDbEntity
  8
1
100
AcDbLine
 10
34.41225148187
 20
-0.487700275455
 30
0.0
 11
34.46625148187
 21
-0.487700275455
 31
0.0
  0
LINE
  5
1E0
330
30
100
AcDbEntity
  8
1
100
AcDbLine
 10
34.46625148187
 20
-0.487700275455
 30
0.0
 11
34.52025148187
 21
-0.487700275455
 31
0.0
  0
LINE
  5
1E1
330
30
100
AcDbEntity
  8
1
100
AcDbLine
 10
34.52025148187
 20
-0.487700275455
 30
0.0
 11
34.57425148187
 21
-0.487700275455
 31
0.0
  0
LINE
  5
1E2
330
30
100
AcDbEntity
  8
1
100
AcDbLine
 10
34.57425148187
 20
-0.487700275455
 30
0.0
 11
34.62825148187
 21
-0.487700275455
 31
0.0
  0
LINE
  5
1E3
330
30
100
AcDbEntity
  8
1
100
AcDbLine
 10
34.62825148187
 20
-0.487700275455
 30
0.0
 11
34.68225148187
 21
-0.487700275455
 31
0.0
  0
LINE
  5
1E4
330
30
100
AcDbEntity
  8
1
100
AcDbLine
 10
34.68225148187
 20
-0.487700275455
 30
0.0
 11
34.73625148187
 21
-0.487700275455
 31
0.0
  0
LINE
  5
1E5
330
30
100
AcDbEntity
  8
1
100
AcDbLine
 10
34.73625148187
 20
-0.487700275455
 30
0.0
 11
34.79025148187
 21
-0.487700275455
 31
0.0
  0
LINE
  5
1E6
330
30
100
AcDbEntity
  8
1
100
AcDbLine
 10
34.79025148187
 20
-0.487700275455
 30
0.0
 11
34.84425148187
 21
-0.487700275455
 31
0.0
  0
LINE
  5
1E7
330
30
100
AcDbEntity
  8
1
100
AcDbLine
 10
34.84425148187
 20
-0.487700275455
 30
0.0
 11
34.89825148187
 21
-0.487700275455
 31
0.0
  0
LINE
  5
1E8
330
30
100
AcDbEntity
  8
1
100
AcDbLine
 10
34.89825148187
 20
-0.487700275455
 30
0.0
 11
34.95225148187
 21
-0.487700275455
 31
0.0
  0
LINE
  5
1E9
330
30
100
AcDbEntity
  8
1
100
AcDbLine
 10
34.95225148187
 20
-0.487700275455
 30
0.0
 11
35.00625148187
 21
-0.487700275455
 31
0.0
  0
LINE
  5
1EA
330
30
100
AcDbEntity
  8
1
100
AcDbLine
 10
35.00625148187
 20
-0.487700275455
 30
0.0
 11
35.06025148187
 21
-0.487700275455
 31
0.0
  0
LINE
  5
1EB
330
30
100
AcDbEntity
  8
1
100
AcDbLine
 10
35.06025148187
 20
-0.487700275455
 30
0.0
 11
35.11425148187
 21
-0.487700275455
 31
0.0
  0
LINE
  5
1EC
330
30
100
AcDbEntity
  8
1
100
AcDbLine
 10
35.11425148187
 20
-0.487700275455
 30
0.0
 11
35.16825148187
 21
-0.487700275455
 31
0.0
  0
LINE
  5
1ED
330
30
100
AcDbEntity
  8
1
100
AcDbLine
 10
35.16825148187
 20
-0.487700275455
 30
0.0
 11
35.22225148187
 21
-0.487700275455
 31
0.0
  0
LINE
  5
1EE
330
30
100
AcDbEntity
  8
1
100
AcDbLine
 10
35.22225148187
 20
-0.487700275455
 30
0.0
 11
35.27625148187
 21
-0.487700275455
 31
0.0
  0
LINE
  5
1EF
330
30
100
AcDbEntity
  8
1
100
AcDbLine
 10
35.27625148187
 20
-0.487700275455
 30
0.0
 11
35.33025148187
 21
-0.487700275455
 31
0.0
  0
LINE
  5
1F0
330
30
100
AcDbEntity
  8
1
100
AcDbLine
 10
35.33025148187
 20
-0.487700275455
 30
0.0
 11
35.38425148187
 21
-0.487700275455
 31
0.0
  0
LINE
  5
1F1
330
30
100
AcDbEntity
  8
1
100
AcDbLine
 10
35.38425148187
 20
-0.487700275455
 30
0.0
 11
35.43825148187
 21
-0.487700275455
 31
0.0
  0
LINE
  5
1F2
330
30
100
AcDbEntity
  8
1
100
AcDbLine
 10
35.43825148187
 20
-0.487700275455
 30
0.0
 11
35.49225148187
 21
-0.487700275455
 31
0.0
  0
LINE
  5
1F3
330
30
100
AcDbEntity
  8
1
100
AcDbLine
 10
35.49225148187
 20
-0.487700275455
 30
0.0
 11
35.54625148187
 21
-0.487700275455
 31
0.0
  0
LINE
  5
1F4
330
30
100
AcDbEntity
  8
1
100
AcDbLine
 10
35.54625148187
 20
-0.487700275455
 30
0.0
 11
35.60025148187
 21
-0.487700275455
 31
0.0
  0
LINE
  5
1F5
330
30
100
AcDbEntity
  8
1
100
AcDbLine
 10
35.60025148187
 20
-0.487700275455
 30
0.0
 11
35.65425148187
 21
-0.487700275455
 31
0.0
  0
LINE
  5
1F6
330
30
100
AcDbEntity
  8
1
100
AcDbLine
 10
35.65425148187
 20
-0.487700275455
 30
0.0
 11
35.70825148187
 21
-0.487700275455
 31
0.0
  0
LINE
  5
1F7
330
30
100
AcDbEntity
  8
1
100
AcDbLine
 10
35.70825148187
 20
-0.487700275455
 30
0.0
 11
35.76225148187
 21
-0.487700275455
 31
0.0
  0
LINE
  5
1F8
330
30
100
AcDbEntity
  8
1
100
AcDbLine
 10
35.76225148187
 20
-0.487700275455
 30
0.0
 11
35.81625148187
 21
-0.487700275455
 31
0.0
  0
LINE
  5
1F9
330
30
100
AcDbEntity
  8
1
100
AcDbLine
 10
35.81625148187
 20
-0.487700275455
 30
0.0
 11
35.87025148187
 21
-0.487700275455
 31
0.0
  0
LINE
  5
1FA
330
30
100
AcDbEntity
  8
1
100
AcDbLine
 10
35.87025148187
 20
-0.487700275455
 30
0.0
 11
35.92425148187
 21
-0.487700275455
 31
0.0
  0
LINE
  5
1FB
330
30
100
AcDbEntity
  8
1
100
AcDbLine
 10
35.92425148187
 20
-0.487700275455
 30
0.0
 11
35.97825148187
 21
-0.487700275455
 31
0.0
  0
LINE
  5
1FC
330
30
100
AcDbEntity
  8
1
100
AcDbLine
 10
35.97825148187
 20
-0.487700275455
 30
0.0
 11
36.03225148187
 21
-0.487700275455
 31
0.0
  0
LINE
  5
1FD
330
30
100
AcDbEntity
  8
1
100
AcDbLine
 10
36.03225148187
 20
-0.487700275455
 30
0.0
 11
36.08625148187
 21
-0.487700275455
 31
0.0
  0
LINE
  5
1FE
330
30
100
AcDbEntity
  8
1
100
AcDbLine
 10
36.08625148187
 20
-0.487700275455
 30
0.0
 11
36.14025148187
 21
-0.487700275455
 31
0.0
  0
LINE
  5
1FF
330
30
100
AcDbEntity
  8
1
100
AcDbLine
 10
36.14025148187
 20
-0.487700275455
 30
0.0
 11
36.19425148187
 21
-0.487700275455
 31
0.0
  0
LINE
  5
200
330
30
100
AcDbEntity
  8
1
100
AcDbLine
 10
36.19425148187
 20
-0.487700275455
 30
0.0
 11
36.24825148187
 21
-0.487700275455
 31
0.0
  0
LINE
  5
201
330
30
100
AcDbEntity
  8
1
100
AcDbLine
 10
36.24825148187
 20
-0.487700275455
 30
0.0
 11
36.30225148187
 21
-0.487700275455
 31
0.0
  0
LINE
  5
202
330
30
100
AcDbEntity
  8
1
100
AcDbLine
 10
36.30225148187
 20
-0.487700275455
 30
0.0
 11
36.35625148187
 21
-0.487700275455
 31
0.0
  0
LINE
  5
203
330
30
100
AcDbEntity
  8
1
100
AcDbLine
 10
36.35625148187
 20
-0.487700275455
 30
0.0
 11
36.41025148187
 21
-0.487700275455
 31
0.0
  0
LINE
  5
204
330
30
100
AcDbEntity
  8
1
100
AcDbLine
 10
36.41025148187
 20
-0.487700275455
 30
0.0
 11
36.46425148187
 21
-0.487700275455
 31
0.0
  0
LINE
  5
205
330
30
100
AcDbEntity
  8
1
100
AcDbLine
 10
36.46425148187
 20
-0.487700275455
 30
0.0
 11
36.51825148187
 21
-0.487700275455
 31
0.0
  0
LINE
  5
206
330
30
100
AcDbEntity
  8
1
100
AcDbLine
 10
36.51825148187
 20
-0.487700275455
 30
0.0
 11
36.57225148187
 21
-0.487700275455
 31
0.0
  0
LINE
  5
207
330
30
100
AcDbEntity
  8
1
100
AcDbLine
 10
36.57225148187
 20
-0.487700275455
 30
0.0
 11
36.62625148187
 21
-0.487700275455
 31
0.0
  0
LINE
  5
208
330
30
100
AcDbEntity
  8
1
100
AcDbLine
 10
36.62625148187
 20
-0.487700275455
 30
0.0
 11
36.68025148187
 21
-0.487700275455
 31
0.0
  0
LINE
  5
209
330
30
100
AcDbEntity
  8
1
100
AcDbLine
 10
36.68025148187
 20
-0.487700275455
 30
0.0
 11
36.73425148187
 21
-0.487700275455
 31
0.0
  0
LINE
  5
20A
330
30
100
AcDbEntity
  8
1
100
AcDbLine
 10
36.73425148187
 20
-0.487700275455
 30
0.0
 11
36.78825148187
 21
-0.487700275455
 31
0.0
  0
LINE
  5
20B
330
30
100
AcDbEntity
  8
1
100
AcDbLine
 10
36.78825148187
 20
-0.487700275455
 30
0.0
 11
36.84225148187
 21
-0.487700275455
 31
0.0
  0
LINE
  5
20C
330
30
100
AcDbEntity
  8
1
100
AcDbLine
 10
36.84225148187
 20
-0.487700275455
 30
0.0
 11
36.89625148187
 21
-0.487700275455
 31
0.0
  0
LINE
  5
20D
330
30
100
AcDbEntity
  8
1
100
AcDbLine
 10
36.89625148187
 20
-0.487700275455
 30
0.0
 11
36.95025148187
 21
-0.487700275455
 31
0.0
  0
LINE
  5
20E
330
30
100
AcDbEntity
  8
1
100
AcDbLine
 10
36.95025148187
 20
-0.487700275455
 30
0.0
 11
37.00425148187
 21
-0.487700275455
 31
0.0
  0
LINE
  5
20F
330
30
100
AcDbEntity
  8
1
100
AcDbLine
 10
37.00425148187
 20
-0.487700275455
 30
0.0
 11
37.05825148187
 21
-0.487700275455
 31
0.0
  0
LINE
  5
210
330
30
100
AcDbEntity
  8
1
100
AcDbLine
 10
37.05825148187
 20
-0.487700275455
 30
0.0
 11
37.11225148187
 21
-0.487700275455
 31
0.0
  0
LINE
  5
211
330
30
100
AcDbEntity
  8
1
100
AcDbLine
 10
37.11225148187
 20
-0.487700275455
 30
0.0
 11
37.16625148187
 21
-0.487700275455
 31
0.0
  0
LINE
  5
212
330
30
100
AcDbEntity
  8
1
100
AcDbLine
 10
37.16625148187
 20
-0.487700275455
 30
0.0
 11
37.22025148187
 21
-0.487700275455
 31
0.0
  0
LINE
  5
213
330
30
100
AcDbEntity
  8
1
100
AcDbLine
 10
37.22025148187
 20
-0.487700275455
 30
0.0
 11
37.27425148187
 21
-0.487700275455
 31
0.0
  0
LINE
  5
214
330
30
100
AcDbEntity
  8
1
100
AcDbLine
 10
37.27425148187
 20
-0.487700275455
 30
0.0
 11
37.32825148187
 21
-0.487700275455
 31
0.0
  0
LINE
  5
215
330
30
100
AcDbEntity
  8
1
100
AcDbLine
 10
37.32825148187
 20
-0.487700275455
 30
0.0
 11
37.38225148187
 21
-0.487700275455
 31
0.0
  0
LINE
  5
216
330
30
100
AcDbEntity
  8
1
100
AcDbLine
 10
37.38225148187
 20
-0.487700275455
 30
0.0
 11
37.43625148187
 21
-0.487700275455
 31
0.0
  0
LINE
  5
217
330
30
100
AcDbEntity
  8
1
100
AcDbLine
 10
37.43625148187
 20
-0.487700275455
 30
0.0
 11
37.49025148187
 21
-0.487700275455
 31
0.0
  0
LINE
  5
218
330
30
100
AcDbEntity
  8
1
100
AcDbLine
 10
37.49025148187
 20
-0.487700275455
 30
0.0
 11
37.54425148187
 21
-0.487700275455
 31
0.0
  0
LINE
  5
219
330
30
100
AcDbEntity
  8
1
100
AcDbLine
 10
37.54425148187
 20
-0.487700275455
 30
0.0
 11
37.59825148187
 21
-0.487700275455
 31
0.0
  0
LINE
  5
21A
330
30
100
AcDbEntity
  8
1
100
AcDbLine
 10
37.59825148187
 20
-0.487700275455
 30
0.0
 11
37.65225148187
 21
-0.487700275455
 31
0.0
  0
LINE
  5
21B
330
30
100
AcDbEntity
  8
1
100
AcDbLine
 10
37.65225148187
 20
-0.487700275455
 30
0.0
 11
37.70625148187
 21
-0.487700275455
 31
0.0
  0
LINE
  5
21C
330
30
100
AcDbEntity
  8
1
100
AcDbLine
 10
37.70625148187
 20
-0.487700275455
 30
0.0
 11
37.76025148187
 21
-0.487700275455
 31
0.0
  0
LINE
  5
21D
330
30
100
AcDbEntity
  8
1
100
AcDbLine
 10
37.76025148187
 20
-0.487700275455
 30
0.0
 11
37.81425148187
 21
-0.487700275455
 31
0.0
  0
LINE
  5
21E
330
30
100
AcDbEntity
  8
1
100
AcDbLine
 10
37.81425148187
 20
-0.487700275455
 30
0.0
 11
37.86825148187
 21
-0.487700275455
 31
0.0
  0
LINE
  5
21F
330
30
100
AcDbEntity
  8
1
100
AcDbLine
 10
37.86825148187
 20
-0.487700275455
 30
0.0
 11
37.92225148187
 21
-0.487700275455
 31
0.0
  0
LINE
  5
220
330
30
100
AcDbEntity
  8
1
100
AcDbLine
 10
37.92225148187
 20
-0.487700275455
 30
0.0
 11
37.97625148187
 21
-0.487700275455
 31
0.0
  0
LINE
  5
221
330
30
100
AcDbEntity
  8
1
100
AcDbLine
 10
37.97625148187
 20
-0.487700275455
 30
0.0
 11
38.03025148187
 21
-0.487700275455
 31
0.0
  0
LINE
  5
222
330
30
100
AcDbEntity
  8
1
100
AcDbLine
 10
38.03025148187
 20
-0.487700275455
 30
0.0
 11
38.08425148187
 21
-0.487700275455
 31
0.0
  0
LINE
  5
223
330
30
100
AcDbEntity
  8
1
100
AcDbLine
 10
38.08425148187
 20
-0.487700275455
 30
0.0
 11
38.13825148187
 21
-0.487700275455
 31
0.0
  0
LINE
  5
224
330
30
100
AcDbEntity
  8
1
100
AcDbLine
 10
38.13825148187
 20
-0.487700275455
 30
0.0
 11
38.19225148187
 21
-0.487700275455
 31
0.0
  0
LINE
  5
225
330
30
100
AcDbEntity
  8
1
100
AcDbLine
 10
38.19225148187
 20
-0.487700275455
 30
0.0
 11
38.24625148187
 21
-0.487700275455
 31
0.0
  0
LINE
  5
226
330
30
100
AcDbEntity
  8
1
100
AcDbLine
 10
38.24625148187
 20
-0.487700275455
 30
0.0
 11
38.30025148187
 21
-0.487700275455
 31
0.0
  0
LINE
  5
227
330
30
100
AcDbEntity
  8
1
100
AcDbLine
 10
38.30025148187
 20
-0.487700275455
 30
0.0
 11
38.35425148187
 21
-0.487700275455
 31
0.0
  0
LINE
  5
228
330
30
100
AcDbEntity
  8
1
100
AcDbLine
 10
38.35425148187
 20
-0.487700275455
 30
0.0
 11
38.40825148187
 21
-0.487700275455
 31
0.0
  0
LINE
  5
229
330
30
100
AcDbEntity
  8
1
100
AcDbLine
 10
38.40825148187
 20
-0.487700275455
 30
0.0
 11
38.46225148187
 21
-0.487700275455
 31
0.0
  0
LINE
  5
22A
330
30
100
AcDbEntity
  8
1
100
AcDbLine
 10
38.46225148187
 20
-0.487700275455
 30
0.0
 11
38.51625148187
 21
-0.487700275455
 31
0.0
  0
LINE
  5
22B
330
30
100
AcDbEntity
  8
1
100
AcDbLine
 10
38.51625148187
 20
-0.487700275455
 30
0.0
 11
38.57025148187
 21
-0.487700275455
 31
0.0
  0
LINE
  5
22C
330
30
100
AcDbEntity
  8
1
100
AcDbLine
 10
38.57025148187
 20
-0.487700275455
 30
0.0
 11
38.62425148187
 21
-0.487700275455
 31
0.0
  0
LINE
  5
22D
330
30
100
AcDbEntity
  8
1
100
AcDbLine
 10
38.62425148187
 20
-0.487700275455
 30
0.0
 11
38.67825148187
 21
-0.487700275455
 31
0.0
  0
LINE
  5
22E
330
30
100
AcDbEntity
  8
1
100
AcDbLine
 10
38.67825148187
 20
-0.487700275455
 30
0.0
 11
38.73225148187
 21
-0.487700275455
 31
0.0
  0
LINE
  5
22F
330
30
100
AcDbEntity
  8
1
100
AcDbLine
 10
38.73225148187
 20
-0.487700275455
 30
0.0
 11
38.78625148187
 21
-0.487700275455
 31
0.0
  0
LINE
  5
230
330
30
100
AcDbEntity
  8
1
100
AcDbLine
 10
38.78625148187
 20
-0.487700275455
 30
0.0
 11
38.84025148187
 21
-0.487700275455
 31
0.0
  0
LINE
  5
231
330
30
100
AcDbEntity
  8
1
100
AcDbLine
 10
38.84025148187
 20
-0.487700275455
 30
0.0
 11
38.89425148187
 21
-0.487700275455
 31
0.0
  0
LINE
  5
232
330
30
100
AcDbEntity
  8
1
100
AcDbLine
 10
38.89425148187
 20
-0.487700275455
 30
0.0
 11
38.94825148187
 21
-0.487700275455
 31
0.0
  0
LINE
  5
233
330
30
100
AcDbEntity
  8
1
100
AcDbLine
 10
38.94825148187
 20
-0.487700275455
 30
0.0
 11
39.00225148187
 21
-0.487700275455
 31
0.0
  0
LINE
  5
234
330
30
100
AcDbEntity
  8
1
100
AcDbLine
 10
39.00225148187
 20
-0.487700275455
 30
0.0
 11
39.05625148187
 21
-0.487700275455
 31
0.0
  0
LINE
  5
235
330
30
100
AcDbEntity
  8
1
100
AcDbLine
 10
39.05625148187
 20
-0.487700275455
 30
0.0
 11
39.11025148187
 21
-0.487700275455
 31
0.0
  0
LINE
  5
236
330
30
100
AcDbEntity
  8
1
100
AcDbLine
 10
39.11025148187
 20
-0.487700275455
 30
0.0
 11
39.16425148187
 21
-0.487700275455
 31
0.0
  0
LINE
  5
237
330
30
100
AcDbEntity
  8
1
100
AcDbLine
 10
39.16425148187
 20
-0.487700275455
 30
0.0
 11
39.21825148187
 21
-0.487700275455
 31
0.0
  0
LINE
  5
238
330
30
100
AcDbEntity
  8
1
100
AcDbLine
 10
39.21825148187
 20
-0.487700275455
 30
0.0
 11
39.27225148187
 21
-0.487700275455
 31
0.0
  0
LINE
  5
239
330
30
100
AcDbEntity
  8
1
100
AcDbLine
 10
39.27225148187
 20
-0.487700275455
 30
0.0
 11
39.32625148187
 21
-0.487700275455
 31
0.0
  0
LINE
  5
23A
330
30
100
AcDbEntity
  8
1
100
AcDbLine
 10
39.32625148187
 20
-0.487700275455
 30
0.0
 11
39.38025148187
 21
-0.487700275455
 31
0.0
  0
LINE
  5
23B
330
30
100
AcDbEntity
  8
1
100
AcDbLine
 10
39.38025148187
 20
-0.487700275455
 30
0.0
 11
39.43425148187
 21
-0.487700275455
 31
0.0
  0
LINE
  5
23C
330
30
100
AcDbEntity
  8
1
100
AcDbLine
 10
39.43425148187
 20
-0.487700275455
 30
0.0
 11
39.48825148187
 21
-0.487700275455
 31
0.0
  0
LINE
  5
23D
330
30
100
AcDbEntity
  8
1
100
AcDbLine
 10
39.48825148187
 20
-0.487700275455
 30
0.0
 11
39.54225148187
 21
-0.487700275455
 31
0.0
  0
LINE
  5
23E
330
30
100
AcDbEntity
  8
1
100
AcDbLine
 10
39.54225148187
 20
-0.487700275455
 30
0.0
 11
39.59625148187
 21
-0.487700275455
 31
0.0
  0
LINE
  5
23F
330
30
100
AcDbEntity
  8
1
100
AcDbLine
 10
39.59625148187
 20
-0.487700275455
 30
0.0
 11
39.65025148187
 21
-0.487700275455
 31
0.0
  0
LINE
  5
240
330
30
100
AcDbEntity
  8
1
100
AcDbLine
 10
39.65025148187
 20
-0.487700275455
 30
0.0
 11
39.70425148187
 21
-0.487700275455
 31
0.0
  0
LINE
  5
241
330
30
100
AcDbEntity
  8
1
100
AcDbLine
 10
39.70425148187
 20
-0.487700275455
 30
0.0
 11
39.75825148187
 21
-0.487700275455
 31
0.0
  0
LINE
  5
242
330
30
100
AcDbEntity
  8
1
100
AcDbLine
 10
39.75825148187
 20
-0.487700275455
 30
0.0
 11
39.81225148187
 21
-0.487700275455
 31
0.0
  0
LINE
  5
243
330
30
100
AcDbEntity
  8
1
100
AcDbLine
 10
39.81225148187
 20
-0.487700275455
 30
0.0
 11
39.86625148187
 21
-0.487700275455
 31
0.0
  0
LINE
  5
244
330
30
100
AcDbEntity
  8
1
100
AcDbLine
 10
39.86625148187
 20
-0.487700275455
 30
0.0
 11
39.92025148187
 21
-0.487700275455
 31
0.0
  0
LINE
  5
245
330
30
100
AcDbEntity
  8
1
100
AcDbLine
 10
39.92025148187
 20
-0.487700275455
 30
0.0
 11
39.97425148187
 21
-0.487700275455
 31
0.0
  0
LINE
  5
246
330
30
100
AcDbEntity
  8
1
100
AcDbLine
 10
39.97425148187
 20
-0.487700275455
 30
0.0
 11
40.02825148187
 21
-0.487700275455
 31
0.0
  0
LINE
  5
247
330
30
100
AcDbEntity
  8
1
100
AcDbLine
 10
40.02825148187
 20
-0.487700275455
 30
0.0
 11
40.08225148187
 21
-0.487700275455
 31
0.0
  0
LINE
  5
248
330
30
100
AcDbEntity
  8
1
100
AcDbLine
 10
40.08225148187
 20
-0.487700275455
 30
0.0
 11
40.13625148187
 21
-0.487700275455
 31
0.0
  0
LINE
  5
249
330
30
100
AcDbEntity
  8
1
100
AcDbLine
 10
40.13625148187
 20
-0.487700275455
 30
0.0
 11
40.19025148187
 21
-0.487700275455
 31
0.0
  0
LINE
  5
24A
330
30
100
AcDbEntity
  8
1
100
AcDbLine
 10
40.19025148187
 20
-0.487700275455
 30
0.0
 11
40.24425148187
 21
-0.487700275455
 31
0.0
  0
LINE
  5
24B
330
30
100
AcDbEntity
  8
1
100
AcDbLine
 10
40.24425148187
 20
-0.487700275455
 30
0.0
 11
40.29825148187
 21
-0.487700275455
 31
0.0
  0
LINE
  5
24C
330
30
100
AcDbEntity
  8
1
100
AcDbLine
 10
40.29825148187
 20
-0.487700275455
 30
0.0
 11
40.35225148187
 21
-0.487700275455
 31
0.0
  0
LINE
  5
24D
330
30
100
AcDbEntity
  8
1
100
AcDbLine
 10
40.35225148187
 20
-0.487700275455
 30
0.0
 11
40.40625148187
 21
-0.487700275455
 31
0.0
  0
LINE
  5
24E
330
30
100
AcDbEntity
  8
1
100
AcDbLine
 10
40.40625148187
 20
-0.487700275455
 30
0.0
 11
40.46025148187
 21
-0.487700275455
 31
0.0
  0
LINE
  5
24F
330
30
100
AcDbEntity
  8
1
100
AcDbLine
 10
40.46025148187
 20
-0.487700275455
 30
0.0
 11
40.51425148187
 21
-0.487700275455
 31
0.0
  0
LINE
  5
250
330
30
100
AcDbEntity
  8
1
100
AcDbLine
 10
40.51425148187
 20
-0.487700275455
 30
0.0
 11
40.56825148187
 21
-0.486265900444
 31
0.0
  0
LINE
  5
251
330
30
100
AcDbEntity
  8
1
100
AcDbLine
 10
40.56825148187
 20
-0.486265900444
 30
0.0
 11
40.62225148187
 21
-0.480834310685
 31
0.0
  0
LINE
  5
252
330
30
100
AcDbEntity
  8
1
100
AcDbLine
 10
40.62225148187
 20
-0.480834310685
 30
0.0
 11
40.67625148187
 21
-0.47540070204
 31
0.0
  0
LINE
  5
253
330
30
100
AcDbEntity
  8
1
100
AcDbLine
 10
40.67625148187
 20
-0.47540070204
 30
0.0
 11
40.73025148187
 21
-0.469965018432
 31
0.0
  0
LINE
  5
254
330
30
100
AcDbEntity
  8
1
100
AcDbLine
 10
40.73025148187
 20
-0.469965018432
 30
0.0
 11
40.78425148187
 21
-0.464527201668
 31
0.0
  0
LINE
  5
255
330
30
100
AcDbEntity
  8
1
100
AcDbLine
 10
40.78425148187
 20
-0.464527201668
 30
0.0
 11
40.83825148187
 21
-0.459087191333
 31
0.0
  0
LINE
  5
256
330
30
100
AcDbEntity
  8
1
100
AcDbLine
 10
40.83825148187
 20
-0.459087191333
 30
0.0
 11
40.89225148187
 21
-0.453644924681
 31
0.0
  0
LINE
  5
257
330
30
100
AcDbEntity
  8
1
100
AcDbLine
 10
40.89225148187
 20
-0.453644924681
 30
0.0
 11
40.94625148187
 21
-0.448200336526
 31
0.0
  0
LINE
  5
258
330
30
100
AcDbEntity
  8
1
100
AcDbLine
 10
40.94625148187
 20
-0.448200336526
 30
0.0
 11
41.00025148187
 21
-0.442753359115
 31
0.0
  0
LINE
  5
259
330
30
100
AcDbEntity
  8
1
100
AcDbLine
 10
41.00025148187
 20
-0.442753359115
 30
0.0
 11
41.05425148187
 21
-0.437303922
 31
0.0
  0
LINE
  5
25A
330
30
100
AcDbEntity
  8
1
100
AcDbLine
 10
41.05425148187
 20
-0.437303922
 30
0.0
 11
41.10825148187
 21
-0.431851951905
 31
0.0
  0
LINE
  5
25B
330
30
100
AcDbEntity
  8
1
100
AcDbLine
 10
41.10825148187
 20
-0.431851951905
 30
0.0
 11
41.16225148187
 21
-0.426397372576
 31
0.0
  0
LINE
  5
25C
330
30
100
AcDbEntity
  8
1
100
AcDbLine
 10
41.16225148187
 20
-0.426397372576
 30
0.0
 11
41.21625148187
 21
-0.42094010463
 31
0.0
  0
LINE
  5
25D
330
30
100
AcDbEntity
  8
1
100
AcDbLine
 10
41.21625148187
 20
-0.42094010463
 30
0.0
 11
41.27025148187
 21
-0.415480065387
 31
0.0
  0
LINE
  5
25E
330
30
100
AcDbEntity
  8
1
100
AcDbLine
 10
41.27025148187
 20
-0.415480065387
 30
0.0
 11
41.32425148187
 21
-0.410017168699
 31
0.0
  0
LINE
  5
25F
330
30
100
AcDbEntity
  8
1
100
AcDbLine
 10
41.32425148187
 20
-0.410017168699
 30
0.0
 11
41.37825148187
 21
-0.404551324762
 31
0.0
  0
LINE
  5
260
330
30
100
AcDbEntity
  8
1
100
AcDbLine
 10
41.37825148187
 20
-0.404551324762
 30
0.0
 11
41.43225148187
 21
-0.399082439916
 31
0.0
  0
LINE
  5
261
330
30
100
AcDbEntity
  8
1
100
AcDbLine
 10
41.43225148187
 20
-0.399082439916
 30
0.0
 11
41.48625148187
 21
-0.393610416437
 31
0.0
  0
LINE
  5
262
330
30
100
AcDbEntity
  8
1
100
AcDbLine
 10
41.48625148187
 20
-0.393610416437
 30
0.0
 11
41.54025148187
 21
-0.388135152305
 31
0.0
  0
LINE
  5
263
330
30
100
AcDbEntity
  8
1
100
AcDbLine
 10
41.54025148187
 20
-0.388135152305
 30
0.0
 11
41.59425148187
 21
-0.382656540969
 31
0.0
  0
LINE
  5
264
330
30
100
AcDbEntity
  8
1
100
AcDbLine
 10
41.59425148187
 20
-0.382656540969
 30
0.0
 11
41.64825148187
 21
-0.377174471082
 31
0.0
  0
LINE
  5
265
330
30
100
AcDbEntity
  8
1
100
AcDbLine
 10
41.64825148187
 20
-0.377174471082
 30
0.0
 11
41.70225148187
 21
-0.371688826233
 31
0.0
  0
LINE
  5
266
330
30
100
AcDbEntity
  8
1
100
AcDbLine
 10
41.70225148187
 20
-0.371688826233
 30
0.0
 11
41.75625148187
 21
-0.36619948464
 31
0.0
  0
LINE
  5
267
330
30
100
AcDbEntity
  8
1
100
AcDbLine
 10
41.75625148187
 20
-0.36619948464
 30
0.0
 11
41.81025148187
 21
-0.360706318843
 31
0.0
  0
LINE
  5
268
330
30
100
AcDbEntity
  8
1
100
AcDbLine
 10
41.81025148187
 20
-0.360706318843
 30
0.0
 11
41.86425148187
 21
-0.355209195357
 31
0.0
  0
LINE
  5
269
330
30
100
AcDbEntity
  8
1
100
AcDbLine
 10
41.86425148187
 20
-0.355209195357
 30
0.0
 11
41.91825148187
 21
-0.349707974308
 31
0.0
  0
LINE
  5
26A
330
30
100
AcDbEntity
  8
1
100
AcDbLine
 10
41.91825148187
 20
-0.349707974308
 30
0.0
 11
41.97225148187
 21
-0.333479520988
 31
0.0
  0
LINE
  5
26B
330
30
100
AcDbEntity
  8
1
100
AcDbLine
 10
41.97225148187
 20
-0.333479520988
 30
0.0
 11
42.02625148187
 21
-0.296115302493
 31
0.0
  0
LINE
  5
26C
330
30
100
AcDbEntity
  8
1
100
AcDbLine
 10
42.02625148187
 20
-0.296115302493
 30
0.0
 11
42.08025148187
 21
-0.258469755728
 31
0.0
  0
LINE
  5
26D
330
30
100
AcDbEntity
  8
1
100
AcDbLine
 10
42.08025148187
 20
-0.258469755728
 30
0.0
 11
42.13425148187
 21
-0.220448714991
 31
0.0
  0
LINE
  5
26E
330
30
100
AcDbEntity
  8
1
100
AcDbLine
 10
42.13425148187
 20
-0.220448714991
 30
0.0
 11
42.18825148187
 21
-0.181908884723
 31
0.0
  0
LINE
  5
26F
330
30
100
AcDbEntity
  8
1
100
AcDbLine
 10
42.18825148187
 20
-0.181908884723
 30
0.0
 11
42.24225148187
 21
-0.142619250629
 31
0.0
  0
LINE
  5
270
330
30
100
AcDbEntity
  8
1
100
AcDbLine
 10
42.24225148187
 20
-0.142619250629
 30
0.0
 11
42.29625148187
 21
-0.10217679245
 31
0.0
  0
LINE
  5
271
330
30
100
AcDbEntity
  8
1
100
AcDbLine
 10
42.29625148187
 20
-0.10217679245
 30
0.0
 11
42.35025148187
 21
-0.059791730536
 31
0.0
  0
LINE
  5
272
330
30
100
AcDbEntity
  8
1
100
AcDbLine
 10
42.35025148187
 20
-0.059791730536
 30
0.0
 11
42.40425148187
 21
-0.01358474092
 31
0.0
  0
LINE
  5
273
330
30
100
AcDbEntity
  8
1
100
AcDbLine
 10
42.40425148187
 20
-0.01358474092
 30
0.0
 11
42.45825148187
 21
0.043322081778
 31
0.0
  0
LINE
  5
274
330
30
100
AcDbEntity
  8
1
100
AcDbLine
 10
42.45825148187
 20
0.19175413661
 30
0.0
 11
42.45825148187
 21
0.043322081778
 31
0.0
  0
LINE
  5
275
330
30
100
AcDbEntity
  8
1
100
AcDbLine
 10
42.45825148187
 20
0.043322081778
 30
0.0
 11
42.45825148187
 21
0.19175413661
 31
0.0
  0
LINE
  5
276
330
30
100
AcDbEntity
  8
1
100
AcDbLine
 10
42.45825148187
 20
0.19175413661
 30
0.0
 11
42.40425148187
 21
0.243750373077
 31
0.0
  0
LINE
  5
277
330
30
100
AcDbEntity
  8
1
100
AcDbLine
 10
42.40425148187
 20
0.243750373077
 30
0.0
 11
42.35025148187
 21
0.294337696074
 31
0.0
  0
LINE
  5
278
330
30
100
AcDbEntity
  8
1
100
AcDbLine
 10
42.35025148187
 20
0.294337696074
 30
0.0
 11
42.29625148187
 21
0.344565267732
 31
0.0
  0
LINE
  5
279
330
30
100
AcDbEntity
  8
1
100
AcDbLine
 10
42.29625148187
 20
0.344565267732
 30
0.0
 11
42.24225148187
 21
0.394571953233
 31
0.0
  0
LINE
  5
27A
330
30
100
AcDbEntity
  8
1
100
AcDbLine
 10
42.24225148187
 20
0.394571953233
 30
0.0
 11
42.18825148187
 21
0.444433020386
 31
0.0
  0
LINE
  5
27B
330
30
100
AcDbEntity
  8
1
100
AcDbLine
 10
42.18825148187
 20
0.444433020386
 30
0.0
 11
42.13425148187
 21
0.494192919231
 31
0.0
  0
LINE
  5
27C
330
30
100
AcDbEntity
  8
1
100
AcDbLine
 10
42.13425148187
 20
0.494192919231
 30
0.0
 11
42.08025148187
 21
0.543879631141
 31
0.0
  0
LINE
  5
27D
330
30
100
AcDbEntity
  8
1
100
AcDbLine
 10
42.08025148187
 20
0.543879631141
 30
0.0
 11
42.02625148187
 21
0.593511666258
 31
0.0
  0
LINE
  5
27E
330
30
100
AcDbEntity
  8
1
100
AcDbLine
 10
42.02625148187
 20
0.593511666258
 30
0.0
 11
41.97225148187
 21
0.643101765864
 31
0.0
  0
LINE
  5
27F
330
30
100
AcDbEntity
  8
1
100
AcDbLine
 10
41.97225148187
 20
0.643101765864
 30
0.0
 11
41.91825148187
 21
0.664723693359
 31
0.0
  0
LINE
  5
280
330
30
100
AcDbEntity
  8
1
100
AcDbLine
 10
41.91825148187
 20
0.664723693359
 30
0.0
 11
41.86425148187
 21
0.672063339565
 31
0.0
  0
LINE
  5
281
330
30
100
AcDbEntity
  8
1
100
AcDbLine
 10
41.86425148187
 20
0.672063339565
 30
0.0
 11
41.81025148187
 21
0.679402358184
 31
0.0
  0
LINE
  5
282
330
30
100
AcDbEntity
  8
1
100
AcDbLine
 10
41.81025148187
 20
0.679402358184
 30
0.0
 11
41.75625148187
 21
0.686740769459
 31
0.0
  0
LINE
  5
283
330
30
100
AcDbEntity
  8
1
100
AcDbLine
 10
41.75625148187
 20
0.686740769459
 30
0.0
 11
41.70225148187
 21
0.694078592769
 31
0.0
  0
LINE
  5
284
330
30
100
AcDbEntity
  8
1
100
AcDbLine
 10
41.70225148187
 20
0.694078592769
 30
0.0
 11
41.64825148187
 21
0.701415846677
 31
0.0
  0
LINE
  5
285
330
30
100
AcDbEntity
  8
1
100
AcDbLine
 10
41.64825148187
 20
0.701415846677
 30
0.0
 11
41.59425148187
 21
0.70875254897
 31
0.0
  0
LINE
  5
286
330
30
100
AcDbEntity
  8
1
100
AcDbLine
 10
41.59425148187
 20
0.70875254897
 30
0.0
 11
41.54025148187
 21
0.716088716703
 31
0.0
  0
LINE
  5
287
330
30
100
AcDbEntity
  8
1
100
AcDbLine
 10
41.54025148187
 20
0.716088716703
 30
0.0
 11
41.48625148187
 21
0.72342436623
 31
0.0
  0
LINE
  5
288
330
30
100
AcDbEntity
  8
1
100
AcDbLine
 10
41.48625148187
 20
0.72342436623
 30
0.0
 11
41.43225148187
 21
0.730759513247
 31
0.0
  0
LINE
  5
289
330
30
100
AcDbEntity
  8
1
100
AcDbLine
 10
41.43225148187
 20
0.730759513247
 30
0.0
 11
41.37825148187
 21
0.73809417282
 31
0.0
  0
LINE
  5
28A
330
30
100
AcDbEntity
  8
1
100
AcDbLine
 10
41.37825148187
 20
0.73809417282
 30
0.0
 11
41.32425148187
 21
0.745428359417
 31
0.0
  0
LINE
  5
28B
330
30
100
AcDbEntity
  8
1
100
AcDbLine
 10
41.32425148187
 20
0.745428359417
 30
0.0
 11
41.27025148187
 21
0.752762086941
 31
0.0
  0
LINE
  5
28C
330
30
100
AcDbEntity
  8
1
100
AcDbLine
 10
41.27025148187
 20
0.752762086941
 30
0.0
 11
41.21625148187
 21
0.760095368751
 31
0.0
  0
LINE
  5
28D
330
30
100
AcDbEntity
  8
1
100
AcDbLine
 10
41.21625148187
 20
0.760095368751
 30
0.0
 11
41.16225148187
 21
0.767428217694
 31
0.0
  0
LINE
  5
28E
330
30
100
AcDbEntity
  8
1
100
AcDbLine
 10
41.16225148187
 20
0.767428217694
 30
0.0
 11
41.10825148187
 21
0.774760646128
 31
0.0
  0
LINE
  5
28F
330
30
100
AcDbEntity
  8
1
100
AcDbLine
 10
41.10825148187
 20
0.774760646128
 30
0.0
 11
41.05425148187
 21
0.782092665941
 31
0.0
  0
LINE
  5
290
330
30
100
AcDbEntity
  8
1
100
AcDbLine
 10
41.05425148187
 20
0.782092665941
 30
0.0
 11
41.00025148187
 21
0.78942428858
 31
0.0
  0
LINE
  5
291
330
30
100
AcDbEntity
  8
1
100
AcDbLine
 10
41.00025148187
 20
0.78942428858
 30
0.0
 11
40.94625148187
 21
0.796755525066
 31
0.0
  0
LINE
  5
292
330
30
100
AcDbEntity
  8
1
100
AcDbLine
 10
40.94625148187
 20
0.796755525066
 30
0.0
 11
40.89225148187
 21
0.804086386015
 31
0.0
  0
LINE
  5
293
330
30
100
AcDbEntity
  8
1
100
AcDbLine
 10
40.89225148187
 20
0.804086386015
 30
0.0
 11
40.83825148187
 21
0.81141688166
 31
0.0
  0
LINE
  5
294
330
30
100
AcDbEntity
  8
1
100
AcDbLine
 10
40.83825148187
 20
0.81141688166
 30
0.0
 11
40.78425148187
 21
0.81874702186
 31
0.0
  0
LINE
  5
295
330
30
100
AcDbEntity
  8
1
100
AcDbLine
 10
40.78425148187
 20
0.81874702186
 30
0.0
 11
40.73025148187
 21
0.826076816127
 31
0.0
  0
LINE
  5
296
330
30
100
AcDbEntity
  8
1
100
AcDbLine
 10
40.73025148187
 20
0.826076816127
 30
0.0
 11
40.67625148187
 21
0.833406273633
 31
0.0
  0
LINE
  5
297
330
30
100
AcDbEntity
  8
1
100
AcDbLine
 10
40.67625148187
 20
0.833406273633
 30
0.0
 11
40.62225148187
 21
0.840735403229
 31
0.0
  0
LINE
  5
298
330
30
100
AcDbEntity
  8
1
100
AcDbLine
 10
40.62225148187
 20
0.840735403229
 30
0.0
 11
40.56825148187
 21
0.848064213458
 31
0.0
  0
LINE
  5
299
330
30
100
AcDbEntity
  8
1
100
AcDbLine
 10
40.56825148187
 20
0.848064213458
 30
0.0
 11
40.51425148187
 21
0.85
 31
0.0
  0
LINE
  5
29A
330
30
100
AcDbEntity
  8
1
100
AcDbLine
 10
40.51425148187
 20
0.85
 30
0.0
 11
40.46025148187
 21
0.85
 31
0.0
  0
LINE
  5
29B
330
30
100
AcDbEntity
  8
1
100
AcDbLine
 10
40.46025148187
 20
0.85
 30
0.0
 11
40.40625148187
 21
0.85
 31
0.0
  0
LINE
  5
29C
330
30
100
AcDbEntity
  8
1
100
AcDbLine
 10
40.40625148187
 20
0.85
 30
0.0
 11
40.35225148187
 21
0.85
 31
0.0
  0
LINE
  5
29D
330
30
100
AcDbEntity
  8
1
100
AcDbLine
 10
40.35225148187
 20
0.85
 30
0.0
 11
40.29825148187
 21
0.85
 31
0.0
  0
LINE
  5
29E
330
30
100
AcDbEntity
  8
1
100
AcDbLine
 10
40.29825148187
 20
0.85
 30
0.0
 11
40.24425148187
 21
0.85
 31
0.0
  0
LINE
  5
29F
330
30
100
AcDbEntity
  8
1
100
AcDbLine
 10
40.24425148187
 20
0.85
 30
0.0
 11
40.19025148187
 21
0.85
 31
0.0
  0
LINE
  5
2A0
330
30
100
AcDbEntity
  8
1
100
AcDbLine
 10
40.19025148187
 20
0.85
 30
0.0
 11
40.13625148187
 21
0.85
 31
0.0
  0
LINE
  5
2A1
330
30
100
AcDbEntity
  8
1
100
AcDbLine
 10
40.13625148187
 20
0.85
 30
0.0
 11
40.08225148187
 21
0.85
 31
0.0
  0
LINE
  5
2A2
330
30
100
AcDbEntity
  8
1
100
AcDbLine
 10
40.08225148187
 20
0.85
 30
0.0
 11
40.02825148187
 21
0.85
 31
0.0
  0
LINE
  5
2A3
330
30
100
AcDbEntity
  8
1
100
AcDbLine
 10
40.02825148187
 20
0.85
 30
0.0
 11
39.97425148187
 21
0.85
 31
0.0
  0
LINE
  5
2A4
330
30
100
AcDbEntity
  8
1
100
AcDbLine
 10
39.97425148187
 20
0.85
 30
0.0
 11
39.92025148187
 21
0.85
 31
0.0
  0
LINE
  5
2A5
330
30
100
AcDbEntity
  8
1
100
AcDbLine
 10
39.92025148187
 20
0.85
 30
0.0
 11
39.86625148187
 21
0.85
 31
0.0
  0
LINE
  5
2A6
330
30
100
AcDbEntity
  8
1
100
AcDbLine
 10
39.86625148187
 20
0.85
 30
0.0
 11
39.81225148187
 21
0.85
 31
0.0
  0
LINE
  5
2A7
330
30
100
AcDbEntity
  8
1
100
AcDbLine
 10
39.81225148187
 20
0.85
 30
0.0
 11
39.75825148187
 21
0.85
 31
0.0
  0
LINE
  5
2A8
330
30
100
AcDbEntity
  8
1
100
AcDbLine
 10
39.75825148187
 20
0.85
 30
0.0
 11
39.70425148187
 21
0.85
 31
0.0
  0
LINE
  5
2A9
330
30
100
AcDbEntity
  8
1
100
AcDbLine
 10
39.70425148187
 20
0.85
 30
0.0
 11
39.65025148187
 21
0.85
 31
0.0
  0
LINE
  5
2AA
330
30
100
AcDbEntity
  8
1
100
AcDbLine
 10
39.65025148187
 20
0.85
 30
0.0
 11
39.59625148187
 21
0.85
 31
0.0
  0
LINE
  5
2AB
330
30
100
AcDbEntity
  8
1
100
AcDbLine
 10
39.59625148187
 20
0.85
 30
0.0
 11
39.54225148187
 21
0.85
 31
0.0
  0
LINE
  5
2AC
330
30
100
AcDbEntity
  8
1
100
AcDbLine
 10
39.54225148187
 20
0.85
 30
0.0
 11
39.48825148187
 21
0.85
 31
0.0
  0
LINE
  5
2AD
330
30
100
AcDbEntity
  8
1
100
AcDbLine
 10
39.48825148187
 20
0.85
 30
0.0
 11
39.43425148187
 21
0.85
 31
0.0
  0
LINE
  5
2AE
330
30
100
AcDbEntity
  8
1
100
AcDbLine
 10
39.43425148187
 20
0.85
 30
0.0
 11
39.38025148187
 21
0.85
 31
0.0
  0
LINE
  5
2AF
330
30
100
AcDbEntity
  8
1
100
AcDbLine
 10
39.38025148187
 20
0.85
 30
0.0
 11
39.32625148187
 21
0.85
 31
0.0
  0
LINE
  5
2B0
330
30
100
AcDbEntity
  8
1
100
AcDbLine
 10
39.32625148187
 20
0.85
 30
0.0
 11
39.27225148187
 21
0.85
 31
0.0
  0
LINE
  5
2B1
330
30
100
AcDbEntity
  8
1
100
AcDbLine
 10
39.27225148187
 20
0.85
 30
0.0
 11
39.21825148187
 21
0.85
 31
0.0
  0
LINE
  5
2B2
330
30
100
AcDbEntity
  8
1
100
AcDbLine
 10
39.21825148187
 20
0.85
 30
0.0
 11
39.16425148187
 21
0.85
 31
0.0
  0
LINE
  5
2B3
330
30
100
AcDbEntity
  8
1
100
AcDbLine
 10
39.16425148187
 20
0.85
 30
0.0
 11
39.11025148187
 21
0.85
 31
0.0
  0
LINE
  5
2B4
330
30
100
AcDbEntity
  8
1
100
AcDbLine
 10
39.11025148187
 20
0.85
 30
0.0
 11
39.05625148187
 21
0.85
 31
0.0
  0
LINE
  5
2B5
330
30
100
AcDbEntity
  8
1
100
AcDbLine
 10
39.05625148187
 20
0.85
 30
0.0
 11
39.00225148187
 21
0.85
 31
0.0
  0
LINE
  5
2B6
330
30
100
AcDbEntity
  8
1
100
AcDbLine
 10
39.00225148187
 20
0.85
 30
0.0
 11
38.94825148187
 21
0.85
 31
0.0
  0
LINE
  5
2B7
330
30
100
AcDbEntity
  8
1
100
AcDbLine
 10
38.94825148187
 20
0.85
 30
0.0
 11
38.89425148187
 21
0.85
 31
0.0
  0
LINE
  5
2B8
330
30
100
AcDbEntity
  8
1
100
AcDbLine
 10
38.89425148187
 20
0.85
 30
0.0
 11
38.84025148187
 21
0.85
 31
0.0
  0
LINE
  5
2B9
330
30
100
AcDbEntity
  8
1
100
AcDbLine
 10
38.84025148187
 20
0.85
 30
0.0
 11
38.78625148187
 21
0.85
 31
0.0
  0
LINE
  5
2BA
330
30
100
AcDbEntity
  8
1
100
AcDbLine
 10
38.78625148187
 20
0.85
 30
0.0
 11
38.73225148187
 21
0.85
 31
0.0
  0
LINE
  5
2BB
330
30
100
AcDbEntity
  8
1
100
AcDbLine
 10
38.73225148187
 20
0.85
 30
0.0
 11
38.67825148187
 21
0.85
 31
0.0
  0
LINE
  5
2BC
330
30
100
AcDbEntity
  8
1
100
AcDbLine
 10
38.67825148187
 20
0.85
 30
0.0
 11
38.62425148187
 21
0.85
 31
0.0
  0
LINE
  5
2BD
330
30
100
AcDbEntity
  8
1
100
AcDbLine
 10
38.62425148187
 20
0.85
 30
0.0
 11
38.57025148187
 21
0.85
 31
0.0
  0
LINE
  5
2BE
330
30
100
AcDbEntity
  8
1
100
AcDbLine
 10
38.57025148187
 20
0.85
 30
0.0
 11
38.51625148187
 21
0.85
 31
0.0
  0
LINE
  5
2BF
330
30
100
AcDbEntity
  8
1
100
AcDbLine
 10
38.51625148187
 20
0.85
 30
0.0
 11
38.46225148187
 21
0.85
 31
0.0
  0
LINE
  5
2C0
330
30
100
AcDbEntity
  8
1
100
AcDbLine
 10
38.46225148187
 20
0.85
 30
0.0
 11
38.40825148187
 21
0.85
 31
0.0
  0
LINE
  5
2C1
330
30
100
AcDbEntity
  8
1
100
AcDbLine
 10
38.40825148187
 20
0.85
 30
0.0
 11
38.35425148187
 21
0.85
 31
0.0
  0
LINE
  5
2C2
330
30
100
AcDbEntity
  8
1
100
AcDbLine
 10
38.35425148187
 20
0.85
 30
0.0
 11
38.30025148187
 21
0.85
 31
0.0
  0
LINE
  5
2C3
330
30
100
AcDbEntity
  8
1
100
AcDbLine
 10
38.30025148187
 20
0.85
 30
0.0
 11
38.24625148187
 21
0.85
 31
0.0
  0
LINE
  5
2C4
330
30
100
AcDbEntity
  8
1
100
AcDbLine
 10
38.24625148187
 20
0.85
 30
0.0
 11
38.19225148187
 21
0.85
 31
0.0
  0
LINE
  5
2C5
330
30
100
AcDbEntity
  8
1
100
AcDbLine
 10
38.19225148187
 20
0.85
 30
0.0
 11
38.13825148187
 21
0.85
 31
0.0
  0
LINE
  5
2C6
330
30
100
AcDbEntity
  8
1
100
AcDbLine
 10
38.13825148187
 20
0.85
 30
0.0
 11
38.08425148187
 21
0.85
 31
0.0
  0
LINE
  5
2C7
330
30
100
AcDbEntity
  8
1
100
AcDbLine
 10
38.08425148187
 20
0.85
 30
0.0
 11
38.03025148187
 21
0.85
 31
0.0
  0
LINE
  5
2C8
330
30
100
AcDbEntity
  8
1
100
AcDbLine
 10
38.03025148187
 20
0.85
 30
0.0
 11
37.97625148187
 21
0.85
 31
0.0
  0
LINE
  5
2C9
330
30
100
AcDbEntity
  8
1
100
AcDbLine
 10
37.97625148187
 20
0.85
 30
0.0
 11
37.92225148187
 21
0.85
 31
0.0
  0
LINE
  5
2CA
330
30
100
AcDbEntity
  8
1
100
AcDbLine
 10
37.92225148187
 20
0.85
 30
0.0
 11
37.86825148187
 21
0.85
 31
0.0
  0
LINE
  5
2CB
330
30
100
AcDbEntity
  8
1
100
AcDbLine
 10
37.86825148187
 20
0.85
 30
0.0
 11
37.81425148187
 21
0.85
 31
0.0
  0
LINE
  5
2CC
330
30
100
AcDbEntity
  8
1
100
AcDbLine
 10
37.81425148187
 20
0.85
 30
0.0
 11
37.76025148187
 21
0.85
 31
0.0
  0
LINE
  5
2CD
330
30
100
AcDbEntity
  8
1
100
AcDbLine
 10
37.76025148187
 20
0.85
 30
0.0
 11
37.70625148187
 21
0.85
 31
0.0
  0
LINE
  5
2CE
330
30
100
AcDbEntity
  8
1
100
AcDbLine
 10
37.70625148187
 20
0.85
 30
0.0
 11
37.65225148187
 21
0.85
 31
0.0
  0
LINE
  5
2CF
330
30
100
AcDbEntity
  8
1
100
AcDbLine
 10
37.65225148187
 20
0.85
 30
0.0
 11
37.59825148187
 21
0.85
 31
0.0
  0
LINE
  5
2D0
330
30
100
AcDbEntity
  8
1
100
AcDbLine
 10
37.59825148187
 20
0.85
 30
0.0
 11
37.54425148187
 21
0.85
 31
0.0
  0
LINE
  5
2D1
330
30
100
AcDbEntity
  8
1
100
AcDbLine
 10
37.54425148187
 20
0.85
 30
0.0
 11
37.49025148187
 21
0.85
 31
0.0
  0
LINE
  5
2D2
330
30
100
AcDbEntity
  8
1
100
AcDbLine
 10
37.49025148187
 20
0.85
 30
0.0
 11
37.43625148187
 21
0.85
 31
0.0
  0
LINE
  5
2D3
330
30
100
AcDbEntity
  8
1
100
AcDbLine
 10
37.43625148187
 20
0.85
 30
0.0
 11
37.38225148187
 21
0.85
 31
0.0
  0
LINE
  5
2D4
330
30
100
AcDbEntity
  8
1
100
AcDbLine
 10
37.38225148187
 20
0.85
 30
0.0
 11
37.32825148187
 21
0.85
 31
0.0
  0
LINE
  5
2D5
330
30
100
AcDbEntity
  8
1
100
AcDbLine
 10
37.32825148187
 20
0.85
 30
0.0
 11
37.27425148187
 21
0.85
 31
0.0
  0
LINE
  5
2D6
330
30
100
AcDbEntity
  8
1
100
AcDbLine
 10
37.27425148187
 20
0.85
 30
0.0
 11
37.22025148187
 21
0.85
 31
0.0
  0
LINE
  5
2D7
330
30
100
AcDbEntity
  8
1
100
AcDbLine
 10
37.22025148187
 20
0.85
 30
0.0
 11
37.16625148187
 21
0.85
 31
0.0
  0
LINE
  5
2D8
330
30
100
AcDbEntity
  8
1
100
AcDbLine
 10
37.16625148187
 20
0.85
 30
0.0
 11
37.11225148187
 21
0.85
 31
0.0
  0
LINE
  5
2D9
330
30
100
AcDbEntity
  8
1
100
AcDbLine
 10
37.11225148187
 20
0.85
 30
0.0
 11
37.05825148187
 21
0.85
 31
0.0
  0
LINE
  5
2DA
330
30
100
AcDbEntity
  8
1
100
AcDbLine
 10
37.05825148187
 20
0.85
 30
0.0
 11
37.00425148187
 21
0.85
 31
0.0
  0
LINE
  5
2DB
330
30
100
AcDbEntity
  8
1
100
AcDbLine
 10
37.00425148187
 20
0.85
 30
0.0
 11
36.95025148187
 21
0.85
 31
0.0
  0
LINE
  5
2DC
330
30
100
AcDbEntity
  8
1
100
AcDbLine
 10
36.95025148187
 20
0.85
 30
0.0
 11
36.89625148187
 21
0.85
 31
0.0
  0
LINE
  5
2DD
330
30
100
AcDbEntity
  8
1
100
AcDbLine
 10
36.89625148187
 20
0.85
 30
0.0
 11
36.84225148187
 21
0.85
 31
0.0
  0
LINE
  5
2DE
330
30
100
AcDbEntity
  8
1
100
AcDbLine
 10
36.84225148187
 20
0.85
 30
0.0
 11
36.78825148187
 21
0.85
 31
0.0
  0
LINE
  5
2DF
330
30
100
AcDbEntity
  8
1
100
AcDbLine
 10
36.78825148187
 20
0.85
 30
0.0
 11
36.73425148187
 21
0.85
 31
0.0
  0
LINE
  5
2E0
330
30
100
AcDbEntity
  8
1
100
AcDbLine
 10
36.73425148187
 20
0.85
 30
0.0
 11
36.68025148187
 21
0.85
 31
0.0
  0
LINE
  5
2E1
330
30
100
AcDbEntity
  8
1
100
AcDbLine
 10
36.68025148187
 20
0.85
 30
0.0
 11
36.62625148187
 21
0.85
 31
0.0
  0
LINE
  5
2E2
330
30
100
AcDbEntity
  8
1
100
AcDbLine
 10
36.62625148187
 20
0.85
 30
0.0
 11
36.57225148187
 21
0.85
 31
0.0
  0
LINE
  5
2E3
330
30
100
AcDbEntity
  8
1
100
AcDbLine
 10
36.57225148187
 20
0.85
 30
0.0
 11
36.51825148187
 21
0.85
 31
0.0
  0
LINE
  5
2E4
330
30
100
AcDbEntity
  8
1
100
AcDbLine
 10
36.51825148187
 20
0.85
 30
0.0
 11
36.46425148187
 21
0.85
 31
0.0
  0
LINE
  5
2E5
330
30
100
AcDbEntity
  8
1
100
AcDbLine
 10
36.46425148187
 20
0.85
 30
0.0
 11
36.41025148187
 21
0.85
 31
0.0
  0
LINE
  5
2E6
330
30
100
AcDbEntity
  8
1
100
AcDbLine
 10
36.41025148187
 20
0.85
 30
0.0
 11
36.35625148187
 21
0.85
 31
0.0
  0
LINE
  5
2E7
330
30
100
AcDbEntity
  8
1
100
AcDbLine
 10
36.35625148187
 20
0.85
 30
0.0
 11
36.30225148187
 21
0.85
 31
0.0
  0
LINE
  5
2E8
330
30
100
AcDbEntity
  8
1
100
AcDbLine
 10
36.30225148187
 20
0.85
 30
0.0
 11
36.24825148187
 21
0.85
 31
0.0
  0
LINE
  5
2E9
330
30
100
AcDbEntity
  8
1
100
AcDbLine
 10
36.24825148187
 20
0.85
 30
0.0
 11
36.19425148187
 21
0.85
 31
0.0
  0
LINE
  5
2EA
330
30
100
AcDbEntity
  8
1
100
AcDbLine
 10
36.19425148187
 20
0.85
 30
0.0
 11
36.14025148187
 21
0.85
 31
0.0
  0
LINE
  5
2EB
330
30
100
AcDbEntity
  8
1
100
AcDbLine
 10
36.14025148187
 20
0.85
 30
0.0
 11
36.08625148187
 21
0.85
 31
0.0
  0
LINE
  5
2EC
330
30
100
AcDbEntity
  8
1
100
AcDbLine
 10
36.08625148187
 20
0.85
 30
0.0
 11
36.03225148187
 21
0.85
 31
0.0
  0
LINE
  5
2ED
330
30
100
AcDbEntity
  8
1
100
AcDbLine
 10
36.03225148187
 20
0.85
 30
0.0
 11
35.97825148187
 21
0.85
 31
0.0
  0
LINE
  5
2EE
330
30
100
AcDbEntity
  8
1
100
AcDbLine
 10
35.97825148187
 20
0.85
 30
0.0
 11
35.92425148187
 21
0.85
 31
0.0
  0
LINE
  5
2EF
330
30
100
AcDbEntity
  8
1
100
AcDbLine
 10
35.92425148187
 20
0.85
 30
0.0
 11
35.87025148187
 21
0.85
 31
0.0
  0
LINE
  5
2F0
330
30
100
AcDbEntity
  8
1
100
AcDbLine
 10
35.87025148187
 20
0.85
 30
0.0
 11
35.81625148187
 21
0.85
 31
0.0
  0
LINE
  5
2F1
330
30
100
AcDbEntity
  8
1
100
AcDbLine
 10
35.81625148187
 20
0.85
 30
0.0
 11
35.76225148187
 21
0.85
 31
0.0
  0
LINE
  5
2F2
330
30
100
AcDbEntity
  8
1
100
AcDbLine
 10
35.76225148187
 20
0.85
 30
0.0
 11
35.70825148187
 21
0.85
 31
0.0
  0
LINE
  5
2F3
330
30
100
AcDbEntity
  8
1
100
AcDbLine
 10
35.70825148187
 20
0.85
 30
0.0
 11
35.65425148187
 21
0.85
 31
0.0
  0
LINE
  5
2F4
330
30
100
AcDbEntity
  8
1
100
AcDbLine
 10
35.65425148187
 20
0.85
 30
0.0
 11
35.60025148187
 21
0.85
 31
0.0
  0
LINE
  5
2F5
330
30
100
AcDbEntity
  8
1
100
AcDbLine
 10
35.60025148187
 20
0.85
 30
0.0
 11
35.54625148187
 21
0.85
 31
0.0
  0
LINE
  5
2F6
330
30
100
AcDbEntity
  8
1
100
AcDbLine
 10
35.54625148187
 20
0.85
 30
0.0
 11
35.49225148187
 21
0.85
 31
0.0
  0
LINE
  5
2F7
330
30
100
AcDbEntity
  8
1
100
AcDbLine
 10
35.49225148187
 20
0.85
 30
0.0
 11
35.43825148187
 21
0.85
 31
0.0
  0
LINE
  5
2F8
330
30
100
AcDbEntity
  8
1
100
AcDbLine
 10
35.43825148187
 20
0.85
 30
0.0
 11
35.38425148187
 21
0.85
 31
0.0
  0
LINE
  5
2F9
330
30
100
AcDbEntity
  8
1
100
AcDbLine
 10
35.38425148187
 20
0.85
 30
0.0
 11
35.33025148187
 21
0.85
 31
0.0
  0
LINE
  5
2FA
330
30
100
AcDbEntity
  8
1
100
AcDbLine
 10
35.33025148187
 20
0.85
 30
0.0
 11
35.27625148187
 21
0.85
 31
0.0
  0
LINE
  5
2FB
330
30
100
AcDbEntity
  8
1
100
AcDbLine
 10
35.27625148187
 20
0.85
 30
0.0
 11
35.22225148187
 21
0.85
 31
0.0
  0
LINE
  5
2FC
330
30
100
AcDbEntity
  8
1
100
AcDbLine
 10
35.22225148187
 20
0.85
 30
0.0
 11
35.16825148187
 21
0.85
 31
0.0
  0
LINE
  5
2FD
330
30
100
AcDbEntity
  8
1
100
AcDbLine
 10
35.16825148187
 20
0.85
 30
0.0
 11
35.11425148187
 21
0.85
 31
0.0
  0
LINE
  5
2FE
330
30
100
AcDbEntity
  8
1
100
AcDbLine
 10
35.11425148187
 20
0.85
 30
0.0
 11
35.06025148187
 21
0.85
 31
0.0
  0
LINE
  5
2FF
330
30
100
AcDbEntity
  8
1
100
AcDbLine
 10
35.06025148187
 20
0.85
 30
0.0
 11
35.00625148187
 21
0.85
 31
0.0
  0
LINE
  5
300
330
30
100
AcDbEntity
  8
1
100
AcDbLine
 10
35.00625148187
 20
0.85
 30
0.0
 11
34.95225148187
 21
0.85
 31
0.0
  0
LINE
  5
301
330
30
100
AcDbEntity
  8
1
100
AcDbLine
 10
34.95225148187
 20
0.85
 30
0.0
 11
34.89825148187
 21
0.85
 31
0.0
  0
LINE
  5
302
330
30
100
AcDbEntity
  8
1
100
AcDbLine
 10
34.89825148187
 20
0.85
 30
0.0
 11
34.84425148187
 21
0.85
 31
0.0
  0
LINE
  5
303
330
30
100
AcDbEntity
  8
1
100
AcDbLine
 10
34.84425148187
 20
0.85
 30
0.0
 11
34.79025148187
 21
0.85
 31
0.0
  0
LINE
  5
304
330
30
100
AcDbEntity
  8
1
100
AcDbLine
 10
34.79025148187
 20
0.85
 30
0.0
 11
34.73625148187
 21
0.85
 31
0.0
  0
LINE
  5
305
330
30
100
AcDbEntity
  8
1
100
AcDbLine
 10
34.73625148187
 20
0.85
 30
0.0
 11
34.68225148187
 21
0.85
 31
0.0
  0
LINE
  5
306
330
30
100
AcDbEntity
  8
1
100
AcDbLine
 10
34.68225148187
 20
0.85
 30
0.0
 11
34.62825148187
 21
0.85
 31
0.0
  0
LINE
  5
307
330
30
100
AcDbEntity
  8
1
100
AcDbLine
 10
34.62825148187
 20
0.85
 30
0.0
 11
34.57425148187
 21
0.85
 31
0.0
  0
LINE
  5
308
330
30
100
AcDbEntity
  8
1
100
AcDbLine
 10
34.57425148187
 20
0.85
 30
0.0
 11
34.52025148187
 21
0.85
 31
0.0
  0
LINE
  5
309
330
30
100
AcDbEntity
  8
1
100
AcDbLine
 10
34.52025148187
 20
0.85
 30
0.0
 11
34.46625148187
 21
0.85
 31
0.0
  0
LINE
  5
30A
330
30
100
AcDbEntity
  8
1
100
AcDbLine
 10
34.46625148187
 20
0.85
 30
0.0
 11
34.41225148187
 21
0.85
 31
0.0
  0
LINE
  5
30B
330
30
100
AcDbEntity
  8
1
100
AcDbLine
 10
34.41225148187
 20
0.85
 30
0.0
 11
34.35825148187
 21
0.85
 31
0.0
  0
LINE
  5
30C
330
30
100
AcDbEntity
  8
1
100
AcDbLine
 10
34.35825148187
 20
0.85
 30
0.0
 11
34.30425148187
 21
0.85
 31
0.0
  0
LINE
  5
30D
330
30
100
AcDbEntity
  8
1
100
AcDbLine
 10
34.30425148187
 20
0.85
 30
0.0
 11
34.25025148187
 21
0.85
 31
0.0
  0
LINE
  5
30E
330
30
100
AcDbEntity
  8
1
100
AcDbLine
 10
34.25025148187
 20
0.85
 30
0.0
 11
34.19625148187
 21
0.85
 31
0.0
  0
LINE
  5
30F
330
30
100
AcDbEntity
  8
1
100
AcDbLine
 10
34.19625148187
 20
0.85
 30
0.0
 11
34.14225148187
 21
0.85
 31
0.0
  0
LINE
  5
310
330
30
100
AcDbEntity
  8
1
100
AcDbLine
 10
34.14225148187
 20
0.85
 30
0.0
 11
34.08825148187
 21
0.85
 31
0.0
  0
LINE
  5
311
330
30
100
AcDbEntity
  8
1
100
AcDbLine
 10
34.08825148187
 20
0.85
 30
0.0
 11
34.03425148187
 21
0.85
 31
0.0
  0
LINE
  5
312
330
30
100
AcDbEntity
  8
1
100
AcDbLine
 10
34.03425148187
 20
0.85
 30
0.0
 11
33.98025148187
 21
0.85
 31
0.0
  0
LINE
  5
313
330
30
100
AcDbEntity
  8
1
100
AcDbLine
 10
33.98025148187
 20
0.85
 30
0.0
 11
33.92625148187
 21
0.85
 31
0.0
  0
LINE
  5
314
330
30
100
AcDbEntity
  8
1
100
AcDbLine
 10
33.92625148187
 20
0.85
 30
0.0
 11
33.87225148187
 21
0.85
 31
0.0
  0
LINE
  5
315
330
30
100
AcDbEntity
  8
1
100
AcDbLine
 10
33.87225148187
 20
0.85
 30
0.0
 11
33.81825148187
 21
0.85
 31
0.0
  0
LINE
  5
316
330
30
100
AcDbEntity
  8
1
100
AcDbLine
 10
33.81825148187
 20
0.85
 30
0.0
 11
33.76425148187
 21
0.85
 31
0.0
  0
LINE
  5
317
330
30
100
AcDbEntity
  8
1
100
AcDbLine
 10
33.76425148187
 20
0.85
 30
0.0
 11
33.71025148187
 21
0.85
 31
0.0
  0
LINE
  5
318
330
30
100
AcDbEntity
  8
1
100
AcDbLine
 10
33.71025148187
 20
0.85
 30
0.0
 11
33.65625148187
 21
0.85
 31
0.0
  0
LINE
  5
319
330
30
100
AcDbEntity
  8
1
100
AcDbLine
 10
33.65625148187
 20
0.85
 30
0.0
 11
33.60225148187
 21
0.85
 31
0.0
  0
LINE
  5
31A
330
30
100
AcDbEntity
  8
1
100
AcDbLine
 10
33.60225148187
 20
0.85
 30
0.0
 11
33.54825148187
 21
0.85
 31
0.0
  0
LINE
  5
31B
330
30
100
AcDbEntity
  8
1
100
AcDbLine
 10
33.54825148187
 20
0.85
 30
0.0
 11
33.49425148187
 21
0.85
 31
0.0
  0
LINE
  5
31C
330
30
100
AcDbEntity
  8
1
100
AcDbLine
 10
33.49425148187
 20
0.85
 30
0.0
 11
33.44025148187
 21
0.85
 31
0.0
  0
LINE
  5
31D
330
30
100
AcDbEntity
  8
1
100
AcDbLine
 10
33.44025148187
 20
0.85
 30
0.0
 11
33.38625148187
 21
0.85
 31
0.0
  0
LINE
  5
31E
330
30
100
AcDbEntity
  8
1
100
AcDbLine
 10
33.38625148187
 20
0.85
 30
0.0
 11
33.33225148187
 21
0.85
 31
0.0
  0
LINE
  5
31F
330
30
100
AcDbEntity
  8
1
100
AcDbLine
 10
33.33225148187
 20
0.85
 30
0.0
 11
33.27825148187
 21
0.85
 31
0.0
  0
LINE
  5
320
330
30
100
AcDbEntity
  8
1
100
AcDbLine
 10
33.27825148187
 20
0.85
 30
0.0
 11
33.22425148187
 21
0.85
 31
0.0
  0
LINE
  5
321
330
30
100
AcDbEntity
  8
1
100
AcDbLine
 10
33.22425148187
 20
0.85
 30
0.0
 11
33.17025148187
 21
0.85
 31
0.0
  0
LINE
  5
322
330
30
100
AcDbEntity
  8
1
100
AcDbLine
 10
33.17025148187
 20
0.85
 30
0.0
 11
33.11625148187
 21
0.85
 31
0.0
  0
LINE
  5
323
330
30
100
AcDbEntity
  8
1
100
AcDbLine
 10
33.11625148187
 20
0.85
 30
0.0
 11
33.06225148187
 21
0.85
 31
0.0
  0
LINE
  5
324
330
30
100
AcDbEntity
  8
1
100
AcDbLine
 10
33.06225148187
 20
0.85
 30
0.0
 11
33.00825148187
 21
0.85
 31
0.0
  0
LINE
  5
325
330
30
100
AcDbEntity
  8
1
100
AcDbLine
 10
33.00825148187
 20
0.85
 30
0.0
 11
32.95425148187
 21
0.85
 31
0.0
  0
LINE
  5
326
330
30
100
AcDbEntity
  8
1
100
AcDbLine
 10
32.95425148187
 20
0.85
 30
0.0
 11
32.90025148187
 21
0.85
 31
0.0
  0
LINE
  5
327
330
30
100
AcDbEntity
  8
1
100
AcDbLine
 10
32.90025148187
 20
0.85
 30
0.0
 11
32.84625148187
 21
0.85
 31
0.0
  0
LINE
  5
328
330
30
100
AcDbEntity
  8
1
100
AcDbLine
 10
32.84625148187
 20
0.85
 30
0.0
 11
32.79225148187
 21
0.85
 31
0.0
  0
LINE
  5
329
330
30
100
AcDbEntity
  8
1
100
AcDbLine
 10
32.79225148187
 20
0.85
 30
0.0
 11
32.73825148187
 21
0.85
 31
0.0
  0
LINE
  5
32A
330
30
100
AcDbEntity
  8
1
100
AcDbLine
 10
32.73825148187
 20
0.85
 30
0.0
 11
32.68425148187
 21
0.85
 31
0.0
  0
LINE
  5
32B
330
30
100
AcDbEntity
  8
1
100
AcDbLine
 10
32.68425148187
 20
0.85
 30
0.0
 11
32.63025148187
 21
0.85
 31
0.0
  0
LINE
  5
32C
330
30
100
AcDbEntity
  8
1
100
AcDbLine
 10
32.63025148187
 20
0.85
 30
0.0
 11
32.57625148187
 21
0.85
 31
0.0
  0
LINE
  5
32D
330
30
100
AcDbEntity
  8
1
100
AcDbLine
 10
32.57625148187
 20
0.85
 30
0.0
 11
32.52225148187
 21
0.85
 31
0.0
  0
LINE
  5
32E
330
30
100
AcDbEntity
  8
1
100
AcDbLine
 10
32.52225148187
 20
0.85
 30
0.0
 11
32.46825148187
 21
0.85
 31
0.0
  0
LINE
  5
32F
330
30
100
AcDbEntity
  8
1
100
AcDbLine
 10
32.46825148187
 20
0.85
 30
0.0
 11
32.41425148187
 21
0.85
 31
0.0
  0
LINE
  5
330
330
30
100
AcDbEntity
  8
1
100
AcDbLine
 10
32.41425148187
 20
0.85
 30
0.0
 11
32.36025148187
 21
0.85
 31
0.0
  0
LINE
  5
331
330
30
100
AcDbEntity
  8
1
100
AcDbLine
 10
32.36025148187
 20
0.85
 30
0.0
 11
32.30625148187
 21
0.85
 31
0.0
  0
LINE
  5
332
330
30
100
AcDbEntity
  8
1
100
AcDbLine
 10
32.30625148187
 20
0.85
 30
0.0
 11
32.25225148187
 21
0.85
 31
0.0
  0
LINE
  5
333
330
30
100
AcDbEntity
  8
1
100
AcDbLine
 10
32.25225148187
 20
0.85
 30
0.0
 11
32.19825148187
 21
0.85
 31
0.0
  0
LINE
  5
334
330
30
100
AcDbEntity
  8
1
100
AcDbLine
 10
32.19825148187
 20
0.85
 30
0.0
 11
32.14425148187
 21
0.85
 31
0.0
  0
LINE
  5
335
330
30
100
AcDbEntity
  8
1
100
AcDbLine
 10
32.14425148187
 20
0.85
 30
0.0
 11
32.09025148187
 21
0.85
 31
0.0
  0
LINE
  5
336
330
30
100
AcDbEntity
  8
1
100
AcDbLine
 10
32.09025148187
 20
0.85
 30
0.0
 11
32.03625148187
 21
0.85
 31
0.0
  0
LINE
  5
337
330
30
100
AcDbEntity
  8
1
100
AcDbLine
 10
32.03625148187
 20
0.85
 30
0.0
 11
31.98225148187
 21
0.85
 31
0.0
  0
LINE
  5
338
330
30
100
AcDbEntity
  8
1
100
AcDbLine
 10
31.98225148187
 20
0.85
 30
0.0
 11
31.92825148187
 21
0.85
 31
0.0
  0
LINE
  5
339
330
30
100
AcDbEntity
  8
1
100
AcDbLine
 10
31.92825148187
 20
0.85
 30
0.0
 11
31.87425148187
 21
0.85
 31
0.0
  0
LINE
  5
33A
330
30
100
AcDbEntity
  8
1
100
AcDbLine
 10
31.87425148187
 20
0.85
 30
0.0
 11
31.82025148187
 21
0.85
 31
0.0
  0
LINE
  5
33B
330
30
100
AcDbEntity
  8
1
100
AcDbLine
 10
31.82025148187
 20
0.85
 30
0.0
 11
31.76625148187
 21
0.85
 31
0.0
  0
LINE
  5
33C
330
30
100
AcDbEntity
  8
1
100
AcDbLine
 10
31.76625148187
 20
0.85
 30
0.0
 11
31.71225148187
 21
0.85
 31
0.0
  0
LINE
  5
33D
330
30
100
AcDbEntity
  8
1
100
AcDbLine
 10
31.71225148187
 20
0.85
 30
0.0
 11
31.65825148187
 21
0.85
 31
0.0
  0
LINE
  5
33E
330
30
100
AcDbEntity
  8
1
100
AcDbLine
 10
31.65825148187
 20
0.85
 30
0.0
 11
31.60425148187
 21
0.85
 31
0.0
  0
LINE
  5
33F
330
30
100
AcDbEntity
  8
1
100
AcDbLine
 10
31.60425148187
 20
0.85
 30
0.0
 11
31.55025148187
 21
0.85
 31
0.0
  0
LINE
  5
340
330
30
100
AcDbEntity
  8
1
100
AcDbLine
 10
31.55025148187
 20
0.85
 30
0.0
 11
31.49625148187
 21
0.85
 31
0.0
  0
LINE
  5
341
330
30
100
AcDbEntity
  8
1
100
AcDbLine
 10
31.453987871165
 20
0.85
 30
0.0
 11
31.453987871165
 21
-0.85
 31
0.0
  0
LINE
  5
342
330
30
100
AcDbEntity
  8
1
100
AcDbLine
 10
32.453987871165
 20
-0.85
 30
0.0
 11
32.453987871165
 21
0.85
 31
0.0
  0
LINE
  5
343
330
30
100
AcDbEntity
  8
1
100
AcDbLine
 10
32.453987871165
 20
0.85
 30
0.0
 11
32.453987871165
 21
-0.85
 31
0.0
  0
LINE
  5
344
330
30
100
AcDbEntity
  8
SK1
100
AcDbLine
 10
21.17425148187
 20
1.7905
 30
0.0
 11
1.953987871165
 21
1.7905
 31
0.0
  0
LINE
  5
345
330
30
100
AcDbEntity
  8
SK1
100
AcDbLine
 10
1.953987871165
 20
1.7905
 30
0.0
 11
0.0
 21
0.0
 31
0.0
  0
LINE
  5
346
330
30
100
AcDbEntity
  8
SK1
100
AcDbLine
 10
21.17425148187
 20
-1.7905
 30
0.0
 11
1.953987871165
 21
-1.7905
 31
0.0
  0
LINE
  5
347
330
30
100
AcDbEntity
  8
SK1
100
AcDbLine
 10
1.953987871165
 20
-1.7905
 30
0.0
 11
0.0
 21
0.0
 31
0.0
  0
LINE
  5
348
330
30
100
AcDbEntity
  8
SK1
100
AcDbLine
 10
1.953987871165
 20
1.7905
 30
0.0
 11
1.953987871165
 21
-1.7905
 31
0.0
  0
LINE
  5
349
330
30
100
AcDbEntity
  8
SK1
100
AcDbLine
 10
1.953987871165
 20
1.7905
 30
0.0
 11
1.953987871165
 21
-1.7905
 31
0.0
  0
LINE
  5
34A
330
30
100
AcDbEntity
  8
SK1
100
AcDbLine
 10
22.21435148187
 20
1.40688
 30
0.0
 11
22.58115148187
 21
1.0401
 31
0.0
  0
LINE
  5
34B
330
30
100
AcDbEntity
  8
SK1
100
AcDbLine
 10
21.70705148187
 20
1.66666
 30
0.0
 11
22.84095148187
 21
0.532833
 31
0.0
  0
LINE
  5
34C
330
30
100
AcDbEntity
  8
SK1
100
AcDbLine
 10
21.38965148187
 20
1.73657
 30
0.0
 11
22.91085148187
 21
0.215434
 31
0.0
  0
LINE
  5
34D
330
30
100
AcDbEntity
  8
SK1
100
AcDbLine
 10
21.17425148187
 20
1.70452
 30
0.0
 11
22.87875148187
 21
0.0
 31
0.0
  0
LINE
  5
34E
330
30
100
AcDbEntity
  8
SK1
100
AcDbLine
 10
21.17425148187
 20
1.45703
 30
0.0
 11
22.63125148187
 21
0.0
 31
0.0
  0
LINE
  5
34F
330
30
100
AcDbEntity
  8
SK1
100
AcDbLine
 10
21.17425148187
 20
1.20954
 30
0.0
 11
22.38375148187
 21
0.0
 31
0.0
  0
LINE
  5
350
330
30
100
AcDbEntity
  8
SK1
100
AcDbLine
 10
21.17425148187
 20
0.962054
 30
0.0
 11
22.13635148187
 21
0.0
 31
0.0
  0
LINE
  5
351
330
30
100
AcDbEntity
  8
SK1
100
AcDbLine
 10
21.17425148187
 20
0.714566
 30
0.0
 11
21.88885148187
 21
0.0
 31
0.0
  0
LINE
  5
352
330
30
100
AcDbEntity
  8
SK1
100
AcDbLine
 10
21.17425148187
 20
0.467079
 30
0.0
 11
21.64135148187
 21
0.0
 31
0.0
  0
LINE
  5
353
330
30
100
AcDbEntity
  8
SK1
100
AcDbLine
 10
21.17425148187
 20
0.219592
 30
0.0
 11
21.39385148187
 21
0.0
 31
0.0
  0
LINE
  5
354
330
30
100
AcDbEntity
  8
SK1
100
AcDbLine
 10
21.17425148187
 20
1.70452
 30
0.0
 11
21.21835148187
 21
1.74861
 31
0.0
  0
LINE
  5
355
330
30
100
AcDbEntity
  8
SK1
100
AcDbLine
 10
21.17425148187
 20
1.45703
 30
0.0
 11
21.44525148187
 21
1.72802
 31
0.0
  0
LINE
  5
356
330
30
100
AcDbEntity
  8
SK1
100
AcDbLine
 10
21.17425148187
 20
1.20954
 30
0.0
 11
21.64845148187
 21
1.6837
 31
0.0
  0
LINE
  5
357
330
30
100
AcDbEntity
  8
SK1
100
AcDbLine
 10
21.17425148187
 20
0.962054
 30
0.0
 11
21.83305148187
 21
1.62082
 31
0.0
  0
LINE
  5
358
330
30
100
AcDbEntity
  8
SK1
100
AcDbLine
 10
21.17425148187
 20
0.714566
 30
0.0
 11
22.00135148187
 21
1.54167
 31
0.0
  0
LINE
  5
359
330
30
100
AcDbEntity
  8
SK1
100
AcDbLine
 10
21.17425148187
 20
0.467079
 30
0.0
 11
22.15525148187
 21
1.44812
 31
0.0
  0
LINE
  5
35A
330
30
100
AcDbEntity
  8
SK1
100
AcDbLine
 10
21.17425148187
 20
0.219592
 30
0.0
 11
22.29685148187
 21
1.34216
 31
0.0
  0
LINE
  5
35B
330
30
100
AcDbEntity
  8
SK1
100
AcDbLine
 10
21.20215148187
 20
0.0
 30
0.0
 11
22.42505148187
 21
1.22288
 31
0.0
  0
LINE
  5
35C
330
30
100
AcDbEntity
  8
SK1
100
AcDbLine
 10
21.44965148187
 20
0.0
 30
0.0
 11
22.54125148187
 21
1.09157
 31
0.0
  0
LINE
  5
35D
330
30
100
AcDbEntity
  8
SK1
100
AcDbLine
 10
21.69715148187
 20
0.0
 30
0.0
 11
22.64495148187
 21
0.947822
 31
0.0
  0
LINE
  5
35E
330
30
100
AcDbEntity
  8
SK1
100
AcDbLine
 10
21.94465148187
 20
0.0
 30
0.0
 11
22.73475148187
 21
0.790145
 31
0.0
  0
LINE
  5
35F
330
30
100
AcDbEntity
  8
SK1
100
AcDbLine
 10
22.19205148187
 20
0.0
 30
0.0
 11
22.81065148187
 21
0.618517
 31
0.0
  0
LINE
  5
360
330
30
100
AcDbEntity
  8
SK1
100
AcDbLine
 10
22.43955148187
 20
0.0
 30
0.0
 11
22.87025148187
 21
0.430696
 31
0.0
  0
LINE
  5
361
330
30
100
AcDbEntity
  8
SK1
100
AcDbLine
 10
22.68705148187
 20
0.0
 30
0.0
 11
22.90985148187
 21
0.222827
 31
0.0
  0
LINE
  5
362
330
30
100
AcDbEntity
  8
SK1
100
AcDbLine
 10
21.17425148187
 20
0.0
 30
0.0
 11
21.17425148187
 21
1.75
 31
0.0
  0
LINE
  5
363
330
30
100
AcDbEntity
  8
SK1
100
AcDbLine
 10
21.17425148187
 20
0.0
 30
0.0
 11
22.92425148187
 21
0.0
 31
0.0
  0
ARC
  5
364
330
30
100
AcDbEntity
  8
SK1
100
AcDbCircle
 10
21.17425148187
 20
0.0
 30
0.0
 40
1.75
100
AcDbArc
 50
0.0
 51
90.0
  0
ARC
  5
365
330
30
100
AcDbEntity
  8
SK1
100
AcDbCircle
 10
21.17425148187
 20
0.0
 30
0.0
 40
1.75
100
AcDbArc
 50
90.0
 51
180.0
  0
LINE
  5
366
330
30
100
AcDbEntity
  8
SK1
100
AcDbLine
 10
21.14635148187
 20
0.0
 30
0.0
 11
21.17425148187
 21
-0.0278958
 31
0.0
  0
LINE
  5
367
330
30
100
AcDbEntity
  8
SK1
100
AcDbLine
 10
20.89885148187
 20
0.0
 30
0.0
 11
21.17425148187
 21
-0.275383
 31
0.0
  0
LINE
  5
368
330
30
100
AcDbEntity
  8
SK1
100
AcDbLine
 10
20.65135148187
 20
0.0
 30
0.0
 11
21.17425148187
 21
-0.522871
 31
0.0
  0
LINE
  5
369
330
30
100
AcDbEntity
  8
SK1
100
AcDbLine
 10
20.40385148187
 20
0.0
 30
0.0
 11
21.17425148187
 21
-0.770358
 31
0.0
  0
LINE
  5
36A
330
30
100
AcDbEntity
  8
SK1
100
AcDbLine
 10
20.15645148187
 20
0.0
 30
0.0
 11
21.17425148187
 21
-1.01785
 31
0.0
  0
LINE
  5
36B
330
30
100
AcDbEntity
  8
SK1
100
AcDbLine
 10
19.90895148187
 20
0.0
 30
0.0
 11
21.17425148187
 21
-1.26533
 31
0.0
  0
LINE
  5
36C
330
30
100
AcDbEntity
  8
SK1
100
AcDbLine
 10
19.66145148187
 20
0.0
 30
0.0
 11
21.17425148187
 21
-1.51282
 31
0.0
  0
LINE
  5
36D
330
30
100
AcDbEntity
  8
SK1
100
AcDbLine
 10
19.42455148187
 20
-0.0106419
 30
0.0
 11
21.16365148187
 21
-1.74967
 31
0.0
  0
LINE
  5
36E
330
30
100
AcDbEntity
  8
SK1
100
AcDbLine
 10
19.44785148187
 20
-0.281429
 30
0.0
 11
20.89285148187
 21
-1.72637
 31
0.0
  0
LINE
  5
36F
330
30
100
AcDbEntity
  8
SK1
100
AcDbLine
 10
19.53815148187
 20
-0.619147
 30
0.0
 11
20.55515148187
 21
-1.63613
 31
0.0
  0
LINE
  5
370
330
30
100
AcDbEntity
  8
SK1
100
AcDbLine
 10
19.42565148187
 20
-0.0440984
 30
0.0
 11
19.46975148187
 21
0.0
 31
0.0
  0
LINE
  5
371
330
30
100
AcDbEntity
  8
SK1
100
AcDbLine
 10
19.44625148187
 20
-0.270991
 30
0.0
 11
19.71725148187
 21
0.0
 31
0.0
  0
LINE
  5
372
330
30
100
AcDbEntity
  8
SK1
100
AcDbLine
 10
19.49055148187
 20
-0.474162
 30
0.0
 11
19.96475148187
 21
0.0
 31
0.0
  0
LINE
  5
373
330
30
100
AcDbEntity
  8
SK1
100
AcDbLine
 10
19.55345148187
 20
-0.658762
 30
0.0
 11
20.21215148187
 21
0.0
 31
0.0
  0
LINE
  5
374
330
30
100
AcDbEntity
  8
SK1
100
AcDbLine
 10
19.63255148187
 20
-0.827105
 30
0.0
 11
20.45965148187
 21
0.0
 31
0.0
  0
LINE
  5
375
330
30
100
AcDbEntity
  8
SK1
100
AcDbLine
 10
19.72615148187
 20
-0.981039
 30
0.0
 11
20.70715148187
 21
0.0
 31
0.0
  0
LINE
  5
376
330
30
100
AcDbEntity
  8
SK1
100
AcDbLine
 10
19.83205148187
 20
-1.12257
 30
0.0
 11
20.95465148187
 21
0.0
 31
0.0
  0
LINE
  5
377
330
30
100
AcDbEntity
  8
SK1
100
AcDbLine
 10
19.95135148187
 20
-1.25077
 30
0.0
 11
21.17425148187
 21
-0.0278958
 31
0.0
  0
LINE
  5
378
330
30
100
AcDbEntity
  8
SK1
100
AcDbLine
 10
20.08265148187
 20
-1.36695
 30
0.0
 11
21.17425148187
 21
-0.275383
 31
0.0
  0
LINE
  5
379
330
30
100
AcDbEntity
  8
SK1
100
AcDbLine
 10
20.22645148187
 20
-1.47069
 30
0.0
 11
21.17425148187
 21
-0.522871
 31
0.0
  0
LINE
  5
37A
330
30
100
AcDbEntity
  8
SK1
100
AcDbLine
 10
20.38415148187
 20
-1.5605
 30
0.0
 11
21.17425148187
 21
-0.770358
 31
0.0
  0
LINE
  5
37B
330
30
100
AcDbEntity
  8
SK1
100
AcDbLine
 10
20.55575148187
 20
-1.63636
 30
0.0
 11
21.17425148187
 21
-1.01785
 31
0.0
  0
LINE
  5
37C
330
30
100
AcDbEntity
  8
SK1
100
AcDbLine
 10
20.74355148187
 20
-1.69603
 30
0.0
 11
21.17425148187
 21
-1.26533
 31
0.0
  0
LINE
  5
37D
330
30
100
AcDbEntity
  8
SK1
100
AcDbLine
 10
20.95145148187
 20
-1.73565
 30
0.0
 11
21.17425148187
 21
-1.51282
 31
0.0
  0
LINE
  5
37E
330
30
100
AcDbEntity
  8
SK1
100
AcDbLine
 10
21.17425148187
 20
0.0
 30
0.0
 11
19.42425148187
 21
0.0
 31
0.0
  0
LINE
  5
37F
330
30
100
AcDbEntity
  8
SK1
100
AcDbLine
 10
21.17425148187
 20
-1.75
 30
0.0
 11
21.17425148187
 21
0.0
 31
0.0
  0
ARC
  5
380
330
30
100
AcDbEntity
  8
SK1
100
AcDbCircle
 10
21.17425148187
 20
0.0
 30
0.0
 40
1.75
100
AcDbArc
 50
180.0
 51
270.0
  0
ARC
  5
381
330
30
100
AcDbEntity
  8
SK1
100
AcDbCircle
 10
21.17425148187
 20
0.0
 30
0.0
 40
1.75
100
AcDbArc
 50
270.0
 51
0.0
  0
LINE
  5
3E2
330
30
100
AcDbEntity
  8
NOCUT
100
AcDbLine
 10
32.453987871165
 20
0.0
 30
0.0
 11
32.453987871165
 21
0.85
 31
0.0
  0
LINE
  5
3E3
330
30
100
AcDbEntity
  8
NOCUT
100
AcDbLine
 10
32.453987871165
 20
0.85
 30
0.0
 11
31.453987871165
 21
0.85
 31
0.0
  0
LINE
  5
3E4
330
30
100
AcDbEntity
  8
NOCUT
100
AcDbLine
 10
31.453987871165
 20
0.85
 30
0.0
 11
26.4540543535
 21
1.7905
 31
0.0
  0
LINE
  5
3E5
330
30
100
AcDbEntity
  8
NOCUT
100
AcDbLine
 10
26.4540543535
 20
1.7905
 30
0.0
 11
21.17425148187
 21
1.7905
 31
0.0
  0
LINE
  5
3E6
330
30
100
AcDbEntity
  8
NOCUT
100
AcDbLine
 10
21.17425148187
 20
1.7905
 30
0.0
 11
21.17425148187
 21
0.0
 31
0.0
  0
LINE
  5
3E7
330
30
100
AcDbEntity
  8
NOCUT
100
AcDbLine
 10
21.17425148187
 20
0.0
 30
0.0
 11
32.453987871165
 21
0.0
 31
0.0
  0
LINE
  5
3E8
330
30
100
AcDbEntity
  8
CUT
100
AcDbLine
 10
42.67425148187
 20
0.0
 30
0.0
 11
41.953987871165
 21
0.66
 31
0.0
  0
LINE
  5
3E9
330
30
100
AcDbEntity
  8
CUT
100
AcDbLine
 10
41.953987871165
 20
0.66
 30
0.0
 11
40.553987871165
 21
0.85
 31
0.0
  0
LINE
  5
3EA
330
30
100
AcDbEntity
  8
CUT
100
AcDbLine
 10
40.553987871165
 20
0.85
 30
0.0
 11
32.453987871165
 21
0.85
 31
0.0
  0
LINE
  5
3EB
330
30
100
AcDbEntity
  8
CUT
100
AcDbLine
 10
32.453987871165
 20
0.85
 30
0.0
 11
32.453987871165
 21
0.0
 31
0.0
  0
LINE
  5
3EC
330
30
100
AcDbEntity
  8
CUT
100
AcDbLine
 10
32.453987871165
 20
0.0
 30
0.0
 11
42.67425148187
 21
0.0
 31
0.0
  0
LINE
  5
3ED
330
30
100
AcDbEntity
  8
4
100
AcDbLine
 10
21.17425148187
 20
0.0
 30
0.0
 11
42.67425148187
 21
0.0
 31
0.0
  0
LINE
  5
3EE
330
30
100
AcDbEntity
  8
SK4
100
AcDbLine
 10
-1.0
 20
0.0
 30
0.0
 11
43.67425148187
 21
0.0
 31
0.0
  0
LINE
  5
3EF
330
30
100
AcDbEntity
  8
1
100
AcDbLine
 10
41.950303660638
 20
0.6605
 30
0.0
 11
32.453987871165
 21
0.6605
 31
0.0
  0
LINE
  5
3F0
330
30
100
AcDbEntity
  8
1
100
AcDbLine
 10
41.666509415448
 20
0.699014933276
 30
0.0
 11
41.644272808354
 21
0.6605
 31
0.0
  0
LINE
  5
3F1
330
30
100
AcDbEntity
  8
1
100
AcDbLine
 10
41.644272808354
 20
0.6605
 30
0.0
 11
41.624130339759
 21
0.6605
 31
0.0
  0
LINE
  5
3F2
330
30
100
AcDbEntity
  8
1
100
AcDbLine
 10
41.624130339759
 20
0.6605
 30
0.0
 11
41.603987871165
 21
0.6605
 31
0.0
  0
LINE
  5
3F3
330
30
100
AcDbEntity
  8
1
100
AcDbLine
 10
41.603987871165
 20
0.6605
 30
0.0
 11
41.57454545764
 21
0.711495756121
 31
0.0
  0
LINE
  5
3F4
330
30
100
AcDbEntity
  8
1
100
AcDbLine
 10
41.341940879057
 20
0.743063520357
 30
0.0
 11
41.294272808354
 21
0.6605
 31
0.0
  0
LINE
  5
3F5
330
30
100
AcDbEntity
  8
1
100
AcDbLine
 10
41.294272808354
 20
0.6605
 30
0.0
 11
41.274130339759
 21
0.6605
 31
0.0
  0
LINE
  5
3F6
330
30
100
AcDbEntity
  8
1
100
AcDbLine
 10
41.274130339759
 20
0.6605
 30
0.0
 11
41.253987871165
 21
0.6605
 31
0.0
  0
LINE
  5
3F7
330
30
100
AcDbEntity
  8
1
100
AcDbLine
 10
41.253987871165
 20
0.6605
 30
0.0
 11
41.194789826951
 21
0.763034020286
 31
0.0
  0
LINE
  5
3F8
330
30
100
AcDbEntity
  8
1
100
AcDbLine
 10
41.017372342666
 20
0.787112107439
 30
0.0
 11
40.944272808354
 21
0.6605
 31
0.0
  0
LINE
  5
3F9
330
30
100
AcDbEntity
  8
1
100
AcDbLine
 10
40.944272808354
 20
0.6605
 30
0.0
 11
40.924130339759
 21
0.6605
 31
0.0
  0
LINE
  5
3FA
330
30
100
AcDbEntity
  8
1
100
AcDbLine
 10
40.924130339759
 20
0.6605
 30
0.0
 11
40.903987871165
 21
0.6605
 31
0.0
  0
LINE
  5
3FB
330
30
100
AcDbEntity
  8
1
100
AcDbLine
 10
40.903987871165
 20
0.6605
 30
0.0
 11
40.815034196262
 21
0.814572284451
 31
0.0
  0
LINE
  5
3FC
330
30
100
AcDbEntity
  8
1
100
AcDbLine
 10
40.692803806275
 20
0.831160694521
 30
0.0
 11
40.594272808354
 21
0.6605
 31
0.0
  0
LINE
  5
3FD
330
30
100
AcDbEntity
  8
1
100
AcDbLine
 10
40.594272808354
 20
0.6605
 30
0.0
 11
40.574130339759
 21
0.6605
 31
0.0
  0
LINE
  5
3FE
330
30
100
AcDbEntity
  8
1
100
AcDbLine
 10
40.574130339759
 20
0.6605
 30
0.0
 11
40.553987871165
 21
0.6605
 31
0.0
  0
LINE
  5
3FF
330
30
100
AcDbEntity
  8
1
100
AcDbLine
 10
40.553987871165
 20
0.6605
 30
0.0
 11
40.444579995153
 21
0.85
 31
0.0
  0
LINE
  5
400
330
30
100
AcDbEntity
  8
1
100
AcDbLine
 10
40.444579995153
 20
0.85
 30
0.0
 11
40.399130339759
 21
0.85
 31
0.0
  0
LINE
  5
401
330
30
100
AcDbEntity
  8
1
100
AcDbLine
 10
40.399130339759
 20
0.85
 30
0.0
 11
40.353680684365
 21
0.85
 31
0.0
  0
LINE
  5
402
330
30
100
AcDbEntity
  8
1
100
AcDbLine
 10
40.353680684365
 20
0.85
 30
0.0
 11
40.244272808354
 21
0.6605
 31
0.0
  0
LINE
  5
403
330
30
100
AcDbEntity
  8
1
100
AcDbLine
 10
40.244272808354
 20
0.6605
 30
0.0
 11
40.224130339759
 21
0.6605
 31
0.0
  0
LINE
  5
404
330
30
100
AcDbEntity
  8
1
100
AcDbLine
 10
40.224130339759
 20
0.6605
 30
0.0
 11
40.203987871165
 21
0.6605
 31
0.0
  0
LINE
  5
405
330
30
100
AcDbEntity
  8
1
100
AcDbLine
 10
40.203987871165
 20
0.6605
 30
0.0
 11
40.094579995153
 21
0.85
 31
0.0
  0
LINE
  5
406
330
30
100
AcDbEntity
  8
1
100
AcDbLine
 10
40.094579995153
 20
0.85
 30
0.0
 11
40.049130339759
 21
0.85
 31
0.0
  0
LINE
  5
407
330
30
100
AcDbEntity
  8
1
100
AcDbLine
 10
40.049130339759
 20
0.85
 30
0.0
 11
40.003680684365
 21
0.85
 31
0.0
  0
LINE
  5
408
330
30
100
AcDbEntity
  8
1
100
AcDbLine
 10
40.003680684365
 20
0.85
 30
0.0
 11
39.894272808354
 21
0.6605
 31
0.0
  0
LINE
  5
409
330
30
100
AcDbEntity
  8
1
100
AcDbLine
 10
39.894272808354
 20
0.6605
 30
0.0
 11
39.874130339759
 21
0.6605
 31
0.0
  0
LINE
  5
40A
330
30
100
AcDbEntity
  8
1
100
AcDbLine
 10
39.874130339759
 20
0.6605
 30
0.0
 11
39.853987871165
 21
0.6605
 31
0.0
  0
LINE
  5
40B
330
30
100
AcDbEntity
  8
1
100
AcDbLine
 10
39.853987871165
 20
0.6605
 30
0.0
 11
39.744579995153
 21
0.85
 31
0.0
  0
LINE
  5
40C
330
30
100
AcDbEntity
  8
1
100
AcDbLine
 10
39.744579995153
 20
0.85
 30
0.0
 11
39.699130339759
 21
0.85
 31
0.0
  0
LINE
  5
40D
330
30
100
AcDbEntity
  8
1
100
AcDbLine
 10
39.699130339759
 20
0.85
 30
0.0
 11
39.653680684365
 21
0.85
 31
0.0
  0
LINE
  5
40E
330
30
100
AcDbEntity
  8
1
100
AcDbLine
 10
39.653680684365
 20
0.85
 30
0.0
 11
39.544272808354
 21
0.6605
 31
0.0
  0
LINE
  5
40F
330
30
100
AcDbEntity
  8
1
100
AcDbLine
 10
39.544272808354
 20
0.6605
 30
0.0
 11
39.524130339759
 21
0.6605
 31
0.0
  0
LINE
  5
410
330
30
100
AcDbEntity
  8
1
100
AcDbLine
 10
39.524130339759
 20
0.6605
 30
0.0
 11
39.503987871165
 21
0.6605
 31
0.0
  0
LINE
  5
411
330
30
100
AcDbEntity
  8
1
100
AcDbLine
 10
39.503987871165
 20
0.6605
 30
0.0
 11
39.394579995153
 21
0.85
 31
0.0
  0
LINE
  5
412
330
30
100
AcDbEntity
  8
1
100
AcDbLine
 10
39.394579995153
 20
0.85
 30
0.0
 11
39.349130339759
 21
0.85
 31
0.0
  0
LINE
  5
413
330
30
100
AcDbEntity
  8
1
100
AcDbLine
 10
39.349130339759
 20
0.85
 30
0.0
 11
39.303680684365
 21
0.85
 31
0.0
  0
LINE
  5
414
330
30
100
AcDbEntity
  8
1
100
AcDbLine
 10
39.303680684365
 20
0.85
 30
0.0
 11
39.194272808354
 21
0.6605
 31
0.0
  0
LINE
  5
415
330
30
100
AcDbEntity
  8
1
100
AcDbLine
 10
39.194272808354
 20
0.6605
 30
0.0
 11
39.174130339759
 21
0.6605
 31
0.0
  0
LINE
  5
416
330
30
100
AcDbEntity
  8
1
100
AcDbLine
 10
39.174130339759
 20
0.6605
 30
0.0
 11
39.153987871165
 21
0.6605
 31
0.0
  0
LINE
  5
417
330
30
100
AcDbEntity
  8
1
100
AcDbLine
 10
39.153987871165
 20
0.6605
 30
0.0
 11
39.044579995153
 21
0.85
 31
0.0
  0
LINE
  5
418
330
30
100
AcDbEntity
  8
1
100
AcDbLine
 10
39.044579995153
 20
0.85
 30
0.0
 11
38.999130339759
 21
0.85
 31
0.0
  0
LINE
  5
419
330
30
100
AcDbEntity
  8
1
100
AcDbLine
 10
38.999130339759
 20
0.85
 30
0.0
 11
38.953680684365
 21
0.85
 31
0.0
  0
LINE
  5
41A
330
30
100
AcDbEntity
  8
1
100
AcDbLine
 10
38.953680684365
 20
0.85
 30
0.0
 11
38.844272808354
 21
0.6605
 31
0.0
  0
LINE
  5
41B
330
30
100
AcDbEntity
  8
1
100
AcDbLine
 10
38.844272808354
 20
0.6605
 30
0.0
 11
38.824130339759
 21
0.6605
 31
0.0
  0
LINE
  5
41C
330
30
100
AcDbEntity
  8
1
100
AcDbLine
 10
38.824130339759
 20
0.6605
 30
0.0
 11
38.803987871165
 21
0.6605
 31
0.0
  0
LINE
  5
41D
330
30
100
AcDbEntity
  8
1
100
AcDbLine
 10
38.803987871165
 20
0.6605
 30
0.0
 11
38.694579995153
 21
0.85
 31
0.0
  0
LINE
  5
41E
330
30
100
AcDbEntity
  8
1
100
AcDbLine
 10
38.694579995153
 20
0.85
 30
0.0
 11
38.649130339759
 21
0.85
 31
0.0
  0
LINE
  5
41F
330
30
100
AcDbEntity
  8
1
100
AcDbLine
 10
38.649130339759
 20
0.85
 30
0.0
 11
38.603680684365
 21
0.85
 31
0.0
  0
LINE
  5
420
330
30
100
AcDbEntity
  8
1
100
AcDbLine
 10
38.603680684365
 20
0.85
 30
0.0
 11
38.494272808354
 21
0.6605
 31
0.0
  0
LINE
  5
421
330
30
100
AcDbEntity
  8
1
100
AcDbLine
 10
38.494272808354
 20
0.6605
 30
0.0
 11
38.474130339759
 21
0.6605
 31
0.0
  0
LINE
  5
422
330
30
100
AcDbEntity
  8
1
100
AcDbLine
 10
38.474130339759
 20
0.6605
 30
0.0
 11
38.453987871165
 21
0.6605
 31
0.0
  0
LINE
  5
423
330
30
100
AcDbEntity
  8
1
100
AcDbLine
 10
38.453987871165
 20
0.6605
 30
0.0
 11
38.344579995153
 21
0.85
 31
0.0
  0
LINE
  5
424
330
30
100
AcDbEntity
  8
1
100
AcDbLine
 10
38.344579995153
 20
0.85
 30
0.0
 11
38.299130339759
 21
0.85
 31
0.0
  0
LINE
  5
425
330
30
100
AcDbEntity
  8
1
100
AcDbLine
 10
38.299130339759
 20
0.85
 30
0.0
 11
38.253680684365
 21
0.85
 31
0.0
  0
LINE
  5
426
330
30
100
AcDbEntity
  8
1
100
AcDbLine
 10
38.253680684365
 20
0.85
 30
0.0
 11
38.144272808354
 21
0.6605
 31
0.0
  0
LINE
  5
427
330
30
100
AcDbEntity
  8
1
100
AcDbLine
 10
38.144272808354
 20
0.6605
 30
0.0
 11
38.124130339759
 21
0.6605
 31
0.0
  0
LINE
  5
428
330
30
100
AcDbEntity
  8
1
100
AcDbLine
 10
38.124130339759
 20
0.6605
 30
0.0
 11
38.103987871165
 21
0.6605
 31
0.0
  0
LINE
  5
429
330
30
100
AcDbEntity
  8
1
100
AcDbLine
 10
38.103987871165
 20
0.6605
 30
0.0
 11
37.994579995153
 21
0.85
 31
0.0
  0
LINE
  5
42A
330
30
100
AcDbEntity
  8
1
100
AcDbLine
 10
37.994579995153
 20
0.85
 30
0.0
 11
37.949130339759
 21
0.85
 31
0.0
  0
LINE
  5
42B
330
30
100
AcDbEntity
  8
1
100
AcDbLine
 10
37.949130339759
 20
0.85
 30
0.0
 11
37.903680684365
 21
0.85
 31
0.0
  0
LINE
  5
42C
330
30
100
AcDbEntity
  8
1
100
AcDbLine
 10
37.903680684365
 20
0.85
 30
0.0
 11
37.794272808354
 21
0.6605
 31
0.0
  0
LINE
  5
42D
330
30
100
AcDbEntity
  8
1
100
AcDbLine
 10
37.794272808354
 20
0.6605
 30
0.0
 11
37.774130339759
 21
0.6605
 31
0.0
  0
LINE
  5
42E
330
30
100
AcDbEntity
  8
1
100
AcDbLine
 10
37.774130339759
 20
0.6605
 30
0.0
 11
37.753987871165
 21
0.6605
 31
0.0
  0
LINE
  5
42F
330
30
100
AcDbEntity
  8
1
100
AcDbLine
 10
37.753987871165
 20
0.6605
 30
0.0
 11
37.644579995153
 21
0.85
 31
0.0
  0
LINE
  5
430
330
30
100
AcDbEntity
  8
1
100
AcDbLine
 10
37.644579995153
 20
0.85
 30
0.0
 11
37.599130339759
 21
0.85
 31
0.0
  0
LINE
  5
431
330
30
100
AcDbEntity
  8
1
100
AcDbLine
 10
37.599130339759
 20
0.85
 30
0.0
 11
37.553680684365
 21
0.85
 31
0.0
  0
LINE
  5
432
330
30
100
AcDbEntity
  8
1
100
AcDbLine
 10
37.553680684365
 20
0.85
 30
0.0
 11
37.444272808354
 21
0.6605
 31
0.0
  0
LINE
  5
433
330
30
100
AcDbEntity
  8
1
100
AcDbLine
 10
37.444272808354
 20
0.6605
 30
0.0
 11
37.424130339759
 21
0.6605
 31
0.0
  0
LINE
  5
434
330
30
100
AcDbEntity
  8
1
100
AcDbLine
 10
37.424130339759
 20
0.6605
 30
0.0
 11
37.403987871165
 21
0.6605
 31
0.0
  0
LINE
  5
435
330
30
100
AcDbEntity
  8
1
100
AcDbLine
 10
37.403987871165
 20
0.6605
 30
0.0
 11
37.294579995153
 21
0.85
 31
0.0
  0
LINE
  5
436
330
30
100
AcDbEntity
  8
1
100
AcDbLine
 10
37.294579995153
 20
0.85
 30
0.0
 11
37.249130339759
 21
0.85
 31
0.0
  0
LINE
  5
437
330
30
100
AcDbEntity
  8
1
100
AcDbLine
 10
37.249130339759
 20
0.85
 30
0.0
 11
37.203680684365
 21
0.85
 31
0.0
  0
LINE
  5
438
330
30
100
AcDbEntity
  8
1
100
AcDbLine
 10
37.203680684365
 20
0.85
 30
0.0
 11
37.094272808354
 21
0.6605
 31
0.0
  0
LINE
  5
439
330
30
100
AcDbEntity
  8
1
100
AcDbLine
 10
37.094272808354
 20
0.6605
 30
0.0
 11
37.074130339759
 21
0.6605
 31
0.0
  0
LINE
  5
43A
330
30
100
AcDbEntity
  8
1
100
AcDbLine
 10
37.074130339759
 20
0.6605
 30
0.0
 11
37.053987871165
 21
0.6605
 31
0.0
  0
LINE
  5
43B
330
30
100
AcDbEntity
  8
1
100
AcDbLine
 10
37.053987871165
 20
0.6605
 30
0.0
 11
36.944579995153
 21
0.85
 31
0.0
  0
LINE
  5
43C
330
30
100
AcDbEntity
  8
1
100
AcDbLine
 10
36.944579995153
 20
0.85
 30
0.0
 11
36.899130339759
 21
0.85
 31
0.0
  0
LINE
  5
43D
330
30
100
AcDbEntity
  8
1
100
AcDbLine
 10
36.899130339759
 20
0.85
 30
0.0
 11
36.853680684365
 21
0.85
 31
0.0
  0
LINE
  5
43E
330
30
100
AcDbEntity
  8
1
100
AcDbLine
 10
36.853680684365
 20
0.85
 30
0.0
 11
36.744272808354
 21
0.6605
 31
0.0
  0
LINE
  5
43F
330
30
100
AcDbEntity
  8
1
100
AcDbLine
 10
36.744272808354
 20
0.6605
 30
0.0
 11
36.724130339759
 21
0.6605
 31
0.0
  0
LINE
  5
440
330
30
100
AcDbEntity
  8
1
100
AcDbLine
 10
36.724130339759
 20
0.6605
 30
0.0
 11
36.703987871165
 21
0.6605
 31
0.0
  0
LINE
  5
441
330
30
100
AcDbEntity
  8
1
100
AcDbLine
 10
36.703987871165
 20
0.6605
 30
0.0
 11
36.594579995153
 21
0.85
 31
0.0
  0
LINE
  5
442
330
30
100
AcDbEntity
  8
1
100
AcDbLine
 10
36.594579995153
 20
0.85
 30
0.0
 11
36.549130339759
 21
0.85
 31
0.0
  0
LINE
  5
443
330
30
100
AcDbEntity
  8
1
100
AcDbLine
 10
36.549130339759
 20
0.85
 30
0.0
 11
36.503680684365
 21
0.85
 31
0.0
  0
LINE
  5
444
330
30
100
AcDbEntity
  8
1
100
AcDbLine
 10
36.503680684365
 20
0.85
 30
0.0
 11
36.394272808354
 21
0.6605
 31
0.0
  0
LINE
  5
445
330
30
100
AcDbEntity
  8
1
100
AcDbLine
 10
36.394272808354
 20
0.6605
 30
0.0
 11
36.374130339759
 21
0.6605
 31
0.0
  0
LINE
  5
446
330
30
100
AcDbEntity
  8
1
100
AcDbLine
 10
36.374130339759
 20
0.6605
 30
0.0
 11
36.353987871165
 21
0.6605
 31
0.0
  0
LINE
  5
447
330
30
100
AcDbEntity
  8
1
100
AcDbLine
 10
36.353987871165
 20
0.6605
 30
0.0
 11
36.244579995153
 21
0.85
 31
0.0
  0
LINE
  5
448
330
30
100
AcDbEntity
  8
1
100
AcDbLine
 10
36.244579995153
 20
0.85
 30
0.0
 11
36.199130339759
 21
0.85
 31
0.0
  0
LINE
  5
449
330
30
100
AcDbEntity
  8
1
100
AcDbLine
 10
36.199130339759
 20
0.85
 30
0.0
 11
36.153680684365
 21
0.85
 31
0.0
  0
LINE
  5
44A
330
30
100
AcDbEntity
  8
1
100
AcDbLine
 10
36.153680684365
 20
0.85
 30
0.0
 11
36.044272808354
 21
0.6605
 31
0.0
  0
LINE
  5
44B
330
30
100
AcDbEntity
  8
1
100
AcDbLine
 10
36.044272808354
 20
0.6605
 30
0.0
 11
36.024130339759
 21
0.6605
 31
0.0
  0
LINE
  5
44C
330
30
100
AcDbEntity
  8
1
100
AcDbLine
 10
36.024130339759
 20
0.6605
 30
0.0
 11
36.003987871165
 21
0.6605
 31
0.0
  0
LINE
  5
44D
330
30
100
AcDbEntity
  8
1
100
AcDbLine
 10
36.003987871165
 20
0.6605
 30
0.0
 11
35.894579995153
 21
0.85
 31
0.0
  0
LINE
  5
44E
330
30
100
AcDbEntity
  8
1
100
AcDbLine
 10
35.894579995153
 20
0.85
 30
0.0
 11
35.849130339759
 21
0.85
 31
0.0
  0
LINE
  5
44F
330
30
100
AcDbEntity
  8
1
100
AcDbLine
 10
35.849130339759
 20
0.85
 30
0.0
 11
35.803680684365
 21
0.85
 31
0.0
  0
LINE
  5
450
330
30
100
AcDbEntity
  8
1
100
AcDbLine
 10
35.803680684365
 20
0.85
 30
0.0
 11
35.694272808354
 21
0.6605
 31
0.0
  0
LINE
  5
451
330
30
100
AcDbEntity
  8
1
100
AcDbLine
 10
35.694272808354
 20
0.6605
 30
0.0
 11
35.674130339759
 21
0.6605
 31
0.0
  0
LINE
  5
452
330
30
100
AcDbEntity
  8
1
100
AcDbLine
 10
35.674130339759
 20
0.6605
 30
0.0
 11
35.653987871165
 21
0.6605
 31
0.0
  0
LINE
  5
453
330
30
100
AcDbEntity
  8
1
100
AcDbLine
 10
35.653987871165
 20
0.6605
 30
0.0
 11
35.544579995153
 21
0.85
 31
0.0
  0
LINE
  5
454
330
30
100
AcDbEntity
  8
1
100
AcDbLine
 10
35.544579995153
 20
0.85
 30
0.0
 11
35.499130339759
 21
0.85
 31
0.0
  0
LINE
  5
455
330
30
100
AcDbEntity
  8
1
100
AcDbLine
 10
35.499130339759
 20
0.85
 30
0.0
 11
35.453680684365
 21
0.85
 31
0.0
  0
LINE
  5
456
330
30
100
AcDbEntity
  8
1
100
AcDbLine
 10
35.453680684365
 20
0.85
 30
0.0
 11
35.344272808354
 21
0.6605
 31
0.0
  0
LINE
  5
457
330
30
100
AcDbEntity
  8
1
100
AcDbLine
 10
35.344272808354
 20
0.6605
 30
0.0
 11
35.324130339759
 21
0.6605
 31
0.0
  0
LINE
  5
458
330
30
100
AcDbEntity
  8
1
100
AcDbLine
 10
35.324130339759
 20
0.6605
 30
0.0
 11
35.303987871165
 21
0.6605
 31
0.0
  0
LINE
  5
459
330
30
100
AcDbEntity
  8
1
100
AcDbLine
 10
35.303987871165
 20
0.6605
 30
0.0
 11
35.194579995153
 21
0.85
 31
0.0
  0
LINE
  5
45A
330
30
100
AcDbEntity
  8
1
100
AcDbLine
 10
35.194579995153
 20
0.85
 30
0.0
 11
35.149130339759
 21
0.85
 31
0.0
  0
LINE
  5
45B
330
30
100
AcDbEntity
  8
1
100
AcDbLine
 10
35.149130339759
 20
0.85
 30
0.0
 11
35.103680684365
 21
0.85
 31
0.0
  0
LINE
  5
45C
330
30
100
AcDbEntity
  8
1
100
AcDbLine
 10
35.103680684365
 20
0.85
 30
0.0
 11
34.994272808354
 21
0.6605
 31
0.0
  0
LINE
  5
45D
330
30
100
AcDbEntity
  8
1
100
AcDbLine
 10
34.994272808354
 20
0.6605
 30
0.0
 11
34.974130339759
 21
0.6605
 31
0.0
  0
LINE
  5
45E
330
30
100
AcDbEntity
  8
1
100
AcDbLine
 10
34.974130339759
 20
0.6605
 30
0.0
 11
34.953987871165
 21
0.6605
 31
0.0
  0
LINE
  5
45F
330
30
100
AcDbEntity
  8
1
100
AcDbLine
 10
34.953987871165
 20
0.6605
 30
0.0
 11
34.844579995153
 21
0.85
 31
0.0
  0
LINE
  5
460
330
30
100
AcDbEntity
  8
1
100
AcDbLine
 10
34.844579995153
 20
0.85
 30
0.0
 11
34.799130339759
 21
0.85
 31
0.0
  0
LINE
  5
461
330
30
100
AcDbEntity
  8
1
100
AcDbLine
 10
34.799130339759
 20
0.85
 30
0.0
 11
34.753680684365
 21
0.85
 31
0.0
  0
LINE
  5
462
330
30
100
AcDbEntity
  8
1
100
AcDbLine
 10
34.753680684365
 20
0.85
 30
0.0
 11
34.644272808354
 21
0.6605
 31
0.0
  0
LINE
  5
463
330
30
100
AcDbEntity
  8
1
100
AcDbLine
 10
34.644272808354
 20
0.6605
 30
0.0
 11
34.624130339759
 21
0.6605
 31
0.0
  0
LINE
  5
464
330
30
100
AcDbEntity
  8
1
100
AcDbLine
 10
34.624130339759
 20
0.6605
 30
0.0
 11
34.603987871165
 21
0.6605
 31
0.0
  0
LINE
  5
465
330
30
100
AcDbEntity
  8
1
100
AcDbLine
 10
34.603987871165
 20
0.6605
 30
0.0
 11
34.494579995153
 21
0.85
 31
0.0
  0
LINE
  5
466
330
30
100
AcDbEntity
  8
1
100
AcDbLine
 10
34.494579995153
 20
0.85
 30
0.0
 11
34.449130339759
 21
0.85
 31
0.0
  0
LINE
  5
467
330
30
100
AcDbEntity
  8
1
100
AcDbLine
 10
34.449130339759
 20
0.85
 30
0.0
 11
34.403680684365
 21
0.85
 31
0.0
  0
LINE
  5
468
330
30
100
AcDbEntity
  8
1
100
AcDbLine
 10
34.403680684365
 20
0.85
 30
0.0
 11
34.294272808354
 21
0.6605
 31
0.0
  0
LINE
  5
469
330
30
100
AcDbEntity
  8
1
100
AcDbLine
 10
34.294272808354
 20
0.6605
 30
0.0
 11
34.274130339759
 21
0.6605
 31
0.0
  0
LINE
  5
46A
330
30
100
AcDbEntity
  8
1
100
AcDbLine
 10
34.274130339759
 20
0.6605
 30
0.0
 11
34.253987871165
 21
0.6605
 31
0.0
  0
LINE
  5
46B
330
30
100
AcDbEntity
  8
1
100
AcDbLine
 10
34.253987871165
 20
0.6605
 30
0.0
 11
34.144579995153
 21
0.85
 31
0.0
  0
LINE
  5
46C
330
30
100
AcDbEntity
  8
1
100
AcDbLine
 10
34.144579995153
 20
0.85
 30
0.0
 11
34.099130339759
 21
0.85
 31
0.0
  0
LINE
  5
46D
330
30
100
AcDbEntity
  8
1
100
AcDbLine
 10
34.099130339759
 20
0.85
 30
0.0
 11
34.053680684365
 21
0.85
 31
0.0
  0
LINE
  5
46E
330
30
100
AcDbEntity
  8
1
100
AcDbLine
 10
34.053680684365
 20
0.85
 30
0.0
 11
33.944272808354
 21
0.6605
 31
0.0
  0
LINE
  5
46F
330
30
100
AcDbEntity
  8
1
100
AcDbLine
 10
33.944272808354
 20
0.6605
 30
0.0
 11
33.924130339759
 21
0.6605
 31
0.0
  0
LINE
  5
470
330
30
100
AcDbEntity
  8
1
100
AcDbLine
 10
33.924130339759
 20
0.6605
 30
0.0
 11
33.903987871165
 21
0.6605
 31
0.0
  0
LINE
  5
471
330
30
100
AcDbEntity
  8
1
100
AcDbLine
 10
33.903987871165
 20
0.6605
 30
0.0
 11
33.794579995153
 21
0.85
 31
0.0
  0
LINE
  5
472
330
30
100
AcDbEntity
  8
1
100
AcDbLine
 10
33.794579995153
 20
0.85
 30
0.0
 11
33.749130339759
 21
0.85
 31
0.0
  0
LINE
  5
473
330
30
100
AcDbEntity
  8
1
100
AcDbLine
 10
33.749130339759
 20
0.85
 30
0.0
 11
33.703680684365
 21
0.85
 31
0.0
  0
LINE
  5
474
330
30
100
AcDbEntity
  8
1
100
AcDbLine
 10
33.703680684365
 20
0.85
 30
0.0
 11
33.594272808354
 21
0.6605
 31
0.0
  0
LINE
  5
475
330
30
100
AcDbEntity
  8
1
100
AcDbLine
 10
33.594272808354
 20
0.6605
 30
0.0
 11
33.574130339759
 21
0.6605
 31
0.0
  0
LINE
  5
476
330
30
100
AcDbEntity
  8
1
100
AcDbLine
 10
33.574130339759
 20
0.6605
 30
0.0
 11
33.553987871165
 21
0.6605
 31
0.0
  0
LINE
  5
477
330
30
100
AcDbEntity
  8
1
100
AcDbLine
 10
33.553987871165
 20
0.6605
 30
0.0
 11
33.444579995153
 21
0.85
 31
0.0
  0
LINE
  5
478
330
30
100
AcDbEntity
  8
1
100
AcDbLine
 10
33.444579995153
 20
0.85
 30
0.0
 11
33.399130339759
 21
0.85
 31
0.0
  0
LINE
  5
479
330
30
100
AcDbEntity
  8
1
100
AcDbLine
 10
33.399130339759
 20
0.85
 30
0.0
 11
33.353680684365
 21
0.85
 31
0.0
  0
LINE
  5
47A
330
30
100
AcDbEntity
  8
1
100
AcDbLine
 10
33.353680684365
 20
0.85
 30
0.0
 11
33.244272808354
 21
0.6605
 31
0.0
  0
LINE
  5
47B
330
30
100
AcDbEntity
  8
1
100
AcDbLine
 10
33.244272808354
 20
0.6605
 30
0.0
 11
33.224130339759
 21
0.6605
 31
0.0
  0
LINE
  5
47C
330
30
100
AcDbEntity
  8
1
100
AcDbLine
 10
33.224130339759
 20
0.6605
 30
0.0
 11
33.203987871165
 21
0.6605
 31
0.0
  0
LINE
  5
47D
330
30
100
AcDbEntity
  8
1
100
AcDbLine
 10
33.203987871165
 20
0.6605
 30
0.0
 11
33.094579995153
 21
0.85
 31
0.0
  0
LINE
  5
47E
330
30
100
AcDbEntity
  8
1
100
AcDbLine
 10
33.094579995153
 20
0.85
 30
0.0
 11
33.049130339759
 21
0.85
 31
0.0
  0
LINE
  5
47F
330
30
100
AcDbEntity
  8
1
100
AcDbLine
 10
33.049130339759
 20
0.85
 30
0.0
 11
33.003680684365
 21
0.85
 31
0.0
  0
LINE
  5
480
330
30
100
AcDbEntity
  8
1
100
AcDbLine
 10
33.003680684365
 20
0.85
 30
0.0
 11
32.894272808354
 21
0.6605
 31
0.0
  0
LINE
  5
481
330
30
100
AcDbEntity
  8
1
100
AcDbLine
 10
32.894272808354
 20
0.6605
 30
0.0
 11
32.874130339759
 21
0.6605
 31
0.0
  0
LINE
  5
482
330
30
100
AcDbEntity
  8
1
100
AcDbLine
 10
32.874130339759
 20
0.6605
 30
0.0
 11
32.853987871165
 21
0.6605
 31
0.0
  0
LINE
  5
483
330
30
100
AcDbEntity
  8
1
100
AcDbLine
 10
32.853987871165
 20
0.6605
 30
0.0
 11
32.744579995153
 21
0.85
 31
0.0
  0
LINE
  5
484
330
30
100
AcDbEntity
  8
1
100
AcDbLine
 10
32.744579995153
 20
0.85
 30
0.0
 11
32.699130339759
 21
0.85
 31
0.0
  0
LINE
  5
485
330
30
100
AcDbEntity
  8
1
100
AcDbLine
 10
32.699130339759
 20
0.85
 30
0.0
 11
32.653680684365
 21
0.85
 31
0.0
  0
LINE
  5
486
330
30
100
AcDbEntity
  8
1
100
AcDbLine
 10
32.653680684365
 20
0.85
 30
0.0
 11
32.544272808354
 21
0.6605
 31
0.0
  0
LINE
  5
487
330
30
100
AcDbEntity
  8
1
100
AcDbLine
 10
32.544272808354
 20
0.6605
 30
0.0
 11
32.524130339759
 21
0.6605
 31
0.0
  0
LINE
  5
488
330
30
100
AcDbEntity
  8
1
100
AcDbLine
 10
32.524130339759
 20
0.6605
 30
0.0
 11
32.503987871165
 21
0.6605
 31
0.0
  0
LINE
  5
489
330
30
100
AcDbEntity
  8
1
100
AcDbLine
 10
32.503987871165
 20
0.6605
 30
0.0
 11
32.394579995153
 21
0.85
 31
0.0
  0
LINE
  5
48A
330
30
100
AcDbEntity
  8
1
100
AcDbLine
 10
32.394579995153
 20
0.85
 30
0.0
 11
32.349130339759
 21
0.85
 31
0.0
  0
LINE
  5
48B
330
30
100
AcDbEntity
  8
1
100
AcDbLine
 10
32.349130339759
 20
0.85
 30
0.0
 11
32.303680684365
 21
0.85
 31
0.0
  0
LINE
  5
48C
330
30
100
AcDbEntity
  8
1
100
AcDbLine
 10
41.950303660638
 20
-0.6605
 30
0.0
 11
32.453987871165
 21
-0.6605
 31
0.0
  0
LINE
  5
48D
330
30
100
AcDbEntity
  8
1
100
AcDbLine
 10
41.666509415448
 20
-0.699014933276
 30
0.0
 11
41.644272808354
 21
-0.6605
 31
0.0
  0
LINE
  5
48E
330
30
100
AcDbEntity
  8
1
100
AcDbLine
 10
41.644272808354
 20
-0.6605
 30
0.0
 11
41.624130339759
 21
-0.6605
 31
0.0
  0
LINE
  5
48F
330
30
100
AcDbEntity
  8
1
100
AcDbLine
 10
41.624130339759
 20
-0.6605
 30
0.0
 11
41.603987871165
 21
-0.6605
 31
0.0
  0
LINE
  5
490
330
30
100
AcDbEntity
  8
1
100
AcDbLine
 10
41.603987871165
 20
-0.6605
 30
0.0
 11
41.57454545764
 21
-0.711495756121
 31
0.0
  0
LINE
  5
491
330
30
100
AcDbEntity
  8
1
100
AcDbLine
 10
41.341940879057
 20
-0.743063520357
 30
0.0
 11
41.294272808354
 21
-0.6605
 31
0.0
  0
LINE
  5
492
330
30
100
AcDbEntity
  8
1
100
AcDbLine
 10
41.294272808354
 20
-0.6605
 30
0.0
 11
41.274130339759
 21
-0.6605
 31
0.0
  0
LINE
  5
493
330
30
100
AcDbEntity
  8
1
100
AcDbLine
 10
41.274130339759
 20
-0.6605
 30
0.0
 11
41.253987871165
 21
-0.6605
 31
0.0
  0
LINE
  5
494
330
30
100
AcDbEntity
  8
1
100
AcDbLine
 10
41.253987871165
 20
-0.6605
 30
0.0
 11
41.194789826951
 21
-0.763034020286
 31
0.0
  0
LINE
  5
495
330
30
100
AcDbEntity
  8
1
100
AcDbLine
 10
41.017372342666
 20
-0.787112107439
 30
0.0
 11
40.944272808354
 21
-0.6605
 31
0.0
  0
LINE
  5
496
330
30
100
AcDbEntity
  8
1
100
AcDbLine
 10
40.944272808354
 20
-0.6605
 30
0.0
 11
40.924130339759
 21
-0.6605
 31
0.0
  0
LINE
  5
497
330
30
100
AcDbEntity
  8
1
100
AcDbLine
 10
40.924130339759
 20
-0.6605
 30
0.0
 11
40.903987871165
 21
-0.6605
 31
0.0
  0
LINE
  5
498
330
30
100
AcDbEntity
  8
1
100
AcDbLine
 10
40.903987871165
 20
-0.6605
 30
0.0
 11
40.815034196262
 21
-0.814572284451
 31
0.0
  0
LINE
  5
499
330
30
100
AcDbEntity
  8
1
100
AcDbLine
 10
40.692803806275
 20
-0.831160694521
 30
0.0
 11
40.594272808354
 21
-0.6605
 31
0.0
  0
LINE
  5
49A
330
30
100
AcDbEntity
  8
1
100
AcDbLine
 10
40.594272808354
 20
-0.6605
 30
0.0
 11
40.574130339759
 21
-0.6605
 31
0.0
  0
LINE
  5
49B
330
30
100
AcDbEntity
  8
1
100
AcDbLine
 10
40.574130339759
 20
-0.6605
 30
0.0
 11
40.553987871165
 21
-0.6605
 31
0.0
  0
LINE
  5
49C
330
30
100
AcDbEntity
  8
1
100
AcDbLine
 10
40.553987871165
 20
-0.6605
 30
0.0
 11
40.444579995153
 21
-0.85
 31
0.0
  0
LINE
  5
49D
330
30
100
AcDbEntity
  8
1
100
AcDbLine
 10
40.444579995153
 20
-0.85
 30
0.0
 11
40.399130339759
 21
-0.85
 31
0.0
  0
LINE
  5
49E
330
30
100
AcDbEntity
  8
1
100
AcDbLine
 10
40.399130339759
 20
-0.85
 30
0.0
 11
40.353680684365
 21
-0.85
 31
0.0
  0
LINE
  5
49F
330
30
100
AcDbEntity
  8
1
100
AcDbLine
 10
40.353680684365
 20
-0.85
 30
0.0
 11
40.244272808354
 21
-0.6605
 31
0.0
  0
LINE
  5
4A0
330
30
100
AcDbEntity
  8
1
100
AcDbLine
 10
40.244272808354
 20
-0.6605
 30
0.0
 11
40.224130339759
 21
-0.6605
 31
0.0
  0
LINE
  5
4A1
330
30
100
AcDbEntity
  8
1
100
AcDbLine
 10
40.224130339759
 20
-0.6605
 30
0.0
 11
40.203987871165
 21
-0.6605
 31
0.0
  0
LINE
  5
4A2
330
30
100
AcDbEntity
  8
1
100
AcDbLine
 10
40.203987871165
 20
-0.6605
 30
0.0
 11
40.094579995153
 21
-0.85
 31
0.0
  0
LINE
  5
4A3
330
30
100
AcDbEntity
  8
1
100
AcDbLine
 10
40.094579995153
 20
-0.85
 30
0.0
 11
40.049130339759
 21
-0.85
 31
0.0
  0
LINE
  5
4A4
330
30
100
AcDbEntity
  8
1
100
AcDbLine
 10
40.049130339759
 20
-0.85
 30
0.0
 11
40.003680684365
 21
-0.85
 31
0.0
  0
LINE
  5
4A5
330
30
100
AcDbEntity
  8
1
100
AcDbLine
 10
40.003680684365
 20
-0.85
 30
0.0
 11
39.894272808354
 21
-0.6605
 31
0.0
  0
LINE
  5
4A6
330
30
100
AcDbEntity
  8
1
100
AcDbLine
 10
39.894272808354
 20
-0.6605
 30
0.0
 11
39.874130339759
 21
-0.6605
 31
0.0
  0
LINE
  5
4A7
330
30
100
AcDbEntity
  8
1
100
AcDbLine
 10
39.874130339759
 20
-0.6605
 30
0.0
 11
39.853987871165
 21
-0.6605
 31
0.0
  0
LINE
  5
4A8
330
30
100
AcDbEntity
  8
1
100
AcDbLine
 10
39.853987871165
 20
-0.6605
 30
0.0
 11
39.744579995153
 21
-0.85
 31
0.0
  0
LINE
  5
4A9
330
30
100
AcDbEntity
  8
1
100
AcDbLine
 10
39.744579995153
 20
-0.85
 30
0.0
 11
39.699130339759
 21
-0.85
 31
0.0
  0
LINE
  5
4AA
330
30
100
AcDbEntity
  8
1
100
AcDbLine
 10
39.699130339759
 20
-0.85
 30
0.0
 11
39.653680684365
 21
-0.85
 31
0.0
  0
LINE
  5
4AB
330
30
100
AcDbEntity
  8
1
100
AcDbLine
 10
39.653680684365
 20
-0.85
 30
0.0
 11
39.544272808354
 21
-0.6605
 31
0.0
  0
LINE
  5
4AC
330
30
100
AcDbEntity
  8
1
100
AcDbLine
 10
39.544272808354
 20
-0.6605
 30
0.0
 11
39.524130339759
 21
-0.6605
 31
0.0
  0
LINE
  5
4AD
330
30
100
AcDbEntity
  8
1
100
AcDbLine
 10
39.524130339759
 20
-0.6605
 30
0.0
 11
39.503987871165
 21
-0.6605
 31
0.0
  0
LINE
  5
4AE
330
30
100
AcDbEntity
  8
1
100
AcDbLine
 10
39.503987871165
 20
-0.6605
 30
0.0
 11
39.394579995153
 21
-0.85
 31
0.0
  0
LINE
  5
4AF
330
30
100
AcDbEntity
  8
1
100
AcDbLine
 10
39.394579995153
 20
-0.85
 30
0.0
 11
39.349130339759
 21
-0.85
 31
0.0
  0
LINE
  5
4B0
330
30
100
AcDbEntity
  8
1
100
AcDbLine
 10
39.349130339759
 20
-0.85
 30
0.0
 11
39.303680684365
 21
-0.85
 31
0.0
  0
LINE
  5
4B1
330
30
100
AcDbEntity
  8
1
100
AcDbLine
 10
39.303680684365
 20
-0.85
 30
0.0
 11
39.194272808354
 21
-0.6605
 31
0.0
  0
LINE
  5
4B2
330
30
100
AcDbEntity
  8
1
100
AcDbLine
 10
39.194272808354
 20
-0.6605
 30
0.0
 11
39.174130339759
 21
-0.6605
 31
0.0
  0
LINE
  5
4B3
330
30
100
AcDbEntity
  8
1
100
AcDbLine
 10
39.174130339759
 20
-0.6605
 30
0.0
 11
39.153987871165
 21
-0.6605
 31
0.0
  0
LINE
  5
4B4
330
30
100
AcDbEntity
  8
1
100
AcDbLine
 10
39.153987871165
 20
-0.6605
 30
0.0
 11
39.044579995153
 21
-0.85
 31
0.0
  0
LINE
  5
4B5
330
30
100
AcDbEntity
  8
1
100
AcDbLine
 10
39.044579995153
 20
-0.85
 30
0.0
 11
38.999130339759
 21
-0.85
 31
0.0
  0
LINE
  5
4B6
330
30
100
AcDbEntity
  8
1
100
AcDbLine
 10
38.999130339759
 20
-0.85
 30
0.0
 11
38.953680684365
 21
-0.85
 31
0.0
  0
LINE
  5
4B7
330
30
100
AcDbEntity
  8
1
100
AcDbLine
 10
38.953680684365
 20
-0.85
 30
0.0
 11
38.844272808354
 21
-0.6605
 31
0.0
  0
LINE
  5
4B8
330
30
100
AcDbEntity
  8
1
100
AcDbLine
 10
38.844272808354
 20
-0.6605
 30
0.0
 11
38.824130339759
 21
-0.6605
 31
0.0
  0
LINE
  5
4B9
330
30
100
AcDbEntity
  8
1
100
AcDbLine
 10
38.824130339759
 20
-0.6605
 30
0.0
 11
38.803987871165
 21
-0.6605
 31
0.0
  0
LINE
  5
4BA
330
30
100
AcDbEntity
  8
1
100
AcDbLine
 10
38.803987871165
 20
-0.6605
 30
0.0
 11
38.694579995153
 21
-0.85
 31
0.0
  0
LINE
  5
4BB
330
30
100
AcDbEntity
  8
1
100
AcDbLine
 10
38.694579995153
 20
-0.85
 30
0.0
 11
38.649130339759
 21
-0.85
 31
0.0
  0
LINE
  5
4BC
330
30
100
AcDbEntity
  8
1
100
AcDbLine
 10
38.649130339759
 20
-0.85
 30
0.0
 11
38.603680684365
 21
-0.85
 31
0.0
  0
LINE
  5
4BD
330
30
100
AcDbEntity
  8
1
100
AcDbLine
 10
38.603680684365
 20
-0.85
 30
0.0
 11
38.494272808354
 21
-0.6605
 31
0.0
  0
LINE
  5
4BE
330
30
100
AcDbEntity
  8
1
100
AcDbLine
 10
38.494272808354
 20
-0.6605
 30
0.0
 11
38.474130339759
 21
-0.6605
 31
0.0
  0
LINE
  5
4BF
330
30
100
AcDbEntity
  8
1
100
AcDbLine
 10
38.474130339759
 20
-0.6605
 30
0.0
 11
38.453987871165
 21
-0.6605
 31
0.0
  0
LINE
  5
4C0
330
30
100
AcDbEntity
  8
1
100
AcDbLine
 10
38.453987871165
 20
-0.6605
 30
0.0
 11
38.344579995153
 21
-0.85
 31
0.0
  0
LINE
  5
4C1
330
30
100
AcDbEntity
  8
1
100
AcDbLine
 10
38.344579995153
 20
-0.85
 30
0.0
 11
38.299130339759
 21
-0.85
 31
0.0
  0
LINE
  5
4C2
330
30
100
AcDbEntity
  8
1
100
AcDbLine
 10
38.299130339759
 20
-0.85
 30
0.0
 11
38.253680684365
 21
-0.85
 31
0.0
  0
LINE
  5
4C3
330
30
100
AcDbEntity
  8
1
100
AcDbLine
 10
38.253680684365
 20
-0.85
 30
0.0
 11
38.144272808354
 21
-0.6605
 31
0.0
  0
LINE
  5
4C4
330
30
100
AcDbEntity
  8
1
100
AcDbLine
 10
38.144272808354
 20
-0.6605
 30
0.0
 11
38.124130339759
 21
-0.6605
 31
0.0
  0
LINE
  5
4C5
330
30
100
AcDbEntity
  8
1
100
AcDbLine
 10
38.124130339759
 20
-0.6605
 30
0.0
 11
38.103987871165
 21
-0.6605
 31
0.0
  0
LINE
  5
4C6
330
30
100
AcDbEntity
  8
1
100
AcDbLine
 10
38.103987871165
 20
-0.6605
 30
0.0
 11
37.994579995153
 21
-0.85
 31
0.0
  0
LINE
  5
4C7
330
30
100
AcDbEntity
  8
1
100
AcDbLine
 10
37.994579995153
 20
-0.85
 30
0.0
 11
37.949130339759
 21
-0.85
 31
0.0
  0
LINE
  5
4C8
330
30
100
AcDbEntity
  8
1
100
AcDbLine
 10
37.949130339759
 20
-0.85
 30
0.0
 11
37.903680684365
 21
-0.85
 31
0.0
  0
LINE
  5
4C9
330
30
100
AcDbEntity
  8
1
100
AcDbLine
 10
37.903680684365
 20
-0.85
 30
0.0
 11
37.794272808354
 21
-0.6605
 31
0.0
  0
LINE
  5
4CA
330
30
100
AcDbEntity
  8
1
100
AcDbLine
 10
37.794272808354
 20
-0.6605
 30
0.0
 11
37.774130339759
 21
-0.6605
 31
0.0
  0
LINE
  5
4CB
330
30
100
AcDbEntity
  8
1
100
AcDbLine
 10
37.774130339759
 20
-0.6605
 30
0.0
 11
37.753987871165
 21
-0.6605
 31
0.0
  0
LINE
  5
4CC
330
30
100
AcDbEntity
  8
1
100
AcDbLine
 10
37.753987871165
 20
-0.6605
 30
0.0
 11
37.644579995153
 21
-0.85
 31
0.0
  0
LINE
  5
4CD
330
30
100
AcDbEntity
  8
1
100
AcDbLine
 10
37.644579995153
 20
-0.85
 30
0.0
 11
37.599130339759
 21
-0.85
 31
0.0
  0
LINE
  5
4CE
330
30
100
AcDbEntity
  8
1
100
AcDbLine
 10
37.599130339759
 20
-0.85
 30
0.0
 11
37.553680684365
 21
-0.85
 31
0.0
  0
LINE
  5
4CF
330
30
100
AcDbEntity
  8
1
100
AcDbLine
 10
37.553680684365
 20
-0.85
 30
0.0
 11
37.444272808354
 21
-0.6605
 31
0.0
  0
LINE
  5
4D0
330
30
100
AcDbEntity
  8
1
100
AcDbLine
 10
37.444272808354
 20
-0.6605
 30
0.0
 11
37.424130339759
 21
-0.6605
 31
0.0
  0
LINE
  5
4D1
330
30
100
AcDbEntity
  8
1
100
AcDbLine
 10
37.424130339759
 20
-0.6605
 30
0.0
 11
37.403987871165
 21
-0.6605
 31
0.0
  0
LINE
  5
4D2
330
30
100
AcDbEntity
  8
1
100
AcDbLine
 10
37.403987871165
 20
-0.6605
 30
0.0
 11
37.294579995153
 21
-0.85
 31
0.0
  0
LINE
  5
4D3
330
30
100
AcDbEntity
  8
1
100
AcDbLine
 10
37.294579995153
 20
-0.85
 30
0.0
 11
37.249130339759
 21
-0.85
 31
0.0
  0
LINE
  5
4D4
330
30
100
AcDbEntity
  8
1
100
AcDbLine
 10
37.249130339759
 20
-0.85
 30
0.0
 11
37.203680684365
 21
-0.85
 31
0.0
  0
LINE
  5
4D5
330
30
100
AcDbEntity
  8
1
100
AcDbLine
 10
37.203680684365
 20
-0.85
 30
0.0
 11
37.094272808354
 21
-0.6605
 31
0.0
  0
LINE
  5
4D6
330
30
100
AcDbEntity
  8
1
100
AcDbLine
 10
37.094272808354
 20
-0.6605
 30
0.0
 11
37.074130339759
 21
-0.6605
 31
0.0
  0
LINE
  5
4D7
330
30
100
AcDbEntity
  8
1
100
AcDbLine
 10
37.074130339759
 20
-0.6605
 30
0.0
 11
37.053987871165
 21
-0.6605
 31
0.0
  0
LINE
  5
4D8
330
30
100
AcDbEntity
  8
1
100
AcDbLine
 10
37.053987871165
 20
-0.6605
 30
0.0
 11
36.944579995153
 21
-0.85
 31
0.0
  0
LINE
  5
4D9
330
30
100
AcDbEntity
  8
1
100
AcDbLine
 10
36.944579995153
 20
-0.85
 30
0.0
 11
36.899130339759
 21
-0.85
 31
0.0
  0
LINE
  5
4DA
330
30
100
AcDbEntity
  8
1
100
AcDbLine
 10
36.899130339759
 20
-0.85
 30
0.0
 11
36.853680684365
 21
-0.85
 31
0.0
  0
LINE
  5
4DB
330
30
100
AcDbEntity
  8
1
100
AcDbLine
 10
36.853680684365
 20
-0.85
 30
0.0
 11
36.744272808354
 21
-0.6605
 31
0.0
  0
LINE
  5
4DC
330
30
100
AcDbEntity
  8
1
100
AcDbLine
 10
36.744272808354
 20
-0.6605
 30
0.0
 11
36.724130339759
 21
-0.6605
 31
0.0
  0
LINE
  5
4DD
330
30
100
AcDbEntity
  8
1
100
AcDbLine
 10
36.724130339759
 20
-0.6605
 30
0.0
 11
36.703987871165
 21
-0.6605
 31
0.0
  0
LINE
  5
4DE
330
30
100
AcDbEntity
  8
1
100
AcDbLine
 10
36.703987871165
 20
-0.6605
 30
0.0
 11
36.594579995153
 21
-0.85
 31
0.0
  0
LINE
  5
4DF
330
30
100
AcDbEntity
  8
1
100
AcDbLine
 10
36.594579995153
 20
-0.85
 30
0.0
 11
36.549130339759
 21
-0.85
 31
0.0
  0
LINE
  5
4E0
330
30
100
AcDbEntity
  8
1
100
AcDbLine
 10
36.549130339759
 20
-0.85
 30
0.0
 11
36.503680684365
 21
-0.85
 31
0.0
  0
LINE
  5
4E1
330
30
100
AcDbEntity
  8
1
100
AcDbLine
 10
36.503680684365
 20
-0.85
 30
0.0
 11
36.394272808354
 21
-0.6605
 31
0.0
  0
LINE
  5
4E2
330
30
100
AcDbEntity
  8
1
100
AcDbLine
 10
36.394272808354
 20
-0.6605
 30
0.0
 11
36.374130339759
 21
-0.6605
 31
0.0
  0
LINE
  5
4E3
330
30
100
AcDbEntity
  8
1
100
AcDbLine
 10
36.374130339759
 20
-0.6605
 30
0.0
 11
36.353987871165
 21
-0.6605
 31
0.0
  0
LINE
  5
4E4
330
30
100
AcDbEntity
  8
1
100
AcDbLine
 10
36.353987871165
 20
-0.6605
 30
0.0
 11
36.244579995153
 21
-0.85
 31
0.0
  0
LINE
  5
4E5
330
30
100
AcDbEntity
  8
1
100
AcDbLine
 10
36.244579995153
 20
-0.85
 30
0.0
 11
36.199130339759
 21
-0.85
 31
0.0
  0
LINE
  5
4E6
330
30
100
AcDbEntity
  8
1
100
AcDbLine
 10
36.199130339759
 20
-0.85
 30
0.0
 11
36.153680684365
 21
-0.85
 31
0.0
  0
LINE
  5
4E7
330
30
100
AcDbEntity
  8
1
100
AcDbLine
 10
36.153680684365
 20
-0.85
 30
0.0
 11
36.044272808354
 21
-0.6605
 31
0.0
  0
LINE
  5
4E8
330
30
100
AcDbEntity
  8
1
100
AcDbLine
 10
36.044272808354
 20
-0.6605
 30
0.0
 11
36.024130339759
 21
-0.6605
 31
0.0
  0
LINE
  5
4E9
330
30
100
AcDbEntity
  8
1
100
AcDbLine
 10
36.024130339759
 20
-0.6605
 30
0.0
 11
36.003987871165
 21
-0.6605
 31
0.0
  0
LINE
  5
4EA
330
30
100
AcDbEntity
  8
1
100
AcDbLine
 10
36.003987871165
 20
-0.6605
 30
0.0
 11
35.894579995153
 21
-0.85
 31
0.0
  0
LINE
  5
4EB
330
30
100
AcDbEntity
  8
1
100
AcDbLine
 10
35.894579995153
 20
-0.85
 30
0.0
 11
35.849130339759
 21
-0.85
 31
0.0
  0
LINE
  5
4EC
330
30
100
AcDbEntity
  8
1
100
AcDbLine
 10
35.849130339759
 20
-0.85
 30
0.0
 11
35.803680684365
 21
-0.85
 31
0.0
  0
LINE
  5
4ED
330
30
100
AcDbEntity
  8
1
100
AcDbLine
 10
35.803680684365
 20
-0.85
 30
0.0
 11
35.694272808354
 21
-0.6605
 31
0.0
  0
LINE
  5
4EE
330
30
100
AcDbEntity
  8
1
100
AcDbLine
 10
35.694272808354
 20
-0.6605
 30
0.0
 11
35.674130339759
 21
-0.6605
 31
0.0
  0
LINE
  5
4EF
330
30
100
AcDbEntity
  8
1
100
AcDbLine
 10
35.674130339759
 20
-0.6605
 30
0.0
 11
35.653987871165
 21
-0.6605
 31
0.0
  0
LINE
  5
4F0
330
30
100
AcDbEntity
  8
1
100
AcDbLine
 10
35.653987871165
 20
-0.6605
 30
0.0
 11
35.544579995153
 21
-0.85
 31
0.0
  0
LINE
  5
4F1
330
30
100
AcDbEntity
  8
1
100
AcDbLine
 10
35.544579995153
 20
-0.85
 30
0.0
 11
35.499130339759
 21
-0.85
 31
0.0
  0
LINE
  5
4F2
330
30
100
AcDbEntity
  8
1
100
AcDbLine
 10
35.499130339759
 20
-0.85
 30
0.0
 11
35.453680684365
 21
-0.85
 31
0.0
  0
LINE
  5
4F3
330
30
100
AcDbEntity
  8
1
100
AcDbLine
 10
35.453680684365
 20
-0.85
 30
0.0
 11
35.344272808354
 21
-0.6605
 31
0.0
  0
LINE
  5
4F4
330
30
100
AcDbEntity
  8
1
100
AcDbLine
 10
35.344272808354
 20
-0.6605
 30
0.0
 11
35.324130339759
 21
-0.6605
 31
0.0
  0
LINE
  5
4F5
330
30
100
AcDbEntity
  8
1
100
AcDbLine
 10
35.324130339759
 20
-0.6605
 30
0.0
 11
35.303987871165
 21
-0.6605
 31
0.0
  0
LINE
  5
4F6
330
30
100
AcDbEntity
  8
1
100
AcDbLine
 10
35.303987871165
 20
-0.6605
 30
0.0
 11
35.194579995153
 21
-0.85
 31
0.0
  0
LINE
  5
4F7
330
30
100
AcDbEntity
  8
1
100
AcDbLine
 10
35.194579995153
 20
-0.85
 30
0.0
 11
35.149130339759
 21
-0.85
 31
0.0
  0
LINE
  5
4F8
330
30
100
AcDbEntity
  8
1
100
AcDbLine
 10
35.149130339759
 20
-0.85
 30
0.0
 11
35.103680684365
 21
-0.85
 31
0.0
  0
LINE
  5
4F9
330
30
100
AcDbEntity
  8
1
100
AcDbLine
 10
35.103680684365
 20
-0.85
 30
0.0
 11
34.994272808354
 21
-0.6605
 31
0.0
  0
LINE
  5
4FA
330
30
100
AcDbEntity
  8
1
100
AcDbLine
 10
34.994272808354
 20
-0.6605
 30
0.0
 11
34.974130339759
 21
-0.6605
 31
0.0
  0
LINE
  5
4FB
330
30
100
AcDbEntity
  8
1
100
AcDbLine
 10
34.974130339759
 20
-0.6605
 30
0.0
 11
34.953987871165
 21
-0.6605
 31
0.0
  0
LINE
  5
4FC
330
30
100
AcDbEntity
  8
1
100
AcDbLine
 10
34.953987871165
 20
-0.6605
 30
0.0
 11
34.844579995153
 21
-0.85
 31
0.0
  0
LINE
  5
4FD
330
30
100
AcDbEntity
  8
1
100
AcDbLine
 10
34.844579995153
 20
-0.85
 30
0.0
 11
34.799130339759
 21
-0.85
 31
0.0
  0
LINE
  5
4FE
330
30
100
AcDbEntity
  8
1
100
AcDbLine
 10
34.799130339759
 20
-0.85
 30
0.0
 11
34.753680684365
 21
-0.85
 31
0.0
  0
LINE
  5
4FF
330
30
100
AcDbEntity
  8
1
100
AcDbLine
 10
34.753680684365
 20
-0.85
 30
0.0
 11
34.644272808354
 21
-0.6605
 31
0.0
  0
LINE
  5
500
330
30
100
AcDbEntity
  8
1
100
AcDbLine
 10
34.644272808354
 20
-0.6605
 30
0.0
 11
34.624130339759
 21
-0.6605
 31
0.0
  0
LINE
  5
501
330
30
100
AcDbEntity
  8
1
100
AcDbLine
 10
34.624130339759
 20
-0.6605
 30
0.0
 11
34.603987871165
 21
-0.6605
 31
0.0
  0
LINE
  5
502
330
30
100
AcDbEntity
  8
1
100
AcDbLine
 10
34.603987871165
 20
-0.6605
 30
0.0
 11
34.494579995153
 21
-0.85
 31
0.0
  0
LINE
  5
503
330
30
100
AcDbEntity
  8
1
100
AcDbLine
 10
34.494579995153
 20
-0.85
 30
0.0
 11
34.449130339759
 21
-0.85
 31
0.0
  0
LINE
  5
504
330
30
100
AcDbEntity
  8
1
100
AcDbLine
 10
34.449130339759
 20
-0.85
 30
0.0
 11
34.403680684365
 21
-0.85
 31
0.0
  0
LINE
  5
505
330
30
100
AcDbEntity
  8
1
100
AcDbLine
 10
34.403680684365
 20
-0.85
 30
0.0
 11
34.294272808354
 21
-0.6605
 31
0.0
  0
LINE
  5
506
330
30
100
AcDbEntity
  8
1
100
AcDbLine
 10
34.294272808354
 20
-0.6605
 30
0.0
 11
34.274130339759
 21
-0.6605
 31
0.0
  0
LINE
  5
507
330
30
100
AcDbEntity
  8
1
100
AcDbLine
 10
34.274130339759
 20
-0.6605
 30
0.0
 11
34.253987871165
 21
-0.6605
 31
0.0
  0
LINE
  5
508
330
30
100
AcDbEntity
  8
1
100
AcDbLine
 10
34.253987871165
 20
-0.6605
 30
0.0
 11
34.144579995153
 21
-0.85
 31
0.0
  0
LINE
  5
509
330
30
100
AcDbEntity
  8
1
100
AcDbLine
 10
34.144579995153
 20
-0.85
 30
0.0
 11
34.099130339759
 21
-0.85
 31
0.0
  0
LINE
  5
50A
330
30
100
AcDbEntity
  8
1
100
AcDbLine
 10
34.099130339759
 20
-0.85
 30
0.0
 11
34.053680684365
 21
-0.85
 31
0.0
  0
LINE
  5
50B
330
30
100
AcDbEntity
  8
1
100
AcDbLine
 10
34.053680684365
 20
-0.85
 30
0.0
 11
33.944272808354
 21
-0.6605
 31
0.0
  0
LINE
  5
50C
330
30
100
AcDbEntity
  8
1
100
AcDbLine
 10
33.944272808354
 20
-0.6605
 30
0.0
 11
33.924130339759
 21
-0.6605
 31
0.0
  0
LINE
  5
50D
330
30
100
AcDbEntity
  8
1
100
AcDbLine
 10
33.924130339759
 20
-0.6605
 30
0.0
 11
33.903987871165
 21
-0.6605
 31
0.0
  0
LINE
  5
50E
330
30
100
AcDbEntity
  8
1
100
AcDbLine
 10
33.903987871165
 20
-0.6605
 30
0.0
 11
33.794579995153
 21
-0.85
 31
0.0
  0
LINE
  5
50F
330
30
100
AcDbEntity
  8
1
100
AcDbLine
 10
33.794579995153
 20
-0.85
 30
0.0
 11
33.749130339759
 21
-0.85
 31
0.0
  0
LINE
  5
510
330
30
100
AcDbEntity
  8
1
100
AcDbLine
 10
33.749130339759
 20
-0.85
 30
0.0
 11
33.703680684365
 21
-0.85
 31
0.0
  0
LINE
  5
511
330
30
100
AcDbEntity
  8
1
100
AcDbLine
 10
33.703680684365
 20
-0.85
 30
0.0
 11
33.594272808354
 21
-0.6605
 31
0.0
  0
LINE
  5
512
330
30
100
AcDbEntity
  8
1
100
AcDbLine
 10
33.594272808354
 20
-0.6605
 30
0.0
 11
33.574130339759
 21
-0.6605
 31
0.0
  0
LINE
  5
513
330
30
100
AcDbEntity
  8
1
100
AcDbLine
 10
33.574130339759
 20
-0.6605
 30
0.0
 11
33.553987871165
 21
-0.6605
 31
0.0
  0
LINE
  5
514
330
30
100
AcDbEntity
  8
1
100
AcDbLine
 10
33.553987871165
 20
-0.6605
 30
0.0
 11
33.444579995153
 21
-0.85
 31
0.0
  0
LINE
  5
515
330
30
100
AcDbEntity
  8
1
100
AcDbLine
 10
33.444579995153
 20
-0.85
 30
0.0
 11
33.399130339759
 21
-0.85
 31
0.0
  0
LINE
  5
516
330
30
100
AcDbEntity
  8
1
100
AcDbLine
 10
33.399130339759
 20
-0.85
 30
0.0
 11
33.353680684365
 21
-0.85
 31
0.0
  0
LINE
  5
517
330
30
100
AcDbEntity
  8
1
100
AcDbLine
 10
33.353680684365
 20
-0.85
 30
0.0
 11
33.244272808354
 21
-0.6605
 31
0.0
  0
LINE
  5
518
330
30
100
AcDbEntity
  8
1
100
AcDbLine
 10
33.244272808354
 20
-0.6605
 30
0.0
 11
33.224130339759
 21
-0.6605
 31
0.0
  0
LINE
  5
519
330
30
100
AcDbEntity
  8
1
100
AcDbLine
 10
33.224130339759
 20
-0.6605
 30
0.0
 11
33.203987871165
 21
-0.6605
 31
0.0
  0
LINE
  5
51A
330
30
100
AcDbEntity
  8
1
100
AcDbLine
 10
33.203987871165
 20
-0.6605
 30
0.0
 11
33.094579995153
 21
-0.85
 31
0.0
  0
LINE
  5
51B
330
30
100
AcDbEntity
  8
1
100
AcDbLine
 10
33.094579995153
 20
-0.85
 30
0.0
 11
33.049130339759
 21
-0.85
 31
0.0
  0
LINE
  5
51C
330
30
100
AcDbEntity
  8
1
100
AcDbLine
 10
33.049130339759
 20
-0.85
 30
0.0
 11
33.003680684365
 21
-0.85
 31
0.0
  0
LINE
  5
51D
330
30
100
AcDbEntity
  8
1
100
AcDbLine
 10
33.003680684365
 20
-0.85
 30
0.0
 11
32.894272808354
 21
-0.6605
 31
0.0
  0
LINE
  5
51E
330
30
100
AcDbEntity
  8
1
100
AcDbLine
 10
32.894272808354
 20
-0.6605
 30
0.0
 11
32.874130339759
 21
-0.6605
 31
0.0
  0
LINE
  5
51F
330
30
100
AcDbEntity
  8
1
100
AcDbLine
 10
32.874130339759
 20
-0.6605
 30
0.0
 11
32.853987871165
 21
-0.6605
 31
0.0
  0
LINE
  5
520
330
30
100
AcDbEntity
  8
1
100
AcDbLine
 10
32.853987871165
 20
-0.6605
 30
0.0
 11
32.744579995153
 21
-0.85
 31
0.0
  0
LINE
  5
521
330
30
100
AcDbEntity
  8
1
100
AcDbLine
 10
32.744579995153
 20
-0.85
 30
0.0
 11
32.699130339759
 21
-0.85
 31
0.0
  0
LINE
  5
522
330
30
100
AcDbEntity
  8
1
100
AcDbLine
 10
32.699130339759
 20
-0.85
 30
0.0
 11
32.653680684365
 21
-0.85
 31
0.0
  0
LINE
  5
523
330
30
100
AcDbEntity
  8
1
100
AcDbLine
 10
32.653680684365
 20
-0.85
 30
0.0
 11
32.544272808354
 21
-0.6605
 31
0.0
  0
LINE
  5
524
330
30
100
AcDbEntity
  8
1
100
AcDbLine
 10
32.544272808354
 20
-0.6605
 30
0.0
 11
32.524130339759
 21
-0.6605
 31
0.0
  0
LINE
  5
525
330
30
100
AcDbEntity
  8
1
100
AcDbLine
 10
32.524130339759
 20
-0.6605
 30
0.0
 11
32.503987871165
 21
-0.6605
 31
0.0
  0
LINE
  5
526
330
30
100
AcDbEntity
  8
1
100
AcDbLine
 10
32.503987871165
 20
-0.6605
 30
0.0
 11
32.394579995153
 21
-0.85
 31
0.0
  0
LINE
  5
527
330
30
100
AcDbEntity
  8
1
100
AcDbLine
 10
32.394579995153
 20
-0.85
 30
0.0
 11
32.349130339759
 21
-0.85
 31
0.0
  0
LINE
  5
528
330
30
100
AcDbEntity
  8
1
100
AcDbLine
 10
32.349130339759
 20
-0.85
 30
0.0
 11
32.303680684365
 21
-0.85
 31
0.0
  0
LINE
  5
529
330
30
100
AcDbEntity
  8
SK1
100
AcDbLine
 10
6.753987871165
 20
0.804086040245
 30
0.0
 11
6.753987871165
 21
1.7905
 31
0.0
  0
LINE
  5
52A
330
30
100
AcDbEntity
  8
SK1
100
AcDbLine
 10
6.753987871165
 20
1.7905
 30
0.0
 11
1.953987871165
 21
1.7905
 31
0.0
  0
LINE
  5
52B
330
30
100
AcDbEntity
  8
SK1
100
AcDbLine
 10
1.953987871165
 20
1.7905
 30
0.0
 11
1.953987871165
 21
0.804086040245
 31
0.0
  0
LINE
  5
52C
330
30
100
AcDbEntity
  8
SK1
100
AcDbLine
 10
1.953987871165
 20
0.804086040245
 30
0.0
 11
6.753987871165
 21
0.804086040245
 31
0.0
  0
LINE
  5
52D
330
30
100
AcDbEntity
  8
SK1
100
AcDbLine
 10
6.753987871165
 20
0.804086040245
 30
0.0
 11
1.953987871165
 21
1.7905
 31
0.0
  0
LINE
  5
52E
330
30
100
AcDbEntity
  8
SK1
100
AcDbLine
 10
6.753987871165
 20
1.7905
 30
0.0
 11
1.953987871165
 21
0.804086040245
 31
0.0
  0
LINE
  5
52F
330
30
100
AcDbEntity
  8
SK1
100
AcDbLine
 10
6.753987871165
 20
-0.804086040245
 30
0.0
 11
6.753987871165
 21
-1.7905
 31
0.0
  0
LINE
  5
530
330
30
100
AcDbEntity
  8
SK1
100
AcDbLine
 10
6.753987871165
 20
-1.7905
 30
0.0
 11
1.953987871165
 21
-1.7905
 31
0.0
  0
LINE
  5
531
330
30
100
AcDbEntity
  8
SK1
100
AcDbLine
 10
1.953987871165
 20
-1.7905
 30
0.0
 11
1.953987871165
 21
-0.804086040245
 31
0.0
  0
LINE
  5
532
330
30
100
AcDbEntity
  8
SK1
100
AcDbLine
 10
1.953987871165
 20
-0.804086040245
 30
0.0
 11
6.753987871165
 21
-0.804086040245
 31
0.0
  0
LINE
  5
533
330
30
100
AcDbEntity
  8
SK1
100
AcDbLine
 10
6.753987871165
 20
-0.804086040245
 30
0.0
 11
1.953987871165
 21
-1.7905
 31
0.0
  0
LINE
  5
534
330
30
100
AcDbEntity
  8
SK1
100
AcDbLine
 10
6.753987871165
 20
-1.7905
 30
0.0
 11
1.953987871165
 21
-0.804086040245
 31
0.0
  0
LINE
  5
535
330
30
100
AcDbEntity
  8
INFTOTAL
100
AcDbLine
 10
-15.0
 20
45.0
 30
0.0
 11
90.0
 21
45.0
 31
0.0
  0
LINE
  5
536
330
30
100
AcDbEntity
  8
INFTOTAL
100
AcDbLine
 10
90.0
 20
45.0
 30
0.0
 11
90.0
 21
-45.0
 31
0.0
  0
LINE
  5
537
330
30
100
AcDbEntity
  8
INFTOTAL
100
AcDbLine
 10
90.0
 20
-45.0
 30
0.0
 11
-15.0
 21
-45.0
 31
0.0
  0
LINE
  5
538
330
30
100
AcDbEntity
  8
INFTOTAL
100
AcDbLine
 10
-15.0
 20
-45.0
 30
0.0
 11
-15.0
 21
45.0
 31
0.0
  0
DIMENSION
  5
106AC05
330
30
100
AcDbEntity
  8
2
100
AcDbDimension
  2
*D8
 10
70.0
 20
0.6600000000000019
 30
0.0
 11
70.0
 21
14.7995
 31
0.0
 70
   160
  1
%%c<>
 71
     5
 42
1.32
  3
STANDARD
100
AcDbAlignedDimension
 13
41.953987871165
 23
-0.6600000000000001
 33
0.0
 14
41.953987871165
 24
0.6600000000000001
 34
0.0
 50
-90.0
100
AcDbRotatedDimension
1001
ACAD
1000
DSTYLE
1002
{
1070
   271
1070
     2
1070
   279
1070
     0
1070
    74
1070
     0
1002
}
  0
DIMENSION
  5
106AC30
330
30
100
AcDbEntity
  8
2
100
AcDbDimension
  2
*D11
 10
40.553987871165
 20
-16.0
 30
0.0
 11
53.0
 21
-16.0
 31
0.0
 70
   160
  1
<>
 71
     5
 42
1.399999999999999
  3
STANDARD
100
AcDbAlignedDimension
 13
41.953987871165
 23
-0.6600000000000001
 33
0.0
 14
40.553987871165
 24
-0.8500000000000001
 34
0.0
100
AcDbRotatedDimension
1001
ACAD
1000
DSTYLE
1002
{
1070
   271
1070
     1
1070
   279
1070
     0
1070
    74
1070
     0
1002
}
  0
DIMENSION
  5
106AC67
330
30
100
AcDbEntity
  8
2
100
AcDbDimension
  2
*D14
 10
78.0
 20
0.850000000000005
 30
0.0
 11
78.0
 21
20.99900000000001
 31
0.0
 70
   160
  1
M1.7X0.35
 71
     5
 42
1.7
  3
STANDARD
100
AcDbAlignedDimension
 13
40.553987871165
 23
-0.85
 33
0.0
 14
40.553987871165
 24
0.85
 34
0.0
 50
-90.0
100
AcDbRotatedDimension
1001
ACAD
1000
DSTYLE
1002
{
1070
   271
1070
     2
1070
   279
1070
     0
1070
    74
1070
     0
1002
}
  0
DIMENSION
  5
106AC92
330
30
100
AcDbEntity
  8
SK2
100
AcDbDimension
  2
*D17
 10
1.953987871164999
 20
35.0
 30
0.0
 11
11.5641196765175
 21
35.0
 31
0.0
 70
   160
  1
<>
 71
     5
 42
19.220263610705
  3
STANDARD
100
AcDbAlignedDimension
 13
21.17425148187
 23
1.7905
 33
0.0
 14
1.953987871165
 24
1.7905
 34
0.0
100
AcDbRotatedDimension
1001
ACAD
1000
DSTYLE
1002
{
1070
   271
1070
     1
1070
   279
1070
     0
1070
    74
1070
     0
1002
}
  0
ENDSEC
  0
SECTION
  2
OBJECTS
  0
DICTIONARY
  5
539
330
0
100
AcDbDictionary
281
     1
  3
ACAD_GROUP
350
53A
  3
ACAD_IMAGE_VARS
350
106ABDF
  3
ACAD_LAYOUT
350
106AB97
  3
ACAD_MATERIAL
350
106ABBC
  3
ACAD_MLEADERSTYLE
350
106ABDB
  3
ACAD_MLINESTYLE
350
106AB92
  3
ACAD_PLOTSETTINGS
350
106AB94
  3
ACAD_PLOTSTYLENAME
350
106AB95
  3
ACAD_SCALELIST
350
106AB9A
  3
ACAD_TABLESTYLE
350
106ABD9
  3
ACAD_VISUALSTYLE
350
106ABC0
  3
AcDbVariableDictionary
350
106ACA1
  3
APPDATA
350
106ABDD
  3
DWGPROPS
350
106ACE8
  3
FX_DICT_DIMENSION_PALETTE
350
106AC3E
  3
PRINTCONFIG
350
106ABE0
  0
DICTIONARY
  5
106ACEB
330
2
100
AcDbDictionary
280
     1
281
     1
  3
ACAD_XREC_ROUNDTRIP
360
106ACEC
  0
DICTIONARY
  5
106AC9F
330
30
100
AcDbDictionary
280
     1
281
     1
  3
DIM_BOUNDING_BOXES_V1
360
106ACA0
  0
DICTIONARY
  5
53A
102
{ACAD_REACTORS
330
539
102
}
330
539
100
AcDbDictionary
281
     1
  0
RASTERVARIABLES
  5
106ABDF
102
{ACAD_REACTORS
330
539
102
}
330
539
100
AcDbRasterVariables
 90
        0
 70
     1
 71
     1
 72
     0
  0
DICTIONARY
  5
106AB97
102
{ACAD_REACTORS
330
539
102
}
330
539
100
AcDbDictionary
281
     1
  3
Model
350
106AB98
  3
シート 1
350
106AB99
  0
DICTIONARY
  5
106ABBC
102
{ACAD_REACTORS
330
539
102
}
330
539
100
AcDbDictionary
281
     1
  3
ByBlock
350
106ABBE
  3
ByLayer
350
106ABBD
  3
Global
350
106ABBF
  0
DICTIONARY
  5
106ABDB
102
{ACAD_REACTORS
330
539
102
}
330
539
100
AcDbDictionary
281
     1
  3
Standard
350
106ABDC
  0
DICTIONARY
  5
106AB92
102
{ACAD_REACTORS
330
539
102
}
330
539
100
AcDbDictionary
281
     1
  3
Standard
350
106AB93
  0
DICTIONARY
  5
106AB94
102
{ACAD_REACTORS
330
539
102
}
330
539
100
AcDbDictionary
281
     1
  0
ACDBDICTIONARYWDFLT
  5
106AB95
102
{ACAD_REACTORS
330
539
102
}
330
539
100
AcDbDictionary
281
     1
  3
Normal
350
106AB96
100
AcDbDictionaryWithDefault
340
106AB96
  0
DICTIONARY
  5
106AB9A
102
{ACAD_REACTORS
330
539
102
}
330
539
100
AcDbDictionary
281
     1
  3
A0
350
106AB9B
  3
A1
350
106AB9C
  3
A2
350
106AB9D
  3
A3
350
106AB9E
  3
A4
350
106AB9F
  3
A5
350
106ABA0
  3
A6
350
106ABA1
  3
A7
350
106ABA2
  3
A8
350
106ABA3
  3
A9
350
106ABA4
  3
B0
350
106ABA5
  3
B1
350
106ABA6
  3
B2
350
106ABA7
  3
B3
350
106ABA8
  3
B4
350
106ABA9
  3
B5
350
106ABAA
  3
B6
350
106ABAB
  3
B7
350
106ABAC
  3
B8
350
106ABAD
  3
B9
350
106ABAE
  3
C0
350
106ABAF
  3
C1
350
106ABB0
  3
C2
350
106ABB1
  3
C3
350
106ABB2
  3
C4
350
106ABB3
  3
C5
350
106ABB4
  3
C6
350
106ABB5
  3
C7
350
106ABB6
  3
C8
350
106ABB7
  3
C9
350
106ABB8
  3
D0
350
106ABB9
  3
D1
350
106ABBA
  3
D2
350
106ABBB
  0
DICTIONARY
  5
106ABD9
102
{ACAD_REACTORS
330
539
102
}
330
539
100
AcDbDictionary
281
     1
  3
Standard
350
106ABDA
  0
DICTIONARY
  5
106ABC0
102
{ACAD_REACTORS
330
539
102
}
330
539
100
AcDbDictionary
281
     1
  3
2dWireframe
350
106ABC5
  3
Basic
350
106ABC8
  3
Brighten
350
106ABCC
  3
ColorChange
350
106ABD0
  3
Conceptual
350
106ABCA
  3
Dim
350
106ABCB
  3
EdgeColorOff
350
106ABD3
  3
Facepattern
350
106ABCF
  3
Flat
350
106ABC1
  3
FlatWithEdges
350
106ABC2
  3
Gouraud
350
106ABC3
  3
GouraudWithEdges
350
106ABC4
  3
Hidden
350
106ABC7
  3
JitterOff
350
106ABD1
  3
Linepattern
350
106ABCE
  3
OverhangOff
350
106ABD2
  3
Realistic
350
106ABC9
  3
Shaded
350
106ABD8
  3
Shaded with edges
350
106ABD7
  3
Shades of Gray
350
106ABD4
  3
Sketchy
350
106ABD5
  3
Thicken
350
106ABCD
  3
Wireframe
350
106ABC6
  3
X-Ray
350
106ABD6
  0
DICTIONARY
  5
106ACA1
102
{ACAD_REACTORS
330
539
102
}
330
539
100
AcDbDictionary
281
     1
  3
CANNOSCALE
350
106ACAD
  3
CMLEADERSTYLE
350
106ACA3
  3
CTABLESTYLE
350
106ACA2
  3
DIMASSOC
350
106ACA6
  3
HIDETEXT
350
106ACA7
  3
MSLTSCALE
350
106ACAE
  0
DICTIONARY
  5
106ABDD
102
{ACAD_REACTORS
330
539
102
}
330
539
100
AcDbDictionary
281
     1
  0
XRECORD
  5
106ACE8
102
{ACAD_REACTORS
330
539
102
}
330
539
100
AcDbXrecord
280
     1
  1
DWGPROPS COOKIE
  2

  3

  4

  6

  7

  8
usr2460
  9

300
=
301
=
302
=
303
=
304
=
305
=
306
=
307
=
308
=
309
=
 40
0.0
 41
0.0
 42
2460864.127198403
  1

 90
        0
  0
DICTIONARY
  5
106AC3E
102
{ACAD_REACTORS
330
539
102
}
330
539
100
AcDbDictionary
281
     1
1001
FX_DIMP_FAV_VERSION
1071
        1
  0
DICTIONARYVAR
  5
106ABE0
102
{ACAD_REACTORS
330
539
102
}
330
539
100
DictionaryVariables
280
     0
  1
0
  0
XRECORD
  5
106ACEC
102
{ACAD_REACTORS
330
106ACEB
102
}
330
106ACEB
100
AcDbXrecord
280
     1
102
VTR_0.000_0.000_1.000_1.000_GRIDDISPLAY
 70
     3
102
VTR_0.000_0.000_1.000_1.000_GRIDMAJOR
 70
     5
102
VTR_0.000_0.000_1.000_1.000_DEFAULTLIGHTING
280
     1
102
VTR_0.000_0.000_1.000_1.000_DEFAULTLIGHTINGTYPE
 70
     1
102
VTR_0.000_0.000_1.000_1.000_BRIGHTNESS
141
0.0
102
VTR_0.000_0.000_1.000_1.000_CONTRAST
142
0.0
  0
DICTIONARY
  5
106ACA0
102
{ACAD_REACTORS
330
106AC9F
102
}
330
106AC9F
100
AcDbDictionary
281
     1
  0
LAYOUT
  5
106AB98
102
{ACAD_REACTORS
330
106AB97
102
}
330
106AB97
100
AcDbPlotSettings
  1

  2
none_device
  4
Letter_(8.50_x_11.00_Inches)
  6

 40
6.35
 41
6.35
 42
6.35
 43
6.35
 44
215.9
 45
279.4
 46
0.0
 47
0.0
 48
0.0
 49
0.0
140
0.0
141
0.0
142
1.0
143
2.21959459445662
 70
  1712
 72
     0
 73
     0
 74
     0
  7

 75
     0
147
0.4505327245333333
148
-39.40881537143161
149
0.0
100
AcDbLayout
  1
Model
 70
     1
 71
     0
 10
0.0
 20
0.0
 11
12.0
 21
9.0
 12
0.0
 22
0.0
 32
0.0
 14
-15.0
 24
-45.0
 34
0.0
 15
89.99999999999999
 25
45.0
 35
0.0
146
0.0
 13
0.0
 23
0.0
 33
0.0
 16
1.0
 26
0.0
 36
0.0
 17
0.0
 27
1.0
 37
0.0
 76
     0
330
30
331
106AB91
  0
LAYOUT
  5
106AB99
102
{ACAD_REACTORS
330
106AB97
102
}
330
106AB97
100
AcDbPlotSettings
  1

  2
none_device
  4

  6

 40
0.0
 41
0.0
 42
0.0
 43
0.0
 44
0.0
 45
0.0
 46
0.0
 47
0.0
 48
0.0
 49
0.0
140
0.0
141
0.0
142
1.0
143
1.0
 70
   688
 72
     0
 73
     0
 74
     5
  7

 75
    16
147
1.0
148
0.0
149
0.0
100
AcDbLayout
  1
シート 1
 70
     1
 71
     1
 10
0.0
 20
0.0
 11
0.0
 21
0.0
 12
0.0
 22
0.0
 32
0.0
 14
1.000000000000000E+20
 24
1.000000000000000E+20
 34
1.000000000000000E+20
 15
-1.000000000000000E+20
 25
-1.000000000000000E+20
 35
-1.000000000000000E+20
146
0.0
 13
0.0
 23
0.0
 33
0.0
 16
1.0
 26
0.0
 36
0.0
 17
0.0
 27
1.0
 37
0.0
 76
     0
330
31
  0
MATERIAL
  5
106ABBE
102
{ACAD_REACTORS
330
106ABBC
102
}
102
{ACAD_XDICTIONARY
360
106ACEF
102
}
330
106ABBC
100
AcDbMaterial
  1
ByBlock
  0
MATERIAL
  5
106ABBD
102
{ACAD_REACTORS
330
106ABBC
102
}
102
{ACAD_XDICTIONARY
360
106ACED
102
}
330
106ABBC
100
AcDbMaterial
  1
ByLayer
  0
MATERIAL
  5
106ABBF
102
{ACAD_REACTORS
330
106ABBC
102
}
102
{ACAD_XDICTIONARY
360
106ACF1
102
}
330
106ABBC
100
AcDbMaterial
  1
Global
  0
MLEADERSTYLE
  5
106ABDC
102
{ACAD_REACTORS
330
106ABDB
102
}
102
{ACAD_XDICTIONARY
360
106AD24
102
}
330
106ABDB
100
AcDbMLeaderStyle
170
     2
171
     1
172
     0
 90
        2
 40
0.0
 41
0.0
173
     1
 91
-1056964608
340
4
 92
       -2
290
     1
 42
0.09
291
     1
 43
0.36
  3
Standard
341
0
 44
0.18
300

342
28
174
     1
178
     1
175
     1
176
     0
 93
-1056964608
 45
0.18
292
     0
297
     0
 46
0.18
343
0
 94
-1056964608
 47
1.0
 49
1.0
140
1.0
293
     1
141
0.0
294
     1
177
     0
142
1.0
295
     0
296
     0
143
0.125
1001
ACAD_MLEADERVER
1070
     2
  0
MLINESTYLE
  5
106AB93
102
{ACAD_REACTORS
330
106AB92
102
}
330
106AB92
100
AcDbMlineStyle
  2
Standard
 70
     0
  3

 62
   256
 51
90.0
 52
90.0
 71
     2
 49
0.5
 62
   256
  6
BYLAYER
 49
-0.5
 62
   256
  6
BYLAYER
  0
ACDBPLACEHOLDER
  5
106AB96
102
{ACAD_REACTORS
330
106AB95
102
}
330
106AB95
  0
SCALE
  5
106AB9B
102
{ACAD_REACTORS
330
106AB9A
102
}
330
106AB9A
100
AcDbScale
 70
     0
300
1:1
140
1.0
141
1.0
290
     1
  0
SCALE
  5
106AB9C
102
{ACAD_REACTORS
330
106AB9A
102
}
330
106AB9A
100
AcDbScale
 70
     0
300
1:2
140
1.0
141
2.0
290
     0
  0
SCALE
  5
106AB9D
102
{ACAD_REACTORS
330
106AB9A
102
}
330
106AB9A
100
AcDbScale
 70
     0
300
1:4
140
1.0
141
4.0
290
     0
  0
SCALE
  5
106AB9E
102
{ACAD_REACTORS
330
106AB9A
102
}
330
106AB9A
100
AcDbScale
 70
     0
300
1:5
140
1.0
141
5.0
290
     0
  0
SCALE
  5
106AB9F
102
{ACAD_REACTORS
330
106AB9A
102
}
330
106AB9A
100
AcDbScale
 70
     0
300
1:8
140
1.0
141
8.0
290
     0
  0
SCALE
  5
106ABA0
102
{ACAD_REACTORS
330
106AB9A
102
}
330
106AB9A
100
AcDbScale
 70
     0
300
1:10
140
1.0
141
10.0
290
     0
  0
SCALE
  5
106ABA1
102
{ACAD_REACTORS
330
106AB9A
102
}
330
106AB9A
100
AcDbScale
 70
     0
300
1:16
140
1.0
141
16.0
290
     0
  0
SCALE
  5
106ABA2
102
{ACAD_REACTORS
330
106AB9A
102
}
330
106AB9A
100
AcDbScale
 70
     0
300
1:20
140
1.0
141
20.0
290
     0
  0
SCALE
  5
106ABA3
102
{ACAD_REACTORS
330
106AB9A
102
}
330
106AB9A
100
AcDbScale
 70
     0
300
1:30
140
1.0
141
30.0
290
     0
  0
SCALE
  5
106ABA4
102
{ACAD_REACTORS
330
106AB9A
102
}
330
106AB9A
100
AcDbScale
 70
     0
300
1:40
140
1.0
141
40.0
290
     0
  0
SCALE
  5
106ABA5
102
{ACAD_REACTORS
330
106AB9A
102
}
330
106AB9A
100
AcDbScale
 70
     0
300
1:50
140
1.0
141
50.0
290
     0
  0
SCALE
  5
106ABA6
102
{ACAD_REACTORS
330
106AB9A
102
}
330
106AB9A
100
AcDbScale
 70
     0
300
1:100
140
1.0
141
100.0
290
     0
  0
SCALE
  5
106ABA7
102
{ACAD_REACTORS
330
106AB9A
102
}
330
106AB9A
100
AcDbScale
 70
     0
300
2:1
140
2.0
141
1.0
290
     0
  0
SCALE
  5
106ABA8
102
{ACAD_REACTORS
330
106AB9A
102
}
330
106AB9A
100
AcDbScale
 70
     0
300
4:1
140
4.0
141
1.0
290
     0
  0
SCALE
  5
106ABA9
102
{ACAD_REACTORS
330
106AB9A
102
}
330
106AB9A
100
AcDbScale
 70
     0
300
8:1
140
8.0
141
1.0
290
     0
  0
SCALE
  5
106ABAA
102
{ACAD_REACTORS
330
106AB9A
102
}
330
106AB9A
100
AcDbScale
 70
     0
300
10:1
140
10.0
141
1.0
290
     0
  0
SCALE
  5
106ABAB
102
{ACAD_REACTORS
330
106AB9A
102
}
330
106AB9A
100
AcDbScale
 70
     0
300
100:1
140
100.0
141
1.0
290
     0
  0
SCALE
  5
106ABAC
102
{ACAD_REACTORS
330
106AB9A
102
}
330
106AB9A
100
AcDbScale
 70
     0
300
1/128" = 1'-0"
140
0.0078125
141
12.0
290
     0
  0
SCALE
  5
106ABAD
102
{ACAD_REACTORS
330
106AB9A
102
}
330
106AB9A
100
AcDbScale
 70
     0
300
1/64" = 1'-0"
140
0.015625
141
12.0
290
     0
  0
SCALE
  5
106ABAE
102
{ACAD_REACTORS
330
106AB9A
102
}
330
106AB9A
100
AcDbScale
 70
     0
300
1/32" = 1'-0"
140
0.03125
141
12.0
290
     0
  0
SCALE
  5
106ABAF
102
{ACAD_REACTORS
330
106AB9A
102
}
330
106AB9A
100
AcDbScale
 70
     0
300
1/16" = 1'-0"
140
0.0625
141
12.0
290
     0
  0
SCALE
  5
106ABB0
102
{ACAD_REACTORS
330
106AB9A
102
}
330
106AB9A
100
AcDbScale
 70
     0
300
3/32" = 1'-0"
140
0.09375
141
12.0
290
     0
  0
SCALE
  5
106ABB1
102
{ACAD_REACTORS
330
106AB9A
102
}
330
106AB9A
100
AcDbScale
 70
     0
300
1/8" = 1'-0"
140
0.125
141
12.0
290
     0
  0
SCALE
  5
106ABB2
102
{ACAD_REACTORS
330
106AB9A
102
}
330
106AB9A
100
AcDbScale
 70
     0
300
3/16" = 1'-0"
140
0.1875
141
12.0
290
     0
  0
SCALE
  5
106ABB3
102
{ACAD_REACTORS
330
106AB9A
102
}
330
106AB9A
100
AcDbScale
 70
     0
300
1/4" = 1'-0"
140
0.25
141
12.0
290
     0
  0
SCALE
  5
106ABB4
102
{ACAD_REACTORS
330
106AB9A
102
}
330
106AB9A
100
AcDbScale
 70
     0
300
3/8" = 1'-0"
140
0.375
141
12.0
290
     0
  0
SCALE
  5
106ABB5
102
{ACAD_REACTORS
330
106AB9A
102
}
330
106AB9A
100
AcDbScale
 70
     0
300
1/2" = 1'-0"
140
0.5
141
12.0
290
     0
  0
SCALE
  5
106ABB6
102
{ACAD_REACTORS
330
106AB9A
102
}
330
106AB9A
100
AcDbScale
 70
     0
300
3/4" = 1'-0"
140
0.75
141
12.0
290
     0
  0
SCALE
  5
106ABB7
102
{ACAD_REACTORS
330
106AB9A
102
}
330
106AB9A
100
AcDbScale
 70
     0
300
1" = 1'-0"
140
1.0
141
12.0
290
     0
  0
SCALE
  5
106ABB8
102
{ACAD_REACTORS
330
106AB9A
102
}
330
106AB9A
100
AcDbScale
 70
     0
300
1-1/2" = 1'-0"
140
1.5
141
12.0
290
     0
  0
SCALE
  5
106ABB9
102
{ACAD_REACTORS
330
106AB9A
102
}
330
106AB9A
100
AcDbScale
 70
     0
300
3" = 1'-0"
140
3.0
141
12.0
290
     0
  0
SCALE
  5
106ABBA
102
{ACAD_REACTORS
330
106AB9A
102
}
330
106AB9A
100
AcDbScale
 70
     0
300
6" = 1'-0"
140
6.0
141
12.0
290
     0
  0
SCALE
  5
106ABBB
102
{ACAD_REACTORS
330
106AB9A
102
}
330
106AB9A
100
AcDbScale
 70
     0
300
1'-0" = 1'-0"
140
12.0
141
12.0
290
     0
  0
TABLESTYLE
  5
106ABDA
102
{ACAD_REACTORS
330
106ABD9
102
}
330
106ABD9
100
AcDbTableStyle
  3
Standard
 70
     0
 71
     0
 40
0.06
 41
0.06
280
     0
281
     0
  7
Monospac821 BT
140
0.18
170
     2
 62
     0
 63
   257
283
     0
274
    -2
284
     1
 64
     0
275
    -2
285
     1
 65
     0
276
    -2
286
     1
 66
     0
277
    -2
287
     1
 67
     0
278
    -2
288
     1
 68
     0
279
    -2
289
     1
 69
     0
  7
Monospac821 BT
140
0.25
170
     5
 62
     0
 63
   257
283
     0
274
    -2
284
     1
 64
     0
275
    -2
285
     1
 65
     0
276
    -2
286
     1
 66
     0
277
    -2
287
     1
 67
     0
278
    -2
288
     1
 68
     0
279
    -2
289
     1
 69
     0
  7
Monospac821 BT
140
0.18
170
     5
 62
     0
 63
   257
283
     0
274
    -2
284
     1
 64
     0
275
    -2
285
     1
 65
     0
276
    -2
286
     1
 66
     0
277
    -2
287
     1
 67
     0
278
    -2
288
     1
 68
     0
279
    -2
289
     1
 69
     0
  0
VISUALSTYLE
  5
106ABC5
102
{ACAD_REACTORS
330
106ABC0
102
}
102
{ACAD_XDICTIONARY
360
106ACFB
102
}
330
106ABC0
100
AcDbVisualStyle
  2
2dWireframe
 70
     4
 71
     0
 72
     2
 73
     0
 90
        0
 40
0.6
 41
30.0
 62
     5
 63
     7
 74
     1
 91
        4
 64
     7
 65
   257
 75
     1
175
     1
 42
1.0
 92
        0
 66
   257
 43
1.0
 76
     1
 77
     6
 78
     2
 67
     7
 79
     5
170
     0
171
     0
290
     0
174
     0
 93
        1
 44
0.0
173
     0
291
     0
 45
0.0
1001
ACAD
1000
AcDbSavedByObjectVersion
1070
     0
  0
VISUALSTYLE
  5
106ABC8
102
{ACAD_REACTORS
330
106ABC0
102
}
102
{ACAD_XDICTIONARY
360
106AD01
102
}
330
106ABC0
100
AcDbVisualStyle
  2
Basic
 70
     7
 71
     1
 72
     0
 73
     1
 90
        0
 40
0.6
 41
30.0
 62
     5
 63
     7
 74
     0
 91
        4
 64
     7
 65
   257
 75
     1
175
     1
 42
1.0
 92
        8
 66
     7
 43
1.0
 76
     1
 77
     6
 78
     2
 67
     7
 79
     5
170
     0
171
     0
290
     0
174
     0
 93
        1
 44
0.0
173
     0
291
     1
 45
0.0
1001
ACAD
1000
AcDbSavedByObjectVersion
1070
     0
  0
VISUALSTYLE
  5
106ABCC
102
{ACAD_REACTORS
330
106ABC0
102
}
102
{ACAD_XDICTIONARY
360
106AD09
102
}
330
106ABC0
100
AcDbVisualStyle
  2
Brighten
 70
    12
 71
     2
 72
     2
 73
     0
 90
        0
 40
0.6
 41
30.0
 62
     5
 63
     7
 74
     1
 91
        4
 64
     7
 65
   257
 75
     1
175
     1
 42
1.0
 92
        8
 66
     7
 43
1.0
 76
     1
 77
     6
 78
     2
 67
     7
 79
     5
170
     0
171
     0
290
     0
174
     0
 93
        1
 44
50.0
173
     0
291
     1
 45
0.0
1001
ACAD
1000
AcDbSavedByObjectVersion
1070
     0
  0
VISUALSTYLE
  5
106ABD0
102
{ACAD_REACTORS
330
106ABC0
102
}
102
{ACAD_XDICTIONARY
360
106AD11
102
}
330
106ABC0
100
AcDbVisualStyle
  2
ColorChange
 70
    16
 71
     2
 72
     2
 73
     3
 90
        0
 40
0.6
 41
30.0
 62
     5
 63
     8
 74
     1
 91
        4
 64
     7
 65
   257
 75
     1
175
     1
 42
1.0
 92
        8
 66
     8
 43
1.0
 76
     1
 77
     6
 78
     2
 67
     7
 79
     5
170
     0
171
     0
290
     0
174
     0
 93
        1
 44
0.0
173
     0
291
     1
 45
0.0
1001
ACAD
1000
AcDbSavedByObjectVersion
1070
     0
  0
VISUALSTYLE
  5
106ABCA
102
{ACAD_REACTORS
330
106ABC0
102
}
102
{ACAD_XDICTIONARY
360
106AD05
102
}
330
106ABC0
100
AcDbVisualStyle
  2
Conceptual
 70
     9
 71
     3
 72
     2
 73
     0
 90
        0
 40
0.6
 41
30.0
 62
     5
 63
     7
 74
     2
 91
        2
 64
     7
 65
   257
 75
     1
175
     1
 42
179.0
 92
        8
 66
     7
 43
1.0
 76
     1
 77
     6
 78
     2
 67
     7
 79
     3
170
     0
171
     0
290
     0
174
     0
 93
        1
 44
0.0
173
     0
291
     0
 45
0.0
1001
ACAD
1000
AcDbSavedByObjectVersion
1070
     0
  0
VISUALSTYLE
  5
106ABCB
102
{ACAD_REACTORS
330
106ABC0
102
}
102
{ACAD_XDICTIONARY
360
106AD07
102
}
330
106ABC0
100
AcDbVisualStyle
  2
Dim
 70
    11
 71
     2
 72
     2
 73
     0
 90
        0
 40
0.6
 41
30.0
 62
     5
 63
     7
 74
     1
 91
        4
 64
     7
 65
   257
 75
     1
175
     1
 42
1.0
 92
        8
 66
     7
 43
1.0
 76
     1
 77
     6
 78
     2
 67
     7
 79
     5
170
     0
171
     0
290
     0
174
     0
 93
        1
 44
-50.0
173
     0
291
     1
 45
0.0
1001
ACAD
1000
AcDbSavedByObjectVersion
1070
     0
  0
VISUALSTYLE
  5
106ABD3
102
{ACAD_REACTORS
330
106ABC0
102
}
102
{ACAD_XDICTIONARY
360
106AD17
102
}
330
106ABC0
100
AcDbVisualStyle
  2
EdgeColorOff
 70
    22
 71
     2
 72
     2
 73
     0
 90
        0
 40
0.6
 41
30.0
 62
     5
 63
     7
 74
     1
 91
        4
 64
     7
 65
   257
 75
     1
175
     1
 42
1.0
 92
        8
 66
     7
 43
1.0
 76
     1
 77
     6
 78
     2
 67
     7
 79
     5
170
     0
171
     0
290
     0
174
     0
 93
        1
 44
0.0
173
     0
291
     1
 45
0.0
1001
ACAD
1000
AcDbSavedByObjectVersion
1070
     0
  0
VISUALSTYLE
  5
106ABCF
102
{ACAD_REACTORS
330
106ABC0
102
}
102
{ACAD_XDICTIONARY
360
106AD0F
102
}
330
106ABC0
100
AcDbVisualStyle
  2
Facepattern
 70
    15
 71
     2
 72
     2
 73
     0
 90
        0
 40
0.6
 41
30.0
 62
     5
 63
     7
 74
     1
 91
        4
 64
     7
 65
   257
 75
     1
175
     1
 42
1.0
 92
        8
 66
     7
 43
1.0
 76
     1
 77
     6
 78
     2
 67
     7
 79
     5
170
     0
171
     0
290
     0
174
     0
 93
        1
 44
0.0
173
     0
291
     1
 45
0.0
1001
ACAD
1000
AcDbSavedByObjectVersion
1070
     0
  0
VISUALSTYLE
  5
106ABC1
102
{ACAD_REACTORS
330
106ABC0
102
}
102
{ACAD_XDICTIONARY
360
106ACF3
102
}
330
106ABC0
100
AcDbVisualStyle
  2
Flat
 70
     0
 71
     2
 72
     1
 73
     1
 90
        2
 40
0.6
 41
30.0
 62
     5
 63
     7
 74
     0
 91
        0
 64
     7
 65
   257
 75
     1
175
     1
 42
1.0
 92
        8
 66
     7
 43
1.0
 76
     1
 77
     6
 78
     2
 67
     7
 79
     5
170
     0
171
     0
290
     0
174
     0
 93
       13
 44
0.0
173
     0
291
     1
 45
0.0
1001
ACAD
1000
AcDbSavedByObjectVersion
1070
     0
  0
VISUALSTYLE
  5
106ABC2
102
{ACAD_REACTORS
330
106ABC0
102
}
102
{ACAD_XDICTIONARY
360
106ACF5
102
}
330
106ABC0
100
AcDbVisualStyle
  2
FlatWithEdges
 70
     1
 71
     2
 72
     1
 73
     1
 90
        2
 40
0.6
 41
30.0
 62
     5
 63
     7
 74
     1
 91
        0
 64
     7
 65
   257
 75
     1
175
     1
 42
1.0
 92
        0
 66
   257
 43
1.0
 76
     1
 77
     6
 78
     2
 67
     7
 79
     5
170
     0
171
     0
290
     0
174
     0
 93
       13
 44
0.0
173
     0
291
     1
 45
0.0
1001
ACAD
1000
AcDbSavedByObjectVersion
1070
     0
  0
VISUALSTYLE
  5
106ABC3
102
{ACAD_REACTORS
330
106ABC0
102
}
102
{ACAD_XDICTIONARY
360
106ACF7
102
}
330
106ABC0
100
AcDbVisualStyle
  2
Gouraud
 70
     2
 71
     2
 72
     2
 73
     1
 90
        2
 40
0.6
 41
30.0
 62
     5
 63
     7
 74
     0
 91
        0
 64
     7
 65
   257
 75
     1
175
     1
 42
1.0
 92
        0
 66
     7
 43
1.0
 76
     1
 77
     6
 78
     2
 67
     7
 79
     5
170
     0
171
     0
290
     0
174
     0
 93
       13
 44
0.0
173
     0
291
     1
 45
0.0
1001
ACAD
1000
AcDbSavedByObjectVersion
1070
     0
  0
VISUALSTYLE
  5
106ABC4
102
{ACAD_REACTORS
330
106ABC0
102
}
102
{ACAD_XDICTIONARY
360
106ACF9
102
}
330
106ABC0
100
AcDbVisualStyle
  2
GouraudWithEdges
 70
     3
 71
     2
 72
     2
 73
     1
 90
        2
 40
0.6
 41
30.0
 62
     5
 63
     7
 74
     1
 91
        0
 64
     7
 65
   257
 75
     1
175
     1
 42
1.0
 92
        0
 66
   257
 43
1.0
 76
     1
 77
     6
 78
     2
 67
     7
 79
     5
170
     0
171
     0
290
     0
174
     0
 93
       13
 44
0.0
173
     0
291
     1
 45
0.0
1001
ACAD
1000
AcDbSavedByObjectVersion
1070
     0
  0
VISUALSTYLE
  5
106ABC7
102
{ACAD_REACTORS
330
106ABC0
102
}
102
{ACAD_XDICTIONARY
360
106ACFF
102
}
330
106ABC0
100
AcDbVisualStyle
  2
Hidden
 70
     6
 71
     1
 72
     2
 73
     2
 90
        0
 40
0.6
 41
30.0
 62
     5
 63
     7
 74
     2
 91
        2
 64
     7
 65
   257
 75
     2
175
     1
 42
40.0
 92
        0
 66
   257
 43
1.0
 76
     1
 77
     6
 78
     2
 67
     7
 79
     3
170
     0
171
     0
290
     0
174
     0
 93
        1
 44
0.0
173
     0
291
     0
 45
0.0
1001
ACAD
1000
AcDbSavedByObjectVersion
1070
     0
  0
VISUALSTYLE
  5
106ABD1
102
{ACAD_REACTORS
330
106ABC0
102
}
102
{ACAD_XDICTIONARY
360
106AD13
102
}
330
106ABC0
100
AcDbVisualStyle
  2
JitterOff
 70
    20
 71
     2
 72
     2
 73
     0
 90
        0
 40
0.6
 41
30.0
 62
     5
 63
     7
 74
     1
 91
        4
 64
     7
 65
   257
 75
     1
175
     1
 42
1.0
 92
       10
 66
     7
 43
1.0
 76
     1
 77
     6
 78
     2
 67
     7
 79
     5
170
     0
171
     0
290
     0
174
     0
 93
        1
 44
0.0
173
     0
291
     1
 45
0.0
1001
ACAD
1000
AcDbSavedByObjectVersion
1070
     0
  0
VISUALSTYLE
  5
106ABCE
102
{ACAD_REACTORS
330
106ABC0
102
}
102
{ACAD_XDICTIONARY
360
106AD0D
102
}
330
106ABC0
100
AcDbVisualStyle
  2
Linepattern
 70
    14
 71
     2
 72
     2
 73
     0
 90
        0
 40
0.6
 41
30.0
 62
     5
 63
     7
 74
     1
 91
        4
 64
     7
 65
   257
 75
     7
175
     7
 42
1.0
 92
        8
 66
     7
 43
1.0
 76
     1
 77
     6
 78
     2
 67
     7
 79
     5
170
     0
171
     0
290
     0
174
     0
 93
        1
 44
0.0
173
     0
291
     1
 45
0.0
1001
ACAD
1000
AcDbSavedByObjectVersion
1070
     0
  0
VISUALSTYLE
  5
106ABD2
102
{ACAD_REACTORS
330
106ABC0
102
}
102
{ACAD_XDICTIONARY
360
106AD15
102
}
330
106ABC0
100
AcDbVisualStyle
  2
OverhangOff
 70
    21
 71
     2
 72
     2
 73
     0
 90
        0
 40
0.6
 41
30.0
 62
     5
 63
     7
 74
     1
 91
        4
 64
     7
 65
   257
 75
     1
175
     1
 42
1.0
 92
        9
 66
     7
 43
1.0
 76
     1
 77
     6
 78
     2
 67
     7
 79
     5
170
     0
171
     0
290
     0
174
     0
 93
        1
 44
0.0
173
     0
291
     1
 45
0.0
1001
ACAD
1000
AcDbSavedByObjectVersion
1070
     0
  0
VISUALSTYLE
  5
106ABC9
102
{ACAD_REACTORS
330
106ABC0
102
}
102
{ACAD_XDICTIONARY
360
106AD03
102
}
330
106ABC0
100
AcDbVisualStyle
  2
Realistic
 70
     8
 71
     2
 72
     3
 73
     0
 90
        2
 40
0.6
 41
30.0
 62
     5
 63
     7
 74
     0
 91
        0
 64
     7
 65
   257
 75
     1
175
     1
 42
1.0
 92
        8
 66
   257
 43
1.0
 76
     1
 77
     6
 78
     2
 67
     7
 79
     3
170
     0
171
     0
290
     0
174
     0
 93
       13
 44
0.0
173
     0
291
     0
 45
0.0
1001
ACAD
1000
AcDbSavedByObjectVersion
1070
     0
  0
VISUALSTYLE
  5
106ABD8
102
{ACAD_REACTORS
330
106ABC0
102
}
102
{ACAD_XDICTIONARY
360
106AD21
102
}
330
106ABC0
100
AcDbVisualStyle
  2
Shaded
 70
    27
 71
     2
 72
     2
 73
     1
 90
        2
 40
0.6
 41
30.0
 62
     5
 63
     7
 74
     0
 91
        4
 64
     7
 65
   257
 75
     1
175
     1
 42
1.0
 92
        8
 66
   257
 43
1.0
 76
     1
 77
     6
 78
     2
 67
     8
 79
     3
170
     0
171
     0
290
     0
174
     0
 93
        5
 44
0.0
173
     0
291
     0
 45
0.0
1001
ACAD
1000
AcDbSavedByObjectVersion
1070
     0
  0
VISUALSTYLE
  5
106ABD7
102
{ACAD_REACTORS
330
106ABC0
102
}
102
{ACAD_XDICTIONARY
360
106AD1F
102
}
330
106ABC0
100
AcDbVisualStyle
  2
Shaded with edges
 70
    26
 71
     2
 72
     2
 73
     1
 90
        2
 40
0.6
 41
30.0
 62
     5
 63
     7
 74
     1
 91
       10
 64
     7
 65
   257
 75
     2
175
     1
 42
1.0
 92
        8
 66
   257
 43
1.0
 76
     1
 77
     6
 78
     2
 67
     7
 79
     3
170
     0
171
     0
290
     0
174
     0
 93
        5
 44
0.0
173
     0
291
     0
 45
0.0
1001
ACAD
1000
AcDbSavedByObjectVersion
1070
     0
  0
VISUALSTYLE
  5
106ABD4
102
{ACAD_REACTORS
330
106ABC0
102
}
102
{ACAD_XDICTIONARY
360
106AD19
102
}
330
106ABC0
100
AcDbVisualStyle
  2
Shades of Gray
 70
    23
 71
     2
 72
     2
 73
     3
 90
        0
 40
0.6
 41
30.0
 62
     5
 63
     7
 74
     2
 91
        2
 64
     7
 65
     7
 75
     1
175
     1
 42
40.0
 92
        8
 66
     7
 43
1.0
 76
     1
 77
     6
 78
     2
 67
     7
 79
     3
170
     0
171
     0
290
     0
174
     0
 93
        1
 44
0.0
173
     0
291
     0
 45
0.0
1001
ACAD
1000
AcDbSavedByObjectVersion
1070
     0
  0
VISUALSTYLE
  5
106ABD5
102
{ACAD_REACTORS
330
106ABC0
102
}
102
{ACAD_XDICTIONARY
360
106AD1B
102
}
330
106ABC0
100
AcDbVisualStyle
  2
Sketchy
 70
    24
 71
     1
 72
     2
 73
     2
 90
        0
 40
0.6
 41
30.0
 62
     5
 63
     7
 74
     2
 91
        2
 64
     7
 65
     7
 75
     1
175
     1
 42
40.0
 92
       11
 66
     7
 43
1.0
 76
     1
 77
     6
 78
     2
 67
     7
 79
     6
170
     0
171
     0
290
     0
174
     0
 93
        1
 44
0.0
173
     0
291
     0
 45
0.0
1001
ACAD
1000
AcDbSavedByObjectVersion
1070
     0
  0
VISUALSTYLE
  5
106ABCD
102
{ACAD_REACTORS
330
106ABC0
102
}
102
{ACAD_XDICTIONARY
360
106AD0B
102
}
330
106ABC0
100
AcDbVisualStyle
  2
Thicken
 70
    13
 71
     2
 72
     2
 73
     0
 90
        0
 40
0.6
 41
30.0
 62
     5
 63
     7
 74
     1
 91
        4
 64
     7
 65
   257
 75
     1
175
     1
 42
1.0
 92
       12
 66
     7
 43
1.0
 76
     1
 77
     6
 78
     2
 67
     7
 79
     5
170
     0
171
     0
290
     0
174
     0
 93
        1
 44
0.0
173
     0
291
     1
 45
0.0
1001
ACAD
1000
AcDbSavedByObjectVersion
1070
     0
  0
VISUALSTYLE
  5
106ABC6
102
{ACAD_REACTORS
330
106ABC0
102
}
102
{ACAD_XDICTIONARY
360
106ACFD
102
}
330
106ABC0
100
AcDbVisualStyle
  2
Wireframe
 70
     5
 71
     0
 72
     2
 73
     0
 90
        0
 40
0.6
 41
30.0
 62
     5
 63
     7
 74
     1
 91
        4
 64
     7
 65
   257
 75
     1
175
     1
 42
1.0
 92
        0
 66
   257
 43
1.0
 76
     1
 77
     6
 78
     2
 67
     7
 79
     3
170
     0
171
     0
290
     0
174
     0
 93
        1
 44
0.0
173
     0
291
     0
 45
0.0
1001
ACAD
1000
AcDbSavedByObjectVersion
1070
     0
  0
VISUALSTYLE
  5
106ABD6
102
{ACAD_REACTORS
330
106ABC0
102
}
102
{ACAD_XDICTIONARY
360
106AD1D
102
}
330
106ABC0
100
AcDbVisualStyle
  2
X-Ray
 70
    25
 71
     2
 72
     2
 73
     1
 90
        1
 40
0.5
 41
30.0
 62
     5
 63
     7
 74
     1
 91
        0
 64
     7
 65
   257
 75
     1
175
     1
 42
1.0
 92
        8
 66
     7
 43
1.0
 76
     1
 77
     6
 78
     2
 67
     7
 79
     3
170
     0
171
     0
290
     0
174
     0
 93
       13
 44
0.0
173
     0
291
     0
 45
0.0
1001
ACAD
1000
AcDbSavedByObjectVersion
1070
     0
  0
DICTIONARYVAR
  5
106ACAD
102
{ACAD_REACTORS
330
106ACA1
102
}
330
106ACA1
100
DictionaryVariables
280
     0
  1
1:1
  0
DICTIONARYVAR
  5
106ACA3
102
{ACAD_REACTORS
330
106ACA1
102
}
330
106ACA1
100
DictionaryVariables
280
     0
  1
Standard
  0
DICTIONARYVAR
  5
106ACA2
102
{ACAD_REACTORS
330
106ACA1
102
}
330
106ACA1
100
DictionaryVariables
280
     0
  1
Standard
  0
DICTIONARYVAR
  5
106ACA6
102
{ACAD_REACTORS
330
106ACA1
102
}
330
106ACA1
100
DictionaryVariables
280
     0
  1
2
  0
DICTIONARYVAR
  5
106ACA7
102
{ACAD_REACTORS
330
106ACA1
102
}
330
106ACA1
100
DictionaryVariables
280
     0
  1
1
  0
DICTIONARYVAR
  5
106ACAE
102
{ACAD_REACTORS
330
106ACA1
102
}
330
106ACA1
100
DictionaryVariables
280
     0
  1
1
  0
DICTIONARY
  5
106ACEF
330
106ABBE
100
AcDbDictionary
280
     1
281
     1
  3
ACAD_XREC_ROUNDTRIP
360
106ACF0
  0
DICTIONARY
  5
106ACED
330
106ABBD
100
AcDbDictionary
280
     1
281
     1
  3
ACAD_XREC_ROUNDTRIP
360
106ACEE
  0
DICTIONARY
  5
106ACF1
330
106ABBF
100
AcDbDictionary
280
     1
281
     1
  3
ACAD_XREC_ROUNDTRIP
360
106ACF2
  0
DICTIONARY
  5
106AD24
330
106ABDC
100
AcDbDictionary
280
     1
281
     1
  3
ACAD_XREC_ROUNDTRIP
360
106AD25
  0
DICTIONARY
  5
106ACFB
330
106ABC5
100
AcDbDictionary
280
     1
281
     1
  3
ACAD_XREC_ROUNDTRIP
360
106ACFC
  0
DICTIONARY
  5
106AD01
330
106ABC8
100
AcDbDictionary
280
     1
281
     1
  3
ACAD_XREC_ROUNDTRIP
360
106AD02
  0
DICTIONARY
  5
106AD09
330
106ABCC
100
AcDbDictionary
280
     1
281
     1
  3
ACAD_XREC_ROUNDTRIP
360
106AD0A
  0
DICTIONARY
  5
106AD11
330
106ABD0
100
AcDbDictionary
280
     1
281
     1
  3
ACAD_XREC_ROUNDTRIP
360
106AD12
  0
DICTIONARY
  5
106AD05
330
106ABCA
100
AcDbDictionary
280
     1
281
     1
  3
ACAD_XREC_ROUNDTRIP
360
106AD06
  0
DICTIONARY
  5
106AD07
330
106ABCB
100
AcDbDictionary
280
     1
281
     1
  3
ACAD_XREC_ROUNDTRIP
360
106AD08
  0
DICTIONARY
  5
106AD17
330
106ABD3
100
AcDbDictionary
280
     1
281
     1
  3
ACAD_XREC_ROUNDTRIP
360
106AD18
  0
DICTIONARY
  5
106AD0F
330
106ABCF
100
AcDbDictionary
280
     1
281
     1
  3
ACAD_XREC_ROUNDTRIP
360
106AD10
  0
DICTIONARY
  5
106ACF3
330
106ABC1
100
AcDbDictionary
280
     1
281
     1
  3
ACAD_XREC_ROUNDTRIP
360
106ACF4
  0
DICTIONARY
  5
106ACF5
330
106ABC2
100
AcDbDictionary
280
     1
281
     1
  3
ACAD_XREC_ROUNDTRIP
360
106ACF6
  0
DICTIONARY
  5
106ACF7
330
106ABC3
100
AcDbDictionary
280
     1
281
     1
  3
ACAD_XREC_ROUNDTRIP
360
106ACF8
  0
DICTIONARY
  5
106ACF9
330
106ABC4
100
AcDbDictionary
280
     1
281
     1
  3
ACAD_XREC_ROUNDTRIP
360
106ACFA
  0
DICTIONARY
  5
106ACFF
330
106ABC7
100
AcDbDictionary
280
     1
281
     1
  3
ACAD_XREC_ROUNDTRIP
360
106AD00
  0
DICTIONARY
  5
106AD13
330
106ABD1
100
AcDbDictionary
280
     1
281
     1
  3
ACAD_XREC_ROUNDTRIP
360
106AD14
  0
DICTIONARY
  5
106AD0D
330
106ABCE
100
AcDbDictionary
280
     1
281
     1
  3
ACAD_XREC_ROUNDTRIP
360
106AD0E
  0
DICTIONARY
  5
106AD15
330
106ABD2
100
AcDbDictionary
280
     1
281
     1
  3
ACAD_XREC_ROUNDTRIP
360
106AD16
  0
DICTIONARY
  5
106AD03
330
106ABC9
100
AcDbDictionary
280
     1
281
     1
  3
ACAD_XREC_ROUNDTRIP
360
106AD04
  0
DICTIONARY
  5
106AD21
330
106ABD8
100
AcDbDictionary
280
     1
281
     1
  3
ACAD_XREC_ROUNDTRIP
360
106AD22
  0
DICTIONARY
  5
106AD1F
330
106ABD7
100
AcDbDictionary
280
     1
281
     1
  3
ACAD_XREC_ROUNDTRIP
360
106AD20
  0
DICTIONARY
  5
106AD19
330
106ABD4
100
AcDbDictionary
280
     1
281
     1
  3
ACAD_XREC_ROUNDTRIP
360
106AD1A
  0
DICTIONARY
  5
106AD1B
330
106ABD5
100
AcDbDictionary
280
     1
281
     1
  3
ACAD_XREC_ROUNDTRIP
360
106AD1C
  0
DICTIONARY
  5
106AD0B
330
106ABCD
100
AcDbDictionary
280
     1
281
     1
  3
ACAD_XREC_ROUNDTRIP
360
106AD0C
  0
DICTIONARY
  5
106ACFD
330
106ABC6
100
AcDbDictionary
280
     1
281
     1
  3
ACAD_XREC_ROUNDTRIP
360
106ACFE
  0
DICTIONARY
  5
106AD1D
330
106ABD6
100
AcDbDictionary
280
     1
281
     1
  3
ACAD_XREC_ROUNDTRIP
360
106AD1E
  0
XRECORD
  5
106ACF0
102
{ACAD_REACTORS
330
106ACEF
102
}
330
106ACEF
100
AcDbXrecord
280
     1
102
MATERIAL
148
0.0
149
0.0
149
0.0
 93
        0
 94
      127
282
     0
 72
     1
 77
     1
171
     1
175
     1
179
     1
273
     0
  0
XRECORD
  5
106ACEE
102
{ACAD_REACTORS
330
106ACED
102
}
330
106ACED
100
AcDbXrecord
280
     1
102
MATERIAL
148
0.0
149
0.0
149
0.0
 93
        0
 94
      127
282
     0
 72
     1
 77
     1
171
     1
175
     1
179
     1
273
     0
  0
XRECORD
  5
106ACF2
102
{ACAD_REACTORS
330
106ACF1
102
}
330
106ACF1
100
AcDbXrecord
280
     1
102
MATERIAL
148
0.0
149
0.0
149
0.0
 93
        0
 94
      127
282
     0
 72
     1
 77
     1
171
     1
175
     1
179
     1
273
     0
  0
XRECORD
  5
106AD25
102
{ACAD_REACTORS
330
106AD24
102
}
330
106AD24
100
AcDbXrecord
280
     1
102
ACAD_ROUNDTRIP_2010_MLEADER_STYLE
  0
XRECORD
  5
106ACFC
102
{ACAD_REACTORS
330
106ACFB
102
}
330
106ACFB
100
AcDbXrecord
280
     1
102
RTVSPropertyOp0
 70
     1
102
RTVSPropertyOp1
 70
     1
102
RTVSPropertyOp2
 70
     1
102
RTVSPropertyOp3
 70
     1
102
RTVSPropertyOp4
 70
     1
102
RTVSPropertyOp5
 70
     1
102
RTVSPropertyOp6
 70
     1
102
RTVSPropertyOp7
 70
     1
102
RTVSPropertyOp8
 70
     1
102
RTVSPropertyOp9
 70
     1
102
RTVSPropertyOp10
 70
     1
102
RTVSPropertyOp11
 70
     1
102
RTVSPropertyOp12
 70
     1
102
RTVSPropertyOp13
 70
     1
102
RTVSPropertyOp14
 70
     1
102
RTVSPropertyOp15
 70
     1
102
RTVSPropertyOp16
 70
     1
102
RTVSPropertyOp17
 70
     1
102
RTVSPropertyOp18
 70
     1
102
RTVSPropertyOp19
 70
     1
102
RTVSPropertyOp20
 70
     1
102
RTVSPropertyOp21
 70
     1
102
RTVSPropertyOp22
 70
     1
102
RTVSPropertyOp23
 70
     1
102
RTVSPropertyOp24
 70
     1
102
RTVSPropertyOp25
 70
     1
102
RTVSPropertyOp26
 70
     1
102
RTVSPropertyOp27
 70
     1
102
RTVSPropertyOp28
 70
     1
102
RTVSPropertyOp29
 70
     1
102
RTVSPropertyOp30
 70
     1
102
RTVSPropertyOp31
 70
     1
102
RTVSPropertyOp32
 70
     1
102
RTVSPropertyOp33
 70
     1
102
RTVSPropertyOp34
 70
     1
102
RTVSPropertyOp35
 70
     1
102
RTVSPropertyOp36
 70
     1
102
RTVSPropertyOp37
 70
     1
102
RTVSPropertyOp38
 70
     1
102
RTVSPropertyOp39
 70
     1
102
RTVSPropertyOp40
 70
     1
102
RTVSPropertyOp41
 70
     1
102
RTVSPropertyOp42
 70
     1
102
RTVSPropertyOp43
 70
     1
102
RTVSPropertyOp44
 70
     1
102
RTVSPropertyOp45
 70
     1
102
RTVSPropertyOp46
 70
     1
102
RTVSPropertyOp47
 70
     1
102
RTVSPropertyOp48
 70
     1
102
RTVSPropertyOp49
 70
     1
102
RTVSPropertyOp50
 70
     1
102
RTVSPropertyOp51
 70
     0
102
RTVSPropertyOp52
 70
     0
102
RTVSPropertyOp53
 70
     1
102
RTVSPropertyOp54
 70
     1
102
RTVSPropertyOp55
 70
     1
102
RTVSPropertyOp56
 70
     1
102
RTVSPropertyOp57
 70
     1
102
RTVSPost2010Prop28
280
     1
102
RTVSPost2010PropOp28
 70
     1
102
RTVSPost2010Prop29
280
     1
102
RTVSPost2010PropOp29
 70
     1
102
RTVSPost2010Prop30
280
     0
102
RTVSPost2010PropOp30
 70
     1
102
RTVSPost2010Prop31
280
     0
102
RTVSPost2010PropOp31
 70
     1
102
RTVSPost2010Prop32
280
     0
102
RTVSPost2010PropOp32
 70
     1
102
RTVSPost2010Prop33
280
     0
102
RTVSPost2010PropOp33
 70
     1
102
RTVSPost2010Prop34
280
     0
102
RTVSPost2010PropOp34
 70
     1
102
RTVSPost2010Prop35
280
     0
102
RTVSPost2010PropOp35
 70
     1
102
RTVSPost2010Prop36
280
     0
102
RTVSPost2010PropOp36
 70
     1
102
RTVSPost2010Prop37
 90
       50
102
RTVSPost2010PropOp37
 70
     1
102
RTVSPost2010Prop38
140
0.0
102
RTVSPost2010PropOp38
 70
     1
102
RTVSPost2010Prop39
140
1.0
102
RTVSPost2010PropOp39
 70
     1
102
RTVSPost2010Prop40
 90
        0
102
RTVSPost2010PropOp40
 70
     1
102
RTVSPost2010Prop41ColorIndex
 90
       18
102
RTVSPost2010Prop41ColorRGB
 90
        0
102
RTVSPost2010PropOp41
 70
     1
102
RTVSPost2010Prop42
 90
       50
102
RTVSPost2010PropOp42
 70
     1
102
RTVSPost2010Prop43
 90
        3
102
RTVSPost2010PropOp43
 70
     1
102
RTVSPost2010Prop44ColorIndex
 90
        5
102
RTVSPost2010Prop44ColorRGB
 90
      255
102
RTVSPost2010PropOp44
 70
     1
102
RTVSPost2010Prop45
280
     0
102
RTVSPost2010PropOp45
 70
     1
102
RTVSPost2010Prop46
 90
       50
102
RTVSPost2010PropOp46
 70
     1
102
RTVSPost2010Prop47
 90
       50
102
RTVSPost2010PropOp47
 70
     1
102
RTVSPost2010Prop48
 90
       50
102
RTVSPost2010PropOp48
 70
     1
102
RTVSPost2010Prop49
280
     0
102
RTVSPost2010PropOp49
 70
     1
102
RTVSPost2010Prop50
 90
       50
102
RTVSPost2010PropOp50
 70
     1
102
RTVSPost2010Prop51ColorIndex
 90
      256
102
RTVSPost2010Prop51ColorRGB
 90
-16777216
102
RTVSPost2010PropOp51
 70
     0
102
RTVSPost2010Prop52
140
1.0
102
RTVSPost2010PropOp52
 70
     0
102
RTVSPost2010Prop53
 90
        2
102
RTVSPost2010PropOp53
 70
     1
102
RTVSPost2010Prop54
  1
strokes_ogs.tif
102
RTVSPost2010PropOp54
 70
     1
102
RTVSPost2010Prop55
280
     0
102
RTVSPost2010PropOp55
 70
     1
102
RTVSPost2010Prop56
140
1.0
102
RTVSPost2010PropOp56
 70
     1
102
RTVSPost2010Prop57
140
1.0
102
RTVSPost2010PropOp57
 70
     1
  0
XRECORD
  5
106AD02
102
{ACAD_REACTORS
330
106AD01
102
}
330
106AD01
100
AcDbXrecord
280
     1
102
RTVSPropertyOp0
 70
     1
102
RTVSPropertyOp1
 70
     1
102
RTVSPropertyOp2
 70
     1
102
RTVSPropertyOp3
 70
     1
102
RTVSPropertyOp4
 70
     1
102
RTVSPropertyOp5
 70
     1
102
RTVSPropertyOp6
 70
     1
102
RTVSPropertyOp7
 70
     1
102
RTVSPropertyOp8
 70
     1
102
RTVSPropertyOp9
 70
     1
102
RTVSPropertyOp10
 70
     1
102
RTVSPropertyOp11
 70
     1
102
RTVSPropertyOp12
 70
     1
102
RTVSPropertyOp13
 70
     1
102
RTVSPropertyOp14
 70
     1
102
RTVSPropertyOp15
 70
     1
102
RTVSPropertyOp16
 70
     1
102
RTVSPropertyOp17
 70
     1
102
RTVSPropertyOp18
 70
     1
102
RTVSPropertyOp19
 70
     1
102
RTVSPropertyOp20
 70
     1
102
RTVSPropertyOp21
 70
     1
102
RTVSPropertyOp22
 70
     1
102
RTVSPropertyOp23
 70
     1
102
RTVSPropertyOp24
 70
     1
102
RTVSPropertyOp25
 70
     1
102
RTVSPropertyOp26
 70
     1
102
RTVSPropertyOp27
 70
     1
102
RTVSPropertyOp28
 70
     1
102
RTVSPropertyOp29
 70
     1
102
RTVSPropertyOp30
 70
     1
102
RTVSPropertyOp31
 70
     1
102
RTVSPropertyOp32
 70
     1
102
RTVSPropertyOp33
 70
     1
102
RTVSPropertyOp34
 70
     1
102
RTVSPropertyOp35
 70
     1
102
RTVSPropertyOp36
 70
     1
102
RTVSPropertyOp37
 70
     1
102
RTVSPropertyOp38
 70
     1
102
RTVSPropertyOp39
 70
     1
102
RTVSPropertyOp40
 70
     1
102
RTVSPropertyOp41
 70
     1
102
RTVSPropertyOp42
 70
     1
102
RTVSPropertyOp43
 70
     1
102
RTVSPropertyOp44
 70
     1
102
RTVSPropertyOp45
 70
     1
102
RTVSPropertyOp46
 70
     1
102
RTVSPropertyOp47
 70
     1
102
RTVSPropertyOp48
 70
     1
102
RTVSPropertyOp49
 70
     1
102
RTVSPropertyOp50
 70
     1
102
RTVSPropertyOp51
 70
     0
102
RTVSPropertyOp52
 70
     0
102
RTVSPropertyOp53
 70
     1
102
RTVSPropertyOp54
 70
     1
102
RTVSPropertyOp55
 70
     1
102
RTVSPropertyOp56
 70
     1
102
RTVSPropertyOp57
 70
     1
102
RTVSPost2010Prop28
280
     0
102
RTVSPost2010PropOp28
 70
     1
102
RTVSPost2010Prop29
280
     1
102
RTVSPost2010PropOp29
 70
     1
102
RTVSPost2010Prop30
280
     1
102
RTVSPost2010PropOp30
 70
     1
102
RTVSPost2010Prop31
280
     0
102
RTVSPost2010PropOp31
 70
     1
102
RTVSPost2010Prop32
280
     0
102
RTVSPost2010PropOp32
 70
     1
102
RTVSPost2010Prop33
280
     0
102
RTVSPost2010PropOp33
 70
     1
102
RTVSPost2010Prop34
280
     0
102
RTVSPost2010PropOp34
 70
     1
102
RTVSPost2010Prop35
280
     0
102
RTVSPost2010PropOp35
 70
     1
102
RTVSPost2010Prop36
280
     0
102
RTVSPost2010PropOp36
 70
     1
102
RTVSPost2010Prop37
 90
       50
102
RTVSPost2010PropOp37
 70
     1
102
RTVSPost2010Prop38
140
0.0
102
RTVSPost2010PropOp38
 70
     1
102
RTVSPost2010Prop39
140
1.0
102
RTVSPost2010PropOp39
 70
     1
102
RTVSPost2010Prop40
 90
        0
102
RTVSPost2010PropOp40
 70
     1
102
RTVSPost2010Prop41ColorIndex
 90
       18
102
RTVSPost2010Prop41ColorRGB
 90
        0
102
RTVSPost2010PropOp41
 70
     1
102
RTVSPost2010Prop42
 90
       50
102
RTVSPost2010PropOp42
 70
     1
102
RTVSPost2010Prop43
 90
        3
102
RTVSPost2010PropOp43
 70
     1
102
RTVSPost2010Prop44ColorIndex
 90
        5
102
RTVSPost2010Prop44ColorRGB
 90
      255
102
RTVSPost2010PropOp44
 70
     1
102
RTVSPost2010Prop45
280
     0
102
RTVSPost2010PropOp45
 70
     1
102
RTVSPost2010Prop46
 90
       50
102
RTVSPost2010PropOp46
 70
     1
102
RTVSPost2010Prop47
 90
       50
102
RTVSPost2010PropOp47
 70
     1
102
RTVSPost2010Prop48
 90
       50
102
RTVSPost2010PropOp48
 70
     1
102
RTVSPost2010Prop49
280
     0
102
RTVSPost2010PropOp49
 70
     1
102
RTVSPost2010Prop50
 90
       50
102
RTVSPost2010PropOp50
 70
     1
102
RTVSPost2010Prop51ColorIndex
 90
      256
102
RTVSPost2010Prop51ColorRGB
 90
-16777216
102
RTVSPost2010PropOp51
 70
     0
102
RTVSPost2010Prop52
140
1.0
102
RTVSPost2010PropOp52
 70
     0
102
RTVSPost2010Prop53
 90
        2
102
RTVSPost2010PropOp53
 70
     1
102
RTVSPost2010Prop54
  1
strokes_ogs.tif
102
RTVSPost2010PropOp54
 70
     1
102
RTVSPost2010Prop55
280
     0
102
RTVSPost2010PropOp55
 70
     1
102
RTVSPost2010Prop56
140
1.0
102
RTVSPost2010PropOp56
 70
     1
102
RTVSPost2010Prop57
140
1.0
102
RTVSPost2010PropOp57
 70
     1
  0
XRECORD
  5
106AD0A
102
{ACAD_REACTORS
330
106AD09
102
}
330
106AD09
100
AcDbXrecord
280
     1
102
RTVSPropertyOp0
 70
     1
102
RTVSPropertyOp1
 70
     1
102
RTVSPropertyOp2
 70
     1
102
RTVSPropertyOp3
 70
     1
102
RTVSPropertyOp4
 70
     1
102
RTVSPropertyOp5
 70
     1
102
RTVSPropertyOp6
 70
     1
102
RTVSPropertyOp7
 70
     1
102
RTVSPropertyOp8
 70
     1
102
RTVSPropertyOp9
 70
     1
102
RTVSPropertyOp10
 70
     1
102
RTVSPropertyOp11
 70
     1
102
RTVSPropertyOp12
 70
     1
102
RTVSPropertyOp13
 70
     1
102
RTVSPropertyOp14
 70
     1
102
RTVSPropertyOp15
 70
     1
102
RTVSPropertyOp16
 70
     1
102
RTVSPropertyOp17
 70
     1
102
RTVSPropertyOp18
 70
     1
102
RTVSPropertyOp19
 70
     1
102
RTVSPropertyOp20
 70
     1
102
RTVSPropertyOp21
 70
     1
102
RTVSPropertyOp22
 70
     1
102
RTVSPropertyOp23
 70
     1
102
RTVSPropertyOp24
 70
     1
102
RTVSPropertyOp25
 70
     1
102
RTVSPropertyOp26
 70
     1
102
RTVSPropertyOp27
 70
     1
102
RTVSPropertyOp28
 70
     1
102
RTVSPropertyOp29
 70
     1
102
RTVSPropertyOp30
 70
     1
102
RTVSPropertyOp31
 70
     1
102
RTVSPropertyOp32
 70
     1
102
RTVSPropertyOp33
 70
     1
102
RTVSPropertyOp34
 70
     1
102
RTVSPropertyOp35
 70
     1
102
RTVSPropertyOp36
 70
     1
102
RTVSPropertyOp37
 70
     1
102
RTVSPropertyOp38
 70
     1
102
RTVSPropertyOp39
 70
     1
102
RTVSPropertyOp40
 70
     1
102
RTVSPropertyOp41
 70
     1
102
RTVSPropertyOp42
 70
     1
102
RTVSPropertyOp43
 70
     1
102
RTVSPropertyOp44
 70
     1
102
RTVSPropertyOp45
 70
     1
102
RTVSPropertyOp46
 70
     1
102
RTVSPropertyOp47
 70
     1
102
RTVSPropertyOp48
 70
     1
102
RTVSPropertyOp49
 70
     1
102
RTVSPropertyOp50
 70
     1
102
RTVSPropertyOp51
 70
     0
102
RTVSPropertyOp52
 70
     0
102
RTVSPropertyOp53
 70
     1
102
RTVSPropertyOp54
 70
     1
102
RTVSPropertyOp55
 70
     1
102
RTVSPropertyOp56
 70
     1
102
RTVSPropertyOp57
 70
     1
102
RTVSPost2010Prop28
280
     0
102
RTVSPost2010PropOp28
 70
     1
102
RTVSPost2010Prop29
280
     1
102
RTVSPost2010PropOp29
 70
     1
102
RTVSPost2010Prop30
280
     1
102
RTVSPost2010PropOp30
 70
     1
102
RTVSPost2010Prop31
280
     0
102
RTVSPost2010PropOp31
 70
     1
102
RTVSPost2010Prop32
280
     0
102
RTVSPost2010PropOp32
 70
     1
102
RTVSPost2010Prop33
280
     0
102
RTVSPost2010PropOp33
 70
     1
102
RTVSPost2010Prop34
280
     0
102
RTVSPost2010PropOp34
 70
     1
102
RTVSPost2010Prop35
280
     0
102
RTVSPost2010PropOp35
 70
     1
102
RTVSPost2010Prop36
280
     0
102
RTVSPost2010PropOp36
 70
     1
102
RTVSPost2010Prop37
 90
       50
102
RTVSPost2010PropOp37
 70
     1
102
RTVSPost2010Prop38
140
0.0
102
RTVSPost2010PropOp38
 70
     1
102
RTVSPost2010Prop39
140
1.0
102
RTVSPost2010PropOp39
 70
     1
102
RTVSPost2010Prop40
 90
        0
102
RTVSPost2010PropOp40
 70
     1
102
RTVSPost2010Prop41ColorIndex
 90
       18
102
RTVSPost2010Prop41ColorRGB
 90
        0
102
RTVSPost2010PropOp41
 70
     1
102
RTVSPost2010Prop42
 90
       50
102
RTVSPost2010PropOp42
 70
     1
102
RTVSPost2010Prop43
 90
        3
102
RTVSPost2010PropOp43
 70
     1
102
RTVSPost2010Prop44ColorIndex
 90
        5
102
RTVSPost2010Prop44ColorRGB
 90
      255
102
RTVSPost2010PropOp44
 70
     1
102
RTVSPost2010Prop45
280
     0
102
RTVSPost2010PropOp45
 70
     1
102
RTVSPost2010Prop46
 90
       50
102
RTVSPost2010PropOp46
 70
     1
102
RTVSPost2010Prop47
 90
       50
102
RTVSPost2010PropOp47
 70
     1
102
RTVSPost2010Prop48
 90
       50
102
RTVSPost2010PropOp48
 70
     1
102
RTVSPost2010Prop49
280
     0
102
RTVSPost2010PropOp49
 70
     1
102
RTVSPost2010Prop50
 90
       50
102
RTVSPost2010PropOp50
 70
     1
102
RTVSPost2010Prop51ColorIndex
 90
      256
102
RTVSPost2010Prop51ColorRGB
 90
-16777216
102
RTVSPost2010PropOp51
 70
     0
102
RTVSPost2010Prop52
140
1.0
102
RTVSPost2010PropOp52
 70
     0
102
RTVSPost2010Prop53
 90
        2
102
RTVSPost2010PropOp53
 70
     1
102
RTVSPost2010Prop54
  1
strokes_ogs.tif
102
RTVSPost2010PropOp54
 70
     1
102
RTVSPost2010Prop55
280
     0
102
RTVSPost2010PropOp55
 70
     1
102
RTVSPost2010Prop56
140
1.0
102
RTVSPost2010PropOp56
 70
     1
102
RTVSPost2010Prop57
140
1.0
102
RTVSPost2010PropOp57
 70
     1
  0
XRECORD
  5
106AD12
102
{ACAD_REACTORS
330
106AD11
102
}
330
106AD11
100
AcDbXrecord
280
     1
102
RTVSPropertyOp0
 70
     1
102
RTVSPropertyOp1
 70
     1
102
RTVSPropertyOp2
 70
     1
102
RTVSPropertyOp3
 70
     1
102
RTVSPropertyOp4
 70
     1
102
RTVSPropertyOp5
 70
     1
102
RTVSPropertyOp6
 70
     1
102
RTVSPropertyOp7
 70
     1
102
RTVSPropertyOp8
 70
     1
102
RTVSPropertyOp9
 70
     1
102
RTVSPropertyOp10
 70
     1
102
RTVSPropertyOp11
 70
     1
102
RTVSPropertyOp12
 70
     1
102
RTVSPropertyOp13
 70
     1
102
RTVSPropertyOp14
 70
     1
102
RTVSPropertyOp15
 70
     1
102
RTVSPropertyOp16
 70
     1
102
RTVSPropertyOp17
 70
     1
102
RTVSPropertyOp18
 70
     1
102
RTVSPropertyOp19
 70
     1
102
RTVSPropertyOp20
 70
     1
102
RTVSPropertyOp21
 70
     1
102
RTVSPropertyOp22
 70
     1
102
RTVSPropertyOp23
 70
     1
102
RTVSPropertyOp24
 70
     1
102
RTVSPropertyOp25
 70
     1
102
RTVSPropertyOp26
 70
     1
102
RTVSPropertyOp27
 70
     1
102
RTVSPropertyOp28
 70
     1
102
RTVSPropertyOp29
 70
     1
102
RTVSPropertyOp30
 70
     1
102
RTVSPropertyOp31
 70
     1
102
RTVSPropertyOp32
 70
     1
102
RTVSPropertyOp33
 70
     1
102
RTVSPropertyOp34
 70
     1
102
RTVSPropertyOp35
 70
     1
102
RTVSPropertyOp36
 70
     1
102
RTVSPropertyOp37
 70
     1
102
RTVSPropertyOp38
 70
     1
102
RTVSPropertyOp39
 70
     1
102
RTVSPropertyOp40
 70
     1
102
RTVSPropertyOp41
 70
     1
102
RTVSPropertyOp42
 70
     1
102
RTVSPropertyOp43
 70
     1
102
RTVSPropertyOp44
 70
     1
102
RTVSPropertyOp45
 70
     1
102
RTVSPropertyOp46
 70
     1
102
RTVSPropertyOp47
 70
     1
102
RTVSPropertyOp48
 70
     1
102
RTVSPropertyOp49
 70
     1
102
RTVSPropertyOp50
 70
     1
102
RTVSPropertyOp51
 70
     0
102
RTVSPropertyOp52
 70
     0
102
RTVSPropertyOp53
 70
     1
102
RTVSPropertyOp54
 70
     1
102
RTVSPropertyOp55
 70
     1
102
RTVSPropertyOp56
 70
     1
102
RTVSPropertyOp57
 70
     1
102
RTVSPost2010Prop28
280
     0
102
RTVSPost2010PropOp28
 70
     1
102
RTVSPost2010Prop29
280
     1
102
RTVSPost2010PropOp29
 70
     1
102
RTVSPost2010Prop30
280
     1
102
RTVSPost2010PropOp30
 70
     1
102
RTVSPost2010Prop31
280
     0
102
RTVSPost2010PropOp31
 70
     1
102
RTVSPost2010Prop32
280
     0
102
RTVSPost2010PropOp32
 70
     1
102
RTVSPost2010Prop33
280
     0
102
RTVSPost2010PropOp33
 70
     1
102
RTVSPost2010Prop34
280
     0
102
RTVSPost2010PropOp34
 70
     1
102
RTVSPost2010Prop35
280
     0
102
RTVSPost2010PropOp35
 70
     1
102
RTVSPost2010Prop36
280
     0
102
RTVSPost2010PropOp36
 70
     1
102
RTVSPost2010Prop37
 90
       50
102
RTVSPost2010PropOp37
 70
     1
102
RTVSPost2010Prop38
140
0.0
102
RTVSPost2010PropOp38
 70
     1
102
RTVSPost2010Prop39
140
1.0
102
RTVSPost2010PropOp39
 70
     1
102
RTVSPost2010Prop40
 90
        0
102
RTVSPost2010PropOp40
 70
     1
102
RTVSPost2010Prop41ColorIndex
 90
       18
102
RTVSPost2010Prop41ColorRGB
 90
        0
102
RTVSPost2010PropOp41
 70
     1
102
RTVSPost2010Prop42
 90
       50
102
RTVSPost2010PropOp42
 70
     1
102
RTVSPost2010Prop43
 90
        3
102
RTVSPost2010PropOp43
 70
     1
102
RTVSPost2010Prop44ColorIndex
 90
        5
102
RTVSPost2010Prop44ColorRGB
 90
      255
102
RTVSPost2010PropOp44
 70
     1
102
RTVSPost2010Prop45
280
     0
102
RTVSPost2010PropOp45
 70
     1
102
RTVSPost2010Prop46
 90
       50
102
RTVSPost2010PropOp46
 70
     1
102
RTVSPost2010Prop47
 90
       50
102
RTVSPost2010PropOp47
 70
     1
102
RTVSPost2010Prop48
 90
       50
102
RTVSPost2010PropOp48
 70
     1
102
RTVSPost2010Prop49
280
     0
102
RTVSPost2010PropOp49
 70
     1
102
RTVSPost2010Prop50
 90
       50
102
RTVSPost2010PropOp50
 70
     1
102
RTVSPost2010Prop51ColorIndex
 90
      256
102
RTVSPost2010Prop51ColorRGB
 90
-16777216
102
RTVSPost2010PropOp51
 70
     0
102
RTVSPost2010Prop52
140
1.0
102
RTVSPost2010PropOp52
 70
     0
102
RTVSPost2010Prop53
 90
        2
102
RTVSPost2010PropOp53
 70
     1
102
RTVSPost2010Prop54
  1
strokes_ogs.tif
102
RTVSPost2010PropOp54
 70
     1
102
RTVSPost2010Prop55
280
     0
102
RTVSPost2010PropOp55
 70
     1
102
RTVSPost2010Prop56
140
1.0
102
RTVSPost2010PropOp56
 70
     1
102
RTVSPost2010Prop57
140
1.0
102
RTVSPost2010PropOp57
 70
     1
  0
XRECORD
  5
106AD06
102
{ACAD_REACTORS
330
106AD05
102
}
330
106AD05
100
AcDbXrecord
280
     1
102
RTVSPropertyOp0
 70
     1
102
RTVSPropertyOp1
 70
     1
102
RTVSPropertyOp2
 70
     1
102
RTVSPropertyOp3
 70
     1
102
RTVSPropertyOp4
 70
     1
102
RTVSPropertyOp5
 70
     1
102
RTVSPropertyOp6
 70
     1
102
RTVSPropertyOp7
 70
     1
102
RTVSPropertyOp8
 70
     1
102
RTVSPropertyOp9
 70
     1
102
RTVSPropertyOp10
 70
     1
102
RTVSPropertyOp11
 70
     1
102
RTVSPropertyOp12
 70
     1
102
RTVSPropertyOp13
 70
     1
102
RTVSPropertyOp14
 70
     1
102
RTVSPropertyOp15
 70
     1
102
RTVSPropertyOp16
 70
     1
102
RTVSPropertyOp17
 70
     1
102
RTVSPropertyOp18
 70
     1
102
RTVSPropertyOp19
 70
     1
102
RTVSPropertyOp20
 70
     1
102
RTVSPropertyOp21
 70
     1
102
RTVSPropertyOp22
 70
     1
102
RTVSPropertyOp23
 70
     1
102
RTVSPropertyOp24
 70
     1
102
RTVSPropertyOp25
 70
     1
102
RTVSPropertyOp26
 70
     1
102
RTVSPropertyOp27
 70
     1
102
RTVSPropertyOp28
 70
     1
102
RTVSPropertyOp29
 70
     1
102
RTVSPropertyOp30
 70
     1
102
RTVSPropertyOp31
 70
     1
102
RTVSPropertyOp32
 70
     1
102
RTVSPropertyOp33
 70
     1
102
RTVSPropertyOp34
 70
     1
102
RTVSPropertyOp35
 70
     1
102
RTVSPropertyOp36
 70
     1
102
RTVSPropertyOp37
 70
     1
102
RTVSPropertyOp38
 70
     1
102
RTVSPropertyOp39
 70
     1
102
RTVSPropertyOp40
 70
     1
102
RTVSPropertyOp41
 70
     1
102
RTVSPropertyOp42
 70
     1
102
RTVSPropertyOp43
 70
     1
102
RTVSPropertyOp44
 70
     1
102
RTVSPropertyOp45
 70
     1
102
RTVSPropertyOp46
 70
     1
102
RTVSPropertyOp47
 70
     1
102
RTVSPropertyOp48
 70
     1
102
RTVSPropertyOp49
 70
     1
102
RTVSPropertyOp50
 70
     1
102
RTVSPropertyOp51
 70
     0
102
RTVSPropertyOp52
 70
     0
102
RTVSPropertyOp53
 70
     1
102
RTVSPropertyOp54
 70
     1
102
RTVSPropertyOp55
 70
     1
102
RTVSPropertyOp56
 70
     1
102
RTVSPropertyOp57
 70
     1
102
RTVSPost2010Prop28
280
     0
102
RTVSPost2010PropOp28
 70
     1
102
RTVSPost2010Prop29
280
     1
102
RTVSPost2010PropOp29
 70
     1
102
RTVSPost2010Prop30
280
     1
102
RTVSPost2010PropOp30
 70
     1
102
RTVSPost2010Prop31
280
     0
102
RTVSPost2010PropOp31
 70
     1
102
RTVSPost2010Prop32
280
     0
102
RTVSPost2010PropOp32
 70
     1
102
RTVSPost2010Prop33
280
     0
102
RTVSPost2010PropOp33
 70
     1
102
RTVSPost2010Prop34
280
     0
102
RTVSPost2010PropOp34
 70
     1
102
RTVSPost2010Prop35
280
     0
102
RTVSPost2010PropOp35
 70
     1
102
RTVSPost2010Prop36
280
     0
102
RTVSPost2010PropOp36
 70
     1
102
RTVSPost2010Prop37
 90
       50
102
RTVSPost2010PropOp37
 70
     1
102
RTVSPost2010Prop38
140
0.0
102
RTVSPost2010PropOp38
 70
     1
102
RTVSPost2010Prop39
140
1.0
102
RTVSPost2010PropOp39
 70
     1
102
RTVSPost2010Prop40
 90
        0
102
RTVSPost2010PropOp40
 70
     1
102
RTVSPost2010Prop41ColorIndex
 90
       18
102
RTVSPost2010Prop41ColorRGB
 90
        0
102
RTVSPost2010PropOp41
 70
     1
102
RTVSPost2010Prop42
 90
       50
102
RTVSPost2010PropOp42
 70
     1
102
RTVSPost2010Prop43
 90
        3
102
RTVSPost2010PropOp43
 70
     1
102
RTVSPost2010Prop44ColorIndex
 90
        5
102
RTVSPost2010Prop44ColorRGB
 90
      255
102
RTVSPost2010PropOp44
 70
     1
102
RTVSPost2010Prop45
280
     0
102
RTVSPost2010PropOp45
 70
     1
102
RTVSPost2010Prop46
 90
       50
102
RTVSPost2010PropOp46
 70
     1
102
RTVSPost2010Prop47
 90
       50
102
RTVSPost2010PropOp47
 70
     1
102
RTVSPost2010Prop48
 90
       50
102
RTVSPost2010PropOp48
 70
     1
102
RTVSPost2010Prop49
280
     0
102
RTVSPost2010PropOp49
 70
     1
102
RTVSPost2010Prop50
 90
       50
102
RTVSPost2010PropOp50
 70
     1
102
RTVSPost2010Prop51ColorIndex
 90
      256
102
RTVSPost2010Prop51ColorRGB
 90
-16777216
102
RTVSPost2010PropOp51
 70
     0
102
RTVSPost2010Prop52
140
1.0
102
RTVSPost2010PropOp52
 70
     0
102
RTVSPost2010Prop53
 90
        2
102
RTVSPost2010PropOp53
 70
     1
102
RTVSPost2010Prop54
  1
strokes_ogs.tif
102
RTVSPost2010PropOp54
 70
     1
102
RTVSPost2010Prop55
280
     0
102
RTVSPost2010PropOp55
 70
     1
102
RTVSPost2010Prop56
140
1.0
102
RTVSPost2010PropOp56
 70
     1
102
RTVSPost2010Prop57
140
1.0
102
RTVSPost2010PropOp57
 70
     1
  0
XRECORD
  5
106AD08
102
{ACAD_REACTORS
330
106AD07
102
}
330
106AD07
100
AcDbXrecord
280
     1
102
RTVSPropertyOp0
 70
     1
102
RTVSPropertyOp1
 70
     1
102
RTVSPropertyOp2
 70
     1
102
RTVSPropertyOp3
 70
     1
102
RTVSPropertyOp4
 70
     1
102
RTVSPropertyOp5
 70
     1
102
RTVSPropertyOp6
 70
     1
102
RTVSPropertyOp7
 70
     1
102
RTVSPropertyOp8
 70
     1
102
RTVSPropertyOp9
 70
     1
102
RTVSPropertyOp10
 70
     1
102
RTVSPropertyOp11
 70
     1
102
RTVSPropertyOp12
 70
     1
102
RTVSPropertyOp13
 70
     1
102
RTVSPropertyOp14
 70
     1
102
RTVSPropertyOp15
 70
     1
102
RTVSPropertyOp16
 70
     1
102
RTVSPropertyOp17
 70
     1
102
RTVSPropertyOp18
 70
     1
102
RTVSPropertyOp19
 70
     1
102
RTVSPropertyOp20
 70
     1
102
RTVSPropertyOp21
 70
     1
102
RTVSPropertyOp22
 70
     1
102
RTVSPropertyOp23
 70
     1
102
RTVSPropertyOp24
 70
     1
102
RTVSPropertyOp25
 70
     1
102
RTVSPropertyOp26
 70
     1
102
RTVSPropertyOp27
 70
     1
102
RTVSPropertyOp28
 70
     1
102
RTVSPropertyOp29
 70
     1
102
RTVSPropertyOp30
 70
     1
102
RTVSPropertyOp31
 70
     1
102
RTVSPropertyOp32
 70
     1
102
RTVSPropertyOp33
 70
     1
102
RTVSPropertyOp34
 70
     1
102
RTVSPropertyOp35
 70
     1
102
RTVSPropertyOp36
 70
     1
102
RTVSPropertyOp37
 70
     1
102
RTVSPropertyOp38
 70
     1
102
RTVSPropertyOp39
 70
     1
102
RTVSPropertyOp40
 70
     1
102
RTVSPropertyOp41
 70
     1
102
RTVSPropertyOp42
 70
     1
102
RTVSPropertyOp43
 70
     1
102
RTVSPropertyOp44
 70
     1
102
RTVSPropertyOp45
 70
     1
102
RTVSPropertyOp46
 70
     1
102
RTVSPropertyOp47
 70
     1
102
RTVSPropertyOp48
 70
     1
102
RTVSPropertyOp49
 70
     1
102
RTVSPropertyOp50
 70
     1
102
RTVSPropertyOp51
 70
     0
102
RTVSPropertyOp52
 70
     0
102
RTVSPropertyOp53
 70
     1
102
RTVSPropertyOp54
 70
     1
102
RTVSPropertyOp55
 70
     1
102
RTVSPropertyOp56
 70
     1
102
RTVSPropertyOp57
 70
     1
102
RTVSPost2010Prop28
280
     0
102
RTVSPost2010PropOp28
 70
     1
102
RTVSPost2010Prop29
280
     1
102
RTVSPost2010PropOp29
 70
     1
102
RTVSPost2010Prop30
280
     1
102
RTVSPost2010PropOp30
 70
     1
102
RTVSPost2010Prop31
280
     0
102
RTVSPost2010PropOp31
 70
     1
102
RTVSPost2010Prop32
280
     0
102
RTVSPost2010PropOp32
 70
     1
102
RTVSPost2010Prop33
280
     0
102
RTVSPost2010PropOp33
 70
     1
102
RTVSPost2010Prop34
280
     0
102
RTVSPost2010PropOp34
 70
     1
102
RTVSPost2010Prop35
280
     0
102
RTVSPost2010PropOp35
 70
     1
102
RTVSPost2010Prop36
280
     0
102
RTVSPost2010PropOp36
 70
     1
102
RTVSPost2010Prop37
 90
       50
102
RTVSPost2010PropOp37
 70
     1
102
RTVSPost2010Prop38
140
0.0
102
RTVSPost2010PropOp38
 70
     1
102
RTVSPost2010Prop39
140
1.0
102
RTVSPost2010PropOp39
 70
     1
102
RTVSPost2010Prop40
 90
        0
102
RTVSPost2010PropOp40
 70
     1
102
RTVSPost2010Prop41ColorIndex
 90
       18
102
RTVSPost2010Prop41ColorRGB
 90
        0
102
RTVSPost2010PropOp41
 70
     1
102
RTVSPost2010Prop42
 90
       50
102
RTVSPost2010PropOp42
 70
     1
102
RTVSPost2010Prop43
 90
        3
102
RTVSPost2010PropOp43
 70
     1
102
RTVSPost2010Prop44ColorIndex
 90
        5
102
RTVSPost2010Prop44ColorRGB
 90
      255
102
RTVSPost2010PropOp44
 70
     1
102
RTVSPost2010Prop45
280
     0
102
RTVSPost2010PropOp45
 70
     1
102
RTVSPost2010Prop46
 90
       50
102
RTVSPost2010PropOp46
 70
     1
102
RTVSPost2010Prop47
 90
       50
102
RTVSPost2010PropOp47
 70
     1
102
RTVSPost2010Prop48
 90
       50
102
RTVSPost2010PropOp48
 70
     1
102
RTVSPost2010Prop49
280
     0
102
RTVSPost2010PropOp49
 70
     1
102
RTVSPost2010Prop50
 90
       50
102
RTVSPost2010PropOp50
 70
     1
102
RTVSPost2010Prop51ColorIndex
 90
      256
102
RTVSPost2010Prop51ColorRGB
 90
-16777216
102
RTVSPost2010PropOp51
 70
     0
102
RTVSPost2010Prop52
140
1.0
102
RTVSPost2010PropOp52
 70
     0
102
RTVSPost2010Prop53
 90
        2
102
RTVSPost2010PropOp53
 70
     1
102
RTVSPost2010Prop54
  1
strokes_ogs.tif
102
RTVSPost2010PropOp54
 70
     1
102
RTVSPost2010Prop55
280
     0
102
RTVSPost2010PropOp55
 70
     1
102
RTVSPost2010Prop56
140
1.0
102
RTVSPost2010PropOp56
 70
     1
102
RTVSPost2010Prop57
140
1.0
102
RTVSPost2010PropOp57
 70
     1
  0
XRECORD
  5
106AD18
102
{ACAD_REACTORS
330
106AD17
102
}
330
106AD17
100
AcDbXrecord
280
     1
102
RTVSPropertyOp0
 70
     0
102
RTVSPropertyOp1
 70
     0
102
RTVSPropertyOp2
 70
     0
102
RTVSPropertyOp3
 70
     0
102
RTVSPropertyOp4
 70
     0
102
RTVSPropertyOp5
 70
     0
102
RTVSPropertyOp6
 70
     0
102
RTVSPropertyOp7
 70
     0
102
RTVSPropertyOp8
 70
     0
102
RTVSPropertyOp9
 70
     0
102
RTVSPropertyOp10
 70
     0
102
RTVSPropertyOp11
 70
     0
102
RTVSPropertyOp12
 70
     0
102
RTVSPropertyOp13
 70
     0
102
RTVSPropertyOp14
 70
     2
102
RTVSPropertyOp15
 70
     0
102
RTVSPropertyOp16
 70
     0
102
RTVSPropertyOp17
 70
     0
102
RTVSPropertyOp18
 70
     0
102
RTVSPropertyOp19
 70
     0
102
RTVSPropertyOp20
 70
     0
102
RTVSPropertyOp21
 70
     0
102
RTVSPropertyOp22
 70
     0
102
RTVSPropertyOp23
 70
     0
102
RTVSPropertyOp24
 70
     0
102
RTVSPropertyOp25
 70
     0
102
RTVSPropertyOp26
 70
     0
102
RTVSPropertyOp27
 70
     0
102
RTVSPropertyOp28
 70
     0
102
RTVSPropertyOp29
 70
     0
102
RTVSPropertyOp30
 70
     0
102
RTVSPropertyOp31
 70
     0
102
RTVSPropertyOp32
 70
     0
102
RTVSPropertyOp33
 70
     0
102
RTVSPropertyOp34
 70
     0
102
RTVSPropertyOp35
 70
     0
102
RTVSPropertyOp36
 70
     0
102
RTVSPropertyOp37
 70
     0
102
RTVSPropertyOp38
 70
     0
102
RTVSPropertyOp39
 70
     0
102
RTVSPropertyOp40
 70
     0
102
RTVSPropertyOp41
 70
     0
102
RTVSPropertyOp42
 70
     0
102
RTVSPropertyOp43
 70
     0
102
RTVSPropertyOp44
 70
     0
102
RTVSPropertyOp45
 70
     0
102
RTVSPropertyOp46
 70
     0
102
RTVSPropertyOp47
 70
     0
102
RTVSPropertyOp48
 70
     0
102
RTVSPropertyOp49
 70
     0
102
RTVSPropertyOp50
 70
     0
102
RTVSPropertyOp51
 70
     0
102
RTVSPropertyOp52
 70
     0
102
RTVSPropertyOp53
 70
     0
102
RTVSPropertyOp54
 70
     0
102
RTVSPropertyOp55
 70
     0
102
RTVSPropertyOp56
 70
     0
102
RTVSPropertyOp57
 70
     0
102
RTVSPost2010Prop28
280
     0
102
RTVSPost2010PropOp28
 70
     0
102
RTVSPost2010Prop29
280
     1
102
RTVSPost2010PropOp29
 70
     0
102
RTVSPost2010Prop30
280
     1
102
RTVSPost2010PropOp30
 70
     0
102
RTVSPost2010Prop31
280
     0
102
RTVSPost2010PropOp31
 70
     0
102
RTVSPost2010Prop32
280
     0
102
RTVSPost2010PropOp32
 70
     0
102
RTVSPost2010Prop33
280
     0
102
RTVSPost2010PropOp33
 70
     0
102
RTVSPost2010Prop34
280
     0
102
RTVSPost2010PropOp34
 70
     0
102
RTVSPost2010Prop35
280
     0
102
RTVSPost2010PropOp35
 70
     0
102
RTVSPost2010Prop36
280
     0
102
RTVSPost2010PropOp36
 70
     0
102
RTVSPost2010Prop37
 90
       50
102
RTVSPost2010PropOp37
 70
     0
102
RTVSPost2010Prop38
140
0.0
102
RTVSPost2010PropOp38
 70
     0
102
RTVSPost2010Prop39
140
1.0
102
RTVSPost2010PropOp39
 70
     0
102
RTVSPost2010Prop40
 90
        0
102
RTVSPost2010PropOp40
 70
     0
102
RTVSPost2010Prop41ColorIndex
 90
       18
102
RTVSPost2010Prop41ColorRGB
 90
        0
102
RTVSPost2010PropOp41
 70
     0
102
RTVSPost2010Prop42
 90
       50
102
RTVSPost2010PropOp42
 70
     0
102
RTVSPost2010Prop43
 90
        3
102
RTVSPost2010PropOp43
 70
     0
102
RTVSPost2010Prop44ColorIndex
 90
        5
102
RTVSPost2010Prop44ColorRGB
 90
      255
102
RTVSPost2010PropOp44
 70
     0
102
RTVSPost2010Prop45
280
     0
102
RTVSPost2010PropOp45
 70
     0
102
RTVSPost2010Prop46
 90
       50
102
RTVSPost2010PropOp46
 70
     0
102
RTVSPost2010Prop47
 90
       50
102
RTVSPost2010PropOp47
 70
     0
102
RTVSPost2010Prop48
 90
       50
102
RTVSPost2010PropOp48
 70
     0
102
RTVSPost2010Prop49
280
     0
102
RTVSPost2010PropOp49
 70
     0
102
RTVSPost2010Prop50
 90
       50
102
RTVSPost2010PropOp50
 70
     0
102
RTVSPost2010Prop51ColorIndex
 90
      256
102
RTVSPost2010Prop51ColorRGB
 90
-16777216
102
RTVSPost2010PropOp51
 70
     0
102
RTVSPost2010Prop52
140
1.0
102
RTVSPost2010PropOp52
 70
     0
102
RTVSPost2010Prop53
 90
        2
102
RTVSPost2010PropOp53
 70
     0
102
RTVSPost2010Prop54
  1
strokes_ogs.tif
102
RTVSPost2010PropOp54
 70
     0
102
RTVSPost2010Prop55
280
     0
102
RTVSPost2010PropOp55
 70
     0
102
RTVSPost2010Prop56
140
1.0
102
RTVSPost2010PropOp56
 70
     0
102
RTVSPost2010Prop57
140
1.0
102
RTVSPost2010PropOp57
 70
     0
  0
XRECORD
  5
106AD10
102
{ACAD_REACTORS
330
106AD0F
102
}
330
106AD0F
100
AcDbXrecord
280
     1
102
RTVSPropertyOp0
 70
     1
102
RTVSPropertyOp1
 70
     1
102
RTVSPropertyOp2
 70
     1
102
RTVSPropertyOp3
 70
     1
102
RTVSPropertyOp4
 70
     1
102
RTVSPropertyOp5
 70
     1
102
RTVSPropertyOp6
 70
     1
102
RTVSPropertyOp7
 70
     1
102
RTVSPropertyOp8
 70
     1
102
RTVSPropertyOp9
 70
     1
102
RTVSPropertyOp10
 70
     1
102
RTVSPropertyOp11
 70
     1
102
RTVSPropertyOp12
 70
     1
102
RTVSPropertyOp13
 70
     1
102
RTVSPropertyOp14
 70
     1
102
RTVSPropertyOp15
 70
     1
102
RTVSPropertyOp16
 70
     1
102
RTVSPropertyOp17
 70
     1
102
RTVSPropertyOp18
 70
     1
102
RTVSPropertyOp19
 70
     1
102
RTVSPropertyOp20
 70
     1
102
RTVSPropertyOp21
 70
     1
102
RTVSPropertyOp22
 70
     1
102
RTVSPropertyOp23
 70
     1
102
RTVSPropertyOp24
 70
     1
102
RTVSPropertyOp25
 70
     1
102
RTVSPropertyOp26
 70
     1
102
RTVSPropertyOp27
 70
     1
102
RTVSPropertyOp28
 70
     1
102
RTVSPropertyOp29
 70
     1
102
RTVSPropertyOp30
 70
     1
102
RTVSPropertyOp31
 70
     1
102
RTVSPropertyOp32
 70
     1
102
RTVSPropertyOp33
 70
     1
102
RTVSPropertyOp34
 70
     1
102
RTVSPropertyOp35
 70
     1
102
RTVSPropertyOp36
 70
     1
102
RTVSPropertyOp37
 70
     1
102
RTVSPropertyOp38
 70
     1
102
RTVSPropertyOp39
 70
     1
102
RTVSPropertyOp40
 70
     1
102
RTVSPropertyOp41
 70
     1
102
RTVSPropertyOp42
 70
     1
102
RTVSPropertyOp43
 70
     1
102
RTVSPropertyOp44
 70
     1
102
RTVSPropertyOp45
 70
     1
102
RTVSPropertyOp46
 70
     1
102
RTVSPropertyOp47
 70
     1
102
RTVSPropertyOp48
 70
     1
102
RTVSPropertyOp49
 70
     1
102
RTVSPropertyOp50
 70
     1
102
RTVSPropertyOp51
 70
     0
102
RTVSPropertyOp52
 70
     0
102
RTVSPropertyOp53
 70
     1
102
RTVSPropertyOp54
 70
     1
102
RTVSPropertyOp55
 70
     1
102
RTVSPropertyOp56
 70
     1
102
RTVSPropertyOp57
 70
     1
102
RTVSPost2010Prop28
280
     0
102
RTVSPost2010PropOp28
 70
     1
102
RTVSPost2010Prop29
280
     1
102
RTVSPost2010PropOp29
 70
     1
102
RTVSPost2010Prop30
280
     1
102
RTVSPost2010PropOp30
 70
     1
102
RTVSPost2010Prop31
280
     0
102
RTVSPost2010PropOp31
 70
     1
102
RTVSPost2010Prop32
280
     0
102
RTVSPost2010PropOp32
 70
     1
102
RTVSPost2010Prop33
280
     0
102
RTVSPost2010PropOp33
 70
     1
102
RTVSPost2010Prop34
280
     0
102
RTVSPost2010PropOp34
 70
     1
102
RTVSPost2010Prop35
280
     0
102
RTVSPost2010PropOp35
 70
     1
102
RTVSPost2010Prop36
280
     0
102
RTVSPost2010PropOp36
 70
     1
102
RTVSPost2010Prop37
 90
       50
102
RTVSPost2010PropOp37
 70
     1
102
RTVSPost2010Prop38
140
0.0
102
RTVSPost2010PropOp38
 70
     1
102
RTVSPost2010Prop39
140
1.0
102
RTVSPost2010PropOp39
 70
     1
102
RTVSPost2010Prop40
 90
        0
102
RTVSPost2010PropOp40
 70
     1
102
RTVSPost2010Prop41ColorIndex
 90
       18
102
RTVSPost2010Prop41ColorRGB
 90
        0
102
RTVSPost2010PropOp41
 70
     1
102
RTVSPost2010Prop42
 90
       50
102
RTVSPost2010PropOp42
 70
     1
102
RTVSPost2010Prop43
 90
        3
102
RTVSPost2010PropOp43
 70
     1
102
RTVSPost2010Prop44ColorIndex
 90
        5
102
RTVSPost2010Prop44ColorRGB
 90
      255
102
RTVSPost2010PropOp44
 70
     1
102
RTVSPost2010Prop45
280
     0
102
RTVSPost2010PropOp45
 70
     1
102
RTVSPost2010Prop46
 90
       50
102
RTVSPost2010PropOp46
 70
     1
102
RTVSPost2010Prop47
 90
       50
102
RTVSPost2010PropOp47
 70
     1
102
RTVSPost2010Prop48
 90
       50
102
RTVSPost2010PropOp48
 70
     1
102
RTVSPost2010Prop49
280
     0
102
RTVSPost2010PropOp49
 70
     1
102
RTVSPost2010Prop50
 90
       50
102
RTVSPost2010PropOp50
 70
     1
102
RTVSPost2010Prop51ColorIndex
 90
      256
102
RTVSPost2010Prop51ColorRGB
 90
-16777216
102
RTVSPost2010PropOp51
 70
     0
102
RTVSPost2010Prop52
140
1.0
102
RTVSPost2010PropOp52
 70
     0
102
RTVSPost2010Prop53
 90
        2
102
RTVSPost2010PropOp53
 70
     1
102
RTVSPost2010Prop54
  1
strokes_ogs.tif
102
RTVSPost2010PropOp54
 70
     1
102
RTVSPost2010Prop55
280
     0
102
RTVSPost2010PropOp55
 70
     1
102
RTVSPost2010Prop56
140
1.0
102
RTVSPost2010PropOp56
 70
     1
102
RTVSPost2010Prop57
140
1.0
102
RTVSPost2010PropOp57
 70
     1
  0
XRECORD
  5
106ACF4
102
{ACAD_REACTORS
330
106ACF3
102
}
330
106ACF3
100
AcDbXrecord
280
     1
102
RTVSPropertyOp0
 70
     1
102
RTVSPropertyOp1
 70
     1
102
RTVSPropertyOp2
 70
     1
102
RTVSPropertyOp3
 70
     1
102
RTVSPropertyOp4
 70
     1
102
RTVSPropertyOp5
 70
     1
102
RTVSPropertyOp6
 70
     1
102
RTVSPropertyOp7
 70
     1
102
RTVSPropertyOp8
 70
     1
102
RTVSPropertyOp9
 70
     1
102
RTVSPropertyOp10
 70
     1
102
RTVSPropertyOp11
 70
     1
102
RTVSPropertyOp12
 70
     1
102
RTVSPropertyOp13
 70
     1
102
RTVSPropertyOp14
 70
     1
102
RTVSPropertyOp15
 70
     1
102
RTVSPropertyOp16
 70
     1
102
RTVSPropertyOp17
 70
     1
102
RTVSPropertyOp18
 70
     1
102
RTVSPropertyOp19
 70
     1
102
RTVSPropertyOp20
 70
     1
102
RTVSPropertyOp21
 70
     1
102
RTVSPropertyOp22
 70
     1
102
RTVSPropertyOp23
 70
     1
102
RTVSPropertyOp24
 70
     1
102
RTVSPropertyOp25
 70
     1
102
RTVSPropertyOp26
 70
     1
102
RTVSPropertyOp27
 70
     1
102
RTVSPropertyOp28
 70
     1
102
RTVSPropertyOp29
 70
     1
102
RTVSPropertyOp30
 70
     1
102
RTVSPropertyOp31
 70
     1
102
RTVSPropertyOp32
 70
     1
102
RTVSPropertyOp33
 70
     1
102
RTVSPropertyOp34
 70
     1
102
RTVSPropertyOp35
 70
     1
102
RTVSPropertyOp36
 70
     1
102
RTVSPropertyOp37
 70
     1
102
RTVSPropertyOp38
 70
     1
102
RTVSPropertyOp39
 70
     1
102
RTVSPropertyOp40
 70
     1
102
RTVSPropertyOp41
 70
     1
102
RTVSPropertyOp42
 70
     1
102
RTVSPropertyOp43
 70
     1
102
RTVSPropertyOp44
 70
     1
102
RTVSPropertyOp45
 70
     1
102
RTVSPropertyOp46
 70
     1
102
RTVSPropertyOp47
 70
     1
102
RTVSPropertyOp48
 70
     1
102
RTVSPropertyOp49
 70
     1
102
RTVSPropertyOp50
 70
     1
102
RTVSPropertyOp51
 70
     0
102
RTVSPropertyOp52
 70
     0
102
RTVSPropertyOp53
 70
     1
102
RTVSPropertyOp54
 70
     1
102
RTVSPropertyOp55
 70
     1
102
RTVSPropertyOp56
 70
     1
102
RTVSPropertyOp57
 70
     1
102
RTVSPost2010Prop28
280
     0
102
RTVSPost2010PropOp28
 70
     1
102
RTVSPost2010Prop29
280
     1
102
RTVSPost2010PropOp29
 70
     1
102
RTVSPost2010Prop30
280
     1
102
RTVSPost2010PropOp30
 70
     1
102
RTVSPost2010Prop31
280
     0
102
RTVSPost2010PropOp31
 70
     1
102
RTVSPost2010Prop32
280
     0
102
RTVSPost2010PropOp32
 70
     1
102
RTVSPost2010Prop33
280
     0
102
RTVSPost2010PropOp33
 70
     1
102
RTVSPost2010Prop34
280
     0
102
RTVSPost2010PropOp34
 70
     1
102
RTVSPost2010Prop35
280
     0
102
RTVSPost2010PropOp35
 70
     1
102
RTVSPost2010Prop36
280
     0
102
RTVSPost2010PropOp36
 70
     1
102
RTVSPost2010Prop37
 90
       50
102
RTVSPost2010PropOp37
 70
     1
102
RTVSPost2010Prop38
140
0.0
102
RTVSPost2010PropOp38
 70
     1
102
RTVSPost2010Prop39
140
1.0
102
RTVSPost2010PropOp39
 70
     1
102
RTVSPost2010Prop40
 90
        0
102
RTVSPost2010PropOp40
 70
     1
102
RTVSPost2010Prop41ColorIndex
 90
       18
102
RTVSPost2010Prop41ColorRGB
 90
        0
102
RTVSPost2010PropOp41
 70
     1
102
RTVSPost2010Prop42
 90
       50
102
RTVSPost2010PropOp42
 70
     1
102
RTVSPost2010Prop43
 90
        3
102
RTVSPost2010PropOp43
 70
     1
102
RTVSPost2010Prop44ColorIndex
 90
        5
102
RTVSPost2010Prop44ColorRGB
 90
      255
102
RTVSPost2010PropOp44
 70
     1
102
RTVSPost2010Prop45
280
     0
102
RTVSPost2010PropOp45
 70
     1
102
RTVSPost2010Prop46
 90
       50
102
RTVSPost2010PropOp46
 70
     1
102
RTVSPost2010Prop47
 90
       50
102
RTVSPost2010PropOp47
 70
     1
102
RTVSPost2010Prop48
 90
       50
102
RTVSPost2010PropOp48
 70
     1
102
RTVSPost2010Prop49
280
     0
102
RTVSPost2010PropOp49
 70
     1
102
RTVSPost2010Prop50
 90
       50
102
RTVSPost2010PropOp50
 70
     1
102
RTVSPost2010Prop51ColorIndex
 90
      256
102
RTVSPost2010Prop51ColorRGB
 90
-16777216
102
RTVSPost2010PropOp51
 70
     0
102
RTVSPost2010Prop52
140
1.0
102
RTVSPost2010PropOp52
 70
     0
102
RTVSPost2010Prop53
 90
        2
102
RTVSPost2010PropOp53
 70
     1
102
RTVSPost2010Prop54
  1
strokes_ogs.tif
102
RTVSPost2010PropOp54
 70
     1
102
RTVSPost2010Prop55
280
     0
102
RTVSPost2010PropOp55
 70
     1
102
RTVSPost2010Prop56
140
1.0
102
RTVSPost2010PropOp56
 70
     1
102
RTVSPost2010Prop57
140
1.0
102
RTVSPost2010PropOp57
 70
     1
  0
XRECORD
  5
106ACF6
102
{ACAD_REACTORS
330
106ACF5
102
}
330
106ACF5
100
AcDbXrecord
280
     1
102
RTVSPropertyOp0
 70
     1
102
RTVSPropertyOp1
 70
     1
102
RTVSPropertyOp2
 70
     1
102
RTVSPropertyOp3
 70
     1
102
RTVSPropertyOp4
 70
     1
102
RTVSPropertyOp5
 70
     1
102
RTVSPropertyOp6
 70
     1
102
RTVSPropertyOp7
 70
     1
102
RTVSPropertyOp8
 70
     1
102
RTVSPropertyOp9
 70
     1
102
RTVSPropertyOp10
 70
     1
102
RTVSPropertyOp11
 70
     1
102
RTVSPropertyOp12
 70
     1
102
RTVSPropertyOp13
 70
     1
102
RTVSPropertyOp14
 70
     1
102
RTVSPropertyOp15
 70
     1
102
RTVSPropertyOp16
 70
     1
102
RTVSPropertyOp17
 70
     1
102
RTVSPropertyOp18
 70
     1
102
RTVSPropertyOp19
 70
     1
102
RTVSPropertyOp20
 70
     1
102
RTVSPropertyOp21
 70
     1
102
RTVSPropertyOp22
 70
     1
102
RTVSPropertyOp23
 70
     1
102
RTVSPropertyOp24
 70
     1
102
RTVSPropertyOp25
 70
     1
102
RTVSPropertyOp26
 70
     1
102
RTVSPropertyOp27
 70
     1
102
RTVSPropertyOp28
 70
     1
102
RTVSPropertyOp29
 70
     1
102
RTVSPropertyOp30
 70
     1
102
RTVSPropertyOp31
 70
     1
102
RTVSPropertyOp32
 70
     1
102
RTVSPropertyOp33
 70
     1
102
RTVSPropertyOp34
 70
     1
102
RTVSPropertyOp35
 70
     1
102
RTVSPropertyOp36
 70
     1
102
RTVSPropertyOp37
 70
     1
102
RTVSPropertyOp38
 70
     1
102
RTVSPropertyOp39
 70
     1
102
RTVSPropertyOp40
 70
     1
102
RTVSPropertyOp41
 70
     1
102
RTVSPropertyOp42
 70
     1
102
RTVSPropertyOp43
 70
     1
102
RTVSPropertyOp44
 70
     1
102
RTVSPropertyOp45
 70
     1
102
RTVSPropertyOp46
 70
     1
102
RTVSPropertyOp47
 70
     1
102
RTVSPropertyOp48
 70
     1
102
RTVSPropertyOp49
 70
     1
102
RTVSPropertyOp50
 70
     1
102
RTVSPropertyOp51
 70
     0
102
RTVSPropertyOp52
 70
     0
102
RTVSPropertyOp53
 70
     1
102
RTVSPropertyOp54
 70
     1
102
RTVSPropertyOp55
 70
     1
102
RTVSPropertyOp56
 70
     1
102
RTVSPropertyOp57
 70
     1
102
RTVSPost2010Prop28
280
     0
102
RTVSPost2010PropOp28
 70
     1
102
RTVSPost2010Prop29
280
     1
102
RTVSPost2010PropOp29
 70
     1
102
RTVSPost2010Prop30
280
     1
102
RTVSPost2010PropOp30
 70
     1
102
RTVSPost2010Prop31
280
     0
102
RTVSPost2010PropOp31
 70
     1
102
RTVSPost2010Prop32
280
     0
102
RTVSPost2010PropOp32
 70
     1
102
RTVSPost2010Prop33
280
     0
102
RTVSPost2010PropOp33
 70
     1
102
RTVSPost2010Prop34
280
     0
102
RTVSPost2010PropOp34
 70
     1
102
RTVSPost2010Prop35
280
     0
102
RTVSPost2010PropOp35
 70
     1
102
RTVSPost2010Prop36
280
     0
102
RTVSPost2010PropOp36
 70
     1
102
RTVSPost2010Prop37
 90
       50
102
RTVSPost2010PropOp37
 70
     1
102
RTVSPost2010Prop38
140
0.0
102
RTVSPost2010PropOp38
 70
     1
102
RTVSPost2010Prop39
140
1.0
102
RTVSPost2010PropOp39
 70
     1
102
RTVSPost2010Prop40
 90
        0
102
RTVSPost2010PropOp40
 70
     1
102
RTVSPost2010Prop41ColorIndex
 90
       18
102
RTVSPost2010Prop41ColorRGB
 90
        0
102
RTVSPost2010PropOp41
 70
     1
102
RTVSPost2010Prop42
 90
       50
102
RTVSPost2010PropOp42
 70
     1
102
RTVSPost2010Prop43
 90
        3
102
RTVSPost2010PropOp43
 70
     1
102
RTVSPost2010Prop44ColorIndex
 90
        5
102
RTVSPost2010Prop44ColorRGB
 90
      255
102
RTVSPost2010PropOp44
 70
     1
102
RTVSPost2010Prop45
280
     0
102
RTVSPost2010PropOp45
 70
     1
102
RTVSPost2010Prop46
 90
       50
102
RTVSPost2010PropOp46
 70
     1
102
RTVSPost2010Prop47
 90
       50
102
RTVSPost2010PropOp47
 70
     1
102
RTVSPost2010Prop48
 90
       50
102
RTVSPost2010PropOp48
 70
     1
102
RTVSPost2010Prop49
280
     0
102
RTVSPost2010PropOp49
 70
     1
102
RTVSPost2010Prop50
 90
       50
102
RTVSPost2010PropOp50
 70
     1
102
RTVSPost2010Prop51ColorIndex
 90
      256
102
RTVSPost2010Prop51ColorRGB
 90
-16777216
102
RTVSPost2010PropOp51
 70
     0
102
RTVSPost2010Prop52
140
1.0
102
RTVSPost2010PropOp52
 70
     0
102
RTVSPost2010Prop53
 90
        2
102
RTVSPost2010PropOp53
 70
     1
102
RTVSPost2010Prop54
  1
strokes_ogs.tif
102
RTVSPost2010PropOp54
 70
     1
102
RTVSPost2010Prop55
280
     0
102
RTVSPost2010PropOp55
 70
     1
102
RTVSPost2010Prop56
140
1.0
102
RTVSPost2010PropOp56
 70
     1
102
RTVSPost2010Prop57
140
1.0
102
RTVSPost2010PropOp57
 70
     1
  0
XRECORD
  5
106ACF8
102
{ACAD_REACTORS
330
106ACF7
102
}
330
106ACF7
100
AcDbXrecord
280
     1
102
RTVSPropertyOp0
 70
     1
102
RTVSPropertyOp1
 70
     1
102
RTVSPropertyOp2
 70
     1
102
RTVSPropertyOp3
 70
     1
102
RTVSPropertyOp4
 70
     1
102
RTVSPropertyOp5
 70
     1
102
RTVSPropertyOp6
 70
     1
102
RTVSPropertyOp7
 70
     1
102
RTVSPropertyOp8
 70
     1
102
RTVSPropertyOp9
 70
     1
102
RTVSPropertyOp10
 70
     1
102
RTVSPropertyOp11
 70
     1
102
RTVSPropertyOp12
 70
     1
102
RTVSPropertyOp13
 70
     1
102
RTVSPropertyOp14
 70
     1
102
RTVSPropertyOp15
 70
     1
102
RTVSPropertyOp16
 70
     1
102
RTVSPropertyOp17
 70
     1
102
RTVSPropertyOp18
 70
     1
102
RTVSPropertyOp19
 70
     1
102
RTVSPropertyOp20
 70
     1
102
RTVSPropertyOp21
 70
     1
102
RTVSPropertyOp22
 70
     1
102
RTVSPropertyOp23
 70
     1
102
RTVSPropertyOp24
 70
     1
102
RTVSPropertyOp25
 70
     1
102
RTVSPropertyOp26
 70
     1
102
RTVSPropertyOp27
 70
     1
102
RTVSPropertyOp28
 70
     1
102
RTVSPropertyOp29
 70
     1
102
RTVSPropertyOp30
 70
     1
102
RTVSPropertyOp31
 70
     1
102
RTVSPropertyOp32
 70
     1
102
RTVSPropertyOp33
 70
     1
102
RTVSPropertyOp34
 70
     1
102
RTVSPropertyOp35
 70
     1
102
RTVSPropertyOp36
 70
     1
102
RTVSPropertyOp37
 70
     1
102
RTVSPropertyOp38
 70
     1
102
RTVSPropertyOp39
 70
     1
102
RTVSPropertyOp40
 70
     1
102
RTVSPropertyOp41
 70
     1
102
RTVSPropertyOp42
 70
     1
102
RTVSPropertyOp43
 70
     1
102
RTVSPropertyOp44
 70
     1
102
RTVSPropertyOp45
 70
     1
102
RTVSPropertyOp46
 70
     1
102
RTVSPropertyOp47
 70
     1
102
RTVSPropertyOp48
 70
     1
102
RTVSPropertyOp49
 70
     1
102
RTVSPropertyOp50
 70
     1
102
RTVSPropertyOp51
 70
     0
102
RTVSPropertyOp52
 70
     0
102
RTVSPropertyOp53
 70
     1
102
RTVSPropertyOp54
 70
     1
102
RTVSPropertyOp55
 70
     1
102
RTVSPropertyOp56
 70
     1
102
RTVSPropertyOp57
 70
     1
102
RTVSPost2010Prop28
280
     0
102
RTVSPost2010PropOp28
 70
     1
102
RTVSPost2010Prop29
280
     1
102
RTVSPost2010PropOp29
 70
     1
102
RTVSPost2010Prop30
280
     1
102
RTVSPost2010PropOp30
 70
     1
102
RTVSPost2010Prop31
280
     0
102
RTVSPost2010PropOp31
 70
     1
102
RTVSPost2010Prop32
280
     0
102
RTVSPost2010PropOp32
 70
     1
102
RTVSPost2010Prop33
280
     0
102
RTVSPost2010PropOp33
 70
     1
102
RTVSPost2010Prop34
280
     0
102
RTVSPost2010PropOp34
 70
     1
102
RTVSPost2010Prop35
280
     0
102
RTVSPost2010PropOp35
 70
     1
102
RTVSPost2010Prop36
280
     0
102
RTVSPost2010PropOp36
 70
     1
102
RTVSPost2010Prop37
 90
       50
102
RTVSPost2010PropOp37
 70
     1
102
RTVSPost2010Prop38
140
0.0
102
RTVSPost2010PropOp38
 70
     1
102
RTVSPost2010Prop39
140
1.0
102
RTVSPost2010PropOp39
 70
     1
102
RTVSPost2010Prop40
 90
        0
102
RTVSPost2010PropOp40
 70
     1
102
RTVSPost2010Prop41ColorIndex
 90
       18
102
RTVSPost2010Prop41ColorRGB
 90
        0
102
RTVSPost2010PropOp41
 70
     1
102
RTVSPost2010Prop42
 90
       50
102
RTVSPost2010PropOp42
 70
     1
102
RTVSPost2010Prop43
 90
        3
102
RTVSPost2010PropOp43
 70
     1
102
RTVSPost2010Prop44ColorIndex
 90
        5
102
RTVSPost2010Prop44ColorRGB
 90
      255
102
RTVSPost2010PropOp44
 70
     1
102
RTVSPost2010Prop45
280
     0
102
RTVSPost2010PropOp45
 70
     1
102
RTVSPost2010Prop46
 90
       50
102
RTVSPost2010PropOp46
 70
     1
102
RTVSPost2010Prop47
 90
       50
102
RTVSPost2010PropOp47
 70
     1
102
RTVSPost2010Prop48
 90
       50
102
RTVSPost2010PropOp48
 70
     1
102
RTVSPost2010Prop49
280
     0
102
RTVSPost2010PropOp49
 70
     1
102
RTVSPost2010Prop50
 90
       50
102
RTVSPost2010PropOp50
 70
     1
102
RTVSPost2010Prop51ColorIndex
 90
      256
102
RTVSPost2010Prop51ColorRGB
 90
-16777216
102
RTVSPost2010PropOp51
 70
     0
102
RTVSPost2010Prop52
140
1.0
102
RTVSPost2010PropOp52
 70
     0
102
RTVSPost2010Prop53
 90
        2
102
RTVSPost2010PropOp53
 70
     1
102
RTVSPost2010Prop54
  1
strokes_ogs.tif
102
RTVSPost2010PropOp54
 70
     1
102
RTVSPost2010Prop55
280
     0
102
RTVSPost2010PropOp55
 70
     1
102
RTVSPost2010Prop56
140
1.0
102
RTVSPost2010PropOp56
 70
     1
102
RTVSPost2010Prop57
140
1.0
102
RTVSPost2010PropOp57
 70
     1
  0
XRECORD
  5
106ACFA
102
{ACAD_REACTORS
330
106ACF9
102
}
330
106ACF9
100
AcDbXrecord
280
     1
102
RTVSPropertyOp0
 70
     1
102
RTVSPropertyOp1
 70
     1
102
RTVSPropertyOp2
 70
     1
102
RTVSPropertyOp3
 70
     1
102
RTVSPropertyOp4
 70
     1
102
RTVSPropertyOp5
 70
     1
102
RTVSPropertyOp6
 70
     1
102
RTVSPropertyOp7
 70
     1
102
RTVSPropertyOp8
 70
     1
102
RTVSPropertyOp9
 70
     1
102
RTVSPropertyOp10
 70
     1
102
RTVSPropertyOp11
 70
     1
102
RTVSPropertyOp12
 70
     1
102
RTVSPropertyOp13
 70
     1
102
RTVSPropertyOp14
 70
     1
102
RTVSPropertyOp15
 70
     1
102
RTVSPropertyOp16
 70
     1
102
RTVSPropertyOp17
 70
     1
102
RTVSPropertyOp18
 70
     1
102
RTVSPropertyOp19
 70
     1
102
RTVSPropertyOp20
 70
     1
102
RTVSPropertyOp21
 70
     1
102
RTVSPropertyOp22
 70
     1
102
RTVSPropertyOp23
 70
     1
102
RTVSPropertyOp24
 70
     1
102
RTVSPropertyOp25
 70
     1
102
RTVSPropertyOp26
 70
     1
102
RTVSPropertyOp27
 70
     1
102
RTVSPropertyOp28
 70
     1
102
RTVSPropertyOp29
 70
     1
102
RTVSPropertyOp30
 70
     1
102
RTVSPropertyOp31
 70
     1
102
RTVSPropertyOp32
 70
     1
102
RTVSPropertyOp33
 70
     1
102
RTVSPropertyOp34
 70
     1
102
RTVSPropertyOp35
 70
     1
102
RTVSPropertyOp36
 70
     1
102
RTVSPropertyOp37
 70
     1
102
RTVSPropertyOp38
 70
     1
102
RTVSPropertyOp39
 70
     1
102
RTVSPropertyOp40
 70
     1
102
RTVSPropertyOp41
 70
     1
102
RTVSPropertyOp42
 70
     1
102
RTVSPropertyOp43
 70
     1
102
RTVSPropertyOp44
 70
     1
102
RTVSPropertyOp45
 70
     1
102
RTVSPropertyOp46
 70
     1
102
RTVSPropertyOp47
 70
     1
102
RTVSPropertyOp48
 70
     1
102
RTVSPropertyOp49
 70
     1
102
RTVSPropertyOp50
 70
     1
102
RTVSPropertyOp51
 70
     0
102
RTVSPropertyOp52
 70
     0
102
RTVSPropertyOp53
 70
     1
102
RTVSPropertyOp54
 70
     1
102
RTVSPropertyOp55
 70
     1
102
RTVSPropertyOp56
 70
     1
102
RTVSPropertyOp57
 70
     1
102
RTVSPost2010Prop28
280
     0
102
RTVSPost2010PropOp28
 70
     1
102
RTVSPost2010Prop29
280
     1
102
RTVSPost2010PropOp29
 70
     1
102
RTVSPost2010Prop30
280
     1
102
RTVSPost2010PropOp30
 70
     1
102
RTVSPost2010Prop31
280
     0
102
RTVSPost2010PropOp31
 70
     1
102
RTVSPost2010Prop32
280
     0
102
RTVSPost2010PropOp32
 70
     1
102
RTVSPost2010Prop33
280
     0
102
RTVSPost2010PropOp33
 70
     1
102
RTVSPost2010Prop34
280
     0
102
RTVSPost2010PropOp34
 70
     1
102
RTVSPost2010Prop35
280
     0
102
RTVSPost2010PropOp35
 70
     1
102
RTVSPost2010Prop36
280
     0
102
RTVSPost2010PropOp36
 70
     1
102
RTVSPost2010Prop37
 90
       50
102
RTVSPost2010PropOp37
 70
     1
102
RTVSPost2010Prop38
140
0.0
102
RTVSPost2010PropOp38
 70
     1
102
RTVSPost2010Prop39
140
1.0
102
RTVSPost2010PropOp39
 70
     1
102
RTVSPost2010Prop40
 90
        0
102
RTVSPost2010PropOp40
 70
     1
102
RTVSPost2010Prop41ColorIndex
 90
       18
102
RTVSPost2010Prop41ColorRGB
 90
        0
102
RTVSPost2010PropOp41
 70
     1
102
RTVSPost2010Prop42
 90
       50
102
RTVSPost2010PropOp42
 70
     1
102
RTVSPost2010Prop43
 90
        3
102
RTVSPost2010PropOp43
 70
     1
102
RTVSPost2010Prop44ColorIndex
 90
        5
102
RTVSPost2010Prop44ColorRGB
 90
      255
102
RTVSPost2010PropOp44
 70
     1
102
RTVSPost2010Prop45
280
     0
102
RTVSPost2010PropOp45
 70
     1
102
RTVSPost2010Prop46
 90
       50
102
RTVSPost2010PropOp46
 70
     1
102
RTVSPost2010Prop47
 90
       50
102
RTVSPost2010PropOp47
 70
     1
102
RTVSPost2010Prop48
 90
       50
102
RTVSPost2010PropOp48
 70
     1
102
RTVSPost2010Prop49
280
     0
102
RTVSPost2010PropOp49
 70
     1
102
RTVSPost2010Prop50
 90
       50
102
RTVSPost2010PropOp50
 70
     1
102
RTVSPost2010Prop51ColorIndex
 90
      256
102
RTVSPost2010Prop51ColorRGB
 90
-16777216
102
RTVSPost2010PropOp51
 70
     0
102
RTVSPost2010Prop52
140
1.0
102
RTVSPost2010PropOp52
 70
     0
102
RTVSPost2010Prop53
 90
        2
102
RTVSPost2010PropOp53
 70
     1
102
RTVSPost2010Prop54
  1
strokes_ogs.tif
102
RTVSPost2010PropOp54
 70
     1
102
RTVSPost2010Prop55
280
     0
102
RTVSPost2010PropOp55
 70
     1
102
RTVSPost2010Prop56
140
1.0
102
RTVSPost2010PropOp56
 70
     1
102
RTVSPost2010Prop57
140
1.0
102
RTVSPost2010PropOp57
 70
     1
  0
XRECORD
  5
106AD00
102
{ACAD_REACTORS
330
106ACFF
102
}
330
106ACFF
100
AcDbXrecord
280
     1
102
RTVSPropertyOp0
 70
     1
102
RTVSPropertyOp1
 70
     1
102
RTVSPropertyOp2
 70
     1
102
RTVSPropertyOp3
 70
     1
102
RTVSPropertyOp4
 70
     1
102
RTVSPropertyOp5
 70
     1
102
RTVSPropertyOp6
 70
     1
102
RTVSPropertyOp7
 70
     1
102
RTVSPropertyOp8
 70
     1
102
RTVSPropertyOp9
 70
     1
102
RTVSPropertyOp10
 70
     1
102
RTVSPropertyOp11
 70
     1
102
RTVSPropertyOp12
 70
     1
102
RTVSPropertyOp13
 70
     1
102
RTVSPropertyOp14
 70
     1
102
RTVSPropertyOp15
 70
     1
102
RTVSPropertyOp16
 70
     1
102
RTVSPropertyOp17
 70
     1
102
RTVSPropertyOp18
 70
     1
102
RTVSPropertyOp19
 70
     1
102
RTVSPropertyOp20
 70
     1
102
RTVSPropertyOp21
 70
     1
102
RTVSPropertyOp22
 70
     1
102
RTVSPropertyOp23
 70
     1
102
RTVSPropertyOp24
 70
     1
102
RTVSPropertyOp25
 70
     1
102
RTVSPropertyOp26
 70
     1
102
RTVSPropertyOp27
 70
     1
102
RTVSPropertyOp28
 70
     1
102
RTVSPropertyOp29
 70
     1
102
RTVSPropertyOp30
 70
     1
102
RTVSPropertyOp31
 70
     1
102
RTVSPropertyOp32
 70
     1
102
RTVSPropertyOp33
 70
     1
102
RTVSPropertyOp34
 70
     1
102
RTVSPropertyOp35
 70
     1
102
RTVSPropertyOp36
 70
     1
102
RTVSPropertyOp37
 70
     1
102
RTVSPropertyOp38
 70
     1
102
RTVSPropertyOp39
 70
     1
102
RTVSPropertyOp40
 70
     1
102
RTVSPropertyOp41
 70
     1
102
RTVSPropertyOp42
 70
     1
102
RTVSPropertyOp43
 70
     1
102
RTVSPropertyOp44
 70
     1
102
RTVSPropertyOp45
 70
     1
102
RTVSPropertyOp46
 70
     1
102
RTVSPropertyOp47
 70
     1
102
RTVSPropertyOp48
 70
     1
102
RTVSPropertyOp49
 70
     1
102
RTVSPropertyOp50
 70
     1
102
RTVSPropertyOp51
 70
     0
102
RTVSPropertyOp52
 70
     0
102
RTVSPropertyOp53
 70
     1
102
RTVSPropertyOp54
 70
     1
102
RTVSPropertyOp55
 70
     1
102
RTVSPropertyOp56
 70
     1
102
RTVSPropertyOp57
 70
     1
102
RTVSPost2010Prop28
280
     0
102
RTVSPost2010PropOp28
 70
     1
102
RTVSPost2010Prop29
280
     1
102
RTVSPost2010PropOp29
 70
     1
102
RTVSPost2010Prop30
280
     1
102
RTVSPost2010PropOp30
 70
     1
102
RTVSPost2010Prop31
280
     0
102
RTVSPost2010PropOp31
 70
     1
102
RTVSPost2010Prop32
280
     0
102
RTVSPost2010PropOp32
 70
     1
102
RTVSPost2010Prop33
280
     0
102
RTVSPost2010PropOp33
 70
     1
102
RTVSPost2010Prop34
280
     0
102
RTVSPost2010PropOp34
 70
     1
102
RTVSPost2010Prop35
280
     0
102
RTVSPost2010PropOp35
 70
     1
102
RTVSPost2010Prop36
280
     0
102
RTVSPost2010PropOp36
 70
     1
102
RTVSPost2010Prop37
 90
       50
102
RTVSPost2010PropOp37
 70
     1
102
RTVSPost2010Prop38
140
0.0
102
RTVSPost2010PropOp38
 70
     1
102
RTVSPost2010Prop39
140
1.0
102
RTVSPost2010PropOp39
 70
     1
102
RTVSPost2010Prop40
 90
        0
102
RTVSPost2010PropOp40
 70
     1
102
RTVSPost2010Prop41ColorIndex
 90
       18
102
RTVSPost2010Prop41ColorRGB
 90
        0
102
RTVSPost2010PropOp41
 70
     1
102
RTVSPost2010Prop42
 90
       50
102
RTVSPost2010PropOp42
 70
     1
102
RTVSPost2010Prop43
 90
        3
102
RTVSPost2010PropOp43
 70
     1
102
RTVSPost2010Prop44ColorIndex
 90
        5
102
RTVSPost2010Prop44ColorRGB
 90
      255
102
RTVSPost2010PropOp44
 70
     1
102
RTVSPost2010Prop45
280
     0
102
RTVSPost2010PropOp45
 70
     1
102
RTVSPost2010Prop46
 90
       50
102
RTVSPost2010PropOp46
 70
     1
102
RTVSPost2010Prop47
 90
       50
102
RTVSPost2010PropOp47
 70
     1
102
RTVSPost2010Prop48
 90
       50
102
RTVSPost2010PropOp48
 70
     1
102
RTVSPost2010Prop49
280
     0
102
RTVSPost2010PropOp49
 70
     1
102
RTVSPost2010Prop50
 90
       50
102
RTVSPost2010PropOp50
 70
     1
102
RTVSPost2010Prop51ColorIndex
 90
      256
102
RTVSPost2010Prop51ColorRGB
 90
-16777216
102
RTVSPost2010PropOp51
 70
     0
102
RTVSPost2010Prop52
140
1.0
102
RTVSPost2010PropOp52
 70
     0
102
RTVSPost2010Prop53
 90
        2
102
RTVSPost2010PropOp53
 70
     1
102
RTVSPost2010Prop54
  1
strokes_ogs.tif
102
RTVSPost2010PropOp54
 70
     1
102
RTVSPost2010Prop55
280
     0
102
RTVSPost2010PropOp55
 70
     1
102
RTVSPost2010Prop56
140
1.0
102
RTVSPost2010PropOp56
 70
     1
102
RTVSPost2010Prop57
140
1.0
102
RTVSPost2010PropOp57
 70
     1
  0
XRECORD
  5
106AD14
102
{ACAD_REACTORS
330
106AD13
102
}
330
106AD13
100
AcDbXrecord
280
     1
102
RTVSPropertyOp0
 70
     0
102
RTVSPropertyOp1
 70
     0
102
RTVSPropertyOp2
 70
     0
102
RTVSPropertyOp3
 70
     0
102
RTVSPropertyOp4
 70
     0
102
RTVSPropertyOp5
 70
     0
102
RTVSPropertyOp6
 70
     0
102
RTVSPropertyOp7
 70
     0
102
RTVSPropertyOp8
 70
     0
102
RTVSPropertyOp9
 70
     0
102
RTVSPropertyOp10
 70
     0
102
RTVSPropertyOp11
 70
     0
102
RTVSPropertyOp12
 70
     0
102
RTVSPropertyOp13
 70
     0
102
RTVSPropertyOp14
 70
     2
102
RTVSPropertyOp15
 70
     0
102
RTVSPropertyOp16
 70
     0
102
RTVSPropertyOp17
 70
     0
102
RTVSPropertyOp18
 70
     0
102
RTVSPropertyOp19
 70
     0
102
RTVSPropertyOp20
 70
     0
102
RTVSPropertyOp21
 70
     0
102
RTVSPropertyOp22
 70
     0
102
RTVSPropertyOp23
 70
     0
102
RTVSPropertyOp24
 70
     0
102
RTVSPropertyOp25
 70
     0
102
RTVSPropertyOp26
 70
     0
102
RTVSPropertyOp27
 70
     0
102
RTVSPropertyOp28
 70
     0
102
RTVSPropertyOp29
 70
     0
102
RTVSPropertyOp30
 70
     0
102
RTVSPropertyOp31
 70
     0
102
RTVSPropertyOp32
 70
     0
102
RTVSPropertyOp33
 70
     0
102
RTVSPropertyOp34
 70
     0
102
RTVSPropertyOp35
 70
     0
102
RTVSPropertyOp36
 70
     0
102
RTVSPropertyOp37
 70
     0
102
RTVSPropertyOp38
 70
     0
102
RTVSPropertyOp39
 70
     0
102
RTVSPropertyOp40
 70
     0
102
RTVSPropertyOp41
 70
     0
102
RTVSPropertyOp42
 70
     0
102
RTVSPropertyOp43
 70
     0
102
RTVSPropertyOp44
 70
     0
102
RTVSPropertyOp45
 70
     0
102
RTVSPropertyOp46
 70
     0
102
RTVSPropertyOp47
 70
     0
102
RTVSPropertyOp48
 70
     0
102
RTVSPropertyOp49
 70
     0
102
RTVSPropertyOp50
 70
     0
102
RTVSPropertyOp51
 70
     0
102
RTVSPropertyOp52
 70
     0
102
RTVSPropertyOp53
 70
     0
102
RTVSPropertyOp54
 70
     0
102
RTVSPropertyOp55
 70
     0
102
RTVSPropertyOp56
 70
     0
102
RTVSPropertyOp57
 70
     0
102
RTVSPost2010Prop28
280
     0
102
RTVSPost2010PropOp28
 70
     0
102
RTVSPost2010Prop29
280
     1
102
RTVSPost2010PropOp29
 70
     0
102
RTVSPost2010Prop30
280
     1
102
RTVSPost2010PropOp30
 70
     0
102
RTVSPost2010Prop31
280
     0
102
RTVSPost2010PropOp31
 70
     0
102
RTVSPost2010Prop32
280
     0
102
RTVSPost2010PropOp32
 70
     0
102
RTVSPost2010Prop33
280
     0
102
RTVSPost2010PropOp33
 70
     0
102
RTVSPost2010Prop34
280
     0
102
RTVSPost2010PropOp34
 70
     0
102
RTVSPost2010Prop35
280
     0
102
RTVSPost2010PropOp35
 70
     0
102
RTVSPost2010Prop36
280
     0
102
RTVSPost2010PropOp36
 70
     0
102
RTVSPost2010Prop37
 90
       50
102
RTVSPost2010PropOp37
 70
     0
102
RTVSPost2010Prop38
140
0.0
102
RTVSPost2010PropOp38
 70
     0
102
RTVSPost2010Prop39
140
1.0
102
RTVSPost2010PropOp39
 70
     0
102
RTVSPost2010Prop40
 90
        0
102
RTVSPost2010PropOp40
 70
     0
102
RTVSPost2010Prop41ColorIndex
 90
       18
102
RTVSPost2010Prop41ColorRGB
 90
        0
102
RTVSPost2010PropOp41
 70
     0
102
RTVSPost2010Prop42
 90
       50
102
RTVSPost2010PropOp42
 70
     0
102
RTVSPost2010Prop43
 90
        3
102
RTVSPost2010PropOp43
 70
     0
102
RTVSPost2010Prop44ColorIndex
 90
        5
102
RTVSPost2010Prop44ColorRGB
 90
      255
102
RTVSPost2010PropOp44
 70
     0
102
RTVSPost2010Prop45
280
     0
102
RTVSPost2010PropOp45
 70
     0
102
RTVSPost2010Prop46
 90
       50
102
RTVSPost2010PropOp46
 70
     0
102
RTVSPost2010Prop47
 90
       50
102
RTVSPost2010PropOp47
 70
     0
102
RTVSPost2010Prop48
 90
       50
102
RTVSPost2010PropOp48
 70
     0
102
RTVSPost2010Prop49
280
     0
102
RTVSPost2010PropOp49
 70
     0
102
RTVSPost2010Prop50
 90
       50
102
RTVSPost2010PropOp50
 70
     0
102
RTVSPost2010Prop51ColorIndex
 90
      256
102
RTVSPost2010Prop51ColorRGB
 90
-16777216
102
RTVSPost2010PropOp51
 70
     0
102
RTVSPost2010Prop52
140
1.0
102
RTVSPost2010PropOp52
 70
     0
102
RTVSPost2010Prop53
 90
        2
102
RTVSPost2010PropOp53
 70
     0
102
RTVSPost2010Prop54
  1
strokes_ogs.tif
102
RTVSPost2010PropOp54
 70
     0
102
RTVSPost2010Prop55
280
     0
102
RTVSPost2010PropOp55
 70
     0
102
RTVSPost2010Prop56
140
1.0
102
RTVSPost2010PropOp56
 70
     0
102
RTVSPost2010Prop57
140
1.0
102
RTVSPost2010PropOp57
 70
     0
  0
XRECORD
  5
106AD0E
102
{ACAD_REACTORS
330
106AD0D
102
}
330
106AD0D
100
AcDbXrecord
280
     1
102
RTVSPropertyOp0
 70
     1
102
RTVSPropertyOp1
 70
     1
102
RTVSPropertyOp2
 70
     1
102
RTVSPropertyOp3
 70
     1
102
RTVSPropertyOp4
 70
     1
102
RTVSPropertyOp5
 70
     1
102
RTVSPropertyOp6
 70
     1
102
RTVSPropertyOp7
 70
     1
102
RTVSPropertyOp8
 70
     1
102
RTVSPropertyOp9
 70
     1
102
RTVSPropertyOp10
 70
     1
102
RTVSPropertyOp11
 70
     1
102
RTVSPropertyOp12
 70
     1
102
RTVSPropertyOp13
 70
     1
102
RTVSPropertyOp14
 70
     1
102
RTVSPropertyOp15
 70
     1
102
RTVSPropertyOp16
 70
     1
102
RTVSPropertyOp17
 70
     1
102
RTVSPropertyOp18
 70
     1
102
RTVSPropertyOp19
 70
     1
102
RTVSPropertyOp20
 70
     1
102
RTVSPropertyOp21
 70
     1
102
RTVSPropertyOp22
 70
     1
102
RTVSPropertyOp23
 70
     1
102
RTVSPropertyOp24
 70
     1
102
RTVSPropertyOp25
 70
     1
102
RTVSPropertyOp26
 70
     1
102
RTVSPropertyOp27
 70
     1
102
RTVSPropertyOp28
 70
     1
102
RTVSPropertyOp29
 70
     1
102
RTVSPropertyOp30
 70
     1
102
RTVSPropertyOp31
 70
     1
102
RTVSPropertyOp32
 70
     1
102
RTVSPropertyOp33
 70
     1
102
RTVSPropertyOp34
 70
     1
102
RTVSPropertyOp35
 70
     1
102
RTVSPropertyOp36
 70
     1
102
RTVSPropertyOp37
 70
     1
102
RTVSPropertyOp38
 70
     1
102
RTVSPropertyOp39
 70
     1
102
RTVSPropertyOp40
 70
     1
102
RTVSPropertyOp41
 70
     1
102
RTVSPropertyOp42
 70
     1
102
RTVSPropertyOp43
 70
     1
102
RTVSPropertyOp44
 70
     1
102
RTVSPropertyOp45
 70
     1
102
RTVSPropertyOp46
 70
     1
102
RTVSPropertyOp47
 70
     1
102
RTVSPropertyOp48
 70
     1
102
RTVSPropertyOp49
 70
     1
102
RTVSPropertyOp50
 70
     1
102
RTVSPropertyOp51
 70
     0
102
RTVSPropertyOp52
 70
     0
102
RTVSPropertyOp53
 70
     1
102
RTVSPropertyOp54
 70
     1
102
RTVSPropertyOp55
 70
     1
102
RTVSPropertyOp56
 70
     1
102
RTVSPropertyOp57
 70
     1
102
RTVSPost2010Prop28
280
     0
102
RTVSPost2010PropOp28
 70
     1
102
RTVSPost2010Prop29
280
     1
102
RTVSPost2010PropOp29
 70
     1
102
RTVSPost2010Prop30
280
     1
102
RTVSPost2010PropOp30
 70
     1
102
RTVSPost2010Prop31
280
     0
102
RTVSPost2010PropOp31
 70
     1
102
RTVSPost2010Prop32
280
     0
102
RTVSPost2010PropOp32
 70
     1
102
RTVSPost2010Prop33
280
     0
102
RTVSPost2010PropOp33
 70
     1
102
RTVSPost2010Prop34
280
     0
102
RTVSPost2010PropOp34
 70
     1
102
RTVSPost2010Prop35
280
     0
102
RTVSPost2010PropOp35
 70
     1
102
RTVSPost2010Prop36
280
     0
102
RTVSPost2010PropOp36
 70
     1
102
RTVSPost2010Prop37
 90
       50
102
RTVSPost2010PropOp37
 70
     1
102
RTVSPost2010Prop38
140
0.0
102
RTVSPost2010PropOp38
 70
     1
102
RTVSPost2010Prop39
140
1.0
102
RTVSPost2010PropOp39
 70
     1
102
RTVSPost2010Prop40
 90
        0
102
RTVSPost2010PropOp40
 70
     1
102
RTVSPost2010Prop41ColorIndex
 90
       18
102
RTVSPost2010Prop41ColorRGB
 90
        0
102
RTVSPost2010PropOp41
 70
     1
102
RTVSPost2010Prop42
 90
       50
102
RTVSPost2010PropOp42
 70
     1
102
RTVSPost2010Prop43
 90
        3
102
RTVSPost2010PropOp43
 70
     1
102
RTVSPost2010Prop44ColorIndex
 90
        5
102
RTVSPost2010Prop44ColorRGB
 90
      255
102
RTVSPost2010PropOp44
 70
     1
102
RTVSPost2010Prop45
280
     0
102
RTVSPost2010PropOp45
 70
     1
102
RTVSPost2010Prop46
 90
       50
102
RTVSPost2010PropOp46
 70
     1
102
RTVSPost2010Prop47
 90
       50
102
RTVSPost2010PropOp47
 70
     1
102
RTVSPost2010Prop48
 90
       50
102
RTVSPost2010PropOp48
 70
     1
102
RTVSPost2010Prop49
280
     0
102
RTVSPost2010PropOp49
 70
     1
102
RTVSPost2010Prop50
 90
       50
102
RTVSPost2010PropOp50
 70
     1
102
RTVSPost2010Prop51ColorIndex
 90
      256
102
RTVSPost2010Prop51ColorRGB
 90
-16777216
102
RTVSPost2010PropOp51
 70
     0
102
RTVSPost2010Prop52
140
1.0
102
RTVSPost2010PropOp52
 70
     0
102
RTVSPost2010Prop53
 90
        2
102
RTVSPost2010PropOp53
 70
     1
102
RTVSPost2010Prop54
  1
strokes_ogs.tif
102
RTVSPost2010PropOp54
 70
     1
102
RTVSPost2010Prop55
280
     0
102
RTVSPost2010PropOp55
 70
     1
102
RTVSPost2010Prop56
140
1.0
102
RTVSPost2010PropOp56
 70
     1
102
RTVSPost2010Prop57
140
1.0
102
RTVSPost2010PropOp57
 70
     1
  0
XRECORD
  5
106AD16
102
{ACAD_REACTORS
330
106AD15
102
}
330
106AD15
100
AcDbXrecord
280
     1
102
RTVSPropertyOp0
 70
     0
102
RTVSPropertyOp1
 70
     0
102
RTVSPropertyOp2
 70
     0
102
RTVSPropertyOp3
 70
     0
102
RTVSPropertyOp4
 70
     0
102
RTVSPropertyOp5
 70
     0
102
RTVSPropertyOp6
 70
     0
102
RTVSPropertyOp7
 70
     0
102
RTVSPropertyOp8
 70
     0
102
RTVSPropertyOp9
 70
     0
102
RTVSPropertyOp10
 70
     0
102
RTVSPropertyOp11
 70
     0
102
RTVSPropertyOp12
 70
     0
102
RTVSPropertyOp13
 70
     0
102
RTVSPropertyOp14
 70
     2
102
RTVSPropertyOp15
 70
     0
102
RTVSPropertyOp16
 70
     0
102
RTVSPropertyOp17
 70
     0
102
RTVSPropertyOp18
 70
     0
102
RTVSPropertyOp19
 70
     0
102
RTVSPropertyOp20
 70
     0
102
RTVSPropertyOp21
 70
     0
102
RTVSPropertyOp22
 70
     0
102
RTVSPropertyOp23
 70
     0
102
RTVSPropertyOp24
 70
     0
102
RTVSPropertyOp25
 70
     0
102
RTVSPropertyOp26
 70
     0
102
RTVSPropertyOp27
 70
     0
102
RTVSPropertyOp28
 70
     0
102
RTVSPropertyOp29
 70
     0
102
RTVSPropertyOp30
 70
     0
102
RTVSPropertyOp31
 70
     0
102
RTVSPropertyOp32
 70
     0
102
RTVSPropertyOp33
 70
     0
102
RTVSPropertyOp34
 70
     0
102
RTVSPropertyOp35
 70
     0
102
RTVSPropertyOp36
 70
     0
102
RTVSPropertyOp37
 70
     0
102
RTVSPropertyOp38
 70
     0
102
RTVSPropertyOp39
 70
     0
102
RTVSPropertyOp40
 70
     0
102
RTVSPropertyOp41
 70
     0
102
RTVSPropertyOp42
 70
     0
102
RTVSPropertyOp43
 70
     0
102
RTVSPropertyOp44
 70
     0
102
RTVSPropertyOp45
 70
     0
102
RTVSPropertyOp46
 70
     0
102
RTVSPropertyOp47
 70
     0
102
RTVSPropertyOp48
 70
     0
102
RTVSPropertyOp49
 70
     0
102
RTVSPropertyOp50
 70
     0
102
RTVSPropertyOp51
 70
     0
102
RTVSPropertyOp52
 70
     0
102
RTVSPropertyOp53
 70
     0
102
RTVSPropertyOp54
 70
     0
102
RTVSPropertyOp55
 70
     0
102
RTVSPropertyOp56
 70
     0
102
RTVSPropertyOp57
 70
     0
102
RTVSPost2010Prop28
280
     0
102
RTVSPost2010PropOp28
 70
     0
102
RTVSPost2010Prop29
280
     1
102
RTVSPost2010PropOp29
 70
     0
102
RTVSPost2010Prop30
280
     1
102
RTVSPost2010PropOp30
 70
     0
102
RTVSPost2010Prop31
280
     0
102
RTVSPost2010PropOp31
 70
     0
102
RTVSPost2010Prop32
280
     0
102
RTVSPost2010PropOp32
 70
     0
102
RTVSPost2010Prop33
280
     0
102
RTVSPost2010PropOp33
 70
     0
102
RTVSPost2010Prop34
280
     0
102
RTVSPost2010PropOp34
 70
     0
102
RTVSPost2010Prop35
280
     0
102
RTVSPost2010PropOp35
 70
     0
102
RTVSPost2010Prop36
280
     0
102
RTVSPost2010PropOp36
 70
     0
102
RTVSPost2010Prop37
 90
       50
102
RTVSPost2010PropOp37
 70
     0
102
RTVSPost2010Prop38
140
0.0
102
RTVSPost2010PropOp38
 70
     0
102
RTVSPost2010Prop39
140
1.0
102
RTVSPost2010PropOp39
 70
     0
102
RTVSPost2010Prop40
 90
        0
102
RTVSPost2010PropOp40
 70
     0
102
RTVSPost2010Prop41ColorIndex
 90
       18
102
RTVSPost2010Prop41ColorRGB
 90
        0
102
RTVSPost2010PropOp41
 70
     0
102
RTVSPost2010Prop42
 90
       50
102
RTVSPost2010PropOp42
 70
     0
102
RTVSPost2010Prop43
 90
        3
102
RTVSPost2010PropOp43
 70
     0
102
RTVSPost2010Prop44ColorIndex
 90
        5
102
RTVSPost2010Prop44ColorRGB
 90
      255
102
RTVSPost2010PropOp44
 70
     0
102
RTVSPost2010Prop45
280
     0
102
RTVSPost2010PropOp45
 70
     0
102
RTVSPost2010Prop46
 90
       50
102
RTVSPost2010PropOp46
 70
     0
102
RTVSPost2010Prop47
 90
       50
102
RTVSPost2010PropOp47
 70
     0
102
RTVSPost2010Prop48
 90
       50
102
RTVSPost2010PropOp48
 70
     0
102
RTVSPost2010Prop49
280
     0
102
RTVSPost2010PropOp49
 70
     0
102
RTVSPost2010Prop50
 90
       50
102
RTVSPost2010PropOp50
 70
     0
102
RTVSPost2010Prop51ColorIndex
 90
      256
102
RTVSPost2010Prop51ColorRGB
 90
-16777216
102
RTVSPost2010PropOp51
 70
     0
102
RTVSPost2010Prop52
140
1.0
102
RTVSPost2010PropOp52
 70
     0
102
RTVSPost2010Prop53
 90
        2
102
RTVSPost2010PropOp53
 70
     0
102
RTVSPost2010Prop54
  1
strokes_ogs.tif
102
RTVSPost2010PropOp54
 70
     0
102
RTVSPost2010Prop55
280
     0
102
RTVSPost2010PropOp55
 70
     0
102
RTVSPost2010Prop56
140
1.0
102
RTVSPost2010PropOp56
 70
     0
102
RTVSPost2010Prop57
140
1.0
102
RTVSPost2010PropOp57
 70
     0
  0
XRECORD
  5
106AD04
102
{ACAD_REACTORS
330
106AD03
102
}
330
106AD03
100
AcDbXrecord
280
     1
102
RTVSPropertyOp0
 70
     1
102
RTVSPropertyOp1
 70
     1
102
RTVSPropertyOp2
 70
     1
102
RTVSPropertyOp3
 70
     1
102
RTVSPropertyOp4
 70
     1
102
RTVSPropertyOp5
 70
     1
102
RTVSPropertyOp6
 70
     1
102
RTVSPropertyOp7
 70
     1
102
RTVSPropertyOp8
 70
     1
102
RTVSPropertyOp9
 70
     1
102
RTVSPropertyOp10
 70
     1
102
RTVSPropertyOp11
 70
     1
102
RTVSPropertyOp12
 70
     1
102
RTVSPropertyOp13
 70
     1
102
RTVSPropertyOp14
 70
     1
102
RTVSPropertyOp15
 70
     1
102
RTVSPropertyOp16
 70
     1
102
RTVSPropertyOp17
 70
     1
102
RTVSPropertyOp18
 70
     1
102
RTVSPropertyOp19
 70
     1
102
RTVSPropertyOp20
 70
     1
102
RTVSPropertyOp21
 70
     1
102
RTVSPropertyOp22
 70
     1
102
RTVSPropertyOp23
 70
     1
102
RTVSPropertyOp24
 70
     1
102
RTVSPropertyOp25
 70
     1
102
RTVSPropertyOp26
 70
     1
102
RTVSPropertyOp27
 70
     1
102
RTVSPropertyOp28
 70
     1
102
RTVSPropertyOp29
 70
     1
102
RTVSPropertyOp30
 70
     1
102
RTVSPropertyOp31
 70
     1
102
RTVSPropertyOp32
 70
     1
102
RTVSPropertyOp33
 70
     1
102
RTVSPropertyOp34
 70
     1
102
RTVSPropertyOp35
 70
     1
102
RTVSPropertyOp36
 70
     1
102
RTVSPropertyOp37
 70
     1
102
RTVSPropertyOp38
 70
     1
102
RTVSPropertyOp39
 70
     1
102
RTVSPropertyOp40
 70
     1
102
RTVSPropertyOp41
 70
     1
102
RTVSPropertyOp42
 70
     1
102
RTVSPropertyOp43
 70
     1
102
RTVSPropertyOp44
 70
     1
102
RTVSPropertyOp45
 70
     1
102
RTVSPropertyOp46
 70
     1
102
RTVSPropertyOp47
 70
     1
102
RTVSPropertyOp48
 70
     1
102
RTVSPropertyOp49
 70
     1
102
RTVSPropertyOp50
 70
     1
102
RTVSPropertyOp51
 70
     0
102
RTVSPropertyOp52
 70
     0
102
RTVSPropertyOp53
 70
     1
102
RTVSPropertyOp54
 70
     1
102
RTVSPropertyOp55
 70
     1
102
RTVSPropertyOp56
 70
     1
102
RTVSPropertyOp57
 70
     1
102
RTVSPost2010Prop28
280
     0
102
RTVSPost2010PropOp28
 70
     1
102
RTVSPost2010Prop29
280
     1
102
RTVSPost2010PropOp29
 70
     1
102
RTVSPost2010Prop30
280
     1
102
RTVSPost2010PropOp30
 70
     1
102
RTVSPost2010Prop31
280
     0
102
RTVSPost2010PropOp31
 70
     1
102
RTVSPost2010Prop32
280
     0
102
RTVSPost2010PropOp32
 70
     1
102
RTVSPost2010Prop33
280
     0
102
RTVSPost2010PropOp33
 70
     1
102
RTVSPost2010Prop34
280
     0
102
RTVSPost2010PropOp34
 70
     1
102
RTVSPost2010Prop35
280
     0
102
RTVSPost2010PropOp35
 70
     1
102
RTVSPost2010Prop36
280
     0
102
RTVSPost2010PropOp36
 70
     1
102
RTVSPost2010Prop37
 90
       50
102
RTVSPost2010PropOp37
 70
     1
102
RTVSPost2010Prop38
140
0.0
102
RTVSPost2010PropOp38
 70
     1
102
RTVSPost2010Prop39
140
1.0
102
RTVSPost2010PropOp39
 70
     1
102
RTVSPost2010Prop40
 90
        0
102
RTVSPost2010PropOp40
 70
     1
102
RTVSPost2010Prop41ColorIndex
 90
       18
102
RTVSPost2010Prop41ColorRGB
 90
        0
102
RTVSPost2010PropOp41
 70
     1
102
RTVSPost2010Prop42
 90
       50
102
RTVSPost2010PropOp42
 70
     1
102
RTVSPost2010Prop43
 90
        3
102
RTVSPost2010PropOp43
 70
     1
102
RTVSPost2010Prop44ColorIndex
 90
        5
102
RTVSPost2010Prop44ColorRGB
 90
      255
102
RTVSPost2010PropOp44
 70
     1
102
RTVSPost2010Prop45
280
     0
102
RTVSPost2010PropOp45
 70
     1
102
RTVSPost2010Prop46
 90
       50
102
RTVSPost2010PropOp46
 70
     1
102
RTVSPost2010Prop47
 90
       50
102
RTVSPost2010PropOp47
 70
     1
102
RTVSPost2010Prop48
 90
       50
102
RTVSPost2010PropOp48
 70
     1
102
RTVSPost2010Prop49
280
     0
102
RTVSPost2010PropOp49
 70
     1
102
RTVSPost2010Prop50
 90
       50
102
RTVSPost2010PropOp50
 70
     1
102
RTVSPost2010Prop51ColorIndex
 90
      256
102
RTVSPost2010Prop51ColorRGB
 90
-16777216
102
RTVSPost2010PropOp51
 70
     0
102
RTVSPost2010Prop52
140
1.0
102
RTVSPost2010PropOp52
 70
     0
102
RTVSPost2010Prop53
 90
        2
102
RTVSPost2010PropOp53
 70
     1
102
RTVSPost2010Prop54
  1
strokes_ogs.tif
102
RTVSPost2010PropOp54
 70
     1
102
RTVSPost2010Prop55
280
     0
102
RTVSPost2010PropOp55
 70
     1
102
RTVSPost2010Prop56
140
1.0
102
RTVSPost2010PropOp56
 70
     1
102
RTVSPost2010Prop57
140
1.0
102
RTVSPost2010PropOp57
 70
     1
  0
XRECORD
  5
106AD22
102
{ACAD_REACTORS
330
106AD21
102
}
330
106AD21
100
AcDbXrecord
280
     1
102
RTVSPropertyOp0
 70
     1
102
RTVSPropertyOp1
 70
     1
102
RTVSPropertyOp2
 70
     1
102
RTVSPropertyOp3
 70
     1
102
RTVSPropertyOp4
 70
     1
102
RTVSPropertyOp5
 70
     1
102
RTVSPropertyOp6
 70
     1
102
RTVSPropertyOp7
 70
     1
102
RTVSPropertyOp8
 70
     1
102
RTVSPropertyOp9
 70
     1
102
RTVSPropertyOp10
 70
     1
102
RTVSPropertyOp11
 70
     1
102
RTVSPropertyOp12
 70
     1
102
RTVSPropertyOp13
 70
     1
102
RTVSPropertyOp14
 70
     1
102
RTVSPropertyOp15
 70
     1
102
RTVSPropertyOp16
 70
     1
102
RTVSPropertyOp17
 70
     1
102
RTVSPropertyOp18
 70
     1
102
RTVSPropertyOp19
 70
     1
102
RTVSPropertyOp20
 70
     1
102
RTVSPropertyOp21
 70
     1
102
RTVSPropertyOp22
 70
     1
102
RTVSPropertyOp23
 70
     1
102
RTVSPropertyOp24
 70
     1
102
RTVSPropertyOp25
 70
     1
102
RTVSPropertyOp26
 70
     1
102
RTVSPropertyOp27
 70
     1
102
RTVSPropertyOp28
 70
     1
102
RTVSPropertyOp29
 70
     1
102
RTVSPropertyOp30
 70
     1
102
RTVSPropertyOp31
 70
     1
102
RTVSPropertyOp32
 70
     1
102
RTVSPropertyOp33
 70
     1
102
RTVSPropertyOp34
 70
     1
102
RTVSPropertyOp35
 70
     1
102
RTVSPropertyOp36
 70
     1
102
RTVSPropertyOp37
 70
     1
102
RTVSPropertyOp38
 70
     1
102
RTVSPropertyOp39
 70
     1
102
RTVSPropertyOp40
 70
     1
102
RTVSPropertyOp41
 70
     1
102
RTVSPropertyOp42
 70
     1
102
RTVSPropertyOp43
 70
     1
102
RTVSPropertyOp44
 70
     1
102
RTVSPropertyOp45
 70
     1
102
RTVSPropertyOp46
 70
     1
102
RTVSPropertyOp47
 70
     1
102
RTVSPropertyOp48
 70
     1
102
RTVSPropertyOp49
 70
     1
102
RTVSPropertyOp50
 70
     1
102
RTVSPropertyOp51
 70
     0
102
RTVSPropertyOp52
 70
     0
102
RTVSPropertyOp53
 70
     1
102
RTVSPropertyOp54
 70
     1
102
RTVSPropertyOp55
 70
     1
102
RTVSPropertyOp56
 70
     1
102
RTVSPropertyOp57
 70
     1
102
RTVSPost2010Prop28
280
     0
102
RTVSPost2010PropOp28
 70
     1
102
RTVSPost2010Prop29
280
     1
102
RTVSPost2010PropOp29
 70
     1
102
RTVSPost2010Prop30
280
     1
102
RTVSPost2010PropOp30
 70
     1
102
RTVSPost2010Prop31
280
     0
102
RTVSPost2010PropOp31
 70
     1
102
RTVSPost2010Prop32
280
     0
102
RTVSPost2010PropOp32
 70
     1
102
RTVSPost2010Prop33
280
     0
102
RTVSPost2010PropOp33
 70
     1
102
RTVSPost2010Prop34
280
     0
102
RTVSPost2010PropOp34
 70
     1
102
RTVSPost2010Prop35
280
     0
102
RTVSPost2010PropOp35
 70
     1
102
RTVSPost2010Prop36
280
     0
102
RTVSPost2010PropOp36
 70
     1
102
RTVSPost2010Prop37
 90
       50
102
RTVSPost2010PropOp37
 70
     1
102
RTVSPost2010Prop38
140
0.0
102
RTVSPost2010PropOp38
 70
     1
102
RTVSPost2010Prop39
140
1.0
102
RTVSPost2010PropOp39
 70
     1
102
RTVSPost2010Prop40
 90
        0
102
RTVSPost2010PropOp40
 70
     1
102
RTVSPost2010Prop41ColorIndex
 90
       18
102
RTVSPost2010Prop41ColorRGB
 90
        0
102
RTVSPost2010PropOp41
 70
     1
102
RTVSPost2010Prop42
 90
       50
102
RTVSPost2010PropOp42
 70
     1
102
RTVSPost2010Prop43
 90
        3
102
RTVSPost2010PropOp43
 70
     1
102
RTVSPost2010Prop44ColorIndex
 90
        5
102
RTVSPost2010Prop44ColorRGB
 90
      255
102
RTVSPost2010PropOp44
 70
     1
102
RTVSPost2010Prop45
280
     0
102
RTVSPost2010PropOp45
 70
     1
102
RTVSPost2010Prop46
 90
       50
102
RTVSPost2010PropOp46
 70
     1
102
RTVSPost2010Prop47
 90
       50
102
RTVSPost2010PropOp47
 70
     1
102
RTVSPost2010Prop48
 90
       50
102
RTVSPost2010PropOp48
 70
     1
102
RTVSPost2010Prop49
280
     0
102
RTVSPost2010PropOp49
 70
     1
102
RTVSPost2010Prop50
 90
       50
102
RTVSPost2010PropOp50
 70
     1
102
RTVSPost2010Prop51ColorIndex
 90
      256
102
RTVSPost2010Prop51ColorRGB
 90
-16777216
102
RTVSPost2010PropOp51
 70
     0
102
RTVSPost2010Prop52
140
1.0
102
RTVSPost2010PropOp52
 70
     0
102
RTVSPost2010Prop53
 90
        2
102
RTVSPost2010PropOp53
 70
     1
102
RTVSPost2010Prop54
  1
strokes_ogs.tif
102
RTVSPost2010PropOp54
 70
     1
102
RTVSPost2010Prop55
280
     0
102
RTVSPost2010PropOp55
 70
     1
102
RTVSPost2010Prop56
140
1.0
102
RTVSPost2010PropOp56
 70
     1
102
RTVSPost2010Prop57
140
1.0
102
RTVSPost2010PropOp57
 70
     1
  0
XRECORD
  5
106AD20
102
{ACAD_REACTORS
330
106AD1F
102
}
330
106AD1F
100
AcDbXrecord
280
     1
102
RTVSPropertyOp0
 70
     1
102
RTVSPropertyOp1
 70
     1
102
RTVSPropertyOp2
 70
     1
102
RTVSPropertyOp3
 70
     1
102
RTVSPropertyOp4
 70
     1
102
RTVSPropertyOp5
 70
     1
102
RTVSPropertyOp6
 70
     1
102
RTVSPropertyOp7
 70
     1
102
RTVSPropertyOp8
 70
     1
102
RTVSPropertyOp9
 70
     1
102
RTVSPropertyOp10
 70
     1
102
RTVSPropertyOp11
 70
     1
102
RTVSPropertyOp12
 70
     1
102
RTVSPropertyOp13
 70
     1
102
RTVSPropertyOp14
 70
     1
102
RTVSPropertyOp15
 70
     1
102
RTVSPropertyOp16
 70
     1
102
RTVSPropertyOp17
 70
     1
102
RTVSPropertyOp18
 70
     1
102
RTVSPropertyOp19
 70
     1
102
RTVSPropertyOp20
 70
     1
102
RTVSPropertyOp21
 70
     1
102
RTVSPropertyOp22
 70
     1
102
RTVSPropertyOp23
 70
     1
102
RTVSPropertyOp24
 70
     1
102
RTVSPropertyOp25
 70
     1
102
RTVSPropertyOp26
 70
     1
102
RTVSPropertyOp27
 70
     1
102
RTVSPropertyOp28
 70
     1
102
RTVSPropertyOp29
 70
     1
102
RTVSPropertyOp30
 70
     1
102
RTVSPropertyOp31
 70
     1
102
RTVSPropertyOp32
 70
     1
102
RTVSPropertyOp33
 70
     1
102
RTVSPropertyOp34
 70
     1
102
RTVSPropertyOp35
 70
     1
102
RTVSPropertyOp36
 70
     1
102
RTVSPropertyOp37
 70
     1
102
RTVSPropertyOp38
 70
     1
102
RTVSPropertyOp39
 70
     1
102
RTVSPropertyOp40
 70
     1
102
RTVSPropertyOp41
 70
     1
102
RTVSPropertyOp42
 70
     1
102
RTVSPropertyOp43
 70
     1
102
RTVSPropertyOp44
 70
     1
102
RTVSPropertyOp45
 70
     1
102
RTVSPropertyOp46
 70
     1
102
RTVSPropertyOp47
 70
     1
102
RTVSPropertyOp48
 70
     1
102
RTVSPropertyOp49
 70
     1
102
RTVSPropertyOp50
 70
     1
102
RTVSPropertyOp51
 70
     0
102
RTVSPropertyOp52
 70
     0
102
RTVSPropertyOp53
 70
     1
102
RTVSPropertyOp54
 70
     1
102
RTVSPropertyOp55
 70
     1
102
RTVSPropertyOp56
 70
     1
102
RTVSPropertyOp57
 70
     1
102
RTVSPost2010Prop28
280
     0
102
RTVSPost2010PropOp28
 70
     1
102
RTVSPost2010Prop29
280
     1
102
RTVSPost2010PropOp29
 70
     1
102
RTVSPost2010Prop30
280
     1
102
RTVSPost2010PropOp30
 70
     1
102
RTVSPost2010Prop31
280
     0
102
RTVSPost2010PropOp31
 70
     1
102
RTVSPost2010Prop32
280
     0
102
RTVSPost2010PropOp32
 70
     1
102
RTVSPost2010Prop33
280
     0
102
RTVSPost2010PropOp33
 70
     1
102
RTVSPost2010Prop34
280
     0
102
RTVSPost2010PropOp34
 70
     1
102
RTVSPost2010Prop35
280
     0
102
RTVSPost2010PropOp35
 70
     1
102
RTVSPost2010Prop36
280
     0
102
RTVSPost2010PropOp36
 70
     1
102
RTVSPost2010Prop37
 90
       50
102
RTVSPost2010PropOp37
 70
     1
102
RTVSPost2010Prop38
140
0.0
102
RTVSPost2010PropOp38
 70
     1
102
RTVSPost2010Prop39
140
1.0
102
RTVSPost2010PropOp39
 70
     1
102
RTVSPost2010Prop40
 90
        0
102
RTVSPost2010PropOp40
 70
     1
102
RTVSPost2010Prop41ColorIndex
 90
       18
102
RTVSPost2010Prop41ColorRGB
 90
        0
102
RTVSPost2010PropOp41
 70
     1
102
RTVSPost2010Prop42
 90
       50
102
RTVSPost2010PropOp42
 70
     1
102
RTVSPost2010Prop43
 90
        3
102
RTVSPost2010PropOp43
 70
     1
102
RTVSPost2010Prop44ColorIndex
 90
        5
102
RTVSPost2010Prop44ColorRGB
 90
      255
102
RTVSPost2010PropOp44
 70
     1
102
RTVSPost2010Prop45
280
     0
102
RTVSPost2010PropOp45
 70
     1
102
RTVSPost2010Prop46
 90
       50
102
RTVSPost2010PropOp46
 70
     1
102
RTVSPost2010Prop47
 90
       50
102
RTVSPost2010PropOp47
 70
     1
102
RTVSPost2010Prop48
 90
       50
102
RTVSPost2010PropOp48
 70
     1
102
RTVSPost2010Prop49
280
     0
102
RTVSPost2010PropOp49
 70
     1
102
RTVSPost2010Prop50
 90
       50
102
RTVSPost2010PropOp50
 70
     1
102
RTVSPost2010Prop51ColorIndex
 90
      256
102
RTVSPost2010Prop51ColorRGB
 90
-16777216
102
RTVSPost2010PropOp51
 70
     0
102
RTVSPost2010Prop52
140
1.0
102
RTVSPost2010PropOp52
 70
     0
102
RTVSPost2010Prop53
 90
        2
102
RTVSPost2010PropOp53
 70
     1
102
RTVSPost2010Prop54
  1
strokes_ogs.tif
102
RTVSPost2010PropOp54
 70
     1
102
RTVSPost2010Prop55
280
     0
102
RTVSPost2010PropOp55
 70
     1
102
RTVSPost2010Prop56
140
1.0
102
RTVSPost2010PropOp56
 70
     1
102
RTVSPost2010Prop57
140
1.0
102
RTVSPost2010PropOp57
 70
     1
  0
XRECORD
  5
106AD1A
102
{ACAD_REACTORS
330
106AD19
102
}
330
106AD19
100
AcDbXrecord
280
     1
102
RTVSPropertyOp0
 70
     1
102
RTVSPropertyOp1
 70
     1
102
RTVSPropertyOp2
 70
     1
102
RTVSPropertyOp3
 70
     1
102
RTVSPropertyOp4
 70
     1
102
RTVSPropertyOp5
 70
     1
102
RTVSPropertyOp6
 70
     1
102
RTVSPropertyOp7
 70
     1
102
RTVSPropertyOp8
 70
     1
102
RTVSPropertyOp9
 70
     1
102
RTVSPropertyOp10
 70
     1
102
RTVSPropertyOp11
 70
     1
102
RTVSPropertyOp12
 70
     1
102
RTVSPropertyOp13
 70
     1
102
RTVSPropertyOp14
 70
     1
102
RTVSPropertyOp15
 70
     1
102
RTVSPropertyOp16
 70
     1
102
RTVSPropertyOp17
 70
     1
102
RTVSPropertyOp18
 70
     1
102
RTVSPropertyOp19
 70
     1
102
RTVSPropertyOp20
 70
     1
102
RTVSPropertyOp21
 70
     1
102
RTVSPropertyOp22
 70
     1
102
RTVSPropertyOp23
 70
     1
102
RTVSPropertyOp24
 70
     1
102
RTVSPropertyOp25
 70
     1
102
RTVSPropertyOp26
 70
     1
102
RTVSPropertyOp27
 70
     1
102
RTVSPropertyOp28
 70
     1
102
RTVSPropertyOp29
 70
     1
102
RTVSPropertyOp30
 70
     1
102
RTVSPropertyOp31
 70
     1
102
RTVSPropertyOp32
 70
     1
102
RTVSPropertyOp33
 70
     1
102
RTVSPropertyOp34
 70
     1
102
RTVSPropertyOp35
 70
     1
102
RTVSPropertyOp36
 70
     1
102
RTVSPropertyOp37
 70
     1
102
RTVSPropertyOp38
 70
     1
102
RTVSPropertyOp39
 70
     1
102
RTVSPropertyOp40
 70
     1
102
RTVSPropertyOp41
 70
     1
102
RTVSPropertyOp42
 70
     1
102
RTVSPropertyOp43
 70
     1
102
RTVSPropertyOp44
 70
     1
102
RTVSPropertyOp45
 70
     1
102
RTVSPropertyOp46
 70
     1
102
RTVSPropertyOp47
 70
     1
102
RTVSPropertyOp48
 70
     1
102
RTVSPropertyOp49
 70
     1
102
RTVSPropertyOp50
 70
     1
102
RTVSPropertyOp51
 70
     0
102
RTVSPropertyOp52
 70
     0
102
RTVSPropertyOp53
 70
     1
102
RTVSPropertyOp54
 70
     1
102
RTVSPropertyOp55
 70
     1
102
RTVSPropertyOp56
 70
     1
102
RTVSPropertyOp57
 70
     1
102
RTVSPost2010Prop28
280
     0
102
RTVSPost2010PropOp28
 70
     1
102
RTVSPost2010Prop29
280
     1
102
RTVSPost2010PropOp29
 70
     1
102
RTVSPost2010Prop30
280
     1
102
RTVSPost2010PropOp30
 70
     1
102
RTVSPost2010Prop31
280
     0
102
RTVSPost2010PropOp31
 70
     1
102
RTVSPost2010Prop32
280
     0
102
RTVSPost2010PropOp32
 70
     1
102
RTVSPost2010Prop33
280
     0
102
RTVSPost2010PropOp33
 70
     1
102
RTVSPost2010Prop34
280
     0
102
RTVSPost2010PropOp34
 70
     1
102
RTVSPost2010Prop35
280
     0
102
RTVSPost2010PropOp35
 70
     1
102
RTVSPost2010Prop36
280
     0
102
RTVSPost2010PropOp36
 70
     1
102
RTVSPost2010Prop37
 90
       50
102
RTVSPost2010PropOp37
 70
     1
102
RTVSPost2010Prop38
140
0.0
102
RTVSPost2010PropOp38
 70
     1
102
RTVSPost2010Prop39
140
1.0
102
RTVSPost2010PropOp39
 70
     1
102
RTVSPost2010Prop40
 90
        0
102
RTVSPost2010PropOp40
 70
     1
102
RTVSPost2010Prop41ColorIndex
 90
       18
102
RTVSPost2010Prop41ColorRGB
 90
        0
102
RTVSPost2010PropOp41
 70
     1
102
RTVSPost2010Prop42
 90
       50
102
RTVSPost2010PropOp42
 70
     1
102
RTVSPost2010Prop43
 90
        3
102
RTVSPost2010PropOp43
 70
     1
102
RTVSPost2010Prop44ColorIndex
 90
        5
102
RTVSPost2010Prop44ColorRGB
 90
      255
102
RTVSPost2010PropOp44
 70
     1
102
RTVSPost2010Prop45
280
     0
102
RTVSPost2010PropOp45
 70
     1
102
RTVSPost2010Prop46
 90
       50
102
RTVSPost2010PropOp46
 70
     1
102
RTVSPost2010Prop47
 90
       50
102
RTVSPost2010PropOp47
 70
     1
102
RTVSPost2010Prop48
 90
       50
102
RTVSPost2010PropOp48
 70
     1
102
RTVSPost2010Prop49
280
     0
102
RTVSPost2010PropOp49
 70
     1
102
RTVSPost2010Prop50
 90
       50
102
RTVSPost2010PropOp50
 70
     1
102
RTVSPost2010Prop51ColorIndex
 90
      256
102
RTVSPost2010Prop51ColorRGB
 90
-16777216
102
RTVSPost2010PropOp51
 70
     0
102
RTVSPost2010Prop52
140
1.0
102
RTVSPost2010PropOp52
 70
     0
102
RTVSPost2010Prop53
 90
        2
102
RTVSPost2010PropOp53
 70
     1
102
RTVSPost2010Prop54
  1
strokes_ogs.tif
102
RTVSPost2010PropOp54
 70
     1
102
RTVSPost2010Prop55
280
     0
102
RTVSPost2010PropOp55
 70
     1
102
RTVSPost2010Prop56
140
1.0
102
RTVSPost2010PropOp56
 70
     1
102
RTVSPost2010Prop57
140
1.0
102
RTVSPost2010PropOp57
 70
     1
  0
XRECORD
  5
106AD1C
102
{ACAD_REACTORS
330
106AD1B
102
}
330
106AD1B
100
AcDbXrecord
280
     1
102
RTVSPropertyOp0
 70
     1
102
RTVSPropertyOp1
 70
     1
102
RTVSPropertyOp2
 70
     1
102
RTVSPropertyOp3
 70
     1
102
RTVSPropertyOp4
 70
     1
102
RTVSPropertyOp5
 70
     1
102
RTVSPropertyOp6
 70
     1
102
RTVSPropertyOp7
 70
     1
102
RTVSPropertyOp8
 70
     1
102
RTVSPropertyOp9
 70
     1
102
RTVSPropertyOp10
 70
     1
102
RTVSPropertyOp11
 70
     1
102
RTVSPropertyOp12
 70
     1
102
RTVSPropertyOp13
 70
     1
102
RTVSPropertyOp14
 70
     1
102
RTVSPropertyOp15
 70
     1
102
RTVSPropertyOp16
 70
     1
102
RTVSPropertyOp17
 70
     1
102
RTVSPropertyOp18
 70
     1
102
RTVSPropertyOp19
 70
     1
102
RTVSPropertyOp20
 70
     1
102
RTVSPropertyOp21
 70
     1
102
RTVSPropertyOp22
 70
     1
102
RTVSPropertyOp23
 70
     1
102
RTVSPropertyOp24
 70
     1
102
RTVSPropertyOp25
 70
     1
102
RTVSPropertyOp26
 70
     1
102
RTVSPropertyOp27
 70
     1
102
RTVSPropertyOp28
 70
     1
102
RTVSPropertyOp29
 70
     1
102
RTVSPropertyOp30
 70
     1
102
RTVSPropertyOp31
 70
     1
102
RTVSPropertyOp32
 70
     1
102
RTVSPropertyOp33
 70
     1
102
RTVSPropertyOp34
 70
     1
102
RTVSPropertyOp35
 70
     1
102
RTVSPropertyOp36
 70
     1
102
RTVSPropertyOp37
 70
     1
102
RTVSPropertyOp38
 70
     1
102
RTVSPropertyOp39
 70
     1
102
RTVSPropertyOp40
 70
     1
102
RTVSPropertyOp41
 70
     1
102
RTVSPropertyOp42
 70
     1
102
RTVSPropertyOp43
 70
     1
102
RTVSPropertyOp44
 70
     1
102
RTVSPropertyOp45
 70
     1
102
RTVSPropertyOp46
 70
     1
102
RTVSPropertyOp47
 70
     1
102
RTVSPropertyOp48
 70
     1
102
RTVSPropertyOp49
 70
     1
102
RTVSPropertyOp50
 70
     1
102
RTVSPropertyOp51
 70
     0
102
RTVSPropertyOp52
 70
     0
102
RTVSPropertyOp53
 70
     1
102
RTVSPropertyOp54
 70
     1
102
RTVSPropertyOp55
 70
     1
102
RTVSPropertyOp56
 70
     1
102
RTVSPropertyOp57
 70
     1
102
RTVSPost2010Prop28
280
     0
102
RTVSPost2010PropOp28
 70
     1
102
RTVSPost2010Prop29
280
     1
102
RTVSPost2010PropOp29
 70
     1
102
RTVSPost2010Prop30
280
     1
102
RTVSPost2010PropOp30
 70
     1
102
RTVSPost2010Prop31
280
     0
102
RTVSPost2010PropOp31
 70
     1
102
RTVSPost2010Prop32
280
     0
102
RTVSPost2010PropOp32
 70
     1
102
RTVSPost2010Prop33
280
     0
102
RTVSPost2010PropOp33
 70
     1
102
RTVSPost2010Prop34
280
     0
102
RTVSPost2010PropOp34
 70
     1
102
RTVSPost2010Prop35
280
     0
102
RTVSPost2010PropOp35
 70
     1
102
RTVSPost2010Prop36
280
     0
102
RTVSPost2010PropOp36
 70
     1
102
RTVSPost2010Prop37
 90
       50
102
RTVSPost2010PropOp37
 70
     1
102
RTVSPost2010Prop38
140
0.0
102
RTVSPost2010PropOp38
 70
     1
102
RTVSPost2010Prop39
140
1.0
102
RTVSPost2010PropOp39
 70
     1
102
RTVSPost2010Prop40
 90
        0
102
RTVSPost2010PropOp40
 70
     1
102
RTVSPost2010Prop41ColorIndex
 90
       18
102
RTVSPost2010Prop41ColorRGB
 90
        0
102
RTVSPost2010PropOp41
 70
     1
102
RTVSPost2010Prop42
 90
       50
102
RTVSPost2010PropOp42
 70
     1
102
RTVSPost2010Prop43
 90
        3
102
RTVSPost2010PropOp43
 70
     1
102
RTVSPost2010Prop44ColorIndex
 90
        5
102
RTVSPost2010Prop44ColorRGB
 90
      255
102
RTVSPost2010PropOp44
 70
     1
102
RTVSPost2010Prop45
280
     0
102
RTVSPost2010PropOp45
 70
     1
102
RTVSPost2010Prop46
 90
       50
102
RTVSPost2010PropOp46
 70
     1
102
RTVSPost2010Prop47
 90
       50
102
RTVSPost2010PropOp47
 70
     1
102
RTVSPost2010Prop48
 90
       50
102
RTVSPost2010PropOp48
 70
     1
102
RTVSPost2010Prop49
280
     0
102
RTVSPost2010PropOp49
 70
     1
102
RTVSPost2010Prop50
 90
       50
102
RTVSPost2010PropOp50
 70
     1
102
RTVSPost2010Prop51ColorIndex
 90
      256
102
RTVSPost2010Prop51ColorRGB
 90
-16777216
102
RTVSPost2010PropOp51
 70
     0
102
RTVSPost2010Prop52
140
1.0
102
RTVSPost2010PropOp52
 70
     0
102
RTVSPost2010Prop53
 90
        2
102
RTVSPost2010PropOp53
 70
     1
102
RTVSPost2010Prop54
  1
strokes_ogs.tif
102
RTVSPost2010PropOp54
 70
     1
102
RTVSPost2010Prop55
280
     0
102
RTVSPost2010PropOp55
 70
     1
102
RTVSPost2010Prop56
140
1.0
102
RTVSPost2010PropOp56
 70
     1
102
RTVSPost2010Prop57
140
1.0
102
RTVSPost2010PropOp57
 70
     1
  0
XRECORD
  5
106AD0C
102
{ACAD_REACTORS
330
106AD0B
102
}
330
106AD0B
100
AcDbXrecord
280
     1
102
RTVSPropertyOp0
 70
     1
102
RTVSPropertyOp1
 70
     1
102
RTVSPropertyOp2
 70
     1
102
RTVSPropertyOp3
 70
     1
102
RTVSPropertyOp4
 70
     1
102
RTVSPropertyOp5
 70
     1
102
RTVSPropertyOp6
 70
     1
102
RTVSPropertyOp7
 70
     1
102
RTVSPropertyOp8
 70
     1
102
RTVSPropertyOp9
 70
     1
102
RTVSPropertyOp10
 70
     1
102
RTVSPropertyOp11
 70
     1
102
RTVSPropertyOp12
 70
     1
102
RTVSPropertyOp13
 70
     1
102
RTVSPropertyOp14
 70
     1
102
RTVSPropertyOp15
 70
     1
102
RTVSPropertyOp16
 70
     1
102
RTVSPropertyOp17
 70
     1
102
RTVSPropertyOp18
 70
     1
102
RTVSPropertyOp19
 70
     1
102
RTVSPropertyOp20
 70
     1
102
RTVSPropertyOp21
 70
     1
102
RTVSPropertyOp22
 70
     1
102
RTVSPropertyOp23
 70
     1
102
RTVSPropertyOp24
 70
     1
102
RTVSPropertyOp25
 70
     1
102
RTVSPropertyOp26
 70
     1
102
RTVSPropertyOp27
 70
     1
102
RTVSPropertyOp28
 70
     1
102
RTVSPropertyOp29
 70
     1
102
RTVSPropertyOp30
 70
     1
102
RTVSPropertyOp31
 70
     1
102
RTVSPropertyOp32
 70
     1
102
RTVSPropertyOp33
 70
     1
102
RTVSPropertyOp34
 70
     1
102
RTVSPropertyOp35
 70
     1
102
RTVSPropertyOp36
 70
     1
102
RTVSPropertyOp37
 70
     1
102
RTVSPropertyOp38
 70
     1
102
RTVSPropertyOp39
 70
     1
102
RTVSPropertyOp40
 70
     1
102
RTVSPropertyOp41
 70
     1
102
RTVSPropertyOp42
 70
     1
102
RTVSPropertyOp43
 70
     1
102
RTVSPropertyOp44
 70
     1
102
RTVSPropertyOp45
 70
     1
102
RTVSPropertyOp46
 70
     1
102
RTVSPropertyOp47
 70
     1
102
RTVSPropertyOp48
 70
     1
102
RTVSPropertyOp49
 70
     1
102
RTVSPropertyOp50
 70
     1
102
RTVSPropertyOp51
 70
     0
102
RTVSPropertyOp52
 70
     0
102
RTVSPropertyOp53
 70
     1
102
RTVSPropertyOp54
 70
     1
102
RTVSPropertyOp55
 70
     1
102
RTVSPropertyOp56
 70
     1
102
RTVSPropertyOp57
 70
     1
102
RTVSPost2010Prop28
280
     0
102
RTVSPost2010PropOp28
 70
     1
102
RTVSPost2010Prop29
280
     1
102
RTVSPost2010PropOp29
 70
     1
102
RTVSPost2010Prop30
280
     1
102
RTVSPost2010PropOp30
 70
     1
102
RTVSPost2010Prop31
280
     0
102
RTVSPost2010PropOp31
 70
     1
102
RTVSPost2010Prop32
280
     0
102
RTVSPost2010PropOp32
 70
     1
102
RTVSPost2010Prop33
280
     0
102
RTVSPost2010PropOp33
 70
     1
102
RTVSPost2010Prop34
280
     0
102
RTVSPost2010PropOp34
 70
     1
102
RTVSPost2010Prop35
280
     0
102
RTVSPost2010PropOp35
 70
     1
102
RTVSPost2010Prop36
280
     0
102
RTVSPost2010PropOp36
 70
     1
102
RTVSPost2010Prop37
 90
       50
102
RTVSPost2010PropOp37
 70
     1
102
RTVSPost2010Prop38
140
0.0
102
RTVSPost2010PropOp38
 70
     1
102
RTVSPost2010Prop39
140
1.0
102
RTVSPost2010PropOp39
 70
     1
102
RTVSPost2010Prop40
 90
        0
102
RTVSPost2010PropOp40
 70
     1
102
RTVSPost2010Prop41ColorIndex
 90
       18
102
RTVSPost2010Prop41ColorRGB
 90
        0
102
RTVSPost2010PropOp41
 70
     1
102
RTVSPost2010Prop42
 90
       50
102
RTVSPost2010PropOp42
 70
     1
102
RTVSPost2010Prop43
 90
        3
102
RTVSPost2010PropOp43
 70
     1
102
RTVSPost2010Prop44ColorIndex
 90
        5
102
RTVSPost2010Prop44ColorRGB
 90
      255
102
RTVSPost2010PropOp44
 70
     1
102
RTVSPost2010Prop45
280
     0
102
RTVSPost2010PropOp45
 70
     1
102
RTVSPost2010Prop46
 90
       50
102
RTVSPost2010PropOp46
 70
     1
102
RTVSPost2010Prop47
 90
       50
102
RTVSPost2010PropOp47
 70
     1
102
RTVSPost2010Prop48
 90
       50
102
RTVSPost2010PropOp48
 70
     1
102
RTVSPost2010Prop49
280
     0
102
RTVSPost2010PropOp49
 70
     1
102
RTVSPost2010Prop50
 90
       50
102
RTVSPost2010PropOp50
 70
     1
102
RTVSPost2010Prop51ColorIndex
 90
      256
102
RTVSPost2010Prop51ColorRGB
 90
-16777216
102
RTVSPost2010PropOp51
 70
     0
102
RTVSPost2010Prop52
140
1.0
102
RTVSPost2010PropOp52
 70
     0
102
RTVSPost2010Prop53
 90
        2
102
RTVSPost2010PropOp53
 70
     1
102
RTVSPost2010Prop54
  1
strokes_ogs.tif
102
RTVSPost2010PropOp54
 70
     1
102
RTVSPost2010Prop55
280
     0
102
RTVSPost2010PropOp55
 70
     1
102
RTVSPost2010Prop56
140
1.0
102
RTVSPost2010PropOp56
 70
     1
102
RTVSPost2010Prop57
140
1.0
102
RTVSPost2010PropOp57
 70
     1
  0
XRECORD
  5
106ACFE
102
{ACAD_REACTORS
330
106ACFD
102
}
330
106ACFD
100
AcDbXrecord
280
     1
102
RTVSPropertyOp0
 70
     1
102
RTVSPropertyOp1
 70
     1
102
RTVSPropertyOp2
 70
     1
102
RTVSPropertyOp3
 70
     1
102
RTVSPropertyOp4
 70
     1
102
RTVSPropertyOp5
 70
     1
102
RTVSPropertyOp6
 70
     1
102
RTVSPropertyOp7
 70
     1
102
RTVSPropertyOp8
 70
     1
102
RTVSPropertyOp9
 70
     1
102
RTVSPropertyOp10
 70
     1
102
RTVSPropertyOp11
 70
     1
102
RTVSPropertyOp12
 70
     1
102
RTVSPropertyOp13
 70
     1
102
RTVSPropertyOp14
 70
     1
102
RTVSPropertyOp15
 70
     1
102
RTVSPropertyOp16
 70
     1
102
RTVSPropertyOp17
 70
     1
102
RTVSPropertyOp18
 70
     1
102
RTVSPropertyOp19
 70
     1
102
RTVSPropertyOp20
 70
     1
102
RTVSPropertyOp21
 70
     1
102
RTVSPropertyOp22
 70
     1
102
RTVSPropertyOp23
 70
     1
102
RTVSPropertyOp24
 70
     1
102
RTVSPropertyOp25
 70
     1
102
RTVSPropertyOp26
 70
     1
102
RTVSPropertyOp27
 70
     1
102
RTVSPropertyOp28
 70
     1
102
RTVSPropertyOp29
 70
     1
102
RTVSPropertyOp30
 70
     1
102
RTVSPropertyOp31
 70
     1
102
RTVSPropertyOp32
 70
     1
102
RTVSPropertyOp33
 70
     1
102
RTVSPropertyOp34
 70
     1
102
RTVSPropertyOp35
 70
     1
102
RTVSPropertyOp36
 70
     1
102
RTVSPropertyOp37
 70
     1
102
RTVSPropertyOp38
 70
     1
102
RTVSPropertyOp39
 70
     1
102
RTVSPropertyOp40
 70
     1
102
RTVSPropertyOp41
 70
     1
102
RTVSPropertyOp42
 70
     1
102
RTVSPropertyOp43
 70
     1
102
RTVSPropertyOp44
 70
     1
102
RTVSPropertyOp45
 70
     1
102
RTVSPropertyOp46
 70
     1
102
RTVSPropertyOp47
 70
     1
102
RTVSPropertyOp48
 70
     1
102
RTVSPropertyOp49
 70
     1
102
RTVSPropertyOp50
 70
     1
102
RTVSPropertyOp51
 70
     0
102
RTVSPropertyOp52
 70
     0
102
RTVSPropertyOp53
 70
     1
102
RTVSPropertyOp54
 70
     1
102
RTVSPropertyOp55
 70
     1
102
RTVSPropertyOp56
 70
     1
102
RTVSPropertyOp57
 70
     1
102
RTVSPost2010Prop28
280
     0
102
RTVSPost2010PropOp28
 70
     1
102
RTVSPost2010Prop29
280
     1
102
RTVSPost2010PropOp29
 70
     1
102
RTVSPost2010Prop30
280
     1
102
RTVSPost2010PropOp30
 70
     1
102
RTVSPost2010Prop31
280
     0
102
RTVSPost2010PropOp31
 70
     1
102
RTVSPost2010Prop32
280
     0
102
RTVSPost2010PropOp32
 70
     1
102
RTVSPost2010Prop33
280
     0
102
RTVSPost2010PropOp33
 70
     1
102
RTVSPost2010Prop34
280
     0
102
RTVSPost2010PropOp34
 70
     1
102
RTVSPost2010Prop35
280
     0
102
RTVSPost2010PropOp35
 70
     1
102
RTVSPost2010Prop36
280
     0
102
RTVSPost2010PropOp36
 70
     1
102
RTVSPost2010Prop37
 90
       50
102
RTVSPost2010PropOp37
 70
     1
102
RTVSPost2010Prop38
140
0.0
102
RTVSPost2010PropOp38
 70
     1
102
RTVSPost2010Prop39
140
1.0
102
RTVSPost2010PropOp39
 70
     1
102
RTVSPost2010Prop40
 90
        0
102
RTVSPost2010PropOp40
 70
     1
102
RTVSPost2010Prop41ColorIndex
 90
       18
102
RTVSPost2010Prop41ColorRGB
 90
        0
102
RTVSPost2010PropOp41
 70
     1
102
RTVSPost2010Prop42
 90
       50
102
RTVSPost2010PropOp42
 70
     1
102
RTVSPost2010Prop43
 90
        3
102
RTVSPost2010PropOp43
 70
     1
102
RTVSPost2010Prop44ColorIndex
 90
        5
102
RTVSPost2010Prop44ColorRGB
 90
      255
102
RTVSPost2010PropOp44
 70
     1
102
RTVSPost2010Prop45
280
     0
102
RTVSPost2010PropOp45
 70
     1
102
RTVSPost2010Prop46
 90
       50
102
RTVSPost2010PropOp46
 70
     1
102
RTVSPost2010Prop47
 90
       50
102
RTVSPost2010PropOp47
 70
     1
102
RTVSPost2010Prop48
 90
       50
102
RTVSPost2010PropOp48
 70
     1
102
RTVSPost2010Prop49
280
     0
102
RTVSPost2010PropOp49
 70
     1
102
RTVSPost2010Prop50
 90
       50
102
RTVSPost2010PropOp50
 70
     1
102
RTVSPost2010Prop51ColorIndex
 90
      256
102
RTVSPost2010Prop51ColorRGB
 90
-16777216
102
RTVSPost2010PropOp51
 70
     0
102
RTVSPost2010Prop52
140
1.0
102
RTVSPost2010PropOp52
 70
     0
102
RTVSPost2010Prop53
 90
        2
102
RTVSPost2010PropOp53
 70
     1
102
RTVSPost2010Prop54
  1
strokes_ogs.tif
102
RTVSPost2010PropOp54
 70
     1
102
RTVSPost2010Prop55
280
     0
102
RTVSPost2010PropOp55
 70
     1
102
RTVSPost2010Prop56
140
1.0
102
RTVSPost2010PropOp56
 70
     1
102
RTVSPost2010Prop57
140
1.0
102
RTVSPost2010PropOp57
 70
     1
  0
XRECORD
  5
106AD1E
102
{ACAD_REACTORS
330
106AD1D
102
}
330
106AD1D
100
AcDbXrecord
280
     1
102
RTVSPropertyOp0
 70
     1
102
RTVSPropertyOp1
 70
     1
102
RTVSPropertyOp2
 70
     1
102
RTVSPropertyOp3
 70
     1
102
RTVSPropertyOp4
 70
     1
102
RTVSPropertyOp5
 70
     1
102
RTVSPropertyOp6
 70
     1
102
RTVSPropertyOp7
 70
     1
102
RTVSPropertyOp8
 70
     1
102
RTVSPropertyOp9
 70
     1
102
RTVSPropertyOp10
 70
     1
102
RTVSPropertyOp11
 70
     1
102
RTVSPropertyOp12
 70
     1
102
RTVSPropertyOp13
 70
     1
102
RTVSPropertyOp14
 70
     1
102
RTVSPropertyOp15
 70
     1
102
RTVSPropertyOp16
 70
     1
102
RTVSPropertyOp17
 70
     1
102
RTVSPropertyOp18
 70
     1
102
RTVSPropertyOp19
 70
     1
102
RTVSPropertyOp20
 70
     1
102
RTVSPropertyOp21
 70
     1
102
RTVSPropertyOp22
 70
     1
102
RTVSPropertyOp23
 70
     1
102
RTVSPropertyOp24
 70
     1
102
RTVSPropertyOp25
 70
     1
102
RTVSPropertyOp26
 70
     1
102
RTVSPropertyOp27
 70
     1
102
RTVSPropertyOp28
 70
     1
102
RTVSPropertyOp29
 70
     1
102
RTVSPropertyOp30
 70
     1
102
RTVSPropertyOp31
 70
     1
102
RTVSPropertyOp32
 70
     1
102
RTVSPropertyOp33
 70
     1
102
RTVSPropertyOp34
 70
     1
102
RTVSPropertyOp35
 70
     1
102
RTVSPropertyOp36
 70
     1
102
RTVSPropertyOp37
 70
     1
102
RTVSPropertyOp38
 70
     1
102
RTVSPropertyOp39
 70
     1
102
RTVSPropertyOp40
 70
     1
102
RTVSPropertyOp41
 70
     1
102
RTVSPropertyOp42
 70
     1
102
RTVSPropertyOp43
 70
     1
102
RTVSPropertyOp44
 70
     1
102
RTVSPropertyOp45
 70
     1
102
RTVSPropertyOp46
 70
     1
102
RTVSPropertyOp47
 70
     1
102
RTVSPropertyOp48
 70
     1
102
RTVSPropertyOp49
 70
     1
102
RTVSPropertyOp50
 70
     1
102
RTVSPropertyOp51
 70
     0
102
RTVSPropertyOp52
 70
     0
102
RTVSPropertyOp53
 70
     1
102
RTVSPropertyOp54
 70
     1
102
RTVSPropertyOp55
 70
     1
102
RTVSPropertyOp56
 70
     1
102
RTVSPropertyOp57
 70
     1
102
RTVSPost2010Prop28
280
     0
102
RTVSPost2010PropOp28
 70
     1
102
RTVSPost2010Prop29
280
     1
102
RTVSPost2010PropOp29
 70
     1
102
RTVSPost2010Prop30
280
     1
102
RTVSPost2010PropOp30
 70
     1
102
RTVSPost2010Prop31
280
     0
102
RTVSPost2010PropOp31
 70
     1
102
RTVSPost2010Prop32
280
     0
102
RTVSPost2010PropOp32
 70
     1
102
RTVSPost2010Prop33
280
     0
102
RTVSPost2010PropOp33
 70
     1
102
RTVSPost2010Prop34
280
     0
102
RTVSPost2010PropOp34
 70
     1
102
RTVSPost2010Prop35
280
     0
102
RTVSPost2010PropOp35
 70
     1
102
RTVSPost2010Prop36
280
     0
102
RTVSPost2010PropOp36
 70
     1
102
RTVSPost2010Prop37
 90
       50
102
RTVSPost2010PropOp37
 70
     1
102
RTVSPost2010Prop38
140
0.0
102
RTVSPost2010PropOp38
 70
     1
102
RTVSPost2010Prop39
140
1.0
102
RTVSPost2010PropOp39
 70
     1
102
RTVSPost2010Prop40
 90
        0
102
RTVSPost2010PropOp40
 70
     1
102
RTVSPost2010Prop41ColorIndex
 90
       18
102
RTVSPost2010Prop41ColorRGB
 90
        0
102
RTVSPost2010PropOp41
 70
     1
102
RTVSPost2010Prop42
 90
       50
102
RTVSPost2010PropOp42
 70
     1
102
RTVSPost2010Prop43
 90
        3
102
RTVSPost2010PropOp43
 70
     1
102
RTVSPost2010Prop44ColorIndex
 90
        5
102
RTVSPost2010Prop44ColorRGB
 90
      255
102
RTVSPost2010PropOp44
 70
     1
102
RTVSPost2010Prop45
280
     0
102
RTVSPost2010PropOp45
 70
     1
102
RTVSPost2010Prop46
 90
       50
102
RTVSPost2010PropOp46
 70
     1
102
RTVSPost2010Prop47
 90
       50
102
RTVSPost2010PropOp47
 70
     1
102
RTVSPost2010Prop48
 90
       50
102
RTVSPost2010PropOp48
 70
     1
102
RTVSPost2010Prop49
280
     0
102
RTVSPost2010PropOp49
 70
     1
102
RTVSPost2010Prop50
 90
       50
102
RTVSPost2010PropOp50
 70
     1
102
RTVSPost2010Prop51ColorIndex
 90
      256
102
RTVSPost2010Prop51ColorRGB
 90
-16777216
102
RTVSPost2010PropOp51
 70
     0
102
RTVSPost2010Prop52
140
1.0
102
RTVSPost2010PropOp52
 70
     0
102
RTVSPost2010Prop53
 90
        2
102
RTVSPost2010PropOp53
 70
     1
102
RTVSPost2010Prop54
  1
strokes_ogs.tif
102
RTVSPost2010PropOp54
 70
     1
102
RTVSPost2010Prop55
280
     0
102
RTVSPost2010PropOp55
 70
     1
102
RTVSPost2010Prop56
140
1.0
102
RTVSPost2010PropOp56
 70
     1
102
RTVSPost2010Prop57
140
1.0
102
RTVSPost2010PropOp57
 70
     1
  0
ENDSEC
  0
EOF
