  0
SECTION
  2
HEADER
  9
$ACADVER
  1
AC1015
  9
$ACADMAINTVER
 70
     6
  9
$DWGCODEPAGE
  3
ANSI_932
  9
$INSBASE
 10
0.0
 20
0.0
 30
0.0
  9
$EXTMIN
 10
-15.0
 20
-45.0
 30
0.0
  9
$EXTMAX
 10
95.0
 20
45.0
 30
0.0
  9
$LIMMIN
 10
0.0
 20
0.0
  9
$LIMMAX
 10
12.0
 20
9.0
  9
$ORTHOMODE
 70
     0
  9
$REGENMODE
 70
     1
  9
$FILLMODE
 70
     1
  9
$QTEXTMODE
 70
     0
  9
$MIRRTEXT
 70
     1
  9
$LTSCALE
 40
1.0
  9
$ATTMODE
 70
     1
  9
$TEXTSIZE
 40
0.2
  9
$TRACEWID
 40
0.05
  9
$TEXTSTYLE
  7
Standard
  9
$CLAYER
  8
0
  9
$CELTYPE
  6
ByBlock
  9
$CECOLOR
 62
   256
  9
$CELTSCALE
 40
1.0
  9
$DISPSILH
 70
     0
  9
$DIMSCALE
 40
1.0
  9
$DIMASZ
 40
0.18
  9
$DIMEXO
 40
0.0625
  9
$DIMDLI
 40
0.38
  9
$DIMRND
 40
0.0
  9
$DIMDLE
 40
0.0
  9
$DIMEXE
 40
0.18
  9
$DIMTP
 40
0.0
  9
$DIMTM
 40
0.0
  9
$DIMTXT
 40
0.18
  9
$DIMCEN
 40
0.09
  9
$DIMTSZ
 40
0.0
  9
$DIMTOL
 70
     0
  9
$DIMLIM
 70
     0
  9
$DIMTIH
 70
     1
  9
$DIMTOH
 70
     1
  9
$DIMSE1
 70
     0
  9
$DIMSE2
 70
     0
  9
$DIMTAD
 70
     0
  9
$DIMZIN
 70
     0
  9
$DIMBLK
  1

  9
$DIMASO
 70
     1
  9
$DIMSHO
 70
     1
  9
$DIMPOST
  1

  9
$DIMAPOST
  1

  9
$DIMALT
 70
     0
  9
$DIMALTD
 70
     2
  9
$DIMALTF
 40
25.4
  9
$DIMLFAC
 40
1.0
  9
$DIMTOFL
 70
     0
  9
$DIMTVP
 40
0.0
  9
$DIMTIX
 70
     0
  9
$DIMSOXD
 70
     0
  9
$DIMSAH
 70
     0
  9
$DIMBLK1
  1

  9
$DIMBLK2
  1

  9
$DIMSTYLE
  2
STANDARD
  9
$DIMCLRD
 70
     0
  9
$DIMCLRE
 70
     0
  9
$DIMCLRT
 70
     0
  9
$DIMTFAC
 40
1.0
  9
$DIMGAP
 40
0.09
  9
$DIMJUST
 70
     0
  9
$DIMSD1
 70
     0
  9
$DIMSD2
 70
     0
  9
$DIMTOLJ
 70
     1
  9
$DIMTZIN
 70
     0
  9
$DIMALTZ
 70
     0
  9
$DIMALTTZ
 70
     0
  9
$DIMUPT
 70
     0
  9
$DIMDEC
 70
     4
  9
$DIMTDEC
 70
     4
  9
$DIMALTU
 70
     2
  9
$DIMALTTD
 70
     2
  9
$DIMTXSTY
  7
Standard
  9
$DIMAUNIT
 70
     0
  9
$DIMADEC
 70
     0
  9
$DIMALTRND
 40
0.0
  9
$DIMAZIN
 70
     0
  9
$DIMDSEP
 70
    46
  9
$DIMATFIT
 70
     3
  9
$DIMFRAC
 70
     0
  9
$DIMLDRBLK
  1

  9
$DIMLUNIT
 70
     2
  9
$DIMLWD
 70
    -2
  9
$DIMLWE
 70
    -2
  9
$DIMTMOVE
 70
     0
  9
$LUNITS
 70
     2
  9
$LUPREC
 70
     4
  9
$SKETCHINC
 40
0.1
  9
$FILLETRAD
 40
0.5
  9
$AUNITS
 70
     0
  9
$AUPREC
 70
     0
  9
$MENU
  1
.
  9
$ELEVATION
 40
0.0
  9
$PELEVATION
 40
0.0
  9
$THICKNESS
 40
0.0
  9
$LIMCHECK
 70
     0
  9
$CHAMFERA
 40
0.0
  9
$CHAMFERB
 40
0.0
  9
$CHAMFERC
 40
0.0
  9
$CHAMFERD
 40
0.0
  9
$SKPOLY
 70
     0
  9
$TDCREATE
 40
2447893.375
  9
$TDUCREATE
 40
0.0
  9
$TDUPDATE
 40
2460864.564099503
  9
$TDUUPDATE
 40
2460864.189099503
  9
$TDINDWG
 40
0.0044309606
  9
$TDUSRTIMER
 40
0.0032474769
  9
$USRTIMER
 70
     1
  9
$ANGBASE
 50
0.0
  9
$ANGDIR
 70
     0
  9
$PDMODE
 70
     0
  9
$PDSIZE
 40
0.0
  9
$PLINEWID
 40
0.0
  9
$SPLFRAME
 70
     0
  9
$SPLINETYPE
 70
     6
  9
$SPLINESEGS
 70
     8
  9
$HANDSEED
  5
106AD2B
  9
$SURFTAB1
 70
     6
  9
$SURFTAB2
 70
     6
  9
$SURFTYPE
 70
     6
  9
$SURFU
 70
     6
  9
$SURFV
 70
     6
  9
$UCSBASE
  2

  9
$UCSNAME
  2

  9
$UCSORG
 10
0.0
 20
0.0
 30
0.0
  9
$UCSXDIR
 10
1.0
 20
0.0
 30
0.0
  9
$UCSYDIR
 10
0.0
 20
1.0
 30
0.0
  9
$UCSORTHOREF
  2

  9
$UCSORTHOVIEW
 70
     0
  9
$UCSORGTOP
 10
0.0
 20
0.0
 30
0.0
  9
$UCSORGBOTTOM
 10
0.0
 20
0.0
 30
0.0
  9
$UCSORGLEFT
 10
0.0
 20
0.0
 30
0.0
  9
$UCSORGRIGHT
 10
0.0
 20
0.0
 30
0.0
  9
$UCSORGFRONT
 10
0.0
 20
0.0
 30
0.0
  9
$UCSORGBACK
 10
0.0
 20
0.0
 30
0.0
  9
$PUCSBASE
  2

  9
$PUCSNAME
  2

  9
$PUCSORG
 10
0.0
 20
0.0
 30
0.0
  9
$PUCSXDIR
 10
1.0
 20
0.0
 30
0.0
  9
$PUCSYDIR
 10
0.0
 20
1.0
 30
0.0
  9
$PUCSORTHOREF
  2

  9
$PUCSORTHOVIEW
 70
     0
  9
$PUCSORGTOP
 10
0.0
 20
0.0
 30
0.0
  9
$PUCSORGBOTTOM
 10
0.0
 20
0.0
 30
0.0
  9
$PUCSORGLEFT
 10
0.0
 20
0.0
 30
0.0
  9
$PUCSORGRIGHT
 10
0.0
 20
0.0
 30
0.0
  9
$PUCSORGFRONT
 10
0.0
 20
0.0
 30
0.0
  9
$PUCSORGBACK
 10
0.0
 20
0.0
 30
0.0
  9
$USERI1
 70
     0
  9
$USERI2
 70
     0
  9
$USERI3
 70
     0
  9
$USERI4
 70
     0
  9
$USERI5
 70
     0
  9
$USERR1
 40
0.0
  9
$USERR2
 40
0.0
  9
$USERR3
 40
0.0
  9
$USERR4
 40
0.0
  9
$USERR5
 40
0.0
  9
$WORLDVIEW
 70
     1
  9
$SHADEDGE
 70
     3
  9
$SHADEDIF
 70
    70
  9
$TILEMODE
 70
     1
  9
$MAXACTVP
 70
    64
  9
$PINSBASE
 10
0.0
 20
0.0
 30
0.0
  9
$PLIMCHECK
 70
     0
  9
$PEXTMIN
 10
1.000000000000000E+20
 20
1.000000000000000E+20
 30
1.000000000000000E+20
  9
$PEXTMAX
 10
-1.000000000000000E+20
 20
-1.000000000000000E+20
 30
-1.000000000000000E+20
  9
$PLIMMIN
 10
0.0
 20
0.0
  9
$PLIMMAX
 10
0.0
 20
0.0
  9
$UNITMODE
 70
     0
  9
$VISRETAIN
 70
     1
  9
$PLINEGEN
 70
     0
  9
$PSLTSCALE
 70
     1
  9
$TREEDEPTH
 70
  3020
  9
$CMLSTYLE
  2
Standard
  9
$CMLJUST
 70
     0
  9
$CMLSCALE
 40
1.0
  9
$PROXYGRAPHICS
 70
     1
  9
$MEASUREMENT
 70
     0
  9
$CELWEIGHT
370
    -1
  9
$ENDCAPS
280
     0
  9
$JOINSTYLE
280
     0
  9
$LWDISPLAY
290
     0
  9
$INSUNITS
 70
     0
  9
$HYPERLINKBASE
  1

  9
$STYLESHEET
  1

  9
$XEDIT
290
     1
  9
$CEPSNTYPE
380
     0
  9
$PSTYLEMODE
290
     1
  9
$FINGERPRINTGUID
  2
{64394a4e-74fe-44ba-a606-38b1e138105c}
  9
$VERSIONGUID
  2
{FAEB1C32-E019-11D5-929B-00C0DF256EC4}
  9
$EXTNAMES
290
     1
  9
$PSVPSCALE
 40
0.0
  9
$OLESTARTUP
290
     0
  0
ENDSEC
  0
SECTION
  2
CLASSES
  0
CLASS
  1
IMAGEDEF
  2
AcDbRasterImageDef
  3
ISM
 90
        0
280
     0
281
     0
  0
CLASS
  1
IMAGE
  2
AcDbRasterImage
  3
ISM
 90
      127
280
     0
281
     1
  0
CLASS
  1
IMAGEDEF_REACTOR
  2
AcDbRasterImageDefReactor
  3
ISM
 90
        1
280
     0
281
     0
  0
CLASS
  1
ACDBDICTIONARYWDFLT
  2
AcDbDictionaryWithDefault
  3
ObjectDBX Classes
 90
        0
280
     0
281
     0
  0
CLASS
  1
SCALE
  2
AcDbScale
  3
ObjectDBX Classes
 90
     1153
280
     0
281
     0
  0
CLASS
  1
MATERIAL
  2
AcDbMaterial
  3
ObjectDBX Classes
 90
     1153
280
     0
281
     0
  0
CLASS
  1
VISUALSTYLE
  2
AcDbVisualStyle
  3
ObjectDBX Classes
 90
     4095
280
     0
281
     0
  0
CLASS
  1
TABLESTYLE
  2
AcDbTableStyle
  3
ObjectDBX Classes
 90
     4095
280
     0
281
     0
  0
CLASS
  1
MLEADERSTYLE
  2
AcDbMLeaderStyle
  3
ACDB_MLEADERSTYLE_CLASS
 90
     4095
280
     0
281
     0
  0
CLASS
  1
SUN
  2
AcDbSun
  3
SCENEOE
 90
     1153
280
     0
281
     0
  0
CLASS
  1
RASTERVARIABLES
  2
AcDbRasterVariables
  3
ISM
 90
        0
280
     0
281
     0
  0
CLASS
  1
DICTIONARYVAR
  2
AcDbDictionaryVar
  3
ObjectDBX Classes
 90
        0
280
     0
281
     0
  0
CLASS
  1
ACDBPLACEHOLDER
  2
AcDbPlaceHolder
  3
ObjectDBX Classes
 90
        0
280
     0
281
     0
  0
CLASS
  1
LAYOUT
  2
AcDbLayout
  3
ObjectDBX Classes
 90
        0
280
     0
281
     0
  0
ENDSEC
  0
SECTION
  2
TABLES
  0
TABLE
  2
VPORT
  5
2
102
{ACAD_XDICTIONARY
360
106ACF0
102
}
330
0
100
AcDbSymbolTable
 70
     1
  0
VPORT
  5
106AB91
330
2
100
AcDbSymbolTableRecord
100
AcDbViewportTableRecord
  2
*Active
 70
     0
 10
0.0
 20
0.0
 11
1.0
 21
1.0
 12
40.0
 22
0.0
 13
0.0
 23
0.0
 14
0.5
 24
0.5
 15
0.5
 25
0.5
 16
0.0
 26
0.0
 36
1.0
 17
0.0
 27
0.0
 37
0.0
 40
91.8
 41
2.05750350631136
 42
50.0
 43
0.0
 44
0.0
 50
0.0
 51
0.0
 71
    16
 72
   100
 73
     1
 74
     3
 75
     0
 76
     0
 77
     0
 78
     0
281
     0
 65
     1
110
0.0
120
0.0
130
0.0
111
1.0
121
0.0
131
0.0
112
0.0
122
1.0
132
0.0
 79
     0
146
0.0
  0
ENDTAB
  0
TABLE
  2
LTYPE
  5
3
330
0
100
AcDbSymbolTable
 70
     3
  0
LTYPE
  5
4
330
3
100
AcDbSymbolTableRecord
100
AcDbLinetypeTableRecord
  2
ByBlock
 70
     0
  3

 72
    65
 73
     0
 40
0.0
  0
LTYPE
  5
5
330
3
100
AcDbSymbolTableRecord
100
AcDbLinetypeTableRecord
  2
ByLayer
 70
     0
  3

 72
    65
 73
     0
 40
0.0
  0
LTYPE
  5
6
330
3
100
AcDbSymbolTableRecord
100
AcDbLinetypeTableRecord
  2
CONTINUOUS
 70
     0
  3
Solid Line
 72
    65
 73
     0
 40
0.0
  0
LTYPE
  5
7
330
3
100
AcDbSymbolTableRecord
100
AcDbLinetypeTableRecord
  2
DASH
 70
     0
  3
Hidden
 72
    65
 73
     2
 40
2.5
 49
1.5
 74
     0
 49
-1.0
 74
     0
  0
LTYPE
  5
8
330
3
100
AcDbSymbolTableRecord
100
AcDbLinetypeTableRecord
  2
LONGDASHDASH
 70
     0
  3
__ . __
 72
    65
 73
     4
 40
7.0
 49
4.0
 74
     0
 49
-1.0
 74
     0
 49
1.0
 74
     0
 49
-1.0
 74
     0
  0
ENDTAB
  0
TABLE
  2
LAYER
  5
9
330
0
100
AcDbSymbolTable
 70
    11
  0
LAYER
  5
A
330
9
100
AcDbSymbolTableRecord
100
AcDbLayerTableRecord
  2
0
 70
     0
 62
     7
  6
CONTINUOUS
370
    -3
390
106AB96
  0
LAYER
  5
C
330
9
100
AcDbSymbolTableRecord
100
AcDbLayerTableRecord
  2
1
 70
     0
 62
     4
  6
CONTINUOUS
370
    50
390
106AB96
  0
LAYER
  5
D
330
9
100
AcDbSymbolTableRecord
100
AcDbLayerTableRecord
  2
2
 70
     0
 62
     7
  6
CONTINUOUS
370
    25
390
106AB96
  0
LAYER
  5
F
330
9
100
AcDbSymbolTableRecord
100
AcDbLayerTableRecord
  2
4
 70
     0
 62
     2
  6
LONGDASHDASH
370
    25
390
106AB96
  0
LAYER
  5
13
330
9
100
AcDbSymbolTableRecord
100
AcDbLayerTableRecord
  2
SK1
 70
     0
 62
     4
  6
CONTINUOUS
370
    50
390
106AB96
  0
LAYER
  5
14
330
9
100
AcDbSymbolTableRecord
100
AcDbLayerTableRecord
  2
SK2
 70
     0
 62
     7
  6
CONTINUOUS
370
    25
390
106AB96
  0
LAYER
  5
16
330
9
100
AcDbSymbolTableRecord
100
AcDbLayerTableRecord
  2
SK4
 70
     0
 62
     2
  6
LONGDASHDASH
370
    25
390
106AB96
  0
LAYER
  5
21
330
9
100
AcDbSymbolTableRecord
100
AcDbLayerTableRecord
  2
NOCUT
 70
     0
 62
     7
  6
CONTINUOUS
370
    25
390
106AB96
  0
LAYER
  5
22
330
9
100
AcDbSymbolTableRecord
100
AcDbLayerTableRecord
  2
CUT
 70
     0
 62
     1
  6
CONTINUOUS
370
    25
390
106AB96
  0
LAYER
  5
26
330
9
100
AcDbSymbolTableRecord
100
AcDbLayerTableRecord
  2
INFTOTAL
 70
     0
 62
     9
  6
CONTINUOUS
370
    18
390
106AB96
  0
LAYER
  5
106ABE1
330
9
100
AcDbSymbolTableRecord
100
AcDbLayerTableRecord
  2
Defpoints
 70
     0
 62
     7
  6
CONTINUOUS
290
     0
370
    -3
390
106AB96
  0
ENDTAB
  0
TABLE
  2
STYLE
  5
27
330
0
100
AcDbSymbolTable
 70
     2
  0
STYLE
  5
28
330
27
100
AcDbSymbolTableRecord
100
AcDbTextStyleTableRecord
  2
Monospac821 BT
 70
     0
 40
3.5
 41
1.0
 50
0.0
 71
     0
 42
3.0
  3

  4

1001
ACAD
1000
Monospac821 BT
1071
      256
  0
STYLE
  5
106AB90
330
27
100
AcDbSymbolTableRecord
100
AcDbTextStyleTableRecord
  2
Standard
 70
     0
 40
0.0
 41
1.0
 50
0.0
 71
     0
 42
0.2
  3
txt
  4

  0
ENDTAB
  0
TABLE
  2
VIEW
  5
29
330
0
100
AcDbSymbolTable
 70
     0
  0
ENDTAB
  0
TABLE
  2
UCS
  5
2A
330
0
100
AcDbSymbolTable
 70
     0
  0
ENDTAB
  0
TABLE
  2
APPID
  5
2B
330
0
100
AcDbSymbolTable
 70
     5
  0
APPID
  5
2C
330
2B
100
AcDbSymbolTableRecord
100
AcDbRegAppTableRecord
  2
ACAD
 70
     0
  0
APPID
  5
106AC2B
330
2B
100
AcDbSymbolTableRecord
100
AcDbRegAppTableRecord
  2
ACAD_MLEADERVER
 70
     0
  0
APPID
  5
106AC89
330
2B
100
AcDbSymbolTableRecord
100
AcDbRegAppTableRecord
  2
FX_DIMP_FAV_VERSION
 70
     0
  0
APPID
  5
106ACEE
330
2B
100
AcDbSymbolTableRecord
100
AcDbRegAppTableRecord
  2
ACAD_DSTYLE_DIMFLIPARROW_SYMBOL
 70
     0
  0
APPID
  5
106ACEF
330
2B
100
AcDbSymbolTableRecord
100
AcDbRegAppTableRecord
  2
ACAD_DSTYLE_DIMFLIPARROW_WHICH_SYMBOL
 70
     0
  0
ENDTAB
  0
TABLE
  2
DIMSTYLE
  5
2D
330
0
100
AcDbSymbolTable
 70
     1
100
AcDbDimStyleTable
  0
DIMSTYLE
105
2E
102
{ACAD_REACTORS
330
106AC3B
330
106AC4E
330
106AC6A
330
106AC7A
330
106AC9F
330
106ACB2
330
106ACCE
330
106ACDE
102
}
330
2D
100
AcDbSymbolTableRecord
100
AcDbDimStyleTableRecord
  2
STANDARD
 70
     0
 41
3.0
 42
0.5
 44
1.0
 73
     0
 77
     1
 78
     1
140
3.5
141
2.5
143
0.03937007874
147
0.8
172
     1
174
     1
178
     0
179
     1
271
     2
279
     1
284
     1
340
28
  0
ENDTAB
  0
TABLE
  2
BLOCK_RECORD
  5
2F
330
0
100
AcDbSymbolTable
 70
    14
  0
BLOCK_RECORD
  5
30
102
{ACAD_XDICTIONARY
360
106ABE7
102
}
330
2F
100
AcDbSymbolTableRecord
100
AcDbBlockTableRecord
  2
*Model_Space
340
106AB98
  0
BLOCK_RECORD
  5
31
330
2F
100
AcDbSymbolTableRecord
100
AcDbBlockTableRecord
  2
*Paper_Space
340
106AB99
  0
BLOCK_RECORD
  5
392
330
2F
100
AcDbSymbolTableRecord
100
AcDbBlockTableRecord
  2
*D0
340
0
  0
BLOCK_RECORD
  5
3A0
330
2F
100
AcDbSymbolTableRecord
100
AcDbBlockTableRecord
  2
*D1
340
0
  0
BLOCK_RECORD
  5
3AE
330
2F
100
AcDbSymbolTableRecord
100
AcDbBlockTableRecord
  2
*D2
340
0
  0
BLOCK_RECORD
  5
3BC
330
2F
100
AcDbSymbolTableRecord
100
AcDbBlockTableRecord
  2
*D3
340
0
  0
BLOCK_RECORD
  5
3CA
330
2F
100
AcDbSymbolTableRecord
100
AcDbBlockTableRecord
  2
*D4
340
0
  0
BLOCK_RECORD
  5
3D8
330
2F
100
AcDbSymbolTableRecord
100
AcDbBlockTableRecord
  2
*D5
340
0
  0
BLOCK_RECORD
  5
106AC3C
330
2F
100
AcDbSymbolTableRecord
100
AcDbBlockTableRecord
  2
*D7
340
0
  0
BLOCK_RECORD
  5
106AC4F
330
2F
100
AcDbSymbolTableRecord
100
AcDbBlockTableRecord
  2
*D8
340
0
  0
BLOCK_RECORD
  5
106AC6B
330
2F
100
AcDbSymbolTableRecord
100
AcDbBlockTableRecord
  2
*D10
340
0
  0
BLOCK_RECORD
  5
106AC7B
330
2F
100
AcDbSymbolTableRecord
100
AcDbBlockTableRecord
  2
*D11
340
0
  0
BLOCK_RECORD
  5
106ACA0
330
2F
100
AcDbSymbolTableRecord
100
AcDbBlockTableRecord
  2
*D13
340
0
  0
BLOCK_RECORD
  5
106ACB3
330
2F
100
AcDbSymbolTableRecord
100
AcDbBlockTableRecord
  2
*D14
340
0
  0
BLOCK_RECORD
  5
106ACCF
330
2F
100
AcDbSymbolTableRecord
100
AcDbBlockTableRecord
  2
*D16
340
0
  0
BLOCK_RECORD
  5
106ACDF
330
2F
100
AcDbSymbolTableRecord
100
AcDbBlockTableRecord
  2
*D17
340
0
  0
ENDTAB
  0
ENDSEC
  0
SECTION
  2
BLOCKS
  0
BLOCK
  5
32
330
30
100
AcDbEntity
  8
0
100
AcDbBlockBegin
  2
*Model_Space
 70
     0
 10
0.0
 20
0.0
 30
0.0
  3
*Model_Space
  1

  0
ENDBLK
  5
33
330
30
100
AcDbEntity
  8
0
100
AcDbBlockEnd
  0
BLOCK
  5
34
330
31
100
AcDbEntity
 67
     1
  8
0
100
AcDbBlockBegin
  2
*Paper_Space
 70
     0
 10
0.0
 20
0.0
 30
0.0
  3
*Paper_Space
  1

  0
ENDBLK
  5
35
330
31
100
AcDbEntity
 67
     1
  8
0
100
AcDbBlockEnd
  0
BLOCK
  5
390
330
392
100
AcDbEntity
  8
SK2
100
AcDbBlockBegin
  2
*D0
 70
     1
 10
0.0
 20
0.0
 30
0.0
  3
*D0
  1

  0
LINE
  5
393
330
392
100
AcDbEntity
  8
SK2
 62
     0
370
    -2
100
AcDbLine
 10
46.953987871165
 20
-1.355
 30
0.0
 11
46.953987871165
 21
-41.0
 31
0.0
  0
LINE
  5
394
330
392
100
AcDbEntity
  8
SK2
 62
     0
370
    -2
100
AcDbLine
 10
1.953987871165
 20
-2.2905
 30
0.0
 11
1.953987871165001
 21
-41.0
 31
0.0
  0
LINE
  5
395
330
392
100
AcDbEntity
  8
SK2
 62
     0
370
    -2
100
AcDbLine
 10
43.953987871165
 20
-40.0
 30
0.0
 11
4.953987871165001
 21
-40.0
 31
0.0
  0
SOLID
  5
396
330
392
100
AcDbEntity
  8
SK2
 62
     0
100
AcDbTrace
 10
43.953987871165
 20
-40.5
 30
0.0
 11
43.953987871165
 21
-39.5
 31
0.0
 12
46.953987871165
 22
-40.0
 32
0.0
 13
46.953987871165
 23
-40.0
 33
0.0
  0
SOLID
  5
397
330
392
100
AcDbEntity
  8
SK2
 62
     0
100
AcDbTrace
 10
4.953987871165001
 20
-39.5
 30
0.0
 11
4.953987871165001
 21
-40.5
 31
0.0
 12
1.953987871165001
 22
-40.0
 32
0.0
 13
1.953987871165001
 23
-40.0
 33
0.0
  0
MTEXT
  5
398
330
392
100
AcDbEntity
  8
SK2
  6
ByBlock
 62
     0
100
AcDbMText
 10
24.453987871165
 20
-37.39925
 30
0.0
 40
3.5
 41
0.0
 71
     5
 72
     1
  1
\A1;45
 73
     1
 44
1.0
  0
POINT
  5
399
330
392
100
AcDbEntity
  8
Defpoints
 62
     0
100
AcDbPoint
 10
46.953987871165
 20
-0.855
 30
0.0
  0
POINT
  5
39A
330
392
100
AcDbEntity
  8
Defpoints
 62
     0
100
AcDbPoint
 10
1.953987871165
 20
-1.7905
 30
0.0
  0
POINT
  5
39B
330
392
100
AcDbEntity
  8
Defpoints
 62
     0
100
AcDbPoint
 10
1.953987871165
 20
-40.0
 30
0.0
  0
ENDBLK
  5
39C
330
392
100
AcDbEntity
  8
SK2
100
AcDbBlockEnd
  0
BLOCK
  5
39E
330
3A0
100
AcDbEntity
  8
SK2
100
AcDbBlockBegin
  2
*D1
 70
     1
 10
0.0
 20
0.0
 30
0.0
  3
*D1
  1

  0
LINE
  5
3A1
330
3A0
100
AcDbEntity
  8
SK2
 62
     0
370
    -2
100
AcDbLine
 10
14.304
 20
1.790500000000002
 30
0.0
 11
14.304
 21
26.29900000000001
 31
0.0
  0
LINE
  5
3A2
330
3A0
100
AcDbEntity
  8
SK2
 62
     0
370
    -2
100
AcDbLine
 10
14.304
 20
-1.790500000000002
 30
0.0
 11
14.304
 21
1.790500000000002
 31
0.0
  0
LINE
  5
3A3
330
3A0
100
AcDbEntity
  8
SK2
 62
     0
370
    -2
100
AcDbLine
 10
14.304
 20
-4.790500000000002
 30
0.0
 11
14.304
 21
-7.790500000000002
 31
0.0
  0
LINE
  5
3A4
330
3A0
100
AcDbEntity
  8
SK2
 62
     0
370
    -2
100
AcDbLine
 10
14.304
 20
4.790500000000002
 30
0.0
 11
14.304
 21
7.790500000000002
 31
0.0
  0
SOLID
  5
3A5
330
3A0
100
AcDbEntity
  8
SK2
 62
     0
100
AcDbTrace
 10
14.804
 20
-4.790500000000002
 30
0.0
 11
13.804
 21
-4.790500000000002
 31
0.0
 12
14.304
 22
-1.790500000000002
 32
0.0
 13
14.304
 23
-1.790500000000002
 33
0.0
  0
SOLID
  5
3A6
330
3A0
100
AcDbEntity
  8
SK2
 62
     0
100
AcDbTrace
 10
13.804
 20
4.790500000000002
 30
0.0
 11
14.804
 21
4.790500000000002
 31
0.0
 12
14.304
 22
1.790500000000002
 32
0.0
 13
14.304
 23
1.790500000000002
 33
0.0
  0
MTEXT
  5
3A7
330
3A0
100
AcDbEntity
  8
SK2
  6
ByBlock
 62
     0
100
AcDbMText
 10
11.642
 20
17.04475
 30
0.0
 40
3.5
 41
0.0
 71
     5
 72
     1
  1
\A1;%%c3.581
 11
0.0
 21
1.0
 31
0.0
 73
     1
 44
1.0
  0
POINT
  5
3A8
330
3A0
100
AcDbEntity
  8
Defpoints
 62
     0
100
AcDbPoint
 10
1.953987871164999
 20
-1.7905
 30
0.0
  0
POINT
  5
3A9
330
3A0
100
AcDbEntity
  8
Defpoints
 62
     0
100
AcDbPoint
 10
1.953987871164999
 20
1.7905
 30
0.0
  0
POINT
  5
106ABE2
330
3A0
100
AcDbEntity
  8
Defpoints
 62
     0
100
AcDbPoint
 10
14.304
 20
1.790500000000001
 30
0.0
  0
ENDBLK
  5
3AA
330
3A0
100
AcDbEntity
  8
SK2
100
AcDbBlockEnd
  0
BLOCK
  5
3AC
330
3AE
100
AcDbEntity
  8
SK2
100
AcDbBlockBegin
  2
*D2
 70
     1
 10
0.0
 20
0.0
 30
0.0
  3
*D2
  1

  0
LINE
  5
3AF
330
3AE
100
AcDbEntity
  8
SK2
 62
     0
370
    -2
100
AcDbLine
 10
6.753987871165
 20
-2.2905
 30
0.0
 11
6.753987871165
 21
-17.0
 31
0.0
  0
LINE
  5
3B0
330
3AE
100
AcDbEntity
  8
SK2
 62
     0
370
    -2
100
AcDbLine
 10
1.953987871165
 20
-2.2905
 30
0.0
 11
1.953987871164999
 21
-17.0
 31
0.0
  0
LINE
  5
3B1
330
3AE
100
AcDbEntity
  8
SK2
 62
     0
370
    -2
100
AcDbLine
 10
1.953987871164999
 20
-16.0
 30
0.0
 11
-14.172012128835
 21
-16.0
 31
0.0
  0
LINE
  5
3B2
330
3AE
100
AcDbEntity
  8
SK2
 62
     0
370
    -2
100
AcDbLine
 10
6.753987871165
 20
-16.0
 30
0.0
 11
1.953987871164999
 21
-16.0
 31
0.0
  0
LINE
  5
3B3
330
3AE
100
AcDbEntity
  8
SK2
 62
     0
370
    -2
100
AcDbLine
 10
9.753987871165
 20
-16.0
 30
0.0
 11
12.753987871165
 21
-16.0
 31
0.0
  0
LINE
  5
3B4
330
3AE
100
AcDbEntity
  8
SK2
 62
     0
370
    -2
100
AcDbLine
 10
-1.046012128835001
 20
-16.0
 30
0.0
 11
-4.046012128835001
 21
-16.0
 31
0.0
  0
SOLID
  5
3B5
330
3AE
100
AcDbEntity
  8
SK2
 62
     0
100
AcDbTrace
 10
9.753987871165
 20
-15.5
 30
0.0
 11
9.753987871165
 21
-16.5
 31
0.0
 12
6.753987871165
 22
-16.0
 32
0.0
 13
6.753987871165
 23
-16.0
 33
0.0
  0
SOLID
  5
3B6
330
3AE
100
AcDbEntity
  8
SK2
 62
     0
100
AcDbTrace
 10
-1.046012128835001
 20
-16.5
 30
0.0
 11
-1.046012128835001
 21
-15.5
 31
0.0
 12
1.953987871164999
 22
-16.0
 32
0.0
 13
1.953987871164999
 23
-16.0
 33
0.0
  0
MTEXT
  5
3B7
330
3AE
100
AcDbEntity
  8
SK2
  6
ByBlock
 62
     0
100
AcDbMText
 10
-9.109012128835001
 20
-13.38875
 30
0.0
 40
3.5
 41
0.0
 71
     5
 72
     1
  1
\A1;4.8
 73
     1
 44
1.0
  0
POINT
  5
106ABE4
330
3AE
100
AcDbEntity
  8
Defpoints
 62
     0
100
AcDbPoint
 10
6.753987871165
 20
-1.7905
 30
0.0
  0
POINT
  5
106ABE5
330
3AE
100
AcDbEntity
  8
Defpoints
 62
     0
100
AcDbPoint
 10
1.953987871165
 20
-1.7905
 30
0.0
  0
POINT
  5
106AC87
330
3AE
100
AcDbEntity
  8
Defpoints
 62
     0
100
AcDbPoint
 10
1.953987871165
 20
-16.0
 30
0.0
  0
ENDBLK
  5
3B8
330
3AE
100
AcDbEntity
  8
SK2
100
AcDbBlockEnd
  0
BLOCK
  5
3BA
330
3BC
100
AcDbEntity
  8
2
100
AcDbBlockBegin
  2
*D3
 70
     1
 10
0.0
 20
0.0
 30
0.0
  3
*D3
  1

  0
LINE
  5
3BD
330
3BC
100
AcDbEntity
  8
2
 62
     0
370
    -2
100
AcDbLine
 10
46.953987871165
 20
-1.355
 30
0.0
 11
46.953987871165
 21
-25.0
 31
0.0
  0
LINE
  5
3BE
330
3BC
100
AcDbEntity
  8
2
 62
     0
370
    -2
100
AcDbLine
 10
35.853987871165
 20
-1.6
 30
0.0
 11
35.853987871165
 21
-25.0
 31
0.0
  0
LINE
  5
3BF
330
3BC
100
AcDbEntity
  8
2
 62
     0
370
    -2
100
AcDbLine
 10
46.953987871165
 20
-24.0
 30
0.0
 11
63.9835
 21
-24.0
 31
0.0
  0
LINE
  5
3C0
330
3BC
100
AcDbEntity
  8
2
 62
     0
370
    -2
100
AcDbLine
 10
46.953987871165
 20
-24.0
 30
0.0
 11
35.853987871165
 21
-24.0
 31
0.0
  0
LINE
  5
3C1
330
3BC
100
AcDbEntity
  8
2
 62
     0
370
    -2
100
AcDbLine
 10
49.953987871165
 20
-24.0
 30
0.0
 11
52.953987871165
 21
-24.0
 31
0.0
  0
LINE
  5
3C2
330
3BC
100
AcDbEntity
  8
2
 62
     0
370
    -2
100
AcDbLine
 10
32.853987871165
 20
-24.0
 30
0.0
 11
29.853987871165
 21
-24.0
 31
0.0
  0
SOLID
  5
3C3
330
3BC
100
AcDbEntity
  8
2
 62
     0
100
AcDbTrace
 10
49.953987871165
 20
-23.5
 30
0.0
 11
49.953987871165
 21
-24.5
 31
0.0
 12
46.953987871165
 22
-24.0
 32
0.0
 13
46.953987871165
 23
-24.0
 33
0.0
  0
SOLID
  5
3C4
330
3BC
100
AcDbEntity
  8
2
 62
     0
100
AcDbTrace
 10
32.853987871165
 20
-24.5
 30
0.0
 11
32.853987871165
 21
-23.5
 31
0.0
 12
35.853987871165
 22
-24.0
 32
0.0
 13
35.853987871165
 23
-24.0
 33
0.0
  0
MTEXT
  5
3C5
330
3BC
100
AcDbEntity
  8
2
  6
ByBlock
 62
     0
100
AcDbMText
 10
58.0
 20
-21.4395
 30
0.0
 40
3.5
 41
0.0
 71
     5
 72
     1
  1
\A1;11.1
 73
     1
 44
1.0
  0
POINT
  5
106AC8D
330
3BC
100
AcDbEntity
  8
Defpoints
 62
     0
100
AcDbPoint
 10
46.953987871165
 20
-0.855
 30
0.0
  0
POINT
  5
106AC8E
330
3BC
100
AcDbEntity
  8
Defpoints
 62
     0
100
AcDbPoint
 10
35.853987871165
 20
-1.1
 30
0.0
  0
POINT
  5
106AC8F
330
3BC
100
AcDbEntity
  8
Defpoints
 62
     0
100
AcDbPoint
 10
35.853987871165
 20
-24.0
 30
0.0
  0
ENDBLK
  5
3C6
330
3BC
100
AcDbEntity
  8
2
100
AcDbBlockEnd
  0
BLOCK
  5
3C8
330
3CA
100
AcDbEntity
  8
2
100
AcDbBlockBegin
  2
*D4
 70
     1
 10
0.0
 20
0.0
 30
0.0
  3
*D4
  1

  0
LINE
  5
3CB
330
3CA
100
AcDbEntity
  8
2
 62
     0
370
    -2
100
AcDbLine
 10
46.953987871165
 20
-1.355
 30
0.0
 11
46.953987871165
 21
-33.0
 31
0.0
  0
LINE
  5
3CC
330
3CA
100
AcDbEntity
  8
2
 62
     0
370
    -2
100
AcDbLine
 10
34.853987871165
 20
-1.6
 30
0.0
 11
34.853987871165
 21
-33.0
 31
0.0
  0
LINE
  5
3CD
330
3CA
100
AcDbEntity
  8
2
 62
     0
370
    -2
100
AcDbLine
 10
34.853987871165
 20
-32.0
 30
0.0
 11
19.886987871165
 21
-32.0
 31
0.0
  0
LINE
  5
3CE
330
3CA
100
AcDbEntity
  8
2
 62
     0
370
    -2
100
AcDbLine
 10
46.953987871165
 20
-32.0
 30
0.0
 11
34.853987871165
 21
-32.0
 31
0.0
  0
LINE
  5
3CF
330
3CA
100
AcDbEntity
  8
2
 62
     0
370
    -2
100
AcDbLine
 10
49.953987871165
 20
-32.0
 30
0.0
 11
52.953987871165
 21
-32.0
 31
0.0
  0
LINE
  5
3D0
330
3CA
100
AcDbEntity
  8
2
 62
     0
370
    -2
100
AcDbLine
 10
31.853987871165
 20
-32.0
 30
0.0
 11
28.853987871165
 21
-32.0
 31
0.0
  0
SOLID
  5
3D1
330
3CA
100
AcDbEntity
  8
2
 62
     0
100
AcDbTrace
 10
49.953987871165
 20
-31.5
 30
0.0
 11
49.953987871165
 21
-32.5
 31
0.0
 12
46.953987871165
 22
-32.0
 32
0.0
 13
46.953987871165
 23
-32.0
 33
0.0
  0
SOLID
  5
3D2
330
3CA
100
AcDbEntity
  8
2
 62
     0
100
AcDbTrace
 10
31.853987871165
 20
-32.5
 30
0.0
 11
31.853987871165
 21
-31.5
 31
0.0
 12
34.853987871165
 22
-32.0
 32
0.0
 13
34.853987871165
 23
-32.0
 33
0.0
  0
MTEXT
  5
3D3
330
3CA
100
AcDbEntity
  8
2
  6
ByBlock
 62
     0
100
AcDbMText
 10
25.870487871165
 20
-29.4395
 30
0.0
 40
3.5
 41
0.0
 71
     5
 72
     1
  1
\A1;12.1
 73
     1
 44
1.0
  0
POINT
  5
106AC8A
330
3CA
100
AcDbEntity
  8
Defpoints
 62
     0
100
AcDbPoint
 10
46.953987871165
 20
-0.855
 30
0.0
  0
POINT
  5
106AC8B
330
3CA
100
AcDbEntity
  8
Defpoints
 62
     0
100
AcDbPoint
 10
34.853987871165
 20
-1.1
 30
0.0
  0
POINT
  5
106AC8C
330
3CA
100
AcDbEntity
  8
Defpoints
 62
     0
100
AcDbPoint
 10
34.853987871165
 20
-32.0
 30
0.0
  0
ENDBLK
  5
3D4
330
3CA
100
AcDbEntity
  8
2
100
AcDbBlockEnd
  0
BLOCK
  5
3D6
330
3D8
100
AcDbEntity
  8
2
100
AcDbBlockBegin
  2
*D5
 70
     1
 10
0.0
 20
0.0
 30
0.0
  3
*D5
  1

  0
LINE
  5
3D9
330
3D8
100
AcDbEntity
  8
2
 62
     0
370
    -2
100
AcDbLine
 10
47.887056639579
 20
0.5
 30
0.0
 11
47.887056639579
 21
36.0
 31
0.0
  0
LINE
  5
3DA
330
3D8
100
AcDbEntity
  8
2
 62
     0
370
    -2
100
AcDbLine
 10
21.187056639579
 20
2.2905
 30
0.0
 11
21.187056639579
 21
36.0
 31
0.0
  0
LINE
  5
3DB
330
3D8
100
AcDbEntity
  8
2
 62
     0
370
    -2
100
AcDbLine
 10
44.887056639579
 20
35.0
 30
0.0
 11
24.187056639579
 21
35.0
 31
0.0
  0
SOLID
  5
3DC
330
3D8
100
AcDbEntity
  8
2
 62
     0
100
AcDbTrace
 10
44.887056639579
 20
34.5
 30
0.0
 11
44.887056639579
 21
35.5
 31
0.0
 12
47.887056639579
 22
35.0
 32
0.0
 13
47.887056639579
 23
35.0
 33
0.0
  0
SOLID
  5
3DD
330
3D8
100
AcDbEntity
  8
2
 62
     0
100
AcDbTrace
 10
24.187056639579
 20
35.5
 30
0.0
 11
24.187056639579
 21
34.5
 31
0.0
 12
21.187056639579
 22
35.0
 32
0.0
 13
21.187056639579
 23
35.0
 33
0.0
  0
MTEXT
  5
3DE
330
3D8
100
AcDbEntity
  8
2
  6
ByBlock
 62
     0
100
AcDbMText
 10
34.537056639579
 20
37.61125
 30
0.0
 40
3.5
 41
0.0
 71
     5
 72
     1
  1
\A1;26.7
 73
     1
 44
1.0
  0
POINT
  5
3DF
330
3D8
100
AcDbEntity
  8
Defpoints
 62
     0
100
AcDbPoint
 10
47.887056639579
 20
0.0
 30
0.0
  0
POINT
  5
3E0
330
3D8
100
AcDbEntity
  8
Defpoints
 62
     0
100
AcDbPoint
 10
21.187056639579
 20
1.7905
 30
0.0
  0
POINT
  5
3E1
330
3D8
100
AcDbEntity
  8
Defpoints
 62
     0
100
AcDbPoint
 10
21.187056639579
 20
35.0
 30
0.0
  0
ENDBLK
  5
3E2
330
3D8
100
AcDbEntity
  8
2
100
AcDbBlockEnd
  0
BLOCK
  5
106AC3D
330
106AC3C
100
AcDbEntity
  8
SK2
100
AcDbBlockBegin
  2
*D7
 70
     1
 10
0.0
 20
0.0
 30
0.0
  3
*D7
  1

  0
LINE
  5
106AC3E
330
106AC3C
100
AcDbEntity
  8
SK2
 62
     0
370
    -2
100
AcDbLine
 10
3.081749999999996
 20
6.0
 30
0.0
 11
5.581749999999996
 21
6.0
 31
0.0
  0
LINE
  5
106AC3F
330
106AC3C
100
AcDbEntity
  8
SK2
 62
     0
370
    -2
100
AcDbLine
 10
3.081749999999996
 20
9.581
 30
0.0
 11
5.581749999999996
 21
9.581
 31
0.0
  0
LINE
  5
106AC40
330
106AC3C
100
AcDbEntity
  8
SK2
 62
     0
370
    -2
100
AcDbLine
 10
4.581749999999996
 20
9.581
 30
0.0
 11
4.581749999999996
 21
34.0895
 31
0.0
  0
LINE
  5
106AC41
330
106AC3C
100
AcDbEntity
  8
SK2
 62
     0
370
    -2
100
AcDbLine
 10
4.581749999999996
 20
6.0
 30
0.0
 11
4.581749999999996
 21
9.581
 31
0.0
  0
LINE
  5
106AC42
330
106AC3C
100
AcDbEntity
  8
SK2
 62
     0
370
    -2
100
AcDbLine
 10
4.581749999999996
 20
3.0
 30
0.0
 11
4.581749999999996
 21
0.0
 31
0.0
  0
LINE
  5
106AC43
330
106AC3C
100
AcDbEntity
  8
SK2
 62
     0
370
    -2
100
AcDbLine
 10
4.581749999999996
 20
12.581
 30
0.0
 11
4.581749999999996
 21
15.581
 31
0.0
  0
SOLID
  5
106AC44
330
106AC3C
100
AcDbEntity
  8
SK2
 62
     0
100
AcDbTrace
 10
5.081749999999996
 20
3.0
 30
0.0
 11
4.081749999999996
 21
3.0
 31
0.0
 12
4.581749999999996
 22
6.0
 32
0.0
 13
4.581749999999996
 23
6.0
 33
0.0
  0
SOLID
  5
106AC45
330
106AC3C
100
AcDbEntity
  8
SK2
 62
     0
100
AcDbTrace
 10
4.081749999999996
 20
12.581
 30
0.0
 11
5.081749999999996
 21
12.581
 31
0.0
 12
4.581749999999996
 22
9.581
 32
0.0
 13
4.581749999999996
 23
9.581
 33
0.0
  0
MTEXT
  5
106AC46
330
106AC3C
100
AcDbEntity
  8
SK2
  6
ByBlock
 62
     0
100
AcDbMText
 10
1.919749999999998
 20
24.83525
 30
0.0
 40
3.5
 41
0.0
 71
     5
 72
     1
  1
\A1;%%c3.581
 11
0.0
 21
1.0
 31
0.0
 73
     1
 44
1.0
  0
POINT
  5
106AC47
330
106AC3C
100
AcDbEntity
  8
Defpoints
 62
     0
100
AcDbPoint
 10
2.581749999999996
 20
6.0
 30
0.0
  0
POINT
  5
106AC48
330
106AC3C
100
AcDbEntity
  8
Defpoints
 62
     0
100
AcDbPoint
 10
2.581749999999996
 20
9.581
 30
0.0
  0
POINT
  5
106AC49
330
106AC3C
100
AcDbEntity
  8
Defpoints
 62
     0
100
AcDbPoint
 10
4.581749999999996
 20
9.581
 30
0.0
  0
ENDBLK
  5
106AC4A
330
106AC3C
100
AcDbEntity
  8
SK2
100
AcDbBlockEnd
  0
BLOCK
  5
106AC50
330
106AC4F
100
AcDbEntity
  8
0
100
AcDbBlockBegin
  2
*D8
 70
     1
 10
0.0
 20
0.0
 30
0.0
  3
*D8
  1

  0
LINE
  5
106AC52
330
106AC4F
100
AcDbEntity
  8
2
 62
     0
370
    -2
100
AcDbLine
 10
47.453987871165
 20
-0.855
 30
0.0
 11
76.0
 21
-0.8549999999999986
 31
0.0
  0
LINE
  5
106AC53
330
106AC4F
100
AcDbEntity
  8
2
 62
     0
370
    -2
100
AcDbLine
 10
47.453987871165
 20
0.855
 30
0.0
 11
76.0
 21
0.8550000000000023
 31
0.0
  0
LINE
  5
106AC54
330
106AC4F
100
AcDbEntity
  8
2
 62
     0
370
    -2
100
AcDbLine
 10
75.0
 20
0.8550000000000022
 30
0.0
 11
75.0
 21
22.33249999999999
 31
0.0
  0
LINE
  5
106AC55
330
106AC4F
100
AcDbEntity
  8
2
 62
     0
370
    -2
100
AcDbLine
 10
75.0
 20
-0.8549999999999986
 30
0.0
 11
75.0
 21
0.8550000000000022
 31
0.0
  0
LINE
  5
106AC56
330
106AC4F
100
AcDbEntity
  8
2
 62
     0
370
    -2
100
AcDbLine
 10
75.0
 20
-3.854999999999998
 30
0.0
 11
75.0
 21
-6.854999999999998
 31
0.0
  0
LINE
  5
106AC57
330
106AC4F
100
AcDbEntity
  8
2
 62
     0
370
    -2
100
AcDbLine
 10
75.0
 20
3.855000000000002
 30
0.0
 11
75.0
 21
6.855000000000001
 31
0.0
  0
SOLID
  5
106AC58
330
106AC4F
100
AcDbEntity
  8
2
 62
     0
100
AcDbTrace
 10
75.5
 20
-3.854999999999998
 30
0.0
 11
74.5
 21
-3.854999999999998
 31
0.0
 12
75.0
 22
-0.8549999999999986
 32
0.0
 13
75.0
 23
-0.8549999999999986
 33
0.0
  0
SOLID
  5
106AC59
330
106AC4F
100
AcDbEntity
  8
2
 62
     0
100
AcDbTrace
 10
74.5
 20
3.855000000000002
 30
0.0
 11
75.5
 21
3.855000000000002
 31
0.0
 12
75.0
 22
0.8550000000000022
 32
0.0
 13
75.0
 23
0.8550000000000022
 33
0.0
  0
MTEXT
  5
106AC5A
330
106AC4F
100
AcDbEntity
  8
2
  6
ByBlock
 62
     0
100
AcDbMText
 10
72.338
 20
14.59375
 30
0.0
 40
3.5
 41
0.0
 71
     5
 72
     1
  1
\A1;%%c1.71
 11
0.0
 21
1.0
 31
0.0
 73
     1
 44
1.0
  0
POINT
  5
106AC5B
330
106AC4F
100
AcDbEntity
  8
Defpoints
 62
     0
100
AcDbPoint
 10
46.953987871165
 20
-0.855
 30
0.0
  0
POINT
  5
106AC5C
330
106AC4F
100
AcDbEntity
  8
Defpoints
 62
     0
100
AcDbPoint
 10
46.953987871165
 20
0.855
 30
0.0
  0
POINT
  5
106AC5D
330
106AC4F
100
AcDbEntity
  8
Defpoints
 62
     0
100
AcDbPoint
 10
75.0
 20
0.8550000000000016
 30
0.0
  0
ENDBLK
  5
106AC51
330
106AC4F
100
AcDbEntity
  8
0
100
AcDbBlockEnd
  0
BLOCK
  5
106AC6C
330
106AC6B
100
AcDbEntity
  8
2
100
AcDbBlockBegin
  2
*D10
 70
     1
 10
0.0
 20
0.0
 30
0.0
  3
*D10
  1

  0
LINE
  5
106AC6D
330
106AC6B
100
AcDbEntity
  8
2
 62
     0
370
    -2
100
AcDbLine
 10
11.09999999999999
 20
13.4355
 30
0.0
 11
11.09999999999999
 21
0.0
 31
0.0
  0
LINE
  5
106AC6E
330
106AC6B
100
AcDbEntity
  8
2
 62
     0
370
    -2
100
AcDbLine
 10
0.0
 20
13.1905
 30
0.0
 11
0.0
 21
0.0
 31
0.0
  0
LINE
  5
106AC6F
330
106AC6B
100
AcDbEntity
  8
2
 62
     0
370
    -2
100
AcDbLine
 10
8.099999999999994
 20
1.0
 30
0.0
 11
3.0
 21
1.0
 31
0.0
  0
SOLID
  5
106AC70
330
106AC6B
100
AcDbEntity
  8
2
 62
     0
100
AcDbTrace
 10
8.099999999999994
 20
0.5
 30
0.0
 11
8.099999999999994
 21
1.5
 31
0.0
 12
11.09999999999999
 22
1.0
 32
0.0
 13
11.09999999999999
 23
1.0
 33
0.0
  0
SOLID
  5
106AC71
330
106AC6B
100
AcDbEntity
  8
2
 62
     0
100
AcDbTrace
 10
3.0
 20
1.5
 30
0.0
 11
3.0
 21
0.5
 31
0.0
 12
0.0
 22
1.0
 32
0.0
 13
0.0
 23
1.0
 33
0.0
  0
MTEXT
  5
106AC72
330
106AC6B
100
AcDbEntity
  8
2
  6
ByBlock
 62
     0
100
AcDbMText
 10
5.549999999999997
 20
3.5605
 30
0.0
 40
3.5
 41
0.0
 71
     5
 72
     1
  1
\A1;11.1
 73
     1
 44
1.0
  0
POINT
  5
106AC73
330
106AC6B
100
AcDbEntity
  8
Defpoints
 62
     0
100
AcDbPoint
 10
11.09999999999999
 20
13.9355
 30
0.0
  0
POINT
  5
106AC74
330
106AC6B
100
AcDbEntity
  8
Defpoints
 62
     0
100
AcDbPoint
 10
0.0
 20
13.6905
 30
0.0
  0
POINT
  5
106AC75
330
106AC6B
100
AcDbEntity
  8
Defpoints
 62
     0
100
AcDbPoint
 10
0.0
 20
1.0
 30
0.0
  0
ENDBLK
  5
106AC76
330
106AC6B
100
AcDbEntity
  8
2
100
AcDbBlockEnd
  0
BLOCK
  5
106AC7C
330
106AC7B
100
AcDbEntity
  8
0
100
AcDbBlockBegin
  2
*D11
 70
     1
 10
0.0
 20
0.0
 30
0.0
  3
*D11
  1

  0
LINE
  5
106AC7E
330
106AC7B
100
AcDbEntity
  8
2
 62
     0
370
    -2
100
AcDbLine
 10
46.953987871165
 20
-1.355
 30
0.0
 11
46.953987871165
 21
-17.0
 31
0.0
  0
LINE
  5
106AC7F
330
106AC7B
100
AcDbEntity
  8
2
 62
     0
370
    -2
100
AcDbLine
 10
45.153987871165
 20
-1.6
 30
0.0
 11
45.153987871165
 21
-17.0
 31
0.0
  0
LINE
  5
106AC80
330
106AC7B
100
AcDbEntity
  8
2
 62
     0
370
    -2
100
AcDbLine
 10
46.953987871165
 20
-16.0
 30
0.0
 11
62.8845
 21
-16.0
 31
0.0
  0
LINE
  5
106AC81
330
106AC7B
100
AcDbEntity
  8
2
 62
     0
370
    -2
100
AcDbLine
 10
46.953987871165
 20
-16.0
 30
0.0
 11
45.153987871165
 21
-16.0
 31
0.0
  0
LINE
  5
106AC82
330
106AC7B
100
AcDbEntity
  8
2
 62
     0
370
    -2
100
AcDbLine
 10
49.953987871165
 20
-16.0
 30
0.0
 11
52.953987871165
 21
-16.0
 31
0.0
  0
LINE
  5
106AC83
330
106AC7B
100
AcDbEntity
  8
2
 62
     0
370
    -2
100
AcDbLine
 10
42.153987871165
 20
-16.0
 30
0.0
 11
39.153987871165
 21
-16.0
 31
0.0
  0
SOLID
  5
106AC84
330
106AC7B
100
AcDbEntity
  8
2
 62
     0
100
AcDbTrace
 10
49.953987871165
 20
-15.5
 30
0.0
 11
49.953987871165
 21
-16.5
 31
0.0
 12
46.953987871165
 22
-16.0
 32
0.0
 13
46.953987871165
 23
-16.0
 33
0.0
  0
SOLID
  5
106AC85
330
106AC7B
100
AcDbEntity
  8
2
 62
     0
100
AcDbTrace
 10
42.153987871165
 20
-16.5
 30
0.0
 11
42.153987871165
 21
-15.5
 31
0.0
 12
45.153987871165
 22
-16.0
 32
0.0
 13
45.153987871165
 23
-16.0
 33
0.0
  0
MTEXT
  5
106AC86
330
106AC7B
100
AcDbEntity
  8
2
  6
ByBlock
 62
     0
100
AcDbMText
 10
58.0
 20
-13.38875
 30
0.0
 40
3.5
 41
0.0
 71
     5
 72
     1
  1
\A1;1.8
 73
     1
 44
1.0
  0
POINT
  5
106AC90
330
106AC7B
100
AcDbEntity
  8
Defpoints
 62
     0
100
AcDbPoint
 10
46.953987871165
 20
-0.855
 30
0.0
  0
POINT
  5
106AC91
330
106AC7B
100
AcDbEntity
  8
Defpoints
 62
     0
100
AcDbPoint
 10
45.153987871165
 20
-1.1
 30
0.0
  0
POINT
  5
106AC92
330
106AC7B
100
AcDbEntity
  8
Defpoints
 62
     0
100
AcDbPoint
 10
45.153987871165
 20
-16.0
 30
0.0
  0
ENDBLK
  5
106AC7D
330
106AC7B
100
AcDbEntity
  8
0
100
AcDbBlockEnd
  0
BLOCK
  5
106ACA1
330
106ACA0
100
AcDbEntity
  8
0
100
AcDbBlockBegin
  2
*D13
 70
     1
 10
0.0
 20
0.0
 30
0.0
  3
*D13
  1

  0
LINE
  5
106ACA2
330
106ACA0
100
AcDbEntity
  8
SK2
 62
     0
370
    -2
100
AcDbLine
 10
0.5
 20
5.999999999999998
 30
0.0
 11
29.046012128835
 21
6.0
 31
0.0
  0
LINE
  5
106ACA3
330
106ACA0
100
AcDbEntity
  8
SK2
 62
     0
370
    -2
100
AcDbLine
 10
0.5
 20
7.709999999999997
 30
0.0
 11
29.046012128835
 21
7.709999999999999
 31
0.0
  0
LINE
  5
106ACA4
330
106ACA0
100
AcDbEntity
  8
SK2
 62
     0
370
    -2
100
AcDbLine
 10
28.046012128835
 20
7.709999999999999
 30
0.0
 11
28.046012128835
 21
29.18749999999999
 31
0.0
  0
LINE
  5
106ACA5
330
106ACA0
100
AcDbEntity
  8
SK2
 62
     0
370
    -2
100
AcDbLine
 10
28.046012128835
 20
6.0
 30
0.0
 11
28.046012128835
 21
7.709999999999999
 31
0.0
  0
LINE
  5
106ACA6
330
106ACA0
100
AcDbEntity
  8
SK2
 62
     0
370
    -2
100
AcDbLine
 10
28.046012128835
 20
3.0
 30
0.0
 11
28.046012128835
 21
0.0
 31
0.0
  0
LINE
  5
106ACA7
330
106ACA0
100
AcDbEntity
  8
SK2
 62
     0
370
    -2
100
AcDbLine
 10
28.046012128835
 20
10.71
 30
0.0
 11
28.046012128835
 21
13.71
 31
0.0
  0
SOLID
  5
106ACA8
330
106ACA0
100
AcDbEntity
  8
SK2
 62
     0
100
AcDbTrace
 10
28.546012128835
 20
3.0
 30
0.0
 11
27.546012128835
 21
3.0
 31
0.0
 12
28.046012128835
 22
6.0
 32
0.0
 13
28.046012128835
 23
6.0
 33
0.0
  0
SOLID
  5
106ACA9
330
106ACA0
100
AcDbEntity
  8
SK2
 62
     0
100
AcDbTrace
 10
27.546012128835
 20
10.71
 30
0.0
 11
28.546012128835
 21
10.71
 31
0.0
 12
28.046012128835
 22
7.709999999999999
 32
0.0
 13
28.046012128835
 23
7.709999999999999
 33
0.0
  0
MTEXT
  5
106ACAA
330
106ACA0
100
AcDbEntity
  8
SK2
  6
ByBlock
 62
     0
100
AcDbMText
 10
25.384012128835
 20
21.44875
 30
0.0
 40
3.5
 41
0.0
 71
     5
 72
     1
  1
\A1;%%c1.71
 11
0.0
 21
1.0
 31
0.0
 73
     1
 44
1.0
  0
POINT
  5
106ACAB
330
106ACA0
100
AcDbEntity
  8
Defpoints
 62
     0
100
AcDbPoint
 10
0.0
 20
5.999999999999998
 30
0.0
  0
POINT
  5
106ACAC
330
106ACA0
100
AcDbEntity
  8
Defpoints
 62
     0
100
AcDbPoint
 10
0.0
 20
7.709999999999997
 30
0.0
  0
POINT
  5
106ACAD
330
106ACA0
100
AcDbEntity
  8
Defpoints
 62
     0
100
AcDbPoint
 10
28.046012128835
 20
7.709999999999999
 30
0.0
  0
ENDBLK
  5
106ACAE
330
106ACA0
100
AcDbEntity
  8
0
100
AcDbBlockEnd
  0
BLOCK
  5
106ACB4
330
106ACB3
100
AcDbEntity
  8
0
100
AcDbBlockBegin
  2
*D14
 70
     1
 10
0.0
 20
0.0
 30
0.0
  3
*D14
  1

  0
LINE
  5
106ACB6
330
106ACB3
100
AcDbEntity
  8
2
 62
     0
370
    -2
100
AcDbLine
 10
45.653987871165
 20
-1.1
 30
0.0
 11
84.0
 21
-1.099999999999998
 31
0.0
  0
LINE
  5
106ACB7
330
106ACB3
100
AcDbEntity
  8
2
 62
     0
370
    -2
100
AcDbLine
 10
45.653987871165
 20
1.1
 30
0.0
 11
84.0
 21
1.100000000000005
 31
0.0
  0
LINE
  5
106ACB8
330
106ACB3
100
AcDbEntity
  8
2
 62
     0
370
    -2
100
AcDbLine
 10
83.0
 20
1.100000000000005
 30
0.0
 11
83.0
 21
35.39800000000001
 31
0.0
  0
LINE
  5
106ACB9
330
106ACB3
100
AcDbEntity
  8
2
 62
     0
370
    -2
100
AcDbLine
 10
83.0
 20
-1.099999999999998
 30
0.0
 11
83.0
 21
1.100000000000005
 31
0.0
  0
LINE
  5
106ACBA
330
106ACB3
100
AcDbEntity
  8
2
 62
     0
370
    -2
100
AcDbLine
 10
83.0
 20
-4.099999999999998
 30
0.0
 11
83.0
 21
-7.099999999999998
 31
0.0
  0
LINE
  5
106ACBB
330
106ACB3
100
AcDbEntity
  8
2
 62
     0
370
    -2
100
AcDbLine
 10
83.0
 20
4.100000000000005
 30
0.0
 11
83.0
 21
7.100000000000005
 31
0.0
  0
SOLID
  5
106ACBC
330
106ACB3
100
AcDbEntity
  8
2
 62
     0
100
AcDbTrace
 10
83.5
 20
-4.099999999999998
 30
0.0
 11
82.5
 21
-4.099999999999998
 31
0.0
 12
83.0
 22
-1.099999999999998
 32
0.0
 13
83.0
 23
-1.099999999999998
 33
0.0
  0
SOLID
  5
106ACBD
330
106ACB3
100
AcDbEntity
  8
2
 62
     0
100
AcDbTrace
 10
82.5
 20
4.100000000000005
 30
0.0
 11
83.5
 21
4.100000000000005
 31
0.0
 12
83.0
 22
1.100000000000005
 32
0.0
 13
83.0
 23
1.100000000000005
 33
0.0
  0
MTEXT
  5
106ACBE
330
106ACB3
100
AcDbEntity
  8
2
  6
ByBlock
 62
     0
100
AcDbMText
 10
80.38875
 20
21.24900000000001
 30
0.0
 40
3.5
 41
0.0
 71
     5
 72
     1
  1
\A1;M2.2X0.45
 11
0.0
 21
1.0
 31
0.0
 73
     1
 44
1.0
  0
POINT
  5
106ACBF
330
106ACB3
100
AcDbEntity
  8
Defpoints
 62
     0
100
AcDbPoint
 10
45.153987871165
 20
-1.1
 30
0.0
  0
POINT
  5
106ACC0
330
106ACB3
100
AcDbEntity
  8
Defpoints
 62
     0
100
AcDbPoint
 10
45.153987871165
 20
1.1
 30
0.0
  0
POINT
  5
106ACC1
330
106ACB3
100
AcDbEntity
  8
Defpoints
 62
     0
100
AcDbPoint
 10
83.0
 20
1.100000000000002
 30
0.0
  0
ENDBLK
  5
106ACB5
330
106ACB3
100
AcDbEntity
  8
0
100
AcDbBlockEnd
  0
BLOCK
  5
106ACD0
330
106ACCF
100
AcDbEntity
  8
2
100
AcDbBlockBegin
  2
*D16
 70
     1
 10
0.0
 20
0.0
 30
0.0
  3
*D16
  1

  0
LINE
  5
106ACD1
330
106ACCF
100
AcDbEntity
  8
2
 62
     0
370
    -2
100
AcDbLine
 10
26.7
 20
0.5
 30
0.0
 11
26.7
 21
36.0
 31
0.0
  0
LINE
  5
106ACD2
330
106ACCF
100
AcDbEntity
  8
2
 62
     0
370
    -2
100
AcDbLine
 10
0.0
 20
2.2905
 30
0.0
 11
0.0
 21
36.0
 31
0.0
  0
LINE
  5
106ACD3
330
106ACCF
100
AcDbEntity
  8
2
 62
     0
370
    -2
100
AcDbLine
 10
23.7
 20
35.0
 30
0.0
 11
3.0
 21
35.0
 31
0.0
  0
SOLID
  5
106ACD4
330
106ACCF
100
AcDbEntity
  8
2
 62
     0
100
AcDbTrace
 10
23.7
 20
34.5
 30
0.0
 11
23.7
 21
35.5
 31
0.0
 12
26.7
 22
35.0
 32
0.0
 13
26.7
 23
35.0
 33
0.0
  0
SOLID
  5
106ACD5
330
106ACCF
100
AcDbEntity
  8
2
 62
     0
100
AcDbTrace
 10
3.0
 20
35.5
 30
0.0
 11
3.0
 21
34.5
 31
0.0
 12
0.0
 22
35.0
 32
0.0
 13
0.0
 23
35.0
 33
0.0
  0
MTEXT
  5
106ACD6
330
106ACCF
100
AcDbEntity
  8
2
  6
ByBlock
 62
     0
100
AcDbMText
 10
13.35
 20
37.61125
 30
0.0
 40
3.5
 41
0.0
 71
     5
 72
     1
  1
\A1;26.7
 73
     1
 44
1.0
  0
POINT
  5
106ACD7
330
106ACCF
100
AcDbEntity
  8
Defpoints
 62
     0
100
AcDbPoint
 10
26.7
 20
0.0
 30
0.0
  0
POINT
  5
106ACD8
330
106ACCF
100
AcDbEntity
  8
Defpoints
 62
     0
100
AcDbPoint
 10
0.0
 20
1.7905
 30
0.0
  0
POINT
  5
106ACD9
330
106ACCF
100
AcDbEntity
  8
Defpoints
 62
     0
100
AcDbPoint
 10
0.0
 20
35.0
 30
0.0
  0
ENDBLK
  5
106ACDA
330
106ACCF
100
AcDbEntity
  8
2
100
AcDbBlockEnd
  0
BLOCK
  5
106ACE0
330
106ACDF
100
AcDbEntity
  8
0
100
AcDbBlockBegin
  2
*D17
 70
     1
 10
0.0
 20
0.0
 30
0.0
  3
*D17
  1

  0
LINE
  5
106ACE2
330
106ACDF
100
AcDbEntity
  8
SK2
 62
     0
370
    -2
100
AcDbLine
 10
21.187056639579
 20
2.2905
 30
0.0
 11
21.187056639579
 21
36.0
 31
0.0
  0
LINE
  5
106ACE3
330
106ACDF
100
AcDbEntity
  8
SK2
 62
     0
370
    -2
100
AcDbLine
 10
1.953987871165
 20
2.2905
 30
0.0
 11
1.953987871164999
 21
36.0
 31
0.0
  0
LINE
  5
106ACE4
330
106ACDF
100
AcDbEntity
  8
SK2
 62
     0
370
    -2
100
AcDbLine
 10
18.187056639579
 20
35.0
 30
0.0
 11
4.953987871164999
 21
35.0
 31
0.0
  0
SOLID
  5
106ACE5
330
106ACDF
100
AcDbEntity
  8
SK2
 62
     0
100
AcDbTrace
 10
18.187056639579
 20
34.5
 30
0.0
 11
18.187056639579
 21
35.5
 31
0.0
 12
21.187056639579
 22
35.0
 32
0.0
 13
21.187056639579
 23
35.0
 33
0.0
  0
SOLID
  5
106ACE6
330
106ACDF
100
AcDbEntity
  8
SK2
 62
     0
100
AcDbTrace
 10
4.953987871164999
 20
35.5
 30
0.0
 11
4.953987871164999
 21
34.5
 31
0.0
 12
1.953987871164999
 22
35.0
 32
0.0
 13
1.953987871164999
 23
35.0
 33
0.0
  0
MTEXT
  5
106ACE7
330
106ACDF
100
AcDbEntity
  8
SK2
  6
ByBlock
 62
     0
100
AcDbMText
 10
11.570522255372
 20
37.61125
 30
0.0
 40
3.5
 41
0.0
 71
     5
 72
     1
  1
\A1;19.2
 73
     1
 44
1.0
  0
POINT
  5
106ACE8
330
106ACDF
100
AcDbEntity
  8
Defpoints
 62
     0
100
AcDbPoint
 10
21.187056639579
 20
1.7905
 30
0.0
  0
POINT
  5
106ACE9
330
106ACDF
100
AcDbEntity
  8
Defpoints
 62
     0
100
AcDbPoint
 10
1.953987871165
 20
1.7905
 30
0.0
  0
POINT
  5
106ACEA
330
106ACDF
100
AcDbEntity
  8
Defpoints
 62
     0
100
AcDbPoint
 10
1.953987871165
 20
35.0
 30
0.0
  0
ENDBLK
  5
106ACE1
330
106ACDF
100
AcDbEntity
  8
0
100
AcDbBlockEnd
  0
ENDSEC
  0
SECTION
  2
ENTITIES
  0
DIMENSION
  5
39D
330
30
100
AcDbEntity
  8
SK2
100
AcDbDimension
  2
*D0
 10
1.953987871165001
 20
-40.0
 30
0.0
 11
24.453987871165
 21
-40.0
 31
0.0
 70
   160
  1
<>
 71
     5
 42
45.0
  3
STANDARD
100
AcDbAlignedDimension
 13
46.953987871165
 23
-0.855
 33
0.0
 14
1.953987871165
 24
-1.7905
 34
0.0
100
AcDbRotatedDimension
1001
ACAD
1000
DSTYLE
1002
{
1070
   271
1070
     0
1070
   279
1070
     0
1070
    74
1070
     0
1002
}
  0
DIMENSION
  5
3AB
330
30
100
AcDbEntity
  8
SK2
100
AcDbDimension
  2
*D1
 10
14.304
 20
1.790500000000002
 30
0.0
 11
14.304
 21
17.04475
 31
0.0
 70
   160
  1
%%c<>
 71
     5
 42
3.581
  3
STANDARD
100
AcDbAlignedDimension
 13
1.953987871164999
 23
-1.7905
 33
0.0
 14
1.953987871164999
 24
1.7905
 34
0.0
 50
-90.0
100
AcDbRotatedDimension
1001
ACAD
1000
DSTYLE
1002
{
1070
    76
1070
     1
1070
    75
1070
     1
1070
   271
1070
     3
1070
   279
1070
     0
1070
    74
1070
     0
1002
}
  0
DIMENSION
  5
3B9
330
30
100
AcDbEntity
  8
SK2
100
AcDbDimension
  2
*D2
 10
1.953987871164999
 20
-16.0
 30
0.0
 11
-9.109012128835001
 21
-16.0
 31
0.0
 70
   160
  1
<>
 71
     5
 42
4.8
  3
STANDARD
100
AcDbAlignedDimension
 13
6.753987871165
 23
-1.7905
 33
0.0
 14
1.953987871165
 24
-1.7905
 34
0.0
100
AcDbRotatedDimension
1001
ACAD
1000
DSTYLE
1002
{
1070
   271
1070
     1
1070
   279
1070
     0
1070
    74
1070
     0
1002
}
  0
DIMENSION
  5
3C7
330
30
100
AcDbEntity
  8
2
100
AcDbDimension
  2
*D3
 10
35.853987871165
 20
-24.0
 30
0.0
 11
58.0
 21
-24.0
 31
0.0
 70
   160
  1
<>
 71
     5
 42
11.09999999999999
  3
STANDARD
100
AcDbAlignedDimension
 13
46.953987871165
 23
-0.855
 33
0.0
 14
35.853987871165
 24
-1.1
 34
0.0
100
AcDbRotatedDimension
1001
ACAD
1000
DSTYLE
1002
{
1070
   271
1070
     1
1070
   279
1070
     0
1070
    74
1070
     0
1002
}
1001
ACAD_DSTYLE_DIMFLIPARROW_SYMBOL
1070
   385
1070
     0
1001
ACAD_DSTYLE_DIMFLIPARROW_WHICH_SYMBOL
1070
   386
1070
     3
  0
DIMENSION
  5
3D5
330
30
100
AcDbEntity
  8
2
100
AcDbDimension
  2
*D4
 10
34.853987871165
 20
-32.0
 30
0.0
 11
25.870487871165
 21
-32.0
 31
0.0
 70
   160
  1
<>
 71
     5
 42
12.09999999999999
  3
STANDARD
100
AcDbAlignedDimension
 13
46.953987871165
 23
-0.855
 33
0.0
 14
34.853987871165
 24
-1.1
 34
0.0
100
AcDbRotatedDimension
1001
ACAD
1000
DSTYLE
1002
{
1070
   271
1070
     1
1070
   279
1070
     0
1070
    74
1070
     0
1002
}
1001
ACAD_DSTYLE_DIMFLIPARROW_SYMBOL
1070
   385
1070
     0
1001
ACAD_DSTYLE_DIMFLIPARROW_WHICH_SYMBOL
1070
   386
1070
     3
  0
DIMENSION
  5
3E3
330
30
100
AcDbEntity
  8
2
100
AcDbDimension
  2
*D5
 10
21.187056639579
 20
35.0
 30
0.0
 11
34.537056639579
 21
35.0
 31
0.0
 70
   160
  1
<>
 71
     5
 42
26.7
  3
STANDARD
100
AcDbAlignedDimension
 13
47.887056639579
 23
0.0
 33
0.0
 14
21.187056639579
 24
1.7905
 34
0.0
100
AcDbRotatedDimension
1001
ACAD
1000
DSTYLE
1002
{
1070
   271
1070
     1
1070
   279
1070
     0
1070
    74
1070
     0
1002
}
  0
LINE
  5
36
330
30
100
AcDbEntity
  8
1
100
AcDbLine
 10
21.187056639579
 20
1.7905
 30
0.0
 11
21.187056639579
 21
-1.7905
 31
0.0
  0
LINE
  5
37
330
30
100
AcDbEntity
  8
1
100
AcDbLine
 10
21.187056639579
 20
-1.7905
 30
0.0
 11
29.854108061193
 21
-1.7905
 31
0.0
  0
LINE
  5
38
330
30
100
AcDbEntity
  8
1
100
AcDbLine
 10
29.854108061193
 20
-1.7905
 30
0.0
 11
34.853987871165
 21
-1.1
 31
0.0
  0
LINE
  5
39
330
30
100
AcDbEntity
  8
1
100
AcDbLine
 10
34.853987871165
 20
-1.1
 30
0.0
 11
35.853987871165
 21
-1.1
 31
0.0
  0
LINE
  5
3A
330
30
100
AcDbEntity
  8
1
100
AcDbLine
 10
35.853987871165
 20
-1.1
 30
0.0
 11
45.153987871165
 21
-1.1
 31
0.0
  0
LINE
  5
3B
330
30
100
AcDbEntity
  8
1
100
AcDbLine
 10
45.153987871165
 20
-1.1
 30
0.0
 11
46.953987871165
 21
-0.855
 31
0.0
  0
LINE
  5
3C
330
30
100
AcDbEntity
  8
1
100
AcDbLine
 10
46.953987871165
 20
-0.855
 30
0.0
 11
47.887056639579
 21
0.0
 31
0.0
  0
LINE
  5
3D
330
30
100
AcDbEntity
  8
1
100
AcDbLine
 10
47.887056639579
 20
0.0
 30
0.0
 11
46.953987871165
 21
0.855
 31
0.0
  0
LINE
  5
3E
330
30
100
AcDbEntity
  8
1
100
AcDbLine
 10
46.953987871165
 20
0.855
 30
0.0
 11
45.153987871165
 21
1.1
 31
0.0
  0
LINE
  5
3F
330
30
100
AcDbEntity
  8
1
100
AcDbLine
 10
45.153987871165
 20
1.1
 30
0.0
 11
35.853987871165
 21
1.1
 31
0.0
  0
LINE
  5
40
330
30
100
AcDbEntity
  8
1
100
AcDbLine
 10
35.853987871165
 20
1.1
 30
0.0
 11
34.853987871165
 21
1.1
 31
0.0
  0
LINE
  5
41
330
30
100
AcDbEntity
  8
1
100
AcDbLine
 10
34.853987871165
 20
1.1
 30
0.0
 11
29.854108061193
 21
1.7905
 31
0.0
  0
LINE
  5
42
330
30
100
AcDbEntity
  8
1
100
AcDbLine
 10
29.854108061193
 20
1.7905
 30
0.0
 11
21.187056639579
 21
1.7905
 31
0.0
  0
LINE
  5
43
330
30
100
AcDbEntity
  8
1
100
AcDbLine
 10
46.953987871165
 20
-0.855
 30
0.0
 11
46.953987871165
 21
0.855
 31
0.0
  0
LINE
  5
44
330
30
100
AcDbEntity
  8
1
100
AcDbLine
 10
45.153987871165
 20
1.1
 30
0.0
 11
45.153987871165
 21
-1.1
 31
0.0
  0
LINE
  5
45
330
30
100
AcDbEntity
  8
1
100
AcDbLine
 10
45.127056639579
 20
-1.1
 30
0.0
 11
45.067056639579
 21
-1.1
 31
0.0
  0
LINE
  5
46
330
30
100
AcDbEntity
  8
1
100
AcDbLine
 10
45.067056639579
 20
-1.1
 30
0.0
 11
45.007056639579
 21
-1.1
 31
0.0
  0
LINE
  5
47
330
30
100
AcDbEntity
  8
1
100
AcDbLine
 10
45.007056639579
 20
-1.1
 30
0.0
 11
44.947056639579
 21
-1.1
 31
0.0
  0
LINE
  5
48
330
30
100
AcDbEntity
  8
1
100
AcDbLine
 10
44.947056639579
 20
-1.1
 30
0.0
 11
44.887056639579
 21
-1.1
 31
0.0
  0
LINE
  5
49
330
30
100
AcDbEntity
  8
1
100
AcDbLine
 10
44.887056639579
 20
-1.1
 30
0.0
 11
44.827056639579
 21
-1.1
 31
0.0
  0
LINE
  5
4A
330
30
100
AcDbEntity
  8
1
100
AcDbLine
 10
44.827056639579
 20
-1.1
 30
0.0
 11
44.767056639579
 21
-1.1
 31
0.0
  0
LINE
  5
4B
330
30
100
AcDbEntity
  8
1
100
AcDbLine
 10
44.767056639579
 20
-1.1
 30
0.0
 11
44.707056639579
 21
-1.1
 31
0.0
  0
LINE
  5
4C
330
30
100
AcDbEntity
  8
1
100
AcDbLine
 10
44.707056639579
 20
-1.1
 30
0.0
 11
44.647056639579
 21
-1.1
 31
0.0
  0
LINE
  5
4D
330
30
100
AcDbEntity
  8
1
100
AcDbLine
 10
44.647056639579
 20
-1.1
 30
0.0
 11
44.587056639579
 21
-1.1
 31
0.0
  0
LINE
  5
4E
330
30
100
AcDbEntity
  8
1
100
AcDbLine
 10
44.587056639579
 20
-1.1
 30
0.0
 11
44.527056639579
 21
-1.1
 31
0.0
  0
LINE
  5
4F
330
30
100
AcDbEntity
  8
1
100
AcDbLine
 10
44.527056639579
 20
-1.1
 30
0.0
 11
44.467056639579
 21
-1.1
 31
0.0
  0
LINE
  5
50
330
30
100
AcDbEntity
  8
1
100
AcDbLine
 10
44.467056639579
 20
-1.1
 30
0.0
 11
44.407056639579
 21
-1.1
 31
0.0
  0
LINE
  5
51
330
30
100
AcDbEntity
  8
1
100
AcDbLine
 10
44.407056639579
 20
-1.1
 30
0.0
 11
44.347056639579
 21
-1.1
 31
0.0
  0
LINE
  5
52
330
30
100
AcDbEntity
  8
1
100
AcDbLine
 10
44.347056639579
 20
-1.1
 30
0.0
 11
44.287056639579
 21
-1.1
 31
0.0
  0
LINE
  5
53
330
30
100
AcDbEntity
  8
1
100
AcDbLine
 10
44.287056639579
 20
-1.1
 30
0.0
 11
44.227056639579
 21
-1.1
 31
0.0
  0
LINE
  5
54
330
30
100
AcDbEntity
  8
1
100
AcDbLine
 10
44.227056639579
 20
-1.1
 30
0.0
 11
44.167056639579
 21
-1.1
 31
0.0
  0
LINE
  5
55
330
30
100
AcDbEntity
  8
1
100
AcDbLine
 10
44.167056639579
 20
-1.1
 30
0.0
 11
44.107056639579
 21
-1.1
 31
0.0
  0
LINE
  5
56
330
30
100
AcDbEntity
  8
1
100
AcDbLine
 10
44.107056639579
 20
-1.1
 30
0.0
 11
44.047056639579
 21
-1.1
 31
0.0
  0
LINE
  5
57
330
30
100
AcDbEntity
  8
1
100
AcDbLine
 10
44.047056639579
 20
-1.1
 30
0.0
 11
43.987056639579
 21
-1.1
 31
0.0
  0
LINE
  5
58
330
30
100
AcDbEntity
  8
1
100
AcDbLine
 10
43.987056639579
 20
-1.1
 30
0.0
 11
43.927056639579
 21
-1.1
 31
0.0
  0
LINE
  5
59
330
30
100
AcDbEntity
  8
1
100
AcDbLine
 10
43.927056639579
 20
-1.1
 30
0.0
 11
43.867056639579
 21
-1.1
 31
0.0
  0
LINE
  5
5A
330
30
100
AcDbEntity
  8
1
100
AcDbLine
 10
43.867056639579
 20
-1.1
 30
0.0
 11
43.807056639579
 21
-1.1
 31
0.0
  0
LINE
  5
5B
330
30
100
AcDbEntity
  8
1
100
AcDbLine
 10
43.807056639579
 20
-1.1
 30
0.0
 11
43.747056639579
 21
-1.1
 31
0.0
  0
LINE
  5
5C
330
30
100
AcDbEntity
  8
1
100
AcDbLine
 10
43.747056639579
 20
-1.1
 30
0.0
 11
43.687056639579
 21
-1.1
 31
0.0
  0
LINE
  5
5D
330
30
100
AcDbEntity
  8
1
100
AcDbLine
 10
43.687056639579
 20
-1.1
 30
0.0
 11
43.627056639579
 21
-1.1
 31
0.0
  0
LINE
  5
5E
330
30
100
AcDbEntity
  8
1
100
AcDbLine
 10
43.627056639579
 20
-1.1
 30
0.0
 11
43.567056639579
 21
-1.1
 31
0.0
  0
LINE
  5
5F
330
30
100
AcDbEntity
  8
1
100
AcDbLine
 10
43.567056639579
 20
-1.1
 30
0.0
 11
43.507056639579
 21
-1.1
 31
0.0
  0
LINE
  5
60
330
30
100
AcDbEntity
  8
1
100
AcDbLine
 10
43.507056639579
 20
-1.1
 30
0.0
 11
43.447056639579
 21
-1.1
 31
0.0
  0
LINE
  5
61
330
30
100
AcDbEntity
  8
1
100
AcDbLine
 10
43.447056639579
 20
-1.1
 30
0.0
 11
43.387056639579
 21
-1.1
 31
0.0
  0
LINE
  5
62
330
30
100
AcDbEntity
  8
1
100
AcDbLine
 10
43.387056639579
 20
-1.1
 30
0.0
 11
43.327056639579
 21
-1.1
 31
0.0
  0
LINE
  5
63
330
30
100
AcDbEntity
  8
1
100
AcDbLine
 10
43.327056639579
 20
-1.1
 30
0.0
 11
43.267056639579
 21
-1.1
 31
0.0
  0
LINE
  5
64
330
30
100
AcDbEntity
  8
1
100
AcDbLine
 10
43.267056639579
 20
-1.1
 30
0.0
 11
43.207056639579
 21
-1.1
 31
0.0
  0
LINE
  5
65
330
30
100
AcDbEntity
  8
1
100
AcDbLine
 10
43.207056639579
 20
-1.1
 30
0.0
 11
43.147056639579
 21
-1.1
 31
0.0
  0
LINE
  5
66
330
30
100
AcDbEntity
  8
1
100
AcDbLine
 10
43.147056639579
 20
-1.1
 30
0.0
 11
43.087056639579
 21
-1.1
 31
0.0
  0
LINE
  5
67
330
30
100
AcDbEntity
  8
1
100
AcDbLine
 10
43.087056639579
 20
-1.1
 30
0.0
 11
43.027056639579
 21
-1.1
 31
0.0
  0
LINE
  5
68
330
30
100
AcDbEntity
  8
1
100
AcDbLine
 10
43.027056639579
 20
-1.1
 30
0.0
 11
42.967056639579
 21
-1.1
 31
0.0
  0
LINE
  5
69
330
30
100
AcDbEntity
  8
1
100
AcDbLine
 10
42.967056639579
 20
-1.1
 30
0.0
 11
42.907056639579
 21
-1.1
 31
0.0
  0
LINE
  5
6A
330
30
100
AcDbEntity
  8
1
100
AcDbLine
 10
42.907056639579
 20
-1.1
 30
0.0
 11
42.847056639579
 21
-1.1
 31
0.0
  0
LINE
  5
6B
330
30
100
AcDbEntity
  8
1
100
AcDbLine
 10
42.847056639579
 20
-1.1
 30
0.0
 11
42.787056639579
 21
-1.1
 31
0.0
  0
LINE
  5
6C
330
30
100
AcDbEntity
  8
1
100
AcDbLine
 10
42.787056639579
 20
-1.1
 30
0.0
 11
42.727056639579
 21
-1.1
 31
0.0
  0
LINE
  5
6D
330
30
100
AcDbEntity
  8
1
100
AcDbLine
 10
42.727056639579
 20
-1.1
 30
0.0
 11
42.667056639579
 21
-1.1
 31
0.0
  0
LINE
  5
6E
330
30
100
AcDbEntity
  8
1
100
AcDbLine
 10
42.667056639579
 20
-1.1
 30
0.0
 11
42.607056639579
 21
-1.1
 31
0.0
  0
LINE
  5
6F
330
30
100
AcDbEntity
  8
1
100
AcDbLine
 10
42.607056639579
 20
-1.1
 30
0.0
 11
42.547056639579
 21
-1.1
 31
0.0
  0
LINE
  5
70
330
30
100
AcDbEntity
  8
1
100
AcDbLine
 10
42.547056639579
 20
-1.1
 30
0.0
 11
42.487056639579
 21
-1.1
 31
0.0
  0
LINE
  5
71
330
30
100
AcDbEntity
  8
1
100
AcDbLine
 10
42.487056639579
 20
-1.1
 30
0.0
 11
42.427056639579
 21
-1.1
 31
0.0
  0
LINE
  5
72
330
30
100
AcDbEntity
  8
1
100
AcDbLine
 10
42.427056639579
 20
-1.1
 30
0.0
 11
42.367056639579
 21
-1.1
 31
0.0
  0
LINE
  5
73
330
30
100
AcDbEntity
  8
1
100
AcDbLine
 10
42.367056639579
 20
-1.1
 30
0.0
 11
42.307056639579
 21
-1.1
 31
0.0
  0
LINE
  5
74
330
30
100
AcDbEntity
  8
1
100
AcDbLine
 10
42.307056639579
 20
-1.1
 30
0.0
 11
42.247056639579
 21
-1.1
 31
0.0
  0
LINE
  5
75
330
30
100
AcDbEntity
  8
1
100
AcDbLine
 10
42.247056639579
 20
-1.1
 30
0.0
 11
42.187056639579
 21
-1.1
 31
0.0
  0
LINE
  5
76
330
30
100
AcDbEntity
  8
1
100
AcDbLine
 10
42.187056639579
 20
-1.1
 30
0.0
 11
42.127056639579
 21
-1.1
 31
0.0
  0
LINE
  5
77
330
30
100
AcDbEntity
  8
1
100
AcDbLine
 10
42.127056639579
 20
-1.1
 30
0.0
 11
42.067056639579
 21
-1.1
 31
0.0
  0
LINE
  5
78
330
30
100
AcDbEntity
  8
1
100
AcDbLine
 10
42.067056639579
 20
-1.1
 30
0.0
 11
42.007056639579
 21
-1.1
 31
0.0
  0
LINE
  5
79
330
30
100
AcDbEntity
  8
1
100
AcDbLine
 10
42.007056639579
 20
-1.1
 30
0.0
 11
41.947056639579
 21
-1.1
 31
0.0
  0
LINE
  5
7A
330
30
100
AcDbEntity
  8
1
100
AcDbLine
 10
41.947056639579
 20
-1.1
 30
0.0
 11
41.887056639579
 21
-1.1
 31
0.0
  0
LINE
  5
7B
330
30
100
AcDbEntity
  8
1
100
AcDbLine
 10
41.887056639579
 20
-1.1
 30
0.0
 11
41.827056639579
 21
-1.1
 31
0.0
  0
LINE
  5
7C
330
30
100
AcDbEntity
  8
1
100
AcDbLine
 10
41.827056639579
 20
-1.1
 30
0.0
 11
41.767056639579
 21
-1.1
 31
0.0
  0
LINE
  5
7D
330
30
100
AcDbEntity
  8
1
100
AcDbLine
 10
41.767056639579
 20
-1.1
 30
0.0
 11
41.707056639579
 21
-1.1
 31
0.0
  0
LINE
  5
7E
330
30
100
AcDbEntity
  8
1
100
AcDbLine
 10
41.707056639579
 20
-1.1
 30
0.0
 11
41.647056639579
 21
-1.1
 31
0.0
  0
LINE
  5
7F
330
30
100
AcDbEntity
  8
1
100
AcDbLine
 10
41.647056639579
 20
-1.1
 30
0.0
 11
41.587056639579
 21
-1.1
 31
0.0
  0
LINE
  5
80
330
30
100
AcDbEntity
  8
1
100
AcDbLine
 10
41.587056639579
 20
-1.1
 30
0.0
 11
41.527056639579
 21
-1.1
 31
0.0
  0
LINE
  5
81
330
30
100
AcDbEntity
  8
1
100
AcDbLine
 10
41.527056639579
 20
-1.1
 30
0.0
 11
41.467056639579
 21
-1.1
 31
0.0
  0
LINE
  5
82
330
30
100
AcDbEntity
  8
1
100
AcDbLine
 10
41.467056639579
 20
-1.1
 30
0.0
 11
41.407056639579
 21
-1.1
 31
0.0
  0
LINE
  5
83
330
30
100
AcDbEntity
  8
1
100
AcDbLine
 10
41.407056639579
 20
-1.1
 30
0.0
 11
41.347056639579
 21
-1.1
 31
0.0
  0
LINE
  5
84
330
30
100
AcDbEntity
  8
1
100
AcDbLine
 10
41.347056639579
 20
-1.1
 30
0.0
 11
41.287056639579
 21
-1.1
 31
0.0
  0
LINE
  5
85
330
30
100
AcDbEntity
  8
1
100
AcDbLine
 10
41.287056639579
 20
-1.1
 30
0.0
 11
41.227056639579
 21
-1.1
 31
0.0
  0
LINE
  5
86
330
30
100
AcDbEntity
  8
1
100
AcDbLine
 10
41.227056639579
 20
-1.1
 30
0.0
 11
41.167056639579
 21
-1.1
 31
0.0
  0
LINE
  5
87
330
30
100
AcDbEntity
  8
1
100
AcDbLine
 10
41.167056639579
 20
-1.1
 30
0.0
 11
41.107056639579
 21
-1.1
 31
0.0
  0
LINE
  5
88
330
30
100
AcDbEntity
  8
1
100
AcDbLine
 10
41.107056639579
 20
-1.1
 30
0.0
 11
41.047056639579
 21
-1.1
 31
0.0
  0
LINE
  5
89
330
30
100
AcDbEntity
  8
1
100
AcDbLine
 10
41.047056639579
 20
-1.1
 30
0.0
 11
40.987056639579
 21
-1.1
 31
0.0
  0
LINE
  5
8A
330
30
100
AcDbEntity
  8
1
100
AcDbLine
 10
40.987056639579
 20
-1.1
 30
0.0
 11
40.927056639579
 21
-1.1
 31
0.0
  0
LINE
  5
8B
330
30
100
AcDbEntity
  8
1
100
AcDbLine
 10
40.927056639579
 20
-1.1
 30
0.0
 11
40.867056639579
 21
-1.1
 31
0.0
  0
LINE
  5
8C
330
30
100
AcDbEntity
  8
1
100
AcDbLine
 10
40.867056639579
 20
-1.1
 30
0.0
 11
40.807056639579
 21
-1.1
 31
0.0
  0
LINE
  5
8D
330
30
100
AcDbEntity
  8
1
100
AcDbLine
 10
40.807056639579
 20
-1.1
 30
0.0
 11
40.747056639579
 21
-1.1
 31
0.0
  0
LINE
  5
8E
330
30
100
AcDbEntity
  8
1
100
AcDbLine
 10
40.747056639579
 20
-1.1
 30
0.0
 11
40.687056639579
 21
-1.1
 31
0.0
  0
LINE
  5
8F
330
30
100
AcDbEntity
  8
1
100
AcDbLine
 10
40.687056639579
 20
-1.1
 30
0.0
 11
40.627056639579
 21
-1.1
 31
0.0
  0
LINE
  5
90
330
30
100
AcDbEntity
  8
1
100
AcDbLine
 10
40.627056639579
 20
-1.1
 30
0.0
 11
40.567056639579
 21
-1.1
 31
0.0
  0
LINE
  5
91
330
30
100
AcDbEntity
  8
1
100
AcDbLine
 10
40.567056639579
 20
-1.1
 30
0.0
 11
40.507056639579
 21
-1.1
 31
0.0
  0
LINE
  5
92
330
30
100
AcDbEntity
  8
1
100
AcDbLine
 10
40.507056639579
 20
-1.1
 30
0.0
 11
40.447056639579
 21
-1.1
 31
0.0
  0
LINE
  5
93
330
30
100
AcDbEntity
  8
1
100
AcDbLine
 10
40.447056639579
 20
-1.1
 30
0.0
 11
40.387056639579
 21
-1.1
 31
0.0
  0
LINE
  5
94
330
30
100
AcDbEntity
  8
1
100
AcDbLine
 10
40.387056639579
 20
-1.1
 30
0.0
 11
40.327056639579
 21
-1.1
 31
0.0
  0
LINE
  5
95
330
30
100
AcDbEntity
  8
1
100
AcDbLine
 10
40.327056639579
 20
-1.1
 30
0.0
 11
40.267056639579
 21
-1.1
 31
0.0
  0
LINE
  5
96
330
30
100
AcDbEntity
  8
1
100
AcDbLine
 10
40.267056639579
 20
-1.1
 30
0.0
 11
40.207056639579
 21
-1.1
 31
0.0
  0
LINE
  5
97
330
30
100
AcDbEntity
  8
1
100
AcDbLine
 10
40.207056639579
 20
-1.1
 30
0.0
 11
40.147056639579
 21
-1.1
 31
0.0
  0
LINE
  5
98
330
30
100
AcDbEntity
  8
1
100
AcDbLine
 10
40.147056639579
 20
-1.1
 30
0.0
 11
40.087056639579
 21
-1.1
 31
0.0
  0
LINE
  5
99
330
30
100
AcDbEntity
  8
1
100
AcDbLine
 10
40.087056639579
 20
-1.1
 30
0.0
 11
40.027056639579
 21
-1.1
 31
0.0
  0
LINE
  5
9A
330
30
100
AcDbEntity
  8
1
100
AcDbLine
 10
40.027056639579
 20
-1.1
 30
0.0
 11
39.967056639579
 21
-1.1
 31
0.0
  0
LINE
  5
9B
330
30
100
AcDbEntity
  8
1
100
AcDbLine
 10
39.967056639579
 20
-1.1
 30
0.0
 11
39.907056639579
 21
-1.1
 31
0.0
  0
LINE
  5
9C
330
30
100
AcDbEntity
  8
1
100
AcDbLine
 10
39.907056639579
 20
-1.1
 30
0.0
 11
39.847056639579
 21
-1.1
 31
0.0
  0
LINE
  5
9D
330
30
100
AcDbEntity
  8
1
100
AcDbLine
 10
39.847056639579
 20
-1.1
 30
0.0
 11
39.787056639579
 21
-1.1
 31
0.0
  0
LINE
  5
9E
330
30
100
AcDbEntity
  8
1
100
AcDbLine
 10
39.787056639579
 20
-1.1
 30
0.0
 11
39.727056639579
 21
-1.1
 31
0.0
  0
LINE
  5
9F
330
30
100
AcDbEntity
  8
1
100
AcDbLine
 10
39.727056639579
 20
-1.1
 30
0.0
 11
39.667056639579
 21
-1.1
 31
0.0
  0
LINE
  5
A0
330
30
100
AcDbEntity
  8
1
100
AcDbLine
 10
39.667056639579
 20
-1.1
 30
0.0
 11
39.607056639579
 21
-1.1
 31
0.0
  0
LINE
  5
A1
330
30
100
AcDbEntity
  8
1
100
AcDbLine
 10
39.607056639579
 20
-1.1
 30
0.0
 11
39.547056639579
 21
-1.1
 31
0.0
  0
LINE
  5
A2
330
30
100
AcDbEntity
  8
1
100
AcDbLine
 10
39.547056639579
 20
-1.1
 30
0.0
 11
39.487056639579
 21
-1.1
 31
0.0
  0
LINE
  5
A3
330
30
100
AcDbEntity
  8
1
100
AcDbLine
 10
39.487056639579
 20
-1.1
 30
0.0
 11
39.427056639579
 21
-1.1
 31
0.0
  0
LINE
  5
A4
330
30
100
AcDbEntity
  8
1
100
AcDbLine
 10
39.427056639579
 20
-1.1
 30
0.0
 11
39.367056639579
 21
-1.1
 31
0.0
  0
LINE
  5
A5
330
30
100
AcDbEntity
  8
1
100
AcDbLine
 10
39.367056639579
 20
-1.1
 30
0.0
 11
39.307056639579
 21
-1.1
 31
0.0
  0
LINE
  5
A6
330
30
100
AcDbEntity
  8
1
100
AcDbLine
 10
39.307056639579
 20
-1.1
 30
0.0
 11
39.247056639579
 21
-1.1
 31
0.0
  0
LINE
  5
A7
330
30
100
AcDbEntity
  8
1
100
AcDbLine
 10
39.247056639579
 20
-1.1
 30
0.0
 11
39.187056639579
 21
-1.1
 31
0.0
  0
LINE
  5
A8
330
30
100
AcDbEntity
  8
1
100
AcDbLine
 10
39.187056639579
 20
-1.1
 30
0.0
 11
39.127056639579
 21
-1.1
 31
0.0
  0
LINE
  5
A9
330
30
100
AcDbEntity
  8
1
100
AcDbLine
 10
39.127056639579
 20
-1.1
 30
0.0
 11
39.067056639579
 21
-1.1
 31
0.0
  0
LINE
  5
AA
330
30
100
AcDbEntity
  8
1
100
AcDbLine
 10
39.067056639579
 20
-1.1
 30
0.0
 11
39.007056639579
 21
-1.1
 31
0.0
  0
LINE
  5
AB
330
30
100
AcDbEntity
  8
1
100
AcDbLine
 10
39.007056639579
 20
-1.1
 30
0.0
 11
38.947056639579
 21
-1.1
 31
0.0
  0
LINE
  5
AC
330
30
100
AcDbEntity
  8
1
100
AcDbLine
 10
38.947056639579
 20
-1.1
 30
0.0
 11
38.887056639579
 21
-1.1
 31
0.0
  0
LINE
  5
AD
330
30
100
AcDbEntity
  8
1
100
AcDbLine
 10
38.887056639579
 20
-1.1
 30
0.0
 11
38.827056639579
 21
-1.1
 31
0.0
  0
LINE
  5
AE
330
30
100
AcDbEntity
  8
1
100
AcDbLine
 10
38.827056639579
 20
-1.1
 30
0.0
 11
38.767056639579
 21
-1.1
 31
0.0
  0
LINE
  5
AF
330
30
100
AcDbEntity
  8
1
100
AcDbLine
 10
38.767056639579
 20
-1.1
 30
0.0
 11
38.707056639579
 21
-1.1
 31
0.0
  0
LINE
  5
B0
330
30
100
AcDbEntity
  8
1
100
AcDbLine
 10
38.707056639579
 20
-1.1
 30
0.0
 11
38.647056639579
 21
-1.1
 31
0.0
  0
LINE
  5
B1
330
30
100
AcDbEntity
  8
1
100
AcDbLine
 10
38.647056639579
 20
-1.1
 30
0.0
 11
38.587056639579
 21
-1.1
 31
0.0
  0
LINE
  5
B2
330
30
100
AcDbEntity
  8
1
100
AcDbLine
 10
38.587056639579
 20
-1.1
 30
0.0
 11
38.527056639579
 21
-1.1
 31
0.0
  0
LINE
  5
B3
330
30
100
AcDbEntity
  8
1
100
AcDbLine
 10
38.527056639579
 20
-1.1
 30
0.0
 11
38.467056639579
 21
-1.1
 31
0.0
  0
LINE
  5
B4
330
30
100
AcDbEntity
  8
1
100
AcDbLine
 10
38.467056639579
 20
-1.1
 30
0.0
 11
38.407056639579
 21
-1.1
 31
0.0
  0
LINE
  5
B5
330
30
100
AcDbEntity
  8
1
100
AcDbLine
 10
38.407056639579
 20
-1.1
 30
0.0
 11
38.347056639579
 21
-1.1
 31
0.0
  0
LINE
  5
B6
330
30
100
AcDbEntity
  8
1
100
AcDbLine
 10
38.347056639579
 20
-1.1
 30
0.0
 11
38.287056639579
 21
-1.1
 31
0.0
  0
LINE
  5
B7
330
30
100
AcDbEntity
  8
1
100
AcDbLine
 10
38.287056639579
 20
-1.1
 30
0.0
 11
38.227056639579
 21
-1.1
 31
0.0
  0
LINE
  5
B8
330
30
100
AcDbEntity
  8
1
100
AcDbLine
 10
38.227056639579
 20
-1.1
 30
0.0
 11
38.167056639579
 21
-1.1
 31
0.0
  0
LINE
  5
B9
330
30
100
AcDbEntity
  8
1
100
AcDbLine
 10
38.167056639579
 20
-1.1
 30
0.0
 11
38.107056639579
 21
-1.1
 31
0.0
  0
LINE
  5
BA
330
30
100
AcDbEntity
  8
1
100
AcDbLine
 10
38.107056639579
 20
-1.1
 30
0.0
 11
38.047056639579
 21
-1.1
 31
0.0
  0
LINE
  5
BB
330
30
100
AcDbEntity
  8
1
100
AcDbLine
 10
38.047056639579
 20
-1.1
 30
0.0
 11
37.987056639579
 21
-1.1
 31
0.0
  0
LINE
  5
BC
330
30
100
AcDbEntity
  8
1
100
AcDbLine
 10
37.987056639579
 20
-1.1
 30
0.0
 11
37.927056639579
 21
-1.1
 31
0.0
  0
LINE
  5
BD
330
30
100
AcDbEntity
  8
1
100
AcDbLine
 10
37.927056639579
 20
-1.1
 30
0.0
 11
37.867056639579
 21
-1.1
 31
0.0
  0
LINE
  5
BE
330
30
100
AcDbEntity
  8
1
100
AcDbLine
 10
37.867056639579
 20
-1.1
 30
0.0
 11
37.807056639579
 21
-1.1
 31
0.0
  0
LINE
  5
BF
330
30
100
AcDbEntity
  8
1
100
AcDbLine
 10
37.807056639579
 20
-1.1
 30
0.0
 11
37.747056639579
 21
-1.1
 31
0.0
  0
LINE
  5
C0
330
30
100
AcDbEntity
  8
1
100
AcDbLine
 10
37.747056639579
 20
-1.1
 30
0.0
 11
37.687056639579
 21
-1.1
 31
0.0
  0
LINE
  5
C1
330
30
100
AcDbEntity
  8
1
100
AcDbLine
 10
37.687056639579
 20
-1.1
 30
0.0
 11
37.627056639579
 21
-1.1
 31
0.0
  0
LINE
  5
C2
330
30
100
AcDbEntity
  8
1
100
AcDbLine
 10
37.627056639579
 20
-1.1
 30
0.0
 11
37.567056639579
 21
-1.1
 31
0.0
  0
LINE
  5
C3
330
30
100
AcDbEntity
  8
1
100
AcDbLine
 10
37.567056639579
 20
-1.1
 30
0.0
 11
37.507056639579
 21
-1.1
 31
0.0
  0
LINE
  5
C4
330
30
100
AcDbEntity
  8
1
100
AcDbLine
 10
37.507056639579
 20
-1.1
 30
0.0
 11
37.447056639579
 21
-1.1
 31
0.0
  0
LINE
  5
C5
330
30
100
AcDbEntity
  8
1
100
AcDbLine
 10
37.447056639579
 20
-1.1
 30
0.0
 11
37.387056639579
 21
-1.1
 31
0.0
  0
LINE
  5
C6
330
30
100
AcDbEntity
  8
1
100
AcDbLine
 10
37.387056639579
 20
-1.1
 30
0.0
 11
37.327056639579
 21
-1.1
 31
0.0
  0
LINE
  5
C7
330
30
100
AcDbEntity
  8
1
100
AcDbLine
 10
37.327056639579
 20
-1.1
 30
0.0
 11
37.267056639579
 21
-1.1
 31
0.0
  0
LINE
  5
C8
330
30
100
AcDbEntity
  8
1
100
AcDbLine
 10
37.267056639579
 20
-1.1
 30
0.0
 11
37.207056639579
 21
-1.1
 31
0.0
  0
LINE
  5
C9
330
30
100
AcDbEntity
  8
1
100
AcDbLine
 10
37.207056639579
 20
-1.1
 30
0.0
 11
37.147056639579
 21
-1.1
 31
0.0
  0
LINE
  5
CA
330
30
100
AcDbEntity
  8
1
100
AcDbLine
 10
37.147056639579
 20
-1.1
 30
0.0
 11
37.087056639579
 21
-1.1
 31
0.0
  0
LINE
  5
CB
330
30
100
AcDbEntity
  8
1
100
AcDbLine
 10
37.087056639579
 20
-1.1
 30
0.0
 11
37.027056639579
 21
-1.1
 31
0.0
  0
LINE
  5
CC
330
30
100
AcDbEntity
  8
1
100
AcDbLine
 10
37.027056639579
 20
-1.1
 30
0.0
 11
36.967056639579
 21
-1.1
 31
0.0
  0
LINE
  5
CD
330
30
100
AcDbEntity
  8
1
100
AcDbLine
 10
36.967056639579
 20
-1.1
 30
0.0
 11
36.907056639579
 21
-1.1
 31
0.0
  0
LINE
  5
CE
330
30
100
AcDbEntity
  8
1
100
AcDbLine
 10
36.907056639579
 20
-1.1
 30
0.0
 11
36.847056639579
 21
-1.1
 31
0.0
  0
LINE
  5
CF
330
30
100
AcDbEntity
  8
1
100
AcDbLine
 10
36.847056639579
 20
-1.1
 30
0.0
 11
36.787056639579
 21
-1.1
 31
0.0
  0
LINE
  5
D0
330
30
100
AcDbEntity
  8
1
100
AcDbLine
 10
36.787056639579
 20
-1.1
 30
0.0
 11
36.727056639579
 21
-1.1
 31
0.0
  0
LINE
  5
D1
330
30
100
AcDbEntity
  8
1
100
AcDbLine
 10
36.727056639579
 20
-1.1
 30
0.0
 11
36.667056639579
 21
-1.1
 31
0.0
  0
LINE
  5
D2
330
30
100
AcDbEntity
  8
1
100
AcDbLine
 10
36.667056639579
 20
-1.1
 30
0.0
 11
36.607056639579
 21
-1.1
 31
0.0
  0
LINE
  5
D3
330
30
100
AcDbEntity
  8
1
100
AcDbLine
 10
36.607056639579
 20
-1.1
 30
0.0
 11
36.547056639579
 21
-1.1
 31
0.0
  0
LINE
  5
D4
330
30
100
AcDbEntity
  8
1
100
AcDbLine
 10
36.547056639579
 20
-1.1
 30
0.0
 11
36.487056639579
 21
-1.1
 31
0.0
  0
LINE
  5
D5
330
30
100
AcDbEntity
  8
1
100
AcDbLine
 10
36.487056639579
 20
-1.1
 30
0.0
 11
36.427056639579
 21
-1.1
 31
0.0
  0
LINE
  5
D6
330
30
100
AcDbEntity
  8
1
100
AcDbLine
 10
36.427056639579
 20
-1.1
 30
0.0
 11
36.367056639579
 21
-1.1
 31
0.0
  0
LINE
  5
D7
330
30
100
AcDbEntity
  8
1
100
AcDbLine
 10
36.367056639579
 20
-1.1
 30
0.0
 11
36.307056639579
 21
-1.1
 31
0.0
  0
LINE
  5
D8
330
30
100
AcDbEntity
  8
1
100
AcDbLine
 10
36.307056639579
 20
-1.1
 30
0.0
 11
36.247056639579
 21
-1.1
 31
0.0
  0
LINE
  5
D9
330
30
100
AcDbEntity
  8
1
100
AcDbLine
 10
36.247056639579
 20
-1.1
 30
0.0
 11
36.187056639579
 21
-1.1
 31
0.0
  0
LINE
  5
DA
330
30
100
AcDbEntity
  8
1
100
AcDbLine
 10
36.187056639579
 20
-1.1
 30
0.0
 11
36.127056639579
 21
-1.1
 31
0.0
  0
LINE
  5
DB
330
30
100
AcDbEntity
  8
1
100
AcDbLine
 10
36.127056639579
 20
-1.1
 30
0.0
 11
36.067056639579
 21
-1.1
 31
0.0
  0
LINE
  5
DC
330
30
100
AcDbEntity
  8
1
100
AcDbLine
 10
36.067056639579
 20
-1.1
 30
0.0
 11
36.007056639579
 21
-1.1
 31
0.0
  0
LINE
  5
DD
330
30
100
AcDbEntity
  8
1
100
AcDbLine
 10
36.007056639579
 20
-1.1
 30
0.0
 11
35.947056639579
 21
-1.1
 31
0.0
  0
LINE
  5
DE
330
30
100
AcDbEntity
  8
1
100
AcDbLine
 10
35.947056639579
 20
-1.1
 30
0.0
 11
35.887056639579
 21
-1.1
 31
0.0
  0
LINE
  5
DF
330
30
100
AcDbEntity
  8
1
100
AcDbLine
 10
35.887056639579
 20
-1.1
 30
0.0
 11
35.827056639579
 21
-1.1
 31
0.0
  0
LINE
  5
E0
330
30
100
AcDbEntity
  8
1
100
AcDbLine
 10
35.827056639579
 20
-1.1
 30
0.0
 11
35.767056639579
 21
-1.1
 31
0.0
  0
LINE
  5
E1
330
30
100
AcDbEntity
  8
1
100
AcDbLine
 10
35.767056639579
 20
-1.1
 30
0.0
 11
35.707056639579
 21
-1.1
 31
0.0
  0
LINE
  5
E2
330
30
100
AcDbEntity
  8
1
100
AcDbLine
 10
35.707056639579
 20
-1.1
 30
0.0
 11
35.647056639579
 21
-1.1
 31
0.0
  0
LINE
  5
E3
330
30
100
AcDbEntity
  8
1
100
AcDbLine
 10
35.647056639579
 20
-1.1
 30
0.0
 11
35.587056639579
 21
-1.1
 31
0.0
  0
LINE
  5
E4
330
30
100
AcDbEntity
  8
1
100
AcDbLine
 10
35.587056639579
 20
-1.1
 30
0.0
 11
35.527056639579
 21
-1.1
 31
0.0
  0
LINE
  5
E5
330
30
100
AcDbEntity
  8
1
100
AcDbLine
 10
35.527056639579
 20
-1.1
 30
0.0
 11
35.467056639579
 21
-1.1
 31
0.0
  0
LINE
  5
E6
330
30
100
AcDbEntity
  8
1
100
AcDbLine
 10
35.467056639579
 20
-1.1
 30
0.0
 11
35.407056639579
 21
-1.1
 31
0.0
  0
LINE
  5
E7
330
30
100
AcDbEntity
  8
1
100
AcDbLine
 10
35.407056639579
 20
-1.1
 30
0.0
 11
35.347056639579
 21
-1.1
 31
0.0
  0
LINE
  5
E8
330
30
100
AcDbEntity
  8
1
100
AcDbLine
 10
35.347056639579
 20
-1.1
 30
0.0
 11
35.287056639579
 21
-1.1
 31
0.0
  0
LINE
  5
E9
330
30
100
AcDbEntity
  8
1
100
AcDbLine
 10
35.287056639579
 20
-1.1
 30
0.0
 11
35.227056639579
 21
-1.1
 31
0.0
  0
LINE
  5
EA
330
30
100
AcDbEntity
  8
1
100
AcDbLine
 10
35.227056639579
 20
-1.1
 30
0.0
 11
35.167056639579
 21
-1.1
 31
0.0
  0
LINE
  5
EB
330
30
100
AcDbEntity
  8
1
100
AcDbLine
 10
35.167056639579
 20
-1.1
 30
0.0
 11
35.107056639579
 21
-1.1
 31
0.0
  0
LINE
  5
EC
330
30
100
AcDbEntity
  8
1
100
AcDbLine
 10
35.107056639579
 20
-1.1
 30
0.0
 11
35.047056639579
 21
-1.1
 31
0.0
  0
LINE
  5
ED
330
30
100
AcDbEntity
  8
1
100
AcDbLine
 10
35.047056639579
 20
-1.1
 30
0.0
 11
34.987056639579
 21
-1.1
 31
0.0
  0
LINE
  5
EE
330
30
100
AcDbEntity
  8
1
100
AcDbLine
 10
34.987056639579
 20
-1.1
 30
0.0
 11
34.927056639579
 21
-1.1
 31
0.0
  0
LINE
  5
EF
330
30
100
AcDbEntity
  8
1
100
AcDbLine
 10
34.927056639579
 20
-1.1
 30
0.0
 11
34.867056639579
 21
-1.1
 31
0.0
  0
LINE
  5
F0
330
30
100
AcDbEntity
  8
1
100
AcDbLine
 10
34.867056639579
 20
-1.1
 30
0.0
 11
34.807056639579
 21
-1.106481266063
 31
0.0
  0
LINE
  5
F1
330
30
100
AcDbEntity
  8
1
100
AcDbLine
 10
34.807056639579
 20
-1.106481266063
 30
0.0
 11
34.747056639579
 21
-1.114767079806
 31
0.0
  0
LINE
  5
F2
330
30
100
AcDbEntity
  8
1
100
AcDbLine
 10
34.747056639579
 20
-1.114767079806
 30
0.0
 11
34.687056639579
 21
-1.123052600345
 31
0.0
  0
LINE
  5
F3
330
30
100
AcDbEntity
  8
1
100
AcDbLine
 10
34.687056639579
 20
-1.123052600345
 30
0.0
 11
34.627056639579
 21
-1.131337834152
 31
0.0
  0
LINE
  5
F4
330
30
100
AcDbEntity
  8
1
100
AcDbLine
 10
34.627056639579
 20
-1.131337834152
 30
0.0
 11
34.567056639579
 21
-1.13962278751
 31
0.0
  0
LINE
  5
F5
330
30
100
AcDbEntity
  8
1
100
AcDbLine
 10
34.567056639579
 20
-1.13962278751
 30
0.0
 11
34.507056639579
 21
-1.14790746652
 31
0.0
  0
LINE
  5
F6
330
30
100
AcDbEntity
  8
1
100
AcDbLine
 10
34.507056639579
 20
-1.14790746652
 30
0.0
 11
34.447056639579
 21
-1.156191877106
 31
0.0
  0
LINE
  5
F7
330
30
100
AcDbEntity
  8
1
100
AcDbLine
 10
34.447056639579
 20
-1.156191877106
 30
0.0
 11
34.387056639579
 21
-1.164476025025
 31
0.0
  0
LINE
  5
F8
330
30
100
AcDbEntity
  8
1
100
AcDbLine
 10
34.387056639579
 20
-1.164476025025
 30
0.0
 11
34.327056639579
 21
-1.172759915868
 31
0.0
  0
LINE
  5
F9
330
30
100
AcDbEntity
  8
1
100
AcDbLine
 10
34.327056639579
 20
-1.172759915868
 30
0.0
 11
34.267056639579
 21
-1.181043555069
 31
0.0
  0
LINE
  5
FA
330
30
100
AcDbEntity
  8
1
100
AcDbLine
 10
34.267056639579
 20
-1.181043555069
 30
0.0
 11
34.207056639579
 21
-1.18932694791
 31
0.0
  0
LINE
  5
FB
330
30
100
AcDbEntity
  8
1
100
AcDbLine
 10
34.207056639579
 20
-1.18932694791
 30
0.0
 11
34.147056639579
 21
-1.197610099526
 31
0.0
  0
LINE
  5
FC
330
30
100
AcDbEntity
  8
1
100
AcDbLine
 10
34.147056639579
 20
-1.197610099526
 30
0.0
 11
34.087056639579
 21
-1.20589301491
 31
0.0
  0
LINE
  5
FD
330
30
100
AcDbEntity
  8
1
100
AcDbLine
 10
34.087056639579
 20
-1.20589301491
 30
0.0
 11
34.027056639579
 21
-1.214175698917
 31
0.0
  0
LINE
  5
FE
330
30
100
AcDbEntity
  8
1
100
AcDbLine
 10
34.027056639579
 20
-1.214175698917
 30
0.0
 11
33.967056639579
 21
-1.222458156272
 31
0.0
  0
LINE
  5
FF
330
30
100
AcDbEntity
  8
1
100
AcDbLine
 10
33.967056639579
 20
-1.222458156272
 30
0.0
 11
33.907056639579
 21
-1.23074039157
 31
0.0
  0
LINE
  5
100
330
30
100
AcDbEntity
  8
1
100
AcDbLine
 10
33.907056639579
 20
-1.23074039157
 30
0.0
 11
33.847056639579
 21
-1.239022409285
 31
0.0
  0
LINE
  5
101
330
30
100
AcDbEntity
  8
1
100
AcDbLine
 10
33.847056639579
 20
-1.239022409285
 30
0.0
 11
33.787056639579
 21
-1.247304213767
 31
0.0
  0
LINE
  5
102
330
30
100
AcDbEntity
  8
1
100
AcDbLine
 10
33.787056639579
 20
-1.247304213767
 30
0.0
 11
33.727056639579
 21
-1.255585809256
 31
0.0
  0
LINE
  5
103
330
30
100
AcDbEntity
  8
1
100
AcDbLine
 10
33.727056639579
 20
-1.255585809256
 30
0.0
 11
33.667056639579
 21
-1.263867199877
 31
0.0
  0
LINE
  5
104
330
30
100
AcDbEntity
  8
1
100
AcDbLine
 10
33.667056639579
 20
-1.263867199877
 30
0.0
 11
33.607056639579
 21
-1.272148389648
 31
0.0
  0
LINE
  5
105
330
30
100
AcDbEntity
  8
1
100
AcDbLine
 10
33.607056639579
 20
-1.272148389648
 30
0.0
 11
33.547056639579
 21
-1.280429382482
 31
0.0
  0
LINE
  5
106
330
30
100
AcDbEntity
  8
1
100
AcDbLine
 10
33.547056639579
 20
-1.280429382482
 30
0.0
 11
33.487056639579
 21
-1.288710182191
 31
0.0
  0
LINE
  5
107
330
30
100
AcDbEntity
  8
1
100
AcDbLine
 10
33.487056639579
 20
-1.288710182191
 30
0.0
 11
33.427056639579
 21
-1.29699079249
 31
0.0
  0
LINE
  5
108
330
30
100
AcDbEntity
  8
1
100
AcDbLine
 10
33.427056639579
 20
-1.29699079249
 30
0.0
 11
33.367056639579
 21
-1.305271216999
 31
0.0
  0
LINE
  5
109
330
30
100
AcDbEntity
  8
1
100
AcDbLine
 10
33.367056639579
 20
-1.305271216999
 30
0.0
 11
33.307056639579
 21
-1.313551459245
 31
0.0
  0
LINE
  5
10A
330
30
100
AcDbEntity
  8
1
100
AcDbLine
 10
33.307056639579
 20
-1.313551459245
 30
0.0
 11
33.247056639579
 21
-1.321831522667
 31
0.0
  0
LINE
  5
10B
330
30
100
AcDbEntity
  8
1
100
AcDbLine
 10
33.247056639579
 20
-1.321831522667
 30
0.0
 11
33.187056639579
 21
-1.330111410619
 31
0.0
  0
LINE
  5
10C
330
30
100
AcDbEntity
  8
1
100
AcDbLine
 10
33.187056639579
 20
-1.330111410619
 30
0.0
 11
33.127056639579
 21
-1.338391126371
 31
0.0
  0
LINE
  5
10D
330
30
100
AcDbEntity
  8
1
100
AcDbLine
 10
33.127056639579
 20
-1.338391126371
 30
0.0
 11
33.067056639579
 21
-1.346670673111
 31
0.0
  0
LINE
  5
10E
330
30
100
AcDbEntity
  8
1
100
AcDbLine
 10
33.067056639579
 20
-1.346670673111
 30
0.0
 11
33.007056639579
 21
-1.354950053949
 31
0.0
  0
LINE
  5
10F
330
30
100
AcDbEntity
  8
1
100
AcDbLine
 10
33.007056639579
 20
-1.354950053949
 30
0.0
 11
32.947056639579
 21
-1.363229271922
 31
0.0
  0
LINE
  5
110
330
30
100
AcDbEntity
  8
1
100
AcDbLine
 10
32.947056639579
 20
-1.363229271922
 30
0.0
 11
32.887056639579
 21
-1.371508329988
 31
0.0
  0
LINE
  5
111
330
30
100
AcDbEntity
  8
1
100
AcDbLine
 10
32.887056639579
 20
-1.371508329988
 30
0.0
 11
32.827056639579
 21
-1.379787231039
 31
0.0
  0
LINE
  5
112
330
30
100
AcDbEntity
  8
1
100
AcDbLine
 10
32.827056639579
 20
-1.379787231039
 30
0.0
 11
32.767056639579
 21
-1.388065977894
 31
0.0
  0
LINE
  5
113
330
30
100
AcDbEntity
  8
1
100
AcDbLine
 10
32.767056639579
 20
-1.388065977894
 30
0.0
 11
32.707056639579
 21
-1.396344573307
 31
0.0
  0
LINE
  5
114
330
30
100
AcDbEntity
  8
1
100
AcDbLine
 10
32.707056639579
 20
-1.396344573307
 30
0.0
 11
32.647056639579
 21
-1.404623019965
 31
0.0
  0
LINE
  5
115
330
30
100
AcDbEntity
  8
1
100
AcDbLine
 10
32.647056639579
 20
-1.404623019965
 30
0.0
 11
32.587056639579
 21
-1.412901320494
 31
0.0
  0
LINE
  5
116
330
30
100
AcDbEntity
  8
1
100
AcDbLine
 10
32.587056639579
 20
-1.412901320494
 30
0.0
 11
32.527056639579
 21
-1.421179477456
 31
0.0
  0
LINE
  5
117
330
30
100
AcDbEntity
  8
1
100
AcDbLine
 10
32.527056639579
 20
-1.421179477456
 30
0.0
 11
32.467056639579
 21
-1.429457493356
 31
0.0
  0
LINE
  5
118
330
30
100
AcDbEntity
  8
1
100
AcDbLine
 10
32.467056639579
 20
-1.429457493356
 30
0.0
 11
32.407056639579
 21
-1.437735370638
 31
0.0
  0
LINE
  5
119
330
30
100
AcDbEntity
  8
1
100
AcDbLine
 10
32.407056639579
 20
-1.437735370638
 30
0.0
 11
32.347056639579
 21
-1.446013111692
 31
0.0
  0
LINE
  5
11A
330
30
100
AcDbEntity
  8
1
100
AcDbLine
 10
32.347056639579
 20
-1.446013111692
 30
0.0
 11
32.287056639579
 21
-1.454290718854
 31
0.0
  0
LINE
  5
11B
330
30
100
AcDbEntity
  8
1
100
AcDbLine
 10
32.287056639579
 20
-1.454290718854
 30
0.0
 11
32.227056639579
 21
-1.462568194404
 31
0.0
  0
LINE
  5
11C
330
30
100
AcDbEntity
  8
1
100
AcDbLine
 10
32.227056639579
 20
-1.462568194404
 30
0.0
 11
32.167056639579
 21
-1.470845540573
 31
0.0
  0
LINE
  5
11D
330
30
100
AcDbEntity
  8
1
100
AcDbLine
 10
32.167056639579
 20
-1.470845540573
 30
0.0
 11
32.107056639579
 21
-1.479122759542
 31
0.0
  0
LINE
  5
11E
330
30
100
AcDbEntity
  8
1
100
AcDbLine
 10
32.107056639579
 20
-1.479122759542
 30
0.0
 11
32.047056639579
 21
-1.48739985344
 31
0.0
  0
LINE
  5
11F
330
30
100
AcDbEntity
  8
1
100
AcDbLine
 10
32.047056639579
 20
-1.48739985344
 30
0.0
 11
31.987056639579
 21
-1.495676824352
 31
0.0
  0
LINE
  5
120
330
30
100
AcDbEntity
  8
1
100
AcDbLine
 10
31.987056639579
 20
-1.495676824352
 30
0.0
 11
31.927056639579
 21
-1.503953674316
 31
0.0
  0
LINE
  5
121
330
30
100
AcDbEntity
  8
1
100
AcDbLine
 10
31.927056639579
 20
-1.503953674316
 30
0.0
 11
31.867056639579
 21
-1.512230405325
 31
0.0
  0
LINE
  5
122
330
30
100
AcDbEntity
  8
1
100
AcDbLine
 10
31.867056639579
 20
-1.512230405325
 30
0.0
 11
31.807056639579
 21
-1.520507019328
 31
0.0
  0
LINE
  5
123
330
30
100
AcDbEntity
  8
1
100
AcDbLine
 10
31.807056639579
 20
-1.520507019328
 30
0.0
 11
31.747056639579
 21
-1.528783518232
 31
0.0
  0
LINE
  5
124
330
30
100
AcDbEntity
  8
1
100
AcDbLine
 10
31.747056639579
 20
-1.528783518232
 30
0.0
 11
31.687056639579
 21
-1.537059903904
 31
0.0
  0
LINE
  5
125
330
30
100
AcDbEntity
  8
1
100
AcDbLine
 10
31.687056639579
 20
-1.537059903904
 30
0.0
 11
31.627056639579
 21
-1.545336178168
 31
0.0
  0
LINE
  5
126
330
30
100
AcDbEntity
  8
1
100
AcDbLine
 10
31.627056639579
 20
-1.545336178168
 30
0.0
 11
31.567056639579
 21
-1.553612342811
 31
0.0
  0
LINE
  5
127
330
30
100
AcDbEntity
  8
1
100
AcDbLine
 10
31.567056639579
 20
-1.553612342811
 30
0.0
 11
31.507056639579
 21
-1.561888399583
 31
0.0
  0
LINE
  5
128
330
30
100
AcDbEntity
  8
1
100
AcDbLine
 10
31.507056639579
 20
-1.561888399583
 30
0.0
 11
31.447056639579
 21
-1.570164350193
 31
0.0
  0
LINE
  5
129
330
30
100
AcDbEntity
  8
1
100
AcDbLine
 10
31.447056639579
 20
-1.570164350193
 30
0.0
 11
31.387056639579
 21
-1.578440196319
 31
0.0
  0
LINE
  5
12A
330
30
100
AcDbEntity
  8
1
100
AcDbLine
 10
31.387056639579
 20
-1.578440196319
 30
0.0
 11
31.327056639579
 21
-1.5867159396
 31
0.0
  0
LINE
  5
12B
330
30
100
AcDbEntity
  8
1
100
AcDbLine
 10
31.327056639579
 20
-1.5867159396
 30
0.0
 11
31.267056639579
 21
-1.594991581643
 31
0.0
  0
LINE
  5
12C
330
30
100
AcDbEntity
  8
1
100
AcDbLine
 10
31.267056639579
 20
-1.594991581643
 30
0.0
 11
31.207056639579
 21
-1.60326712402
 31
0.0
  0
LINE
  5
12D
330
30
100
AcDbEntity
  8
1
100
AcDbLine
 10
31.207056639579
 20
-1.60326712402
 30
0.0
 11
31.147056639579
 21
-1.611542568272
 31
0.0
  0
LINE
  5
12E
330
30
100
AcDbEntity
  8
1
100
AcDbLine
 10
31.147056639579
 20
-1.611542568272
 30
0.0
 11
31.087056639579
 21
-1.619817915909
 31
0.0
  0
LINE
  5
12F
330
30
100
AcDbEntity
  8
1
100
AcDbLine
 10
31.087056639579
 20
-1.619817915909
 30
0.0
 11
31.027056639579
 21
-1.628093168407
 31
0.0
  0
LINE
  5
130
330
30
100
AcDbEntity
  8
1
100
AcDbLine
 10
31.027056639579
 20
-1.628093168407
 30
0.0
 11
30.967056639579
 21
-1.636368327216
 31
0.0
  0
LINE
  5
131
330
30
100
AcDbEntity
  8
1
100
AcDbLine
 10
30.967056639579
 20
-1.636368327216
 30
0.0
 11
30.907056639579
 21
-1.644643393753
 31
0.0
  0
LINE
  5
132
330
30
100
AcDbEntity
  8
1
100
AcDbLine
 10
30.907056639579
 20
-1.644643393753
 30
0.0
 11
30.847056639579
 21
-1.65291836941
 31
0.0
  0
LINE
  5
133
330
30
100
AcDbEntity
  8
1
100
AcDbLine
 10
30.847056639579
 20
-1.65291836941
 30
0.0
 11
30.787056639579
 21
-1.661193255549
 31
0.0
  0
LINE
  5
134
330
30
100
AcDbEntity
  8
1
100
AcDbLine
 10
30.787056639579
 20
-1.661193255549
 30
0.0
 11
30.727056639579
 21
-1.669468053506
 31
0.0
  0
LINE
  5
135
330
30
100
AcDbEntity
  8
1
100
AcDbLine
 10
30.727056639579
 20
-1.669468053506
 30
0.0
 11
30.667056639579
 21
-1.677742764588
 31
0.0
  0
LINE
  5
136
330
30
100
AcDbEntity
  8
1
100
AcDbLine
 10
30.667056639579
 20
-1.677742764588
 30
0.0
 11
30.607056639579
 21
-1.68601739008
 31
0.0
  0
LINE
  5
137
330
30
100
AcDbEntity
  8
1
100
AcDbLine
 10
30.607056639579
 20
-1.68601739008
 30
0.0
 11
30.547056639579
 21
-1.694291931239
 31
0.0
  0
LINE
  5
138
330
30
100
AcDbEntity
  8
1
100
AcDbLine
 10
30.547056639579
 20
-1.694291931239
 30
0.0
 11
30.487056639579
 21
-1.702566389299
 31
0.0
  0
LINE
  5
139
330
30
100
AcDbEntity
  8
1
100
AcDbLine
 10
30.487056639579
 20
-1.702566389299
 30
0.0
 11
30.427056639579
 21
-1.71084076547
 31
0.0
  0
LINE
  5
13A
330
30
100
AcDbEntity
  8
1
100
AcDbLine
 10
30.427056639579
 20
-1.71084076547
 30
0.0
 11
30.367056639579
 21
-1.719115060937
 31
0.0
  0
LINE
  5
13B
330
30
100
AcDbEntity
  8
1
100
AcDbLine
 10
30.367056639579
 20
-1.719115060937
 30
0.0
 11
30.307056639579
 21
-1.727389276863
 31
0.0
  0
LINE
  5
13C
330
30
100
AcDbEntity
  8
1
100
AcDbLine
 10
30.307056639579
 20
-1.727389276863
 30
0.0
 11
30.247056639579
 21
-1.735663414391
 31
0.0
  0
LINE
  5
13D
330
30
100
AcDbEntity
  8
1
100
AcDbLine
 10
30.247056639579
 20
-1.735663414391
 30
0.0
 11
30.187056639579
 21
-1.743937474639
 31
0.0
  0
LINE
  5
13E
330
30
100
AcDbEntity
  8
1
100
AcDbLine
 10
30.187056639579
 20
-1.743937474639
 30
0.0
 11
30.127056639579
 21
-1.752211458705
 31
0.0
  0
LINE
  5
13F
330
30
100
AcDbEntity
  8
1
100
AcDbLine
 10
30.127056639579
 20
-1.752211458705
 30
0.0
 11
30.067056639579
 21
-1.760485367667
 31
0.0
  0
LINE
  5
140
330
30
100
AcDbEntity
  8
1
100
AcDbLine
 10
30.067056639579
 20
-1.760485367667
 30
0.0
 11
30.007056639579
 21
-1.768759202582
 31
0.0
  0
LINE
  5
141
330
30
100
AcDbEntity
  8
1
100
AcDbLine
 10
30.007056639579
 20
-1.768759202582
 30
0.0
 11
29.947056639579
 21
-1.777032964487
 31
0.0
  0
LINE
  5
142
330
30
100
AcDbEntity
  8
1
100
AcDbLine
 10
29.947056639579
 20
-1.777032964487
 30
0.0
 11
29.887056639579
 21
-1.785306654401
 31
0.0
  0
LINE
  5
143
330
30
100
AcDbEntity
  8
1
100
AcDbLine
 10
29.887056639579
 20
-1.785306654401
 30
0.0
 11
29.91688799843
 21
-1.781829882255
 31
0.0
  0
LINE
  5
144
330
30
100
AcDbEntity
  8
1
100
AcDbLine
 10
29.854108061193
 20
-1.7905
 30
0.0
 11
29.854108061193
 21
1.7905
 31
0.0
  0
LINE
  5
145
330
30
100
AcDbEntity
  8
1
100
AcDbLine
 10
29.854108061193
 20
1.7905
 30
0.0
 11
29.854108061193
 21
-1.7905
 31
0.0
  0
LINE
  5
146
330
30
100
AcDbEntity
  8
1
100
AcDbLine
 10
29.91688799843
 20
1.781829882255
 30
0.0
 11
29.947056639579
 21
1.67696573274
 31
0.0
  0
LINE
  5
147
330
30
100
AcDbEntity
  8
1
100
AcDbLine
 10
29.947056639579
 20
1.67696573274
 30
0.0
 11
30.007056639579
 21
1.572345792314
 31
0.0
  0
LINE
  5
148
330
30
100
AcDbEntity
  8
1
100
AcDbLine
 10
30.007056639579
 20
1.572345792314
 30
0.0
 11
30.067056639579
 21
1.471405082119
 31
0.0
  0
LINE
  5
149
330
30
100
AcDbEntity
  8
1
100
AcDbLine
 10
30.067056639579
 20
1.471405082119
 30
0.0
 11
30.127056639579
 21
1.374101850198
 31
0.0
  0
LINE
  5
14A
330
30
100
AcDbEntity
  8
1
100
AcDbLine
 10
30.127056639579
 20
1.374101850198
 30
0.0
 11
30.187056639579
 21
1.280394343622
 31
0.0
  0
LINE
  5
14B
330
30
100
AcDbEntity
  8
1
100
AcDbLine
 10
30.187056639579
 20
1.280394343622
 30
0.0
 11
30.247056639579
 21
1.190240808462
 31
0.0
  0
LINE
  5
14C
330
30
100
AcDbEntity
  8
1
100
AcDbLine
 10
30.247056639579
 20
1.190240808462
 30
0.0
 11
30.307056639579
 21
1.10359948977
 31
0.0
  0
LINE
  5
14D
330
30
100
AcDbEntity
  8
1
100
AcDbLine
 10
30.307056639579
 20
1.10359948977
 30
0.0
 11
30.367056639579
 21
1.020428631549
 31
0.0
  0
LINE
  5
14E
330
30
100
AcDbEntity
  8
1
100
AcDbLine
 10
30.367056639579
 20
1.020428631549
 30
0.0
 11
30.427056639579
 21
0.940686476731
 31
0.0
  0
LINE
  5
14F
330
30
100
AcDbEntity
  8
1
100
AcDbLine
 10
30.427056639579
 20
0.940686476731
 30
0.0
 11
30.487056639579
 21
0.86433126715
 31
0.0
  0
LINE
  5
150
330
30
100
AcDbEntity
  8
1
100
AcDbLine
 10
30.487056639579
 20
0.86433126715
 30
0.0
 11
30.547056639579
 21
0.791321243513
 31
0.0
  0
LINE
  5
151
330
30
100
AcDbEntity
  8
1
100
AcDbLine
 10
30.547056639579
 20
0.791321243513
 30
0.0
 11
30.607056639579
 21
0.721614645377
 31
0.0
  0
LINE
  5
152
330
30
100
AcDbEntity
  8
1
100
AcDbLine
 10
30.607056639579
 20
0.721614645377
 30
0.0
 11
30.667056639579
 21
0.655169711113
 31
0.0
  0
LINE
  5
153
330
30
100
AcDbEntity
  8
1
100
AcDbLine
 10
30.667056639579
 20
0.655169711113
 30
0.0
 11
30.727056639579
 21
0.591944677883
 31
0.0
  0
LINE
  5
154
330
30
100
AcDbEntity
  8
1
100
AcDbLine
 10
30.727056639579
 20
0.591944677883
 30
0.0
 11
30.787056639579
 21
0.531897781606
 31
0.0
  0
LINE
  5
155
330
30
100
AcDbEntity
  8
1
100
AcDbLine
 10
30.787056639579
 20
0.531897781606
 30
0.0
 11
30.847056639579
 21
0.47498725693
 31
0.0
  0
LINE
  5
156
330
30
100
AcDbEntity
  8
1
100
AcDbLine
 10
30.847056639579
 20
0.47498725693
 30
0.0
 11
30.907056639579
 21
0.421171337194
 31
0.0
  0
LINE
  5
157
330
30
100
AcDbEntity
  8
1
100
AcDbLine
 10
30.907056639579
 20
0.421171337194
 30
0.0
 11
30.967056639579
 21
0.3704082544
 31
0.0
  0
LINE
  5
158
330
30
100
AcDbEntity
  8
1
100
AcDbLine
 10
30.967056639579
 20
0.3704082544
 30
0.0
 11
31.027056639579
 21
0.322656239176
 31
0.0
  0
LINE
  5
159
330
30
100
AcDbEntity
  8
1
100
AcDbLine
 10
31.027056639579
 20
0.322656239176
 30
0.0
 11
31.087056639579
 21
0.277873520741
 31
0.0
  0
LINE
  5
15A
330
30
100
AcDbEntity
  8
1
100
AcDbLine
 10
31.087056639579
 20
0.277873520741
 30
0.0
 11
31.147056639579
 21
0.236018326871
 31
0.0
  0
LINE
  5
15B
330
30
100
AcDbEntity
  8
1
100
AcDbLine
 10
31.147056639579
 20
0.236018326871
 30
0.0
 11
31.207056639579
 21
0.197048883855
 31
0.0
  0
LINE
  5
15C
330
30
100
AcDbEntity
  8
1
100
AcDbLine
 10
31.207056639579
 20
0.197048883855
 30
0.0
 11
31.267056639579
 21
0.160923416463
 31
0.0
  0
LINE
  5
15D
330
30
100
AcDbEntity
  8
1
100
AcDbLine
 10
31.267056639579
 20
0.160923416463
 30
0.0
 11
31.327056639579
 21
0.127600147904
 31
0.0
  0
LINE
  5
15E
330
30
100
AcDbEntity
  8
1
100
AcDbLine
 10
31.327056639579
 20
0.127600147904
 30
0.0
 11
31.387056639579
 21
0.09703729978
 31
0.0
  0
LINE
  5
15F
330
30
100
AcDbEntity
  8
1
100
AcDbLine
 10
31.387056639579
 20
0.09703729978
 30
0.0
 11
31.447056639579
 21
0.069193092051
 31
0.0
  0
LINE
  5
160
330
30
100
AcDbEntity
  8
1
100
AcDbLine
 10
31.447056639579
 20
0.069193092051
 30
0.0
 11
31.507056639579
 21
0.044025742984
 31
0.0
  0
LINE
  5
161
330
30
100
AcDbEntity
  8
1
100
AcDbLine
 10
31.507056639579
 20
0.044025742984
 30
0.0
 11
31.567056639579
 21
0.021493469113
 31
0.0
  0
LINE
  5
162
330
30
100
AcDbEntity
  8
1
100
AcDbLine
 10
31.567056639579
 20
0.021493469113
 30
0.0
 11
31.627056639579
 21
0.001554485187
 31
0.0
  0
LINE
  5
163
330
30
100
AcDbEntity
  8
1
100
AcDbLine
 10
31.627056639579
 20
0.001554485187
 30
0.0
 11
31.687056639579
 21
-0.015832995873
 31
0.0
  0
LINE
  5
164
330
30
100
AcDbEntity
  8
1
100
AcDbLine
 10
31.687056639579
 20
-0.015832995873
 30
0.0
 11
31.747056639579
 21
-0.030710763031
 31
0.0
  0
LINE
  5
165
330
30
100
AcDbEntity
  8
1
100
AcDbLine
 10
31.747056639579
 20
-0.030710763031
 30
0.0
 11
31.807056639579
 21
-0.043120607181
 31
0.0
  0
LINE
  5
166
330
30
100
AcDbEntity
  8
1
100
AcDbLine
 10
31.807056639579
 20
-0.043120607181
 30
0.0
 11
31.867056639579
 21
-0.053104321203
 31
0.0
  0
LINE
  5
167
330
30
100
AcDbEntity
  8
1
100
AcDbLine
 10
31.867056639579
 20
-0.053104321203
 30
0.0
 11
31.927056639579
 21
-0.060703700021
 31
0.0
  0
LINE
  5
168
330
30
100
AcDbEntity
  8
1
100
AcDbLine
 10
31.927056639579
 20
-0.060703700021
 30
0.0
 11
31.987056639579
 21
-0.065960540656
 31
0.0
  0
LINE
  5
169
330
30
100
AcDbEntity
  8
1
100
AcDbLine
 10
31.987056639579
 20
-0.065960540656
 30
0.0
 11
32.047056639579
 21
-0.068916642287
 31
0.0
  0
LINE
  5
16A
330
30
100
AcDbEntity
  8
1
100
AcDbLine
 10
32.047056639579
 20
-0.068916642287
 30
0.0
 11
32.107056639579
 21
-0.069613806313
 31
0.0
  0
LINE
  5
16B
330
30
100
AcDbEntity
  8
1
100
AcDbLine
 10
32.107056639579
 20
-0.069613806313
 30
0.0
 11
32.167056639579
 21
-0.068367474284
 31
0.0
  0
LINE
  5
16C
330
30
100
AcDbEntity
  8
1
100
AcDbLine
 10
32.167056639579
 20
-0.068367474284
 30
0.0
 11
32.227056639579
 21
-0.066845600691
 31
0.0
  0
LINE
  5
16D
330
30
100
AcDbEntity
  8
1
100
AcDbLine
 10
32.227056639579
 20
-0.066845600691
 30
0.0
 11
32.287056639579
 21
-0.065323562622
 31
0.0
  0
LINE
  5
16E
330
30
100
AcDbEntity
  8
1
100
AcDbLine
 10
32.287056639579
 20
-0.065323562622
 30
0.0
 11
32.347056639579
 21
-0.063801357193
 31
0.0
  0
LINE
  5
16F
330
30
100
AcDbEntity
  8
1
100
AcDbLine
 10
32.347056639579
 20
-0.063801357193
 30
0.0
 11
32.407056639579
 21
-0.062278981455
 31
0.0
  0
LINE
  5
170
330
30
100
AcDbEntity
  8
1
100
AcDbLine
 10
32.407056639579
 20
-0.062278981455
 30
0.0
 11
32.467056639579
 21
-0.060756432387
 31
0.0
  0
LINE
  5
171
330
30
100
AcDbEntity
  8
1
100
AcDbLine
 10
32.467056639579
 20
-0.060756432387
 30
0.0
 11
32.527056639579
 21
-0.059233706898
 31
0.0
  0
LINE
  5
172
330
30
100
AcDbEntity
  8
1
100
AcDbLine
 10
32.527056639579
 20
-0.059233706898
 30
0.0
 11
32.587056639579
 21
-0.057710801822
 31
0.0
  0
LINE
  5
173
330
30
100
AcDbEntity
  8
1
100
AcDbLine
 10
32.587056639579
 20
-0.057710801822
 30
0.0
 11
32.647056639579
 21
-0.056187713914
 31
0.0
  0
LINE
  5
174
330
30
100
AcDbEntity
  8
1
100
AcDbLine
 10
32.647056639579
 20
-0.056187713914
 30
0.0
 11
32.707056639579
 21
-0.054664439853
 31
0.0
  0
LINE
  5
175
330
30
100
AcDbEntity
  8
1
100
AcDbLine
 10
32.707056639579
 20
-0.054664439853
 30
0.0
 11
32.767056639579
 21
-0.053140976235
 31
0.0
  0
LINE
  5
176
330
30
100
AcDbEntity
  8
1
100
AcDbLine
 10
32.767056639579
 20
-0.053140976235
 30
0.0
 11
32.827056639579
 21
-0.051617319572
 31
0.0
  0
LINE
  5
177
330
30
100
AcDbEntity
  8
1
100
AcDbLine
 10
32.827056639579
 20
-0.051617319572
 30
0.0
 11
32.887056639579
 21
-0.050093466292
 31
0.0
  0
LINE
  5
178
330
30
100
AcDbEntity
  8
1
100
AcDbLine
 10
32.887056639579
 20
-0.050093466292
 30
0.0
 11
32.947056639579
 21
-0.04856941273
 31
0.0
  0
LINE
  5
179
330
30
100
AcDbEntity
  8
1
100
AcDbLine
 10
32.947056639579
 20
-0.04856941273
 30
0.0
 11
33.007056639579
 21
-0.04704515513
 31
0.0
  0
LINE
  5
17A
330
30
100
AcDbEntity
  8
1
100
AcDbLine
 10
33.007056639579
 20
-0.04704515513
 30
0.0
 11
33.067056639579
 21
-0.045520689644
 31
0.0
  0
LINE
  5
17B
330
30
100
AcDbEntity
  8
1
100
AcDbLine
 10
33.067056639579
 20
-0.045520689644
 30
0.0
 11
33.127056639579
 21
-0.043996012322
 31
0.0
  0
LINE
  5
17C
330
30
100
AcDbEntity
  8
1
100
AcDbLine
 10
33.127056639579
 20
-0.043996012322
 30
0.0
 11
33.187056639579
 21
-0.042471119115
 31
0.0
  0
LINE
  5
17D
330
30
100
AcDbEntity
  8
1
100
AcDbLine
 10
33.187056639579
 20
-0.042471119115
 30
0.0
 11
33.247056639579
 21
-0.040946005869
 31
0.0
  0
LINE
  5
17E
330
30
100
AcDbEntity
  8
1
100
AcDbLine
 10
33.247056639579
 20
-0.040946005869
 30
0.0
 11
33.307056639579
 21
-0.039420668321
 31
0.0
  0
LINE
  5
17F
330
30
100
AcDbEntity
  8
1
100
AcDbLine
 10
33.307056639579
 20
-0.039420668321
 30
0.0
 11
33.367056639579
 21
-0.037895102099
 31
0.0
  0
LINE
  5
180
330
30
100
AcDbEntity
  8
1
100
AcDbLine
 10
33.367056639579
 20
-0.037895102099
 30
0.0
 11
33.427056639579
 21
-0.036369302714
 31
0.0
  0
LINE
  5
181
330
30
100
AcDbEntity
  8
1
100
AcDbLine
 10
33.427056639579
 20
-0.036369302714
 30
0.0
 11
33.487056639579
 21
-0.034843265559
 31
0.0
  0
LINE
  5
182
330
30
100
AcDbEntity
  8
1
100
AcDbLine
 10
33.487056639579
 20
-0.034843265559
 30
0.0
 11
33.547056639579
 21
-0.033316985903
 31
0.0
  0
LINE
  5
183
330
30
100
AcDbEntity
  8
1
100
AcDbLine
 10
33.547056639579
 20
-0.033316985903
 30
0.0
 11
33.607056639579
 21
-0.031790458889
 31
0.0
  0
LINE
  5
184
330
30
100
AcDbEntity
  8
1
100
AcDbLine
 10
33.607056639579
 20
-0.031790458889
 30
0.0
 11
33.667056639579
 21
-0.030263679528
 31
0.0
  0
LINE
  5
185
330
30
100
AcDbEntity
  8
1
100
AcDbLine
 10
33.667056639579
 20
-0.030263679528
 30
0.0
 11
33.727056639579
 21
-0.028736642695
 31
0.0
  0
LINE
  5
186
330
30
100
AcDbEntity
  8
1
100
AcDbLine
 10
33.727056639579
 20
-0.028736642695
 30
0.0
 11
33.787056639579
 21
-0.027209343124
 31
0.0
  0
LINE
  5
187
330
30
100
AcDbEntity
  8
1
100
AcDbLine
 10
33.787056639579
 20
-0.027209343124
 30
0.0
 11
33.847056639579
 21
-0.025681775406
 31
0.0
  0
LINE
  5
188
330
30
100
AcDbEntity
  8
1
100
AcDbLine
 10
33.847056639579
 20
-0.025681775406
 30
0.0
 11
33.907056639579
 21
-0.024153933977
 31
0.0
  0
LINE
  5
189
330
30
100
AcDbEntity
  8
1
100
AcDbLine
 10
33.907056639579
 20
-0.024153933977
 30
0.0
 11
33.967056639579
 21
-0.022625813121
 31
0.0
  0
LINE
  5
18A
330
30
100
AcDbEntity
  8
1
100
AcDbLine
 10
33.967056639579
 20
-0.022625813121
 30
0.0
 11
34.027056639579
 21
-0.021097406959
 31
0.0
  0
LINE
  5
18B
330
30
100
AcDbEntity
  8
1
100
AcDbLine
 10
34.027056639579
 20
-0.021097406959
 30
0.0
 11
34.087056639579
 21
-0.019568709445
 31
0.0
  0
LINE
  5
18C
330
30
100
AcDbEntity
  8
1
100
AcDbLine
 10
34.087056639579
 20
-0.019568709445
 30
0.0
 11
34.147056639579
 21
-0.018039714359
 31
0.0
  0
LINE
  5
18D
330
30
100
AcDbEntity
  8
1
100
AcDbLine
 10
34.147056639579
 20
-0.018039714359
 30
0.0
 11
34.207056639579
 21
-0.016510415303
 31
0.0
  0
LINE
  5
18E
330
30
100
AcDbEntity
  8
1
100
AcDbLine
 10
34.207056639579
 20
-0.016510415303
 30
0.0
 11
34.267056639579
 21
-0.014980805691
 31
0.0
  0
LINE
  5
18F
330
30
100
AcDbEntity
  8
1
100
AcDbLine
 10
34.267056639579
 20
-0.014980805691
 30
0.0
 11
34.327056639579
 21
-0.013450878746
 31
0.0
  0
LINE
  5
190
330
30
100
AcDbEntity
  8
1
100
AcDbLine
 10
34.327056639579
 20
-0.013450878746
 30
0.0
 11
34.387056639579
 21
-0.011920627488
 31
0.0
  0
LINE
  5
191
330
30
100
AcDbEntity
  8
1
100
AcDbLine
 10
34.387056639579
 20
-0.011920627488
 30
0.0
 11
34.447056639579
 21
-0.010390044733
 31
0.0
  0
LINE
  5
192
330
30
100
AcDbEntity
  8
1
100
AcDbLine
 10
34.447056639579
 20
-0.010390044733
 30
0.0
 11
34.507056639579
 21
-0.008859123079
 31
0.0
  0
LINE
  5
193
330
30
100
AcDbEntity
  8
1
100
AcDbLine
 10
34.507056639579
 20
-0.008859123079
 30
0.0
 11
34.567056639579
 21
-0.007327854901
 31
0.0
  0
LINE
  5
194
330
30
100
AcDbEntity
  8
1
100
AcDbLine
 10
34.567056639579
 20
-0.007327854901
 30
0.0
 11
34.627056639579
 21
-0.005796232342
 31
0.0
  0
LINE
  5
195
330
30
100
AcDbEntity
  8
1
100
AcDbLine
 10
34.627056639579
 20
-0.005796232342
 30
0.0
 11
34.687056639579
 21
-0.004264247303
 31
0.0
  0
LINE
  5
196
330
30
100
AcDbEntity
  8
1
100
AcDbLine
 10
34.687056639579
 20
-0.004264247303
 30
0.0
 11
34.747056639579
 21
-0.002731891435
 31
0.0
  0
LINE
  5
197
330
30
100
AcDbEntity
  8
1
100
AcDbLine
 10
34.747056639579
 20
-0.002731891435
 30
0.0
 11
34.807056639579
 21
-0.001199156128
 31
0.0
  0
LINE
  5
198
330
30
100
AcDbEntity
  8
1
100
AcDbLine
 10
34.807056639579
 20
-0.001199156128
 30
0.0
 11
34.867056639579
 21
0.0
 31
0.0
  0
LINE
  5
199
330
30
100
AcDbEntity
  8
1
100
AcDbLine
 10
34.867056639579
 20
0.0
 30
0.0
 11
34.927056639579
 21
0.0
 31
0.0
  0
LINE
  5
19A
330
30
100
AcDbEntity
  8
1
100
AcDbLine
 10
34.927056639579
 20
0.0
 30
0.0
 11
34.987056639579
 21
0.0
 31
0.0
  0
LINE
  5
19B
330
30
100
AcDbEntity
  8
1
100
AcDbLine
 10
34.987056639579
 20
0.0
 30
0.0
 11
35.047056639579
 21
0.0
 31
0.0
  0
LINE
  5
19C
330
30
100
AcDbEntity
  8
1
100
AcDbLine
 10
35.047056639579
 20
0.0
 30
0.0
 11
35.107056639579
 21
0.0
 31
0.0
  0
LINE
  5
19D
330
30
100
AcDbEntity
  8
1
100
AcDbLine
 10
35.107056639579
 20
0.0
 30
0.0
 11
35.167056639579
 21
0.0
 31
0.0
  0
LINE
  5
19E
330
30
100
AcDbEntity
  8
1
100
AcDbLine
 10
35.167056639579
 20
0.0
 30
0.0
 11
35.227056639579
 21
0.0
 31
0.0
  0
LINE
  5
19F
330
30
100
AcDbEntity
  8
1
100
AcDbLine
 10
35.227056639579
 20
0.0
 30
0.0
 11
35.287056639579
 21
0.0
 31
0.0
  0
LINE
  5
1A0
330
30
100
AcDbEntity
  8
1
100
AcDbLine
 10
35.287056639579
 20
0.0
 30
0.0
 11
35.347056639579
 21
0.0
 31
0.0
  0
LINE
  5
1A1
330
30
100
AcDbEntity
  8
1
100
AcDbLine
 10
35.347056639579
 20
0.0
 30
0.0
 11
35.407056639579
 21
0.0
 31
0.0
  0
LINE
  5
1A2
330
30
100
AcDbEntity
  8
1
100
AcDbLine
 10
35.407056639579
 20
0.0
 30
0.0
 11
35.467056639579
 21
0.0
 31
0.0
  0
LINE
  5
1A3
330
30
100
AcDbEntity
  8
1
100
AcDbLine
 10
35.467056639579
 20
0.0
 30
0.0
 11
35.527056639579
 21
0.0
 31
0.0
  0
LINE
  5
1A4
330
30
100
AcDbEntity
  8
1
100
AcDbLine
 10
35.527056639579
 20
0.0
 30
0.0
 11
35.587056639579
 21
0.0
 31
0.0
  0
LINE
  5
1A5
330
30
100
AcDbEntity
  8
1
100
AcDbLine
 10
35.587056639579
 20
0.0
 30
0.0
 11
35.647056639579
 21
0.0
 31
0.0
  0
LINE
  5
1A6
330
30
100
AcDbEntity
  8
1
100
AcDbLine
 10
35.647056639579
 20
0.0
 30
0.0
 11
35.707056639579
 21
0.0
 31
0.0
  0
LINE
  5
1A7
330
30
100
AcDbEntity
  8
1
100
AcDbLine
 10
35.707056639579
 20
0.0
 30
0.0
 11
35.767056639579
 21
0.0
 31
0.0
  0
LINE
  5
1A8
330
30
100
AcDbEntity
  8
1
100
AcDbLine
 10
35.767056639579
 20
0.0
 30
0.0
 11
35.827056639579
 21
0.0
 31
0.0
  0
LINE
  5
1A9
330
30
100
AcDbEntity
  8
1
100
AcDbLine
 10
35.827056639579
 20
0.0
 30
0.0
 11
35.887056639579
 21
0.0
 31
0.0
  0
LINE
  5
1AA
330
30
100
AcDbEntity
  8
1
100
AcDbLine
 10
35.887056639579
 20
0.0
 30
0.0
 11
35.947056639579
 21
0.0
 31
0.0
  0
LINE
  5
1AB
330
30
100
AcDbEntity
  8
1
100
AcDbLine
 10
35.947056639579
 20
0.0
 30
0.0
 11
36.007056639579
 21
0.0
 31
0.0
  0
LINE
  5
1AC
330
30
100
AcDbEntity
  8
1
100
AcDbLine
 10
36.007056639579
 20
0.0
 30
0.0
 11
36.067056639579
 21
0.0
 31
0.0
  0
LINE
  5
1AD
330
30
100
AcDbEntity
  8
1
100
AcDbLine
 10
36.067056639579
 20
0.0
 30
0.0
 11
36.127056639579
 21
0.0
 31
0.0
  0
LINE
  5
1AE
330
30
100
AcDbEntity
  8
1
100
AcDbLine
 10
36.127056639579
 20
0.0
 30
0.0
 11
36.187056639579
 21
0.0
 31
0.0
  0
LINE
  5
1AF
330
30
100
AcDbEntity
  8
1
100
AcDbLine
 10
36.187056639579
 20
0.0
 30
0.0
 11
36.247056639579
 21
0.0
 31
0.0
  0
LINE
  5
1B0
330
30
100
AcDbEntity
  8
1
100
AcDbLine
 10
36.247056639579
 20
0.0
 30
0.0
 11
36.307056639579
 21
0.0
 31
0.0
  0
LINE
  5
1B1
330
30
100
AcDbEntity
  8
1
100
AcDbLine
 10
36.307056639579
 20
0.0
 30
0.0
 11
36.367056639579
 21
0.0
 31
0.0
  0
LINE
  5
1B2
330
30
100
AcDbEntity
  8
1
100
AcDbLine
 10
36.367056639579
 20
0.0
 30
0.0
 11
36.427056639579
 21
0.0
 31
0.0
  0
LINE
  5
1B3
330
30
100
AcDbEntity
  8
1
100
AcDbLine
 10
36.427056639579
 20
0.0
 30
0.0
 11
36.487056639579
 21
0.0
 31
0.0
  0
LINE
  5
1B4
330
30
100
AcDbEntity
  8
1
100
AcDbLine
 10
36.487056639579
 20
0.0
 30
0.0
 11
36.547056639579
 21
0.0
 31
0.0
  0
LINE
  5
1B5
330
30
100
AcDbEntity
  8
1
100
AcDbLine
 10
36.547056639579
 20
0.0
 30
0.0
 11
36.607056639579
 21
0.0
 31
0.0
  0
LINE
  5
1B6
330
30
100
AcDbEntity
  8
1
100
AcDbLine
 10
36.607056639579
 20
0.0
 30
0.0
 11
36.667056639579
 21
0.0
 31
0.0
  0
LINE
  5
1B7
330
30
100
AcDbEntity
  8
1
100
AcDbLine
 10
36.667056639579
 20
0.0
 30
0.0
 11
36.727056639579
 21
0.0
 31
0.0
  0
LINE
  5
1B8
330
30
100
AcDbEntity
  8
1
100
AcDbLine
 10
36.727056639579
 20
0.0
 30
0.0
 11
36.787056639579
 21
0.0
 31
0.0
  0
LINE
  5
1B9
330
30
100
AcDbEntity
  8
1
100
AcDbLine
 10
36.787056639579
 20
0.0
 30
0.0
 11
36.847056639579
 21
0.0
 31
0.0
  0
LINE
  5
1BA
330
30
100
AcDbEntity
  8
1
100
AcDbLine
 10
36.847056639579
 20
0.0
 30
0.0
 11
36.907056639579
 21
0.0
 31
0.0
  0
LINE
  5
1BB
330
30
100
AcDbEntity
  8
1
100
AcDbLine
 10
36.907056639579
 20
0.0
 30
0.0
 11
36.967056639579
 21
0.0
 31
0.0
  0
LINE
  5
1BC
330
30
100
AcDbEntity
  8
1
100
AcDbLine
 10
36.967056639579
 20
0.0
 30
0.0
 11
37.027056639579
 21
0.0
 31
0.0
  0
LINE
  5
1BD
330
30
100
AcDbEntity
  8
1
100
AcDbLine
 10
37.027056639579
 20
0.0
 30
0.0
 11
37.087056639579
 21
0.0
 31
0.0
  0
LINE
  5
1BE
330
30
100
AcDbEntity
  8
1
100
AcDbLine
 10
37.087056639579
 20
0.0
 30
0.0
 11
37.147056639579
 21
0.0
 31
0.0
  0
LINE
  5
1BF
330
30
100
AcDbEntity
  8
1
100
AcDbLine
 10
37.147056639579
 20
0.0
 30
0.0
 11
37.207056639579
 21
0.0
 31
0.0
  0
LINE
  5
1C0
330
30
100
AcDbEntity
  8
1
100
AcDbLine
 10
37.207056639579
 20
0.0
 30
0.0
 11
37.267056639579
 21
0.0
 31
0.0
  0
LINE
  5
1C1
330
30
100
AcDbEntity
  8
1
100
AcDbLine
 10
37.267056639579
 20
0.0
 30
0.0
 11
37.327056639579
 21
0.0
 31
0.0
  0
LINE
  5
1C2
330
30
100
AcDbEntity
  8
1
100
AcDbLine
 10
37.327056639579
 20
0.0
 30
0.0
 11
37.387056639579
 21
0.0
 31
0.0
  0
LINE
  5
1C3
330
30
100
AcDbEntity
  8
1
100
AcDbLine
 10
37.387056639579
 20
0.0
 30
0.0
 11
37.447056639579
 21
0.0
 31
0.0
  0
LINE
  5
1C4
330
30
100
AcDbEntity
  8
1
100
AcDbLine
 10
37.447056639579
 20
0.0
 30
0.0
 11
37.507056639579
 21
0.0
 31
0.0
  0
LINE
  5
1C5
330
30
100
AcDbEntity
  8
1
100
AcDbLine
 10
37.507056639579
 20
0.0
 30
0.0
 11
37.567056639579
 21
0.0
 31
0.0
  0
LINE
  5
1C6
330
30
100
AcDbEntity
  8
1
100
AcDbLine
 10
37.567056639579
 20
0.0
 30
0.0
 11
37.627056639579
 21
0.0
 31
0.0
  0
LINE
  5
1C7
330
30
100
AcDbEntity
  8
1
100
AcDbLine
 10
37.627056639579
 20
0.0
 30
0.0
 11
37.687056639579
 21
0.0
 31
0.0
  0
LINE
  5
1C8
330
30
100
AcDbEntity
  8
1
100
AcDbLine
 10
37.687056639579
 20
0.0
 30
0.0
 11
37.747056639579
 21
0.0
 31
0.0
  0
LINE
  5
1C9
330
30
100
AcDbEntity
  8
1
100
AcDbLine
 10
37.747056639579
 20
0.0
 30
0.0
 11
37.807056639579
 21
0.0
 31
0.0
  0
LINE
  5
1CA
330
30
100
AcDbEntity
  8
1
100
AcDbLine
 10
37.807056639579
 20
0.0
 30
0.0
 11
37.867056639579
 21
0.0
 31
0.0
  0
LINE
  5
1CB
330
30
100
AcDbEntity
  8
1
100
AcDbLine
 10
37.867056639579
 20
0.0
 30
0.0
 11
37.927056639579
 21
0.0
 31
0.0
  0
LINE
  5
1CC
330
30
100
AcDbEntity
  8
1
100
AcDbLine
 10
37.927056639579
 20
0.0
 30
0.0
 11
37.987056639579
 21
0.0
 31
0.0
  0
LINE
  5
1CD
330
30
100
AcDbEntity
  8
1
100
AcDbLine
 10
37.987056639579
 20
0.0
 30
0.0
 11
38.047056639579
 21
0.0
 31
0.0
  0
LINE
  5
1CE
330
30
100
AcDbEntity
  8
1
100
AcDbLine
 10
38.047056639579
 20
0.0
 30
0.0
 11
38.107056639579
 21
0.0
 31
0.0
  0
LINE
  5
1CF
330
30
100
AcDbEntity
  8
1
100
AcDbLine
 10
38.107056639579
 20
0.0
 30
0.0
 11
38.167056639579
 21
0.0
 31
0.0
  0
LINE
  5
1D0
330
30
100
AcDbEntity
  8
1
100
AcDbLine
 10
38.167056639579
 20
0.0
 30
0.0
 11
38.227056639579
 21
0.0
 31
0.0
  0
LINE
  5
1D1
330
30
100
AcDbEntity
  8
1
100
AcDbLine
 10
38.227056639579
 20
0.0
 30
0.0
 11
38.287056639579
 21
0.0
 31
0.0
  0
LINE
  5
1D2
330
30
100
AcDbEntity
  8
1
100
AcDbLine
 10
38.287056639579
 20
0.0
 30
0.0
 11
38.347056639579
 21
0.0
 31
0.0
  0
LINE
  5
1D3
330
30
100
AcDbEntity
  8
1
100
AcDbLine
 10
38.347056639579
 20
0.0
 30
0.0
 11
38.407056639579
 21
0.0
 31
0.0
  0
LINE
  5
1D4
330
30
100
AcDbEntity
  8
1
100
AcDbLine
 10
38.407056639579
 20
0.0
 30
0.0
 11
38.467056639579
 21
0.0
 31
0.0
  0
LINE
  5
1D5
330
30
100
AcDbEntity
  8
1
100
AcDbLine
 10
38.467056639579
 20
0.0
 30
0.0
 11
38.527056639579
 21
0.0
 31
0.0
  0
LINE
  5
1D6
330
30
100
AcDbEntity
  8
1
100
AcDbLine
 10
38.527056639579
 20
0.0
 30
0.0
 11
38.587056639579
 21
0.0
 31
0.0
  0
LINE
  5
1D7
330
30
100
AcDbEntity
  8
1
100
AcDbLine
 10
38.587056639579
 20
0.0
 30
0.0
 11
38.647056639579
 21
0.0
 31
0.0
  0
LINE
  5
1D8
330
30
100
AcDbEntity
  8
1
100
AcDbLine
 10
38.647056639579
 20
0.0
 30
0.0
 11
38.707056639579
 21
0.0
 31
0.0
  0
LINE
  5
1D9
330
30
100
AcDbEntity
  8
1
100
AcDbLine
 10
38.707056639579
 20
0.0
 30
0.0
 11
38.767056639579
 21
0.0
 31
0.0
  0
LINE
  5
1DA
330
30
100
AcDbEntity
  8
1
100
AcDbLine
 10
38.767056639579
 20
0.0
 30
0.0
 11
38.827056639579
 21
0.0
 31
0.0
  0
LINE
  5
1DB
330
30
100
AcDbEntity
  8
1
100
AcDbLine
 10
38.827056639579
 20
0.0
 30
0.0
 11
38.887056639579
 21
0.0
 31
0.0
  0
LINE
  5
1DC
330
30
100
AcDbEntity
  8
1
100
AcDbLine
 10
38.887056639579
 20
0.0
 30
0.0
 11
38.947056639579
 21
0.0
 31
0.0
  0
LINE
  5
1DD
330
30
100
AcDbEntity
  8
1
100
AcDbLine
 10
38.947056639579
 20
0.0
 30
0.0
 11
39.007056639579
 21
0.0
 31
0.0
  0
LINE
  5
1DE
330
30
100
AcDbEntity
  8
1
100
AcDbLine
 10
39.007056639579
 20
0.0
 30
0.0
 11
39.067056639579
 21
0.0
 31
0.0
  0
LINE
  5
1DF
330
30
100
AcDbEntity
  8
1
100
AcDbLine
 10
39.067056639579
 20
0.0
 30
0.0
 11
39.127056639579
 21
0.0
 31
0.0
  0
LINE
  5
1E0
330
30
100
AcDbEntity
  8
1
100
AcDbLine
 10
39.127056639579
 20
0.0
 30
0.0
 11
39.187056639579
 21
0.0
 31
0.0
  0
LINE
  5
1E1
330
30
100
AcDbEntity
  8
1
100
AcDbLine
 10
39.187056639579
 20
0.0
 30
0.0
 11
39.247056639579
 21
0.0
 31
0.0
  0
LINE
  5
1E2
330
30
100
AcDbEntity
  8
1
100
AcDbLine
 10
39.247056639579
 20
0.0
 30
0.0
 11
39.307056639579
 21
0.0
 31
0.0
  0
LINE
  5
1E3
330
30
100
AcDbEntity
  8
1
100
AcDbLine
 10
39.307056639579
 20
0.0
 30
0.0
 11
39.367056639579
 21
0.0
 31
0.0
  0
LINE
  5
1E4
330
30
100
AcDbEntity
  8
1
100
AcDbLine
 10
39.367056639579
 20
0.0
 30
0.0
 11
39.427056639579
 21
0.0
 31
0.0
  0
LINE
  5
1E5
330
30
100
AcDbEntity
  8
1
100
AcDbLine
 10
39.427056639579
 20
0.0
 30
0.0
 11
39.487056639579
 21
0.0
 31
0.0
  0
LINE
  5
1E6
330
30
100
AcDbEntity
  8
1
100
AcDbLine
 10
39.487056639579
 20
0.0
 30
0.0
 11
39.547056639579
 21
0.0
 31
0.0
  0
LINE
  5
1E7
330
30
100
AcDbEntity
  8
1
100
AcDbLine
 10
39.547056639579
 20
0.0
 30
0.0
 11
39.607056639579
 21
0.0
 31
0.0
  0
LINE
  5
1E8
330
30
100
AcDbEntity
  8
1
100
AcDbLine
 10
39.607056639579
 20
0.0
 30
0.0
 11
39.667056639579
 21
0.0
 31
0.0
  0
LINE
  5
1E9
330
30
100
AcDbEntity
  8
1
100
AcDbLine
 10
39.667056639579
 20
0.0
 30
0.0
 11
39.727056639579
 21
0.0
 31
0.0
  0
LINE
  5
1EA
330
30
100
AcDbEntity
  8
1
100
AcDbLine
 10
39.727056639579
 20
0.0
 30
0.0
 11
39.787056639579
 21
0.0
 31
0.0
  0
LINE
  5
1EB
330
30
100
AcDbEntity
  8
1
100
AcDbLine
 10
39.787056639579
 20
0.0
 30
0.0
 11
39.847056639579
 21
0.0
 31
0.0
  0
LINE
  5
1EC
330
30
100
AcDbEntity
  8
1
100
AcDbLine
 10
39.847056639579
 20
0.0
 30
0.0
 11
39.907056639579
 21
0.0
 31
0.0
  0
LINE
  5
1ED
330
30
100
AcDbEntity
  8
1
100
AcDbLine
 10
39.907056639579
 20
0.0
 30
0.0
 11
39.967056639579
 21
0.0
 31
0.0
  0
LINE
  5
1EE
330
30
100
AcDbEntity
  8
1
100
AcDbLine
 10
39.967056639579
 20
0.0
 30
0.0
 11
40.027056639579
 21
0.0
 31
0.0
  0
LINE
  5
1EF
330
30
100
AcDbEntity
  8
1
100
AcDbLine
 10
40.027056639579
 20
0.0
 30
0.0
 11
40.087056639579
 21
0.0
 31
0.0
  0
LINE
  5
1F0
330
30
100
AcDbEntity
  8
1
100
AcDbLine
 10
40.087056639579
 20
0.0
 30
0.0
 11
40.147056639579
 21
0.0
 31
0.0
  0
LINE
  5
1F1
330
30
100
AcDbEntity
  8
1
100
AcDbLine
 10
40.147056639579
 20
0.0
 30
0.0
 11
40.207056639579
 21
0.0
 31
0.0
  0
LINE
  5
1F2
330
30
100
AcDbEntity
  8
1
100
AcDbLine
 10
40.207056639579
 20
0.0
 30
0.0
 11
40.267056639579
 21
0.0
 31
0.0
  0
LINE
  5
1F3
330
30
100
AcDbEntity
  8
1
100
AcDbLine
 10
40.267056639579
 20
0.0
 30
0.0
 11
40.327056639579
 21
0.0
 31
0.0
  0
LINE
  5
1F4
330
30
100
AcDbEntity
  8
1
100
AcDbLine
 10
40.327056639579
 20
0.0
 30
0.0
 11
40.387056639579
 21
0.0
 31
0.0
  0
LINE
  5
1F5
330
30
100
AcDbEntity
  8
1
100
AcDbLine
 10
40.387056639579
 20
0.0
 30
0.0
 11
40.447056639579
 21
0.0
 31
0.0
  0
LINE
  5
1F6
330
30
100
AcDbEntity
  8
1
100
AcDbLine
 10
40.447056639579
 20
0.0
 30
0.0
 11
40.507056639579
 21
0.0
 31
0.0
  0
LINE
  5
1F7
330
30
100
AcDbEntity
  8
1
100
AcDbLine
 10
40.507056639579
 20
0.0
 30
0.0
 11
40.567056639579
 21
0.0
 31
0.0
  0
LINE
  5
1F8
330
30
100
AcDbEntity
  8
1
100
AcDbLine
 10
40.567056639579
 20
0.0
 30
0.0
 11
40.627056639579
 21
0.0
 31
0.0
  0
LINE
  5
1F9
330
30
100
AcDbEntity
  8
1
100
AcDbLine
 10
40.627056639579
 20
0.0
 30
0.0
 11
40.687056639579
 21
0.0
 31
0.0
  0
LINE
  5
1FA
330
30
100
AcDbEntity
  8
1
100
AcDbLine
 10
40.687056639579
 20
0.0
 30
0.0
 11
40.747056639579
 21
0.0
 31
0.0
  0
LINE
  5
1FB
330
30
100
AcDbEntity
  8
1
100
AcDbLine
 10
40.747056639579
 20
0.0
 30
0.0
 11
40.807056639579
 21
0.0
 31
0.0
  0
LINE
  5
1FC
330
30
100
AcDbEntity
  8
1
100
AcDbLine
 10
40.807056639579
 20
0.0
 30
0.0
 11
40.867056639579
 21
0.0
 31
0.0
  0
LINE
  5
1FD
330
30
100
AcDbEntity
  8
1
100
AcDbLine
 10
40.867056639579
 20
0.0
 30
0.0
 11
40.927056639579
 21
0.0
 31
0.0
  0
LINE
  5
1FE
330
30
100
AcDbEntity
  8
1
100
AcDbLine
 10
40.927056639579
 20
0.0
 30
0.0
 11
40.987056639579
 21
0.0
 31
0.0
  0
LINE
  5
1FF
330
30
100
AcDbEntity
  8
1
100
AcDbLine
 10
40.987056639579
 20
0.0
 30
0.0
 11
41.047056639579
 21
0.0
 31
0.0
  0
LINE
  5
200
330
30
100
AcDbEntity
  8
1
100
AcDbLine
 10
41.047056639579
 20
0.0
 30
0.0
 11
41.107056639579
 21
0.0
 31
0.0
  0
LINE
  5
201
330
30
100
AcDbEntity
  8
1
100
AcDbLine
 10
41.107056639579
 20
0.0
 30
0.0
 11
41.167056639579
 21
0.0
 31
0.0
  0
LINE
  5
202
330
30
100
AcDbEntity
  8
1
100
AcDbLine
 10
41.167056639579
 20
0.0
 30
0.0
 11
41.227056639579
 21
0.0
 31
0.0
  0
LINE
  5
203
330
30
100
AcDbEntity
  8
1
100
AcDbLine
 10
41.227056639579
 20
0.0
 30
0.0
 11
41.287056639579
 21
0.0
 31
0.0
  0
LINE
  5
204
330
30
100
AcDbEntity
  8
1
100
AcDbLine
 10
41.287056639579
 20
0.0
 30
0.0
 11
41.347056639579
 21
0.0
 31
0.0
  0
LINE
  5
205
330
30
100
AcDbEntity
  8
1
100
AcDbLine
 10
41.347056639579
 20
0.0
 30
0.0
 11
41.407056639579
 21
0.0
 31
0.0
  0
LINE
  5
206
330
30
100
AcDbEntity
  8
1
100
AcDbLine
 10
41.407056639579
 20
0.0
 30
0.0
 11
41.467056639579
 21
0.0
 31
0.0
  0
LINE
  5
207
330
30
100
AcDbEntity
  8
1
100
AcDbLine
 10
41.467056639579
 20
0.0
 30
0.0
 11
41.527056639579
 21
0.0
 31
0.0
  0
LINE
  5
208
330
30
100
AcDbEntity
  8
1
100
AcDbLine
 10
41.527056639579
 20
0.0
 30
0.0
 11
41.587056639579
 21
0.0
 31
0.0
  0
LINE
  5
209
330
30
100
AcDbEntity
  8
1
100
AcDbLine
 10
41.587056639579
 20
0.0
 30
0.0
 11
41.647056639579
 21
0.0
 31
0.0
  0
LINE
  5
20A
330
30
100
AcDbEntity
  8
1
100
AcDbLine
 10
41.647056639579
 20
0.0
 30
0.0
 11
41.707056639579
 21
0.0
 31
0.0
  0
LINE
  5
20B
330
30
100
AcDbEntity
  8
1
100
AcDbLine
 10
41.707056639579
 20
0.0
 30
0.0
 11
41.767056639579
 21
0.0
 31
0.0
  0
LINE
  5
20C
330
30
100
AcDbEntity
  8
1
100
AcDbLine
 10
41.767056639579
 20
0.0
 30
0.0
 11
41.827056639579
 21
0.0
 31
0.0
  0
LINE
  5
20D
330
30
100
AcDbEntity
  8
1
100
AcDbLine
 10
41.827056639579
 20
0.0
 30
0.0
 11
41.887056639579
 21
0.0
 31
0.0
  0
LINE
  5
20E
330
30
100
AcDbEntity
  8
1
100
AcDbLine
 10
41.887056639579
 20
0.0
 30
0.0
 11
41.947056639579
 21
0.0
 31
0.0
  0
LINE
  5
20F
330
30
100
AcDbEntity
  8
1
100
AcDbLine
 10
41.947056639579
 20
0.0
 30
0.0
 11
42.007056639579
 21
0.0
 31
0.0
  0
LINE
  5
210
330
30
100
AcDbEntity
  8
1
100
AcDbLine
 10
42.007056639579
 20
0.0
 30
0.0
 11
42.067056639579
 21
0.0
 31
0.0
  0
LINE
  5
211
330
30
100
AcDbEntity
  8
1
100
AcDbLine
 10
42.067056639579
 20
0.0
 30
0.0
 11
42.127056639579
 21
0.0
 31
0.0
  0
LINE
  5
212
330
30
100
AcDbEntity
  8
1
100
AcDbLine
 10
42.127056639579
 20
0.0
 30
0.0
 11
42.187056639579
 21
0.0
 31
0.0
  0
LINE
  5
213
330
30
100
AcDbEntity
  8
1
100
AcDbLine
 10
42.187056639579
 20
0.0
 30
0.0
 11
42.247056639579
 21
0.0
 31
0.0
  0
LINE
  5
214
330
30
100
AcDbEntity
  8
1
100
AcDbLine
 10
42.247056639579
 20
0.0
 30
0.0
 11
42.307056639579
 21
0.0
 31
0.0
  0
LINE
  5
215
330
30
100
AcDbEntity
  8
1
100
AcDbLine
 10
42.307056639579
 20
0.0
 30
0.0
 11
42.367056639579
 21
0.0
 31
0.0
  0
LINE
  5
216
330
30
100
AcDbEntity
  8
1
100
AcDbLine
 10
42.367056639579
 20
0.0
 30
0.0
 11
42.427056639579
 21
0.0
 31
0.0
  0
LINE
  5
217
330
30
100
AcDbEntity
  8
1
100
AcDbLine
 10
42.427056639579
 20
0.0
 30
0.0
 11
42.487056639579
 21
0.0
 31
0.0
  0
LINE
  5
218
330
30
100
AcDbEntity
  8
1
100
AcDbLine
 10
42.487056639579
 20
0.0
 30
0.0
 11
42.547056639579
 21
0.0
 31
0.0
  0
LINE
  5
219
330
30
100
AcDbEntity
  8
1
100
AcDbLine
 10
42.547056639579
 20
0.0
 30
0.0
 11
42.607056639579
 21
0.0
 31
0.0
  0
LINE
  5
21A
330
30
100
AcDbEntity
  8
1
100
AcDbLine
 10
42.607056639579
 20
0.0
 30
0.0
 11
42.667056639579
 21
0.0
 31
0.0
  0
LINE
  5
21B
330
30
100
AcDbEntity
  8
1
100
AcDbLine
 10
42.667056639579
 20
0.0
 30
0.0
 11
42.727056639579
 21
0.0
 31
0.0
  0
LINE
  5
21C
330
30
100
AcDbEntity
  8
1
100
AcDbLine
 10
42.727056639579
 20
0.0
 30
0.0
 11
42.787056639579
 21
0.0
 31
0.0
  0
LINE
  5
21D
330
30
100
AcDbEntity
  8
1
100
AcDbLine
 10
42.787056639579
 20
0.0
 30
0.0
 11
42.847056639579
 21
0.0
 31
0.0
  0
LINE
  5
21E
330
30
100
AcDbEntity
  8
1
100
AcDbLine
 10
42.847056639579
 20
0.0
 30
0.0
 11
42.907056639579
 21
0.0
 31
0.0
  0
LINE
  5
21F
330
30
100
AcDbEntity
  8
1
100
AcDbLine
 10
42.907056639579
 20
0.0
 30
0.0
 11
42.967056639579
 21
0.0
 31
0.0
  0
LINE
  5
220
330
30
100
AcDbEntity
  8
1
100
AcDbLine
 10
42.967056639579
 20
0.0
 30
0.0
 11
43.027056639579
 21
0.0
 31
0.0
  0
LINE
  5
221
330
30
100
AcDbEntity
  8
1
100
AcDbLine
 10
43.027056639579
 20
0.0
 30
0.0
 11
43.087056639579
 21
0.0
 31
0.0
  0
LINE
  5
222
330
30
100
AcDbEntity
  8
1
100
AcDbLine
 10
43.087056639579
 20
0.0
 30
0.0
 11
43.147056639579
 21
0.0
 31
0.0
  0
LINE
  5
223
330
30
100
AcDbEntity
  8
1
100
AcDbLine
 10
43.147056639579
 20
0.0
 30
0.0
 11
43.207056639579
 21
0.0
 31
0.0
  0
LINE
  5
224
330
30
100
AcDbEntity
  8
1
100
AcDbLine
 10
43.207056639579
 20
0.0
 30
0.0
 11
43.267056639579
 21
0.0
 31
0.0
  0
LINE
  5
225
330
30
100
AcDbEntity
  8
1
100
AcDbLine
 10
43.267056639579
 20
0.0
 30
0.0
 11
43.327056639579
 21
0.0
 31
0.0
  0
LINE
  5
226
330
30
100
AcDbEntity
  8
1
100
AcDbLine
 10
43.327056639579
 20
0.0
 30
0.0
 11
43.387056639579
 21
0.0
 31
0.0
  0
LINE
  5
227
330
30
100
AcDbEntity
  8
1
100
AcDbLine
 10
43.387056639579
 20
0.0
 30
0.0
 11
43.447056639579
 21
0.0
 31
0.0
  0
LINE
  5
228
330
30
100
AcDbEntity
  8
1
100
AcDbLine
 10
43.447056639579
 20
0.0
 30
0.0
 11
43.507056639579
 21
0.0
 31
0.0
  0
LINE
  5
229
330
30
100
AcDbEntity
  8
1
100
AcDbLine
 10
43.507056639579
 20
0.0
 30
0.0
 11
43.567056639579
 21
0.0
 31
0.0
  0
LINE
  5
22A
330
30
100
AcDbEntity
  8
1
100
AcDbLine
 10
43.567056639579
 20
0.0
 30
0.0
 11
43.627056639579
 21
0.0
 31
0.0
  0
LINE
  5
22B
330
30
100
AcDbEntity
  8
1
100
AcDbLine
 10
43.627056639579
 20
0.0
 30
0.0
 11
43.687056639579
 21
0.0
 31
0.0
  0
LINE
  5
22C
330
30
100
AcDbEntity
  8
1
100
AcDbLine
 10
43.687056639579
 20
0.0
 30
0.0
 11
43.747056639579
 21
0.0
 31
0.0
  0
LINE
  5
22D
330
30
100
AcDbEntity
  8
1
100
AcDbLine
 10
43.747056639579
 20
0.0
 30
0.0
 11
43.807056639579
 21
0.0
 31
0.0
  0
LINE
  5
22E
330
30
100
AcDbEntity
  8
1
100
AcDbLine
 10
43.807056639579
 20
0.0
 30
0.0
 11
43.867056639579
 21
0.0
 31
0.0
  0
LINE
  5
22F
330
30
100
AcDbEntity
  8
1
100
AcDbLine
 10
43.867056639579
 20
0.0
 30
0.0
 11
43.927056639579
 21
0.0
 31
0.0
  0
LINE
  5
230
330
30
100
AcDbEntity
  8
1
100
AcDbLine
 10
43.927056639579
 20
0.0
 30
0.0
 11
43.987056639579
 21
0.0
 31
0.0
  0
LINE
  5
231
330
30
100
AcDbEntity
  8
1
100
AcDbLine
 10
43.987056639579
 20
0.0
 30
0.0
 11
44.047056639579
 21
0.0
 31
0.0
  0
LINE
  5
232
330
30
100
AcDbEntity
  8
1
100
AcDbLine
 10
44.047056639579
 20
0.0
 30
0.0
 11
44.107056639579
 21
0.0
 31
0.0
  0
LINE
  5
233
330
30
100
AcDbEntity
  8
1
100
AcDbLine
 10
44.107056639579
 20
0.0
 30
0.0
 11
44.167056639579
 21
0.0
 31
0.0
  0
LINE
  5
234
330
30
100
AcDbEntity
  8
1
100
AcDbLine
 10
44.167056639579
 20
0.0
 30
0.0
 11
44.227056639579
 21
0.0
 31
0.0
  0
LINE
  5
235
330
30
100
AcDbEntity
  8
1
100
AcDbLine
 10
44.227056639579
 20
0.0
 30
0.0
 11
44.287056639579
 21
0.0
 31
0.0
  0
LINE
  5
236
330
30
100
AcDbEntity
  8
1
100
AcDbLine
 10
44.287056639579
 20
0.0
 30
0.0
 11
44.347056639579
 21
0.0
 31
0.0
  0
LINE
  5
237
330
30
100
AcDbEntity
  8
1
100
AcDbLine
 10
44.347056639579
 20
0.0
 30
0.0
 11
44.407056639579
 21
0.0
 31
0.0
  0
LINE
  5
238
330
30
100
AcDbEntity
  8
1
100
AcDbLine
 10
44.407056639579
 20
0.0
 30
0.0
 11
44.467056639579
 21
0.0
 31
0.0
  0
LINE
  5
239
330
30
100
AcDbEntity
  8
1
100
AcDbLine
 10
44.467056639579
 20
0.0
 30
0.0
 11
44.527056639579
 21
0.0
 31
0.0
  0
LINE
  5
23A
330
30
100
AcDbEntity
  8
1
100
AcDbLine
 10
44.527056639579
 20
0.0
 30
0.0
 11
44.587056639579
 21
0.0
 31
0.0
  0
LINE
  5
23B
330
30
100
AcDbEntity
  8
1
100
AcDbLine
 10
44.587056639579
 20
0.0
 30
0.0
 11
44.647056639579
 21
0.0
 31
0.0
  0
LINE
  5
23C
330
30
100
AcDbEntity
  8
1
100
AcDbLine
 10
44.647056639579
 20
0.0
 30
0.0
 11
44.707056639579
 21
0.0
 31
0.0
  0
LINE
  5
23D
330
30
100
AcDbEntity
  8
1
100
AcDbLine
 10
44.707056639579
 20
0.0
 30
0.0
 11
44.767056639579
 21
0.0
 31
0.0
  0
LINE
  5
23E
330
30
100
AcDbEntity
  8
1
100
AcDbLine
 10
44.767056639579
 20
0.0
 30
0.0
 11
44.827056639579
 21
0.0
 31
0.0
  0
LINE
  5
23F
330
30
100
AcDbEntity
  8
1
100
AcDbLine
 10
44.827056639579
 20
0.0
 30
0.0
 11
44.887056639579
 21
0.0
 31
0.0
  0
LINE
  5
240
330
30
100
AcDbEntity
  8
1
100
AcDbLine
 10
44.887056639579
 20
0.0
 30
0.0
 11
44.947056639579
 21
0.0
 31
0.0
  0
LINE
  5
241
330
30
100
AcDbEntity
  8
1
100
AcDbLine
 10
44.947056639579
 20
0.0
 30
0.0
 11
45.007056639579
 21
0.0
 31
0.0
  0
LINE
  5
242
330
30
100
AcDbEntity
  8
1
100
AcDbLine
 10
45.007056639579
 20
0.0
 30
0.0
 11
45.067056639579
 21
0.0
 31
0.0
  0
LINE
  5
243
330
30
100
AcDbEntity
  8
1
100
AcDbLine
 10
45.067056639579
 20
0.0
 30
0.0
 11
45.127056639579
 21
0.0
 31
0.0
  0
LINE
  5
244
330
30
100
AcDbEntity
  8
1
100
AcDbLine
 10
45.127056639579
 20
0.0
 30
0.0
 11
45.187056639579
 21
0.000832904779
 31
0.0
  0
LINE
  5
245
330
30
100
AcDbEntity
  8
1
100
AcDbLine
 10
45.187056639579
 20
0.000832904779
 30
0.0
 11
45.247056639579
 21
0.002344430659
 31
0.0
  0
LINE
  5
246
330
30
100
AcDbEntity
  8
1
100
AcDbLine
 10
45.247056639579
 20
0.002344430659
 30
0.0
 11
45.307056639579
 21
0.003856354735
 31
0.0
  0
LINE
  5
247
330
30
100
AcDbEntity
  8
1
100
AcDbLine
 10
45.307056639579
 20
0.003856354735
 30
0.0
 11
45.367056639579
 21
0.005368686443
 31
0.0
  0
LINE
  5
248
330
30
100
AcDbEntity
  8
1
100
AcDbLine
 10
45.367056639579
 20
0.005368686443
 30
0.0
 11
45.427056639579
 21
0.006881435519
 31
0.0
  0
LINE
  5
249
330
30
100
AcDbEntity
  8
1
100
AcDbLine
 10
45.427056639579
 20
0.006881435519
 30
0.0
 11
45.487056639579
 21
0.008394612018
 31
0.0
  0
LINE
  5
24A
330
30
100
AcDbEntity
  8
1
100
AcDbLine
 10
45.487056639579
 20
0.008394612018
 30
0.0
 11
45.547056639579
 21
0.009908226322
 31
0.0
  0
LINE
  5
24B
330
30
100
AcDbEntity
  8
1
100
AcDbLine
 10
45.547056639579
 20
0.009908226322
 30
0.0
 11
45.607056639579
 21
0.011422289153
 31
0.0
  0
LINE
  5
24C
330
30
100
AcDbEntity
  8
1
100
AcDbLine
 10
45.607056639579
 20
0.011422289153
 30
0.0
 11
45.667056639579
 21
0.012936811594
 31
0.0
  0
LINE
  5
24D
330
30
100
AcDbEntity
  8
1
100
AcDbLine
 10
45.667056639579
 20
0.012936811594
 30
0.0
 11
45.727056639579
 21
0.014451805096
 31
0.0
  0
LINE
  5
24E
330
30
100
AcDbEntity
  8
1
100
AcDbLine
 10
45.727056639579
 20
0.014451805096
 30
0.0
 11
45.787056639579
 21
0.015967281498
 31
0.0
  0
LINE
  5
24F
330
30
100
AcDbEntity
  8
1
100
AcDbLine
 10
45.787056639579
 20
0.015967281498
 30
0.0
 11
45.847056639579
 21
0.017483253045
 31
0.0
  0
LINE
  5
250
330
30
100
AcDbEntity
  8
1
100
AcDbLine
 10
45.847056639579
 20
0.017483253045
 30
0.0
 11
45.907056639579
 21
0.0189997324
 31
0.0
  0
LINE
  5
251
330
30
100
AcDbEntity
  8
1
100
AcDbLine
 10
45.907056639579
 20
0.0189997324
 30
0.0
 11
45.967056639579
 21
0.02051673267
 31
0.0
  0
LINE
  5
252
330
30
100
AcDbEntity
  8
1
100
AcDbLine
 10
45.967056639579
 20
0.02051673267
 30
0.0
 11
46.027056639579
 21
0.02203426742
 31
0.0
  0
LINE
  5
253
330
30
100
AcDbEntity
  8
1
100
AcDbLine
 10
46.027056639579
 20
0.02203426742
 30
0.0
 11
46.087056639579
 21
0.023552350693
 31
0.0
  0
LINE
  5
254
330
30
100
AcDbEntity
  8
1
100
AcDbLine
 10
46.087056639579
 20
0.023552350693
 30
0.0
 11
46.147056639579
 21
0.025070997039
 31
0.0
  0
LINE
  5
255
330
30
100
AcDbEntity
  8
1
100
AcDbLine
 10
46.147056639579
 20
0.025070997039
 30
0.0
 11
46.207056639579
 21
0.026590221527
 31
0.0
  0
LINE
  5
256
330
30
100
AcDbEntity
  8
1
100
AcDbLine
 10
46.207056639579
 20
0.026590221527
 30
0.0
 11
46.267056639579
 21
0.028110039778
 31
0.0
  0
LINE
  5
257
330
30
100
AcDbEntity
  8
1
100
AcDbLine
 10
46.267056639579
 20
0.028110039778
 30
0.0
 11
46.327056639579
 21
0.029630467986
 31
0.0
  0
LINE
  5
258
330
30
100
AcDbEntity
  8
1
100
AcDbLine
 10
46.327056639579
 20
0.029630467986
 30
0.0
 11
46.387056639579
 21
0.031151522948
 31
0.0
  0
LINE
  5
259
330
30
100
AcDbEntity
  8
1
100
AcDbLine
 10
46.387056639579
 20
0.031151522948
 30
0.0
 11
46.447056639579
 21
0.032673222089
 31
0.0
  0
LINE
  5
25A
330
30
100
AcDbEntity
  8
1
100
AcDbLine
 10
46.447056639579
 20
0.032673222089
 30
0.0
 11
46.507056639579
 21
0.034195583493
 31
0.0
  0
LINE
  5
25B
330
30
100
AcDbEntity
  8
1
100
AcDbLine
 10
46.507056639579
 20
0.034195583493
 30
0.0
 11
46.567056639579
 21
0.035718625939
 31
0.0
  0
LINE
  5
25C
330
30
100
AcDbEntity
  8
1
100
AcDbLine
 10
46.567056639579
 20
0.035718625939
 30
0.0
 11
46.627056639579
 21
0.037242368927
 31
0.0
  0
LINE
  5
25D
330
30
100
AcDbEntity
  8
1
100
AcDbLine
 10
46.627056639579
 20
0.037242368927
 30
0.0
 11
46.687056639579
 21
0.038766832723
 31
0.0
  0
LINE
  5
25E
330
30
100
AcDbEntity
  8
1
100
AcDbLine
 10
46.687056639579
 20
0.038766832723
 30
0.0
 11
46.747056639579
 21
0.040292038389
 31
0.0
  0
LINE
  5
25F
330
30
100
AcDbEntity
  8
1
100
AcDbLine
 10
46.747056639579
 20
0.040292038389
 30
0.0
 11
46.807056639579
 21
0.041818007827
 31
0.0
  0
LINE
  5
260
330
30
100
AcDbEntity
  8
1
100
AcDbLine
 10
46.807056639579
 20
0.041818007827
 30
0.0
 11
46.867056639579
 21
0.043344763823
 31
0.0
  0
LINE
  5
261
330
30
100
AcDbEntity
  8
1
100
AcDbLine
 10
46.867056639579
 20
0.043344763823
 30
0.0
 11
46.927056639579
 21
0.044872330089
 31
0.0
  0
LINE
  5
262
330
30
100
AcDbEntity
  8
1
100
AcDbLine
 10
46.927056639579
 20
0.044872330089
 30
0.0
 11
46.987056639579
 21
0.051235186188
 31
0.0
  0
LINE
  5
263
330
30
100
AcDbEntity
  8
1
100
AcDbLine
 10
46.987056639579
 20
0.051235186188
 30
0.0
 11
47.047056639579
 21
0.061569978937
 31
0.0
  0
LINE
  5
264
330
30
100
AcDbEntity
  8
1
100
AcDbLine
 10
47.047056639579
 20
0.061569978937
 30
0.0
 11
47.107056639579
 21
0.071958751383
 31
0.0
  0
LINE
  5
265
330
30
100
AcDbEntity
  8
1
100
AcDbLine
 10
47.107056639579
 20
0.071958751383
 30
0.0
 11
47.167056639579
 21
0.082416210484
 31
0.0
  0
LINE
  5
266
330
30
100
AcDbEntity
  8
1
100
AcDbLine
 10
47.167056639579
 20
0.082416210484
 30
0.0
 11
47.227056639579
 21
0.092963106524
 31
0.0
  0
LINE
  5
267
330
30
100
AcDbEntity
  8
1
100
AcDbLine
 10
47.227056639579
 20
0.092963106524
 30
0.0
 11
47.287056639579
 21
0.103629807369
 31
0.0
  0
LINE
  5
268
330
30
100
AcDbEntity
  8
1
100
AcDbLine
 10
47.287056639579
 20
0.103629807369
 30
0.0
 11
47.347056639579
 21
0.114462861576
 31
0.0
  0
LINE
  5
269
330
30
100
AcDbEntity
  8
1
100
AcDbLine
 10
47.347056639579
 20
0.114462861576
 30
0.0
 11
47.407056639579
 21
0.125538094474
 31
0.0
  0
LINE
  5
26A
330
30
100
AcDbEntity
  8
1
100
AcDbLine
 10
47.407056639579
 20
0.125538094474
 30
0.0
 11
47.467056639579
 21
0.136989889768
 31
0.0
  0
LINE
  5
26B
330
30
100
AcDbEntity
  8
1
100
AcDbLine
 10
47.467056639579
 20
0.136989889768
 30
0.0
 11
47.527056639579
 21
0.149088630548
 31
0.0
  0
LINE
  5
26C
330
30
100
AcDbEntity
  8
1
100
AcDbLine
 10
47.527056639579
 20
0.149088630548
 30
0.0
 11
47.587056639579
 21
0.162512453077
 31
0.0
  0
LINE
  5
26D
330
30
100
AcDbEntity
  8
1
100
AcDbLine
 10
47.587056639579
 20
0.268613093093
 30
0.0
 11
47.587056639579
 21
0.162512453077
 31
0.0
  0
LINE
  5
26E
330
30
100
AcDbEntity
  8
1
100
AcDbLine
 10
47.587056639579
 20
0.162512453077
 30
0.0
 11
47.587056639579
 21
0.268613093093
 31
0.0
  0
LINE
  5
26F
330
30
100
AcDbEntity
  8
1
100
AcDbLine
 10
47.587056639579
 20
0.268613093093
 30
0.0
 11
47.527056639579
 21
0.32540196025
 31
0.0
  0
LINE
  5
270
330
30
100
AcDbEntity
  8
1
100
AcDbLine
 10
47.527056639579
 20
0.32540196025
 30
0.0
 11
47.467056639579
 21
0.381566096159
 31
0.0
  0
LINE
  5
271
330
30
100
AcDbEntity
  8
1
100
AcDbLine
 10
47.467056639579
 20
0.381566096159
 30
0.0
 11
47.407056639579
 21
0.437391662092
 31
0.0
  0
LINE
  5
272
330
30
100
AcDbEntity
  8
1
100
AcDbLine
 10
47.407056639579
 20
0.437391662092
 30
0.0
 11
47.347056639579
 21
0.492994950942
 31
0.0
  0
LINE
  5
273
330
30
100
AcDbEntity
  8
1
100
AcDbLine
 10
47.347056639579
 20
0.492994950942
 30
0.0
 11
47.287056639579
 21
0.548444239102
 31
0.0
  0
LINE
  5
274
330
30
100
AcDbEntity
  8
1
100
AcDbLine
 10
47.287056639579
 20
0.548444239102
 30
0.0
 11
47.227056639579
 21
0.603782336279
 31
0.0
  0
LINE
  5
275
330
30
100
AcDbEntity
  8
1
100
AcDbLine
 10
47.227056639579
 20
0.603782336279
 30
0.0
 11
47.167056639579
 21
0.659037481903
 31
0.0
  0
LINE
  5
276
330
30
100
AcDbEntity
  8
1
100
AcDbLine
 10
47.167056639579
 20
0.659037481903
 30
0.0
 11
47.107056639579
 21
0.714229073837
 31
0.0
  0
LINE
  5
277
330
30
100
AcDbEntity
  8
1
100
AcDbLine
 10
47.107056639579
 20
0.714229073837
 30
0.0
 11
47.047056639579
 21
0.769370885289
 31
0.0
  0
LINE
  5
278
330
30
100
AcDbEntity
  8
1
100
AcDbLine
 10
47.047056639579
 20
0.769370885289
 30
0.0
 11
46.987056639579
 21
0.824472969735
 31
0.0
  0
LINE
  5
279
330
30
100
AcDbEntity
  8
1
100
AcDbLine
 10
46.987056639579
 20
0.824472969735
 30
0.0
 11
46.927056639579
 21
0.858499562192
 31
0.0
  0
LINE
  5
27A
330
30
100
AcDbEntity
  8
1
100
AcDbLine
 10
46.927056639579
 20
0.858499562192
 30
0.0
 11
46.867056639579
 21
0.866678749588
 31
0.0
  0
LINE
  5
27B
330
30
100
AcDbEntity
  8
1
100
AcDbLine
 10
46.867056639579
 20
0.866678749588
 30
0.0
 11
46.807056639579
 21
0.874857328366
 31
0.0
  0
LINE
  5
27C
330
30
100
AcDbEntity
  8
1
100
AcDbLine
 10
46.807056639579
 20
0.874857328366
 30
0.0
 11
46.747056639579
 21
0.883035315543
 31
0.0
  0
LINE
  5
27D
330
30
100
AcDbEntity
  8
1
100
AcDbLine
 10
46.747056639579
 20
0.883035315543
 30
0.0
 11
46.687056639579
 21
0.891212727502
 31
0.0
  0
LINE
  5
27E
330
30
100
AcDbEntity
  8
1
100
AcDbLine
 10
46.687056639579
 20
0.891212727502
 30
0.0
 11
46.627056639579
 21
0.899389580027
 31
0.0
  0
LINE
  5
27F
330
30
100
AcDbEntity
  8
1
100
AcDbLine
 10
46.627056639579
 20
0.899389580027
 30
0.0
 11
46.567056639579
 21
0.907565888328
 31
0.0
  0
LINE
  5
280
330
30
100
AcDbEntity
  8
1
100
AcDbLine
 10
46.567056639579
 20
0.907565888328
 30
0.0
 11
46.507056639579
 21
0.91574166707
 31
0.0
  0
LINE
  5
281
330
30
100
AcDbEntity
  8
1
100
AcDbLine
 10
46.507056639579
 20
0.91574166707
 30
0.0
 11
46.447056639579
 21
0.923916930392
 31
0.0
  0
LINE
  5
282
330
30
100
AcDbEntity
  8
1
100
AcDbLine
 10
46.447056639579
 20
0.923916930392
 30
0.0
 11
46.387056639579
 21
0.932091691934
 31
0.0
  0
LINE
  5
283
330
30
100
AcDbEntity
  8
1
100
AcDbLine
 10
46.387056639579
 20
0.932091691934
 30
0.0
 11
46.327056639579
 21
0.940265964859
 31
0.0
  0
LINE
  5
284
330
30
100
AcDbEntity
  8
1
100
AcDbLine
 10
46.327056639579
 20
0.940265964859
 30
0.0
 11
46.267056639579
 21
0.948439761873
 31
0.0
  0
LINE
  5
285
330
30
100
AcDbEntity
  8
1
100
AcDbLine
 10
46.267056639579
 20
0.948439761873
 30
0.0
 11
46.207056639579
 21
0.956613095242
 31
0.0
  0
LINE
  5
286
330
30
100
AcDbEntity
  8
1
100
AcDbLine
 10
46.207056639579
 20
0.956613095242
 30
0.0
 11
46.147056639579
 21
0.964785976818
 31
0.0
  0
LINE
  5
287
330
30
100
AcDbEntity
  8
1
100
AcDbLine
 10
46.147056639579
 20
0.964785976818
 30
0.0
 11
46.087056639579
 21
0.972958418047
 31
0.0
  0
LINE
  5
288
330
30
100
AcDbEntity
  8
1
100
AcDbLine
 10
46.087056639579
 20
0.972958418047
 30
0.0
 11
46.027056639579
 21
0.981130429994
 31
0.0
  0
LINE
  5
289
330
30
100
AcDbEntity
  8
1
100
AcDbLine
 10
46.027056639579
 20
0.981130429994
 30
0.0
 11
45.967056639579
 21
0.989302023355
 31
0.0
  0
LINE
  5
28A
330
30
100
AcDbEntity
  8
1
100
AcDbLine
 10
45.967056639579
 20
0.989302023355
 30
0.0
 11
45.907056639579
 21
0.997473208473
 31
0.0
  0
LINE
  5
28B
330
30
100
AcDbEntity
  8
1
100
AcDbLine
 10
45.907056639579
 20
0.997473208473
 30
0.0
 11
45.847056639579
 21
1.005643995352
 31
0.0
  0
LINE
  5
28C
330
30
100
AcDbEntity
  8
1
100
AcDbLine
 10
45.847056639579
 20
1.005643995352
 30
0.0
 11
45.787056639579
 21
1.013814393673
 31
0.0
  0
LINE
  5
28D
330
30
100
AcDbEntity
  8
1
100
AcDbLine
 10
45.787056639579
 20
1.013814393673
 30
0.0
 11
45.727056639579
 21
1.021984412803
 31
0.0
  0
LINE
  5
28E
330
30
100
AcDbEntity
  8
1
100
AcDbLine
 10
45.727056639579
 20
1.021984412803
 30
0.0
 11
45.667056639579
 21
1.030154061812
 31
0.0
  0
LINE
  5
28F
330
30
100
AcDbEntity
  8
1
100
AcDbLine
 10
45.667056639579
 20
1.030154061812
 30
0.0
 11
45.607056639579
 21
1.038323349481
 31
0.0
  0
LINE
  5
290
330
30
100
AcDbEntity
  8
1
100
AcDbLine
 10
45.607056639579
 20
1.038323349481
 30
0.0
 11
45.547056639579
 21
1.046492284316
 31
0.0
  0
LINE
  5
291
330
30
100
AcDbEntity
  8
1
100
AcDbLine
 10
45.547056639579
 20
1.046492284316
 30
0.0
 11
45.487056639579
 21
1.054660874558
 31
0.0
  0
LINE
  5
292
330
30
100
AcDbEntity
  8
1
100
AcDbLine
 10
45.487056639579
 20
1.054660874558
 30
0.0
 11
45.427056639579
 21
1.062829128192
 31
0.0
  0
LINE
  5
293
330
30
100
AcDbEntity
  8
1
100
AcDbLine
 10
45.427056639579
 20
1.062829128192
 30
0.0
 11
45.367056639579
 21
1.070997052959
 31
0.0
  0
LINE
  5
294
330
30
100
AcDbEntity
  8
1
100
AcDbLine
 10
45.367056639579
 20
1.070997052959
 30
0.0
 11
45.307056639579
 21
1.079164656363
 31
0.0
  0
LINE
  5
295
330
30
100
AcDbEntity
  8
1
100
AcDbLine
 10
45.307056639579
 20
1.079164656363
 30
0.0
 11
45.247056639579
 21
1.087331945681
 31
0.0
  0
LINE
  5
296
330
30
100
AcDbEntity
  8
1
100
AcDbLine
 10
45.247056639579
 20
1.087331945681
 30
0.0
 11
45.187056639579
 21
1.095498927974
 31
0.0
  0
LINE
  5
297
330
30
100
AcDbEntity
  8
1
100
AcDbLine
 10
45.187056639579
 20
1.095498927974
 30
0.0
 11
45.127056639579
 21
1.1
 31
0.0
  0
LINE
  5
298
330
30
100
AcDbEntity
  8
1
100
AcDbLine
 10
45.127056639579
 20
1.1
 30
0.0
 11
45.067056639579
 21
1.1
 31
0.0
  0
LINE
  5
299
330
30
100
AcDbEntity
  8
1
100
AcDbLine
 10
45.067056639579
 20
1.1
 30
0.0
 11
45.007056639579
 21
1.1
 31
0.0
  0
LINE
  5
29A
330
30
100
AcDbEntity
  8
1
100
AcDbLine
 10
45.007056639579
 20
1.1
 30
0.0
 11
44.947056639579
 21
1.1
 31
0.0
  0
LINE
  5
29B
330
30
100
AcDbEntity
  8
1
100
AcDbLine
 10
44.947056639579
 20
1.1
 30
0.0
 11
44.887056639579
 21
1.1
 31
0.0
  0
LINE
  5
29C
330
30
100
AcDbEntity
  8
1
100
AcDbLine
 10
44.887056639579
 20
1.1
 30
0.0
 11
44.827056639579
 21
1.1
 31
0.0
  0
LINE
  5
29D
330
30
100
AcDbEntity
  8
1
100
AcDbLine
 10
44.827056639579
 20
1.1
 30
0.0
 11
44.767056639579
 21
1.1
 31
0.0
  0
LINE
  5
29E
330
30
100
AcDbEntity
  8
1
100
AcDbLine
 10
44.767056639579
 20
1.1
 30
0.0
 11
44.707056639579
 21
1.1
 31
0.0
  0
LINE
  5
29F
330
30
100
AcDbEntity
  8
1
100
AcDbLine
 10
44.707056639579
 20
1.1
 30
0.0
 11
44.647056639579
 21
1.1
 31
0.0
  0
LINE
  5
2A0
330
30
100
AcDbEntity
  8
1
100
AcDbLine
 10
44.647056639579
 20
1.1
 30
0.0
 11
44.587056639579
 21
1.1
 31
0.0
  0
LINE
  5
2A1
330
30
100
AcDbEntity
  8
1
100
AcDbLine
 10
44.587056639579
 20
1.1
 30
0.0
 11
44.527056639579
 21
1.1
 31
0.0
  0
LINE
  5
2A2
330
30
100
AcDbEntity
  8
1
100
AcDbLine
 10
44.527056639579
 20
1.1
 30
0.0
 11
44.467056639579
 21
1.1
 31
0.0
  0
LINE
  5
2A3
330
30
100
AcDbEntity
  8
1
100
AcDbLine
 10
44.467056639579
 20
1.1
 30
0.0
 11
44.407056639579
 21
1.1
 31
0.0
  0
LINE
  5
2A4
330
30
100
AcDbEntity
  8
1
100
AcDbLine
 10
44.407056639579
 20
1.1
 30
0.0
 11
44.347056639579
 21
1.1
 31
0.0
  0
LINE
  5
2A5
330
30
100
AcDbEntity
  8
1
100
AcDbLine
 10
44.347056639579
 20
1.1
 30
0.0
 11
44.287056639579
 21
1.1
 31
0.0
  0
LINE
  5
2A6
330
30
100
AcDbEntity
  8
1
100
AcDbLine
 10
44.287056639579
 20
1.1
 30
0.0
 11
44.227056639579
 21
1.1
 31
0.0
  0
LINE
  5
2A7
330
30
100
AcDbEntity
  8
1
100
AcDbLine
 10
44.227056639579
 20
1.1
 30
0.0
 11
44.167056639579
 21
1.1
 31
0.0
  0
LINE
  5
2A8
330
30
100
AcDbEntity
  8
1
100
AcDbLine
 10
44.167056639579
 20
1.1
 30
0.0
 11
44.107056639579
 21
1.1
 31
0.0
  0
LINE
  5
2A9
330
30
100
AcDbEntity
  8
1
100
AcDbLine
 10
44.107056639579
 20
1.1
 30
0.0
 11
44.047056639579
 21
1.1
 31
0.0
  0
LINE
  5
2AA
330
30
100
AcDbEntity
  8
1
100
AcDbLine
 10
44.047056639579
 20
1.1
 30
0.0
 11
43.987056639579
 21
1.1
 31
0.0
  0
LINE
  5
2AB
330
30
100
AcDbEntity
  8
1
100
AcDbLine
 10
43.987056639579
 20
1.1
 30
0.0
 11
43.927056639579
 21
1.1
 31
0.0
  0
LINE
  5
2AC
330
30
100
AcDbEntity
  8
1
100
AcDbLine
 10
43.927056639579
 20
1.1
 30
0.0
 11
43.867056639579
 21
1.1
 31
0.0
  0
LINE
  5
2AD
330
30
100
AcDbEntity
  8
1
100
AcDbLine
 10
43.867056639579
 20
1.1
 30
0.0
 11
43.807056639579
 21
1.1
 31
0.0
  0
LINE
  5
2AE
330
30
100
AcDbEntity
  8
1
100
AcDbLine
 10
43.807056639579
 20
1.1
 30
0.0
 11
43.747056639579
 21
1.1
 31
0.0
  0
LINE
  5
2AF
330
30
100
AcDbEntity
  8
1
100
AcDbLine
 10
43.747056639579
 20
1.1
 30
0.0
 11
43.687056639579
 21
1.1
 31
0.0
  0
LINE
  5
2B0
330
30
100
AcDbEntity
  8
1
100
AcDbLine
 10
43.687056639579
 20
1.1
 30
0.0
 11
43.627056639579
 21
1.1
 31
0.0
  0
LINE
  5
2B1
330
30
100
AcDbEntity
  8
1
100
AcDbLine
 10
43.627056639579
 20
1.1
 30
0.0
 11
43.567056639579
 21
1.1
 31
0.0
  0
LINE
  5
2B2
330
30
100
AcDbEntity
  8
1
100
AcDbLine
 10
43.567056639579
 20
1.1
 30
0.0
 11
43.507056639579
 21
1.1
 31
0.0
  0
LINE
  5
2B3
330
30
100
AcDbEntity
  8
1
100
AcDbLine
 10
43.507056639579
 20
1.1
 30
0.0
 11
43.447056639579
 21
1.1
 31
0.0
  0
LINE
  5
2B4
330
30
100
AcDbEntity
  8
1
100
AcDbLine
 10
43.447056639579
 20
1.1
 30
0.0
 11
43.387056639579
 21
1.1
 31
0.0
  0
LINE
  5
2B5
330
30
100
AcDbEntity
  8
1
100
AcDbLine
 10
43.387056639579
 20
1.1
 30
0.0
 11
43.327056639579
 21
1.1
 31
0.0
  0
LINE
  5
2B6
330
30
100
AcDbEntity
  8
1
100
AcDbLine
 10
43.327056639579
 20
1.1
 30
0.0
 11
43.267056639579
 21
1.1
 31
0.0
  0
LINE
  5
2B7
330
30
100
AcDbEntity
  8
1
100
AcDbLine
 10
43.267056639579
 20
1.1
 30
0.0
 11
43.207056639579
 21
1.1
 31
0.0
  0
LINE
  5
2B8
330
30
100
AcDbEntity
  8
1
100
AcDbLine
 10
43.207056639579
 20
1.1
 30
0.0
 11
43.147056639579
 21
1.1
 31
0.0
  0
LINE
  5
2B9
330
30
100
AcDbEntity
  8
1
100
AcDbLine
 10
43.147056639579
 20
1.1
 30
0.0
 11
43.087056639579
 21
1.1
 31
0.0
  0
LINE
  5
2BA
330
30
100
AcDbEntity
  8
1
100
AcDbLine
 10
43.087056639579
 20
1.1
 30
0.0
 11
43.027056639579
 21
1.1
 31
0.0
  0
LINE
  5
2BB
330
30
100
AcDbEntity
  8
1
100
AcDbLine
 10
43.027056639579
 20
1.1
 30
0.0
 11
42.967056639579
 21
1.1
 31
0.0
  0
LINE
  5
2BC
330
30
100
AcDbEntity
  8
1
100
AcDbLine
 10
42.967056639579
 20
1.1
 30
0.0
 11
42.907056639579
 21
1.1
 31
0.0
  0
LINE
  5
2BD
330
30
100
AcDbEntity
  8
1
100
AcDbLine
 10
42.907056639579
 20
1.1
 30
0.0
 11
42.847056639579
 21
1.1
 31
0.0
  0
LINE
  5
2BE
330
30
100
AcDbEntity
  8
1
100
AcDbLine
 10
42.847056639579
 20
1.1
 30
0.0
 11
42.787056639579
 21
1.1
 31
0.0
  0
LINE
  5
2BF
330
30
100
AcDbEntity
  8
1
100
AcDbLine
 10
42.787056639579
 20
1.1
 30
0.0
 11
42.727056639579
 21
1.1
 31
0.0
  0
LINE
  5
2C0
330
30
100
AcDbEntity
  8
1
100
AcDbLine
 10
42.727056639579
 20
1.1
 30
0.0
 11
42.667056639579
 21
1.1
 31
0.0
  0
LINE
  5
2C1
330
30
100
AcDbEntity
  8
1
100
AcDbLine
 10
42.667056639579
 20
1.1
 30
0.0
 11
42.607056639579
 21
1.1
 31
0.0
  0
LINE
  5
2C2
330
30
100
AcDbEntity
  8
1
100
AcDbLine
 10
42.607056639579
 20
1.1
 30
0.0
 11
42.547056639579
 21
1.1
 31
0.0
  0
LINE
  5
2C3
330
30
100
AcDbEntity
  8
1
100
AcDbLine
 10
42.547056639579
 20
1.1
 30
0.0
 11
42.487056639579
 21
1.1
 31
0.0
  0
LINE
  5
2C4
330
30
100
AcDbEntity
  8
1
100
AcDbLine
 10
42.487056639579
 20
1.1
 30
0.0
 11
42.427056639579
 21
1.1
 31
0.0
  0
LINE
  5
2C5
330
30
100
AcDbEntity
  8
1
100
AcDbLine
 10
42.427056639579
 20
1.1
 30
0.0
 11
42.367056639579
 21
1.1
 31
0.0
  0
LINE
  5
2C6
330
30
100
AcDbEntity
  8
1
100
AcDbLine
 10
42.367056639579
 20
1.1
 30
0.0
 11
42.307056639579
 21
1.1
 31
0.0
  0
LINE
  5
2C7
330
30
100
AcDbEntity
  8
1
100
AcDbLine
 10
42.307056639579
 20
1.1
 30
0.0
 11
42.247056639579
 21
1.1
 31
0.0
  0
LINE
  5
2C8
330
30
100
AcDbEntity
  8
1
100
AcDbLine
 10
42.247056639579
 20
1.1
 30
0.0
 11
42.187056639579
 21
1.1
 31
0.0
  0
LINE
  5
2C9
330
30
100
AcDbEntity
  8
1
100
AcDbLine
 10
42.187056639579
 20
1.1
 30
0.0
 11
42.127056639579
 21
1.1
 31
0.0
  0
LINE
  5
2CA
330
30
100
AcDbEntity
  8
1
100
AcDbLine
 10
42.127056639579
 20
1.1
 30
0.0
 11
42.067056639579
 21
1.1
 31
0.0
  0
LINE
  5
2CB
330
30
100
AcDbEntity
  8
1
100
AcDbLine
 10
42.067056639579
 20
1.1
 30
0.0
 11
42.007056639579
 21
1.1
 31
0.0
  0
LINE
  5
2CC
330
30
100
AcDbEntity
  8
1
100
AcDbLine
 10
42.007056639579
 20
1.1
 30
0.0
 11
41.947056639579
 21
1.1
 31
0.0
  0
LINE
  5
2CD
330
30
100
AcDbEntity
  8
1
100
AcDbLine
 10
41.947056639579
 20
1.1
 30
0.0
 11
41.887056639579
 21
1.1
 31
0.0
  0
LINE
  5
2CE
330
30
100
AcDbEntity
  8
1
100
AcDbLine
 10
41.887056639579
 20
1.1
 30
0.0
 11
41.827056639579
 21
1.1
 31
0.0
  0
LINE
  5
2CF
330
30
100
AcDbEntity
  8
1
100
AcDbLine
 10
41.827056639579
 20
1.1
 30
0.0
 11
41.767056639579
 21
1.1
 31
0.0
  0
LINE
  5
2D0
330
30
100
AcDbEntity
  8
1
100
AcDbLine
 10
41.767056639579
 20
1.1
 30
0.0
 11
41.707056639579
 21
1.1
 31
0.0
  0
LINE
  5
2D1
330
30
100
AcDbEntity
  8
1
100
AcDbLine
 10
41.707056639579
 20
1.1
 30
0.0
 11
41.647056639579
 21
1.1
 31
0.0
  0
LINE
  5
2D2
330
30
100
AcDbEntity
  8
1
100
AcDbLine
 10
41.647056639579
 20
1.1
 30
0.0
 11
41.587056639579
 21
1.1
 31
0.0
  0
LINE
  5
2D3
330
30
100
AcDbEntity
  8
1
100
AcDbLine
 10
41.587056639579
 20
1.1
 30
0.0
 11
41.527056639579
 21
1.1
 31
0.0
  0
LINE
  5
2D4
330
30
100
AcDbEntity
  8
1
100
AcDbLine
 10
41.527056639579
 20
1.1
 30
0.0
 11
41.467056639579
 21
1.1
 31
0.0
  0
LINE
  5
2D5
330
30
100
AcDbEntity
  8
1
100
AcDbLine
 10
41.467056639579
 20
1.1
 30
0.0
 11
41.407056639579
 21
1.1
 31
0.0
  0
LINE
  5
2D6
330
30
100
AcDbEntity
  8
1
100
AcDbLine
 10
41.407056639579
 20
1.1
 30
0.0
 11
41.347056639579
 21
1.1
 31
0.0
  0
LINE
  5
2D7
330
30
100
AcDbEntity
  8
1
100
AcDbLine
 10
41.347056639579
 20
1.1
 30
0.0
 11
41.287056639579
 21
1.1
 31
0.0
  0
LINE
  5
2D8
330
30
100
AcDbEntity
  8
1
100
AcDbLine
 10
41.287056639579
 20
1.1
 30
0.0
 11
41.227056639579
 21
1.1
 31
0.0
  0
LINE
  5
2D9
330
30
100
AcDbEntity
  8
1
100
AcDbLine
 10
41.227056639579
 20
1.1
 30
0.0
 11
41.167056639579
 21
1.1
 31
0.0
  0
LINE
  5
2DA
330
30
100
AcDbEntity
  8
1
100
AcDbLine
 10
41.167056639579
 20
1.1
 30
0.0
 11
41.107056639579
 21
1.1
 31
0.0
  0
LINE
  5
2DB
330
30
100
AcDbEntity
  8
1
100
AcDbLine
 10
41.107056639579
 20
1.1
 30
0.0
 11
41.047056639579
 21
1.1
 31
0.0
  0
LINE
  5
2DC
330
30
100
AcDbEntity
  8
1
100
AcDbLine
 10
41.047056639579
 20
1.1
 30
0.0
 11
40.987056639579
 21
1.1
 31
0.0
  0
LINE
  5
2DD
330
30
100
AcDbEntity
  8
1
100
AcDbLine
 10
40.987056639579
 20
1.1
 30
0.0
 11
40.927056639579
 21
1.1
 31
0.0
  0
LINE
  5
2DE
330
30
100
AcDbEntity
  8
1
100
AcDbLine
 10
40.927056639579
 20
1.1
 30
0.0
 11
40.867056639579
 21
1.1
 31
0.0
  0
LINE
  5
2DF
330
30
100
AcDbEntity
  8
1
100
AcDbLine
 10
40.867056639579
 20
1.1
 30
0.0
 11
40.807056639579
 21
1.1
 31
0.0
  0
LINE
  5
2E0
330
30
100
AcDbEntity
  8
1
100
AcDbLine
 10
40.807056639579
 20
1.1
 30
0.0
 11
40.747056639579
 21
1.1
 31
0.0
  0
LINE
  5
2E1
330
30
100
AcDbEntity
  8
1
100
AcDbLine
 10
40.747056639579
 20
1.1
 30
0.0
 11
40.687056639579
 21
1.1
 31
0.0
  0
LINE
  5
2E2
330
30
100
AcDbEntity
  8
1
100
AcDbLine
 10
40.687056639579
 20
1.1
 30
0.0
 11
40.627056639579
 21
1.1
 31
0.0
  0
LINE
  5
2E3
330
30
100
AcDbEntity
  8
1
100
AcDbLine
 10
40.627056639579
 20
1.1
 30
0.0
 11
40.567056639579
 21
1.1
 31
0.0
  0
LINE
  5
2E4
330
30
100
AcDbEntity
  8
1
100
AcDbLine
 10
40.567056639579
 20
1.1
 30
0.0
 11
40.507056639579
 21
1.1
 31
0.0
  0
LINE
  5
2E5
330
30
100
AcDbEntity
  8
1
100
AcDbLine
 10
40.507056639579
 20
1.1
 30
0.0
 11
40.447056639579
 21
1.1
 31
0.0
  0
LINE
  5
2E6
330
30
100
AcDbEntity
  8
1
100
AcDbLine
 10
40.447056639579
 20
1.1
 30
0.0
 11
40.387056639579
 21
1.1
 31
0.0
  0
LINE
  5
2E7
330
30
100
AcDbEntity
  8
1
100
AcDbLine
 10
40.387056639579
 20
1.1
 30
0.0
 11
40.327056639579
 21
1.1
 31
0.0
  0
LINE
  5
2E8
330
30
100
AcDbEntity
  8
1
100
AcDbLine
 10
40.327056639579
 20
1.1
 30
0.0
 11
40.267056639579
 21
1.1
 31
0.0
  0
LINE
  5
2E9
330
30
100
AcDbEntity
  8
1
100
AcDbLine
 10
40.267056639579
 20
1.1
 30
0.0
 11
40.207056639579
 21
1.1
 31
0.0
  0
LINE
  5
2EA
330
30
100
AcDbEntity
  8
1
100
AcDbLine
 10
40.207056639579
 20
1.1
 30
0.0
 11
40.147056639579
 21
1.1
 31
0.0
  0
LINE
  5
2EB
330
30
100
AcDbEntity
  8
1
100
AcDbLine
 10
40.147056639579
 20
1.1
 30
0.0
 11
40.087056639579
 21
1.1
 31
0.0
  0
LINE
  5
2EC
330
30
100
AcDbEntity
  8
1
100
AcDbLine
 10
40.087056639579
 20
1.1
 30
0.0
 11
40.027056639579
 21
1.1
 31
0.0
  0
LINE
  5
2ED
330
30
100
AcDbEntity
  8
1
100
AcDbLine
 10
40.027056639579
 20
1.1
 30
0.0
 11
39.967056639579
 21
1.1
 31
0.0
  0
LINE
  5
2EE
330
30
100
AcDbEntity
  8
1
100
AcDbLine
 10
39.967056639579
 20
1.1
 30
0.0
 11
39.907056639579
 21
1.1
 31
0.0
  0
LINE
  5
2EF
330
30
100
AcDbEntity
  8
1
100
AcDbLine
 10
39.907056639579
 20
1.1
 30
0.0
 11
39.847056639579
 21
1.1
 31
0.0
  0
LINE
  5
2F0
330
30
100
AcDbEntity
  8
1
100
AcDbLine
 10
39.847056639579
 20
1.1
 30
0.0
 11
39.787056639579
 21
1.1
 31
0.0
  0
LINE
  5
2F1
330
30
100
AcDbEntity
  8
1
100
AcDbLine
 10
39.787056639579
 20
1.1
 30
0.0
 11
39.727056639579
 21
1.1
 31
0.0
  0
LINE
  5
2F2
330
30
100
AcDbEntity
  8
1
100
AcDbLine
 10
39.727056639579
 20
1.1
 30
0.0
 11
39.667056639579
 21
1.1
 31
0.0
  0
LINE
  5
2F3
330
30
100
AcDbEntity
  8
1
100
AcDbLine
 10
39.667056639579
 20
1.1
 30
0.0
 11
39.607056639579
 21
1.1
 31
0.0
  0
LINE
  5
2F4
330
30
100
AcDbEntity
  8
1
100
AcDbLine
 10
39.607056639579
 20
1.1
 30
0.0
 11
39.547056639579
 21
1.1
 31
0.0
  0
LINE
  5
2F5
330
30
100
AcDbEntity
  8
1
100
AcDbLine
 10
39.547056639579
 20
1.1
 30
0.0
 11
39.487056639579
 21
1.1
 31
0.0
  0
LINE
  5
2F6
330
30
100
AcDbEntity
  8
1
100
AcDbLine
 10
39.487056639579
 20
1.1
 30
0.0
 11
39.427056639579
 21
1.1
 31
0.0
  0
LINE
  5
2F7
330
30
100
AcDbEntity
  8
1
100
AcDbLine
 10
39.427056639579
 20
1.1
 30
0.0
 11
39.367056639579
 21
1.1
 31
0.0
  0
LINE
  5
2F8
330
30
100
AcDbEntity
  8
1
100
AcDbLine
 10
39.367056639579
 20
1.1
 30
0.0
 11
39.307056639579
 21
1.1
 31
0.0
  0
LINE
  5
2F9
330
30
100
AcDbEntity
  8
1
100
AcDbLine
 10
39.307056639579
 20
1.1
 30
0.0
 11
39.247056639579
 21
1.1
 31
0.0
  0
LINE
  5
2FA
330
30
100
AcDbEntity
  8
1
100
AcDbLine
 10
39.247056639579
 20
1.1
 30
0.0
 11
39.187056639579
 21
1.1
 31
0.0
  0
LINE
  5
2FB
330
30
100
AcDbEntity
  8
1
100
AcDbLine
 10
39.187056639579
 20
1.1
 30
0.0
 11
39.127056639579
 21
1.1
 31
0.0
  0
LINE
  5
2FC
330
30
100
AcDbEntity
  8
1
100
AcDbLine
 10
39.127056639579
 20
1.1
 30
0.0
 11
39.067056639579
 21
1.1
 31
0.0
  0
LINE
  5
2FD
330
30
100
AcDbEntity
  8
1
100
AcDbLine
 10
39.067056639579
 20
1.1
 30
0.0
 11
39.007056639579
 21
1.1
 31
0.0
  0
LINE
  5
2FE
330
30
100
AcDbEntity
  8
1
100
AcDbLine
 10
39.007056639579
 20
1.1
 30
0.0
 11
38.947056639579
 21
1.1
 31
0.0
  0
LINE
  5
2FF
330
30
100
AcDbEntity
  8
1
100
AcDbLine
 10
38.947056639579
 20
1.1
 30
0.0
 11
38.887056639579
 21
1.1
 31
0.0
  0
LINE
  5
300
330
30
100
AcDbEntity
  8
1
100
AcDbLine
 10
38.887056639579
 20
1.1
 30
0.0
 11
38.827056639579
 21
1.1
 31
0.0
  0
LINE
  5
301
330
30
100
AcDbEntity
  8
1
100
AcDbLine
 10
38.827056639579
 20
1.1
 30
0.0
 11
38.767056639579
 21
1.1
 31
0.0
  0
LINE
  5
302
330
30
100
AcDbEntity
  8
1
100
AcDbLine
 10
38.767056639579
 20
1.1
 30
0.0
 11
38.707056639579
 21
1.1
 31
0.0
  0
LINE
  5
303
330
30
100
AcDbEntity
  8
1
100
AcDbLine
 10
38.707056639579
 20
1.1
 30
0.0
 11
38.647056639579
 21
1.1
 31
0.0
  0
LINE
  5
304
330
30
100
AcDbEntity
  8
1
100
AcDbLine
 10
38.647056639579
 20
1.1
 30
0.0
 11
38.587056639579
 21
1.1
 31
0.0
  0
LINE
  5
305
330
30
100
AcDbEntity
  8
1
100
AcDbLine
 10
38.587056639579
 20
1.1
 30
0.0
 11
38.527056639579
 21
1.1
 31
0.0
  0
LINE
  5
306
330
30
100
AcDbEntity
  8
1
100
AcDbLine
 10
38.527056639579
 20
1.1
 30
0.0
 11
38.467056639579
 21
1.1
 31
0.0
  0
LINE
  5
307
330
30
100
AcDbEntity
  8
1
100
AcDbLine
 10
38.467056639579
 20
1.1
 30
0.0
 11
38.407056639579
 21
1.1
 31
0.0
  0
LINE
  5
308
330
30
100
AcDbEntity
  8
1
100
AcDbLine
 10
38.407056639579
 20
1.1
 30
0.0
 11
38.347056639579
 21
1.1
 31
0.0
  0
LINE
  5
309
330
30
100
AcDbEntity
  8
1
100
AcDbLine
 10
38.347056639579
 20
1.1
 30
0.0
 11
38.287056639579
 21
1.1
 31
0.0
  0
LINE
  5
30A
330
30
100
AcDbEntity
  8
1
100
AcDbLine
 10
38.287056639579
 20
1.1
 30
0.0
 11
38.227056639579
 21
1.1
 31
0.0
  0
LINE
  5
30B
330
30
100
AcDbEntity
  8
1
100
AcDbLine
 10
38.227056639579
 20
1.1
 30
0.0
 11
38.167056639579
 21
1.1
 31
0.0
  0
LINE
  5
30C
330
30
100
AcDbEntity
  8
1
100
AcDbLine
 10
38.167056639579
 20
1.1
 30
0.0
 11
38.107056639579
 21
1.1
 31
0.0
  0
LINE
  5
30D
330
30
100
AcDbEntity
  8
1
100
AcDbLine
 10
38.107056639579
 20
1.1
 30
0.0
 11
38.047056639579
 21
1.1
 31
0.0
  0
LINE
  5
30E
330
30
100
AcDbEntity
  8
1
100
AcDbLine
 10
38.047056639579
 20
1.1
 30
0.0
 11
37.987056639579
 21
1.1
 31
0.0
  0
LINE
  5
30F
330
30
100
AcDbEntity
  8
1
100
AcDbLine
 10
37.987056639579
 20
1.1
 30
0.0
 11
37.927056639579
 21
1.1
 31
0.0
  0
LINE
  5
310
330
30
100
AcDbEntity
  8
1
100
AcDbLine
 10
37.927056639579
 20
1.1
 30
0.0
 11
37.867056639579
 21
1.1
 31
0.0
  0
LINE
  5
311
330
30
100
AcDbEntity
  8
1
100
AcDbLine
 10
37.867056639579
 20
1.1
 30
0.0
 11
37.807056639579
 21
1.1
 31
0.0
  0
LINE
  5
312
330
30
100
AcDbEntity
  8
1
100
AcDbLine
 10
37.807056639579
 20
1.1
 30
0.0
 11
37.747056639579
 21
1.1
 31
0.0
  0
LINE
  5
313
330
30
100
AcDbEntity
  8
1
100
AcDbLine
 10
37.747056639579
 20
1.1
 30
0.0
 11
37.687056639579
 21
1.1
 31
0.0
  0
LINE
  5
314
330
30
100
AcDbEntity
  8
1
100
AcDbLine
 10
37.687056639579
 20
1.1
 30
0.0
 11
37.627056639579
 21
1.1
 31
0.0
  0
LINE
  5
315
330
30
100
AcDbEntity
  8
1
100
AcDbLine
 10
37.627056639579
 20
1.1
 30
0.0
 11
37.567056639579
 21
1.1
 31
0.0
  0
LINE
  5
316
330
30
100
AcDbEntity
  8
1
100
AcDbLine
 10
37.567056639579
 20
1.1
 30
0.0
 11
37.507056639579
 21
1.1
 31
0.0
  0
LINE
  5
317
330
30
100
AcDbEntity
  8
1
100
AcDbLine
 10
37.507056639579
 20
1.1
 30
0.0
 11
37.447056639579
 21
1.1
 31
0.0
  0
LINE
  5
318
330
30
100
AcDbEntity
  8
1
100
AcDbLine
 10
37.447056639579
 20
1.1
 30
0.0
 11
37.387056639579
 21
1.1
 31
0.0
  0
LINE
  5
319
330
30
100
AcDbEntity
  8
1
100
AcDbLine
 10
37.387056639579
 20
1.1
 30
0.0
 11
37.327056639579
 21
1.1
 31
0.0
  0
LINE
  5
31A
330
30
100
AcDbEntity
  8
1
100
AcDbLine
 10
37.327056639579
 20
1.1
 30
0.0
 11
37.267056639579
 21
1.1
 31
0.0
  0
LINE
  5
31B
330
30
100
AcDbEntity
  8
1
100
AcDbLine
 10
37.267056639579
 20
1.1
 30
0.0
 11
37.207056639579
 21
1.1
 31
0.0
  0
LINE
  5
31C
330
30
100
AcDbEntity
  8
1
100
AcDbLine
 10
37.207056639579
 20
1.1
 30
0.0
 11
37.147056639579
 21
1.1
 31
0.0
  0
LINE
  5
31D
330
30
100
AcDbEntity
  8
1
100
AcDbLine
 10
37.147056639579
 20
1.1
 30
0.0
 11
37.087056639579
 21
1.1
 31
0.0
  0
LINE
  5
31E
330
30
100
AcDbEntity
  8
1
100
AcDbLine
 10
37.087056639579
 20
1.1
 30
0.0
 11
37.027056639579
 21
1.1
 31
0.0
  0
LINE
  5
31F
330
30
100
AcDbEntity
  8
1
100
AcDbLine
 10
37.027056639579
 20
1.1
 30
0.0
 11
36.967056639579
 21
1.1
 31
0.0
  0
LINE
  5
320
330
30
100
AcDbEntity
  8
1
100
AcDbLine
 10
36.967056639579
 20
1.1
 30
0.0
 11
36.907056639579
 21
1.1
 31
0.0
  0
LINE
  5
321
330
30
100
AcDbEntity
  8
1
100
AcDbLine
 10
36.907056639579
 20
1.1
 30
0.0
 11
36.847056639579
 21
1.1
 31
0.0
  0
LINE
  5
322
330
30
100
AcDbEntity
  8
1
100
AcDbLine
 10
36.847056639579
 20
1.1
 30
0.0
 11
36.787056639579
 21
1.1
 31
0.0
  0
LINE
  5
323
330
30
100
AcDbEntity
  8
1
100
AcDbLine
 10
36.787056639579
 20
1.1
 30
0.0
 11
36.727056639579
 21
1.1
 31
0.0
  0
LINE
  5
324
330
30
100
AcDbEntity
  8
1
100
AcDbLine
 10
36.727056639579
 20
1.1
 30
0.0
 11
36.667056639579
 21
1.1
 31
0.0
  0
LINE
  5
325
330
30
100
AcDbEntity
  8
1
100
AcDbLine
 10
36.667056639579
 20
1.1
 30
0.0
 11
36.607056639579
 21
1.1
 31
0.0
  0
LINE
  5
326
330
30
100
AcDbEntity
  8
1
100
AcDbLine
 10
36.607056639579
 20
1.1
 30
0.0
 11
36.547056639579
 21
1.1
 31
0.0
  0
LINE
  5
327
330
30
100
AcDbEntity
  8
1
100
AcDbLine
 10
36.547056639579
 20
1.1
 30
0.0
 11
36.487056639579
 21
1.1
 31
0.0
  0
LINE
  5
328
330
30
100
AcDbEntity
  8
1
100
AcDbLine
 10
36.487056639579
 20
1.1
 30
0.0
 11
36.427056639579
 21
1.1
 31
0.0
  0
LINE
  5
329
330
30
100
AcDbEntity
  8
1
100
AcDbLine
 10
36.427056639579
 20
1.1
 30
0.0
 11
36.367056639579
 21
1.1
 31
0.0
  0
LINE
  5
32A
330
30
100
AcDbEntity
  8
1
100
AcDbLine
 10
36.367056639579
 20
1.1
 30
0.0
 11
36.307056639579
 21
1.1
 31
0.0
  0
LINE
  5
32B
330
30
100
AcDbEntity
  8
1
100
AcDbLine
 10
36.307056639579
 20
1.1
 30
0.0
 11
36.247056639579
 21
1.1
 31
0.0
  0
LINE
  5
32C
330
30
100
AcDbEntity
  8
1
100
AcDbLine
 10
36.247056639579
 20
1.1
 30
0.0
 11
36.187056639579
 21
1.1
 31
0.0
  0
LINE
  5
32D
330
30
100
AcDbEntity
  8
1
100
AcDbLine
 10
36.187056639579
 20
1.1
 30
0.0
 11
36.127056639579
 21
1.1
 31
0.0
  0
LINE
  5
32E
330
30
100
AcDbEntity
  8
1
100
AcDbLine
 10
36.127056639579
 20
1.1
 30
0.0
 11
36.067056639579
 21
1.1
 31
0.0
  0
LINE
  5
32F
330
30
100
AcDbEntity
  8
1
100
AcDbLine
 10
36.067056639579
 20
1.1
 30
0.0
 11
36.007056639579
 21
1.1
 31
0.0
  0
LINE
  5
330
330
30
100
AcDbEntity
  8
1
100
AcDbLine
 10
36.007056639579
 20
1.1
 30
0.0
 11
35.947056639579
 21
1.1
 31
0.0
  0
LINE
  5
331
330
30
100
AcDbEntity
  8
1
100
AcDbLine
 10
35.947056639579
 20
1.1
 30
0.0
 11
35.887056639579
 21
1.1
 31
0.0
  0
LINE
  5
332
330
30
100
AcDbEntity
  8
1
100
AcDbLine
 10
35.887056639579
 20
1.1
 30
0.0
 11
35.827056639579
 21
1.1
 31
0.0
  0
LINE
  5
333
330
30
100
AcDbEntity
  8
1
100
AcDbLine
 10
35.827056639579
 20
1.1
 30
0.0
 11
35.767056639579
 21
1.1
 31
0.0
  0
LINE
  5
334
330
30
100
AcDbEntity
  8
1
100
AcDbLine
 10
35.767056639579
 20
1.1
 30
0.0
 11
35.707056639579
 21
1.1
 31
0.0
  0
LINE
  5
335
330
30
100
AcDbEntity
  8
1
100
AcDbLine
 10
35.707056639579
 20
1.1
 30
0.0
 11
35.647056639579
 21
1.1
 31
0.0
  0
LINE
  5
336
330
30
100
AcDbEntity
  8
1
100
AcDbLine
 10
35.647056639579
 20
1.1
 30
0.0
 11
35.587056639579
 21
1.1
 31
0.0
  0
LINE
  5
337
330
30
100
AcDbEntity
  8
1
100
AcDbLine
 10
35.587056639579
 20
1.1
 30
0.0
 11
35.527056639579
 21
1.1
 31
0.0
  0
LINE
  5
338
330
30
100
AcDbEntity
  8
1
100
AcDbLine
 10
35.527056639579
 20
1.1
 30
0.0
 11
35.467056639579
 21
1.1
 31
0.0
  0
LINE
  5
339
330
30
100
AcDbEntity
  8
1
100
AcDbLine
 10
35.467056639579
 20
1.1
 30
0.0
 11
35.407056639579
 21
1.1
 31
0.0
  0
LINE
  5
33A
330
30
100
AcDbEntity
  8
1
100
AcDbLine
 10
35.407056639579
 20
1.1
 30
0.0
 11
35.347056639579
 21
1.1
 31
0.0
  0
LINE
  5
33B
330
30
100
AcDbEntity
  8
1
100
AcDbLine
 10
35.347056639579
 20
1.1
 30
0.0
 11
35.287056639579
 21
1.1
 31
0.0
  0
LINE
  5
33C
330
30
100
AcDbEntity
  8
1
100
AcDbLine
 10
35.287056639579
 20
1.1
 30
0.0
 11
35.227056639579
 21
1.1
 31
0.0
  0
LINE
  5
33D
330
30
100
AcDbEntity
  8
1
100
AcDbLine
 10
35.227056639579
 20
1.1
 30
0.0
 11
35.167056639579
 21
1.1
 31
0.0
  0
LINE
  5
33E
330
30
100
AcDbEntity
  8
1
100
AcDbLine
 10
35.167056639579
 20
1.1
 30
0.0
 11
35.107056639579
 21
1.1
 31
0.0
  0
LINE
  5
33F
330
30
100
AcDbEntity
  8
1
100
AcDbLine
 10
35.107056639579
 20
1.1
 30
0.0
 11
35.047056639579
 21
1.1
 31
0.0
  0
LINE
  5
340
330
30
100
AcDbEntity
  8
1
100
AcDbLine
 10
35.047056639579
 20
1.1
 30
0.0
 11
34.987056639579
 21
1.1
 31
0.0
  0
LINE
  5
341
330
30
100
AcDbEntity
  8
1
100
AcDbLine
 10
34.987056639579
 20
1.1
 30
0.0
 11
34.927056639579
 21
1.1
 31
0.0
  0
LINE
  5
342
330
30
100
AcDbEntity
  8
1
100
AcDbLine
 10
34.927056639579
 20
1.1
 30
0.0
 11
34.867056639579
 21
1.1
 31
0.0
  0
LINE
  5
343
330
30
100
AcDbEntity
  8
1
100
AcDbLine
 10
34.853987871165
 20
1.1
 30
0.0
 11
34.853987871165
 21
-1.1
 31
0.0
  0
LINE
  5
344
330
30
100
AcDbEntity
  8
1
100
AcDbLine
 10
35.853987871165
 20
-1.1
 30
0.0
 11
35.853987871165
 21
1.1
 31
0.0
  0
LINE
  5
345
330
30
100
AcDbEntity
  8
1
100
AcDbLine
 10
35.853987871165
 20
1.1
 30
0.0
 11
35.853987871165
 21
-1.1
 31
0.0
  0
LINE
  5
346
330
30
100
AcDbEntity
  8
SK1
100
AcDbLine
 10
21.187056639579
 20
1.7905
 30
0.0
 11
1.953987871165
 21
1.7905
 31
0.0
  0
LINE
  5
347
330
30
100
AcDbEntity
  8
SK1
100
AcDbLine
 10
1.953987871165
 20
1.7905
 30
0.0
 11
0.0
 21
0.0
 31
0.0
  0
LINE
  5
348
330
30
100
AcDbEntity
  8
SK1
100
AcDbLine
 10
21.187056639579
 20
-1.7905
 30
0.0
 11
1.953987871165
 21
-1.7905
 31
0.0
  0
LINE
  5
349
330
30
100
AcDbEntity
  8
SK1
100
AcDbLine
 10
1.953987871165
 20
-1.7905
 30
0.0
 11
0.0
 21
0.0
 31
0.0
  0
LINE
  5
34A
330
30
100
AcDbEntity
  8
SK1
100
AcDbLine
 10
1.953987871165
 20
1.7905
 30
0.0
 11
1.953987871165
 21
-1.7905
 31
0.0
  0
LINE
  5
34B
330
30
100
AcDbEntity
  8
SK1
100
AcDbLine
 10
1.953987871165
 20
1.7905
 30
0.0
 11
1.953987871165
 21
-1.7905
 31
0.0
  0
LINE
  5
34C
330
30
100
AcDbEntity
  8
SK1
100
AcDbLine
 10
22.227156639579
 20
1.40688
 30
0.0
 11
22.593956639579
 21
1.0401
 31
0.0
  0
LINE
  5
34D
330
30
100
AcDbEntity
  8
SK1
100
AcDbLine
 10
21.719856639579
 20
1.66666
 30
0.0
 11
22.853756639579
 21
0.532833
 31
0.0
  0
LINE
  5
34E
330
30
100
AcDbEntity
  8
SK1
100
AcDbLine
 10
21.402456639579
 20
1.73657
 30
0.0
 11
22.923656639579
 21
0.215434
 31
0.0
  0
LINE
  5
34F
330
30
100
AcDbEntity
  8
SK1
100
AcDbLine
 10
21.187056639579
 20
1.70452
 30
0.0
 11
22.891556639579
 21
0.0
 31
0.0
  0
LINE
  5
350
330
30
100
AcDbEntity
  8
SK1
100
AcDbLine
 10
21.187056639579
 20
1.45703
 30
0.0
 11
22.644056639579
 21
0.0
 31
0.0
  0
LINE
  5
351
330
30
100
AcDbEntity
  8
SK1
100
AcDbLine
 10
21.187056639579
 20
1.20954
 30
0.0
 11
22.396556639579
 21
0.0
 31
0.0
  0
LINE
  5
352
330
30
100
AcDbEntity
  8
SK1
100
AcDbLine
 10
21.187056639579
 20
0.962054
 30
0.0
 11
22.149156639579
 21
0.0
 31
0.0
  0
LINE
  5
353
330
30
100
AcDbEntity
  8
SK1
100
AcDbLine
 10
21.187056639579
 20
0.714566
 30
0.0
 11
21.901656639579
 21
0.0
 31
0.0
  0
LINE
  5
354
330
30
100
AcDbEntity
  8
SK1
100
AcDbLine
 10
21.187056639579
 20
0.467079
 30
0.0
 11
21.654156639579
 21
0.0
 31
0.0
  0
LINE
  5
355
330
30
100
AcDbEntity
  8
SK1
100
AcDbLine
 10
21.187056639579
 20
0.219592
 30
0.0
 11
21.406656639579
 21
0.0
 31
0.0
  0
LINE
  5
356
330
30
100
AcDbEntity
  8
SK1
100
AcDbLine
 10
21.187056639579
 20
1.70452
 30
0.0
 11
21.231156639579
 21
1.74861
 31
0.0
  0
LINE
  5
357
330
30
100
AcDbEntity
  8
SK1
100
AcDbLine
 10
21.187056639579
 20
1.45703
 30
0.0
 11
21.458056639579
 21
1.72802
 31
0.0
  0
LINE
  5
358
330
30
100
AcDbEntity
  8
SK1
100
AcDbLine
 10
21.187056639579
 20
1.20954
 30
0.0
 11
21.661256639579
 21
1.6837
 31
0.0
  0
LINE
  5
359
330
30
100
AcDbEntity
  8
SK1
100
AcDbLine
 10
21.187056639579
 20
0.962054
 30
0.0
 11
21.845856639579
 21
1.62082
 31
0.0
  0
LINE
  5
35A
330
30
100
AcDbEntity
  8
SK1
100
AcDbLine
 10
21.187056639579
 20
0.714566
 30
0.0
 11
22.014156639579
 21
1.54167
 31
0.0
  0
LINE
  5
35B
330
30
100
AcDbEntity
  8
SK1
100
AcDbLine
 10
21.187056639579
 20
0.467079
 30
0.0
 11
22.168056639579
 21
1.44812
 31
0.0
  0
LINE
  5
35C
330
30
100
AcDbEntity
  8
SK1
100
AcDbLine
 10
21.187056639579
 20
0.219592
 30
0.0
 11
22.309656639579
 21
1.34216
 31
0.0
  0
LINE
  5
35D
330
30
100
AcDbEntity
  8
SK1
100
AcDbLine
 10
21.214956639579
 20
0.0
 30
0.0
 11
22.437856639579
 21
1.22288
 31
0.0
  0
LINE
  5
35E
330
30
100
AcDbEntity
  8
SK1
100
AcDbLine
 10
21.462456639579
 20
0.0
 30
0.0
 11
22.554056639579
 21
1.09157
 31
0.0
  0
LINE
  5
35F
330
30
100
AcDbEntity
  8
SK1
100
AcDbLine
 10
21.709956639579
 20
0.0
 30
0.0
 11
22.657756639579
 21
0.947822
 31
0.0
  0
LINE
  5
360
330
30
100
AcDbEntity
  8
SK1
100
AcDbLine
 10
21.957456639579
 20
0.0
 30
0.0
 11
22.747556639579
 21
0.790145
 31
0.0
  0
LINE
  5
361
330
30
100
AcDbEntity
  8
SK1
100
AcDbLine
 10
22.204856639579
 20
0.0
 30
0.0
 11
22.823456639579
 21
0.618517
 31
0.0
  0
LINE
  5
362
330
30
100
AcDbEntity
  8
SK1
100
AcDbLine
 10
22.452356639579
 20
0.0
 30
0.0
 11
22.883056639579
 21
0.430696
 31
0.0
  0
LINE
  5
363
330
30
100
AcDbEntity
  8
SK1
100
AcDbLine
 10
22.699856639579
 20
0.0
 30
0.0
 11
22.922656639579
 21
0.222827
 31
0.0
  0
LINE
  5
364
330
30
100
AcDbEntity
  8
SK1
100
AcDbLine
 10
21.187056639579
 20
0.0
 30
0.0
 11
21.187056639579
 21
1.75
 31
0.0
  0
LINE
  5
365
330
30
100
AcDbEntity
  8
SK1
100
AcDbLine
 10
21.187056639579
 20
0.0
 30
0.0
 11
22.937056639579
 21
0.0
 31
0.0
  0
ARC
  5
366
330
30
100
AcDbEntity
  8
SK1
100
AcDbCircle
 10
21.187056639579
 20
0.0
 30
0.0
 40
1.75
100
AcDbArc
 50
0.0
 51
90.0
  0
ARC
  5
367
330
30
100
AcDbEntity
  8
SK1
100
AcDbCircle
 10
21.187056639579
 20
0.0
 30
0.0
 40
1.75
100
AcDbArc
 50
90.0
 51
180.0
  0
LINE
  5
368
330
30
100
AcDbEntity
  8
SK1
100
AcDbLine
 10
21.159156639579
 20
0.0
 30
0.0
 11
21.187056639579
 21
-0.0278958
 31
0.0
  0
LINE
  5
369
330
30
100
AcDbEntity
  8
SK1
100
AcDbLine
 10
20.911656639579
 20
0.0
 30
0.0
 11
21.187056639579
 21
-0.275383
 31
0.0
  0
LINE
  5
36A
330
30
100
AcDbEntity
  8
SK1
100
AcDbLine
 10
20.664156639579
 20
0.0
 30
0.0
 11
21.187056639579
 21
-0.522871
 31
0.0
  0
LINE
  5
36B
330
30
100
AcDbEntity
  8
SK1
100
AcDbLine
 10
20.416656639579
 20
0.0
 30
0.0
 11
21.187056639579
 21
-0.770358
 31
0.0
  0
LINE
  5
36C
330
30
100
AcDbEntity
  8
SK1
100
AcDbLine
 10
20.169256639579
 20
0.0
 30
0.0
 11
21.187056639579
 21
-1.01785
 31
0.0
  0
LINE
  5
36D
330
30
100
AcDbEntity
  8
SK1
100
AcDbLine
 10
19.921756639579
 20
0.0
 30
0.0
 11
21.187056639579
 21
-1.26533
 31
0.0
  0
LINE
  5
36E
330
30
100
AcDbEntity
  8
SK1
100
AcDbLine
 10
19.674256639579
 20
0.0
 30
0.0
 11
21.187056639579
 21
-1.51282
 31
0.0
  0
LINE
  5
36F
330
30
100
AcDbEntity
  8
SK1
100
AcDbLine
 10
19.437356639579
 20
-0.0106419
 30
0.0
 11
21.176456639579
 21
-1.74967
 31
0.0
  0
LINE
  5
370
330
30
100
AcDbEntity
  8
SK1
100
AcDbLine
 10
19.460656639579
 20
-0.281429
 30
0.0
 11
20.905656639579
 21
-1.72637
 31
0.0
  0
LINE
  5
371
330
30
100
AcDbEntity
  8
SK1
100
AcDbLine
 10
19.550956639579
 20
-0.619147
 30
0.0
 11
20.567956639579
 21
-1.63613
 31
0.0
  0
LINE
  5
372
330
30
100
AcDbEntity
  8
SK1
100
AcDbLine
 10
19.438456639579
 20
-0.0440984
 30
0.0
 11
19.482556639579
 21
0.0
 31
0.0
  0
LINE
  5
373
330
30
100
AcDbEntity
  8
SK1
100
AcDbLine
 10
19.459056639579
 20
-0.270991
 30
0.0
 11
19.730056639579
 21
0.0
 31
0.0
  0
LINE
  5
374
330
30
100
AcDbEntity
  8
SK1
100
AcDbLine
 10
19.503356639579
 20
-0.474162
 30
0.0
 11
19.977556639579
 21
0.0
 31
0.0
  0
LINE
  5
375
330
30
100
AcDbEntity
  8
SK1
100
AcDbLine
 10
19.566256639579
 20
-0.658762
 30
0.0
 11
20.224956639579
 21
0.0
 31
0.0
  0
LINE
  5
376
330
30
100
AcDbEntity
  8
SK1
100
AcDbLine
 10
19.645356639579
 20
-0.827105
 30
0.0
 11
20.472456639579
 21
0.0
 31
0.0
  0
LINE
  5
377
330
30
100
AcDbEntity
  8
SK1
100
AcDbLine
 10
19.738956639579
 20
-0.981039
 30
0.0
 11
20.719956639579
 21
0.0
 31
0.0
  0
LINE
  5
378
330
30
100
AcDbEntity
  8
SK1
100
AcDbLine
 10
19.844856639579
 20
-1.12257
 30
0.0
 11
20.967456639579
 21
0.0
 31
0.0
  0
LINE
  5
379
330
30
100
AcDbEntity
  8
SK1
100
AcDbLine
 10
19.964156639579
 20
-1.25077
 30
0.0
 11
21.187056639579
 21
-0.0278958
 31
0.0
  0
LINE
  5
37A
330
30
100
AcDbEntity
  8
SK1
100
AcDbLine
 10
20.095456639579
 20
-1.36695
 30
0.0
 11
21.187056639579
 21
-0.275383
 31
0.0
  0
LINE
  5
37B
330
30
100
AcDbEntity
  8
SK1
100
AcDbLine
 10
20.239256639579
 20
-1.47069
 30
0.0
 11
21.187056639579
 21
-0.522871
 31
0.0
  0
LINE
  5
37C
330
30
100
AcDbEntity
  8
SK1
100
AcDbLine
 10
20.396956639579
 20
-1.5605
 30
0.0
 11
21.187056639579
 21
-0.770358
 31
0.0
  0
LINE
  5
37D
330
30
100
AcDbEntity
  8
SK1
100
AcDbLine
 10
20.568556639579
 20
-1.63636
 30
0.0
 11
21.187056639579
 21
-1.01785
 31
0.0
  0
LINE
  5
37E
330
30
100
AcDbEntity
  8
SK1
100
AcDbLine
 10
20.756356639579
 20
-1.69603
 30
0.0
 11
21.187056639579
 21
-1.26533
 31
0.0
  0
LINE
  5
37F
330
30
100
AcDbEntity
  8
SK1
100
AcDbLine
 10
20.964256639579
 20
-1.73565
 30
0.0
 11
21.187056639579
 21
-1.51282
 31
0.0
  0
LINE
  5
380
330
30
100
AcDbEntity
  8
SK1
100
AcDbLine
 10
21.187056639579
 20
0.0
 30
0.0
 11
19.437056639579
 21
0.0
 31
0.0
  0
LINE
  5
381
330
30
100
AcDbEntity
  8
SK1
100
AcDbLine
 10
21.187056639579
 20
-1.75
 30
0.0
 11
21.187056639579
 21
0.0
 31
0.0
  0
ARC
  5
382
330
30
100
AcDbEntity
  8
SK1
100
AcDbCircle
 10
21.187056639579
 20
0.0
 30
0.0
 40
1.75
100
AcDbArc
 50
180.0
 51
270.0
  0
ARC
  5
383
330
30
100
AcDbEntity
  8
SK1
100
AcDbCircle
 10
21.187056639579
 20
0.0
 30
0.0
 40
1.75
100
AcDbArc
 50
270.0
 51
0.0
  0
LINE
  5
3E4
330
30
100
AcDbEntity
  8
NOCUT
100
AcDbLine
 10
35.853987871165
 20
0.0
 30
0.0
 11
35.853987871165
 21
1.1
 31
0.0
  0
LINE
  5
3E5
330
30
100
AcDbEntity
  8
NOCUT
100
AcDbLine
 10
35.853987871165
 20
1.1
 30
0.0
 11
34.853987871165
 21
1.1
 31
0.0
  0
LINE
  5
3E6
330
30
100
AcDbEntity
  8
NOCUT
100
AcDbLine
 10
34.853987871165
 20
1.1
 30
0.0
 11
29.854108061193
 21
1.7905
 31
0.0
  0
LINE
  5
3E7
330
30
100
AcDbEntity
  8
NOCUT
100
AcDbLine
 10
29.854108061193
 20
1.7905
 30
0.0
 11
21.187056639579
 21
1.7905
 31
0.0
  0
LINE
  5
3E8
330
30
100
AcDbEntity
  8
NOCUT
100
AcDbLine
 10
21.187056639579
 20
1.7905
 30
0.0
 11
21.187056639579
 21
0.0
 31
0.0
  0
LINE
  5
3E9
330
30
100
AcDbEntity
  8
NOCUT
100
AcDbLine
 10
21.187056639579
 20
0.0
 30
0.0
 11
35.853987871165
 21
0.0
 31
0.0
  0
LINE
  5
3EA
330
30
100
AcDbEntity
  8
CUT
100
AcDbLine
 10
47.887056639579
 20
0.0
 30
0.0
 11
46.953987871165
 21
0.855
 31
0.0
  0
LINE
  5
3EB
330
30
100
AcDbEntity
  8
CUT
100
AcDbLine
 10
46.953987871165
 20
0.855
 30
0.0
 11
45.153987871165
 21
1.1
 31
0.0
  0
LINE
  5
3EC
330
30
100
AcDbEntity
  8
CUT
100
AcDbLine
 10
45.153987871165
 20
1.1
 30
0.0
 11
35.853987871165
 21
1.1
 31
0.0
  0
LINE
  5
3ED
330
30
100
AcDbEntity
  8
CUT
100
AcDbLine
 10
35.853987871165
 20
1.1
 30
0.0
 11
35.853987871165
 21
0.0
 31
0.0
  0
LINE
  5
3EE
330
30
100
AcDbEntity
  8
CUT
100
AcDbLine
 10
35.853987871165
 20
0.0
 30
0.0
 11
47.887056639579
 21
0.0
 31
0.0
  0
LINE
  5
3EF
330
30
100
AcDbEntity
  8
4
100
AcDbLine
 10
21.187056639579
 20
0.0
 30
0.0
 11
47.887056639579
 21
0.0
 31
0.0
  0
LINE
  5
3F0
330
30
100
AcDbEntity
  8
SK4
100
AcDbLine
 10
-1.0
 20
0.0
 30
0.0
 11
48.887056639579
 21
0.0
 31
0.0
  0
LINE
  5
3F1
330
30
100
AcDbEntity
  8
1
100
AcDbLine
 10
46.942967463001
 20
0.8565
 30
0.0
 11
35.853987871165
 21
0.8565
 31
0.0
  0
LINE
  5
3F2
330
30
100
AcDbEntity
  8
1
100
AcDbLine
 10
46.583992409427
 20
0.905360493403
 30
0.0
 11
46.555782790408
 21
0.8565
 31
0.0
  0
LINE
  5
3F3
330
30
100
AcDbEntity
  8
1
100
AcDbLine
 10
46.555782790408
 20
0.8565
 30
0.0
 11
46.529885330786
 21
0.8565
 31
0.0
  0
LINE
  5
3F4
330
30
100
AcDbEntity
  8
1
100
AcDbLine
 10
46.529885330786
 20
0.8565
 30
0.0
 11
46.503987871165
 21
0.8565
 31
0.0
  0
LINE
  5
3F5
330
30
100
AcDbEntity
  8
1
100
AcDbLine
 10
46.503987871165
 20
0.8565
 30
0.0
 11
46.466549113214
 21
0.921345830943
 31
0.0
  0
LINE
  5
3F6
330
30
100
AcDbEntity
  8
1
100
AcDbLine
 10
46.166778646737
 20
0.962147922214
 30
0.0
 11
46.105782790408
 21
0.8565
 31
0.0
  0
LINE
  5
3F7
330
30
100
AcDbEntity
  8
1
100
AcDbLine
 10
46.105782790408
 20
0.8565
 30
0.0
 11
46.079885330786
 21
0.8565
 31
0.0
  0
LINE
  5
3F8
330
30
100
AcDbEntity
  8
1
100
AcDbLine
 10
46.079885330786
 20
0.8565
 30
0.0
 11
46.053987871165
 21
0.8565
 31
0.0
  0
LINE
  5
3F9
330
30
100
AcDbEntity
  8
1
100
AcDbLine
 10
46.053987871165
 20
0.8565
 30
0.0
 11
45.978170470126
 21
0.987819590697
 31
0.0
  0
LINE
  5
3FA
330
30
100
AcDbEntity
  8
1
100
AcDbLine
 10
45.749564884047
 20
1.018935351024
 30
0.0
 11
45.655782790408
 21
0.8565
 31
0.0
  0
LINE
  5
3FB
330
30
100
AcDbEntity
  8
1
100
AcDbLine
 10
45.655782790408
 20
0.8565
 30
0.0
 11
45.629885330786
 21
0.8565
 31
0.0
  0
LINE
  5
3FC
330
30
100
AcDbEntity
  8
1
100
AcDbLine
 10
45.629885330786
 20
0.8565
 30
0.0
 11
45.603987871165
 21
0.8565
 31
0.0
  0
LINE
  5
3FD
330
30
100
AcDbEntity
  8
1
100
AcDbLine
 10
45.603987871165
 20
0.8565
 30
0.0
 11
45.489791827038
 21
1.054293350451
 31
0.0
  0
LINE
  5
3FE
330
30
100
AcDbEntity
  8
1
100
AcDbLine
 10
45.332351121358
 20
1.075722779835
 30
0.0
 11
45.205782790408
 21
0.8565
 31
0.0
  0
LINE
  5
3FF
330
30
100
AcDbEntity
  8
1
100
AcDbLine
 10
45.205782790408
 20
0.8565
 30
0.0
 11
45.179885330786
 21
0.8565
 31
0.0
  0
LINE
  5
400
330
30
100
AcDbEntity
  8
1
100
AcDbLine
 10
45.179885330786
 20
0.8565
 30
0.0
 11
45.153987871165
 21
0.8565
 31
0.0
  0
LINE
  5
401
330
30
100
AcDbEntity
  8
1
100
AcDbLine
 10
45.153987871165
 20
0.8565
 30
0.0
 11
45.013403080617
 21
1.1
 31
0.0
  0
LINE
  5
402
330
30
100
AcDbEntity
  8
1
100
AcDbLine
 10
45.013403080617
 20
1.1
 30
0.0
 11
44.954885330786
 21
1.1
 31
0.0
  0
LINE
  5
403
330
30
100
AcDbEntity
  8
1
100
AcDbLine
 10
44.954885330786
 20
1.1
 30
0.0
 11
44.896367580955
 21
1.1
 31
0.0
  0
LINE
  5
404
330
30
100
AcDbEntity
  8
1
100
AcDbLine
 10
44.896367580955
 20
1.1
 30
0.0
 11
44.755782790408
 21
0.8565
 31
0.0
  0
LINE
  5
405
330
30
100
AcDbEntity
  8
1
100
AcDbLine
 10
44.755782790408
 20
0.8565
 30
0.0
 11
44.729885330786
 21
0.8565
 31
0.0
  0
LINE
  5
406
330
30
100
AcDbEntity
  8
1
100
AcDbLine
 10
44.729885330786
 20
0.8565
 30
0.0
 11
44.703987871165
 21
0.8565
 31
0.0
  0
LINE
  5
407
330
30
100
AcDbEntity
  8
1
100
AcDbLine
 10
44.703987871165
 20
0.8565
 30
0.0
 11
44.563403080617
 21
1.1
 31
0.0
  0
LINE
  5
408
330
30
100
AcDbEntity
  8
1
100
AcDbLine
 10
44.563403080617
 20
1.1
 30
0.0
 11
44.504885330786
 21
1.1
 31
0.0
  0
LINE
  5
409
330
30
100
AcDbEntity
  8
1
100
AcDbLine
 10
44.504885330786
 20
1.1
 30
0.0
 11
44.446367580955
 21
1.1
 31
0.0
  0
LINE
  5
40A
330
30
100
AcDbEntity
  8
1
100
AcDbLine
 10
44.446367580955
 20
1.1
 30
0.0
 11
44.305782790408
 21
0.8565
 31
0.0
  0
LINE
  5
40B
330
30
100
AcDbEntity
  8
1
100
AcDbLine
 10
44.305782790408
 20
0.8565
 30
0.0
 11
44.279885330786
 21
0.8565
 31
0.0
  0
LINE
  5
40C
330
30
100
AcDbEntity
  8
1
100
AcDbLine
 10
44.279885330786
 20
0.8565
 30
0.0
 11
44.253987871165
 21
0.8565
 31
0.0
  0
LINE
  5
40D
330
30
100
AcDbEntity
  8
1
100
AcDbLine
 10
44.253987871165
 20
0.8565
 30
0.0
 11
44.113403080617
 21
1.1
 31
0.0
  0
LINE
  5
40E
330
30
100
AcDbEntity
  8
1
100
AcDbLine
 10
44.113403080617
 20
1.1
 30
0.0
 11
44.054885330786
 21
1.1
 31
0.0
  0
LINE
  5
40F
330
30
100
AcDbEntity
  8
1
100
AcDbLine
 10
44.054885330786
 20
1.1
 30
0.0
 11
43.996367580955
 21
1.1
 31
0.0
  0
LINE
  5
410
330
30
100
AcDbEntity
  8
1
100
AcDbLine
 10
43.996367580955
 20
1.1
 30
0.0
 11
43.855782790408
 21
0.8565
 31
0.0
  0
LINE
  5
411
330
30
100
AcDbEntity
  8
1
100
AcDbLine
 10
43.855782790408
 20
0.8565
 30
0.0
 11
43.829885330786
 21
0.8565
 31
0.0
  0
LINE
  5
412
330
30
100
AcDbEntity
  8
1
100
AcDbLine
 10
43.829885330786
 20
0.8565
 30
0.0
 11
43.803987871165
 21
0.8565
 31
0.0
  0
LINE
  5
413
330
30
100
AcDbEntity
  8
1
100
AcDbLine
 10
43.803987871165
 20
0.8565
 30
0.0
 11
43.663403080617
 21
1.1
 31
0.0
  0
LINE
  5
414
330
30
100
AcDbEntity
  8
1
100
AcDbLine
 10
43.663403080617
 20
1.1
 30
0.0
 11
43.604885330786
 21
1.1
 31
0.0
  0
LINE
  5
415
330
30
100
AcDbEntity
  8
1
100
AcDbLine
 10
43.604885330786
 20
1.1
 30
0.0
 11
43.546367580955
 21
1.1
 31
0.0
  0
LINE
  5
416
330
30
100
AcDbEntity
  8
1
100
AcDbLine
 10
43.546367580955
 20
1.1
 30
0.0
 11
43.405782790408
 21
0.8565
 31
0.0
  0
LINE
  5
417
330
30
100
AcDbEntity
  8
1
100
AcDbLine
 10
43.405782790408
 20
0.8565
 30
0.0
 11
43.379885330786
 21
0.8565
 31
0.0
  0
LINE
  5
418
330
30
100
AcDbEntity
  8
1
100
AcDbLine
 10
43.379885330786
 20
0.8565
 30
0.0
 11
43.353987871165
 21
0.8565
 31
0.0
  0
LINE
  5
419
330
30
100
AcDbEntity
  8
1
100
AcDbLine
 10
43.353987871165
 20
0.8565
 30
0.0
 11
43.213403080617
 21
1.1
 31
0.0
  0
LINE
  5
41A
330
30
100
AcDbEntity
  8
1
100
AcDbLine
 10
43.213403080617
 20
1.1
 30
0.0
 11
43.154885330786
 21
1.1
 31
0.0
  0
LINE
  5
41B
330
30
100
AcDbEntity
  8
1
100
AcDbLine
 10
43.154885330786
 20
1.1
 30
0.0
 11
43.096367580955
 21
1.1
 31
0.0
  0
LINE
  5
41C
330
30
100
AcDbEntity
  8
1
100
AcDbLine
 10
43.096367580955
 20
1.1
 30
0.0
 11
42.955782790408
 21
0.8565
 31
0.0
  0
LINE
  5
41D
330
30
100
AcDbEntity
  8
1
100
AcDbLine
 10
42.955782790408
 20
0.8565
 30
0.0
 11
42.929885330786
 21
0.8565
 31
0.0
  0
LINE
  5
41E
330
30
100
AcDbEntity
  8
1
100
AcDbLine
 10
42.929885330786
 20
0.8565
 30
0.0
 11
42.903987871165
 21
0.8565
 31
0.0
  0
LINE
  5
41F
330
30
100
AcDbEntity
  8
1
100
AcDbLine
 10
42.903987871165
 20
0.8565
 30
0.0
 11
42.763403080617
 21
1.1
 31
0.0
  0
LINE
  5
420
330
30
100
AcDbEntity
  8
1
100
AcDbLine
 10
42.763403080617
 20
1.1
 30
0.0
 11
42.704885330786
 21
1.1
 31
0.0
  0
LINE
  5
421
330
30
100
AcDbEntity
  8
1
100
AcDbLine
 10
42.704885330786
 20
1.1
 30
0.0
 11
42.646367580955
 21
1.1
 31
0.0
  0
LINE
  5
422
330
30
100
AcDbEntity
  8
1
100
AcDbLine
 10
42.646367580955
 20
1.1
 30
0.0
 11
42.505782790408
 21
0.8565
 31
0.0
  0
LINE
  5
423
330
30
100
AcDbEntity
  8
1
100
AcDbLine
 10
42.505782790408
 20
0.8565
 30
0.0
 11
42.479885330786
 21
0.8565
 31
0.0
  0
LINE
  5
424
330
30
100
AcDbEntity
  8
1
100
AcDbLine
 10
42.479885330786
 20
0.8565
 30
0.0
 11
42.453987871165
 21
0.8565
 31
0.0
  0
LINE
  5
425
330
30
100
AcDbEntity
  8
1
100
AcDbLine
 10
42.453987871165
 20
0.8565
 30
0.0
 11
42.313403080617
 21
1.1
 31
0.0
  0
LINE
  5
426
330
30
100
AcDbEntity
  8
1
100
AcDbLine
 10
42.313403080617
 20
1.1
 30
0.0
 11
42.254885330786
 21
1.1
 31
0.0
  0
LINE
  5
427
330
30
100
AcDbEntity
  8
1
100
AcDbLine
 10
42.254885330786
 20
1.1
 30
0.0
 11
42.196367580955
 21
1.1
 31
0.0
  0
LINE
  5
428
330
30
100
AcDbEntity
  8
1
100
AcDbLine
 10
42.196367580955
 20
1.1
 30
0.0
 11
42.055782790408
 21
0.8565
 31
0.0
  0
LINE
  5
429
330
30
100
AcDbEntity
  8
1
100
AcDbLine
 10
42.055782790408
 20
0.8565
 30
0.0
 11
42.029885330786
 21
0.8565
 31
0.0
  0
LINE
  5
42A
330
30
100
AcDbEntity
  8
1
100
AcDbLine
 10
42.029885330786
 20
0.8565
 30
0.0
 11
42.003987871165
 21
0.8565
 31
0.0
  0
LINE
  5
42B
330
30
100
AcDbEntity
  8
1
100
AcDbLine
 10
42.003987871165
 20
0.8565
 30
0.0
 11
41.863403080617
 21
1.1
 31
0.0
  0
LINE
  5
42C
330
30
100
AcDbEntity
  8
1
100
AcDbLine
 10
41.863403080617
 20
1.1
 30
0.0
 11
41.804885330786
 21
1.1
 31
0.0
  0
LINE
  5
42D
330
30
100
AcDbEntity
  8
1
100
AcDbLine
 10
41.804885330786
 20
1.1
 30
0.0
 11
41.746367580955
 21
1.1
 31
0.0
  0
LINE
  5
42E
330
30
100
AcDbEntity
  8
1
100
AcDbLine
 10
41.746367580955
 20
1.1
 30
0.0
 11
41.605782790408
 21
0.8565
 31
0.0
  0
LINE
  5
42F
330
30
100
AcDbEntity
  8
1
100
AcDbLine
 10
41.605782790408
 20
0.8565
 30
0.0
 11
41.579885330786
 21
0.8565
 31
0.0
  0
LINE
  5
430
330
30
100
AcDbEntity
  8
1
100
AcDbLine
 10
41.579885330786
 20
0.8565
 30
0.0
 11
41.553987871165
 21
0.8565
 31
0.0
  0
LINE
  5
431
330
30
100
AcDbEntity
  8
1
100
AcDbLine
 10
41.553987871165
 20
0.8565
 30
0.0
 11
41.413403080617
 21
1.1
 31
0.0
  0
LINE
  5
432
330
30
100
AcDbEntity
  8
1
100
AcDbLine
 10
41.413403080617
 20
1.1
 30
0.0
 11
41.354885330786
 21
1.1
 31
0.0
  0
LINE
  5
433
330
30
100
AcDbEntity
  8
1
100
AcDbLine
 10
41.354885330786
 20
1.1
 30
0.0
 11
41.296367580955
 21
1.1
 31
0.0
  0
LINE
  5
434
330
30
100
AcDbEntity
  8
1
100
AcDbLine
 10
41.296367580955
 20
1.1
 30
0.0
 11
41.155782790408
 21
0.8565
 31
0.0
  0
LINE
  5
435
330
30
100
AcDbEntity
  8
1
100
AcDbLine
 10
41.155782790408
 20
0.8565
 30
0.0
 11
41.129885330786
 21
0.8565
 31
0.0
  0
LINE
  5
436
330
30
100
AcDbEntity
  8
1
100
AcDbLine
 10
41.129885330786
 20
0.8565
 30
0.0
 11
41.103987871165
 21
0.8565
 31
0.0
  0
LINE
  5
437
330
30
100
AcDbEntity
  8
1
100
AcDbLine
 10
41.103987871165
 20
0.8565
 30
0.0
 11
40.963403080617
 21
1.1
 31
0.0
  0
LINE
  5
438
330
30
100
AcDbEntity
  8
1
100
AcDbLine
 10
40.963403080617
 20
1.1
 30
0.0
 11
40.904885330786
 21
1.1
 31
0.0
  0
LINE
  5
439
330
30
100
AcDbEntity
  8
1
100
AcDbLine
 10
40.904885330786
 20
1.1
 30
0.0
 11
40.846367580955
 21
1.1
 31
0.0
  0
LINE
  5
43A
330
30
100
AcDbEntity
  8
1
100
AcDbLine
 10
40.846367580955
 20
1.1
 30
0.0
 11
40.705782790408
 21
0.8565
 31
0.0
  0
LINE
  5
43B
330
30
100
AcDbEntity
  8
1
100
AcDbLine
 10
40.705782790408
 20
0.8565
 30
0.0
 11
40.679885330786
 21
0.8565
 31
0.0
  0
LINE
  5
43C
330
30
100
AcDbEntity
  8
1
100
AcDbLine
 10
40.679885330786
 20
0.8565
 30
0.0
 11
40.653987871165
 21
0.8565
 31
0.0
  0
LINE
  5
43D
330
30
100
AcDbEntity
  8
1
100
AcDbLine
 10
40.653987871165
 20
0.8565
 30
0.0
 11
40.513403080617
 21
1.1
 31
0.0
  0
LINE
  5
43E
330
30
100
AcDbEntity
  8
1
100
AcDbLine
 10
40.513403080617
 20
1.1
 30
0.0
 11
40.454885330786
 21
1.1
 31
0.0
  0
LINE
  5
43F
330
30
100
AcDbEntity
  8
1
100
AcDbLine
 10
40.454885330786
 20
1.1
 30
0.0
 11
40.396367580955
 21
1.1
 31
0.0
  0
LINE
  5
440
330
30
100
AcDbEntity
  8
1
100
AcDbLine
 10
40.396367580955
 20
1.1
 30
0.0
 11
40.255782790408
 21
0.8565
 31
0.0
  0
LINE
  5
441
330
30
100
AcDbEntity
  8
1
100
AcDbLine
 10
40.255782790408
 20
0.8565
 30
0.0
 11
40.229885330786
 21
0.8565
 31
0.0
  0
LINE
  5
442
330
30
100
AcDbEntity
  8
1
100
AcDbLine
 10
40.229885330786
 20
0.8565
 30
0.0
 11
40.203987871165
 21
0.8565
 31
0.0
  0
LINE
  5
443
330
30
100
AcDbEntity
  8
1
100
AcDbLine
 10
40.203987871165
 20
0.8565
 30
0.0
 11
40.063403080617
 21
1.1
 31
0.0
  0
LINE
  5
444
330
30
100
AcDbEntity
  8
1
100
AcDbLine
 10
40.063403080617
 20
1.1
 30
0.0
 11
40.004885330786
 21
1.1
 31
0.0
  0
LINE
  5
445
330
30
100
AcDbEntity
  8
1
100
AcDbLine
 10
40.004885330786
 20
1.1
 30
0.0
 11
39.946367580955
 21
1.1
 31
0.0
  0
LINE
  5
446
330
30
100
AcDbEntity
  8
1
100
AcDbLine
 10
39.946367580955
 20
1.1
 30
0.0
 11
39.805782790408
 21
0.8565
 31
0.0
  0
LINE
  5
447
330
30
100
AcDbEntity
  8
1
100
AcDbLine
 10
39.805782790408
 20
0.8565
 30
0.0
 11
39.779885330786
 21
0.8565
 31
0.0
  0
LINE
  5
448
330
30
100
AcDbEntity
  8
1
100
AcDbLine
 10
39.779885330786
 20
0.8565
 30
0.0
 11
39.753987871165
 21
0.8565
 31
0.0
  0
LINE
  5
449
330
30
100
AcDbEntity
  8
1
100
AcDbLine
 10
39.753987871165
 20
0.8565
 30
0.0
 11
39.613403080617
 21
1.1
 31
0.0
  0
LINE
  5
44A
330
30
100
AcDbEntity
  8
1
100
AcDbLine
 10
39.613403080617
 20
1.1
 30
0.0
 11
39.554885330786
 21
1.1
 31
0.0
  0
LINE
  5
44B
330
30
100
AcDbEntity
  8
1
100
AcDbLine
 10
39.554885330786
 20
1.1
 30
0.0
 11
39.496367580955
 21
1.1
 31
0.0
  0
LINE
  5
44C
330
30
100
AcDbEntity
  8
1
100
AcDbLine
 10
39.496367580955
 20
1.1
 30
0.0
 11
39.355782790408
 21
0.8565
 31
0.0
  0
LINE
  5
44D
330
30
100
AcDbEntity
  8
1
100
AcDbLine
 10
39.355782790408
 20
0.8565
 30
0.0
 11
39.329885330786
 21
0.8565
 31
0.0
  0
LINE
  5
44E
330
30
100
AcDbEntity
  8
1
100
AcDbLine
 10
39.329885330786
 20
0.8565
 30
0.0
 11
39.303987871165
 21
0.8565
 31
0.0
  0
LINE
  5
44F
330
30
100
AcDbEntity
  8
1
100
AcDbLine
 10
39.303987871165
 20
0.8565
 30
0.0
 11
39.163403080617
 21
1.1
 31
0.0
  0
LINE
  5
450
330
30
100
AcDbEntity
  8
1
100
AcDbLine
 10
39.163403080617
 20
1.1
 30
0.0
 11
39.104885330786
 21
1.1
 31
0.0
  0
LINE
  5
451
330
30
100
AcDbEntity
  8
1
100
AcDbLine
 10
39.104885330786
 20
1.1
 30
0.0
 11
39.046367580955
 21
1.1
 31
0.0
  0
LINE
  5
452
330
30
100
AcDbEntity
  8
1
100
AcDbLine
 10
39.046367580955
 20
1.1
 30
0.0
 11
38.905782790408
 21
0.8565
 31
0.0
  0
LINE
  5
453
330
30
100
AcDbEntity
  8
1
100
AcDbLine
 10
38.905782790408
 20
0.8565
 30
0.0
 11
38.879885330786
 21
0.8565
 31
0.0
  0
LINE
  5
454
330
30
100
AcDbEntity
  8
1
100
AcDbLine
 10
38.879885330786
 20
0.8565
 30
0.0
 11
38.853987871165
 21
0.8565
 31
0.0
  0
LINE
  5
455
330
30
100
AcDbEntity
  8
1
100
AcDbLine
 10
38.853987871165
 20
0.8565
 30
0.0
 11
38.713403080617
 21
1.1
 31
0.0
  0
LINE
  5
456
330
30
100
AcDbEntity
  8
1
100
AcDbLine
 10
38.713403080617
 20
1.1
 30
0.0
 11
38.654885330786
 21
1.1
 31
0.0
  0
LINE
  5
457
330
30
100
AcDbEntity
  8
1
100
AcDbLine
 10
38.654885330786
 20
1.1
 30
0.0
 11
38.596367580955
 21
1.1
 31
0.0
  0
LINE
  5
458
330
30
100
AcDbEntity
  8
1
100
AcDbLine
 10
38.596367580955
 20
1.1
 30
0.0
 11
38.455782790408
 21
0.8565
 31
0.0
  0
LINE
  5
459
330
30
100
AcDbEntity
  8
1
100
AcDbLine
 10
38.455782790408
 20
0.8565
 30
0.0
 11
38.429885330786
 21
0.8565
 31
0.0
  0
LINE
  5
45A
330
30
100
AcDbEntity
  8
1
100
AcDbLine
 10
38.429885330786
 20
0.8565
 30
0.0
 11
38.403987871165
 21
0.8565
 31
0.0
  0
LINE
  5
45B
330
30
100
AcDbEntity
  8
1
100
AcDbLine
 10
38.403987871165
 20
0.8565
 30
0.0
 11
38.263403080617
 21
1.1
 31
0.0
  0
LINE
  5
45C
330
30
100
AcDbEntity
  8
1
100
AcDbLine
 10
38.263403080617
 20
1.1
 30
0.0
 11
38.204885330786
 21
1.1
 31
0.0
  0
LINE
  5
45D
330
30
100
AcDbEntity
  8
1
100
AcDbLine
 10
38.204885330786
 20
1.1
 30
0.0
 11
38.146367580955
 21
1.1
 31
0.0
  0
LINE
  5
45E
330
30
100
AcDbEntity
  8
1
100
AcDbLine
 10
38.146367580955
 20
1.1
 30
0.0
 11
38.005782790408
 21
0.8565
 31
0.0
  0
LINE
  5
45F
330
30
100
AcDbEntity
  8
1
100
AcDbLine
 10
38.005782790408
 20
0.8565
 30
0.0
 11
37.979885330786
 21
0.8565
 31
0.0
  0
LINE
  5
460
330
30
100
AcDbEntity
  8
1
100
AcDbLine
 10
37.979885330786
 20
0.8565
 30
0.0
 11
37.953987871165
 21
0.8565
 31
0.0
  0
LINE
  5
461
330
30
100
AcDbEntity
  8
1
100
AcDbLine
 10
37.953987871165
 20
0.8565
 30
0.0
 11
37.813403080617
 21
1.1
 31
0.0
  0
LINE
  5
462
330
30
100
AcDbEntity
  8
1
100
AcDbLine
 10
37.813403080617
 20
1.1
 30
0.0
 11
37.754885330786
 21
1.1
 31
0.0
  0
LINE
  5
463
330
30
100
AcDbEntity
  8
1
100
AcDbLine
 10
37.754885330786
 20
1.1
 30
0.0
 11
37.696367580955
 21
1.1
 31
0.0
  0
LINE
  5
464
330
30
100
AcDbEntity
  8
1
100
AcDbLine
 10
37.696367580955
 20
1.1
 30
0.0
 11
37.555782790408
 21
0.8565
 31
0.0
  0
LINE
  5
465
330
30
100
AcDbEntity
  8
1
100
AcDbLine
 10
37.555782790408
 20
0.8565
 30
0.0
 11
37.529885330786
 21
0.8565
 31
0.0
  0
LINE
  5
466
330
30
100
AcDbEntity
  8
1
100
AcDbLine
 10
37.529885330786
 20
0.8565
 30
0.0
 11
37.503987871165
 21
0.8565
 31
0.0
  0
LINE
  5
467
330
30
100
AcDbEntity
  8
1
100
AcDbLine
 10
37.503987871165
 20
0.8565
 30
0.0
 11
37.363403080617
 21
1.1
 31
0.0
  0
LINE
  5
468
330
30
100
AcDbEntity
  8
1
100
AcDbLine
 10
37.363403080617
 20
1.1
 30
0.0
 11
37.304885330786
 21
1.1
 31
0.0
  0
LINE
  5
469
330
30
100
AcDbEntity
  8
1
100
AcDbLine
 10
37.304885330786
 20
1.1
 30
0.0
 11
37.246367580955
 21
1.1
 31
0.0
  0
LINE
  5
46A
330
30
100
AcDbEntity
  8
1
100
AcDbLine
 10
37.246367580955
 20
1.1
 30
0.0
 11
37.105782790408
 21
0.8565
 31
0.0
  0
LINE
  5
46B
330
30
100
AcDbEntity
  8
1
100
AcDbLine
 10
37.105782790408
 20
0.8565
 30
0.0
 11
37.079885330786
 21
0.8565
 31
0.0
  0
LINE
  5
46C
330
30
100
AcDbEntity
  8
1
100
AcDbLine
 10
37.079885330786
 20
0.8565
 30
0.0
 11
37.053987871165
 21
0.8565
 31
0.0
  0
LINE
  5
46D
330
30
100
AcDbEntity
  8
1
100
AcDbLine
 10
37.053987871165
 20
0.8565
 30
0.0
 11
36.913403080617
 21
1.1
 31
0.0
  0
LINE
  5
46E
330
30
100
AcDbEntity
  8
1
100
AcDbLine
 10
36.913403080617
 20
1.1
 30
0.0
 11
36.854885330786
 21
1.1
 31
0.0
  0
LINE
  5
46F
330
30
100
AcDbEntity
  8
1
100
AcDbLine
 10
36.854885330786
 20
1.1
 30
0.0
 11
36.796367580955
 21
1.1
 31
0.0
  0
LINE
  5
470
330
30
100
AcDbEntity
  8
1
100
AcDbLine
 10
36.796367580955
 20
1.1
 30
0.0
 11
36.655782790408
 21
0.8565
 31
0.0
  0
LINE
  5
471
330
30
100
AcDbEntity
  8
1
100
AcDbLine
 10
36.655782790408
 20
0.8565
 30
0.0
 11
36.629885330786
 21
0.8565
 31
0.0
  0
LINE
  5
472
330
30
100
AcDbEntity
  8
1
100
AcDbLine
 10
36.629885330786
 20
0.8565
 30
0.0
 11
36.603987871165
 21
0.8565
 31
0.0
  0
LINE
  5
473
330
30
100
AcDbEntity
  8
1
100
AcDbLine
 10
36.603987871165
 20
0.8565
 30
0.0
 11
36.463403080617
 21
1.1
 31
0.0
  0
LINE
  5
474
330
30
100
AcDbEntity
  8
1
100
AcDbLine
 10
36.463403080617
 20
1.1
 30
0.0
 11
36.404885330786
 21
1.1
 31
0.0
  0
LINE
  5
475
330
30
100
AcDbEntity
  8
1
100
AcDbLine
 10
36.404885330786
 20
1.1
 30
0.0
 11
36.346367580955
 21
1.1
 31
0.0
  0
LINE
  5
476
330
30
100
AcDbEntity
  8
1
100
AcDbLine
 10
36.346367580955
 20
1.1
 30
0.0
 11
36.205782790408
 21
0.8565
 31
0.0
  0
LINE
  5
477
330
30
100
AcDbEntity
  8
1
100
AcDbLine
 10
36.205782790408
 20
0.8565
 30
0.0
 11
36.179885330786
 21
0.8565
 31
0.0
  0
LINE
  5
478
330
30
100
AcDbEntity
  8
1
100
AcDbLine
 10
36.179885330786
 20
0.8565
 30
0.0
 11
36.153987871165
 21
0.8565
 31
0.0
  0
LINE
  5
479
330
30
100
AcDbEntity
  8
1
100
AcDbLine
 10
36.153987871165
 20
0.8565
 30
0.0
 11
36.013403080617
 21
1.1
 31
0.0
  0
LINE
  5
47A
330
30
100
AcDbEntity
  8
1
100
AcDbLine
 10
36.013403080617
 20
1.1
 30
0.0
 11
35.954885330786
 21
1.1
 31
0.0
  0
LINE
  5
47B
330
30
100
AcDbEntity
  8
1
100
AcDbLine
 10
35.954885330786
 20
1.1
 30
0.0
 11
35.896367580955
 21
1.1
 31
0.0
  0
LINE
  5
47C
330
30
100
AcDbEntity
  8
1
100
AcDbLine
 10
35.896367580955
 20
1.1
 30
0.0
 11
35.755782790408
 21
0.8565
 31
0.0
  0
LINE
  5
47D
330
30
100
AcDbEntity
  8
1
100
AcDbLine
 10
35.755782790408
 20
0.8565
 30
0.0
 11
35.729885330786
 21
0.8565
 31
0.0
  0
LINE
  5
47E
330
30
100
AcDbEntity
  8
1
100
AcDbLine
 10
35.729885330786
 20
0.8565
 30
0.0
 11
35.703987871165
 21
0.8565
 31
0.0
  0
LINE
  5
47F
330
30
100
AcDbEntity
  8
1
100
AcDbLine
 10
46.942967463001
 20
-0.8565
 30
0.0
 11
35.853987871165
 21
-0.8565
 31
0.0
  0
LINE
  5
480
330
30
100
AcDbEntity
  8
1
100
AcDbLine
 10
46.583992409427
 20
-0.905360493403
 30
0.0
 11
46.555782790408
 21
-0.8565
 31
0.0
  0
LINE
  5
481
330
30
100
AcDbEntity
  8
1
100
AcDbLine
 10
46.555782790408
 20
-0.8565
 30
0.0
 11
46.529885330786
 21
-0.8565
 31
0.0
  0
LINE
  5
482
330
30
100
AcDbEntity
  8
1
100
AcDbLine
 10
46.529885330786
 20
-0.8565
 30
0.0
 11
46.503987871165
 21
-0.8565
 31
0.0
  0
LINE
  5
483
330
30
100
AcDbEntity
  8
1
100
AcDbLine
 10
46.503987871165
 20
-0.8565
 30
0.0
 11
46.466549113214
 21
-0.921345830943
 31
0.0
  0
LINE
  5
484
330
30
100
AcDbEntity
  8
1
100
AcDbLine
 10
46.166778646737
 20
-0.962147922214
 30
0.0
 11
46.105782790408
 21
-0.8565
 31
0.0
  0
LINE
  5
485
330
30
100
AcDbEntity
  8
1
100
AcDbLine
 10
46.105782790408
 20
-0.8565
 30
0.0
 11
46.079885330786
 21
-0.8565
 31
0.0
  0
LINE
  5
486
330
30
100
AcDbEntity
  8
1
100
AcDbLine
 10
46.079885330786
 20
-0.8565
 30
0.0
 11
46.053987871165
 21
-0.8565
 31
0.0
  0
LINE
  5
487
330
30
100
AcDbEntity
  8
1
100
AcDbLine
 10
46.053987871165
 20
-0.8565
 30
0.0
 11
45.978170470126
 21
-0.987819590697
 31
0.0
  0
LINE
  5
488
330
30
100
AcDbEntity
  8
1
100
AcDbLine
 10
45.749564884047
 20
-1.018935351024
 30
0.0
 11
45.655782790408
 21
-0.8565
 31
0.0
  0
LINE
  5
489
330
30
100
AcDbEntity
  8
1
100
AcDbLine
 10
45.655782790408
 20
-0.8565
 30
0.0
 11
45.629885330786
 21
-0.8565
 31
0.0
  0
LINE
  5
48A
330
30
100
AcDbEntity
  8
1
100
AcDbLine
 10
45.629885330786
 20
-0.8565
 30
0.0
 11
45.603987871165
 21
-0.8565
 31
0.0
  0
LINE
  5
48B
330
30
100
AcDbEntity
  8
1
100
AcDbLine
 10
45.603987871165
 20
-0.8565
 30
0.0
 11
45.489791827038
 21
-1.054293350451
 31
0.0
  0
LINE
  5
48C
330
30
100
AcDbEntity
  8
1
100
AcDbLine
 10
45.332351121358
 20
-1.075722779835
 30
0.0
 11
45.205782790408
 21
-0.8565
 31
0.0
  0
LINE
  5
48D
330
30
100
AcDbEntity
  8
1
100
AcDbLine
 10
45.205782790408
 20
-0.8565
 30
0.0
 11
45.179885330786
 21
-0.8565
 31
0.0
  0
LINE
  5
48E
330
30
100
AcDbEntity
  8
1
100
AcDbLine
 10
45.179885330786
 20
-0.8565
 30
0.0
 11
45.153987871165
 21
-0.8565
 31
0.0
  0
LINE
  5
48F
330
30
100
AcDbEntity
  8
1
100
AcDbLine
 10
45.153987871165
 20
-0.8565
 30
0.0
 11
45.013403080617
 21
-1.1
 31
0.0
  0
LINE
  5
490
330
30
100
AcDbEntity
  8
1
100
AcDbLine
 10
45.013403080617
 20
-1.1
 30
0.0
 11
44.954885330786
 21
-1.1
 31
0.0
  0
LINE
  5
491
330
30
100
AcDbEntity
  8
1
100
AcDbLine
 10
44.954885330786
 20
-1.1
 30
0.0
 11
44.896367580955
 21
-1.1
 31
0.0
  0
LINE
  5
492
330
30
100
AcDbEntity
  8
1
100
AcDbLine
 10
44.896367580955
 20
-1.1
 30
0.0
 11
44.755782790408
 21
-0.8565
 31
0.0
  0
LINE
  5
493
330
30
100
AcDbEntity
  8
1
100
AcDbLine
 10
44.755782790408
 20
-0.8565
 30
0.0
 11
44.729885330786
 21
-0.8565
 31
0.0
  0
LINE
  5
494
330
30
100
AcDbEntity
  8
1
100
AcDbLine
 10
44.729885330786
 20
-0.8565
 30
0.0
 11
44.703987871165
 21
-0.8565
 31
0.0
  0
LINE
  5
495
330
30
100
AcDbEntity
  8
1
100
AcDbLine
 10
44.703987871165
 20
-0.8565
 30
0.0
 11
44.563403080617
 21
-1.1
 31
0.0
  0
LINE
  5
496
330
30
100
AcDbEntity
  8
1
100
AcDbLine
 10
44.563403080617
 20
-1.1
 30
0.0
 11
44.504885330786
 21
-1.1
 31
0.0
  0
LINE
  5
497
330
30
100
AcDbEntity
  8
1
100
AcDbLine
 10
44.504885330786
 20
-1.1
 30
0.0
 11
44.446367580955
 21
-1.1
 31
0.0
  0
LINE
  5
498
330
30
100
AcDbEntity
  8
1
100
AcDbLine
 10
44.446367580955
 20
-1.1
 30
0.0
 11
44.305782790408
 21
-0.8565
 31
0.0
  0
LINE
  5
499
330
30
100
AcDbEntity
  8
1
100
AcDbLine
 10
44.305782790408
 20
-0.8565
 30
0.0
 11
44.279885330786
 21
-0.8565
 31
0.0
  0
LINE
  5
49A
330
30
100
AcDbEntity
  8
1
100
AcDbLine
 10
44.279885330786
 20
-0.8565
 30
0.0
 11
44.253987871165
 21
-0.8565
 31
0.0
  0
LINE
  5
49B
330
30
100
AcDbEntity
  8
1
100
AcDbLine
 10
44.253987871165
 20
-0.8565
 30
0.0
 11
44.113403080617
 21
-1.1
 31
0.0
  0
LINE
  5
49C
330
30
100
AcDbEntity
  8
1
100
AcDbLine
 10
44.113403080617
 20
-1.1
 30
0.0
 11
44.054885330786
 21
-1.1
 31
0.0
  0
LINE
  5
49D
330
30
100
AcDbEntity
  8
1
100
AcDbLine
 10
44.054885330786
 20
-1.1
 30
0.0
 11
43.996367580955
 21
-1.1
 31
0.0
  0
LINE
  5
49E
330
30
100
AcDbEntity
  8
1
100
AcDbLine
 10
43.996367580955
 20
-1.1
 30
0.0
 11
43.855782790408
 21
-0.8565
 31
0.0
  0
LINE
  5
49F
330
30
100
AcDbEntity
  8
1
100
AcDbLine
 10
43.855782790408
 20
-0.8565
 30
0.0
 11
43.829885330786
 21
-0.8565
 31
0.0
  0
LINE
  5
4A0
330
30
100
AcDbEntity
  8
1
100
AcDbLine
 10
43.829885330786
 20
-0.8565
 30
0.0
 11
43.803987871165
 21
-0.8565
 31
0.0
  0
LINE
  5
4A1
330
30
100
AcDbEntity
  8
1
100
AcDbLine
 10
43.803987871165
 20
-0.8565
 30
0.0
 11
43.663403080617
 21
-1.1
 31
0.0
  0
LINE
  5
4A2
330
30
100
AcDbEntity
  8
1
100
AcDbLine
 10
43.663403080617
 20
-1.1
 30
0.0
 11
43.604885330786
 21
-1.1
 31
0.0
  0
LINE
  5
4A3
330
30
100
AcDbEntity
  8
1
100
AcDbLine
 10
43.604885330786
 20
-1.1
 30
0.0
 11
43.546367580955
 21
-1.1
 31
0.0
  0
LINE
  5
4A4
330
30
100
AcDbEntity
  8
1
100
AcDbLine
 10
43.546367580955
 20
-1.1
 30
0.0
 11
43.405782790408
 21
-0.8565
 31
0.0
  0
LINE
  5
4A5
330
30
100
AcDbEntity
  8
1
100
AcDbLine
 10
43.405782790408
 20
-0.8565
 30
0.0
 11
43.379885330786
 21
-0.8565
 31
0.0
  0
LINE
  5
4A6
330
30
100
AcDbEntity
  8
1
100
AcDbLine
 10
43.379885330786
 20
-0.8565
 30
0.0
 11
43.353987871165
 21
-0.8565
 31
0.0
  0
LINE
  5
4A7
330
30
100
AcDbEntity
  8
1
100
AcDbLine
 10
43.353987871165
 20
-0.8565
 30
0.0
 11
43.213403080617
 21
-1.1
 31
0.0
  0
LINE
  5
4A8
330
30
100
AcDbEntity
  8
1
100
AcDbLine
 10
43.213403080617
 20
-1.1
 30
0.0
 11
43.154885330786
 21
-1.1
 31
0.0
  0
LINE
  5
4A9
330
30
100
AcDbEntity
  8
1
100
AcDbLine
 10
43.154885330786
 20
-1.1
 30
0.0
 11
43.096367580955
 21
-1.1
 31
0.0
  0
LINE
  5
4AA
330
30
100
AcDbEntity
  8
1
100
AcDbLine
 10
43.096367580955
 20
-1.1
 30
0.0
 11
42.955782790408
 21
-0.8565
 31
0.0
  0
LINE
  5
4AB
330
30
100
AcDbEntity
  8
1
100
AcDbLine
 10
42.955782790408
 20
-0.8565
 30
0.0
 11
42.929885330786
 21
-0.8565
 31
0.0
  0
LINE
  5
4AC
330
30
100
AcDbEntity
  8
1
100
AcDbLine
 10
42.929885330786
 20
-0.8565
 30
0.0
 11
42.903987871165
 21
-0.8565
 31
0.0
  0
LINE
  5
4AD
330
30
100
AcDbEntity
  8
1
100
AcDbLine
 10
42.903987871165
 20
-0.8565
 30
0.0
 11
42.763403080617
 21
-1.1
 31
0.0
  0
LINE
  5
4AE
330
30
100
AcDbEntity
  8
1
100
AcDbLine
 10
42.763403080617
 20
-1.1
 30
0.0
 11
42.704885330786
 21
-1.1
 31
0.0
  0
LINE
  5
4AF
330
30
100
AcDbEntity
  8
1
100
AcDbLine
 10
42.704885330786
 20
-1.1
 30
0.0
 11
42.646367580955
 21
-1.1
 31
0.0
  0
LINE
  5
4B0
330
30
100
AcDbEntity
  8
1
100
AcDbLine
 10
42.646367580955
 20
-1.1
 30
0.0
 11
42.505782790408
 21
-0.8565
 31
0.0
  0
LINE
  5
4B1
330
30
100
AcDbEntity
  8
1
100
AcDbLine
 10
42.505782790408
 20
-0.8565
 30
0.0
 11
42.479885330786
 21
-0.8565
 31
0.0
  0
LINE
  5
4B2
330
30
100
AcDbEntity
  8
1
100
AcDbLine
 10
42.479885330786
 20
-0.8565
 30
0.0
 11
42.453987871165
 21
-0.8565
 31
0.0
  0
LINE
  5
4B3
330
30
100
AcDbEntity
  8
1
100
AcDbLine
 10
42.453987871165
 20
-0.8565
 30
0.0
 11
42.313403080617
 21
-1.1
 31
0.0
  0
LINE
  5
4B4
330
30
100
AcDbEntity
  8
1
100
AcDbLine
 10
42.313403080617
 20
-1.1
 30
0.0
 11
42.254885330786
 21
-1.1
 31
0.0
  0
LINE
  5
4B5
330
30
100
AcDbEntity
  8
1
100
AcDbLine
 10
42.254885330786
 20
-1.1
 30
0.0
 11
42.196367580955
 21
-1.1
 31
0.0
  0
LINE
  5
4B6
330
30
100
AcDbEntity
  8
1
100
AcDbLine
 10
42.196367580955
 20
-1.1
 30
0.0
 11
42.055782790408
 21
-0.8565
 31
0.0
  0
LINE
  5
4B7
330
30
100
AcDbEntity
  8
1
100
AcDbLine
 10
42.055782790408
 20
-0.8565
 30
0.0
 11
42.029885330786
 21
-0.8565
 31
0.0
  0
LINE
  5
4B8
330
30
100
AcDbEntity
  8
1
100
AcDbLine
 10
42.029885330786
 20
-0.8565
 30
0.0
 11
42.003987871165
 21
-0.8565
 31
0.0
  0
LINE
  5
4B9
330
30
100
AcDbEntity
  8
1
100
AcDbLine
 10
42.003987871165
 20
-0.8565
 30
0.0
 11
41.863403080617
 21
-1.1
 31
0.0
  0
LINE
  5
4BA
330
30
100
AcDbEntity
  8
1
100
AcDbLine
 10
41.863403080617
 20
-1.1
 30
0.0
 11
41.804885330786
 21
-1.1
 31
0.0
  0
LINE
  5
4BB
330
30
100
AcDbEntity
  8
1
100
AcDbLine
 10
41.804885330786
 20
-1.1
 30
0.0
 11
41.746367580955
 21
-1.1
 31
0.0
  0
LINE
  5
4BC
330
30
100
AcDbEntity
  8
1
100
AcDbLine
 10
41.746367580955
 20
-1.1
 30
0.0
 11
41.605782790408
 21
-0.8565
 31
0.0
  0
LINE
  5
4BD
330
30
100
AcDbEntity
  8
1
100
AcDbLine
 10
41.605782790408
 20
-0.8565
 30
0.0
 11
41.579885330786
 21
-0.8565
 31
0.0
  0
LINE
  5
4BE
330
30
100
AcDbEntity
  8
1
100
AcDbLine
 10
41.579885330786
 20
-0.8565
 30
0.0
 11
41.553987871165
 21
-0.8565
 31
0.0
  0
LINE
  5
4BF
330
30
100
AcDbEntity
  8
1
100
AcDbLine
 10
41.553987871165
 20
-0.8565
 30
0.0
 11
41.413403080617
 21
-1.1
 31
0.0
  0
LINE
  5
4C0
330
30
100
AcDbEntity
  8
1
100
AcDbLine
 10
41.413403080617
 20
-1.1
 30
0.0
 11
41.354885330786
 21
-1.1
 31
0.0
  0
LINE
  5
4C1
330
30
100
AcDbEntity
  8
1
100
AcDbLine
 10
41.354885330786
 20
-1.1
 30
0.0
 11
41.296367580955
 21
-1.1
 31
0.0
  0
LINE
  5
4C2
330
30
100
AcDbEntity
  8
1
100
AcDbLine
 10
41.296367580955
 20
-1.1
 30
0.0
 11
41.155782790408
 21
-0.8565
 31
0.0
  0
LINE
  5
4C3
330
30
100
AcDbEntity
  8
1
100
AcDbLine
 10
41.155782790408
 20
-0.8565
 30
0.0
 11
41.129885330786
 21
-0.8565
 31
0.0
  0
LINE
  5
4C4
330
30
100
AcDbEntity
  8
1
100
AcDbLine
 10
41.129885330786
 20
-0.8565
 30
0.0
 11
41.103987871165
 21
-0.8565
 31
0.0
  0
LINE
  5
4C5
330
30
100
AcDbEntity
  8
1
100
AcDbLine
 10
41.103987871165
 20
-0.8565
 30
0.0
 11
40.963403080617
 21
-1.1
 31
0.0
  0
LINE
  5
4C6
330
30
100
AcDbEntity
  8
1
100
AcDbLine
 10
40.963403080617
 20
-1.1
 30
0.0
 11
40.904885330786
 21
-1.1
 31
0.0
  0
LINE
  5
4C7
330
30
100
AcDbEntity
  8
1
100
AcDbLine
 10
40.904885330786
 20
-1.1
 30
0.0
 11
40.846367580955
 21
-1.1
 31
0.0
  0
LINE
  5
4C8
330
30
100
AcDbEntity
  8
1
100
AcDbLine
 10
40.846367580955
 20
-1.1
 30
0.0
 11
40.705782790408
 21
-0.8565
 31
0.0
  0
LINE
  5
4C9
330
30
100
AcDbEntity
  8
1
100
AcDbLine
 10
40.705782790408
 20
-0.8565
 30
0.0
 11
40.679885330786
 21
-0.8565
 31
0.0
  0
LINE
  5
4CA
330
30
100
AcDbEntity
  8
1
100
AcDbLine
 10
40.679885330786
 20
-0.8565
 30
0.0
 11
40.653987871165
 21
-0.8565
 31
0.0
  0
LINE
  5
4CB
330
30
100
AcDbEntity
  8
1
100
AcDbLine
 10
40.653987871165
 20
-0.8565
 30
0.0
 11
40.513403080617
 21
-1.1
 31
0.0
  0
LINE
  5
4CC
330
30
100
AcDbEntity
  8
1
100
AcDbLine
 10
40.513403080617
 20
-1.1
 30
0.0
 11
40.454885330786
 21
-1.1
 31
0.0
  0
LINE
  5
4CD
330
30
100
AcDbEntity
  8
1
100
AcDbLine
 10
40.454885330786
 20
-1.1
 30
0.0
 11
40.396367580955
 21
-1.1
 31
0.0
  0
LINE
  5
4CE
330
30
100
AcDbEntity
  8
1
100
AcDbLine
 10
40.396367580955
 20
-1.1
 30
0.0
 11
40.255782790408
 21
-0.8565
 31
0.0
  0
LINE
  5
4CF
330
30
100
AcDbEntity
  8
1
100
AcDbLine
 10
40.255782790408
 20
-0.8565
 30
0.0
 11
40.229885330786
 21
-0.8565
 31
0.0
  0
LINE
  5
4D0
330
30
100
AcDbEntity
  8
1
100
AcDbLine
 10
40.229885330786
 20
-0.8565
 30
0.0
 11
40.203987871165
 21
-0.8565
 31
0.0
  0
LINE
  5
4D1
330
30
100
AcDbEntity
  8
1
100
AcDbLine
 10
40.203987871165
 20
-0.8565
 30
0.0
 11
40.063403080617
 21
-1.1
 31
0.0
  0
LINE
  5
4D2
330
30
100
AcDbEntity
  8
1
100
AcDbLine
 10
40.063403080617
 20
-1.1
 30
0.0
 11
40.004885330786
 21
-1.1
 31
0.0
  0
LINE
  5
4D3
330
30
100
AcDbEntity
  8
1
100
AcDbLine
 10
40.004885330786
 20
-1.1
 30
0.0
 11
39.946367580955
 21
-1.1
 31
0.0
  0
LINE
  5
4D4
330
30
100
AcDbEntity
  8
1
100
AcDbLine
 10
39.946367580955
 20
-1.1
 30
0.0
 11
39.805782790408
 21
-0.8565
 31
0.0
  0
LINE
  5
4D5
330
30
100
AcDbEntity
  8
1
100
AcDbLine
 10
39.805782790408
 20
-0.8565
 30
0.0
 11
39.779885330786
 21
-0.8565
 31
0.0
  0
LINE
  5
4D6
330
30
100
AcDbEntity
  8
1
100
AcDbLine
 10
39.779885330786
 20
-0.8565
 30
0.0
 11
39.753987871165
 21
-0.8565
 31
0.0
  0
LINE
  5
4D7
330
30
100
AcDbEntity
  8
1
100
AcDbLine
 10
39.753987871165
 20
-0.8565
 30
0.0
 11
39.613403080617
 21
-1.1
 31
0.0
  0
LINE
  5
4D8
330
30
100
AcDbEntity
  8
1
100
AcDbLine
 10
39.613403080617
 20
-1.1
 30
0.0
 11
39.554885330786
 21
-1.1
 31
0.0
  0
LINE
  5
4D9
330
30
100
AcDbEntity
  8
1
100
AcDbLine
 10
39.554885330786
 20
-1.1
 30
0.0
 11
39.496367580955
 21
-1.1
 31
0.0
  0
LINE
  5
4DA
330
30
100
AcDbEntity
  8
1
100
AcDbLine
 10
39.496367580955
 20
-1.1
 30
0.0
 11
39.355782790408
 21
-0.8565
 31
0.0
  0
LINE
  5
4DB
330
30
100
AcDbEntity
  8
1
100
AcDbLine
 10
39.355782790408
 20
-0.8565
 30
0.0
 11
39.329885330786
 21
-0.8565
 31
0.0
  0
LINE
  5
4DC
330
30
100
AcDbEntity
  8
1
100
AcDbLine
 10
39.329885330786
 20
-0.8565
 30
0.0
 11
39.303987871165
 21
-0.8565
 31
0.0
  0
LINE
  5
4DD
330
30
100
AcDbEntity
  8
1
100
AcDbLine
 10
39.303987871165
 20
-0.8565
 30
0.0
 11
39.163403080617
 21
-1.1
 31
0.0
  0
LINE
  5
4DE
330
30
100
AcDbEntity
  8
1
100
AcDbLine
 10
39.163403080617
 20
-1.1
 30
0.0
 11
39.104885330786
 21
-1.1
 31
0.0
  0
LINE
  5
4DF
330
30
100
AcDbEntity
  8
1
100
AcDbLine
 10
39.104885330786
 20
-1.1
 30
0.0
 11
39.046367580955
 21
-1.1
 31
0.0
  0
LINE
  5
4E0
330
30
100
AcDbEntity
  8
1
100
AcDbLine
 10
39.046367580955
 20
-1.1
 30
0.0
 11
38.905782790408
 21
-0.8565
 31
0.0
  0
LINE
  5
4E1
330
30
100
AcDbEntity
  8
1
100
AcDbLine
 10
38.905782790408
 20
-0.8565
 30
0.0
 11
38.879885330786
 21
-0.8565
 31
0.0
  0
LINE
  5
4E2
330
30
100
AcDbEntity
  8
1
100
AcDbLine
 10
38.879885330786
 20
-0.8565
 30
0.0
 11
38.853987871165
 21
-0.8565
 31
0.0
  0
LINE
  5
4E3
330
30
100
AcDbEntity
  8
1
100
AcDbLine
 10
38.853987871165
 20
-0.8565
 30
0.0
 11
38.713403080617
 21
-1.1
 31
0.0
  0
LINE
  5
4E4
330
30
100
AcDbEntity
  8
1
100
AcDbLine
 10
38.713403080617
 20
-1.1
 30
0.0
 11
38.654885330786
 21
-1.1
 31
0.0
  0
LINE
  5
4E5
330
30
100
AcDbEntity
  8
1
100
AcDbLine
 10
38.654885330786
 20
-1.1
 30
0.0
 11
38.596367580955
 21
-1.1
 31
0.0
  0
LINE
  5
4E6
330
30
100
AcDbEntity
  8
1
100
AcDbLine
 10
38.596367580955
 20
-1.1
 30
0.0
 11
38.455782790408
 21
-0.8565
 31
0.0
  0
LINE
  5
4E7
330
30
100
AcDbEntity
  8
1
100
AcDbLine
 10
38.455782790408
 20
-0.8565
 30
0.0
 11
38.429885330786
 21
-0.8565
 31
0.0
  0
LINE
  5
4E8
330
30
100
AcDbEntity
  8
1
100
AcDbLine
 10
38.429885330786
 20
-0.8565
 30
0.0
 11
38.403987871165
 21
-0.8565
 31
0.0
  0
LINE
  5
4E9
330
30
100
AcDbEntity
  8
1
100
AcDbLine
 10
38.403987871165
 20
-0.8565
 30
0.0
 11
38.263403080617
 21
-1.1
 31
0.0
  0
LINE
  5
4EA
330
30
100
AcDbEntity
  8
1
100
AcDbLine
 10
38.263403080617
 20
-1.1
 30
0.0
 11
38.204885330786
 21
-1.1
 31
0.0
  0
LINE
  5
4EB
330
30
100
AcDbEntity
  8
1
100
AcDbLine
 10
38.204885330786
 20
-1.1
 30
0.0
 11
38.146367580955
 21
-1.1
 31
0.0
  0
LINE
  5
4EC
330
30
100
AcDbEntity
  8
1
100
AcDbLine
 10
38.146367580955
 20
-1.1
 30
0.0
 11
38.005782790408
 21
-0.8565
 31
0.0
  0
LINE
  5
4ED
330
30
100
AcDbEntity
  8
1
100
AcDbLine
 10
38.005782790408
 20
-0.8565
 30
0.0
 11
37.979885330786
 21
-0.8565
 31
0.0
  0
LINE
  5
4EE
330
30
100
AcDbEntity
  8
1
100
AcDbLine
 10
37.979885330786
 20
-0.8565
 30
0.0
 11
37.953987871165
 21
-0.8565
 31
0.0
  0
LINE
  5
4EF
330
30
100
AcDbEntity
  8
1
100
AcDbLine
 10
37.953987871165
 20
-0.8565
 30
0.0
 11
37.813403080617
 21
-1.1
 31
0.0
  0
LINE
  5
4F0
330
30
100
AcDbEntity
  8
1
100
AcDbLine
 10
37.813403080617
 20
-1.1
 30
0.0
 11
37.754885330786
 21
-1.1
 31
0.0
  0
LINE
  5
4F1
330
30
100
AcDbEntity
  8
1
100
AcDbLine
 10
37.754885330786
 20
-1.1
 30
0.0
 11
37.696367580955
 21
-1.1
 31
0.0
  0
LINE
  5
4F2
330
30
100
AcDbEntity
  8
1
100
AcDbLine
 10
37.696367580955
 20
-1.1
 30
0.0
 11
37.555782790408
 21
-0.8565
 31
0.0
  0
LINE
  5
4F3
330
30
100
AcDbEntity
  8
1
100
AcDbLine
 10
37.555782790408
 20
-0.8565
 30
0.0
 11
37.529885330786
 21
-0.8565
 31
0.0
  0
LINE
  5
4F4
330
30
100
AcDbEntity
  8
1
100
AcDbLine
 10
37.529885330786
 20
-0.8565
 30
0.0
 11
37.503987871165
 21
-0.8565
 31
0.0
  0
LINE
  5
4F5
330
30
100
AcDbEntity
  8
1
100
AcDbLine
 10
37.503987871165
 20
-0.8565
 30
0.0
 11
37.363403080617
 21
-1.1
 31
0.0
  0
LINE
  5
4F6
330
30
100
AcDbEntity
  8
1
100
AcDbLine
 10
37.363403080617
 20
-1.1
 30
0.0
 11
37.304885330786
 21
-1.1
 31
0.0
  0
LINE
  5
4F7
330
30
100
AcDbEntity
  8
1
100
AcDbLine
 10
37.304885330786
 20
-1.1
 30
0.0
 11
37.246367580955
 21
-1.1
 31
0.0
  0
LINE
  5
4F8
330
30
100
AcDbEntity
  8
1
100
AcDbLine
 10
37.246367580955
 20
-1.1
 30
0.0
 11
37.105782790408
 21
-0.8565
 31
0.0
  0
LINE
  5
4F9
330
30
100
AcDbEntity
  8
1
100
AcDbLine
 10
37.105782790408
 20
-0.8565
 30
0.0
 11
37.079885330786
 21
-0.8565
 31
0.0
  0
LINE
  5
4FA
330
30
100
AcDbEntity
  8
1
100
AcDbLine
 10
37.079885330786
 20
-0.8565
 30
0.0
 11
37.053987871165
 21
-0.8565
 31
0.0
  0
LINE
  5
4FB
330
30
100
AcDbEntity
  8
1
100
AcDbLine
 10
37.053987871165
 20
-0.8565
 30
0.0
 11
36.913403080617
 21
-1.1
 31
0.0
  0
LINE
  5
4FC
330
30
100
AcDbEntity
  8
1
100
AcDbLine
 10
36.913403080617
 20
-1.1
 30
0.0
 11
36.854885330786
 21
-1.1
 31
0.0
  0
LINE
  5
4FD
330
30
100
AcDbEntity
  8
1
100
AcDbLine
 10
36.854885330786
 20
-1.1
 30
0.0
 11
36.796367580955
 21
-1.1
 31
0.0
  0
LINE
  5
4FE
330
30
100
AcDbEntity
  8
1
100
AcDbLine
 10
36.796367580955
 20
-1.1
 30
0.0
 11
36.655782790408
 21
-0.8565
 31
0.0
  0
LINE
  5
4FF
330
30
100
AcDbEntity
  8
1
100
AcDbLine
 10
36.655782790408
 20
-0.8565
 30
0.0
 11
36.629885330786
 21
-0.8565
 31
0.0
  0
LINE
  5
500
330
30
100
AcDbEntity
  8
1
100
AcDbLine
 10
36.629885330786
 20
-0.8565
 30
0.0
 11
36.603987871165
 21
-0.8565
 31
0.0
  0
LINE
  5
501
330
30
100
AcDbEntity
  8
1
100
AcDbLine
 10
36.603987871165
 20
-0.8565
 30
0.0
 11
36.463403080617
 21
-1.1
 31
0.0
  0
LINE
  5
502
330
30
100
AcDbEntity
  8
1
100
AcDbLine
 10
36.463403080617
 20
-1.1
 30
0.0
 11
36.404885330786
 21
-1.1
 31
0.0
  0
LINE
  5
503
330
30
100
AcDbEntity
  8
1
100
AcDbLine
 10
36.404885330786
 20
-1.1
 30
0.0
 11
36.346367580955
 21
-1.1
 31
0.0
  0
LINE
  5
504
330
30
100
AcDbEntity
  8
1
100
AcDbLine
 10
36.346367580955
 20
-1.1
 30
0.0
 11
36.205782790408
 21
-0.8565
 31
0.0
  0
LINE
  5
505
330
30
100
AcDbEntity
  8
1
100
AcDbLine
 10
36.205782790408
 20
-0.8565
 30
0.0
 11
36.179885330786
 21
-0.8565
 31
0.0
  0
LINE
  5
506
330
30
100
AcDbEntity
  8
1
100
AcDbLine
 10
36.179885330786
 20
-0.8565
 30
0.0
 11
36.153987871165
 21
-0.8565
 31
0.0
  0
LINE
  5
507
330
30
100
AcDbEntity
  8
1
100
AcDbLine
 10
36.153987871165
 20
-0.8565
 30
0.0
 11
36.013403080617
 21
-1.1
 31
0.0
  0
LINE
  5
508
330
30
100
AcDbEntity
  8
1
100
AcDbLine
 10
36.013403080617
 20
-1.1
 30
0.0
 11
35.954885330786
 21
-1.1
 31
0.0
  0
LINE
  5
509
330
30
100
AcDbEntity
  8
1
100
AcDbLine
 10
35.954885330786
 20
-1.1
 30
0.0
 11
35.896367580955
 21
-1.1
 31
0.0
  0
LINE
  5
50A
330
30
100
AcDbEntity
  8
1
100
AcDbLine
 10
35.896367580955
 20
-1.1
 30
0.0
 11
35.755782790408
 21
-0.8565
 31
0.0
  0
LINE
  5
50B
330
30
100
AcDbEntity
  8
1
100
AcDbLine
 10
35.755782790408
 20
-0.8565
 30
0.0
 11
35.729885330786
 21
-0.8565
 31
0.0
  0
LINE
  5
50C
330
30
100
AcDbEntity
  8
1
100
AcDbLine
 10
35.729885330786
 20
-0.8565
 30
0.0
 11
35.703987871165
 21
-0.8565
 31
0.0
  0
LINE
  5
50D
330
30
100
AcDbEntity
  8
SK1
100
AcDbLine
 10
6.753987871165
 20
0.804086040245
 30
0.0
 11
6.753987871165
 21
1.7905
 31
0.0
  0
LINE
  5
50E
330
30
100
AcDbEntity
  8
SK1
100
AcDbLine
 10
6.753987871165
 20
1.7905
 30
0.0
 11
1.953987871165
 21
1.7905
 31
0.0
  0
LINE
  5
50F
330
30
100
AcDbEntity
  8
SK1
100
AcDbLine
 10
1.953987871165
 20
1.7905
 30
0.0
 11
1.953987871165
 21
0.804086040245
 31
0.0
  0
LINE
  5
510
330
30
100
AcDbEntity
  8
SK1
100
AcDbLine
 10
1.953987871165
 20
0.804086040245
 30
0.0
 11
6.753987871165
 21
0.804086040245
 31
0.0
  0
LINE
  5
511
330
30
100
AcDbEntity
  8
SK1
100
AcDbLine
 10
6.753987871165
 20
0.804086040245
 30
0.0
 11
1.953987871165
 21
1.7905
 31
0.0
  0
LINE
  5
512
330
30
100
AcDbEntity
  8
SK1
100
AcDbLine
 10
6.753987871165
 20
1.7905
 30
0.0
 11
1.953987871165
 21
0.804086040245
 31
0.0
  0
LINE
  5
513
330
30
100
AcDbEntity
  8
SK1
100
AcDbLine
 10
6.753987871165
 20
-0.804086040245
 30
0.0
 11
6.753987871165
 21
-1.7905
 31
0.0
  0
LINE
  5
514
330
30
100
AcDbEntity
  8
SK1
100
AcDbLine
 10
6.753987871165
 20
-1.7905
 30
0.0
 11
1.953987871165
 21
-1.7905
 31
0.0
  0
LINE
  5
515
330
30
100
AcDbEntity
  8
SK1
100
AcDbLine
 10
1.953987871165
 20
-1.7905
 30
0.0
 11
1.953987871165
 21
-0.804086040245
 31
0.0
  0
LINE
  5
516
330
30
100
AcDbEntity
  8
SK1
100
AcDbLine
 10
1.953987871165
 20
-0.804086040245
 30
0.0
 11
6.753987871165
 21
-0.804086040245
 31
0.0
  0
LINE
  5
517
330
30
100
AcDbEntity
  8
SK1
100
AcDbLine
 10
6.753987871165
 20
-0.804086040245
 30
0.0
 11
1.953987871165
 21
-1.7905
 31
0.0
  0
LINE
  5
518
330
30
100
AcDbEntity
  8
SK1
100
AcDbLine
 10
6.753987871165
 20
-1.7905
 30
0.0
 11
1.953987871165
 21
-0.804086040245
 31
0.0
  0
LINE
  5
519
330
30
100
AcDbEntity
  8
INFTOTAL
100
AcDbLine
 10
-15.0
 20
45.0
 30
0.0
 11
95.0
 21
45.0
 31
0.0
  0
LINE
  5
51A
330
30
100
AcDbEntity
  8
INFTOTAL
100
AcDbLine
 10
95.0
 20
45.0
 30
0.0
 11
95.0
 21
-45.0
 31
0.0
  0
LINE
  5
51B
330
30
100
AcDbEntity
  8
INFTOTAL
100
AcDbLine
 10
95.0
 20
-45.0
 30
0.0
 11
-15.0
 21
-45.0
 31
0.0
  0
LINE
  5
51C
330
30
100
AcDbEntity
  8
INFTOTAL
100
AcDbLine
 10
-15.0
 20
-45.0
 30
0.0
 11
-15.0
 21
45.0
 31
0.0
  0
DIMENSION
  5
106AC4E
330
30
100
AcDbEntity
  8
2
100
AcDbDimension
  2
*D8
 10
75.0
 20
0.8550000000000022
 30
0.0
 11
75.0
 21
14.59375
 31
0.0
 70
   160
  1
%%c<>
 71
     5
 42
1.71
  3
STANDARD
100
AcDbAlignedDimension
 13
46.953987871165
 23
-0.855
 33
0.0
 14
46.953987871165
 24
0.855
 34
0.0
 50
-90.0
100
AcDbRotatedDimension
1001
ACAD
1000
DSTYLE
1002
{
1070
   271
1070
     2
1070
   279
1070
     0
1070
    74
1070
     0
1002
}
  0
DIMENSION
  5
106AC7A
330
30
100
AcDbEntity
  8
2
100
AcDbDimension
  2
*D11
 10
45.153987871165
 20
-16.0
 30
0.0
 11
58.0
 21
-16.0
 31
0.0
 70
   160
  1
<>
 71
     5
 42
1.799999999999997
  3
STANDARD
100
AcDbAlignedDimension
 13
46.953987871165
 23
-0.855
 33
0.0
 14
45.153987871165
 24
-1.1
 34
0.0
100
AcDbRotatedDimension
1001
ACAD
1000
DSTYLE
1002
{
1070
   271
1070
     1
1070
   279
1070
     0
1070
    74
1070
     0
1002
}
  0
DIMENSION
  5
106ACB2
330
30
100
AcDbEntity
  8
2
100
AcDbDimension
  2
*D14
 10
83.0
 20
1.100000000000005
 30
0.0
 11
83.0
 21
21.24900000000001
 31
0.0
 70
   160
  1
M2.2X0.45
 71
     5
 42
2.2
  3
STANDARD
100
AcDbAlignedDimension
 13
45.153987871165
 23
-1.1
 33
0.0
 14
45.153987871165
 24
1.1
 34
0.0
 50
-90.0
100
AcDbRotatedDimension
1001
ACAD
1000
DSTYLE
1002
{
1070
   271
1070
     2
1070
   279
1070
     0
1070
    74
1070
     0
1002
}
  0
DIMENSION
  5
106ACDE
330
30
100
AcDbEntity
  8
SK2
100
AcDbDimension
  2
*D17
 10
1.953987871164999
 20
35.0
 30
0.0
 11
11.570522255372
 21
35.0
 31
0.0
 70
   160
  1
<>
 71
     5
 42
19.233068768414
  3
STANDARD
100
AcDbAlignedDimension
 13
21.187056639579
 23
1.7905
 33
0.0
 14
1.953987871165
 24
1.7905
 34
0.0
100
AcDbRotatedDimension
1001
ACAD
1000
DSTYLE
1002
{
1070
   271
1070
     1
1070
   279
1070
     0
1070
    74
1070
     0
1002
}
  0
ENDSEC
  0
SECTION
  2
OBJECTS
  0
DICTIONARY
  5
51D
330
0
100
AcDbDictionary
281
     1
  3
ACAD_GROUP
350
51E
  3
ACAD_IMAGE_VARS
350
106ABDF
  3
ACAD_LAYOUT
350
106AB97
  3
ACAD_MATERIAL
350
106ABBC
  3
ACAD_MLEADERSTYLE
350
106ABDB
  3
ACAD_MLINESTYLE
350
106AB92
  3
ACAD_PLOTSETTINGS
350
106AB94
  3
ACAD_PLOTSTYLENAME
350
106AB95
  3
ACAD_SCALELIST
350
106AB9A
  3
ACAD_TABLESTYLE
350
106ABD9
  3
ACAD_VISUALSTYLE
350
106ABC0
  3
AcDbVariableDictionary
350
106ABE9
  3
APPDATA
350
106ABDD
  3
DWGPROPS
350
106ACED
  3
FX_DICT_DIMENSION_PALETTE
350
106AC88
  3
PRINTCONFIG
350
106AC2E
  0
DICTIONARY
  5
106ACF0
330
2
100
AcDbDictionary
280
     1
281
     1
  3
ACAD_XREC_ROUNDTRIP
360
106ACF1
  0
DICTIONARY
  5
106ABE7
330
30
100
AcDbDictionary
280
     1
281
     1
  3
DIM_BOUNDING_BOXES_V1
360
106ABE8
  0
DICTIONARY
  5
51E
102
{ACAD_REACTORS
330
51D
102
}
330
51D
100
AcDbDictionary
281
     1
  0
RASTERVARIABLES
  5
106ABDF
102
{ACAD_REACTORS
330
51D
102
}
330
51D
100
AcDbRasterVariables
 90
        0
 70
     1
 71
     1
 72
     0
  0
DICTIONARY
  5
106AB97
102
{ACAD_REACTORS
330
51D
102
}
330
51D
100
AcDbDictionary
281
     1
  3
Model
350
106AB98
  3
シート 1
350
106AB99
  0
DICTIONARY
  5
106ABBC
102
{ACAD_REACTORS
330
51D
102
}
330
51D
100
AcDbDictionary
281
     1
  3
ByBlock
350
106ABBE
  3
ByLayer
350
106ABBD
  3
Global
350
106ABBF
  0
DICTIONARY
  5
106ABDB
102
{ACAD_REACTORS
330
51D
102
}
330
51D
100
AcDbDictionary
281
     1
  3
Standard
350
106ABDC
  0
DICTIONARY
  5
106AB92
102
{ACAD_REACTORS
330
51D
102
}
330
51D
100
AcDbDictionary
281
     1
  3
Standard
350
106AB93
  0
DICTIONARY
  5
106AB94
102
{ACAD_REACTORS
330
51D
102
}
330
51D
100
AcDbDictionary
281
     1
  0
ACDBDICTIONARYWDFLT
  5
106AB95
102
{ACAD_REACTORS
330
51D
102
}
330
51D
100
AcDbDictionary
281
     1
  3
Normal
350
106AB96
100
AcDbDictionaryWithDefault
340
106AB96
  0
DICTIONARY
  5
106AB9A
102
{ACAD_REACTORS
330
51D
102
}
330
51D
100
AcDbDictionary
281
     1
  3
A0
350
106AB9B
  3
A1
350
106AB9C
  3
A2
350
106AB9D
  3
A3
350
106AB9E
  3
A4
350
106AB9F
  3
A5
350
106ABA0
  3
A6
350
106ABA1
  3
A7
350
106ABA2
  3
A8
350
106ABA3
  3
A9
350
106ABA4
  3
B0
350
106ABA5
  3
B1
350
106ABA6
  3
B2
350
106ABA7
  3
B3
350
106ABA8
  3
B4
350
106ABA9
  3
B5
350
106ABAA
  3
B6
350
106ABAB
  3
B7
350
106ABAC
  3
B8
350
106ABAD
  3
B9
350
106ABAE
  3
C0
350
106ABAF
  3
C1
350
106ABB0
  3
C2
350
106ABB1
  3
C3
350
106ABB2
  3
C4
350
106ABB3
  3
C5
350
106ABB4
  3
C6
350
106ABB5
  3
C7
350
106ABB6
  3
C8
350
106ABB7
  3
C9
350
106ABB8
  3
D0
350
106ABB9
  3
D1
350
106ABBA
  3
D2
350
106ABBB
  0
DICTIONARY
  5
106ABD9
102
{ACAD_REACTORS
330
51D
102
}
330
51D
100
AcDbDictionary
281
     1
  3
Standard
350
106ABDA
  0
DICTIONARY
  5
106ABC0
102
{ACAD_REACTORS
330
51D
102
}
330
51D
100
AcDbDictionary
281
     1
  3
2dWireframe
350
106ABC5
  3
Basic
350
106ABC8
  3
Brighten
350
106ABCC
  3
ColorChange
350
106ABD0
  3
Conceptual
350
106ABCA
  3
Dim
350
106ABCB
  3
EdgeColorOff
350
106ABD3
  3
Facepattern
350
106ABCF
  3
Flat
350
106ABC1
  3
FlatWithEdges
350
106ABC2
  3
Gouraud
350
106ABC3
  3
GouraudWithEdges
350
106ABC4
  3
Hidden
350
106ABC7
  3
JitterOff
350
106ABD1
  3
Linepattern
350
106ABCE
  3
OverhangOff
350
106ABD2
  3
Realistic
350
106ABC9
  3
Shaded
350
106ABD8
  3
Shaded with edges
350
106ABD7
  3
Shades of Gray
350
106ABD4
  3
Sketchy
350
106ABD5
  3
Thicken
350
106ABCD
  3
Wireframe
350
106ABC6
  3
X-Ray
350
106ABD6
  0
DICTIONARY
  5
106ABE9
102
{ACAD_REACTORS
330
51D
102
}
330
51D
100
AcDbDictionary
281
     1
  3
CANNOSCALE
350
106ACF2
  3
CMLEADERSTYLE
350
106ABEB
  3
CTABLESTYLE
350
106ABEA
  3
DIMASSOC
350
106ABEE
  3
HIDETEXT
350
106ABEF
  3
MSLTSCALE
350
106ABF4
  0
DICTIONARY
  5
106ABDD
102
{ACAD_REACTORS
330
51D
102
}
330
51D
100
AcDbDictionary
281
     1
  0
XRECORD
  5
106ACED
102
{ACAD_REACTORS
330
51D
102
}
330
51D
100
AcDbXrecord
280
     1
  1
DWGPROPS COOKIE
  2

  3

  4

  6

  7

  8
usr2460
  9

300
=
301
=
302
=
303
=
304
=
305
=
306
=
307
=
308
=
309
=
 40
0.0
 41
0.0
 42
2460864.189099503
  1

 90
        0
  0
DICTIONARY
  5
106AC88
102
{ACAD_REACTORS
330
51D
102
}
330
51D
100
AcDbDictionary
281
     1
1001
FX_DIMP_FAV_VERSION
1071
        1
  0
DICTIONARYVAR
  5
106AC2E
102
{ACAD_REACTORS
330
51D
102
}
330
51D
100
DictionaryVariables
280
     0
  1
0
  0
XRECORD
  5
106ACF1
102
{ACAD_REACTORS
330
106ACF0
102
}
330
106ACF0
100
AcDbXrecord
280
     1
102
VTR_0.000_0.000_1.000_1.000_VISUALSTYLE
340
106ABC5
102
VTR_0.000_0.000_1.000_1.000_GRIDDISPLAY
 70
     3
102
VTR_0.000_0.000_1.000_1.000_GRIDMAJOR
 70
     5
102
VTR_0.000_0.000_1.000_1.000_DEFAULTLIGHTING
280
     1
102
VTR_0.000_0.000_1.000_1.000_DEFAULTLIGHTINGTYPE
 70
     1
102
VTR_0.000_0.000_1.000_1.000_BRIGHTNESS
141
0.0
102
VTR_0.000_0.000_1.000_1.000_CONTRAST
142
0.0
  0
DICTIONARY
  5
106ABE8
102
{ACAD_REACTORS
330
106ABE7
102
}
330
106ABE7
100
AcDbDictionary
281
     1
  0
LAYOUT
  5
106AB98
102
{ACAD_REACTORS
330
106AB97
102
}
330
106AB97
100
AcDbPlotSettings
  1

  2
none_device
  4
Letter_(8.50_x_11.00_Inches)
  6

 40
6.35
 41
6.35
 42
6.35
 43
6.35
 44
215.9
 45
279.4
 46
0.0
 47
0.0
 48
0.0
 49
0.0
140
0.0
141
0.0
142
1.0
143
2.21959459445662
 70
  1712
 72
     0
 73
     0
 74
     0
  7

 75
     0
147
0.4505327245333333
148
-39.40881537143161
149
0.0
100
AcDbLayout
  1
Model
 70
     1
 71
     0
 10
0.0
 20
0.0
 11
12.0
 21
9.0
 12
0.0
 22
0.0
 32
0.0
 14
-15.0
 24
-45.0
 34
0.0
 15
95.0
 25
45.0
 35
0.0
146
0.0
 13
0.0
 23
0.0
 33
0.0
 16
1.0
 26
0.0
 36
0.0
 17
0.0
 27
1.0
 37
0.0
 76
     0
330
30
331
106AB91
  0
LAYOUT
  5
106AB99
102
{ACAD_REACTORS
330
106AB97
102
}
330
106AB97
100
AcDbPlotSettings
  1

  2
none_device
  4

  6

 40
0.0
 41
0.0
 42
0.0
 43
0.0
 44
0.0
 45
0.0
 46
0.0
 47
0.0
 48
0.0
 49
0.0
140
0.0
141
0.0
142
1.0
143
1.0
 70
   688
 72
     0
 73
     0
 74
     5
  7

 75
    16
147
1.0
148
0.0
149
0.0
100
AcDbLayout
  1
シート 1
 70
     1
 71
     1
 10
0.0
 20
0.0
 11
0.0
 21
0.0
 12
0.0
 22
0.0
 32
0.0
 14
1.000000000000000E+20
 24
1.000000000000000E+20
 34
1.000000000000000E+20
 15
-1.000000000000000E+20
 25
-1.000000000000000E+20
 35
-1.000000000000000E+20
146
0.0
 13
0.0
 23
0.0
 33
0.0
 16
1.0
 26
0.0
 36
0.0
 17
0.0
 27
1.0
 37
0.0
 76
     0
330
31
  0
MATERIAL
  5
106ABBE
102
{ACAD_REACTORS
330
106ABBC
102
}
102
{ACAD_XDICTIONARY
360
106ACF3
102
}
330
106ABBC
100
AcDbMaterial
  1
ByBlock
  0
MATERIAL
  5
106ABBD
102
{ACAD_REACTORS
330
106ABBC
102
}
102
{ACAD_XDICTIONARY
360
106ACF5
102
}
330
106ABBC
100
AcDbMaterial
  1
ByLayer
  0
MATERIAL
  5
106ABBF
102
{ACAD_REACTORS
330
106ABBC
102
}
102
{ACAD_XDICTIONARY
360
106ACF7
102
}
330
106ABBC
100
AcDbMaterial
  1
Global
  0
MLEADERSTYLE
  5
106ABDC
102
{ACAD_REACTORS
330
106ABDB
102
}
102
{ACAD_XDICTIONARY
360
106ACF9
102
}
330
106ABDB
100
AcDbMLeaderStyle
170
     2
171
     1
172
     0
 90
        2
 40
0.0
 41
0.0
173
     1
 91
-1056964608
340
4
 92
       -2
290
     1
 42
0.09
291
     1
 43
0.36
  3
Standard
341
0
 44
0.18
300

342
28
174
     1
178
     1
175
     1
176
     0
 93
-1056964608
 45
0.18
292
     0
297
     0
 46
0.18
343
0
 94
-1056964608
 47
1.0
 49
1.0
140
1.0
293
     1
141
0.0
294
     1
177
     0
142
1.0
295
     0
296
     0
143
0.125
1001
ACAD_MLEADERVER
1070
     2
  0
MLINESTYLE
  5
106AB93
102
{ACAD_REACTORS
330
106AB92
102
}
330
106AB92
100
AcDbMlineStyle
  2
Standard
 70
     0
  3

 62
   256
 51
90.0
 52
90.0
 71
     2
 49
0.5
 62
   256
  6
BYLAYER
 49
-0.5
 62
   256
  6
BYLAYER
  0
ACDBPLACEHOLDER
  5
106AB96
102
{ACAD_REACTORS
330
106AB95
102
}
330
106AB95
  0
SCALE
  5
106AB9B
102
{ACAD_REACTORS
330
106AB9A
102
}
330
106AB9A
100
AcDbScale
 70
     0
300
1:1
140
1.0
141
1.0
290
     1
  0
SCALE
  5
106AB9C
102
{ACAD_REACTORS
330
106AB9A
102
}
330
106AB9A
100
AcDbScale
 70
     0
300
1:2
140
1.0
141
2.0
290
     0
  0
SCALE
  5
106AB9D
102
{ACAD_REACTORS
330
106AB9A
102
}
330
106AB9A
100
AcDbScale
 70
     0
300
1:4
140
1.0
141
4.0
290
     0
  0
SCALE
  5
106AB9E
102
{ACAD_REACTORS
330
106AB9A
102
}
330
106AB9A
100
AcDbScale
 70
     0
300
1:5
140
1.0
141
5.0
290
     0
  0
SCALE
  5
106AB9F
102
{ACAD_REACTORS
330
106AB9A
102
}
330
106AB9A
100
AcDbScale
 70
     0
300
1:8
140
1.0
141
8.0
290
     0
  0
SCALE
  5
106ABA0
102
{ACAD_REACTORS
330
106AB9A
102
}
330
106AB9A
100
AcDbScale
 70
     0
300
1:10
140
1.0
141
10.0
290
     0
  0
SCALE
  5
106ABA1
102
{ACAD_REACTORS
330
106AB9A
102
}
330
106AB9A
100
AcDbScale
 70
     0
300
1:16
140
1.0
141
16.0
290
     0
  0
SCALE
  5
106ABA2
102
{ACAD_REACTORS
330
106AB9A
102
}
330
106AB9A
100
AcDbScale
 70
     0
300
1:20
140
1.0
141
20.0
290
     0
  0
SCALE
  5
106ABA3
102
{ACAD_REACTORS
330
106AB9A
102
}
330
106AB9A
100
AcDbScale
 70
     0
300
1:30
140
1.0
141
30.0
290
     0
  0
SCALE
  5
106ABA4
102
{ACAD_REACTORS
330
106AB9A
102
}
330
106AB9A
100
AcDbScale
 70
     0
300
1:40
140
1.0
141
40.0
290
     0
  0
SCALE
  5
106ABA5
102
{ACAD_REACTORS
330
106AB9A
102
}
330
106AB9A
100
AcDbScale
 70
     0
300
1:50
140
1.0
141
50.0
290
     0
  0
SCALE
  5
106ABA6
102
{ACAD_REACTORS
330
106AB9A
102
}
330
106AB9A
100
AcDbScale
 70
     0
300
1:100
140
1.0
141
100.0
290
     0
  0
SCALE
  5
106ABA7
102
{ACAD_REACTORS
330
106AB9A
102
}
330
106AB9A
100
AcDbScale
 70
     0
300
2:1
140
2.0
141
1.0
290
     0
  0
SCALE
  5
106ABA8
102
{ACAD_REACTORS
330
106AB9A
102
}
330
106AB9A
100
AcDbScale
 70
     0
300
4:1
140
4.0
141
1.0
290
     0
  0
SCALE
  5
106ABA9
102
{ACAD_REACTORS
330
106AB9A
102
}
330
106AB9A
100
AcDbScale
 70
     0
300
8:1
140
8.0
141
1.0
290
     0
  0
SCALE
  5
106ABAA
102
{ACAD_REACTORS
330
106AB9A
102
}
330
106AB9A
100
AcDbScale
 70
     0
300
10:1
140
10.0
141
1.0
290
     0
  0
SCALE
  5
106ABAB
102
{ACAD_REACTORS
330
106AB9A
102
}
330
106AB9A
100
AcDbScale
 70
     0
300
100:1
140
100.0
141
1.0
290
     0
  0
SCALE
  5
106ABAC
102
{ACAD_REACTORS
330
106AB9A
102
}
330
106AB9A
100
AcDbScale
 70
     0
300
1/128" = 1'-0"
140
0.0078125
141
12.0
290
     0
  0
SCALE
  5
106ABAD
102
{ACAD_REACTORS
330
106AB9A
102
}
330
106AB9A
100
AcDbScale
 70
     0
300
1/64" = 1'-0"
140
0.015625
141
12.0
290
     0
  0
SCALE
  5
106ABAE
102
{ACAD_REACTORS
330
106AB9A
102
}
330
106AB9A
100
AcDbScale
 70
     0
300
1/32" = 1'-0"
140
0.03125
141
12.0
290
     0
  0
SCALE
  5
106ABAF
102
{ACAD_REACTORS
330
106AB9A
102
}
330
106AB9A
100
AcDbScale
 70
     0
300
1/16" = 1'-0"
140
0.0625
141
12.0
290
     0
  0
SCALE
  5
106ABB0
102
{ACAD_REACTORS
330
106AB9A
102
}
330
106AB9A
100
AcDbScale
 70
     0
300
3/32" = 1'-0"
140
0.09375
141
12.0
290
     0
  0
SCALE
  5
106ABB1
102
{ACAD_REACTORS
330
106AB9A
102
}
330
106AB9A
100
AcDbScale
 70
     0
300
1/8" = 1'-0"
140
0.125
141
12.0
290
     0
  0
SCALE
  5
106ABB2
102
{ACAD_REACTORS
330
106AB9A
102
}
330
106AB9A
100
AcDbScale
 70
     0
300
3/16" = 1'-0"
140
0.1875
141
12.0
290
     0
  0
SCALE
  5
106ABB3
102
{ACAD_REACTORS
330
106AB9A
102
}
330
106AB9A
100
AcDbScale
 70
     0
300
1/4" = 1'-0"
140
0.25
141
12.0
290
     0
  0
SCALE
  5
106ABB4
102
{ACAD_REACTORS
330
106AB9A
102
}
330
106AB9A
100
AcDbScale
 70
     0
300
3/8" = 1'-0"
140
0.375
141
12.0
290
     0
  0
SCALE
  5
106ABB5
102
{ACAD_REACTORS
330
106AB9A
102
}
330
106AB9A
100
AcDbScale
 70
     0
300
1/2" = 1'-0"
140
0.5
141
12.0
290
     0
  0
SCALE
  5
106ABB6
102
{ACAD_REACTORS
330
106AB9A
102
}
330
106AB9A
100
AcDbScale
 70
     0
300
3/4" = 1'-0"
140
0.75
141
12.0
290
     0
  0
SCALE
  5
106ABB7
102
{ACAD_REACTORS
330
106AB9A
102
}
330
106AB9A
100
AcDbScale
 70
     0
300
1" = 1'-0"
140
1.0
141
12.0
290
     0
  0
SCALE
  5
106ABB8
102
{ACAD_REACTORS
330
106AB9A
102
}
330
106AB9A
100
AcDbScale
 70
     0
300
1-1/2" = 1'-0"
140
1.5
141
12.0
290
     0
  0
SCALE
  5
106ABB9
102
{ACAD_REACTORS
330
106AB9A
102
}
330
106AB9A
100
AcDbScale
 70
     0
300
3" = 1'-0"
140
3.0
141
12.0
290
     0
  0
SCALE
  5
106ABBA
102
{ACAD_REACTORS
330
106AB9A
102
}
330
106AB9A
100
AcDbScale
 70
     0
300
6" = 1'-0"
140
6.0
141
12.0
290
     0
  0
SCALE
  5
106ABBB
102
{ACAD_REACTORS
330
106AB9A
102
}
330
106AB9A
100
AcDbScale
 70
     0
300
1'-0" = 1'-0"
140
12.0
141
12.0
290
     0
  0
TABLESTYLE
  5
106ABDA
102
{ACAD_REACTORS
330
106ABD9
102
}
330
106ABD9
100
AcDbTableStyle
  3
Standard
 70
     0
 71
     0
 40
0.06
 41
0.06
280
     0
281
     0
  7
Monospac821 BT
140
0.18
170
     2
 62
     0
 63
   257
283
     0
274
    -2
284
     1
 64
     0
275
    -2
285
     1
 65
     0
276
    -2
286
     1
 66
     0
277
    -2
287
     1
 67
     0
278
    -2
288
     1
 68
     0
279
    -2
289
     1
 69
     0
  7
Monospac821 BT
140
0.25
170
     5
 62
     0
 63
   257
283
     0
274
    -2
284
     1
 64
     0
275
    -2
285
     1
 65
     0
276
    -2
286
     1
 66
     0
277
    -2
287
     1
 67
     0
278
    -2
288
     1
 68
     0
279
    -2
289
     1
 69
     0
  7
Monospac821 BT
140
0.18
170
     5
 62
     0
 63
   257
283
     0
274
    -2
284
     1
 64
     0
275
    -2
285
     1
 65
     0
276
    -2
286
     1
 66
     0
277
    -2
287
     1
 67
     0
278
    -2
288
     1
 68
     0
279
    -2
289
     1
 69
     0
  0
VISUALSTYLE
  5
106ABC5
102
{ACAD_REACTORS
330
106ABC0
102
}
102
{ACAD_XDICTIONARY
360
106ACFB
102
}
330
106ABC0
100
AcDbVisualStyle
  2
2dWireframe
 70
     4
 71
     0
 72
     2
 73
     0
 90
        0
 40
0.6
 41
30.0
 62
     5
 63
     7
 74
     1
 91
        4
 64
     7
 65
   257
 75
     1
175
     1
 42
1.0
 92
        0
 66
   257
 43
1.0
 76
     1
 77
     6
 78
     2
 67
     7
 79
     5
170
     0
171
     0
290
     0
174
     0
 93
        1
 44
0.0
173
     0
291
     0
 45
0.0
1001
ACAD
1000
AcDbSavedByObjectVersion
1070
     0
  0
VISUALSTYLE
  5
106ABC8
102
{ACAD_REACTORS
330
106ABC0
102
}
102
{ACAD_XDICTIONARY
360
106ACFD
102
}
330
106ABC0
100
AcDbVisualStyle
  2
Basic
 70
     7
 71
     1
 72
     0
 73
     1
 90
        0
 40
0.6
 41
30.0
 62
     5
 63
     7
 74
     0
 91
        4
 64
     7
 65
   257
 75
     1
175
     1
 42
1.0
 92
        8
 66
     7
 43
1.0
 76
     1
 77
     6
 78
     2
 67
     7
 79
     5
170
     0
171
     0
290
     0
174
     0
 93
        1
 44
0.0
173
     0
291
     1
 45
0.0
1001
ACAD
1000
AcDbSavedByObjectVersion
1070
     0
  0
VISUALSTYLE
  5
106ABCC
102
{ACAD_REACTORS
330
106ABC0
102
}
102
{ACAD_XDICTIONARY
360
106ACFF
102
}
330
106ABC0
100
AcDbVisualStyle
  2
Brighten
 70
    12
 71
     2
 72
     2
 73
     0
 90
        0
 40
0.6
 41
30.0
 62
     5
 63
     7
 74
     1
 91
        4
 64
     7
 65
   257
 75
     1
175
     1
 42
1.0
 92
        8
 66
     7
 43
1.0
 76
     1
 77
     6
 78
     2
 67
     7
 79
     5
170
     0
171
     0
290
     0
174
     0
 93
        1
 44
50.0
173
     0
291
     1
 45
0.0
1001
ACAD
1000
AcDbSavedByObjectVersion
1070
     0
  0
VISUALSTYLE
  5
106ABD0
102
{ACAD_REACTORS
330
106ABC0
102
}
102
{ACAD_XDICTIONARY
360
106AD01
102
}
330
106ABC0
100
AcDbVisualStyle
  2
ColorChange
 70
    16
 71
     2
 72
     2
 73
     3
 90
        0
 40
0.6
 41
30.0
 62
     5
 63
     8
 74
     1
 91
        4
 64
     7
 65
   257
 75
     1
175
     1
 42
1.0
 92
        8
 66
     8
 43
1.0
 76
     1
 77
     6
 78
     2
 67
     7
 79
     5
170
     0
171
     0
290
     0
174
     0
 93
        1
 44
0.0
173
     0
291
     1
 45
0.0
1001
ACAD
1000
AcDbSavedByObjectVersion
1070
     0
  0
VISUALSTYLE
  5
106ABCA
102
{ACAD_REACTORS
330
106ABC0
102
}
102
{ACAD_XDICTIONARY
360
106AD03
102
}
330
106ABC0
100
AcDbVisualStyle
  2
Conceptual
 70
     9
 71
     3
 72
     2
 73
     0
 90
        0
 40
0.6
 41
30.0
 62
     5
 63
     7
 74
     2
 91
        2
 64
     7
 65
   257
 75
     1
175
     1
 42
179.0
 92
        8
 66
     7
 43
1.0
 76
     1
 77
     6
 78
     2
 67
     7
 79
     3
170
     0
171
     0
290
     0
174
     0
 93
        1
 44
0.0
173
     0
291
     0
 45
0.0
1001
ACAD
1000
AcDbSavedByObjectVersion
1070
     0
  0
VISUALSTYLE
  5
106ABCB
102
{ACAD_REACTORS
330
106ABC0
102
}
102
{ACAD_XDICTIONARY
360
106AD05
102
}
330
106ABC0
100
AcDbVisualStyle
  2
Dim
 70
    11
 71
     2
 72
     2
 73
     0
 90
        0
 40
0.6
 41
30.0
 62
     5
 63
     7
 74
     1
 91
        4
 64
     7
 65
   257
 75
     1
175
     1
 42
1.0
 92
        8
 66
     7
 43
1.0
 76
     1
 77
     6
 78
     2
 67
     7
 79
     5
170
     0
171
     0
290
     0
174
     0
 93
        1
 44
-50.0
173
     0
291
     1
 45
0.0
1001
ACAD
1000
AcDbSavedByObjectVersion
1070
     0
  0
VISUALSTYLE
  5
106ABD3
102
{ACAD_REACTORS
330
106ABC0
102
}
102
{ACAD_XDICTIONARY
360
106AD07
102
}
330
106ABC0
100
AcDbVisualStyle
  2
EdgeColorOff
 70
    22
 71
     2
 72
     2
 73
     0
 90
        0
 40
0.6
 41
30.0
 62
     5
 63
     7
 74
     1
 91
        4
 64
     7
 65
   257
 75
     1
175
     1
 42
1.0
 92
        8
 66
     7
 43
1.0
 76
     1
 77
     6
 78
     2
 67
     7
 79
     5
170
     0
171
     0
290
     0
174
     0
 93
        1
 44
0.0
173
     0
291
     1
 45
0.0
1001
ACAD
1000
AcDbSavedByObjectVersion
1070
     0
  0
VISUALSTYLE
  5
106ABCF
102
{ACAD_REACTORS
330
106ABC0
102
}
102
{ACAD_XDICTIONARY
360
106AD09
102
}
330
106ABC0
100
AcDbVisualStyle
  2
Facepattern
 70
    15
 71
     2
 72
     2
 73
     0
 90
        0
 40
0.6
 41
30.0
 62
     5
 63
     7
 74
     1
 91
        4
 64
     7
 65
   257
 75
     1
175
     1
 42
1.0
 92
        8
 66
     7
 43
1.0
 76
     1
 77
     6
 78
     2
 67
     7
 79
     5
170
     0
171
     0
290
     0
174
     0
 93
        1
 44
0.0
173
     0
291
     1
 45
0.0
1001
ACAD
1000
AcDbSavedByObjectVersion
1070
     0
  0
VISUALSTYLE
  5
106ABC1
102
{ACAD_REACTORS
330
106ABC0
102
}
102
{ACAD_XDICTIONARY
360
106AD0B
102
}
330
106ABC0
100
AcDbVisualStyle
  2
Flat
 70
     0
 71
     2
 72
     1
 73
     1
 90
        2
 40
0.6
 41
30.0
 62
     5
 63
     7
 74
     0
 91
        0
 64
     7
 65
   257
 75
     1
175
     1
 42
1.0
 92
        8
 66
     7
 43
1.0
 76
     1
 77
     6
 78
     2
 67
     7
 79
     5
170
     0
171
     0
290
     0
174
     0
 93
       13
 44
0.0
173
     0
291
     1
 45
0.0
1001
ACAD
1000
AcDbSavedByObjectVersion
1070
     0
  0
VISUALSTYLE
  5
106ABC2
102
{ACAD_REACTORS
330
106ABC0
102
}
102
{ACAD_XDICTIONARY
360
106AD0D
102
}
330
106ABC0
100
AcDbVisualStyle
  2
FlatWithEdges
 70
     1
 71
     2
 72
     1
 73
     1
 90
        2
 40
0.6
 41
30.0
 62
     5
 63
     7
 74
     1
 91
        0
 64
     7
 65
   257
 75
     1
175
     1
 42
1.0
 92
        0
 66
   257
 43
1.0
 76
     1
 77
     6
 78
     2
 67
     7
 79
     5
170
     0
171
     0
290
     0
174
     0
 93
       13
 44
0.0
173
     0
291
     1
 45
0.0
1001
ACAD
1000
AcDbSavedByObjectVersion
1070
     0
  0
VISUALSTYLE
  5
106ABC3
102
{ACAD_REACTORS
330
106ABC0
102
}
102
{ACAD_XDICTIONARY
360
106AD0F
102
}
330
106ABC0
100
AcDbVisualStyle
  2
Gouraud
 70
     2
 71
     2
 72
     2
 73
     1
 90
        2
 40
0.6
 41
30.0
 62
     5
 63
     7
 74
     0
 91
        0
 64
     7
 65
   257
 75
     1
175
     1
 42
1.0
 92
        0
 66
     7
 43
1.0
 76
     1
 77
     6
 78
     2
 67
     7
 79
     5
170
     0
171
     0
290
     0
174
     0
 93
       13
 44
0.0
173
     0
291
     1
 45
0.0
1001
ACAD
1000
AcDbSavedByObjectVersion
1070
     0
  0
VISUALSTYLE
  5
106ABC4
102
{ACAD_REACTORS
330
106ABC0
102
}
102
{ACAD_XDICTIONARY
360
106AD11
102
}
330
106ABC0
100
AcDbVisualStyle
  2
GouraudWithEdges
 70
     3
 71
     2
 72
     2
 73
     1
 90
        2
 40
0.6
 41
30.0
 62
     5
 63
     7
 74
     1
 91
        0
 64
     7
 65
   257
 75
     1
175
     1
 42
1.0
 92
        0
 66
   257
 43
1.0
 76
     1
 77
     6
 78
     2
 67
     7
 79
     5
170
     0
171
     0
290
     0
174
     0
 93
       13
 44
0.0
173
     0
291
     1
 45
0.0
1001
ACAD
1000
AcDbSavedByObjectVersion
1070
     0
  0
VISUALSTYLE
  5
106ABC7
102
{ACAD_REACTORS
330
106ABC0
102
}
102
{ACAD_XDICTIONARY
360
106AD13
102
}
330
106ABC0
100
AcDbVisualStyle
  2
Hidden
 70
     6
 71
     1
 72
     2
 73
     2
 90
        0
 40
0.6
 41
30.0
 62
     5
 63
     7
 74
     2
 91
        2
 64
     7
 65
   257
 75
     2
175
     1
 42
40.0
 92
        0
 66
   257
 43
1.0
 76
     1
 77
     6
 78
     2
 67
     7
 79
     3
170
     0
171
     0
290
     0
174
     0
 93
        1
 44
0.0
173
     0
291
     0
 45
0.0
1001
ACAD
1000
AcDbSavedByObjectVersion
1070
     0
  0
VISUALSTYLE
  5
106ABD1
102
{ACAD_REACTORS
330
106ABC0
102
}
102
{ACAD_XDICTIONARY
360
106AD15
102
}
330
106ABC0
100
AcDbVisualStyle
  2
JitterOff
 70
    20
 71
     2
 72
     2
 73
     0
 90
        0
 40
0.6
 41
30.0
 62
     5
 63
     7
 74
     1
 91
        4
 64
     7
 65
   257
 75
     1
175
     1
 42
1.0
 92
       10
 66
     7
 43
1.0
 76
     1
 77
     6
 78
     2
 67
     7
 79
     5
170
     0
171
     0
290
     0
174
     0
 93
        1
 44
0.0
173
     0
291
     1
 45
0.0
1001
ACAD
1000
AcDbSavedByObjectVersion
1070
     0
  0
VISUALSTYLE
  5
106ABCE
102
{ACAD_REACTORS
330
106ABC0
102
}
102
{ACAD_XDICTIONARY
360
106AD17
102
}
330
106ABC0
100
AcDbVisualStyle
  2
Linepattern
 70
    14
 71
     2
 72
     2
 73
     0
 90
        0
 40
0.6
 41
30.0
 62
     5
 63
     7
 74
     1
 91
        4
 64
     7
 65
   257
 75
     7
175
     7
 42
1.0
 92
        8
 66
     7
 43
1.0
 76
     1
 77
     6
 78
     2
 67
     7
 79
     5
170
     0
171
     0
290
     0
174
     0
 93
        1
 44
0.0
173
     0
291
     1
 45
0.0
1001
ACAD
1000
AcDbSavedByObjectVersion
1070
     0
  0
VISUALSTYLE
  5
106ABD2
102
{ACAD_REACTORS
330
106ABC0
102
}
102
{ACAD_XDICTIONARY
360
106AD19
102
}
330
106ABC0
100
AcDbVisualStyle
  2
OverhangOff
 70
    21
 71
     2
 72
     2
 73
     0
 90
        0
 40
0.6
 41
30.0
 62
     5
 63
     7
 74
     1
 91
        4
 64
     7
 65
   257
 75
     1
175
     1
 42
1.0
 92
        9
 66
     7
 43
1.0
 76
     1
 77
     6
 78
     2
 67
     7
 79
     5
170
     0
171
     0
290
     0
174
     0
 93
        1
 44
0.0
173
     0
291
     1
 45
0.0
1001
ACAD
1000
AcDbSavedByObjectVersion
1070
     0
  0
VISUALSTYLE
  5
106ABC9
102
{ACAD_REACTORS
330
106ABC0
102
}
102
{ACAD_XDICTIONARY
360
106AD1B
102
}
330
106ABC0
100
AcDbVisualStyle
  2
Realistic
 70
     8
 71
     2
 72
     3
 73
     0
 90
        2
 40
0.6
 41
30.0
 62
     5
 63
     7
 74
     0
 91
        0
 64
     7
 65
   257
 75
     1
175
     1
 42
1.0
 92
        8
 66
   257
 43
1.0
 76
     1
 77
     6
 78
     2
 67
     7
 79
     3
170
     0
171
     0
290
     0
174
     0
 93
       13
 44
0.0
173
     0
291
     0
 45
0.0
1001
ACAD
1000
AcDbSavedByObjectVersion
1070
     0
  0
VISUALSTYLE
  5
106ABD8
102
{ACAD_REACTORS
330
106ABC0
102
}
102
{ACAD_XDICTIONARY
360
106AD1D
102
}
330
106ABC0
100
AcDbVisualStyle
  2
Shaded
 70
    27
 71
     2
 72
     2
 73
     1
 90
        2
 40
0.6
 41
30.0
 62
     5
 63
     7
 74
     0
 91
        4
 64
     7
 65
   257
 75
     1
175
     1
 42
1.0
 92
        8
 66
   257
 43
1.0
 76
     1
 77
     6
 78
     2
 67
     8
 79
     3
170
     0
171
     0
290
     0
174
     0
 93
        5
 44
0.0
173
     0
291
     0
 45
0.0
1001
ACAD
1000
AcDbSavedByObjectVersion
1070
     0
  0
VISUALSTYLE
  5
106ABD7
102
{ACAD_REACTORS
330
106ABC0
102
}
102
{ACAD_XDICTIONARY
360
106AD1F
102
}
330
106ABC0
100
AcDbVisualStyle
  2
Shaded with edges
 70
    26
 71
     2
 72
     2
 73
     1
 90
        2
 40
0.6
 41
30.0
 62
     5
 63
     7
 74
     1
 91
       10
 64
     7
 65
   257
 75
     2
175
     1
 42
1.0
 92
        8
 66
   257
 43
1.0
 76
     1
 77
     6
 78
     2
 67
     7
 79
     3
170
     0
171
     0
290
     0
174
     0
 93
        5
 44
0.0
173
     0
291
     0
 45
0.0
1001
ACAD
1000
AcDbSavedByObjectVersion
1070
     0
  0
VISUALSTYLE
  5
106ABD4
102
{ACAD_REACTORS
330
106ABC0
102
}
102
{ACAD_XDICTIONARY
360
106AD21
102
}
330
106ABC0
100
AcDbVisualStyle
  2
Shades of Gray
 70
    23
 71
     2
 72
     2
 73
     3
 90
        0
 40
0.6
 41
30.0
 62
     5
 63
     7
 74
     2
 91
        2
 64
     7
 65
     7
 75
     1
175
     1
 42
40.0
 92
        8
 66
     7
 43
1.0
 76
     1
 77
     6
 78
     2
 67
     7
 79
     3
170
     0
171
     0
290
     0
174
     0
 93
        1
 44
0.0
173
     0
291
     0
 45
0.0
1001
ACAD
1000
AcDbSavedByObjectVersion
1070
     0
  0
VISUALSTYLE
  5
106ABD5
102
{ACAD_REACTORS
330
106ABC0
102
}
102
{ACAD_XDICTIONARY
360
106AD23
102
}
330
106ABC0
100
AcDbVisualStyle
  2
Sketchy
 70
    24
 71
     1
 72
     2
 73
     2
 90
        0
 40
0.6
 41
30.0
 62
     5
 63
     7
 74
     2
 91
        2
 64
     7
 65
     7
 75
     1
175
     1
 42
40.0
 92
       11
 66
     7
 43
1.0
 76
     1
 77
     6
 78
     2
 67
     7
 79
     6
170
     0
171
     0
290
     0
174
     0
 93
        1
 44
0.0
173
     0
291
     0
 45
0.0
1001
ACAD
1000
AcDbSavedByObjectVersion
1070
     0
  0
VISUALSTYLE
  5
106ABCD
102
{ACAD_REACTORS
330
106ABC0
102
}
102
{ACAD_XDICTIONARY
360
106AD25
102
}
330
106ABC0
100
AcDbVisualStyle
  2
Thicken
 70
    13
 71
     2
 72
     2
 73
     0
 90
        0
 40
0.6
 41
30.0
 62
     5
 63
     7
 74
     1
 91
        4
 64
     7
 65
   257
 75
     1
175
     1
 42
1.0
 92
       12
 66
     7
 43
1.0
 76
     1
 77
     6
 78
     2
 67
     7
 79
     5
170
     0
171
     0
290
     0
174
     0
 93
        1
 44
0.0
173
     0
291
     1
 45
0.0
1001
ACAD
1000
AcDbSavedByObjectVersion
1070
     0
  0
VISUALSTYLE
  5
106ABC6
102
{ACAD_REACTORS
330
106ABC0
102
}
102
{ACAD_XDICTIONARY
360
106AD27
102
}
330
106ABC0
100
AcDbVisualStyle
  2
Wireframe
 70
     5
 71
     0
 72
     2
 73
     0
 90
        0
 40
0.6
 41
30.0
 62
     5
 63
     7
 74
     1
 91
        4
 64
     7
 65
   257
 75
     1
175
     1
 42
1.0
 92
        0
 66
   257
 43
1.0
 76
     1
 77
     6
 78
     2
 67
     7
 79
     3
170
     0
171
     0
290
     0
174
     0
 93
        1
 44
0.0
173
     0
291
     0
 45
0.0
1001
ACAD
1000
AcDbSavedByObjectVersion
1070
     0
  0
VISUALSTYLE
  5
106ABD6
102
{ACAD_REACTORS
330
106ABC0
102
}
102
{ACAD_XDICTIONARY
360
106AD29
102
}
330
106ABC0
100
AcDbVisualStyle
  2
X-Ray
 70
    25
 71
     2
 72
     2
 73
     1
 90
        1
 40
0.5
 41
30.0
 62
     5
 63
     7
 74
     1
 91
        0
 64
     7
 65
   257
 75
     1
175
     1
 42
1.0
 92
        8
 66
     7
 43
1.0
 76
     1
 77
     6
 78
     2
 67
     7
 79
     3
170
     0
171
     0
290
     0
174
     0
 93
       13
 44
0.0
173
     0
291
     0
 45
0.0
1001
ACAD
1000
AcDbSavedByObjectVersion
1070
     0
  0
DICTIONARYVAR
  5
106ACF2
102
{ACAD_REACTORS
330
106ABE9
102
}
330
106ABE9
100
DictionaryVariables
280
     0
  1
1:1
  0
DICTIONARYVAR
  5
106ABEB
102
{ACAD_REACTORS
330
106ABE9
102
}
330
106ABE9
100
DictionaryVariables
280
     0
  1
Standard
  0
DICTIONARYVAR
  5
106ABEA
102
{ACAD_REACTORS
330
106ABE9
102
}
330
106ABE9
100
DictionaryVariables
280
     0
  1
Standard
  0
DICTIONARYVAR
  5
106ABEE
102
{ACAD_REACTORS
330
106ABE9
102
}
330
106ABE9
100
DictionaryVariables
280
     0
  1
2
  0
DICTIONARYVAR
  5
106ABEF
102
{ACAD_REACTORS
330
106ABE9
102
}
330
106ABE9
100
DictionaryVariables
280
     0
  1
1
  0
DICTIONARYVAR
  5
106ABF4
102
{ACAD_REACTORS
330
106ABE9
102
}
330
106ABE9
100
DictionaryVariables
280
     0
  1
1
  0
DICTIONARY
  5
106ACF3
330
106ABBE
100
AcDbDictionary
280
     1
281
     1
  3
ACAD_XREC_ROUNDTRIP
360
106ACF4
  0
DICTIONARY
  5
106ACF5
330
106ABBD
100
AcDbDictionary
280
     1
281
     1
  3
ACAD_XREC_ROUNDTRIP
360
106ACF6
  0
DICTIONARY
  5
106ACF7
330
106ABBF
100
AcDbDictionary
280
     1
281
     1
  3
ACAD_XREC_ROUNDTRIP
360
106ACF8
  0
DICTIONARY
  5
106ACF9
330
106ABDC
100
AcDbDictionary
280
     1
281
     1
  3
ACAD_XREC_ROUNDTRIP
360
106ACFA
  0
DICTIONARY
  5
106ACFB
330
106ABC5
100
AcDbDictionary
280
     1
281
     1
  3
ACAD_XREC_ROUNDTRIP
360
106ACFC
  0
DICTIONARY
  5
106ACFD
330
106ABC8
100
AcDbDictionary
280
     1
281
     1
  3
ACAD_XREC_ROUNDTRIP
360
106ACFE
  0
DICTIONARY
  5
106ACFF
330
106ABCC
100
AcDbDictionary
280
     1
281
     1
  3
ACAD_XREC_ROUNDTRIP
360
106AD00
  0
DICTIONARY
  5
106AD01
330
106ABD0
100
AcDbDictionary
280
     1
281
     1
  3
ACAD_XREC_ROUNDTRIP
360
106AD02
  0
DICTIONARY
  5
106AD03
330
106ABCA
100
AcDbDictionary
280
     1
281
     1
  3
ACAD_XREC_ROUNDTRIP
360
106AD04
  0
DICTIONARY
  5
106AD05
330
106ABCB
100
AcDbDictionary
280
     1
281
     1
  3
ACAD_XREC_ROUNDTRIP
360
106AD06
  0
DICTIONARY
  5
106AD07
330
106ABD3
100
AcDbDictionary
280
     1
281
     1
  3
ACAD_XREC_ROUNDTRIP
360
106AD08
  0
DICTIONARY
  5
106AD09
330
106ABCF
100
AcDbDictionary
280
     1
281
     1
  3
ACAD_XREC_ROUNDTRIP
360
106AD0A
  0
DICTIONARY
  5
106AD0B
330
106ABC1
100
AcDbDictionary
280
     1
281
     1
  3
ACAD_XREC_ROUNDTRIP
360
106AD0C
  0
DICTIONARY
  5
106AD0D
330
106ABC2
100
AcDbDictionary
280
     1
281
     1
  3
ACAD_XREC_ROUNDTRIP
360
106AD0E
  0
DICTIONARY
  5
106AD0F
330
106ABC3
100
AcDbDictionary
280
     1
281
     1
  3
ACAD_XREC_ROUNDTRIP
360
106AD10
  0
DICTIONARY
  5
106AD11
330
106ABC4
100
AcDbDictionary
280
     1
281
     1
  3
ACAD_XREC_ROUNDTRIP
360
106AD12
  0
DICTIONARY
  5
106AD13
330
106ABC7
100
AcDbDictionary
280
     1
281
     1
  3
ACAD_XREC_ROUNDTRIP
360
106AD14
  0
DICTIONARY
  5
106AD15
330
106ABD1
100
AcDbDictionary
280
     1
281
     1
  3
ACAD_XREC_ROUNDTRIP
360
106AD16
  0
DICTIONARY
  5
106AD17
330
106ABCE
100
AcDbDictionary
280
     1
281
     1
  3
ACAD_XREC_ROUNDTRIP
360
106AD18
  0
DICTIONARY
  5
106AD19
330
106ABD2
100
AcDbDictionary
280
     1
281
     1
  3
ACAD_XREC_ROUNDTRIP
360
106AD1A
  0
DICTIONARY
  5
106AD1B
330
106ABC9
100
AcDbDictionary
280
     1
281
     1
  3
ACAD_XREC_ROUNDTRIP
360
106AD1C
  0
DICTIONARY
  5
106AD1D
330
106ABD8
100
AcDbDictionary
280
     1
281
     1
  3
ACAD_XREC_ROUNDTRIP
360
106AD1E
  0
DICTIONARY
  5
106AD1F
330
106ABD7
100
AcDbDictionary
280
     1
281
     1
  3
ACAD_XREC_ROUNDTRIP
360
106AD20
  0
DICTIONARY
  5
106AD21
330
106ABD4
100
AcDbDictionary
280
     1
281
     1
  3
ACAD_XREC_ROUNDTRIP
360
106AD22
  0
DICTIONARY
  5
106AD23
330
106ABD5
100
AcDbDictionary
280
     1
281
     1
  3
ACAD_XREC_ROUNDTRIP
360
106AD24
  0
DICTIONARY
  5
106AD25
330
106ABCD
100
AcDbDictionary
280
     1
281
     1
  3
ACAD_XREC_ROUNDTRIP
360
106AD26
  0
DICTIONARY
  5
106AD27
330
106ABC6
100
AcDbDictionary
280
     1
281
     1
  3
ACAD_XREC_ROUNDTRIP
360
106AD28
  0
DICTIONARY
  5
106AD29
330
106ABD6
100
AcDbDictionary
280
     1
281
     1
  3
ACAD_XREC_ROUNDTRIP
360
106AD2A
  0
XRECORD
  5
106ACF4
102
{ACAD_REACTORS
330
106ACF3
102
}
330
106ACF3
100
AcDbXrecord
280
     1
102
MATERIAL
148
0.0
149
0.0
149
0.0
 93
        0
 94
      127
282
     0
 72
     1
 77
     1
171
     1
175
     1
179
     1
273
     0
  0
XRECORD
  5
106ACF6
102
{ACAD_REACTORS
330
106ACF5
102
}
330
106ACF5
100
AcDbXrecord
280
     1
102
MATERIAL
148
0.0
149
0.0
149
0.0
 93
        0
 94
      127
282
     0
 72
     1
 77
     1
171
     1
175
     1
179
     1
273
     0
  0
XRECORD
  5
106ACF8
102
{ACAD_REACTORS
330
106ACF7
102
}
330
106ACF7
100
AcDbXrecord
280
     1
102
MATERIAL
148
0.0
149
0.0
149
0.0
 93
        0
 94
      127
282
     0
 72
     1
 77
     1
171
     1
175
     1
179
     1
273
     0
  0
XRECORD
  5
106ACFA
102
{ACAD_REACTORS
330
106ACF9
102
}
330
106ACF9
100
AcDbXrecord
280
     1
102
ACAD_ROUNDTRIP_2010_MLEADER_STYLE
  0
XRECORD
  5
106ACFC
102
{ACAD_REACTORS
330
106ACFB
102
}
330
106ACFB
100
AcDbXrecord
280
     1
102
RTVSPropertyOp0
 70
     1
102
RTVSPropertyOp1
 70
     1
102
RTVSPropertyOp2
 70
     1
102
RTVSPropertyOp3
 70
     1
102
RTVSPropertyOp4
 70
     1
102
RTVSPropertyOp5
 70
     1
102
RTVSPropertyOp6
 70
     1
102
RTVSPropertyOp7
 70
     1
102
RTVSPropertyOp8
 70
     1
102
RTVSPropertyOp9
 70
     1
102
RTVSPropertyOp10
 70
     1
102
RTVSPropertyOp11
 70
     1
102
RTVSPropertyOp12
 70
     1
102
RTVSPropertyOp13
 70
     1
102
RTVSPropertyOp14
 70
     1
102
RTVSPropertyOp15
 70
     1
102
RTVSPropertyOp16
 70
     1
102
RTVSPropertyOp17
 70
     1
102
RTVSPropertyOp18
 70
     1
102
RTVSPropertyOp19
 70
     1
102
RTVSPropertyOp20
 70
     1
102
RTVSPropertyOp21
 70
     1
102
RTVSPropertyOp22
 70
     1
102
RTVSPropertyOp23
 70
     1
102
RTVSPropertyOp24
 70
     1
102
RTVSPropertyOp25
 70
     1
102
RTVSPropertyOp26
 70
     1
102
RTVSPropertyOp27
 70
     1
102
RTVSPropertyOp28
 70
     1
102
RTVSPropertyOp29
 70
     1
102
RTVSPropertyOp30
 70
     1
102
RTVSPropertyOp31
 70
     1
102
RTVSPropertyOp32
 70
     1
102
RTVSPropertyOp33
 70
     1
102
RTVSPropertyOp34
 70
     1
102
RTVSPropertyOp35
 70
     1
102
RTVSPropertyOp36
 70
     1
102
RTVSPropertyOp37
 70
     1
102
RTVSPropertyOp38
 70
     1
102
RTVSPropertyOp39
 70
     1
102
RTVSPropertyOp40
 70
     1
102
RTVSPropertyOp41
 70
     1
102
RTVSPropertyOp42
 70
     1
102
RTVSPropertyOp43
 70
     1
102
RTVSPropertyOp44
 70
     1
102
RTVSPropertyOp45
 70
     1
102
RTVSPropertyOp46
 70
     1
102
RTVSPropertyOp47
 70
     1
102
RTVSPropertyOp48
 70
     1
102
RTVSPropertyOp49
 70
     1
102
RTVSPropertyOp50
 70
     1
102
RTVSPropertyOp51
 70
     0
102
RTVSPropertyOp52
 70
     0
102
RTVSPropertyOp53
 70
     1
102
RTVSPropertyOp54
 70
     1
102
RTVSPropertyOp55
 70
     1
102
RTVSPropertyOp56
 70
     1
102
RTVSPropertyOp57
 70
     1
102
RTVSPost2010Prop28
280
     1
102
RTVSPost2010PropOp28
 70
     1
102
RTVSPost2010Prop29
280
     1
102
RTVSPost2010PropOp29
 70
     1
102
RTVSPost2010Prop30
280
     0
102
RTVSPost2010PropOp30
 70
     1
102
RTVSPost2010Prop31
280
     0
102
RTVSPost2010PropOp31
 70
     1
102
RTVSPost2010Prop32
280
     0
102
RTVSPost2010PropOp32
 70
     1
102
RTVSPost2010Prop33
280
     0
102
RTVSPost2010PropOp33
 70
     1
102
RTVSPost2010Prop34
280
     0
102
RTVSPost2010PropOp34
 70
     1
102
RTVSPost2010Prop35
280
     0
102
RTVSPost2010PropOp35
 70
     1
102
RTVSPost2010Prop36
280
     0
102
RTVSPost2010PropOp36
 70
     1
102
RTVSPost2010Prop37
 90
       50
102
RTVSPost2010PropOp37
 70
     1
102
RTVSPost2010Prop38
140
0.0
102
RTVSPost2010PropOp38
 70
     1
102
RTVSPost2010Prop39
140
1.0
102
RTVSPost2010PropOp39
 70
     1
102
RTVSPost2010Prop40
 90
        0
102
RTVSPost2010PropOp40
 70
     1
102
RTVSPost2010Prop41ColorIndex
 90
       18
102
RTVSPost2010Prop41ColorRGB
 90
        0
102
RTVSPost2010PropOp41
 70
     1
102
RTVSPost2010Prop42
 90
       50
102
RTVSPost2010PropOp42
 70
     1
102
RTVSPost2010Prop43
 90
        3
102
RTVSPost2010PropOp43
 70
     1
102
RTVSPost2010Prop44ColorIndex
 90
        5
102
RTVSPost2010Prop44ColorRGB
 90
      255
102
RTVSPost2010PropOp44
 70
     1
102
RTVSPost2010Prop45
280
     0
102
RTVSPost2010PropOp45
 70
     1
102
RTVSPost2010Prop46
 90
       50
102
RTVSPost2010PropOp46
 70
     1
102
RTVSPost2010Prop47
 90
       50
102
RTVSPost2010PropOp47
 70
     1
102
RTVSPost2010Prop48
 90
       50
102
RTVSPost2010PropOp48
 70
     1
102
RTVSPost2010Prop49
280
     0
102
RTVSPost2010PropOp49
 70
     1
102
RTVSPost2010Prop50
 90
       50
102
RTVSPost2010PropOp50
 70
     1
102
RTVSPost2010Prop51ColorIndex
 90
      256
102
RTVSPost2010Prop51ColorRGB
 90
-16777216
102
RTVSPost2010PropOp51
 70
     0
102
RTVSPost2010Prop52
140
1.0
102
RTVSPost2010PropOp52
 70
     0
102
RTVSPost2010Prop53
 90
        2
102
RTVSPost2010PropOp53
 70
     1
102
RTVSPost2010Prop54
  1
strokes_ogs.tif
102
RTVSPost2010PropOp54
 70
     1
102
RTVSPost2010Prop55
280
     0
102
RTVSPost2010PropOp55
 70
     1
102
RTVSPost2010Prop56
140
1.0
102
RTVSPost2010PropOp56
 70
     1
102
RTVSPost2010Prop57
140
1.0
102
RTVSPost2010PropOp57
 70
     1
  0
XRECORD
  5
106ACFE
102
{ACAD_REACTORS
330
106ACFD
102
}
330
106ACFD
100
AcDbXrecord
280
     1
102
RTVSPropertyOp0
 70
     1
102
RTVSPropertyOp1
 70
     1
102
RTVSPropertyOp2
 70
     1
102
RTVSPropertyOp3
 70
     1
102
RTVSPropertyOp4
 70
     1
102
RTVSPropertyOp5
 70
     1
102
RTVSPropertyOp6
 70
     1
102
RTVSPropertyOp7
 70
     1
102
RTVSPropertyOp8
 70
     1
102
RTVSPropertyOp9
 70
     1
102
RTVSPropertyOp10
 70
     1
102
RTVSPropertyOp11
 70
     1
102
RTVSPropertyOp12
 70
     1
102
RTVSPropertyOp13
 70
     1
102
RTVSPropertyOp14
 70
     1
102
RTVSPropertyOp15
 70
     1
102
RTVSPropertyOp16
 70
     1
102
RTVSPropertyOp17
 70
     1
102
RTVSPropertyOp18
 70
     1
102
RTVSPropertyOp19
 70
     1
102
RTVSPropertyOp20
 70
     1
102
RTVSPropertyOp21
 70
     1
102
RTVSPropertyOp22
 70
     1
102
RTVSPropertyOp23
 70
     1
102
RTVSPropertyOp24
 70
     1
102
RTVSPropertyOp25
 70
     1
102
RTVSPropertyOp26
 70
     1
102
RTVSPropertyOp27
 70
     1
102
RTVSPropertyOp28
 70
     1
102
RTVSPropertyOp29
 70
     1
102
RTVSPropertyOp30
 70
     1
102
RTVSPropertyOp31
 70
     1
102
RTVSPropertyOp32
 70
     1
102
RTVSPropertyOp33
 70
     1
102
RTVSPropertyOp34
 70
     1
102
RTVSPropertyOp35
 70
     1
102
RTVSPropertyOp36
 70
     1
102
RTVSPropertyOp37
 70
     1
102
RTVSPropertyOp38
 70
     1
102
RTVSPropertyOp39
 70
     1
102
RTVSPropertyOp40
 70
     1
102
RTVSPropertyOp41
 70
     1
102
RTVSPropertyOp42
 70
     1
102
RTVSPropertyOp43
 70
     1
102
RTVSPropertyOp44
 70
     1
102
RTVSPropertyOp45
 70
     1
102
RTVSPropertyOp46
 70
     1
102
RTVSPropertyOp47
 70
     1
102
RTVSPropertyOp48
 70
     1
102
RTVSPropertyOp49
 70
     1
102
RTVSPropertyOp50
 70
     1
102
RTVSPropertyOp51
 70
     0
102
RTVSPropertyOp52
 70
     0
102
RTVSPropertyOp53
 70
     1
102
RTVSPropertyOp54
 70
     1
102
RTVSPropertyOp55
 70
     1
102
RTVSPropertyOp56
 70
     1
102
RTVSPropertyOp57
 70
     1
102
RTVSPost2010Prop28
280
     0
102
RTVSPost2010PropOp28
 70
     1
102
RTVSPost2010Prop29
280
     1
102
RTVSPost2010PropOp29
 70
     1
102
RTVSPost2010Prop30
280
     1
102
RTVSPost2010PropOp30
 70
     1
102
RTVSPost2010Prop31
280
     0
102
RTVSPost2010PropOp31
 70
     1
102
RTVSPost2010Prop32
280
     0
102
RTVSPost2010PropOp32
 70
     1
102
RTVSPost2010Prop33
280
     0
102
RTVSPost2010PropOp33
 70
     1
102
RTVSPost2010Prop34
280
     0
102
RTVSPost2010PropOp34
 70
     1
102
RTVSPost2010Prop35
280
     0
102
RTVSPost2010PropOp35
 70
     1
102
RTVSPost2010Prop36
280
     0
102
RTVSPost2010PropOp36
 70
     1
102
RTVSPost2010Prop37
 90
       50
102
RTVSPost2010PropOp37
 70
     1
102
RTVSPost2010Prop38
140
0.0
102
RTVSPost2010PropOp38
 70
     1
102
RTVSPost2010Prop39
140
1.0
102
RTVSPost2010PropOp39
 70
     1
102
RTVSPost2010Prop40
 90
        0
102
RTVSPost2010PropOp40
 70
     1
102
RTVSPost2010Prop41ColorIndex
 90
       18
102
RTVSPost2010Prop41ColorRGB
 90
        0
102
RTVSPost2010PropOp41
 70
     1
102
RTVSPost2010Prop42
 90
       50
102
RTVSPost2010PropOp42
 70
     1
102
RTVSPost2010Prop43
 90
        3
102
RTVSPost2010PropOp43
 70
     1
102
RTVSPost2010Prop44ColorIndex
 90
        5
102
RTVSPost2010Prop44ColorRGB
 90
      255
102
RTVSPost2010PropOp44
 70
     1
102
RTVSPost2010Prop45
280
     0
102
RTVSPost2010PropOp45
 70
     1
102
RTVSPost2010Prop46
 90
       50
102
RTVSPost2010PropOp46
 70
     1
102
RTVSPost2010Prop47
 90
       50
102
RTVSPost2010PropOp47
 70
     1
102
RTVSPost2010Prop48
 90
       50
102
RTVSPost2010PropOp48
 70
     1
102
RTVSPost2010Prop49
280
     0
102
RTVSPost2010PropOp49
 70
     1
102
RTVSPost2010Prop50
 90
       50
102
RTVSPost2010PropOp50
 70
     1
102
RTVSPost2010Prop51ColorIndex
 90
      256
102
RTVSPost2010Prop51ColorRGB
 90
-16777216
102
RTVSPost2010PropOp51
 70
     0
102
RTVSPost2010Prop52
140
1.0
102
RTVSPost2010PropOp52
 70
     0
102
RTVSPost2010Prop53
 90
        2
102
RTVSPost2010PropOp53
 70
     1
102
RTVSPost2010Prop54
  1
strokes_ogs.tif
102
RTVSPost2010PropOp54
 70
     1
102
RTVSPost2010Prop55
280
     0
102
RTVSPost2010PropOp55
 70
     1
102
RTVSPost2010Prop56
140
1.0
102
RTVSPost2010PropOp56
 70
     1
102
RTVSPost2010Prop57
140
1.0
102
RTVSPost2010PropOp57
 70
     1
  0
XRECORD
  5
106AD00
102
{ACAD_REACTORS
330
106ACFF
102
}
330
106ACFF
100
AcDbXrecord
280
     1
102
RTVSPropertyOp0
 70
     1
102
RTVSPropertyOp1
 70
     1
102
RTVSPropertyOp2
 70
     1
102
RTVSPropertyOp3
 70
     1
102
RTVSPropertyOp4
 70
     1
102
RTVSPropertyOp5
 70
     1
102
RTVSPropertyOp6
 70
     1
102
RTVSPropertyOp7
 70
     1
102
RTVSPropertyOp8
 70
     1
102
RTVSPropertyOp9
 70
     1
102
RTVSPropertyOp10
 70
     1
102
RTVSPropertyOp11
 70
     1
102
RTVSPropertyOp12
 70
     1
102
RTVSPropertyOp13
 70
     1
102
RTVSPropertyOp14
 70
     1
102
RTVSPropertyOp15
 70
     1
102
RTVSPropertyOp16
 70
     1
102
RTVSPropertyOp17
 70
     1
102
RTVSPropertyOp18
 70
     1
102
RTVSPropertyOp19
 70
     1
102
RTVSPropertyOp20
 70
     1
102
RTVSPropertyOp21
 70
     1
102
RTVSPropertyOp22
 70
     1
102
RTVSPropertyOp23
 70
     1
102
RTVSPropertyOp24
 70
     1
102
RTVSPropertyOp25
 70
     1
102
RTVSPropertyOp26
 70
     1
102
RTVSPropertyOp27
 70
     1
102
RTVSPropertyOp28
 70
     1
102
RTVSPropertyOp29
 70
     1
102
RTVSPropertyOp30
 70
     1
102
RTVSPropertyOp31
 70
     1
102
RTVSPropertyOp32
 70
     1
102
RTVSPropertyOp33
 70
     1
102
RTVSPropertyOp34
 70
     1
102
RTVSPropertyOp35
 70
     1
102
RTVSPropertyOp36
 70
     1
102
RTVSPropertyOp37
 70
     1
102
RTVSPropertyOp38
 70
     1
102
RTVSPropertyOp39
 70
     1
102
RTVSPropertyOp40
 70
     1
102
RTVSPropertyOp41
 70
     1
102
RTVSPropertyOp42
 70
     1
102
RTVSPropertyOp43
 70
     1
102
RTVSPropertyOp44
 70
     1
102
RTVSPropertyOp45
 70
     1
102
RTVSPropertyOp46
 70
     1
102
RTVSPropertyOp47
 70
     1
102
RTVSPropertyOp48
 70
     1
102
RTVSPropertyOp49
 70
     1
102
RTVSPropertyOp50
 70
     1
102
RTVSPropertyOp51
 70
     0
102
RTVSPropertyOp52
 70
     0
102
RTVSPropertyOp53
 70
     1
102
RTVSPropertyOp54
 70
     1
102
RTVSPropertyOp55
 70
     1
102
RTVSPropertyOp56
 70
     1
102
RTVSPropertyOp57
 70
     1
102
RTVSPost2010Prop28
280
     0
102
RTVSPost2010PropOp28
 70
     1
102
RTVSPost2010Prop29
280
     1
102
RTVSPost2010PropOp29
 70
     1
102
RTVSPost2010Prop30
280
     1
102
RTVSPost2010PropOp30
 70
     1
102
RTVSPost2010Prop31
280
     0
102
RTVSPost2010PropOp31
 70
     1
102
RTVSPost2010Prop32
280
     0
102
RTVSPost2010PropOp32
 70
     1
102
RTVSPost2010Prop33
280
     0
102
RTVSPost2010PropOp33
 70
     1
102
RTVSPost2010Prop34
280
     0
102
RTVSPost2010PropOp34
 70
     1
102
RTVSPost2010Prop35
280
     0
102
RTVSPost2010PropOp35
 70
     1
102
RTVSPost2010Prop36
280
     0
102
RTVSPost2010PropOp36
 70
     1
102
RTVSPost2010Prop37
 90
       50
102
RTVSPost2010PropOp37
 70
     1
102
RTVSPost2010Prop38
140
0.0
102
RTVSPost2010PropOp38
 70
     1
102
RTVSPost2010Prop39
140
1.0
102
RTVSPost2010PropOp39
 70
     1
102
RTVSPost2010Prop40
 90
        0
102
RTVSPost2010PropOp40
 70
     1
102
RTVSPost2010Prop41ColorIndex
 90
       18
102
RTVSPost2010Prop41ColorRGB
 90
        0
102
RTVSPost2010PropOp41
 70
     1
102
RTVSPost2010Prop42
 90
       50
102
RTVSPost2010PropOp42
 70
     1
102
RTVSPost2010Prop43
 90
        3
102
RTVSPost2010PropOp43
 70
     1
102
RTVSPost2010Prop44ColorIndex
 90
        5
102
RTVSPost2010Prop44ColorRGB
 90
      255
102
RTVSPost2010PropOp44
 70
     1
102
RTVSPost2010Prop45
280
     0
102
RTVSPost2010PropOp45
 70
     1
102
RTVSPost2010Prop46
 90
       50
102
RTVSPost2010PropOp46
 70
     1
102
RTVSPost2010Prop47
 90
       50
102
RTVSPost2010PropOp47
 70
     1
102
RTVSPost2010Prop48
 90
       50
102
RTVSPost2010PropOp48
 70
     1
102
RTVSPost2010Prop49
280
     0
102
RTVSPost2010PropOp49
 70
     1
102
RTVSPost2010Prop50
 90
       50
102
RTVSPost2010PropOp50
 70
     1
102
RTVSPost2010Prop51ColorIndex
 90
      256
102
RTVSPost2010Prop51ColorRGB
 90
-16777216
102
RTVSPost2010PropOp51
 70
     0
102
RTVSPost2010Prop52
140
1.0
102
RTVSPost2010PropOp52
 70
     0
102
RTVSPost2010Prop53
 90
        2
102
RTVSPost2010PropOp53
 70
     1
102
RTVSPost2010Prop54
  1
strokes_ogs.tif
102
RTVSPost2010PropOp54
 70
     1
102
RTVSPost2010Prop55
280
     0
102
RTVSPost2010PropOp55
 70
     1
102
RTVSPost2010Prop56
140
1.0
102
RTVSPost2010PropOp56
 70
     1
102
RTVSPost2010Prop57
140
1.0
102
RTVSPost2010PropOp57
 70
     1
  0
XRECORD
  5
106AD02
102
{ACAD_REACTORS
330
106AD01
102
}
330
106AD01
100
AcDbXrecord
280
     1
102
RTVSPropertyOp0
 70
     1
102
RTVSPropertyOp1
 70
     1
102
RTVSPropertyOp2
 70
     1
102
RTVSPropertyOp3
 70
     1
102
RTVSPropertyOp4
 70
     1
102
RTVSPropertyOp5
 70
     1
102
RTVSPropertyOp6
 70
     1
102
RTVSPropertyOp7
 70
     1
102
RTVSPropertyOp8
 70
     1
102
RTVSPropertyOp9
 70
     1
102
RTVSPropertyOp10
 70
     1
102
RTVSPropertyOp11
 70
     1
102
RTVSPropertyOp12
 70
     1
102
RTVSPropertyOp13
 70
     1
102
RTVSPropertyOp14
 70
     1
102
RTVSPropertyOp15
 70
     1
102
RTVSPropertyOp16
 70
     1
102
RTVSPropertyOp17
 70
     1
102
RTVSPropertyOp18
 70
     1
102
RTVSPropertyOp19
 70
     1
102
RTVSPropertyOp20
 70
     1
102
RTVSPropertyOp21
 70
     1
102
RTVSPropertyOp22
 70
     1
102
RTVSPropertyOp23
 70
     1
102
RTVSPropertyOp24
 70
     1
102
RTVSPropertyOp25
 70
     1
102
RTVSPropertyOp26
 70
     1
102
RTVSPropertyOp27
 70
     1
102
RTVSPropertyOp28
 70
     1
102
RTVSPropertyOp29
 70
     1
102
RTVSPropertyOp30
 70
     1
102
RTVSPropertyOp31
 70
     1
102
RTVSPropertyOp32
 70
     1
102
RTVSPropertyOp33
 70
     1
102
RTVSPropertyOp34
 70
     1
102
RTVSPropertyOp35
 70
     1
102
RTVSPropertyOp36
 70
     1
102
RTVSPropertyOp37
 70
     1
102
RTVSPropertyOp38
 70
     1
102
RTVSPropertyOp39
 70
     1
102
RTVSPropertyOp40
 70
     1
102
RTVSPropertyOp41
 70
     1
102
RTVSPropertyOp42
 70
     1
102
RTVSPropertyOp43
 70
     1
102
RTVSPropertyOp44
 70
     1
102
RTVSPropertyOp45
 70
     1
102
RTVSPropertyOp46
 70
     1
102
RTVSPropertyOp47
 70
     1
102
RTVSPropertyOp48
 70
     1
102
RTVSPropertyOp49
 70
     1
102
RTVSPropertyOp50
 70
     1
102
RTVSPropertyOp51
 70
     0
102
RTVSPropertyOp52
 70
     0
102
RTVSPropertyOp53
 70
     1
102
RTVSPropertyOp54
 70
     1
102
RTVSPropertyOp55
 70
     1
102
RTVSPropertyOp56
 70
     1
102
RTVSPropertyOp57
 70
     1
102
RTVSPost2010Prop28
280
     0
102
RTVSPost2010PropOp28
 70
     1
102
RTVSPost2010Prop29
280
     1
102
RTVSPost2010PropOp29
 70
     1
102
RTVSPost2010Prop30
280
     1
102
RTVSPost2010PropOp30
 70
     1
102
RTVSPost2010Prop31
280
     0
102
RTVSPost2010PropOp31
 70
     1
102
RTVSPost2010Prop32
280
     0
102
RTVSPost2010PropOp32
 70
     1
102
RTVSPost2010Prop33
280
     0
102
RTVSPost2010PropOp33
 70
     1
102
RTVSPost2010Prop34
280
     0
102
RTVSPost2010PropOp34
 70
     1
102
RTVSPost2010Prop35
280
     0
102
RTVSPost2010PropOp35
 70
     1
102
RTVSPost2010Prop36
280
     0
102
RTVSPost2010PropOp36
 70
     1
102
RTVSPost2010Prop37
 90
       50
102
RTVSPost2010PropOp37
 70
     1
102
RTVSPost2010Prop38
140
0.0
102
RTVSPost2010PropOp38
 70
     1
102
RTVSPost2010Prop39
140
1.0
102
RTVSPost2010PropOp39
 70
     1
102
RTVSPost2010Prop40
 90
        0
102
RTVSPost2010PropOp40
 70
     1
102
RTVSPost2010Prop41ColorIndex
 90
       18
102
RTVSPost2010Prop41ColorRGB
 90
        0
102
RTVSPost2010PropOp41
 70
     1
102
RTVSPost2010Prop42
 90
       50
102
RTVSPost2010PropOp42
 70
     1
102
RTVSPost2010Prop43
 90
        3
102
RTVSPost2010PropOp43
 70
     1
102
RTVSPost2010Prop44ColorIndex
 90
        5
102
RTVSPost2010Prop44ColorRGB
 90
      255
102
RTVSPost2010PropOp44
 70
     1
102
RTVSPost2010Prop45
280
     0
102
RTVSPost2010PropOp45
 70
     1
102
RTVSPost2010Prop46
 90
       50
102
RTVSPost2010PropOp46
 70
     1
102
RTVSPost2010Prop47
 90
       50
102
RTVSPost2010PropOp47
 70
     1
102
RTVSPost2010Prop48
 90
       50
102
RTVSPost2010PropOp48
 70
     1
102
RTVSPost2010Prop49
280
     0
102
RTVSPost2010PropOp49
 70
     1
102
RTVSPost2010Prop50
 90
       50
102
RTVSPost2010PropOp50
 70
     1
102
RTVSPost2010Prop51ColorIndex
 90
      256
102
RTVSPost2010Prop51ColorRGB
 90
-16777216
102
RTVSPost2010PropOp51
 70
     0
102
RTVSPost2010Prop52
140
1.0
102
RTVSPost2010PropOp52
 70
     0
102
RTVSPost2010Prop53
 90
        2
102
RTVSPost2010PropOp53
 70
     1
102
RTVSPost2010Prop54
  1
strokes_ogs.tif
102
RTVSPost2010PropOp54
 70
     1
102
RTVSPost2010Prop55
280
     0
102
RTVSPost2010PropOp55
 70
     1
102
RTVSPost2010Prop56
140
1.0
102
RTVSPost2010PropOp56
 70
     1
102
RTVSPost2010Prop57
140
1.0
102
RTVSPost2010PropOp57
 70
     1
  0
XRECORD
  5
106AD04
102
{ACAD_REACTORS
330
106AD03
102
}
330
106AD03
100
AcDbXrecord
280
     1
102
RTVSPropertyOp0
 70
     1
102
RTVSPropertyOp1
 70
     1
102
RTVSPropertyOp2
 70
     1
102
RTVSPropertyOp3
 70
     1
102
RTVSPropertyOp4
 70
     1
102
RTVSPropertyOp5
 70
     1
102
RTVSPropertyOp6
 70
     1
102
RTVSPropertyOp7
 70
     1
102
RTVSPropertyOp8
 70
     1
102
RTVSPropertyOp9
 70
     1
102
RTVSPropertyOp10
 70
     1
102
RTVSPropertyOp11
 70
     1
102
RTVSPropertyOp12
 70
     1
102
RTVSPropertyOp13
 70
     1
102
RTVSPropertyOp14
 70
     1
102
RTVSPropertyOp15
 70
     1
102
RTVSPropertyOp16
 70
     1
102
RTVSPropertyOp17
 70
     1
102
RTVSPropertyOp18
 70
     1
102
RTVSPropertyOp19
 70
     1
102
RTVSPropertyOp20
 70
     1
102
RTVSPropertyOp21
 70
     1
102
RTVSPropertyOp22
 70
     1
102
RTVSPropertyOp23
 70
     1
102
RTVSPropertyOp24
 70
     1
102
RTVSPropertyOp25
 70
     1
102
RTVSPropertyOp26
 70
     1
102
RTVSPropertyOp27
 70
     1
102
RTVSPropertyOp28
 70
     1
102
RTVSPropertyOp29
 70
     1
102
RTVSPropertyOp30
 70
     1
102
RTVSPropertyOp31
 70
     1
102
RTVSPropertyOp32
 70
     1
102
RTVSPropertyOp33
 70
     1
102
RTVSPropertyOp34
 70
     1
102
RTVSPropertyOp35
 70
     1
102
RTVSPropertyOp36
 70
     1
102
RTVSPropertyOp37
 70
     1
102
RTVSPropertyOp38
 70
     1
102
RTVSPropertyOp39
 70
     1
102
RTVSPropertyOp40
 70
     1
102
RTVSPropertyOp41
 70
     1
102
RTVSPropertyOp42
 70
     1
102
RTVSPropertyOp43
 70
     1
102
RTVSPropertyOp44
 70
     1
102
RTVSPropertyOp45
 70
     1
102
RTVSPropertyOp46
 70
     1
102
RTVSPropertyOp47
 70
     1
102
RTVSPropertyOp48
 70
     1
102
RTVSPropertyOp49
 70
     1
102
RTVSPropertyOp50
 70
     1
102
RTVSPropertyOp51
 70
     0
102
RTVSPropertyOp52
 70
     0
102
RTVSPropertyOp53
 70
     1
102
RTVSPropertyOp54
 70
     1
102
RTVSPropertyOp55
 70
     1
102
RTVSPropertyOp56
 70
     1
102
RTVSPropertyOp57
 70
     1
102
RTVSPost2010Prop28
280
     0
102
RTVSPost2010PropOp28
 70
     1
102
RTVSPost2010Prop29
280
     1
102
RTVSPost2010PropOp29
 70
     1
102
RTVSPost2010Prop30
280
     1
102
RTVSPost2010PropOp30
 70
     1
102
RTVSPost2010Prop31
280
     0
102
RTVSPost2010PropOp31
 70
     1
102
RTVSPost2010Prop32
280
     0
102
RTVSPost2010PropOp32
 70
     1
102
RTVSPost2010Prop33
280
     0
102
RTVSPost2010PropOp33
 70
     1
102
RTVSPost2010Prop34
280
     0
102
RTVSPost2010PropOp34
 70
     1
102
RTVSPost2010Prop35
280
     0
102
RTVSPost2010PropOp35
 70
     1
102
RTVSPost2010Prop36
280
     0
102
RTVSPost2010PropOp36
 70
     1
102
RTVSPost2010Prop37
 90
       50
102
RTVSPost2010PropOp37
 70
     1
102
RTVSPost2010Prop38
140
0.0
102
RTVSPost2010PropOp38
 70
     1
102
RTVSPost2010Prop39
140
1.0
102
RTVSPost2010PropOp39
 70
     1
102
RTVSPost2010Prop40
 90
        0
102
RTVSPost2010PropOp40
 70
     1
102
RTVSPost2010Prop41ColorIndex
 90
       18
102
RTVSPost2010Prop41ColorRGB
 90
        0
102
RTVSPost2010PropOp41
 70
     1
102
RTVSPost2010Prop42
 90
       50
102
RTVSPost2010PropOp42
 70
     1
102
RTVSPost2010Prop43
 90
        3
102
RTVSPost2010PropOp43
 70
     1
102
RTVSPost2010Prop44ColorIndex
 90
        5
102
RTVSPost2010Prop44ColorRGB
 90
      255
102
RTVSPost2010PropOp44
 70
     1
102
RTVSPost2010Prop45
280
     0
102
RTVSPost2010PropOp45
 70
     1
102
RTVSPost2010Prop46
 90
       50
102
RTVSPost2010PropOp46
 70
     1
102
RTVSPost2010Prop47
 90
       50
102
RTVSPost2010PropOp47
 70
     1
102
RTVSPost2010Prop48
 90
       50
102
RTVSPost2010PropOp48
 70
     1
102
RTVSPost2010Prop49
280
     0
102
RTVSPost2010PropOp49
 70
     1
102
RTVSPost2010Prop50
 90
       50
102
RTVSPost2010PropOp50
 70
     1
102
RTVSPost2010Prop51ColorIndex
 90
      256
102
RTVSPost2010Prop51ColorRGB
 90
-16777216
102
RTVSPost2010PropOp51
 70
     0
102
RTVSPost2010Prop52
140
1.0
102
RTVSPost2010PropOp52
 70
     0
102
RTVSPost2010Prop53
 90
        2
102
RTVSPost2010PropOp53
 70
     1
102
RTVSPost2010Prop54
  1
strokes_ogs.tif
102
RTVSPost2010PropOp54
 70
     1
102
RTVSPost2010Prop55
280
     0
102
RTVSPost2010PropOp55
 70
     1
102
RTVSPost2010Prop56
140
1.0
102
RTVSPost2010PropOp56
 70
     1
102
RTVSPost2010Prop57
140
1.0
102
RTVSPost2010PropOp57
 70
     1
  0
XRECORD
  5
106AD06
102
{ACAD_REACTORS
330
106AD05
102
}
330
106AD05
100
AcDbXrecord
280
     1
102
RTVSPropertyOp0
 70
     1
102
RTVSPropertyOp1
 70
     1
102
RTVSPropertyOp2
 70
     1
102
RTVSPropertyOp3
 70
     1
102
RTVSPropertyOp4
 70
     1
102
RTVSPropertyOp5
 70
     1
102
RTVSPropertyOp6
 70
     1
102
RTVSPropertyOp7
 70
     1
102
RTVSPropertyOp8
 70
     1
102
RTVSPropertyOp9
 70
     1
102
RTVSPropertyOp10
 70
     1
102
RTVSPropertyOp11
 70
     1
102
RTVSPropertyOp12
 70
     1
102
RTVSPropertyOp13
 70
     1
102
RTVSPropertyOp14
 70
     1
102
RTVSPropertyOp15
 70
     1
102
RTVSPropertyOp16
 70
     1
102
RTVSPropertyOp17
 70
     1
102
RTVSPropertyOp18
 70
     1
102
RTVSPropertyOp19
 70
     1
102
RTVSPropertyOp20
 70
     1
102
RTVSPropertyOp21
 70
     1
102
RTVSPropertyOp22
 70
     1
102
RTVSPropertyOp23
 70
     1
102
RTVSPropertyOp24
 70
     1
102
RTVSPropertyOp25
 70
     1
102
RTVSPropertyOp26
 70
     1
102
RTVSPropertyOp27
 70
     1
102
RTVSPropertyOp28
 70
     1
102
RTVSPropertyOp29
 70
     1
102
RTVSPropertyOp30
 70
     1
102
RTVSPropertyOp31
 70
     1
102
RTVSPropertyOp32
 70
     1
102
RTVSPropertyOp33
 70
     1
102
RTVSPropertyOp34
 70
     1
102
RTVSPropertyOp35
 70
     1
102
RTVSPropertyOp36
 70
     1
102
RTVSPropertyOp37
 70
     1
102
RTVSPropertyOp38
 70
     1
102
RTVSPropertyOp39
 70
     1
102
RTVSPropertyOp40
 70
     1
102
RTVSPropertyOp41
 70
     1
102
RTVSPropertyOp42
 70
     1
102
RTVSPropertyOp43
 70
     1
102
RTVSPropertyOp44
 70
     1
102
RTVSPropertyOp45
 70
     1
102
RTVSPropertyOp46
 70
     1
102
RTVSPropertyOp47
 70
     1
102
RTVSPropertyOp48
 70
     1
102
RTVSPropertyOp49
 70
     1
102
RTVSPropertyOp50
 70
     1
102
RTVSPropertyOp51
 70
     0
102
RTVSPropertyOp52
 70
     0
102
RTVSPropertyOp53
 70
     1
102
RTVSPropertyOp54
 70
     1
102
RTVSPropertyOp55
 70
     1
102
RTVSPropertyOp56
 70
     1
102
RTVSPropertyOp57
 70
     1
102
RTVSPost2010Prop28
280
     0
102
RTVSPost2010PropOp28
 70
     1
102
RTVSPost2010Prop29
280
     1
102
RTVSPost2010PropOp29
 70
     1
102
RTVSPost2010Prop30
280
     1
102
RTVSPost2010PropOp30
 70
     1
102
RTVSPost2010Prop31
280
     0
102
RTVSPost2010PropOp31
 70
     1
102
RTVSPost2010Prop32
280
     0
102
RTVSPost2010PropOp32
 70
     1
102
RTVSPost2010Prop33
280
     0
102
RTVSPost2010PropOp33
 70
     1
102
RTVSPost2010Prop34
280
     0
102
RTVSPost2010PropOp34
 70
     1
102
RTVSPost2010Prop35
280
     0
102
RTVSPost2010PropOp35
 70
     1
102
RTVSPost2010Prop36
280
     0
102
RTVSPost2010PropOp36
 70
     1
102
RTVSPost2010Prop37
 90
       50
102
RTVSPost2010PropOp37
 70
     1
102
RTVSPost2010Prop38
140
0.0
102
RTVSPost2010PropOp38
 70
     1
102
RTVSPost2010Prop39
140
1.0
102
RTVSPost2010PropOp39
 70
     1
102
RTVSPost2010Prop40
 90
        0
102
RTVSPost2010PropOp40
 70
     1
102
RTVSPost2010Prop41ColorIndex
 90
       18
102
RTVSPost2010Prop41ColorRGB
 90
        0
102
RTVSPost2010PropOp41
 70
     1
102
RTVSPost2010Prop42
 90
       50
102
RTVSPost2010PropOp42
 70
     1
102
RTVSPost2010Prop43
 90
        3
102
RTVSPost2010PropOp43
 70
     1
102
RTVSPost2010Prop44ColorIndex
 90
        5
102
RTVSPost2010Prop44ColorRGB
 90
      255
102
RTVSPost2010PropOp44
 70
     1
102
RTVSPost2010Prop45
280
     0
102
RTVSPost2010PropOp45
 70
     1
102
RTVSPost2010Prop46
 90
       50
102
RTVSPost2010PropOp46
 70
     1
102
RTVSPost2010Prop47
 90
       50
102
RTVSPost2010PropOp47
 70
     1
102
RTVSPost2010Prop48
 90
       50
102
RTVSPost2010PropOp48
 70
     1
102
RTVSPost2010Prop49
280
     0
102
RTVSPost2010PropOp49
 70
     1
102
RTVSPost2010Prop50
 90
       50
102
RTVSPost2010PropOp50
 70
     1
102
RTVSPost2010Prop51ColorIndex
 90
      256
102
RTVSPost2010Prop51ColorRGB
 90
-16777216
102
RTVSPost2010PropOp51
 70
     0
102
RTVSPost2010Prop52
140
1.0
102
RTVSPost2010PropOp52
 70
     0
102
RTVSPost2010Prop53
 90
        2
102
RTVSPost2010PropOp53
 70
     1
102
RTVSPost2010Prop54
  1
strokes_ogs.tif
102
RTVSPost2010PropOp54
 70
     1
102
RTVSPost2010Prop55
280
     0
102
RTVSPost2010PropOp55
 70
     1
102
RTVSPost2010Prop56
140
1.0
102
RTVSPost2010PropOp56
 70
     1
102
RTVSPost2010Prop57
140
1.0
102
RTVSPost2010PropOp57
 70
     1
  0
XRECORD
  5
106AD08
102
{ACAD_REACTORS
330
106AD07
102
}
330
106AD07
100
AcDbXrecord
280
     1
102
RTVSPropertyOp0
 70
     0
102
RTVSPropertyOp1
 70
     0
102
RTVSPropertyOp2
 70
     0
102
RTVSPropertyOp3
 70
     0
102
RTVSPropertyOp4
 70
     0
102
RTVSPropertyOp5
 70
     0
102
RTVSPropertyOp6
 70
     0
102
RTVSPropertyOp7
 70
     0
102
RTVSPropertyOp8
 70
     0
102
RTVSPropertyOp9
 70
     0
102
RTVSPropertyOp10
 70
     0
102
RTVSPropertyOp11
 70
     0
102
RTVSPropertyOp12
 70
     0
102
RTVSPropertyOp13
 70
     0
102
RTVSPropertyOp14
 70
     2
102
RTVSPropertyOp15
 70
     0
102
RTVSPropertyOp16
 70
     0
102
RTVSPropertyOp17
 70
     0
102
RTVSPropertyOp18
 70
     0
102
RTVSPropertyOp19
 70
     0
102
RTVSPropertyOp20
 70
     0
102
RTVSPropertyOp21
 70
     0
102
RTVSPropertyOp22
 70
     0
102
RTVSPropertyOp23
 70
     0
102
RTVSPropertyOp24
 70
     0
102
RTVSPropertyOp25
 70
     0
102
RTVSPropertyOp26
 70
     0
102
RTVSPropertyOp27
 70
     0
102
RTVSPropertyOp28
 70
     0
102
RTVSPropertyOp29
 70
     0
102
RTVSPropertyOp30
 70
     0
102
RTVSPropertyOp31
 70
     0
102
RTVSPropertyOp32
 70
     0
102
RTVSPropertyOp33
 70
     0
102
RTVSPropertyOp34
 70
     0
102
RTVSPropertyOp35
 70
     0
102
RTVSPropertyOp36
 70
     0
102
RTVSPropertyOp37
 70
     0
102
RTVSPropertyOp38
 70
     0
102
RTVSPropertyOp39
 70
     0
102
RTVSPropertyOp40
 70
     0
102
RTVSPropertyOp41
 70
     0
102
RTVSPropertyOp42
 70
     0
102
RTVSPropertyOp43
 70
     0
102
RTVSPropertyOp44
 70
     0
102
RTVSPropertyOp45
 70
     0
102
RTVSPropertyOp46
 70
     0
102
RTVSPropertyOp47
 70
     0
102
RTVSPropertyOp48
 70
     0
102
RTVSPropertyOp49
 70
     0
102
RTVSPropertyOp50
 70
     0
102
RTVSPropertyOp51
 70
     0
102
RTVSPropertyOp52
 70
     0
102
RTVSPropertyOp53
 70
     0
102
RTVSPropertyOp54
 70
     0
102
RTVSPropertyOp55
 70
     0
102
RTVSPropertyOp56
 70
     0
102
RTVSPropertyOp57
 70
     0
102
RTVSPost2010Prop28
280
     0
102
RTVSPost2010PropOp28
 70
     0
102
RTVSPost2010Prop29
280
     1
102
RTVSPost2010PropOp29
 70
     0
102
RTVSPost2010Prop30
280
     1
102
RTVSPost2010PropOp30
 70
     0
102
RTVSPost2010Prop31
280
     0
102
RTVSPost2010PropOp31
 70
     0
102
RTVSPost2010Prop32
280
     0
102
RTVSPost2010PropOp32
 70
     0
102
RTVSPost2010Prop33
280
     0
102
RTVSPost2010PropOp33
 70
     0
102
RTVSPost2010Prop34
280
     0
102
RTVSPost2010PropOp34
 70
     0
102
RTVSPost2010Prop35
280
     0
102
RTVSPost2010PropOp35
 70
     0
102
RTVSPost2010Prop36
280
     0
102
RTVSPost2010PropOp36
 70
     0
102
RTVSPost2010Prop37
 90
       50
102
RTVSPost2010PropOp37
 70
     0
102
RTVSPost2010Prop38
140
0.0
102
RTVSPost2010PropOp38
 70
     0
102
RTVSPost2010Prop39
140
1.0
102
RTVSPost2010PropOp39
 70
     0
102
RTVSPost2010Prop40
 90
        0
102
RTVSPost2010PropOp40
 70
     0
102
RTVSPost2010Prop41ColorIndex
 90
       18
102
RTVSPost2010Prop41ColorRGB
 90
        0
102
RTVSPost2010PropOp41
 70
     0
102
RTVSPost2010Prop42
 90
       50
102
RTVSPost2010PropOp42
 70
     0
102
RTVSPost2010Prop43
 90
        3
102
RTVSPost2010PropOp43
 70
     0
102
RTVSPost2010Prop44ColorIndex
 90
        5
102
RTVSPost2010Prop44ColorRGB
 90
      255
102
RTVSPost2010PropOp44
 70
     0
102
RTVSPost2010Prop45
280
     0
102
RTVSPost2010PropOp45
 70
     0
102
RTVSPost2010Prop46
 90
       50
102
RTVSPost2010PropOp46
 70
     0
102
RTVSPost2010Prop47
 90
       50
102
RTVSPost2010PropOp47
 70
     0
102
RTVSPost2010Prop48
 90
       50
102
RTVSPost2010PropOp48
 70
     0
102
RTVSPost2010Prop49
280
     0
102
RTVSPost2010PropOp49
 70
     0
102
RTVSPost2010Prop50
 90
       50
102
RTVSPost2010PropOp50
 70
     0
102
RTVSPost2010Prop51ColorIndex
 90
      256
102
RTVSPost2010Prop51ColorRGB
 90
-16777216
102
RTVSPost2010PropOp51
 70
     0
102
RTVSPost2010Prop52
140
1.0
102
RTVSPost2010PropOp52
 70
     0
102
RTVSPost2010Prop53
 90
        2
102
RTVSPost2010PropOp53
 70
     0
102
RTVSPost2010Prop54
  1
strokes_ogs.tif
102
RTVSPost2010PropOp54
 70
     0
102
RTVSPost2010Prop55
280
     0
102
RTVSPost2010PropOp55
 70
     0
102
RTVSPost2010Prop56
140
1.0
102
RTVSPost2010PropOp56
 70
     0
102
RTVSPost2010Prop57
140
1.0
102
RTVSPost2010PropOp57
 70
     0
  0
XRECORD
  5
106AD0A
102
{ACAD_REACTORS
330
106AD09
102
}
330
106AD09
100
AcDbXrecord
280
     1
102
RTVSPropertyOp0
 70
     1
102
RTVSPropertyOp1
 70
     1
102
RTVSPropertyOp2
 70
     1
102
RTVSPropertyOp3
 70
     1
102
RTVSPropertyOp4
 70
     1
102
RTVSPropertyOp5
 70
     1
102
RTVSPropertyOp6
 70
     1
102
RTVSPropertyOp7
 70
     1
102
RTVSPropertyOp8
 70
     1
102
RTVSPropertyOp9
 70
     1
102
RTVSPropertyOp10
 70
     1
102
RTVSPropertyOp11
 70
     1
102
RTVSPropertyOp12
 70
     1
102
RTVSPropertyOp13
 70
     1
102
RTVSPropertyOp14
 70
     1
102
RTVSPropertyOp15
 70
     1
102
RTVSPropertyOp16
 70
     1
102
RTVSPropertyOp17
 70
     1
102
RTVSPropertyOp18
 70
     1
102
RTVSPropertyOp19
 70
     1
102
RTVSPropertyOp20
 70
     1
102
RTVSPropertyOp21
 70
     1
102
RTVSPropertyOp22
 70
     1
102
RTVSPropertyOp23
 70
     1
102
RTVSPropertyOp24
 70
     1
102
RTVSPropertyOp25
 70
     1
102
RTVSPropertyOp26
 70
     1
102
RTVSPropertyOp27
 70
     1
102
RTVSPropertyOp28
 70
     1
102
RTVSPropertyOp29
 70
     1
102
RTVSPropertyOp30
 70
     1
102
RTVSPropertyOp31
 70
     1
102
RTVSPropertyOp32
 70
     1
102
RTVSPropertyOp33
 70
     1
102
RTVSPropertyOp34
 70
     1
102
RTVSPropertyOp35
 70
     1
102
RTVSPropertyOp36
 70
     1
102
RTVSPropertyOp37
 70
     1
102
RTVSPropertyOp38
 70
     1
102
RTVSPropertyOp39
 70
     1
102
RTVSPropertyOp40
 70
     1
102
RTVSPropertyOp41
 70
     1
102
RTVSPropertyOp42
 70
     1
102
RTVSPropertyOp43
 70
     1
102
RTVSPropertyOp44
 70
     1
102
RTVSPropertyOp45
 70
     1
102
RTVSPropertyOp46
 70
     1
102
RTVSPropertyOp47
 70
     1
102
RTVSPropertyOp48
 70
     1
102
RTVSPropertyOp49
 70
     1
102
RTVSPropertyOp50
 70
     1
102
RTVSPropertyOp51
 70
     0
102
RTVSPropertyOp52
 70
     0
102
RTVSPropertyOp53
 70
     1
102
RTVSPropertyOp54
 70
     1
102
RTVSPropertyOp55
 70
     1
102
RTVSPropertyOp56
 70
     1
102
RTVSPropertyOp57
 70
     1
102
RTVSPost2010Prop28
280
     0
102
RTVSPost2010PropOp28
 70
     1
102
RTVSPost2010Prop29
280
     1
102
RTVSPost2010PropOp29
 70
     1
102
RTVSPost2010Prop30
280
     1
102
RTVSPost2010PropOp30
 70
     1
102
RTVSPost2010Prop31
280
     0
102
RTVSPost2010PropOp31
 70
     1
102
RTVSPost2010Prop32
280
     0
102
RTVSPost2010PropOp32
 70
     1
102
RTVSPost2010Prop33
280
     0
102
RTVSPost2010PropOp33
 70
     1
102
RTVSPost2010Prop34
280
     0
102
RTVSPost2010PropOp34
 70
     1
102
RTVSPost2010Prop35
280
     0
102
RTVSPost2010PropOp35
 70
     1
102
RTVSPost2010Prop36
280
     0
102
RTVSPost2010PropOp36
 70
     1
102
RTVSPost2010Prop37
 90
       50
102
RTVSPost2010PropOp37
 70
     1
102
RTVSPost2010Prop38
140
0.0
102
RTVSPost2010PropOp38
 70
     1
102
RTVSPost2010Prop39
140
1.0
102
RTVSPost2010PropOp39
 70
     1
102
RTVSPost2010Prop40
 90
        0
102
RTVSPost2010PropOp40
 70
     1
102
RTVSPost2010Prop41ColorIndex
 90
       18
102
RTVSPost2010Prop41ColorRGB
 90
        0
102
RTVSPost2010PropOp41
 70
     1
102
RTVSPost2010Prop42
 90
       50
102
RTVSPost2010PropOp42
 70
     1
102
RTVSPost2010Prop43
 90
        3
102
RTVSPost2010PropOp43
 70
     1
102
RTVSPost2010Prop44ColorIndex
 90
        5
102
RTVSPost2010Prop44ColorRGB
 90
      255
102
RTVSPost2010PropOp44
 70
     1
102
RTVSPost2010Prop45
280
     0
102
RTVSPost2010PropOp45
 70
     1
102
RTVSPost2010Prop46
 90
       50
102
RTVSPost2010PropOp46
 70
     1
102
RTVSPost2010Prop47
 90
       50
102
RTVSPost2010PropOp47
 70
     1
102
RTVSPost2010Prop48
 90
       50
102
RTVSPost2010PropOp48
 70
     1
102
RTVSPost2010Prop49
280
     0
102
RTVSPost2010PropOp49
 70
     1
102
RTVSPost2010Prop50
 90
       50
102
RTVSPost2010PropOp50
 70
     1
102
RTVSPost2010Prop51ColorIndex
 90
      256
102
RTVSPost2010Prop51ColorRGB
 90
-16777216
102
RTVSPost2010PropOp51
 70
     0
102
RTVSPost2010Prop52
140
1.0
102
RTVSPost2010PropOp52
 70
     0
102
RTVSPost2010Prop53
 90
        2
102
RTVSPost2010PropOp53
 70
     1
102
RTVSPost2010Prop54
  1
strokes_ogs.tif
102
RTVSPost2010PropOp54
 70
     1
102
RTVSPost2010Prop55
280
     0
102
RTVSPost2010PropOp55
 70
     1
102
RTVSPost2010Prop56
140
1.0
102
RTVSPost2010PropOp56
 70
     1
102
RTVSPost2010Prop57
140
1.0
102
RTVSPost2010PropOp57
 70
     1
  0
XRECORD
  5
106AD0C
102
{ACAD_REACTORS
330
106AD0B
102
}
330
106AD0B
100
AcDbXrecord
280
     1
102
RTVSPropertyOp0
 70
     1
102
RTVSPropertyOp1
 70
     1
102
RTVSPropertyOp2
 70
     1
102
RTVSPropertyOp3
 70
     1
102
RTVSPropertyOp4
 70
     1
102
RTVSPropertyOp5
 70
     1
102
RTVSPropertyOp6
 70
     1
102
RTVSPropertyOp7
 70
     1
102
RTVSPropertyOp8
 70
     1
102
RTVSPropertyOp9
 70
     1
102
RTVSPropertyOp10
 70
     1
102
RTVSPropertyOp11
 70
     1
102
RTVSPropertyOp12
 70
     1
102
RTVSPropertyOp13
 70
     1
102
RTVSPropertyOp14
 70
     1
102
RTVSPropertyOp15
 70
     1
102
RTVSPropertyOp16
 70
     1
102
RTVSPropertyOp17
 70
     1
102
RTVSPropertyOp18
 70
     1
102
RTVSPropertyOp19
 70
     1
102
RTVSPropertyOp20
 70
     1
102
RTVSPropertyOp21
 70
     1
102
RTVSPropertyOp22
 70
     1
102
RTVSPropertyOp23
 70
     1
102
RTVSPropertyOp24
 70
     1
102
RTVSPropertyOp25
 70
     1
102
RTVSPropertyOp26
 70
     1
102
RTVSPropertyOp27
 70
     1
102
RTVSPropertyOp28
 70
     1
102
RTVSPropertyOp29
 70
     1
102
RTVSPropertyOp30
 70
     1
102
RTVSPropertyOp31
 70
     1
102
RTVSPropertyOp32
 70
     1
102
RTVSPropertyOp33
 70
     1
102
RTVSPropertyOp34
 70
     1
102
RTVSPropertyOp35
 70
     1
102
RTVSPropertyOp36
 70
     1
102
RTVSPropertyOp37
 70
     1
102
RTVSPropertyOp38
 70
     1
102
RTVSPropertyOp39
 70
     1
102
RTVSPropertyOp40
 70
     1
102
RTVSPropertyOp41
 70
     1
102
RTVSPropertyOp42
 70
     1
102
RTVSPropertyOp43
 70
     1
102
RTVSPropertyOp44
 70
     1
102
RTVSPropertyOp45
 70
     1
102
RTVSPropertyOp46
 70
     1
102
RTVSPropertyOp47
 70
     1
102
RTVSPropertyOp48
 70
     1
102
RTVSPropertyOp49
 70
     1
102
RTVSPropertyOp50
 70
     1
102
RTVSPropertyOp51
 70
     0
102
RTVSPropertyOp52
 70
     0
102
RTVSPropertyOp53
 70
     1
102
RTVSPropertyOp54
 70
     1
102
RTVSPropertyOp55
 70
     1
102
RTVSPropertyOp56
 70
     1
102
RTVSPropertyOp57
 70
     1
102
RTVSPost2010Prop28
280
     0
102
RTVSPost2010PropOp28
 70
     1
102
RTVSPost2010Prop29
280
     1
102
RTVSPost2010PropOp29
 70
     1
102
RTVSPost2010Prop30
280
     1
102
RTVSPost2010PropOp30
 70
     1
102
RTVSPost2010Prop31
280
     0
102
RTVSPost2010PropOp31
 70
     1
102
RTVSPost2010Prop32
280
     0
102
RTVSPost2010PropOp32
 70
     1
102
RTVSPost2010Prop33
280
     0
102
RTVSPost2010PropOp33
 70
     1
102
RTVSPost2010Prop34
280
     0
102
RTVSPost2010PropOp34
 70
     1
102
RTVSPost2010Prop35
280
     0
102
RTVSPost2010PropOp35
 70
     1
102
RTVSPost2010Prop36
280
     0
102
RTVSPost2010PropOp36
 70
     1
102
RTVSPost2010Prop37
 90
       50
102
RTVSPost2010PropOp37
 70
     1
102
RTVSPost2010Prop38
140
0.0
102
RTVSPost2010PropOp38
 70
     1
102
RTVSPost2010Prop39
140
1.0
102
RTVSPost2010PropOp39
 70
     1
102
RTVSPost2010Prop40
 90
        0
102
RTVSPost2010PropOp40
 70
     1
102
RTVSPost2010Prop41ColorIndex
 90
       18
102
RTVSPost2010Prop41ColorRGB
 90
        0
102
RTVSPost2010PropOp41
 70
     1
102
RTVSPost2010Prop42
 90
       50
102
RTVSPost2010PropOp42
 70
     1
102
RTVSPost2010Prop43
 90
        3
102
RTVSPost2010PropOp43
 70
     1
102
RTVSPost2010Prop44ColorIndex
 90
        5
102
RTVSPost2010Prop44ColorRGB
 90
      255
102
RTVSPost2010PropOp44
 70
     1
102
RTVSPost2010Prop45
280
     0
102
RTVSPost2010PropOp45
 70
     1
102
RTVSPost2010Prop46
 90
       50
102
RTVSPost2010PropOp46
 70
     1
102
RTVSPost2010Prop47
 90
       50
102
RTVSPost2010PropOp47
 70
     1
102
RTVSPost2010Prop48
 90
       50
102
RTVSPost2010PropOp48
 70
     1
102
RTVSPost2010Prop49
280
     0
102
RTVSPost2010PropOp49
 70
     1
102
RTVSPost2010Prop50
 90
       50
102
RTVSPost2010PropOp50
 70
     1
102
RTVSPost2010Prop51ColorIndex
 90
      256
102
RTVSPost2010Prop51ColorRGB
 90
-16777216
102
RTVSPost2010PropOp51
 70
     0
102
RTVSPost2010Prop52
140
1.0
102
RTVSPost2010PropOp52
 70
     0
102
RTVSPost2010Prop53
 90
        2
102
RTVSPost2010PropOp53
 70
     1
102
RTVSPost2010Prop54
  1
strokes_ogs.tif
102
RTVSPost2010PropOp54
 70
     1
102
RTVSPost2010Prop55
280
     0
102
RTVSPost2010PropOp55
 70
     1
102
RTVSPost2010Prop56
140
1.0
102
RTVSPost2010PropOp56
 70
     1
102
RTVSPost2010Prop57
140
1.0
102
RTVSPost2010PropOp57
 70
     1
  0
XRECORD
  5
106AD0E
102
{ACAD_REACTORS
330
106AD0D
102
}
330
106AD0D
100
AcDbXrecord
280
     1
102
RTVSPropertyOp0
 70
     1
102
RTVSPropertyOp1
 70
     1
102
RTVSPropertyOp2
 70
     1
102
RTVSPropertyOp3
 70
     1
102
RTVSPropertyOp4
 70
     1
102
RTVSPropertyOp5
 70
     1
102
RTVSPropertyOp6
 70
     1
102
RTVSPropertyOp7
 70
     1
102
RTVSPropertyOp8
 70
     1
102
RTVSPropertyOp9
 70
     1
102
RTVSPropertyOp10
 70
     1
102
RTVSPropertyOp11
 70
     1
102
RTVSPropertyOp12
 70
     1
102
RTVSPropertyOp13
 70
     1
102
RTVSPropertyOp14
 70
     1
102
RTVSPropertyOp15
 70
     1
102
RTVSPropertyOp16
 70
     1
102
RTVSPropertyOp17
 70
     1
102
RTVSPropertyOp18
 70
     1
102
RTVSPropertyOp19
 70
     1
102
RTVSPropertyOp20
 70
     1
102
RTVSPropertyOp21
 70
     1
102
RTVSPropertyOp22
 70
     1
102
RTVSPropertyOp23
 70
     1
102
RTVSPropertyOp24
 70
     1
102
RTVSPropertyOp25
 70
     1
102
RTVSPropertyOp26
 70
     1
102
RTVSPropertyOp27
 70
     1
102
RTVSPropertyOp28
 70
     1
102
RTVSPropertyOp29
 70
     1
102
RTVSPropertyOp30
 70
     1
102
RTVSPropertyOp31
 70
     1
102
RTVSPropertyOp32
 70
     1
102
RTVSPropertyOp33
 70
     1
102
RTVSPropertyOp34
 70
     1
102
RTVSPropertyOp35
 70
     1
102
RTVSPropertyOp36
 70
     1
102
RTVSPropertyOp37
 70
     1
102
RTVSPropertyOp38
 70
     1
102
RTVSPropertyOp39
 70
     1
102
RTVSPropertyOp40
 70
     1
102
RTVSPropertyOp41
 70
     1
102
RTVSPropertyOp42
 70
     1
102
RTVSPropertyOp43
 70
     1
102
RTVSPropertyOp44
 70
     1
102
RTVSPropertyOp45
 70
     1
102
RTVSPropertyOp46
 70
     1
102
RTVSPropertyOp47
 70
     1
102
RTVSPropertyOp48
 70
     1
102
RTVSPropertyOp49
 70
     1
102
RTVSPropertyOp50
 70
     1
102
RTVSPropertyOp51
 70
     0
102
RTVSPropertyOp52
 70
     0
102
RTVSPropertyOp53
 70
     1
102
RTVSPropertyOp54
 70
     1
102
RTVSPropertyOp55
 70
     1
102
RTVSPropertyOp56
 70
     1
102
RTVSPropertyOp57
 70
     1
102
RTVSPost2010Prop28
280
     0
102
RTVSPost2010PropOp28
 70
     1
102
RTVSPost2010Prop29
280
     1
102
RTVSPost2010PropOp29
 70
     1
102
RTVSPost2010Prop30
280
     1
102
RTVSPost2010PropOp30
 70
     1
102
RTVSPost2010Prop31
280
     0
102
RTVSPost2010PropOp31
 70
     1
102
RTVSPost2010Prop32
280
     0
102
RTVSPost2010PropOp32
 70
     1
102
RTVSPost2010Prop33
280
     0
102
RTVSPost2010PropOp33
 70
     1
102
RTVSPost2010Prop34
280
     0
102
RTVSPost2010PropOp34
 70
     1
102
RTVSPost2010Prop35
280
     0
102
RTVSPost2010PropOp35
 70
     1
102
RTVSPost2010Prop36
280
     0
102
RTVSPost2010PropOp36
 70
     1
102
RTVSPost2010Prop37
 90
       50
102
RTVSPost2010PropOp37
 70
     1
102
RTVSPost2010Prop38
140
0.0
102
RTVSPost2010PropOp38
 70
     1
102
RTVSPost2010Prop39
140
1.0
102
RTVSPost2010PropOp39
 70
     1
102
RTVSPost2010Prop40
 90
        0
102
RTVSPost2010PropOp40
 70
     1
102
RTVSPost2010Prop41ColorIndex
 90
       18
102
RTVSPost2010Prop41ColorRGB
 90
        0
102
RTVSPost2010PropOp41
 70
     1
102
RTVSPost2010Prop42
 90
       50
102
RTVSPost2010PropOp42
 70
     1
102
RTVSPost2010Prop43
 90
        3
102
RTVSPost2010PropOp43
 70
     1
102
RTVSPost2010Prop44ColorIndex
 90
        5
102
RTVSPost2010Prop44ColorRGB
 90
      255
102
RTVSPost2010PropOp44
 70
     1
102
RTVSPost2010Prop45
280
     0
102
RTVSPost2010PropOp45
 70
     1
102
RTVSPost2010Prop46
 90
       50
102
RTVSPost2010PropOp46
 70
     1
102
RTVSPost2010Prop47
 90
       50
102
RTVSPost2010PropOp47
 70
     1
102
RTVSPost2010Prop48
 90
       50
102
RTVSPost2010PropOp48
 70
     1
102
RTVSPost2010Prop49
280
     0
102
RTVSPost2010PropOp49
 70
     1
102
RTVSPost2010Prop50
 90
       50
102
RTVSPost2010PropOp50
 70
     1
102
RTVSPost2010Prop51ColorIndex
 90
      256
102
RTVSPost2010Prop51ColorRGB
 90
-16777216
102
RTVSPost2010PropOp51
 70
     0
102
RTVSPost2010Prop52
140
1.0
102
RTVSPost2010PropOp52
 70
     0
102
RTVSPost2010Prop53
 90
        2
102
RTVSPost2010PropOp53
 70
     1
102
RTVSPost2010Prop54
  1
strokes_ogs.tif
102
RTVSPost2010PropOp54
 70
     1
102
RTVSPost2010Prop55
280
     0
102
RTVSPost2010PropOp55
 70
     1
102
RTVSPost2010Prop56
140
1.0
102
RTVSPost2010PropOp56
 70
     1
102
RTVSPost2010Prop57
140
1.0
102
RTVSPost2010PropOp57
 70
     1
  0
XRECORD
  5
106AD10
102
{ACAD_REACTORS
330
106AD0F
102
}
330
106AD0F
100
AcDbXrecord
280
     1
102
RTVSPropertyOp0
 70
     1
102
RTVSPropertyOp1
 70
     1
102
RTVSPropertyOp2
 70
     1
102
RTVSPropertyOp3
 70
     1
102
RTVSPropertyOp4
 70
     1
102
RTVSPropertyOp5
 70
     1
102
RTVSPropertyOp6
 70
     1
102
RTVSPropertyOp7
 70
     1
102
RTVSPropertyOp8
 70
     1
102
RTVSPropertyOp9
 70
     1
102
RTVSPropertyOp10
 70
     1
102
RTVSPropertyOp11
 70
     1
102
RTVSPropertyOp12
 70
     1
102
RTVSPropertyOp13
 70
     1
102
RTVSPropertyOp14
 70
     1
102
RTVSPropertyOp15
 70
     1
102
RTVSPropertyOp16
 70
     1
102
RTVSPropertyOp17
 70
     1
102
RTVSPropertyOp18
 70
     1
102
RTVSPropertyOp19
 70
     1
102
RTVSPropertyOp20
 70
     1
102
RTVSPropertyOp21
 70
     1
102
RTVSPropertyOp22
 70
     1
102
RTVSPropertyOp23
 70
     1
102
RTVSPropertyOp24
 70
     1
102
RTVSPropertyOp25
 70
     1
102
RTVSPropertyOp26
 70
     1
102
RTVSPropertyOp27
 70
     1
102
RTVSPropertyOp28
 70
     1
102
RTVSPropertyOp29
 70
     1
102
RTVSPropertyOp30
 70
     1
102
RTVSPropertyOp31
 70
     1
102
RTVSPropertyOp32
 70
     1
102
RTVSPropertyOp33
 70
     1
102
RTVSPropertyOp34
 70
     1
102
RTVSPropertyOp35
 70
     1
102
RTVSPropertyOp36
 70
     1
102
RTVSPropertyOp37
 70
     1
102
RTVSPropertyOp38
 70
     1
102
RTVSPropertyOp39
 70
     1
102
RTVSPropertyOp40
 70
     1
102
RTVSPropertyOp41
 70
     1
102
RTVSPropertyOp42
 70
     1
102
RTVSPropertyOp43
 70
     1
102
RTVSPropertyOp44
 70
     1
102
RTVSPropertyOp45
 70
     1
102
RTVSPropertyOp46
 70
     1
102
RTVSPropertyOp47
 70
     1
102
RTVSPropertyOp48
 70
     1
102
RTVSPropertyOp49
 70
     1
102
RTVSPropertyOp50
 70
     1
102
RTVSPropertyOp51
 70
     0
102
RTVSPropertyOp52
 70
     0
102
RTVSPropertyOp53
 70
     1
102
RTVSPropertyOp54
 70
     1
102
RTVSPropertyOp55
 70
     1
102
RTVSPropertyOp56
 70
     1
102
RTVSPropertyOp57
 70
     1
102
RTVSPost2010Prop28
280
     0
102
RTVSPost2010PropOp28
 70
     1
102
RTVSPost2010Prop29
280
     1
102
RTVSPost2010PropOp29
 70
     1
102
RTVSPost2010Prop30
280
     1
102
RTVSPost2010PropOp30
 70
     1
102
RTVSPost2010Prop31
280
     0
102
RTVSPost2010PropOp31
 70
     1
102
RTVSPost2010Prop32
280
     0
102
RTVSPost2010PropOp32
 70
     1
102
RTVSPost2010Prop33
280
     0
102
RTVSPost2010PropOp33
 70
     1
102
RTVSPost2010Prop34
280
     0
102
RTVSPost2010PropOp34
 70
     1
102
RTVSPost2010Prop35
280
     0
102
RTVSPost2010PropOp35
 70
     1
102
RTVSPost2010Prop36
280
     0
102
RTVSPost2010PropOp36
 70
     1
102
RTVSPost2010Prop37
 90
       50
102
RTVSPost2010PropOp37
 70
     1
102
RTVSPost2010Prop38
140
0.0
102
RTVSPost2010PropOp38
 70
     1
102
RTVSPost2010Prop39
140
1.0
102
RTVSPost2010PropOp39
 70
     1
102
RTVSPost2010Prop40
 90
        0
102
RTVSPost2010PropOp40
 70
     1
102
RTVSPost2010Prop41ColorIndex
 90
       18
102
RTVSPost2010Prop41ColorRGB
 90
        0
102
RTVSPost2010PropOp41
 70
     1
102
RTVSPost2010Prop42
 90
       50
102
RTVSPost2010PropOp42
 70
     1
102
RTVSPost2010Prop43
 90
        3
102
RTVSPost2010PropOp43
 70
     1
102
RTVSPost2010Prop44ColorIndex
 90
        5
102
RTVSPost2010Prop44ColorRGB
 90
      255
102
RTVSPost2010PropOp44
 70
     1
102
RTVSPost2010Prop45
280
     0
102
RTVSPost2010PropOp45
 70
     1
102
RTVSPost2010Prop46
 90
       50
102
RTVSPost2010PropOp46
 70
     1
102
RTVSPost2010Prop47
 90
       50
102
RTVSPost2010PropOp47
 70
     1
102
RTVSPost2010Prop48
 90
       50
102
RTVSPost2010PropOp48
 70
     1
102
RTVSPost2010Prop49
280
     0
102
RTVSPost2010PropOp49
 70
     1
102
RTVSPost2010Prop50
 90
       50
102
RTVSPost2010PropOp50
 70
     1
102
RTVSPost2010Prop51ColorIndex
 90
      256
102
RTVSPost2010Prop51ColorRGB
 90
-16777216
102
RTVSPost2010PropOp51
 70
     0
102
RTVSPost2010Prop52
140
1.0
102
RTVSPost2010PropOp52
 70
     0
102
RTVSPost2010Prop53
 90
        2
102
RTVSPost2010PropOp53
 70
     1
102
RTVSPost2010Prop54
  1
strokes_ogs.tif
102
RTVSPost2010PropOp54
 70
     1
102
RTVSPost2010Prop55
280
     0
102
RTVSPost2010PropOp55
 70
     1
102
RTVSPost2010Prop56
140
1.0
102
RTVSPost2010PropOp56
 70
     1
102
RTVSPost2010Prop57
140
1.0
102
RTVSPost2010PropOp57
 70
     1
  0
XRECORD
  5
106AD12
102
{ACAD_REACTORS
330
106AD11
102
}
330
106AD11
100
AcDbXrecord
280
     1
102
RTVSPropertyOp0
 70
     1
102
RTVSPropertyOp1
 70
     1
102
RTVSPropertyOp2
 70
     1
102
RTVSPropertyOp3
 70
     1
102
RTVSPropertyOp4
 70
     1
102
RTVSPropertyOp5
 70
     1
102
RTVSPropertyOp6
 70
     1
102
RTVSPropertyOp7
 70
     1
102
RTVSPropertyOp8
 70
     1
102
RTVSPropertyOp9
 70
     1
102
RTVSPropertyOp10
 70
     1
102
RTVSPropertyOp11
 70
     1
102
RTVSPropertyOp12
 70
     1
102
RTVSPropertyOp13
 70
     1
102
RTVSPropertyOp14
 70
     1
102
RTVSPropertyOp15
 70
     1
102
RTVSPropertyOp16
 70
     1
102
RTVSPropertyOp17
 70
     1
102
RTVSPropertyOp18
 70
     1
102
RTVSPropertyOp19
 70
     1
102
RTVSPropertyOp20
 70
     1
102
RTVSPropertyOp21
 70
     1
102
RTVSPropertyOp22
 70
     1
102
RTVSPropertyOp23
 70
     1
102
RTVSPropertyOp24
 70
     1
102
RTVSPropertyOp25
 70
     1
102
RTVSPropertyOp26
 70
     1
102
RTVSPropertyOp27
 70
     1
102
RTVSPropertyOp28
 70
     1
102
RTVSPropertyOp29
 70
     1
102
RTVSPropertyOp30
 70
     1
102
RTVSPropertyOp31
 70
     1
102
RTVSPropertyOp32
 70
     1
102
RTVSPropertyOp33
 70
     1
102
RTVSPropertyOp34
 70
     1
102
RTVSPropertyOp35
 70
     1
102
RTVSPropertyOp36
 70
     1
102
RTVSPropertyOp37
 70
     1
102
RTVSPropertyOp38
 70
     1
102
RTVSPropertyOp39
 70
     1
102
RTVSPropertyOp40
 70
     1
102
RTVSPropertyOp41
 70
     1
102
RTVSPropertyOp42
 70
     1
102
RTVSPropertyOp43
 70
     1
102
RTVSPropertyOp44
 70
     1
102
RTVSPropertyOp45
 70
     1
102
RTVSPropertyOp46
 70
     1
102
RTVSPropertyOp47
 70
     1
102
RTVSPropertyOp48
 70
     1
102
RTVSPropertyOp49
 70
     1
102
RTVSPropertyOp50
 70
     1
102
RTVSPropertyOp51
 70
     0
102
RTVSPropertyOp52
 70
     0
102
RTVSPropertyOp53
 70
     1
102
RTVSPropertyOp54
 70
     1
102
RTVSPropertyOp55
 70
     1
102
RTVSPropertyOp56
 70
     1
102
RTVSPropertyOp57
 70
     1
102
RTVSPost2010Prop28
280
     0
102
RTVSPost2010PropOp28
 70
     1
102
RTVSPost2010Prop29
280
     1
102
RTVSPost2010PropOp29
 70
     1
102
RTVSPost2010Prop30
280
     1
102
RTVSPost2010PropOp30
 70
     1
102
RTVSPost2010Prop31
280
     0
102
RTVSPost2010PropOp31
 70
     1
102
RTVSPost2010Prop32
280
     0
102
RTVSPost2010PropOp32
 70
     1
102
RTVSPost2010Prop33
280
     0
102
RTVSPost2010PropOp33
 70
     1
102
RTVSPost2010Prop34
280
     0
102
RTVSPost2010PropOp34
 70
     1
102
RTVSPost2010Prop35
280
     0
102
RTVSPost2010PropOp35
 70
     1
102
RTVSPost2010Prop36
280
     0
102
RTVSPost2010PropOp36
 70
     1
102
RTVSPost2010Prop37
 90
       50
102
RTVSPost2010PropOp37
 70
     1
102
RTVSPost2010Prop38
140
0.0
102
RTVSPost2010PropOp38
 70
     1
102
RTVSPost2010Prop39
140
1.0
102
RTVSPost2010PropOp39
 70
     1
102
RTVSPost2010Prop40
 90
        0
102
RTVSPost2010PropOp40
 70
     1
102
RTVSPost2010Prop41ColorIndex
 90
       18
102
RTVSPost2010Prop41ColorRGB
 90
        0
102
RTVSPost2010PropOp41
 70
     1
102
RTVSPost2010Prop42
 90
       50
102
RTVSPost2010PropOp42
 70
     1
102
RTVSPost2010Prop43
 90
        3
102
RTVSPost2010PropOp43
 70
     1
102
RTVSPost2010Prop44ColorIndex
 90
        5
102
RTVSPost2010Prop44ColorRGB
 90
      255
102
RTVSPost2010PropOp44
 70
     1
102
RTVSPost2010Prop45
280
     0
102
RTVSPost2010PropOp45
 70
     1
102
RTVSPost2010Prop46
 90
       50
102
RTVSPost2010PropOp46
 70
     1
102
RTVSPost2010Prop47
 90
       50
102
RTVSPost2010PropOp47
 70
     1
102
RTVSPost2010Prop48
 90
       50
102
RTVSPost2010PropOp48
 70
     1
102
RTVSPost2010Prop49
280
     0
102
RTVSPost2010PropOp49
 70
     1
102
RTVSPost2010Prop50
 90
       50
102
RTVSPost2010PropOp50
 70
     1
102
RTVSPost2010Prop51ColorIndex
 90
      256
102
RTVSPost2010Prop51ColorRGB
 90
-16777216
102
RTVSPost2010PropOp51
 70
     0
102
RTVSPost2010Prop52
140
1.0
102
RTVSPost2010PropOp52
 70
     0
102
RTVSPost2010Prop53
 90
        2
102
RTVSPost2010PropOp53
 70
     1
102
RTVSPost2010Prop54
  1
strokes_ogs.tif
102
RTVSPost2010PropOp54
 70
     1
102
RTVSPost2010Prop55
280
     0
102
RTVSPost2010PropOp55
 70
     1
102
RTVSPost2010Prop56
140
1.0
102
RTVSPost2010PropOp56
 70
     1
102
RTVSPost2010Prop57
140
1.0
102
RTVSPost2010PropOp57
 70
     1
  0
XRECORD
  5
106AD14
102
{ACAD_REACTORS
330
106AD13
102
}
330
106AD13
100
AcDbXrecord
280
     1
102
RTVSPropertyOp0
 70
     1
102
RTVSPropertyOp1
 70
     1
102
RTVSPropertyOp2
 70
     1
102
RTVSPropertyOp3
 70
     1
102
RTVSPropertyOp4
 70
     1
102
RTVSPropertyOp5
 70
     1
102
RTVSPropertyOp6
 70
     1
102
RTVSPropertyOp7
 70
     1
102
RTVSPropertyOp8
 70
     1
102
RTVSPropertyOp9
 70
     1
102
RTVSPropertyOp10
 70
     1
102
RTVSPropertyOp11
 70
     1
102
RTVSPropertyOp12
 70
     1
102
RTVSPropertyOp13
 70
     1
102
RTVSPropertyOp14
 70
     1
102
RTVSPropertyOp15
 70
     1
102
RTVSPropertyOp16
 70
     1
102
RTVSPropertyOp17
 70
     1
102
RTVSPropertyOp18
 70
     1
102
RTVSPropertyOp19
 70
     1
102
RTVSPropertyOp20
 70
     1
102
RTVSPropertyOp21
 70
     1
102
RTVSPropertyOp22
 70
     1
102
RTVSPropertyOp23
 70
     1
102
RTVSPropertyOp24
 70
     1
102
RTVSPropertyOp25
 70
     1
102
RTVSPropertyOp26
 70
     1
102
RTVSPropertyOp27
 70
     1
102
RTVSPropertyOp28
 70
     1
102
RTVSPropertyOp29
 70
     1
102
RTVSPropertyOp30
 70
     1
102
RTVSPropertyOp31
 70
     1
102
RTVSPropertyOp32
 70
     1
102
RTVSPropertyOp33
 70
     1
102
RTVSPropertyOp34
 70
     1
102
RTVSPropertyOp35
 70
     1
102
RTVSPropertyOp36
 70
     1
102
RTVSPropertyOp37
 70
     1
102
RTVSPropertyOp38
 70
     1
102
RTVSPropertyOp39
 70
     1
102
RTVSPropertyOp40
 70
     1
102
RTVSPropertyOp41
 70
     1
102
RTVSPropertyOp42
 70
     1
102
RTVSPropertyOp43
 70
     1
102
RTVSPropertyOp44
 70
     1
102
RTVSPropertyOp45
 70
     1
102
RTVSPropertyOp46
 70
     1
102
RTVSPropertyOp47
 70
     1
102
RTVSPropertyOp48
 70
     1
102
RTVSPropertyOp49
 70
     1
102
RTVSPropertyOp50
 70
     1
102
RTVSPropertyOp51
 70
     0
102
RTVSPropertyOp52
 70
     0
102
RTVSPropertyOp53
 70
     1
102
RTVSPropertyOp54
 70
     1
102
RTVSPropertyOp55
 70
     1
102
RTVSPropertyOp56
 70
     1
102
RTVSPropertyOp57
 70
     1
102
RTVSPost2010Prop28
280
     0
102
RTVSPost2010PropOp28
 70
     1
102
RTVSPost2010Prop29
280
     1
102
RTVSPost2010PropOp29
 70
     1
102
RTVSPost2010Prop30
280
     1
102
RTVSPost2010PropOp30
 70
     1
102
RTVSPost2010Prop31
280
     0
102
RTVSPost2010PropOp31
 70
     1
102
RTVSPost2010Prop32
280
     0
102
RTVSPost2010PropOp32
 70
     1
102
RTVSPost2010Prop33
280
     0
102
RTVSPost2010PropOp33
 70
     1
102
RTVSPost2010Prop34
280
     0
102
RTVSPost2010PropOp34
 70
     1
102
RTVSPost2010Prop35
280
     0
102
RTVSPost2010PropOp35
 70
     1
102
RTVSPost2010Prop36
280
     0
102
RTVSPost2010PropOp36
 70
     1
102
RTVSPost2010Prop37
 90
       50
102
RTVSPost2010PropOp37
 70
     1
102
RTVSPost2010Prop38
140
0.0
102
RTVSPost2010PropOp38
 70
     1
102
RTVSPost2010Prop39
140
1.0
102
RTVSPost2010PropOp39
 70
     1
102
RTVSPost2010Prop40
 90
        0
102
RTVSPost2010PropOp40
 70
     1
102
RTVSPost2010Prop41ColorIndex
 90
       18
102
RTVSPost2010Prop41ColorRGB
 90
        0
102
RTVSPost2010PropOp41
 70
     1
102
RTVSPost2010Prop42
 90
       50
102
RTVSPost2010PropOp42
 70
     1
102
RTVSPost2010Prop43
 90
        3
102
RTVSPost2010PropOp43
 70
     1
102
RTVSPost2010Prop44ColorIndex
 90
        5
102
RTVSPost2010Prop44ColorRGB
 90
      255
102
RTVSPost2010PropOp44
 70
     1
102
RTVSPost2010Prop45
280
     0
102
RTVSPost2010PropOp45
 70
     1
102
RTVSPost2010Prop46
 90
       50
102
RTVSPost2010PropOp46
 70
     1
102
RTVSPost2010Prop47
 90
       50
102
RTVSPost2010PropOp47
 70
     1
102
RTVSPost2010Prop48
 90
       50
102
RTVSPost2010PropOp48
 70
     1
102
RTVSPost2010Prop49
280
     0
102
RTVSPost2010PropOp49
 70
     1
102
RTVSPost2010Prop50
 90
       50
102
RTVSPost2010PropOp50
 70
     1
102
RTVSPost2010Prop51ColorIndex
 90
      256
102
RTVSPost2010Prop51ColorRGB
 90
-16777216
102
RTVSPost2010PropOp51
 70
     0
102
RTVSPost2010Prop52
140
1.0
102
RTVSPost2010PropOp52
 70
     0
102
RTVSPost2010Prop53
 90
        2
102
RTVSPost2010PropOp53
 70
     1
102
RTVSPost2010Prop54
  1
strokes_ogs.tif
102
RTVSPost2010PropOp54
 70
     1
102
RTVSPost2010Prop55
280
     0
102
RTVSPost2010PropOp55
 70
     1
102
RTVSPost2010Prop56
140
1.0
102
RTVSPost2010PropOp56
 70
     1
102
RTVSPost2010Prop57
140
1.0
102
RTVSPost2010PropOp57
 70
     1
  0
XRECORD
  5
106AD16
102
{ACAD_REACTORS
330
106AD15
102
}
330
106AD15
100
AcDbXrecord
280
     1
102
RTVSPropertyOp0
 70
     0
102
RTVSPropertyOp1
 70
     0
102
RTVSPropertyOp2
 70
     0
102
RTVSPropertyOp3
 70
     0
102
RTVSPropertyOp4
 70
     0
102
RTVSPropertyOp5
 70
     0
102
RTVSPropertyOp6
 70
     0
102
RTVSPropertyOp7
 70
     0
102
RTVSPropertyOp8
 70
     0
102
RTVSPropertyOp9
 70
     0
102
RTVSPropertyOp10
 70
     0
102
RTVSPropertyOp11
 70
     0
102
RTVSPropertyOp12
 70
     0
102
RTVSPropertyOp13
 70
     0
102
RTVSPropertyOp14
 70
     2
102
RTVSPropertyOp15
 70
     0
102
RTVSPropertyOp16
 70
     0
102
RTVSPropertyOp17
 70
     0
102
RTVSPropertyOp18
 70
     0
102
RTVSPropertyOp19
 70
     0
102
RTVSPropertyOp20
 70
     0
102
RTVSPropertyOp21
 70
     0
102
RTVSPropertyOp22
 70
     0
102
RTVSPropertyOp23
 70
     0
102
RTVSPropertyOp24
 70
     0
102
RTVSPropertyOp25
 70
     0
102
RTVSPropertyOp26
 70
     0
102
RTVSPropertyOp27
 70
     0
102
RTVSPropertyOp28
 70
     0
102
RTVSPropertyOp29
 70
     0
102
RTVSPropertyOp30
 70
     0
102
RTVSPropertyOp31
 70
     0
102
RTVSPropertyOp32
 70
     0
102
RTVSPropertyOp33
 70
     0
102
RTVSPropertyOp34
 70
     0
102
RTVSPropertyOp35
 70
     0
102
RTVSPropertyOp36
 70
     0
102
RTVSPropertyOp37
 70
     0
102
RTVSPropertyOp38
 70
     0
102
RTVSPropertyOp39
 70
     0
102
RTVSPropertyOp40
 70
     0
102
RTVSPropertyOp41
 70
     0
102
RTVSPropertyOp42
 70
     0
102
RTVSPropertyOp43
 70
     0
102
RTVSPropertyOp44
 70
     0
102
RTVSPropertyOp45
 70
     0
102
RTVSPropertyOp46
 70
     0
102
RTVSPropertyOp47
 70
     0
102
RTVSPropertyOp48
 70
     0
102
RTVSPropertyOp49
 70
     0
102
RTVSPropertyOp50
 70
     0
102
RTVSPropertyOp51
 70
     0
102
RTVSPropertyOp52
 70
     0
102
RTVSPropertyOp53
 70
     0
102
RTVSPropertyOp54
 70
     0
102
RTVSPropertyOp55
 70
     0
102
RTVSPropertyOp56
 70
     0
102
RTVSPropertyOp57
 70
     0
102
RTVSPost2010Prop28
280
     0
102
RTVSPost2010PropOp28
 70
     0
102
RTVSPost2010Prop29
280
     1
102
RTVSPost2010PropOp29
 70
     0
102
RTVSPost2010Prop30
280
     1
102
RTVSPost2010PropOp30
 70
     0
102
RTVSPost2010Prop31
280
     0
102
RTVSPost2010PropOp31
 70
     0
102
RTVSPost2010Prop32
280
     0
102
RTVSPost2010PropOp32
 70
     0
102
RTVSPost2010Prop33
280
     0
102
RTVSPost2010PropOp33
 70
     0
102
RTVSPost2010Prop34
280
     0
102
RTVSPost2010PropOp34
 70
     0
102
RTVSPost2010Prop35
280
     0
102
RTVSPost2010PropOp35
 70
     0
102
RTVSPost2010Prop36
280
     0
102
RTVSPost2010PropOp36
 70
     0
102
RTVSPost2010Prop37
 90
       50
102
RTVSPost2010PropOp37
 70
     0
102
RTVSPost2010Prop38
140
0.0
102
RTVSPost2010PropOp38
 70
     0
102
RTVSPost2010Prop39
140
1.0
102
RTVSPost2010PropOp39
 70
     0
102
RTVSPost2010Prop40
 90
        0
102
RTVSPost2010PropOp40
 70
     0
102
RTVSPost2010Prop41ColorIndex
 90
       18
102
RTVSPost2010Prop41ColorRGB
 90
        0
102
RTVSPost2010PropOp41
 70
     0
102
RTVSPost2010Prop42
 90
       50
102
RTVSPost2010PropOp42
 70
     0
102
RTVSPost2010Prop43
 90
        3
102
RTVSPost2010PropOp43
 70
     0
102
RTVSPost2010Prop44ColorIndex
 90
        5
102
RTVSPost2010Prop44ColorRGB
 90
      255
102
RTVSPost2010PropOp44
 70
     0
102
RTVSPost2010Prop45
280
     0
102
RTVSPost2010PropOp45
 70
     0
102
RTVSPost2010Prop46
 90
       50
102
RTVSPost2010PropOp46
 70
     0
102
RTVSPost2010Prop47
 90
       50
102
RTVSPost2010PropOp47
 70
     0
102
RTVSPost2010Prop48
 90
       50
102
RTVSPost2010PropOp48
 70
     0
102
RTVSPost2010Prop49
280
     0
102
RTVSPost2010PropOp49
 70
     0
102
RTVSPost2010Prop50
 90
       50
102
RTVSPost2010PropOp50
 70
     0
102
RTVSPost2010Prop51ColorIndex
 90
      256
102
RTVSPost2010Prop51ColorRGB
 90
-16777216
102
RTVSPost2010PropOp51
 70
     0
102
RTVSPost2010Prop52
140
1.0
102
RTVSPost2010PropOp52
 70
     0
102
RTVSPost2010Prop53
 90
        2
102
RTVSPost2010PropOp53
 70
     0
102
RTVSPost2010Prop54
  1
strokes_ogs.tif
102
RTVSPost2010PropOp54
 70
     0
102
RTVSPost2010Prop55
280
     0
102
RTVSPost2010PropOp55
 70
     0
102
RTVSPost2010Prop56
140
1.0
102
RTVSPost2010PropOp56
 70
     0
102
RTVSPost2010Prop57
140
1.0
102
RTVSPost2010PropOp57
 70
     0
  0
XRECORD
  5
106AD18
102
{ACAD_REACTORS
330
106AD17
102
}
330
106AD17
100
AcDbXrecord
280
     1
102
RTVSPropertyOp0
 70
     1
102
RTVSPropertyOp1
 70
     1
102
RTVSPropertyOp2
 70
     1
102
RTVSPropertyOp3
 70
     1
102
RTVSPropertyOp4
 70
     1
102
RTVSPropertyOp5
 70
     1
102
RTVSPropertyOp6
 70
     1
102
RTVSPropertyOp7
 70
     1
102
RTVSPropertyOp8
 70
     1
102
RTVSPropertyOp9
 70
     1
102
RTVSPropertyOp10
 70
     1
102
RTVSPropertyOp11
 70
     1
102
RTVSPropertyOp12
 70
     1
102
RTVSPropertyOp13
 70
     1
102
RTVSPropertyOp14
 70
     1
102
RTVSPropertyOp15
 70
     1
102
RTVSPropertyOp16
 70
     1
102
RTVSPropertyOp17
 70
     1
102
RTVSPropertyOp18
 70
     1
102
RTVSPropertyOp19
 70
     1
102
RTVSPropertyOp20
 70
     1
102
RTVSPropertyOp21
 70
     1
102
RTVSPropertyOp22
 70
     1
102
RTVSPropertyOp23
 70
     1
102
RTVSPropertyOp24
 70
     1
102
RTVSPropertyOp25
 70
     1
102
RTVSPropertyOp26
 70
     1
102
RTVSPropertyOp27
 70
     1
102
RTVSPropertyOp28
 70
     1
102
RTVSPropertyOp29
 70
     1
102
RTVSPropertyOp30
 70
     1
102
RTVSPropertyOp31
 70
     1
102
RTVSPropertyOp32
 70
     1
102
RTVSPropertyOp33
 70
     1
102
RTVSPropertyOp34
 70
     1
102
RTVSPropertyOp35
 70
     1
102
RTVSPropertyOp36
 70
     1
102
RTVSPropertyOp37
 70
     1
102
RTVSPropertyOp38
 70
     1
102
RTVSPropertyOp39
 70
     1
102
RTVSPropertyOp40
 70
     1
102
RTVSPropertyOp41
 70
     1
102
RTVSPropertyOp42
 70
     1
102
RTVSPropertyOp43
 70
     1
102
RTVSPropertyOp44
 70
     1
102
RTVSPropertyOp45
 70
     1
102
RTVSPropertyOp46
 70
     1
102
RTVSPropertyOp47
 70
     1
102
RTVSPropertyOp48
 70
     1
102
RTVSPropertyOp49
 70
     1
102
RTVSPropertyOp50
 70
     1
102
RTVSPropertyOp51
 70
     0
102
RTVSPropertyOp52
 70
     0
102
RTVSPropertyOp53
 70
     1
102
RTVSPropertyOp54
 70
     1
102
RTVSPropertyOp55
 70
     1
102
RTVSPropertyOp56
 70
     1
102
RTVSPropertyOp57
 70
     1
102
RTVSPost2010Prop28
280
     0
102
RTVSPost2010PropOp28
 70
     1
102
RTVSPost2010Prop29
280
     1
102
RTVSPost2010PropOp29
 70
     1
102
RTVSPost2010Prop30
280
     1
102
RTVSPost2010PropOp30
 70
     1
102
RTVSPost2010Prop31
280
     0
102
RTVSPost2010PropOp31
 70
     1
102
RTVSPost2010Prop32
280
     0
102
RTVSPost2010PropOp32
 70
     1
102
RTVSPost2010Prop33
280
     0
102
RTVSPost2010PropOp33
 70
     1
102
RTVSPost2010Prop34
280
     0
102
RTVSPost2010PropOp34
 70
     1
102
RTVSPost2010Prop35
280
     0
102
RTVSPost2010PropOp35
 70
     1
102
RTVSPost2010Prop36
280
     0
102
RTVSPost2010PropOp36
 70
     1
102
RTVSPost2010Prop37
 90
       50
102
RTVSPost2010PropOp37
 70
     1
102
RTVSPost2010Prop38
140
0.0
102
RTVSPost2010PropOp38
 70
     1
102
RTVSPost2010Prop39
140
1.0
102
RTVSPost2010PropOp39
 70
     1
102
RTVSPost2010Prop40
 90
        0
102
RTVSPost2010PropOp40
 70
     1
102
RTVSPost2010Prop41ColorIndex
 90
       18
102
RTVSPost2010Prop41ColorRGB
 90
        0
102
RTVSPost2010PropOp41
 70
     1
102
RTVSPost2010Prop42
 90
       50
102
RTVSPost2010PropOp42
 70
     1
102
RTVSPost2010Prop43
 90
        3
102
RTVSPost2010PropOp43
 70
     1
102
RTVSPost2010Prop44ColorIndex
 90
        5
102
RTVSPost2010Prop44ColorRGB
 90
      255
102
RTVSPost2010PropOp44
 70
     1
102
RTVSPost2010Prop45
280
     0
102
RTVSPost2010PropOp45
 70
     1
102
RTVSPost2010Prop46
 90
       50
102
RTVSPost2010PropOp46
 70
     1
102
RTVSPost2010Prop47
 90
       50
102
RTVSPost2010PropOp47
 70
     1
102
RTVSPost2010Prop48
 90
       50
102
RTVSPost2010PropOp48
 70
     1
102
RTVSPost2010Prop49
280
     0
102
RTVSPost2010PropOp49
 70
     1
102
RTVSPost2010Prop50
 90
       50
102
RTVSPost2010PropOp50
 70
     1
102
RTVSPost2010Prop51ColorIndex
 90
      256
102
RTVSPost2010Prop51ColorRGB
 90
-16777216
102
RTVSPost2010PropOp51
 70
     0
102
RTVSPost2010Prop52
140
1.0
102
RTVSPost2010PropOp52
 70
     0
102
RTVSPost2010Prop53
 90
        2
102
RTVSPost2010PropOp53
 70
     1
102
RTVSPost2010Prop54
  1
strokes_ogs.tif
102
RTVSPost2010PropOp54
 70
     1
102
RTVSPost2010Prop55
280
     0
102
RTVSPost2010PropOp55
 70
     1
102
RTVSPost2010Prop56
140
1.0
102
RTVSPost2010PropOp56
 70
     1
102
RTVSPost2010Prop57
140
1.0
102
RTVSPost2010PropOp57
 70
     1
  0
XRECORD
  5
106AD1A
102
{ACAD_REACTORS
330
106AD19
102
}
330
106AD19
100
AcDbXrecord
280
     1
102
RTVSPropertyOp0
 70
     0
102
RTVSPropertyOp1
 70
     0
102
RTVSPropertyOp2
 70
     0
102
RTVSPropertyOp3
 70
     0
102
RTVSPropertyOp4
 70
     0
102
RTVSPropertyOp5
 70
     0
102
RTVSPropertyOp6
 70
     0
102
RTVSPropertyOp7
 70
     0
102
RTVSPropertyOp8
 70
     0
102
RTVSPropertyOp9
 70
     0
102
RTVSPropertyOp10
 70
     0
102
RTVSPropertyOp11
 70
     0
102
RTVSPropertyOp12
 70
     0
102
RTVSPropertyOp13
 70
     0
102
RTVSPropertyOp14
 70
     2
102
RTVSPropertyOp15
 70
     0
102
RTVSPropertyOp16
 70
     0
102
RTVSPropertyOp17
 70
     0
102
RTVSPropertyOp18
 70
     0
102
RTVSPropertyOp19
 70
     0
102
RTVSPropertyOp20
 70
     0
102
RTVSPropertyOp21
 70
     0
102
RTVSPropertyOp22
 70
     0
102
RTVSPropertyOp23
 70
     0
102
RTVSPropertyOp24
 70
     0
102
RTVSPropertyOp25
 70
     0
102
RTVSPropertyOp26
 70
     0
102
RTVSPropertyOp27
 70
     0
102
RTVSPropertyOp28
 70
     0
102
RTVSPropertyOp29
 70
     0
102
RTVSPropertyOp30
 70
     0
102
RTVSPropertyOp31
 70
     0
102
RTVSPropertyOp32
 70
     0
102
RTVSPropertyOp33
 70
     0
102
RTVSPropertyOp34
 70
     0
102
RTVSPropertyOp35
 70
     0
102
RTVSPropertyOp36
 70
     0
102
RTVSPropertyOp37
 70
     0
102
RTVSPropertyOp38
 70
     0
102
RTVSPropertyOp39
 70
     0
102
RTVSPropertyOp40
 70
     0
102
RTVSPropertyOp41
 70
     0
102
RTVSPropertyOp42
 70
     0
102
RTVSPropertyOp43
 70
     0
102
RTVSPropertyOp44
 70
     0
102
RTVSPropertyOp45
 70
     0
102
RTVSPropertyOp46
 70
     0
102
RTVSPropertyOp47
 70
     0
102
RTVSPropertyOp48
 70
     0
102
RTVSPropertyOp49
 70
     0
102
RTVSPropertyOp50
 70
     0
102
RTVSPropertyOp51
 70
     0
102
RTVSPropertyOp52
 70
     0
102
RTVSPropertyOp53
 70
     0
102
RTVSPropertyOp54
 70
     0
102
RTVSPropertyOp55
 70
     0
102
RTVSPropertyOp56
 70
     0
102
RTVSPropertyOp57
 70
     0
102
RTVSPost2010Prop28
280
     0
102
RTVSPost2010PropOp28
 70
     0
102
RTVSPost2010Prop29
280
     1
102
RTVSPost2010PropOp29
 70
     0
102
RTVSPost2010Prop30
280
     1
102
RTVSPost2010PropOp30
 70
     0
102
RTVSPost2010Prop31
280
     0
102
RTVSPost2010PropOp31
 70
     0
102
RTVSPost2010Prop32
280
     0
102
RTVSPost2010PropOp32
 70
     0
102
RTVSPost2010Prop33
280
     0
102
RTVSPost2010PropOp33
 70
     0
102
RTVSPost2010Prop34
280
     0
102
RTVSPost2010PropOp34
 70
     0
102
RTVSPost2010Prop35
280
     0
102
RTVSPost2010PropOp35
 70
     0
102
RTVSPost2010Prop36
280
     0
102
RTVSPost2010PropOp36
 70
     0
102
RTVSPost2010Prop37
 90
       50
102
RTVSPost2010PropOp37
 70
     0
102
RTVSPost2010Prop38
140
0.0
102
RTVSPost2010PropOp38
 70
     0
102
RTVSPost2010Prop39
140
1.0
102
RTVSPost2010PropOp39
 70
     0
102
RTVSPost2010Prop40
 90
        0
102
RTVSPost2010PropOp40
 70
     0
102
RTVSPost2010Prop41ColorIndex
 90
       18
102
RTVSPost2010Prop41ColorRGB
 90
        0
102
RTVSPost2010PropOp41
 70
     0
102
RTVSPost2010Prop42
 90
       50
102
RTVSPost2010PropOp42
 70
     0
102
RTVSPost2010Prop43
 90
        3
102
RTVSPost2010PropOp43
 70
     0
102
RTVSPost2010Prop44ColorIndex
 90
        5
102
RTVSPost2010Prop44ColorRGB
 90
      255
102
RTVSPost2010PropOp44
 70
     0
102
RTVSPost2010Prop45
280
     0
102
RTVSPost2010PropOp45
 70
     0
102
RTVSPost2010Prop46
 90
       50
102
RTVSPost2010PropOp46
 70
     0
102
RTVSPost2010Prop47
 90
       50
102
RTVSPost2010PropOp47
 70
     0
102
RTVSPost2010Prop48
 90
       50
102
RTVSPost2010PropOp48
 70
     0
102
RTVSPost2010Prop49
280
     0
102
RTVSPost2010PropOp49
 70
     0
102
RTVSPost2010Prop50
 90
       50
102
RTVSPost2010PropOp50
 70
     0
102
RTVSPost2010Prop51ColorIndex
 90
      256
102
RTVSPost2010Prop51ColorRGB
 90
-16777216
102
RTVSPost2010PropOp51
 70
     0
102
RTVSPost2010Prop52
140
1.0
102
RTVSPost2010PropOp52
 70
     0
102
RTVSPost2010Prop53
 90
        2
102
RTVSPost2010PropOp53
 70
     0
102
RTVSPost2010Prop54
  1
strokes_ogs.tif
102
RTVSPost2010PropOp54
 70
     0
102
RTVSPost2010Prop55
280
     0
102
RTVSPost2010PropOp55
 70
     0
102
RTVSPost2010Prop56
140
1.0
102
RTVSPost2010PropOp56
 70
     0
102
RTVSPost2010Prop57
140
1.0
102
RTVSPost2010PropOp57
 70
     0
  0
XRECORD
  5
106AD1C
102
{ACAD_REACTORS
330
106AD1B
102
}
330
106AD1B
100
AcDbXrecord
280
     1
102
RTVSPropertyOp0
 70
     1
102
RTVSPropertyOp1
 70
     1
102
RTVSPropertyOp2
 70
     1
102
RTVSPropertyOp3
 70
     1
102
RTVSPropertyOp4
 70
     1
102
RTVSPropertyOp5
 70
     1
102
RTVSPropertyOp6
 70
     1
102
RTVSPropertyOp7
 70
     1
102
RTVSPropertyOp8
 70
     1
102
RTVSPropertyOp9
 70
     1
102
RTVSPropertyOp10
 70
     1
102
RTVSPropertyOp11
 70
     1
102
RTVSPropertyOp12
 70
     1
102
RTVSPropertyOp13
 70
     1
102
RTVSPropertyOp14
 70
     1
102
RTVSPropertyOp15
 70
     1
102
RTVSPropertyOp16
 70
     1
102
RTVSPropertyOp17
 70
     1
102
RTVSPropertyOp18
 70
     1
102
RTVSPropertyOp19
 70
     1
102
RTVSPropertyOp20
 70
     1
102
RTVSPropertyOp21
 70
     1
102
RTVSPropertyOp22
 70
     1
102
RTVSPropertyOp23
 70
     1
102
RTVSPropertyOp24
 70
     1
102
RTVSPropertyOp25
 70
     1
102
RTVSPropertyOp26
 70
     1
102
RTVSPropertyOp27
 70
     1
102
RTVSPropertyOp28
 70
     1
102
RTVSPropertyOp29
 70
     1
102
RTVSPropertyOp30
 70
     1
102
RTVSPropertyOp31
 70
     1
102
RTVSPropertyOp32
 70
     1
102
RTVSPropertyOp33
 70
     1
102
RTVSPropertyOp34
 70
     1
102
RTVSPropertyOp35
 70
     1
102
RTVSPropertyOp36
 70
     1
102
RTVSPropertyOp37
 70
     1
102
RTVSPropertyOp38
 70
     1
102
RTVSPropertyOp39
 70
     1
102
RTVSPropertyOp40
 70
     1
102
RTVSPropertyOp41
 70
     1
102
RTVSPropertyOp42
 70
     1
102
RTVSPropertyOp43
 70
     1
102
RTVSPropertyOp44
 70
     1
102
RTVSPropertyOp45
 70
     1
102
RTVSPropertyOp46
 70
     1
102
RTVSPropertyOp47
 70
     1
102
RTVSPropertyOp48
 70
     1
102
RTVSPropertyOp49
 70
     1
102
RTVSPropertyOp50
 70
     1
102
RTVSPropertyOp51
 70
     0
102
RTVSPropertyOp52
 70
     0
102
RTVSPropertyOp53
 70
     1
102
RTVSPropertyOp54
 70
     1
102
RTVSPropertyOp55
 70
     1
102
RTVSPropertyOp56
 70
     1
102
RTVSPropertyOp57
 70
     1
102
RTVSPost2010Prop28
280
     0
102
RTVSPost2010PropOp28
 70
     1
102
RTVSPost2010Prop29
280
     1
102
RTVSPost2010PropOp29
 70
     1
102
RTVSPost2010Prop30
280
     1
102
RTVSPost2010PropOp30
 70
     1
102
RTVSPost2010Prop31
280
     0
102
RTVSPost2010PropOp31
 70
     1
102
RTVSPost2010Prop32
280
     0
102
RTVSPost2010PropOp32
 70
     1
102
RTVSPost2010Prop33
280
     0
102
RTVSPost2010PropOp33
 70
     1
102
RTVSPost2010Prop34
280
     0
102
RTVSPost2010PropOp34
 70
     1
102
RTVSPost2010Prop35
280
     0
102
RTVSPost2010PropOp35
 70
     1
102
RTVSPost2010Prop36
280
     0
102
RTVSPost2010PropOp36
 70
     1
102
RTVSPost2010Prop37
 90
       50
102
RTVSPost2010PropOp37
 70
     1
102
RTVSPost2010Prop38
140
0.0
102
RTVSPost2010PropOp38
 70
     1
102
RTVSPost2010Prop39
140
1.0
102
RTVSPost2010PropOp39
 70
     1
102
RTVSPost2010Prop40
 90
        0
102
RTVSPost2010PropOp40
 70
     1
102
RTVSPost2010Prop41ColorIndex
 90
       18
102
RTVSPost2010Prop41ColorRGB
 90
        0
102
RTVSPost2010PropOp41
 70
     1
102
RTVSPost2010Prop42
 90
       50
102
RTVSPost2010PropOp42
 70
     1
102
RTVSPost2010Prop43
 90
        3
102
RTVSPost2010PropOp43
 70
     1
102
RTVSPost2010Prop44ColorIndex
 90
        5
102
RTVSPost2010Prop44ColorRGB
 90
      255
102
RTVSPost2010PropOp44
 70
     1
102
RTVSPost2010Prop45
280
     0
102
RTVSPost2010PropOp45
 70
     1
102
RTVSPost2010Prop46
 90
       50
102
RTVSPost2010PropOp46
 70
     1
102
RTVSPost2010Prop47
 90
       50
102
RTVSPost2010PropOp47
 70
     1
102
RTVSPost2010Prop48
 90
       50
102
RTVSPost2010PropOp48
 70
     1
102
RTVSPost2010Prop49
280
     0
102
RTVSPost2010PropOp49
 70
     1
102
RTVSPost2010Prop50
 90
       50
102
RTVSPost2010PropOp50
 70
     1
102
RTVSPost2010Prop51ColorIndex
 90
      256
102
RTVSPost2010Prop51ColorRGB
 90
-16777216
102
RTVSPost2010PropOp51
 70
     0
102
RTVSPost2010Prop52
140
1.0
102
RTVSPost2010PropOp52
 70
     0
102
RTVSPost2010Prop53
 90
        2
102
RTVSPost2010PropOp53
 70
     1
102
RTVSPost2010Prop54
  1
strokes_ogs.tif
102
RTVSPost2010PropOp54
 70
     1
102
RTVSPost2010Prop55
280
     0
102
RTVSPost2010PropOp55
 70
     1
102
RTVSPost2010Prop56
140
1.0
102
RTVSPost2010PropOp56
 70
     1
102
RTVSPost2010Prop57
140
1.0
102
RTVSPost2010PropOp57
 70
     1
  0
XRECORD
  5
106AD1E
102
{ACAD_REACTORS
330
106AD1D
102
}
330
106AD1D
100
AcDbXrecord
280
     1
102
RTVSPropertyOp0
 70
     1
102
RTVSPropertyOp1
 70
     1
102
RTVSPropertyOp2
 70
     1
102
RTVSPropertyOp3
 70
     1
102
RTVSPropertyOp4
 70
     1
102
RTVSPropertyOp5
 70
     1
102
RTVSPropertyOp6
 70
     1
102
RTVSPropertyOp7
 70
     1
102
RTVSPropertyOp8
 70
     1
102
RTVSPropertyOp9
 70
     1
102
RTVSPropertyOp10
 70
     1
102
RTVSPropertyOp11
 70
     1
102
RTVSPropertyOp12
 70
     1
102
RTVSPropertyOp13
 70
     1
102
RTVSPropertyOp14
 70
     1
102
RTVSPropertyOp15
 70
     1
102
RTVSPropertyOp16
 70
     1
102
RTVSPropertyOp17
 70
     1
102
RTVSPropertyOp18
 70
     1
102
RTVSPropertyOp19
 70
     1
102
RTVSPropertyOp20
 70
     1
102
RTVSPropertyOp21
 70
     1
102
RTVSPropertyOp22
 70
     1
102
RTVSPropertyOp23
 70
     1
102
RTVSPropertyOp24
 70
     1
102
RTVSPropertyOp25
 70
     1
102
RTVSPropertyOp26
 70
     1
102
RTVSPropertyOp27
 70
     1
102
RTVSPropertyOp28
 70
     1
102
RTVSPropertyOp29
 70
     1
102
RTVSPropertyOp30
 70
     1
102
RTVSPropertyOp31
 70
     1
102
RTVSPropertyOp32
 70
     1
102
RTVSPropertyOp33
 70
     1
102
RTVSPropertyOp34
 70
     1
102
RTVSPropertyOp35
 70
     1
102
RTVSPropertyOp36
 70
     1
102
RTVSPropertyOp37
 70
     1
102
RTVSPropertyOp38
 70
     1
102
RTVSPropertyOp39
 70
     1
102
RTVSPropertyOp40
 70
     1
102
RTVSPropertyOp41
 70
     1
102
RTVSPropertyOp42
 70
     1
102
RTVSPropertyOp43
 70
     1
102
RTVSPropertyOp44
 70
     1
102
RTVSPropertyOp45
 70
     1
102
RTVSPropertyOp46
 70
     1
102
RTVSPropertyOp47
 70
     1
102
RTVSPropertyOp48
 70
     1
102
RTVSPropertyOp49
 70
     1
102
RTVSPropertyOp50
 70
     1
102
RTVSPropertyOp51
 70
     0
102
RTVSPropertyOp52
 70
     0
102
RTVSPropertyOp53
 70
     1
102
RTVSPropertyOp54
 70
     1
102
RTVSPropertyOp55
 70
     1
102
RTVSPropertyOp56
 70
     1
102
RTVSPropertyOp57
 70
     1
102
RTVSPost2010Prop28
280
     0
102
RTVSPost2010PropOp28
 70
     1
102
RTVSPost2010Prop29
280
     1
102
RTVSPost2010PropOp29
 70
     1
102
RTVSPost2010Prop30
280
     1
102
RTVSPost2010PropOp30
 70
     1
102
RTVSPost2010Prop31
280
     0
102
RTVSPost2010PropOp31
 70
     1
102
RTVSPost2010Prop32
280
     0
102
RTVSPost2010PropOp32
 70
     1
102
RTVSPost2010Prop33
280
     0
102
RTVSPost2010PropOp33
 70
     1
102
RTVSPost2010Prop34
280
     0
102
RTVSPost2010PropOp34
 70
     1
102
RTVSPost2010Prop35
280
     0
102
RTVSPost2010PropOp35
 70
     1
102
RTVSPost2010Prop36
280
     0
102
RTVSPost2010PropOp36
 70
     1
102
RTVSPost2010Prop37
 90
       50
102
RTVSPost2010PropOp37
 70
     1
102
RTVSPost2010Prop38
140
0.0
102
RTVSPost2010PropOp38
 70
     1
102
RTVSPost2010Prop39
140
1.0
102
RTVSPost2010PropOp39
 70
     1
102
RTVSPost2010Prop40
 90
        0
102
RTVSPost2010PropOp40
 70
     1
102
RTVSPost2010Prop41ColorIndex
 90
       18
102
RTVSPost2010Prop41ColorRGB
 90
        0
102
RTVSPost2010PropOp41
 70
     1
102
RTVSPost2010Prop42
 90
       50
102
RTVSPost2010PropOp42
 70
     1
102
RTVSPost2010Prop43
 90
        3
102
RTVSPost2010PropOp43
 70
     1
102
RTVSPost2010Prop44ColorIndex
 90
        5
102
RTVSPost2010Prop44ColorRGB
 90
      255
102
RTVSPost2010PropOp44
 70
     1
102
RTVSPost2010Prop45
280
     0
102
RTVSPost2010PropOp45
 70
     1
102
RTVSPost2010Prop46
 90
       50
102
RTVSPost2010PropOp46
 70
     1
102
RTVSPost2010Prop47
 90
       50
102
RTVSPost2010PropOp47
 70
     1
102
RTVSPost2010Prop48
 90
       50
102
RTVSPost2010PropOp48
 70
     1
102
RTVSPost2010Prop49
280
     0
102
RTVSPost2010PropOp49
 70
     1
102
RTVSPost2010Prop50
 90
       50
102
RTVSPost2010PropOp50
 70
     1
102
RTVSPost2010Prop51ColorIndex
 90
      256
102
RTVSPost2010Prop51ColorRGB
 90
-16777216
102
RTVSPost2010PropOp51
 70
     0
102
RTVSPost2010Prop52
140
1.0
102
RTVSPost2010PropOp52
 70
     0
102
RTVSPost2010Prop53
 90
        2
102
RTVSPost2010PropOp53
 70
     1
102
RTVSPost2010Prop54
  1
strokes_ogs.tif
102
RTVSPost2010PropOp54
 70
     1
102
RTVSPost2010Prop55
280
     0
102
RTVSPost2010PropOp55
 70
     1
102
RTVSPost2010Prop56
140
1.0
102
RTVSPost2010PropOp56
 70
     1
102
RTVSPost2010Prop57
140
1.0
102
RTVSPost2010PropOp57
 70
     1
  0
XRECORD
  5
106AD20
102
{ACAD_REACTORS
330
106AD1F
102
}
330
106AD1F
100
AcDbXrecord
280
     1
102
RTVSPropertyOp0
 70
     1
102
RTVSPropertyOp1
 70
     1
102
RTVSPropertyOp2
 70
     1
102
RTVSPropertyOp3
 70
     1
102
RTVSPropertyOp4
 70
     1
102
RTVSPropertyOp5
 70
     1
102
RTVSPropertyOp6
 70
     1
102
RTVSPropertyOp7
 70
     1
102
RTVSPropertyOp8
 70
     1
102
RTVSPropertyOp9
 70
     1
102
RTVSPropertyOp10
 70
     1
102
RTVSPropertyOp11
 70
     1
102
RTVSPropertyOp12
 70
     1
102
RTVSPropertyOp13
 70
     1
102
RTVSPropertyOp14
 70
     1
102
RTVSPropertyOp15
 70
     1
102
RTVSPropertyOp16
 70
     1
102
RTVSPropertyOp17
 70
     1
102
RTVSPropertyOp18
 70
     1
102
RTVSPropertyOp19
 70
     1
102
RTVSPropertyOp20
 70
     1
102
RTVSPropertyOp21
 70
     1
102
RTVSPropertyOp22
 70
     1
102
RTVSPropertyOp23
 70
     1
102
RTVSPropertyOp24
 70
     1
102
RTVSPropertyOp25
 70
     1
102
RTVSPropertyOp26
 70
     1
102
RTVSPropertyOp27
 70
     1
102
RTVSPropertyOp28
 70
     1
102
RTVSPropertyOp29
 70
     1
102
RTVSPropertyOp30
 70
     1
102
RTVSPropertyOp31
 70
     1
102
RTVSPropertyOp32
 70
     1
102
RTVSPropertyOp33
 70
     1
102
RTVSPropertyOp34
 70
     1
102
RTVSPropertyOp35
 70
     1
102
RTVSPropertyOp36
 70
     1
102
RTVSPropertyOp37
 70
     1
102
RTVSPropertyOp38
 70
     1
102
RTVSPropertyOp39
 70
     1
102
RTVSPropertyOp40
 70
     1
102
RTVSPropertyOp41
 70
     1
102
RTVSPropertyOp42
 70
     1
102
RTVSPropertyOp43
 70
     1
102
RTVSPropertyOp44
 70
     1
102
RTVSPropertyOp45
 70
     1
102
RTVSPropertyOp46
 70
     1
102
RTVSPropertyOp47
 70
     1
102
RTVSPropertyOp48
 70
     1
102
RTVSPropertyOp49
 70
     1
102
RTVSPropertyOp50
 70
     1
102
RTVSPropertyOp51
 70
     0
102
RTVSPropertyOp52
 70
     0
102
RTVSPropertyOp53
 70
     1
102
RTVSPropertyOp54
 70
     1
102
RTVSPropertyOp55
 70
     1
102
RTVSPropertyOp56
 70
     1
102
RTVSPropertyOp57
 70
     1
102
RTVSPost2010Prop28
280
     0
102
RTVSPost2010PropOp28
 70
     1
102
RTVSPost2010Prop29
280
     1
102
RTVSPost2010PropOp29
 70
     1
102
RTVSPost2010Prop30
280
     1
102
RTVSPost2010PropOp30
 70
     1
102
RTVSPost2010Prop31
280
     0
102
RTVSPost2010PropOp31
 70
     1
102
RTVSPost2010Prop32
280
     0
102
RTVSPost2010PropOp32
 70
     1
102
RTVSPost2010Prop33
280
     0
102
RTVSPost2010PropOp33
 70
     1
102
RTVSPost2010Prop34
280
     0
102
RTVSPost2010PropOp34
 70
     1
102
RTVSPost2010Prop35
280
     0
102
RTVSPost2010PropOp35
 70
     1
102
RTVSPost2010Prop36
280
     0
102
RTVSPost2010PropOp36
 70
     1
102
RTVSPost2010Prop37
 90
       50
102
RTVSPost2010PropOp37
 70
     1
102
RTVSPost2010Prop38
140
0.0
102
RTVSPost2010PropOp38
 70
     1
102
RTVSPost2010Prop39
140
1.0
102
RTVSPost2010PropOp39
 70
     1
102
RTVSPost2010Prop40
 90
        0
102
RTVSPost2010PropOp40
 70
     1
102
RTVSPost2010Prop41ColorIndex
 90
       18
102
RTVSPost2010Prop41ColorRGB
 90
        0
102
RTVSPost2010PropOp41
 70
     1
102
RTVSPost2010Prop42
 90
       50
102
RTVSPost2010PropOp42
 70
     1
102
RTVSPost2010Prop43
 90
        3
102
RTVSPost2010PropOp43
 70
     1
102
RTVSPost2010Prop44ColorIndex
 90
        5
102
RTVSPost2010Prop44ColorRGB
 90
      255
102
RTVSPost2010PropOp44
 70
     1
102
RTVSPost2010Prop45
280
     0
102
RTVSPost2010PropOp45
 70
     1
102
RTVSPost2010Prop46
 90
       50
102
RTVSPost2010PropOp46
 70
     1
102
RTVSPost2010Prop47
 90
       50
102
RTVSPost2010PropOp47
 70
     1
102
RTVSPost2010Prop48
 90
       50
102
RTVSPost2010PropOp48
 70
     1
102
RTVSPost2010Prop49
280
     0
102
RTVSPost2010PropOp49
 70
     1
102
RTVSPost2010Prop50
 90
       50
102
RTVSPost2010PropOp50
 70
     1
102
RTVSPost2010Prop51ColorIndex
 90
      256
102
RTVSPost2010Prop51ColorRGB
 90
-16777216
102
RTVSPost2010PropOp51
 70
     0
102
RTVSPost2010Prop52
140
1.0
102
RTVSPost2010PropOp52
 70
     0
102
RTVSPost2010Prop53
 90
        2
102
RTVSPost2010PropOp53
 70
     1
102
RTVSPost2010Prop54
  1
strokes_ogs.tif
102
RTVSPost2010PropOp54
 70
     1
102
RTVSPost2010Prop55
280
     0
102
RTVSPost2010PropOp55
 70
     1
102
RTVSPost2010Prop56
140
1.0
102
RTVSPost2010PropOp56
 70
     1
102
RTVSPost2010Prop57
140
1.0
102
RTVSPost2010PropOp57
 70
     1
  0
XRECORD
  5
106AD22
102
{ACAD_REACTORS
330
106AD21
102
}
330
106AD21
100
AcDbXrecord
280
     1
102
RTVSPropertyOp0
 70
     1
102
RTVSPropertyOp1
 70
     1
102
RTVSPropertyOp2
 70
     1
102
RTVSPropertyOp3
 70
     1
102
RTVSPropertyOp4
 70
     1
102
RTVSPropertyOp5
 70
     1
102
RTVSPropertyOp6
 70
     1
102
RTVSPropertyOp7
 70
     1
102
RTVSPropertyOp8
 70
     1
102
RTVSPropertyOp9
 70
     1
102
RTVSPropertyOp10
 70
     1
102
RTVSPropertyOp11
 70
     1
102
RTVSPropertyOp12
 70
     1
102
RTVSPropertyOp13
 70
     1
102
RTVSPropertyOp14
 70
     1
102
RTVSPropertyOp15
 70
     1
102
RTVSPropertyOp16
 70
     1
102
RTVSPropertyOp17
 70
     1
102
RTVSPropertyOp18
 70
     1
102
RTVSPropertyOp19
 70
     1
102
RTVSPropertyOp20
 70
     1
102
RTVSPropertyOp21
 70
     1
102
RTVSPropertyOp22
 70
     1
102
RTVSPropertyOp23
 70
     1
102
RTVSPropertyOp24
 70
     1
102
RTVSPropertyOp25
 70
     1
102
RTVSPropertyOp26
 70
     1
102
RTVSPropertyOp27
 70
     1
102
RTVSPropertyOp28
 70
     1
102
RTVSPropertyOp29
 70
     1
102
RTVSPropertyOp30
 70
     1
102
RTVSPropertyOp31
 70
     1
102
RTVSPropertyOp32
 70
     1
102
RTVSPropertyOp33
 70
     1
102
RTVSPropertyOp34
 70
     1
102
RTVSPropertyOp35
 70
     1
102
RTVSPropertyOp36
 70
     1
102
RTVSPropertyOp37
 70
     1
102
RTVSPropertyOp38
 70
     1
102
RTVSPropertyOp39
 70
     1
102
RTVSPropertyOp40
 70
     1
102
RTVSPropertyOp41
 70
     1
102
RTVSPropertyOp42
 70
     1
102
RTVSPropertyOp43
 70
     1
102
RTVSPropertyOp44
 70
     1
102
RTVSPropertyOp45
 70
     1
102
RTVSPropertyOp46
 70
     1
102
RTVSPropertyOp47
 70
     1
102
RTVSPropertyOp48
 70
     1
102
RTVSPropertyOp49
 70
     1
102
RTVSPropertyOp50
 70
     1
102
RTVSPropertyOp51
 70
     0
102
RTVSPropertyOp52
 70
     0
102
RTVSPropertyOp53
 70
     1
102
RTVSPropertyOp54
 70
     1
102
RTVSPropertyOp55
 70
     1
102
RTVSPropertyOp56
 70
     1
102
RTVSPropertyOp57
 70
     1
102
RTVSPost2010Prop28
280
     0
102
RTVSPost2010PropOp28
 70
     1
102
RTVSPost2010Prop29
280
     1
102
RTVSPost2010PropOp29
 70
     1
102
RTVSPost2010Prop30
280
     1
102
RTVSPost2010PropOp30
 70
     1
102
RTVSPost2010Prop31
280
     0
102
RTVSPost2010PropOp31
 70
     1
102
RTVSPost2010Prop32
280
     0
102
RTVSPost2010PropOp32
 70
     1
102
RTVSPost2010Prop33
280
     0
102
RTVSPost2010PropOp33
 70
     1
102
RTVSPost2010Prop34
280
     0
102
RTVSPost2010PropOp34
 70
     1
102
RTVSPost2010Prop35
280
     0
102
RTVSPost2010PropOp35
 70
     1
102
RTVSPost2010Prop36
280
     0
102
RTVSPost2010PropOp36
 70
     1
102
RTVSPost2010Prop37
 90
       50
102
RTVSPost2010PropOp37
 70
     1
102
RTVSPost2010Prop38
140
0.0
102
RTVSPost2010PropOp38
 70
     1
102
RTVSPost2010Prop39
140
1.0
102
RTVSPost2010PropOp39
 70
     1
102
RTVSPost2010Prop40
 90
        0
102
RTVSPost2010PropOp40
 70
     1
102
RTVSPost2010Prop41ColorIndex
 90
       18
102
RTVSPost2010Prop41ColorRGB
 90
        0
102
RTVSPost2010PropOp41
 70
     1
102
RTVSPost2010Prop42
 90
       50
102
RTVSPost2010PropOp42
 70
     1
102
RTVSPost2010Prop43
 90
        3
102
RTVSPost2010PropOp43
 70
     1
102
RTVSPost2010Prop44ColorIndex
 90
        5
102
RTVSPost2010Prop44ColorRGB
 90
      255
102
RTVSPost2010PropOp44
 70
     1
102
RTVSPost2010Prop45
280
     0
102
RTVSPost2010PropOp45
 70
     1
102
RTVSPost2010Prop46
 90
       50
102
RTVSPost2010PropOp46
 70
     1
102
RTVSPost2010Prop47
 90
       50
102
RTVSPost2010PropOp47
 70
     1
102
RTVSPost2010Prop48
 90
       50
102
RTVSPost2010PropOp48
 70
     1
102
RTVSPost2010Prop49
280
     0
102
RTVSPost2010PropOp49
 70
     1
102
RTVSPost2010Prop50
 90
       50
102
RTVSPost2010PropOp50
 70
     1
102
RTVSPost2010Prop51ColorIndex
 90
      256
102
RTVSPost2010Prop51ColorRGB
 90
-16777216
102
RTVSPost2010PropOp51
 70
     0
102
RTVSPost2010Prop52
140
1.0
102
RTVSPost2010PropOp52
 70
     0
102
RTVSPost2010Prop53
 90
        2
102
RTVSPost2010PropOp53
 70
     1
102
RTVSPost2010Prop54
  1
strokes_ogs.tif
102
RTVSPost2010PropOp54
 70
     1
102
RTVSPost2010Prop55
280
     0
102
RTVSPost2010PropOp55
 70
     1
102
RTVSPost2010Prop56
140
1.0
102
RTVSPost2010PropOp56
 70
     1
102
RTVSPost2010Prop57
140
1.0
102
RTVSPost2010PropOp57
 70
     1
  0
XRECORD
  5
106AD24
102
{ACAD_REACTORS
330
106AD23
102
}
330
106AD23
100
AcDbXrecord
280
     1
102
RTVSPropertyOp0
 70
     1
102
RTVSPropertyOp1
 70
     1
102
RTVSPropertyOp2
 70
     1
102
RTVSPropertyOp3
 70
     1
102
RTVSPropertyOp4
 70
     1
102
RTVSPropertyOp5
 70
     1
102
RTVSPropertyOp6
 70
     1
102
RTVSPropertyOp7
 70
     1
102
RTVSPropertyOp8
 70
     1
102
RTVSPropertyOp9
 70
     1
102
RTVSPropertyOp10
 70
     1
102
RTVSPropertyOp11
 70
     1
102
RTVSPropertyOp12
 70
     1
102
RTVSPropertyOp13
 70
     1
102
RTVSPropertyOp14
 70
     1
102
RTVSPropertyOp15
 70
     1
102
RTVSPropertyOp16
 70
     1
102
RTVSPropertyOp17
 70
     1
102
RTVSPropertyOp18
 70
     1
102
RTVSPropertyOp19
 70
     1
102
RTVSPropertyOp20
 70
     1
102
RTVSPropertyOp21
 70
     1
102
RTVSPropertyOp22
 70
     1
102
RTVSPropertyOp23
 70
     1
102
RTVSPropertyOp24
 70
     1
102
RTVSPropertyOp25
 70
     1
102
RTVSPropertyOp26
 70
     1
102
RTVSPropertyOp27
 70
     1
102
RTVSPropertyOp28
 70
     1
102
RTVSPropertyOp29
 70
     1
102
RTVSPropertyOp30
 70
     1
102
RTVSPropertyOp31
 70
     1
102
RTVSPropertyOp32
 70
     1
102
RTVSPropertyOp33
 70
     1
102
RTVSPropertyOp34
 70
     1
102
RTVSPropertyOp35
 70
     1
102
RTVSPropertyOp36
 70
     1
102
RTVSPropertyOp37
 70
     1
102
RTVSPropertyOp38
 70
     1
102
RTVSPropertyOp39
 70
     1
102
RTVSPropertyOp40
 70
     1
102
RTVSPropertyOp41
 70
     1
102
RTVSPropertyOp42
 70
     1
102
RTVSPropertyOp43
 70
     1
102
RTVSPropertyOp44
 70
     1
102
RTVSPropertyOp45
 70
     1
102
RTVSPropertyOp46
 70
     1
102
RTVSPropertyOp47
 70
     1
102
RTVSPropertyOp48
 70
     1
102
RTVSPropertyOp49
 70
     1
102
RTVSPropertyOp50
 70
     1
102
RTVSPropertyOp51
 70
     0
102
RTVSPropertyOp52
 70
     0
102
RTVSPropertyOp53
 70
     1
102
RTVSPropertyOp54
 70
     1
102
RTVSPropertyOp55
 70
     1
102
RTVSPropertyOp56
 70
     1
102
RTVSPropertyOp57
 70
     1
102
RTVSPost2010Prop28
280
     0
102
RTVSPost2010PropOp28
 70
     1
102
RTVSPost2010Prop29
280
     1
102
RTVSPost2010PropOp29
 70
     1
102
RTVSPost2010Prop30
280
     1
102
RTVSPost2010PropOp30
 70
     1
102
RTVSPost2010Prop31
280
     0
102
RTVSPost2010PropOp31
 70
     1
102
RTVSPost2010Prop32
280
     0
102
RTVSPost2010PropOp32
 70
     1
102
RTVSPost2010Prop33
280
     0
102
RTVSPost2010PropOp33
 70
     1
102
RTVSPost2010Prop34
280
     0
102
RTVSPost2010PropOp34
 70
     1
102
RTVSPost2010Prop35
280
     0
102
RTVSPost2010PropOp35
 70
     1
102
RTVSPost2010Prop36
280
     0
102
RTVSPost2010PropOp36
 70
     1
102
RTVSPost2010Prop37
 90
       50
102
RTVSPost2010PropOp37
 70
     1
102
RTVSPost2010Prop38
140
0.0
102
RTVSPost2010PropOp38
 70
     1
102
RTVSPost2010Prop39
140
1.0
102
RTVSPost2010PropOp39
 70
     1
102
RTVSPost2010Prop40
 90
        0
102
RTVSPost2010PropOp40
 70
     1
102
RTVSPost2010Prop41ColorIndex
 90
       18
102
RTVSPost2010Prop41ColorRGB
 90
        0
102
RTVSPost2010PropOp41
 70
     1
102
RTVSPost2010Prop42
 90
       50
102
RTVSPost2010PropOp42
 70
     1
102
RTVSPost2010Prop43
 90
        3
102
RTVSPost2010PropOp43
 70
     1
102
RTVSPost2010Prop44ColorIndex
 90
        5
102
RTVSPost2010Prop44ColorRGB
 90
      255
102
RTVSPost2010PropOp44
 70
     1
102
RTVSPost2010Prop45
280
     0
102
RTVSPost2010PropOp45
 70
     1
102
RTVSPost2010Prop46
 90
       50
102
RTVSPost2010PropOp46
 70
     1
102
RTVSPost2010Prop47
 90
       50
102
RTVSPost2010PropOp47
 70
     1
102
RTVSPost2010Prop48
 90
       50
102
RTVSPost2010PropOp48
 70
     1
102
RTVSPost2010Prop49
280
     0
102
RTVSPost2010PropOp49
 70
     1
102
RTVSPost2010Prop50
 90
       50
102
RTVSPost2010PropOp50
 70
     1
102
RTVSPost2010Prop51ColorIndex
 90
      256
102
RTVSPost2010Prop51ColorRGB
 90
-16777216
102
RTVSPost2010PropOp51
 70
     0
102
RTVSPost2010Prop52
140
1.0
102
RTVSPost2010PropOp52
 70
     0
102
RTVSPost2010Prop53
 90
        2
102
RTVSPost2010PropOp53
 70
     1
102
RTVSPost2010Prop54
  1
strokes_ogs.tif
102
RTVSPost2010PropOp54
 70
     1
102
RTVSPost2010Prop55
280
     0
102
RTVSPost2010PropOp55
 70
     1
102
RTVSPost2010Prop56
140
1.0
102
RTVSPost2010PropOp56
 70
     1
102
RTVSPost2010Prop57
140
1.0
102
RTVSPost2010PropOp57
 70
     1
  0
XRECORD
  5
106AD26
102
{ACAD_REACTORS
330
106AD25
102
}
330
106AD25
100
AcDbXrecord
280
     1
102
RTVSPropertyOp0
 70
     1
102
RTVSPropertyOp1
 70
     1
102
RTVSPropertyOp2
 70
     1
102
RTVSPropertyOp3
 70
     1
102
RTVSPropertyOp4
 70
     1
102
RTVSPropertyOp5
 70
     1
102
RTVSPropertyOp6
 70
     1
102
RTVSPropertyOp7
 70
     1
102
RTVSPropertyOp8
 70
     1
102
RTVSPropertyOp9
 70
     1
102
RTVSPropertyOp10
 70
     1
102
RTVSPropertyOp11
 70
     1
102
RTVSPropertyOp12
 70
     1
102
RTVSPropertyOp13
 70
     1
102
RTVSPropertyOp14
 70
     1
102
RTVSPropertyOp15
 70
     1
102
RTVSPropertyOp16
 70
     1
102
RTVSPropertyOp17
 70
     1
102
RTVSPropertyOp18
 70
     1
102
RTVSPropertyOp19
 70
     1
102
RTVSPropertyOp20
 70
     1
102
RTVSPropertyOp21
 70
     1
102
RTVSPropertyOp22
 70
     1
102
RTVSPropertyOp23
 70
     1
102
RTVSPropertyOp24
 70
     1
102
RTVSPropertyOp25
 70
     1
102
RTVSPropertyOp26
 70
     1
102
RTVSPropertyOp27
 70
     1
102
RTVSPropertyOp28
 70
     1
102
RTVSPropertyOp29
 70
     1
102
RTVSPropertyOp30
 70
     1
102
RTVSPropertyOp31
 70
     1
102
RTVSPropertyOp32
 70
     1
102
RTVSPropertyOp33
 70
     1
102
RTVSPropertyOp34
 70
     1
102
RTVSPropertyOp35
 70
     1
102
RTVSPropertyOp36
 70
     1
102
RTVSPropertyOp37
 70
     1
102
RTVSPropertyOp38
 70
     1
102
RTVSPropertyOp39
 70
     1
102
RTVSPropertyOp40
 70
     1
102
RTVSPropertyOp41
 70
     1
102
RTVSPropertyOp42
 70
     1
102
RTVSPropertyOp43
 70
     1
102
RTVSPropertyOp44
 70
     1
102
RTVSPropertyOp45
 70
     1
102
RTVSPropertyOp46
 70
     1
102
RTVSPropertyOp47
 70
     1
102
RTVSPropertyOp48
 70
     1
102
RTVSPropertyOp49
 70
     1
102
RTVSPropertyOp50
 70
     1
102
RTVSPropertyOp51
 70
     0
102
RTVSPropertyOp52
 70
     0
102
RTVSPropertyOp53
 70
     1
102
RTVSPropertyOp54
 70
     1
102
RTVSPropertyOp55
 70
     1
102
RTVSPropertyOp56
 70
     1
102
RTVSPropertyOp57
 70
     1
102
RTVSPost2010Prop28
280
     0
102
RTVSPost2010PropOp28
 70
     1
102
RTVSPost2010Prop29
280
     1
102
RTVSPost2010PropOp29
 70
     1
102
RTVSPost2010Prop30
280
     1
102
RTVSPost2010PropOp30
 70
     1
102
RTVSPost2010Prop31
280
     0
102
RTVSPost2010PropOp31
 70
     1
102
RTVSPost2010Prop32
280
     0
102
RTVSPost2010PropOp32
 70
     1
102
RTVSPost2010Prop33
280
     0
102
RTVSPost2010PropOp33
 70
     1
102
RTVSPost2010Prop34
280
     0
102
RTVSPost2010PropOp34
 70
     1
102
RTVSPost2010Prop35
280
     0
102
RTVSPost2010PropOp35
 70
     1
102
RTVSPost2010Prop36
280
     0
102
RTVSPost2010PropOp36
 70
     1
102
RTVSPost2010Prop37
 90
       50
102
RTVSPost2010PropOp37
 70
     1
102
RTVSPost2010Prop38
140
0.0
102
RTVSPost2010PropOp38
 70
     1
102
RTVSPost2010Prop39
140
1.0
102
RTVSPost2010PropOp39
 70
     1
102
RTVSPost2010Prop40
 90
        0
102
RTVSPost2010PropOp40
 70
     1
102
RTVSPost2010Prop41ColorIndex
 90
       18
102
RTVSPost2010Prop41ColorRGB
 90
        0
102
RTVSPost2010PropOp41
 70
     1
102
RTVSPost2010Prop42
 90
       50
102
RTVSPost2010PropOp42
 70
     1
102
RTVSPost2010Prop43
 90
        3
102
RTVSPost2010PropOp43
 70
     1
102
RTVSPost2010Prop44ColorIndex
 90
        5
102
RTVSPost2010Prop44ColorRGB
 90
      255
102
RTVSPost2010PropOp44
 70
     1
102
RTVSPost2010Prop45
280
     0
102
RTVSPost2010PropOp45
 70
     1
102
RTVSPost2010Prop46
 90
       50
102
RTVSPost2010PropOp46
 70
     1
102
RTVSPost2010Prop47
 90
       50
102
RTVSPost2010PropOp47
 70
     1
102
RTVSPost2010Prop48
 90
       50
102
RTVSPost2010PropOp48
 70
     1
102
RTVSPost2010Prop49
280
     0
102
RTVSPost2010PropOp49
 70
     1
102
RTVSPost2010Prop50
 90
       50
102
RTVSPost2010PropOp50
 70
     1
102
RTVSPost2010Prop51ColorIndex
 90
      256
102
RTVSPost2010Prop51ColorRGB
 90
-16777216
102
RTVSPost2010PropOp51
 70
     0
102
RTVSPost2010Prop52
140
1.0
102
RTVSPost2010PropOp52
 70
     0
102
RTVSPost2010Prop53
 90
        2
102
RTVSPost2010PropOp53
 70
     1
102
RTVSPost2010Prop54
  1
strokes_ogs.tif
102
RTVSPost2010PropOp54
 70
     1
102
RTVSPost2010Prop55
280
     0
102
RTVSPost2010PropOp55
 70
     1
102
RTVSPost2010Prop56
140
1.0
102
RTVSPost2010PropOp56
 70
     1
102
RTVSPost2010Prop57
140
1.0
102
RTVSPost2010PropOp57
 70
     1
  0
XRECORD
  5
106AD28
102
{ACAD_REACTORS
330
106AD27
102
}
330
106AD27
100
AcDbXrecord
280
     1
102
RTVSPropertyOp0
 70
     1
102
RTVSPropertyOp1
 70
     1
102
RTVSPropertyOp2
 70
     1
102
RTVSPropertyOp3
 70
     1
102
RTVSPropertyOp4
 70
     1
102
RTVSPropertyOp5
 70
     1
102
RTVSPropertyOp6
 70
     1
102
RTVSPropertyOp7
 70
     1
102
RTVSPropertyOp8
 70
     1
102
RTVSPropertyOp9
 70
     1
102
RTVSPropertyOp10
 70
     1
102
RTVSPropertyOp11
 70
     1
102
RTVSPropertyOp12
 70
     1
102
RTVSPropertyOp13
 70
     1
102
RTVSPropertyOp14
 70
     1
102
RTVSPropertyOp15
 70
     1
102
RTVSPropertyOp16
 70
     1
102
RTVSPropertyOp17
 70
     1
102
RTVSPropertyOp18
 70
     1
102
RTVSPropertyOp19
 70
     1
102
RTVSPropertyOp20
 70
     1
102
RTVSPropertyOp21
 70
     1
102
RTVSPropertyOp22
 70
     1
102
RTVSPropertyOp23
 70
     1
102
RTVSPropertyOp24
 70
     1
102
RTVSPropertyOp25
 70
     1
102
RTVSPropertyOp26
 70
     1
102
RTVSPropertyOp27
 70
     1
102
RTVSPropertyOp28
 70
     1
102
RTVSPropertyOp29
 70
     1
102
RTVSPropertyOp30
 70
     1
102
RTVSPropertyOp31
 70
     1
102
RTVSPropertyOp32
 70
     1
102
RTVSPropertyOp33
 70
     1
102
RTVSPropertyOp34
 70
     1
102
RTVSPropertyOp35
 70
     1
102
RTVSPropertyOp36
 70
     1
102
RTVSPropertyOp37
 70
     1
102
RTVSPropertyOp38
 70
     1
102
RTVSPropertyOp39
 70
     1
102
RTVSPropertyOp40
 70
     1
102
RTVSPropertyOp41
 70
     1
102
RTVSPropertyOp42
 70
     1
102
RTVSPropertyOp43
 70
     1
102
RTVSPropertyOp44
 70
     1
102
RTVSPropertyOp45
 70
     1
102
RTVSPropertyOp46
 70
     1
102
RTVSPropertyOp47
 70
     1
102
RTVSPropertyOp48
 70
     1
102
RTVSPropertyOp49
 70
     1
102
RTVSPropertyOp50
 70
     1
102
RTVSPropertyOp51
 70
     0
102
RTVSPropertyOp52
 70
     0
102
RTVSPropertyOp53
 70
     1
102
RTVSPropertyOp54
 70
     1
102
RTVSPropertyOp55
 70
     1
102
RTVSPropertyOp56
 70
     1
102
RTVSPropertyOp57
 70
     1
102
RTVSPost2010Prop28
280
     0
102
RTVSPost2010PropOp28
 70
     1
102
RTVSPost2010Prop29
280
     1
102
RTVSPost2010PropOp29
 70
     1
102
RTVSPost2010Prop30
280
     1
102
RTVSPost2010PropOp30
 70
     1
102
RTVSPost2010Prop31
280
     0
102
RTVSPost2010PropOp31
 70
     1
102
RTVSPost2010Prop32
280
     0
102
RTVSPost2010PropOp32
 70
     1
102
RTVSPost2010Prop33
280
     0
102
RTVSPost2010PropOp33
 70
     1
102
RTVSPost2010Prop34
280
     0
102
RTVSPost2010PropOp34
 70
     1
102
RTVSPost2010Prop35
280
     0
102
RTVSPost2010PropOp35
 70
     1
102
RTVSPost2010Prop36
280
     0
102
RTVSPost2010PropOp36
 70
     1
102
RTVSPost2010Prop37
 90
       50
102
RTVSPost2010PropOp37
 70
     1
102
RTVSPost2010Prop38
140
0.0
102
RTVSPost2010PropOp38
 70
     1
102
RTVSPost2010Prop39
140
1.0
102
RTVSPost2010PropOp39
 70
     1
102
RTVSPost2010Prop40
 90
        0
102
RTVSPost2010PropOp40
 70
     1
102
RTVSPost2010Prop41ColorIndex
 90
       18
102
RTVSPost2010Prop41ColorRGB
 90
        0
102
RTVSPost2010PropOp41
 70
     1
102
RTVSPost2010Prop42
 90
       50
102
RTVSPost2010PropOp42
 70
     1
102
RTVSPost2010Prop43
 90
        3
102
RTVSPost2010PropOp43
 70
     1
102
RTVSPost2010Prop44ColorIndex
 90
        5
102
RTVSPost2010Prop44ColorRGB
 90
      255
102
RTVSPost2010PropOp44
 70
     1
102
RTVSPost2010Prop45
280
     0
102
RTVSPost2010PropOp45
 70
     1
102
RTVSPost2010Prop46
 90
       50
102
RTVSPost2010PropOp46
 70
     1
102
RTVSPost2010Prop47
 90
       50
102
RTVSPost2010PropOp47
 70
     1
102
RTVSPost2010Prop48
 90
       50
102
RTVSPost2010PropOp48
 70
     1
102
RTVSPost2010Prop49
280
     0
102
RTVSPost2010PropOp49
 70
     1
102
RTVSPost2010Prop50
 90
       50
102
RTVSPost2010PropOp50
 70
     1
102
RTVSPost2010Prop51ColorIndex
 90
      256
102
RTVSPost2010Prop51ColorRGB
 90
-16777216
102
RTVSPost2010PropOp51
 70
     0
102
RTVSPost2010Prop52
140
1.0
102
RTVSPost2010PropOp52
 70
     0
102
RTVSPost2010Prop53
 90
        2
102
RTVSPost2010PropOp53
 70
     1
102
RTVSPost2010Prop54
  1
strokes_ogs.tif
102
RTVSPost2010PropOp54
 70
     1
102
RTVSPost2010Prop55
280
     0
102
RTVSPost2010PropOp55
 70
     1
102
RTVSPost2010Prop56
140
1.0
102
RTVSPost2010PropOp56
 70
     1
102
RTVSPost2010Prop57
140
1.0
102
RTVSPost2010PropOp57
 70
     1
  0
XRECORD
  5
106AD2A
102
{ACAD_REACTORS
330
106AD29
102
}
330
106AD29
100
AcDbXrecord
280
     1
102
RTVSPropertyOp0
 70
     1
102
RTVSPropertyOp1
 70
     1
102
RTVSPropertyOp2
 70
     1
102
RTVSPropertyOp3
 70
     1
102
RTVSPropertyOp4
 70
     1
102
RTVSPropertyOp5
 70
     1
102
RTVSPropertyOp6
 70
     1
102
RTVSPropertyOp7
 70
     1
102
RTVSPropertyOp8
 70
     1
102
RTVSPropertyOp9
 70
     1
102
RTVSPropertyOp10
 70
     1
102
RTVSPropertyOp11
 70
     1
102
RTVSPropertyOp12
 70
     1
102
RTVSPropertyOp13
 70
     1
102
RTVSPropertyOp14
 70
     1
102
RTVSPropertyOp15
 70
     1
102
RTVSPropertyOp16
 70
     1
102
RTVSPropertyOp17
 70
     1
102
RTVSPropertyOp18
 70
     1
102
RTVSPropertyOp19
 70
     1
102
RTVSPropertyOp20
 70
     1
102
RTVSPropertyOp21
 70
     1
102
RTVSPropertyOp22
 70
     1
102
RTVSPropertyOp23
 70
     1
102
RTVSPropertyOp24
 70
     1
102
RTVSPropertyOp25
 70
     1
102
RTVSPropertyOp26
 70
     1
102
RTVSPropertyOp27
 70
     1
102
RTVSPropertyOp28
 70
     1
102
RTVSPropertyOp29
 70
     1
102
RTVSPropertyOp30
 70
     1
102
RTVSPropertyOp31
 70
     1
102
RTVSPropertyOp32
 70
     1
102
RTVSPropertyOp33
 70
     1
102
RTVSPropertyOp34
 70
     1
102
RTVSPropertyOp35
 70
     1
102
RTVSPropertyOp36
 70
     1
102
RTVSPropertyOp37
 70
     1
102
RTVSPropertyOp38
 70
     1
102
RTVSPropertyOp39
 70
     1
102
RTVSPropertyOp40
 70
     1
102
RTVSPropertyOp41
 70
     1
102
RTVSPropertyOp42
 70
     1
102
RTVSPropertyOp43
 70
     1
102
RTVSPropertyOp44
 70
     1
102
RTVSPropertyOp45
 70
     1
102
RTVSPropertyOp46
 70
     1
102
RTVSPropertyOp47
 70
     1
102
RTVSPropertyOp48
 70
     1
102
RTVSPropertyOp49
 70
     1
102
RTVSPropertyOp50
 70
     1
102
RTVSPropertyOp51
 70
     0
102
RTVSPropertyOp52
 70
     0
102
RTVSPropertyOp53
 70
     1
102
RTVSPropertyOp54
 70
     1
102
RTVSPropertyOp55
 70
     1
102
RTVSPropertyOp56
 70
     1
102
RTVSPropertyOp57
 70
     1
102
RTVSPost2010Prop28
280
     0
102
RTVSPost2010PropOp28
 70
     1
102
RTVSPost2010Prop29
280
     1
102
RTVSPost2010PropOp29
 70
     1
102
RTVSPost2010Prop30
280
     1
102
RTVSPost2010PropOp30
 70
     1
102
RTVSPost2010Prop31
280
     0
102
RTVSPost2010PropOp31
 70
     1
102
RTVSPost2010Prop32
280
     0
102
RTVSPost2010PropOp32
 70
     1
102
RTVSPost2010Prop33
280
     0
102
RTVSPost2010PropOp33
 70
     1
102
RTVSPost2010Prop34
280
     0
102
RTVSPost2010PropOp34
 70
     1
102
RTVSPost2010Prop35
280
     0
102
RTVSPost2010PropOp35
 70
     1
102
RTVSPost2010Prop36
280
     0
102
RTVSPost2010PropOp36
 70
     1
102
RTVSPost2010Prop37
 90
       50
102
RTVSPost2010PropOp37
 70
     1
102
RTVSPost2010Prop38
140
0.0
102
RTVSPost2010PropOp38
 70
     1
102
RTVSPost2010Prop39
140
1.0
102
RTVSPost2010PropOp39
 70
     1
102
RTVSPost2010Prop40
 90
        0
102
RTVSPost2010PropOp40
 70
     1
102
RTVSPost2010Prop41ColorIndex
 90
       18
102
RTVSPost2010Prop41ColorRGB
 90
        0
102
RTVSPost2010PropOp41
 70
     1
102
RTVSPost2010Prop42
 90
       50
102
RTVSPost2010PropOp42
 70
     1
102
RTVSPost2010Prop43
 90
        3
102
RTVSPost2010PropOp43
 70
     1
102
RTVSPost2010Prop44ColorIndex
 90
        5
102
RTVSPost2010Prop44ColorRGB
 90
      255
102
RTVSPost2010PropOp44
 70
     1
102
RTVSPost2010Prop45
280
     0
102
RTVSPost2010PropOp45
 70
     1
102
RTVSPost2010Prop46
 90
       50
102
RTVSPost2010PropOp46
 70
     1
102
RTVSPost2010Prop47
 90
       50
102
RTVSPost2010PropOp47
 70
     1
102
RTVSPost2010Prop48
 90
       50
102
RTVSPost2010PropOp48
 70
     1
102
RTVSPost2010Prop49
280
     0
102
RTVSPost2010PropOp49
 70
     1
102
RTVSPost2010Prop50
 90
       50
102
RTVSPost2010PropOp50
 70
     1
102
RTVSPost2010Prop51ColorIndex
 90
      256
102
RTVSPost2010Prop51ColorRGB
 90
-16777216
102
RTVSPost2010PropOp51
 70
     0
102
RTVSPost2010Prop52
140
1.0
102
RTVSPost2010PropOp52
 70
     0
102
RTVSPost2010Prop53
 90
        2
102
RTVSPost2010PropOp53
 70
     1
102
RTVSPost2010Prop54
  1
strokes_ogs.tif
102
RTVSPost2010PropOp54
 70
     1
102
RTVSPost2010Prop55
280
     0
102
RTVSPost2010PropOp55
 70
     1
102
RTVSPost2010Prop56
140
1.0
102
RTVSPost2010PropOp56
 70
     1
102
RTVSPost2010Prop57
140
1.0
102
RTVSPost2010PropOp57
 70
     1
  0
ENDSEC
  0
EOF
