  0
SECTION
  2
HEADER
  9
$ACADVER
  1
AC1015
  9
$ACADMAINTVER
 70
     6
  9
$DWGCODEPAGE
  3
ANSI_932
  9
$INSBASE
 10
0.0
 20
0.0
 30
0.0
  9
$EXTMIN
 10
-15.0
 20
-45.0
 30
0.0
  9
$EXTMAX
 10
100.0
 20
45.0
 30
0.0
  9
$LIMMIN
 10
0.0
 20
0.0
  9
$LIMMAX
 10
12.0
 20
9.0
  9
$ORTHOMODE
 70
     0
  9
$REGENMODE
 70
     1
  9
$FILLMODE
 70
     1
  9
$QTEXTMODE
 70
     0
  9
$MIRRTEXT
 70
     1
  9
$LTSCALE
 40
1.0
  9
$ATTMODE
 70
     1
  9
$TEXTSIZE
 40
0.2
  9
$TRACEWID
 40
0.05
  9
$TEXTSTYLE
  7
Standard
  9
$CLAYER
  8
0
  9
$CELTYPE
  6
ByBlock
  9
$CECOLOR
 62
   256
  9
$CELTSCALE
 40
1.0
  9
$DISPSILH
 70
     0
  9
$DIMSCALE
 40
1.0
  9
$DIMASZ
 40
0.18
  9
$DIMEXO
 40
0.0625
  9
$DIMDLI
 40
0.38
  9
$DIMRND
 40
0.0
  9
$DIMDLE
 40
0.0
  9
$DIMEXE
 40
0.18
  9
$DIMTP
 40
0.0
  9
$DIMTM
 40
0.0
  9
$DIMTXT
 40
0.18
  9
$DIMCEN
 40
0.09
  9
$DIMTSZ
 40
0.0
  9
$DIMTOL
 70
     0
  9
$DIMLIM
 70
     0
  9
$DIMTIH
 70
     1
  9
$DIMTOH
 70
     1
  9
$DIMSE1
 70
     0
  9
$DIMSE2
 70
     0
  9
$DIMTAD
 70
     0
  9
$DIMZIN
 70
     0
  9
$DIMBLK
  1

  9
$DIMASO
 70
     1
  9
$DIMSHO
 70
     1
  9
$DIMPOST
  1

  9
$DIMAPOST
  1

  9
$DIMALT
 70
     0
  9
$DIMALTD
 70
     2
  9
$DIMALTF
 40
25.4
  9
$DIMLFAC
 40
1.0
  9
$DIMTOFL
 70
     0
  9
$DIMTVP
 40
0.0
  9
$DIMTIX
 70
     0
  9
$DIMSOXD
 70
     0
  9
$DIMSAH
 70
     0
  9
$DIMBLK1
  1

  9
$DIMBLK2
  1

  9
$DIMSTYLE
  2
STANDARD
  9
$DIMCLRD
 70
     0
  9
$DIMCLRE
 70
     0
  9
$DIMCLRT
 70
     0
  9
$DIMTFAC
 40
1.0
  9
$DIMGAP
 40
0.09
  9
$DIMJUST
 70
     0
  9
$DIMSD1
 70
     0
  9
$DIMSD2
 70
     0
  9
$DIMTOLJ
 70
     1
  9
$DIMTZIN
 70
     0
  9
$DIMALTZ
 70
     0
  9
$DIMALTTZ
 70
     0
  9
$DIMUPT
 70
     0
  9
$DIMDEC
 70
     4
  9
$DIMTDEC
 70
     4
  9
$DIMALTU
 70
     2
  9
$DIMALTTD
 70
     2
  9
$DIMTXSTY
  7
Standard
  9
$DIMAUNIT
 70
     0
  9
$DIMADEC
 70
     0
  9
$DIMALTRND
 40
0.0
  9
$DIMAZIN
 70
     0
  9
$DIMDSEP
 70
    46
  9
$DIMATFIT
 70
     3
  9
$DIMFRAC
 70
     0
  9
$DIMLDRBLK
  1

  9
$DIMLUNIT
 70
     2
  9
$DIMLWD
 70
    -2
  9
$DIMLWE
 70
    -2
  9
$DIMTMOVE
 70
     0
  9
$LUNITS
 70
     2
  9
$LUPREC
 70
     4
  9
$SKETCHINC
 40
0.1
  9
$FILLETRAD
 40
0.5
  9
$AUNITS
 70
     0
  9
$AUPREC
 70
     0
  9
$MENU
  1
.
  9
$ELEVATION
 40
0.0
  9
$PELEVATION
 40
0.0
  9
$THICKNESS
 40
0.0
  9
$LIMCHECK
 70
     0
  9
$CHAMFERA
 40
0.0
  9
$CHAMFERB
 40
0.0
  9
$CHAMFERC
 40
0.0
  9
$CHAMFERD
 40
0.0
  9
$SKPOLY
 70
     0
  9
$TDCREATE
 40
2447893.375
  9
$TDUCREATE
 40
0.0
  9
$TDUPDATE
 40
2460865.549871262
  9
$TDUUPDATE
 40
2460865.174871262
  9
$TDINDWG
 40
0.0063937384
  9
$TDUSRTIMER
 40
0.0002732639
  9
$USRTIMER
 70
     1
  9
$ANGBASE
 50
0.0
  9
$ANGDIR
 70
     0
  9
$PDMODE
 70
     0
  9
$PDSIZE
 40
0.0
  9
$PLINEWID
 40
0.0
  9
$SPLFRAME
 70
     0
  9
$SPLINETYPE
 70
     6
  9
$SPLINESEGS
 70
     8
  9
$HANDSEED
  5
106AD66
  9
$SURFTAB1
 70
     6
  9
$SURFTAB2
 70
     6
  9
$SURFTYPE
 70
     6
  9
$SURFU
 70
     6
  9
$SURFV
 70
     6
  9
$UCSBASE
  2

  9
$UCSNAME
  2

  9
$UCSORG
 10
0.0
 20
0.0
 30
0.0
  9
$UCSXDIR
 10
1.0
 20
0.0
 30
0.0
  9
$UCSYDIR
 10
0.0
 20
1.0
 30
0.0
  9
$UCSORTHOREF
  2

  9
$UCSORTHOVIEW
 70
     0
  9
$UCSORGTOP
 10
0.0
 20
0.0
 30
0.0
  9
$UCSORGBOTTOM
 10
0.0
 20
0.0
 30
0.0
  9
$UCSORGLEFT
 10
0.0
 20
0.0
 30
0.0
  9
$UCSORGRIGHT
 10
0.0
 20
0.0
 30
0.0
  9
$UCSORGFRONT
 10
0.0
 20
0.0
 30
0.0
  9
$UCSORGBACK
 10
0.0
 20
0.0
 30
0.0
  9
$PUCSBASE
  2

  9
$PUCSNAME
  2

  9
$PUCSORG
 10
0.0
 20
0.0
 30
0.0
  9
$PUCSXDIR
 10
1.0
 20
0.0
 30
0.0
  9
$PUCSYDIR
 10
0.0
 20
1.0
 30
0.0
  9
$PUCSORTHOREF
  2

  9
$PUCSORTHOVIEW
 70
     0
  9
$PUCSORGTOP
 10
0.0
 20
0.0
 30
0.0
  9
$PUCSORGBOTTOM
 10
0.0
 20
0.0
 30
0.0
  9
$PUCSORGLEFT
 10
0.0
 20
0.0
 30
0.0
  9
$PUCSORGRIGHT
 10
0.0
 20
0.0
 30
0.0
  9
$PUCSORGFRONT
 10
0.0
 20
0.0
 30
0.0
  9
$PUCSORGBACK
 10
0.0
 20
0.0
 30
0.0
  9
$USERI1
 70
     0
  9
$USERI2
 70
     0
  9
$USERI3
 70
     0
  9
$USERI4
 70
     0
  9
$USERI5
 70
     0
  9
$USERR1
 40
0.0
  9
$USERR2
 40
0.0
  9
$USERR3
 40
0.0
  9
$USERR4
 40
0.0
  9
$USERR5
 40
0.0
  9
$WORLDVIEW
 70
     1
  9
$SHADEDGE
 70
     3
  9
$SHADEDIF
 70
    70
  9
$TILEMODE
 70
     1
  9
$MAXACTVP
 70
    64
  9
$PINSBASE
 10
0.0
 20
0.0
 30
0.0
  9
$PLIMCHECK
 70
     0
  9
$PEXTMIN
 10
1.000000000000000E+20
 20
1.000000000000000E+20
 30
1.000000000000000E+20
  9
$PEXTMAX
 10
-1.000000000000000E+20
 20
-1.000000000000000E+20
 30
-1.000000000000000E+20
  9
$PLIMMIN
 10
0.0
 20
0.0
  9
$PLIMMAX
 10
0.0
 20
0.0
  9
$UNITMODE
 70
     0
  9
$VISRETAIN
 70
     1
  9
$PLINEGEN
 70
     0
  9
$PSLTSCALE
 70
     1
  9
$TREEDEPTH
 70
  3020
  9
$CMLSTYLE
  2
Standard
  9
$CMLJUST
 70
     0
  9
$CMLSCALE
 40
1.0
  9
$PROXYGRAPHICS
 70
     1
  9
$MEASUREMENT
 70
     0
  9
$CELWEIGHT
370
    -1
  9
$ENDCAPS
280
     0
  9
$JOINSTYLE
280
     0
  9
$LWDISPLAY
290
     0
  9
$INSUNITS
 70
     0
  9
$HYPERLINKBASE
  1

  9
$STYLESHEET
  1

  9
$XEDIT
290
     1
  9
$CEPSNTYPE
380
     0
  9
$PSTYLEMODE
290
     1
  9
$FINGERPRINTGUID
  2
{10ec5aae-1b86-43a4-a41d-cdb29d112435}
  9
$VERSIONGUID
  2
{FAEB1C32-E019-11D5-929B-00C0DF256EC4}
  9
$EXTNAMES
290
     1
  9
$PSVPSCALE
 40
0.0
  9
$OLESTARTUP
290
     0
  0
ENDSEC
  0
SECTION
  2
CLASSES
  0
CLASS
  1
IMAGEDEF
  2
AcDbRasterImageDef
  3
ISM
 90
        0
280
     0
281
     0
  0
CLASS
  1
IMAGE
  2
AcDbRasterImage
  3
ISM
 90
      127
280
     0
281
     1
  0
CLASS
  1
IMAGEDEF_REACTOR
  2
AcDbRasterImageDefReactor
  3
ISM
 90
        1
280
     0
281
     0
  0
CLASS
  1
ACDBDICTIONARYWDFLT
  2
AcDbDictionaryWithDefault
  3
ObjectDBX Classes
 90
        0
280
     0
281
     0
  0
CLASS
  1
SCALE
  2
AcDbScale
  3
ObjectDBX Classes
 90
     1153
280
     0
281
     0
  0
CLASS
  1
MATERIAL
  2
AcDbMaterial
  3
ObjectDBX Classes
 90
     1153
280
     0
281
     0
  0
CLASS
  1
VISUALSTYLE
  2
AcDbVisualStyle
  3
ObjectDBX Classes
 90
     4095
280
     0
281
     0
  0
CLASS
  1
TABLESTYLE
  2
AcDbTableStyle
  3
ObjectDBX Classes
 90
     4095
280
     0
281
     0
  0
CLASS
  1
MLEADERSTYLE
  2
AcDbMLeaderStyle
  3
ACDB_MLEADERSTYLE_CLASS
 90
     4095
280
     0
281
     0
  0
CLASS
  1
SUN
  2
AcDbSun
  3
SCENEOE
 90
     1153
280
     0
281
     0
  0
CLASS
  1
RASTERVARIABLES
  2
AcDbRasterVariables
  3
ISM
 90
        0
280
     0
281
     0
  0
CLASS
  1
DICTIONARYVAR
  2
AcDbDictionaryVar
  3
ObjectDBX Classes
 90
        0
280
     0
281
     0
  0
CLASS
  1
ACDBPLACEHOLDER
  2
AcDbPlaceHolder
  3
ObjectDBX Classes
 90
        0
280
     0
281
     0
  0
CLASS
  1
LAYOUT
  2
AcDbLayout
  3
ObjectDBX Classes
 90
        0
280
     0
281
     0
  0
ENDSEC
  0
SECTION
  2
TABLES
  0
TABLE
  2
VPORT
  5
2
102
{ACAD_XDICTIONARY
360
106AD2B
102
}
330
0
100
AcDbSymbolTable
 70
     1
  0
VPORT
  5
106AB91
330
2
100
AcDbSymbolTableRecord
100
AcDbViewportTableRecord
  2
*Active
 70
     0
 10
0.0
 20
0.0
 11
1.0
 21
1.0
 12
42.5
 22
0.0
 13
0.0
 23
0.0
 14
0.5
 24
0.5
 15
0.5
 25
0.5
 16
0.0
 26
0.0
 36
1.0
 17
0.0
 27
0.0
 37
0.0
 40
91.8
 41
2.05750350631136
 42
50.0
 43
0.0
 44
0.0
 50
0.0
 51
0.0
 71
    16
 72
   100
 73
     1
 74
     3
 75
     0
 76
     0
 77
     0
 78
     0
281
     0
 65
     1
110
0.0
120
0.0
130
0.0
111
1.0
121
0.0
131
0.0
112
0.0
122
1.0
132
0.0
 79
     0
146
0.0
  0
ENDTAB
  0
TABLE
  2
LTYPE
  5
3
330
0
100
AcDbSymbolTable
 70
     3
  0
LTYPE
  5
4
330
3
100
AcDbSymbolTableRecord
100
AcDbLinetypeTableRecord
  2
ByBlock
 70
     0
  3

 72
    65
 73
     0
 40
0.0
  0
LTYPE
  5
5
330
3
100
AcDbSymbolTableRecord
100
AcDbLinetypeTableRecord
  2
ByLayer
 70
     0
  3

 72
    65
 73
     0
 40
0.0
  0
LTYPE
  5
6
330
3
100
AcDbSymbolTableRecord
100
AcDbLinetypeTableRecord
  2
CONTINUOUS
 70
     0
  3
Solid Line
 72
    65
 73
     0
 40
0.0
  0
LTYPE
  5
7
330
3
100
AcDbSymbolTableRecord
100
AcDbLinetypeTableRecord
  2
DASH
 70
     0
  3
Hidden
 72
    65
 73
     2
 40
2.5
 49
1.5
 74
     0
 49
-1.0
 74
     0
  0
LTYPE
  5
8
330
3
100
AcDbSymbolTableRecord
100
AcDbLinetypeTableRecord
  2
LONGDASHDASH
 70
     0
  3
__ . __
 72
    65
 73
     4
 40
7.0
 49
4.0
 74
     0
 49
-1.0
 74
     0
 49
1.0
 74
     0
 49
-1.0
 74
     0
  0
ENDTAB
  0
TABLE
  2
LAYER
  5
9
330
0
100
AcDbSymbolTable
 70
    11
  0
LAYER
  5
A
330
9
100
AcDbSymbolTableRecord
100
AcDbLayerTableRecord
  2
0
 70
     0
 62
     7
  6
CONTINUOUS
370
    -3
390
106AB96
  0
LAYER
  5
C
330
9
100
AcDbSymbolTableRecord
100
AcDbLayerTableRecord
  2
1
 70
     0
 62
     4
  6
CONTINUOUS
370
    50
390
106AB96
  0
LAYER
  5
D
330
9
100
AcDbSymbolTableRecord
100
AcDbLayerTableRecord
  2
2
 70
     0
 62
     7
  6
CONTINUOUS
370
    25
390
106AB96
  0
LAYER
  5
F
330
9
100
AcDbSymbolTableRecord
100
AcDbLayerTableRecord
  2
4
 70
     0
 62
     2
  6
LONGDASHDASH
370
    25
390
106AB96
  0
LAYER
  5
13
330
9
100
AcDbSymbolTableRecord
100
AcDbLayerTableRecord
  2
SK1
 70
     0
 62
     4
  6
CONTINUOUS
370
    50
390
106AB96
  0
LAYER
  5
14
330
9
100
AcDbSymbolTableRecord
100
AcDbLayerTableRecord
  2
SK2
 70
     0
 62
     7
  6
CONTINUOUS
370
    25
390
106AB96
  0
LAYER
  5
16
330
9
100
AcDbSymbolTableRecord
100
AcDbLayerTableRecord
  2
SK4
 70
     0
 62
     2
  6
LONGDASHDASH
370
    25
390
106AB96
  0
LAYER
  5
21
330
9
100
AcDbSymbolTableRecord
100
AcDbLayerTableRecord
  2
NOCUT
 70
     0
 62
     7
  6
CONTINUOUS
370
    25
390
106AB96
  0
LAYER
  5
22
330
9
100
AcDbSymbolTableRecord
100
AcDbLayerTableRecord
  2
CUT
 70
     0
 62
     1
  6
CONTINUOUS
370
    25
390
106AB96
  0
LAYER
  5
26
330
9
100
AcDbSymbolTableRecord
100
AcDbLayerTableRecord
  2
INFTOTAL
 70
     0
 62
     9
  6
CONTINUOUS
370
    18
390
106AB96
  0
LAYER
  5
106ABE1
330
9
100
AcDbSymbolTableRecord
100
AcDbLayerTableRecord
  2
Defpoints
 70
     0
 62
     7
  6
CONTINUOUS
290
     0
370
    -3
390
106AB96
  0
ENDTAB
  0
TABLE
  2
STYLE
  5
27
330
0
100
AcDbSymbolTable
 70
     2
  0
STYLE
  5
28
330
27
100
AcDbSymbolTableRecord
100
AcDbTextStyleTableRecord
  2
Monospac821 BT
 70
     0
 40
3.5
 41
1.0
 50
0.0
 71
     0
 42
3.0
  3

  4

1001
ACAD
1000
Monospac821 BT
1071
      256
  0
STYLE
  5
106AB90
330
27
100
AcDbSymbolTableRecord
100
AcDbTextStyleTableRecord
  2
Standard
 70
     0
 40
0.0
 41
1.0
 50
0.0
 71
     0
 42
0.2
  3
txt
  4

  0
ENDTAB
  0
TABLE
  2
VIEW
  5
29
330
0
100
AcDbSymbolTable
 70
     0
  0
ENDTAB
  0
TABLE
  2
UCS
  5
2A
330
0
100
AcDbSymbolTable
 70
     0
  0
ENDTAB
  0
TABLE
  2
APPID
  5
2B
330
0
100
AcDbSymbolTable
 70
     5
  0
APPID
  5
2C
330
2B
100
AcDbSymbolTableRecord
100
AcDbRegAppTableRecord
  2
ACAD
 70
     0
  0
APPID
  5
106ABE3
330
2B
100
AcDbSymbolTableRecord
100
AcDbRegAppTableRecord
  2
FX_DIMP_FAV_VERSION
 70
     0
  0
APPID
  5
106ACA9
330
2B
100
AcDbSymbolTableRecord
100
AcDbRegAppTableRecord
  2
ACAD_DSTYLE_DIMFLIPARROW_SYMBOL
 70
     0
  0
APPID
  5
106ACAA
330
2B
100
AcDbSymbolTableRecord
100
AcDbRegAppTableRecord
  2
ACAD_DSTYLE_DIMFLIPARROW_WHICH_SYMBOL
 70
     0
  0
APPID
  5
106ACE5
330
2B
100
AcDbSymbolTableRecord
100
AcDbRegAppTableRecord
  2
ACAD_MLEADERVER
 70
     0
  0
ENDTAB
  0
TABLE
  2
DIMSTYLE
  5
2D
330
0
100
AcDbSymbolTable
 70
     1
100
AcDbDimStyleTable
  0
DIMSTYLE
105
2E
102
{ACAD_REACTORS
330
106AC07
330
106AC32
330
106AC67
330
106AC92
102
}
330
2D
100
AcDbSymbolTableRecord
100
AcDbDimStyleTableRecord
  2
STANDARD
 70
     0
 41
3.0
 42
0.5
 44
1.0
 73
     0
 77
     1
 78
     1
140
3.5
141
2.5
143
0.03937007874
147
0.8
172
     1
174
     1
178
     0
179
     1
271
     2
279
     1
284
     1
340
28
  0
ENDTAB
  0
TABLE
  2
BLOCK_RECORD
  5
2F
330
0
100
AcDbSymbolTable
 70
    14
  0
BLOCK_RECORD
  5
30
102
{ACAD_XDICTIONARY
360
106AC9F
102
}
330
2F
100
AcDbSymbolTableRecord
100
AcDbBlockTableRecord
  2
*Model_Space
340
106AB98
  0
BLOCK_RECORD
  5
31
330
2F
100
AcDbSymbolTableRecord
100
AcDbBlockTableRecord
  2
*Paper_Space
340
106AB99
  0
BLOCK_RECORD
  5
39B
330
2F
100
AcDbSymbolTableRecord
100
AcDbBlockTableRecord
  2
*D0
340
0
  0
BLOCK_RECORD
  5
3A9
330
2F
100
AcDbSymbolTableRecord
100
AcDbBlockTableRecord
  2
*D1
340
0
  0
BLOCK_RECORD
  5
3B7
330
2F
100
AcDbSymbolTableRecord
100
AcDbBlockTableRecord
  2
*D2
340
0
  0
BLOCK_RECORD
  5
3C5
330
2F
100
AcDbSymbolTableRecord
100
AcDbBlockTableRecord
  2
*D3
340
0
  0
BLOCK_RECORD
  5
3D3
330
2F
100
AcDbSymbolTableRecord
100
AcDbBlockTableRecord
  2
*D4
340
0
  0
BLOCK_RECORD
  5
3E1
330
2F
100
AcDbSymbolTableRecord
100
AcDbBlockTableRecord
  2
*D5
340
0
  0
BLOCK_RECORD
  5
106ABF5
330
2F
100
AcDbSymbolTableRecord
100
AcDbBlockTableRecord
  2
*D6
340
0
  0
BLOCK_RECORD
  5
106AC08
330
2F
100
AcDbSymbolTableRecord
100
AcDbBlockTableRecord
  2
*D7
340
0
  0
BLOCK_RECORD
  5
106AC23
330
2F
100
AcDbSymbolTableRecord
100
AcDbBlockTableRecord
  2
*D8
340
0
  0
BLOCK_RECORD
  5
106AC33
330
2F
100
AcDbSymbolTableRecord
100
AcDbBlockTableRecord
  2
*D9
340
0
  0
BLOCK_RECORD
  5
106AC55
330
2F
100
AcDbSymbolTableRecord
100
AcDbBlockTableRecord
  2
*D10
340
0
  0
BLOCK_RECORD
  5
106AC68
330
2F
100
AcDbSymbolTableRecord
100
AcDbBlockTableRecord
  2
*D11
340
0
  0
BLOCK_RECORD
  5
106AC83
330
2F
100
AcDbSymbolTableRecord
100
AcDbBlockTableRecord
  2
*D12
340
0
  0
BLOCK_RECORD
  5
106AC93
330
2F
100
AcDbSymbolTableRecord
100
AcDbBlockTableRecord
  2
*D13
340
0
  0
ENDTAB
  0
ENDSEC
  0
SECTION
  2
BLOCKS
  0
BLOCK
  5
32
330
30
100
AcDbEntity
  8
0
100
AcDbBlockBegin
  2
*Model_Space
 70
     0
 10
0.0
 20
0.0
 30
0.0
  3
*Model_Space
  1

  0
ENDBLK
  5
33
330
30
100
AcDbEntity
  8
0
100
AcDbBlockEnd
  0
BLOCK
  5
34
330
31
100
AcDbEntity
 67
     1
  8
0
100
AcDbBlockBegin
  2
*Paper_Space
 70
     0
 10
0.0
 20
0.0
 30
0.0
  3
*Paper_Space
  1

  0
ENDBLK
  5
35
330
31
100
AcDbEntity
 67
     1
  8
0
100
AcDbBlockEnd
  0
BLOCK
  5
399
330
39B
100
AcDbEntity
  8
SK2
100
AcDbBlockBegin
  2
*D0
 70
     1
 10
0.0
 20
0.0
 30
0.0
  3
*D0
  1

  0
LINE
  5
39C
330
39B
100
AcDbEntity
  8
SK2
 62
     0
370
    -2
100
AcDbLine
 10
51.953987871165
 20
-1.555
 30
0.0
 11
51.953987871165
 21
-41.0
 31
0.0
  0
LINE
  5
39D
330
39B
100
AcDbEntity
  8
SK2
 62
     0
370
    -2
100
AcDbLine
 10
1.953987871165
 20
-2.2905
 30
0.0
 11
1.953987871165001
 21
-41.0
 31
0.0
  0
LINE
  5
39E
330
39B
100
AcDbEntity
  8
SK2
 62
     0
370
    -2
100
AcDbLine
 10
48.953987871165
 20
-40.0
 30
0.0
 11
4.953987871165001
 21
-40.0
 31
0.0
  0
SOLID
  5
39F
330
39B
100
AcDbEntity
  8
SK2
 62
     0
100
AcDbTrace
 10
48.953987871165
 20
-40.5
 30
0.0
 11
48.953987871165
 21
-39.5
 31
0.0
 12
51.953987871165
 22
-40.0
 32
0.0
 13
51.953987871165
 23
-40.0
 33
0.0
  0
SOLID
  5
3A0
330
39B
100
AcDbEntity
  8
SK2
 62
     0
100
AcDbTrace
 10
4.953987871165001
 20
-39.5
 30
0.0
 11
4.953987871165001
 21
-40.5
 31
0.0
 12
1.953987871165001
 22
-40.0
 32
0.0
 13
1.953987871165001
 23
-40.0
 33
0.0
  0
MTEXT
  5
3A1
330
39B
100
AcDbEntity
  8
SK2
  6
ByBlock
 62
     0
100
AcDbMText
 10
26.953987871165
 20
-37.38875
 30
0.0
 40
3.5
 41
0.0
 71
     5
 72
     1
  1
\A1;50
 73
     1
 44
1.0
  0
POINT
  5
3A2
330
39B
100
AcDbEntity
  8
Defpoints
 62
     0
100
AcDbPoint
 10
51.953987871165
 20
-1.055
 30
0.0
  0
POINT
  5
3A3
330
39B
100
AcDbEntity
  8
Defpoints
 62
     0
100
AcDbPoint
 10
1.953987871165
 20
-1.7905
 30
0.0
  0
POINT
  5
3A4
330
39B
100
AcDbEntity
  8
Defpoints
 62
     0
100
AcDbPoint
 10
1.953987871165
 20
-40.0
 30
0.0
  0
ENDBLK
  5
3A5
330
39B
100
AcDbEntity
  8
SK2
100
AcDbBlockEnd
  0
BLOCK
  5
3A7
330
3A9
100
AcDbEntity
  8
SK2
100
AcDbBlockBegin
  2
*D1
 70
     1
 10
0.0
 20
0.0
 30
0.0
  3
*D1
  1

  0
LINE
  5
3AA
330
3A9
100
AcDbEntity
  8
SK2
 62
     0
370
    -2
100
AcDbLine
 10
14.0041
 20
1.790500000000002
 30
0.0
 11
14.0041
 21
26.29900000000001
 31
0.0
  0
LINE
  5
3AB
330
3A9
100
AcDbEntity
  8
SK2
 62
     0
370
    -2
100
AcDbLine
 10
14.0041
 20
-1.790500000000002
 30
0.0
 11
14.0041
 21
1.790500000000002
 31
0.0
  0
LINE
  5
3AC
330
3A9
100
AcDbEntity
  8
SK2
 62
     0
370
    -2
100
AcDbLine
 10
14.0041
 20
-4.790500000000002
 30
0.0
 11
14.0041
 21
-7.790500000000002
 31
0.0
  0
LINE
  5
3AD
330
3A9
100
AcDbEntity
  8
SK2
 62
     0
370
    -2
100
AcDbLine
 10
14.0041
 20
4.790500000000002
 30
0.0
 11
14.0041
 21
7.790500000000002
 31
0.0
  0
SOLID
  5
3AE
330
3A9
100
AcDbEntity
  8
SK2
 62
     0
100
AcDbTrace
 10
14.5041
 20
-4.790500000000002
 30
0.0
 11
13.5041
 21
-4.790500000000002
 31
0.0
 12
14.0041
 22
-1.790500000000002
 32
0.0
 13
14.0041
 23
-1.790500000000002
 33
0.0
  0
SOLID
  5
3AF
330
3A9
100
AcDbEntity
  8
SK2
 62
     0
100
AcDbTrace
 10
13.5041
 20
4.790500000000002
 30
0.0
 11
14.5041
 21
4.790500000000002
 31
0.0
 12
14.0041
 22
1.790500000000002
 32
0.0
 13
14.0041
 23
1.790500000000002
 33
0.0
  0
MTEXT
  5
3B0
330
3A9
100
AcDbEntity
  8
SK2
  6
ByBlock
 62
     0
100
AcDbMText
 10
11.3421
 20
17.04475
 30
0.0
 40
3.5
 41
0.0
 71
     5
 72
     1
  1
\A1;%%c3.581
 11
0.0
 21
1.0
 31
0.0
 73
     1
 44
1.0
  0
POINT
  5
3B1
330
3A9
100
AcDbEntity
  8
Defpoints
 62
     0
100
AcDbPoint
 10
1.953987871165001
 20
-1.7905
 30
0.0
  0
POINT
  5
3B2
330
3A9
100
AcDbEntity
  8
Defpoints
 62
     0
100
AcDbPoint
 10
1.953987871165001
 20
1.7905
 30
0.0
  0
POINT
  5
106ABE4
330
3A9
100
AcDbEntity
  8
Defpoints
 62
     0
100
AcDbPoint
 10
14.0041
 20
1.790500000000001
 30
0.0
  0
ENDBLK
  5
3B3
330
3A9
100
AcDbEntity
  8
SK2
100
AcDbBlockEnd
  0
BLOCK
  5
3B5
330
3B7
100
AcDbEntity
  8
SK2
100
AcDbBlockBegin
  2
*D2
 70
     1
 10
0.0
 20
0.0
 30
0.0
  3
*D2
  1

  0
LINE
  5
3B8
330
3B7
100
AcDbEntity
  8
SK2
 62
     0
370
    -2
100
AcDbLine
 10
6.753987871165
 20
-2.2905
 30
0.0
 11
6.753987871165
 21
-17.0
 31
0.0
  0
LINE
  5
3B9
330
3B7
100
AcDbEntity
  8
SK2
 62
     0
370
    -2
100
AcDbLine
 10
1.953987871165
 20
-2.2905
 30
0.0
 11
1.953987871164999
 21
-17.0
 31
0.0
  0
LINE
  5
3BA
330
3B7
100
AcDbEntity
  8
SK2
 62
     0
370
    -2
100
AcDbLine
 10
1.953987871164999
 20
-16.0
 30
0.0
 11
-14.172012128835
 21
-16.0
 31
0.0
  0
LINE
  5
3BB
330
3B7
100
AcDbEntity
  8
SK2
 62
     0
370
    -2
100
AcDbLine
 10
6.753987871165
 20
-16.0
 30
0.0
 11
1.953987871164999
 21
-16.0
 31
0.0
  0
LINE
  5
3BC
330
3B7
100
AcDbEntity
  8
SK2
 62
     0
370
    -2
100
AcDbLine
 10
9.753987871165
 20
-16.0
 30
0.0
 11
12.753987871165
 21
-16.0
 31
0.0
  0
LINE
  5
3BD
330
3B7
100
AcDbEntity
  8
SK2
 62
     0
370
    -2
100
AcDbLine
 10
-1.046012128835001
 20
-16.0
 30
0.0
 11
-4.046012128835001
 21
-16.0
 31
0.0
  0
SOLID
  5
3BE
330
3B7
100
AcDbEntity
  8
SK2
 62
     0
100
AcDbTrace
 10
9.753987871165
 20
-15.5
 30
0.0
 11
9.753987871165
 21
-16.5
 31
0.0
 12
6.753987871165
 22
-16.0
 32
0.0
 13
6.753987871165
 23
-16.0
 33
0.0
  0
SOLID
  5
3BF
330
3B7
100
AcDbEntity
  8
SK2
 62
     0
100
AcDbTrace
 10
-1.046012128835001
 20
-16.5
 30
0.0
 11
-1.046012128835001
 21
-15.5
 31
0.0
 12
1.953987871164999
 22
-16.0
 32
0.0
 13
1.953987871164999
 23
-16.0
 33
0.0
  0
MTEXT
  5
3C0
330
3B7
100
AcDbEntity
  8
SK2
  6
ByBlock
 62
     0
100
AcDbMText
 10
-9.109012128835001
 20
-13.38875
 30
0.0
 40
3.5
 41
0.0
 71
     5
 72
     1
  1
\A1;4.8
 73
     1
 44
1.0
  0
POINT
  5
106ABE6
330
3B7
100
AcDbEntity
  8
Defpoints
 62
     0
100
AcDbPoint
 10
6.753987871165
 20
-1.7905
 30
0.0
  0
POINT
  5
106ABE7
330
3B7
100
AcDbEntity
  8
Defpoints
 62
     0
100
AcDbPoint
 10
1.953987871165
 20
-1.7905
 30
0.0
  0
POINT
  5
106AC3F
330
3B7
100
AcDbEntity
  8
Defpoints
 62
     0
100
AcDbPoint
 10
1.953987871165
 20
-16.0
 30
0.0
  0
ENDBLK
  5
3C1
330
3B7
100
AcDbEntity
  8
SK2
100
AcDbBlockEnd
  0
BLOCK
  5
3C3
330
3C5
100
AcDbEntity
  8
2
100
AcDbBlockBegin
  2
*D3
 70
     1
 10
0.0
 20
0.0
 30
0.0
  3
*D3
  1

  0
LINE
  5
3C6
330
3C5
100
AcDbEntity
  8
2
 62
     0
370
    -2
100
AcDbLine
 10
51.953987871165
 20
-1.555
 30
0.0
 11
51.953987871165
 21
-25.0
 31
0.0
  0
LINE
  5
3C7
330
3C5
100
AcDbEntity
  8
2
 62
     0
370
    -2
100
AcDbLine
 10
39.253987871165
 20
-1.8
 30
0.0
 11
39.253987871165
 21
-25.0
 31
0.0
  0
LINE
  5
3C8
330
3C5
100
AcDbEntity
  8
2
 62
     0
370
    -2
100
AcDbLine
 10
51.953987871165
 20
-24.0
 30
0.0
 11
69.407
 21
-24.0
 31
0.0
  0
LINE
  5
3C9
330
3C5
100
AcDbEntity
  8
2
 62
     0
370
    -2
100
AcDbLine
 10
51.953987871165
 20
-24.0
 30
0.0
 11
39.253987871165
 21
-24.0
 31
0.0
  0
LINE
  5
3CA
330
3C5
100
AcDbEntity
  8
2
 62
     0
370
    -2
100
AcDbLine
 10
54.953987871165
 20
-24.0
 30
0.0
 11
57.953987871165
 21
-24.0
 31
0.0
  0
LINE
  5
3CB
330
3C5
100
AcDbEntity
  8
2
 62
     0
370
    -2
100
AcDbLine
 10
36.253987871165
 20
-24.0
 30
0.0
 11
33.253987871165
 21
-24.0
 31
0.0
  0
SOLID
  5
3CC
330
3C5
100
AcDbEntity
  8
2
 62
     0
100
AcDbTrace
 10
54.953987871165
 20
-23.5
 30
0.0
 11
54.953987871165
 21
-24.5
 31
0.0
 12
51.953987871165
 22
-24.0
 32
0.0
 13
51.953987871165
 23
-24.0
 33
0.0
  0
SOLID
  5
3CD
330
3C5
100
AcDbEntity
  8
2
 62
     0
100
AcDbTrace
 10
36.253987871165
 20
-24.5
 30
0.0
 11
36.253987871165
 21
-23.5
 31
0.0
 12
39.253987871165
 22
-24.0
 32
0.0
 13
39.253987871165
 23
-24.0
 33
0.0
  0
MTEXT
  5
3CE
330
3C5
100
AcDbEntity
  8
2
  6
ByBlock
 62
     0
100
AcDbMText
 10
63.0
 20
-21.4395
 30
0.0
 40
3.5
 41
0.0
 71
     5
 72
     1
  1
\A1;12.7
 73
     1
 44
1.0
  0
POINT
  5
106AC43
330
3C5
100
AcDbEntity
  8
Defpoints
 62
     0
100
AcDbPoint
 10
51.953987871165
 20
-1.055
 30
0.0
  0
POINT
  5
106AC44
330
3C5
100
AcDbEntity
  8
Defpoints
 62
     0
100
AcDbPoint
 10
39.253987871165
 20
-1.3
 30
0.0
  0
POINT
  5
106AC45
330
3C5
100
AcDbEntity
  8
Defpoints
 62
     0
100
AcDbPoint
 10
39.253987871165
 20
-24.0
 30
0.0
  0
ENDBLK
  5
3CF
330
3C5
100
AcDbEntity
  8
2
100
AcDbBlockEnd
  0
BLOCK
  5
3D1
330
3D3
100
AcDbEntity
  8
2
100
AcDbBlockBegin
  2
*D4
 70
     1
 10
0.0
 20
0.0
 30
0.0
  3
*D4
  1

  0
LINE
  5
3D4
330
3D3
100
AcDbEntity
  8
2
 62
     0
370
    -2
100
AcDbLine
 10
51.953987871165
 20
-1.555
 30
0.0
 11
51.953987871165
 21
-33.0
 31
0.0
  0
LINE
  5
3D5
330
3D3
100
AcDbEntity
  8
2
 62
     0
370
    -2
100
AcDbLine
 10
38.253987871165
 20
-1.8
 30
0.0
 11
38.253987871165
 21
-33.0
 31
0.0
  0
LINE
  5
3D6
330
3D3
100
AcDbEntity
  8
2
 62
     0
370
    -2
100
AcDbLine
 10
38.253987871165
 20
-32.0
 30
0.0
 11
22.43998787116501
 21
-32.0
 31
0.0
  0
LINE
  5
3D7
330
3D3
100
AcDbEntity
  8
2
 62
     0
370
    -2
100
AcDbLine
 10
51.953987871165
 20
-32.0
 30
0.0
 11
38.253987871165
 21
-32.0
 31
0.0
  0
LINE
  5
3D8
330
3D3
100
AcDbEntity
  8
2
 62
     0
370
    -2
100
AcDbLine
 10
54.953987871165
 20
-32.0
 30
0.0
 11
57.953987871165
 21
-32.0
 31
0.0
  0
LINE
  5
3D9
330
3D3
100
AcDbEntity
  8
2
 62
     0
370
    -2
100
AcDbLine
 10
35.253987871165
 20
-32.0
 30
0.0
 11
32.253987871165
 21
-32.0
 31
0.0
  0
SOLID
  5
3DA
330
3D3
100
AcDbEntity
  8
2
 62
     0
100
AcDbTrace
 10
54.953987871165
 20
-31.5
 30
0.0
 11
54.953987871165
 21
-32.5
 31
0.0
 12
51.953987871165
 22
-32.0
 32
0.0
 13
51.953987871165
 23
-32.0
 33
0.0
  0
SOLID
  5
3DB
330
3D3
100
AcDbEntity
  8
2
 62
     0
100
AcDbTrace
 10
35.253987871165
 20
-32.5
 30
0.0
 11
35.253987871165
 21
-31.5
 31
0.0
 12
38.253987871165
 22
-32.0
 32
0.0
 13
38.253987871165
 23
-32.0
 33
0.0
  0
MTEXT
  5
3DC
330
3D3
100
AcDbEntity
  8
2
  6
ByBlock
 62
     0
100
AcDbMText
 10
28.84698787116501
 20
-29.38875
 30
0.0
 40
3.5
 41
0.0
 71
     5
 72
     1
  1
\A1;13.7
 73
     1
 44
1.0
  0
POINT
  5
106AC40
330
3D3
100
AcDbEntity
  8
Defpoints
 62
     0
100
AcDbPoint
 10
51.953987871165
 20
-1.055
 30
0.0
  0
POINT
  5
106AC41
330
3D3
100
AcDbEntity
  8
Defpoints
 62
     0
100
AcDbPoint
 10
38.253987871165
 20
-1.3
 30
0.0
  0
POINT
  5
106AC42
330
3D3
100
AcDbEntity
  8
Defpoints
 62
     0
100
AcDbPoint
 10
38.253987871165
 20
-32.0
 30
0.0
  0
ENDBLK
  5
3DD
330
3D3
100
AcDbEntity
  8
2
100
AcDbBlockEnd
  0
BLOCK
  5
3DF
330
3E1
100
AcDbEntity
  8
2
100
AcDbBlockBegin
  2
*D5
 70
     1
 10
0.0
 20
0.0
 30
0.0
  3
*D5
  1

  0
LINE
  5
3E2
330
3E1
100
AcDbEntity
  8
2
 62
     0
370
    -2
100
AcDbLine
 10
53.105318339793
 20
0.5
 30
0.0
 11
53.105318339793
 21
36.0
 31
0.0
  0
LINE
  5
3E3
330
3E1
100
AcDbEntity
  8
2
 62
     0
370
    -2
100
AcDbLine
 10
21.105318339793
 20
2.2905
 30
0.0
 11
21.105318339793
 21
36.0
 31
0.0
  0
LINE
  5
3E4
330
3E1
100
AcDbEntity
  8
2
 62
     0
370
    -2
100
AcDbLine
 10
50.105318339793
 20
35.0
 30
0.0
 11
24.105318339793
 21
35.0
 31
0.0
  0
SOLID
  5
3E5
330
3E1
100
AcDbEntity
  8
2
 62
     0
100
AcDbTrace
 10
50.105318339793
 20
34.5
 30
0.0
 11
50.105318339793
 21
35.5
 31
0.0
 12
53.105318339793
 22
35.0
 32
0.0
 13
53.105318339793
 23
35.0
 33
0.0
  0
SOLID
  5
3E6
330
3E1
100
AcDbEntity
  8
2
 62
     0
100
AcDbTrace
 10
24.105318339793
 20
35.5
 30
0.0
 11
24.105318339793
 21
34.5
 31
0.0
 12
21.105318339793
 22
35.0
 32
0.0
 13
21.105318339793
 23
35.0
 33
0.0
  0
MTEXT
  5
3E7
330
3E1
100
AcDbEntity
  8
2
  6
ByBlock
 62
     0
100
AcDbMText
 10
37.105318339793
 20
37.61125
 30
0.0
 40
3.5
 41
0.0
 71
     5
 72
     1
  1
\A1;32
 73
     1
 44
1.0
  0
POINT
  5
3E8
330
3E1
100
AcDbEntity
  8
Defpoints
 62
     0
100
AcDbPoint
 10
53.105318339793
 20
0.0
 30
0.0
  0
POINT
  5
3E9
330
3E1
100
AcDbEntity
  8
Defpoints
 62
     0
100
AcDbPoint
 10
21.105318339793
 20
1.7905
 30
0.0
  0
POINT
  5
3EA
330
3E1
100
AcDbEntity
  8
Defpoints
 62
     0
100
AcDbPoint
 10
21.105318339793
 20
35.0
 30
0.0
  0
ENDBLK
  5
3EB
330
3E1
100
AcDbEntity
  8
2
100
AcDbBlockEnd
  0
BLOCK
  5
106ABF6
330
106ABF5
100
AcDbEntity
  8
SK2
100
AcDbBlockBegin
  2
*D6
 70
     1
 10
0.0
 20
0.0
 30
0.0
  3
*D6
  1

  0
LINE
  5
106ABF7
330
106ABF5
100
AcDbEntity
  8
SK2
 62
     0
370
    -2
100
AcDbLine
 10
3.081749999999992
 20
6.0
 30
0.0
 11
5.581749999999992
 21
6.0
 31
0.0
  0
LINE
  5
106ABF8
330
106ABF5
100
AcDbEntity
  8
SK2
 62
     0
370
    -2
100
AcDbLine
 10
3.081749999999992
 20
9.581
 30
0.0
 11
5.581749999999992
 21
9.581
 31
0.0
  0
LINE
  5
106ABF9
330
106ABF5
100
AcDbEntity
  8
SK2
 62
     0
370
    -2
100
AcDbLine
 10
4.581749999999992
 20
9.581
 30
0.0
 11
4.581749999999992
 21
34.0895
 31
0.0
  0
LINE
  5
106ABFA
330
106ABF5
100
AcDbEntity
  8
SK2
 62
     0
370
    -2
100
AcDbLine
 10
4.581749999999992
 20
6.0
 30
0.0
 11
4.581749999999992
 21
9.581
 31
0.0
  0
LINE
  5
106ABFB
330
106ABF5
100
AcDbEntity
  8
SK2
 62
     0
370
    -2
100
AcDbLine
 10
4.581749999999992
 20
3.0
 30
0.0
 11
4.581749999999992
 21
0.0
 31
0.0
  0
LINE
  5
106ABFC
330
106ABF5
100
AcDbEntity
  8
SK2
 62
     0
370
    -2
100
AcDbLine
 10
4.581749999999992
 20
12.581
 30
0.0
 11
4.581749999999992
 21
15.581
 31
0.0
  0
SOLID
  5
106ABFD
330
106ABF5
100
AcDbEntity
  8
SK2
 62
     0
100
AcDbTrace
 10
5.081749999999992
 20
3.0
 30
0.0
 11
4.081749999999992
 21
3.0
 31
0.0
 12
4.581749999999992
 22
6.0
 32
0.0
 13
4.581749999999992
 23
6.0
 33
0.0
  0
SOLID
  5
106ABFE
330
106ABF5
100
AcDbEntity
  8
SK2
 62
     0
100
AcDbTrace
 10
4.081749999999992
 20
12.581
 30
0.0
 11
5.081749999999992
 21
12.581
 31
0.0
 12
4.581749999999992
 22
9.581
 32
0.0
 13
4.581749999999992
 23
9.581
 33
0.0
  0
MTEXT
  5
106ABFF
330
106ABF5
100
AcDbEntity
  8
SK2
  6
ByBlock
 62
     0
100
AcDbMText
 10
1.919749999999994
 20
24.83525
 30
0.0
 40
3.5
 41
0.0
 71
     5
 72
     1
  1
\A1;%%c3.581
 11
0.0
 21
1.0
 31
0.0
 73
     1
 44
1.0
  0
POINT
  5
106AC00
330
106ABF5
100
AcDbEntity
  8
Defpoints
 62
     0
100
AcDbPoint
 10
2.581749999999992
 20
6.0
 30
0.0
  0
POINT
  5
106AC01
330
106ABF5
100
AcDbEntity
  8
Defpoints
 62
     0
100
AcDbPoint
 10
2.581749999999992
 20
9.581
 30
0.0
  0
POINT
  5
106AC02
330
106ABF5
100
AcDbEntity
  8
Defpoints
 62
     0
100
AcDbPoint
 10
4.581749999999992
 20
9.581
 30
0.0
  0
ENDBLK
  5
106AC03
330
106ABF5
100
AcDbEntity
  8
SK2
100
AcDbBlockEnd
  0
BLOCK
  5
106AC09
330
106AC08
100
AcDbEntity
  8
0
100
AcDbBlockBegin
  2
*D7
 70
     1
 10
0.0
 20
0.0
 30
0.0
  3
*D7
  1

  0
LINE
  5
106AC0B
330
106AC08
100
AcDbEntity
  8
2
 62
     0
370
    -2
100
AcDbLine
 10
52.453987871165
 20
-1.055
 30
0.0
 11
81.0
 21
-1.054999999999998
 31
0.0
  0
LINE
  5
106AC0C
330
106AC08
100
AcDbEntity
  8
2
 62
     0
370
    -2
100
AcDbLine
 10
52.453987871165
 20
1.055
 30
0.0
 11
81.0
 21
1.055000000000001
 31
0.0
  0
LINE
  5
106AC0D
330
106AC08
100
AcDbEntity
  8
2
 62
     0
370
    -2
100
AcDbLine
 10
80.0
 20
1.055000000000001
 30
0.0
 11
80.0
 21
22.53249999999999
 31
0.0
  0
LINE
  5
106AC0E
330
106AC08
100
AcDbEntity
  8
2
 62
     0
370
    -2
100
AcDbLine
 10
80.0
 20
-1.054999999999998
 30
0.0
 11
80.0
 21
1.055000000000001
 31
0.0
  0
LINE
  5
106AC0F
330
106AC08
100
AcDbEntity
  8
2
 62
     0
370
    -2
100
AcDbLine
 10
80.0
 20
-4.054999999999998
 30
0.0
 11
80.0
 21
-7.054999999999998
 31
0.0
  0
LINE
  5
106AC10
330
106AC08
100
AcDbEntity
  8
2
 62
     0
370
    -2
100
AcDbLine
 10
80.0
 20
4.055000000000001
 30
0.0
 11
80.0
 21
7.055000000000001
 31
0.0
  0
SOLID
  5
106AC11
330
106AC08
100
AcDbEntity
  8
2
 62
     0
100
AcDbTrace
 10
80.5
 20
-4.054999999999998
 30
0.0
 11
79.5
 21
-4.054999999999998
 31
0.0
 12
80.0
 22
-1.054999999999998
 32
0.0
 13
80.0
 23
-1.054999999999998
 33
0.0
  0
SOLID
  5
106AC12
330
106AC08
100
AcDbEntity
  8
2
 62
     0
100
AcDbTrace
 10
79.5
 20
4.055000000000001
 30
0.0
 11
80.5
 21
4.055000000000001
 31
0.0
 12
80.0
 22
1.055000000000001
 32
0.0
 13
80.0
 23
1.055000000000001
 33
0.0
  0
MTEXT
  5
106AC13
330
106AC08
100
AcDbEntity
  8
2
  6
ByBlock
 62
     0
100
AcDbMText
 10
77.338
 20
14.79375
 30
0.0
 40
3.5
 41
0.0
 71
     5
 72
     1
  1
\A1;%%c2.11
 11
0.0
 21
1.0
 31
0.0
 73
     1
 44
1.0
  0
POINT
  5
106AC14
330
106AC08
100
AcDbEntity
  8
Defpoints
 62
     0
100
AcDbPoint
 10
51.953987871165
 20
-1.055
 30
0.0
  0
POINT
  5
106AC15
330
106AC08
100
AcDbEntity
  8
Defpoints
 62
     0
100
AcDbPoint
 10
51.953987871165
 20
1.055
 30
0.0
  0
POINT
  5
106AC16
330
106AC08
100
AcDbEntity
  8
Defpoints
 62
     0
100
AcDbPoint
 10
80.0
 20
1.055000000000002
 30
0.0
  0
ENDBLK
  5
106AC0A
330
106AC08
100
AcDbEntity
  8
0
100
AcDbBlockEnd
  0
BLOCK
  5
106AC24
330
106AC23
100
AcDbEntity
  8
2
100
AcDbBlockBegin
  2
*D8
 70
     1
 10
0.0
 20
0.0
 30
0.0
  3
*D8
  1

  0
LINE
  5
106AC25
330
106AC23
100
AcDbEntity
  8
2
 62
     0
370
    -2
100
AcDbLine
 10
12.7
 20
13.2355
 30
0.0
 11
12.7
 21
0.0000000000000018
 31
0.0
  0
LINE
  5
106AC26
330
106AC23
100
AcDbEntity
  8
2
 62
     0
370
    -2
100
AcDbLine
 10
0.0000000000000071
 20
12.9905
 30
0.0
 11
0.0000000000000071
 21
0.0000000000000018
 31
0.0
  0
LINE
  5
106AC27
330
106AC23
100
AcDbEntity
  8
2
 62
     0
370
    -2
100
AcDbLine
 10
9.700000000000003
 20
1.000000000000002
 30
0.0
 11
3.000000000000007
 21
1.000000000000002
 31
0.0
  0
SOLID
  5
106AC28
330
106AC23
100
AcDbEntity
  8
2
 62
     0
100
AcDbTrace
 10
9.700000000000003
 20
0.5000000000000018
 30
0.0
 11
9.700000000000003
 21
1.500000000000002
 31
0.0
 12
12.7
 22
1.000000000000002
 32
0.0
 13
12.7
 23
1.000000000000002
 33
0.0
  0
SOLID
  5
106AC29
330
106AC23
100
AcDbEntity
  8
2
 62
     0
100
AcDbTrace
 10
3.000000000000007
 20
1.500000000000002
 30
0.0
 11
3.000000000000007
 21
0.5000000000000018
 31
0.0
 12
0.0000000000000071
 22
1.000000000000002
 32
0.0
 13
0.0000000000000071
 23
1.000000000000002
 33
0.0
  0
MTEXT
  5
106AC2A
330
106AC23
100
AcDbEntity
  8
2
  6
ByBlock
 62
     0
100
AcDbMText
 10
6.350000000000009
 20
3.560500000000002
 30
0.0
 40
3.5
 41
0.0
 71
     5
 72
     1
  1
\A1;12.7
 73
     1
 44
1.0
  0
POINT
  5
106AC2B
330
106AC23
100
AcDbEntity
  8
Defpoints
 62
     0
100
AcDbPoint
 10
12.7
 20
13.7355
 30
0.0
  0
POINT
  5
106AC2C
330
106AC23
100
AcDbEntity
  8
Defpoints
 62
     0
100
AcDbPoint
 10
0.0000000000000071
 20
13.4905
 30
0.0
  0
POINT
  5
106AC2D
330
106AC23
100
AcDbEntity
  8
Defpoints
 62
     0
100
AcDbPoint
 10
0.0000000000000071
 20
1.000000000000002
 30
0.0
  0
ENDBLK
  5
106AC2E
330
106AC23
100
AcDbEntity
  8
2
100
AcDbBlockEnd
  0
BLOCK
  5
106AC34
330
106AC33
100
AcDbEntity
  8
0
100
AcDbBlockBegin
  2
*D9
 70
     1
 10
0.0
 20
0.0
 30
0.0
  3
*D9
  1

  0
LINE
  5
106AC36
330
106AC33
100
AcDbEntity
  8
2
 62
     0
370
    -2
100
AcDbLine
 10
51.953987871165
 20
-1.555
 30
0.0
 11
51.953987871165
 21
-17.0
 31
0.0
  0
LINE
  5
106AC37
330
106AC33
100
AcDbEntity
  8
2
 62
     0
370
    -2
100
AcDbLine
 10
50.153987871165
 20
-1.8
 30
0.0
 11
50.153987871165
 21
-17.0
 31
0.0
  0
LINE
  5
106AC38
330
106AC33
100
AcDbEntity
  8
2
 62
     0
370
    -2
100
AcDbLine
 10
51.953987871165
 20
-16.0
 30
0.0
 11
67.8845
 21
-16.0
 31
0.0
  0
LINE
  5
106AC39
330
106AC33
100
AcDbEntity
  8
2
 62
     0
370
    -2
100
AcDbLine
 10
51.953987871165
 20
-16.0
 30
0.0
 11
50.153987871165
 21
-16.0
 31
0.0
  0
LINE
  5
106AC3A
330
106AC33
100
AcDbEntity
  8
2
 62
     0
370
    -2
100
AcDbLine
 10
54.953987871165
 20
-16.0
 30
0.0
 11
57.953987871165
 21
-16.0
 31
0.0
  0
LINE
  5
106AC3B
330
106AC33
100
AcDbEntity
  8
2
 62
     0
370
    -2
100
AcDbLine
 10
47.153987871165
 20
-16.0
 30
0.0
 11
44.153987871165
 21
-16.0
 31
0.0
  0
SOLID
  5
106AC3C
330
106AC33
100
AcDbEntity
  8
2
 62
     0
100
AcDbTrace
 10
54.953987871165
 20
-15.5
 30
0.0
 11
54.953987871165
 21
-16.5
 31
0.0
 12
51.953987871165
 22
-16.0
 32
0.0
 13
51.953987871165
 23
-16.0
 33
0.0
  0
SOLID
  5
106AC3D
330
106AC33
100
AcDbEntity
  8
2
 62
     0
100
AcDbTrace
 10
47.153987871165
 20
-16.5
 30
0.0
 11
47.153987871165
 21
-15.5
 31
0.0
 12
50.153987871165
 22
-16.0
 32
0.0
 13
50.153987871165
 23
-16.0
 33
0.0
  0
MTEXT
  5
106AC3E
330
106AC33
100
AcDbEntity
  8
2
  6
ByBlock
 62
     0
100
AcDbMText
 10
63.0
 20
-13.38875
 30
0.0
 40
3.5
 41
0.0
 71
     5
 72
     1
  1
\A1;1.8
 73
     1
 44
1.0
  0
POINT
  5
106AC46
330
106AC33
100
AcDbEntity
  8
Defpoints
 62
     0
100
AcDbPoint
 10
51.953987871165
 20
-1.055
 30
0.0
  0
POINT
  5
106AC47
330
106AC33
100
AcDbEntity
  8
Defpoints
 62
     0
100
AcDbPoint
 10
50.153987871165
 20
-1.3
 30
0.0
  0
POINT
  5
106AC48
330
106AC33
100
AcDbEntity
  8
Defpoints
 62
     0
100
AcDbPoint
 10
50.153987871165
 20
-16.0
 30
0.0
  0
ENDBLK
  5
106AC35
330
106AC33
100
AcDbEntity
  8
0
100
AcDbBlockEnd
  0
BLOCK
  5
106AC56
330
106AC55
100
AcDbEntity
  8
0
100
AcDbBlockBegin
  2
*D10
 70
     1
 10
0.0
 20
0.0
 30
0.0
  3
*D10
  1

  0
LINE
  5
106AC57
330
106AC55
100
AcDbEntity
  8
2
 62
     0
370
    -2
100
AcDbLine
 10
0.5
 20
5.999999999999998
 30
0.0
 11
29.046012128835
 21
6.0
 31
0.0
  0
LINE
  5
106AC58
330
106AC55
100
AcDbEntity
  8
2
 62
     0
370
    -2
100
AcDbLine
 10
0.5
 20
8.109999999999998
 30
0.0
 11
29.046012128835
 21
8.11
 31
0.0
  0
LINE
  5
106AC59
330
106AC55
100
AcDbEntity
  8
2
 62
     0
370
    -2
100
AcDbLine
 10
28.046012128835
 20
8.11
 30
0.0
 11
28.046012128835
 21
29.58749999999999
 31
0.0
  0
LINE
  5
106AC5A
330
106AC55
100
AcDbEntity
  8
2
 62
     0
370
    -2
100
AcDbLine
 10
28.046012128835
 20
6.0
 30
0.0
 11
28.046012128835
 21
8.11
 31
0.0
  0
LINE
  5
106AC5B
330
106AC55
100
AcDbEntity
  8
2
 62
     0
370
    -2
100
AcDbLine
 10
28.046012128835
 20
3.0
 30
0.0
 11
28.046012128835
 21
0.0
 31
0.0
  0
LINE
  5
106AC5C
330
106AC55
100
AcDbEntity
  8
2
 62
     0
370
    -2
100
AcDbLine
 10
28.046012128835
 20
11.11
 30
0.0
 11
28.046012128835
 21
14.11
 31
0.0
  0
SOLID
  5
106AC5D
330
106AC55
100
AcDbEntity
  8
2
 62
     0
100
AcDbTrace
 10
28.546012128835
 20
3.0
 30
0.0
 11
27.546012128835
 21
3.0
 31
0.0
 12
28.046012128835
 22
6.0
 32
0.0
 13
28.046012128835
 23
6.0
 33
0.0
  0
SOLID
  5
106AC5E
330
106AC55
100
AcDbEntity
  8
2
 62
     0
100
AcDbTrace
 10
27.546012128835
 20
11.11
 30
0.0
 11
28.546012128835
 21
11.11
 31
0.0
 12
28.046012128835
 22
8.11
 32
0.0
 13
28.046012128835
 23
8.11
 33
0.0
  0
MTEXT
  5
106AC5F
330
106AC55
100
AcDbEntity
  8
2
  6
ByBlock
 62
     0
100
AcDbMText
 10
25.384012128835
 20
21.84875
 30
0.0
 40
3.5
 41
0.0
 71
     5
 72
     1
  1
\A1;%%c2.11
 11
0.0
 21
1.0
 31
0.0
 73
     1
 44
1.0
  0
POINT
  5
106AC60
330
106AC55
100
AcDbEntity
  8
Defpoints
 62
     0
100
AcDbPoint
 10
0.0
 20
5.999999999999998
 30
0.0
  0
POINT
  5
106AC61
330
106AC55
100
AcDbEntity
  8
Defpoints
 62
     0
100
AcDbPoint
 10
0.0
 20
8.109999999999998
 30
0.0
  0
POINT
  5
106AC62
330
106AC55
100
AcDbEntity
  8
Defpoints
 62
     0
100
AcDbPoint
 10
28.046012128835
 20
8.11
 30
0.0
  0
ENDBLK
  5
106AC63
330
106AC55
100
AcDbEntity
  8
0
100
AcDbBlockEnd
  0
BLOCK
  5
106AC69
330
106AC68
100
AcDbEntity
  8
0
100
AcDbBlockBegin
  2
*D11
 70
     1
 10
0.0
 20
0.0
 30
0.0
  3
*D11
  1

  0
LINE
  5
106AC6B
330
106AC68
100
AcDbEntity
  8
2
 62
     0
370
    -2
100
AcDbLine
 10
50.653987871165
 20
-1.3
 30
0.0
 11
89.0
 21
-1.299999999999997
 31
0.0
  0
LINE
  5
106AC6C
330
106AC68
100
AcDbEntity
  8
2
 62
     0
370
    -2
100
AcDbLine
 10
50.653987871165
 20
1.3
 30
0.0
 11
89.0
 21
1.300000000000004
 31
0.0
  0
LINE
  5
106AC6D
330
106AC68
100
AcDbEntity
  8
2
 62
     0
370
    -2
100
AcDbLine
 10
88.0
 20
1.300000000000004
 30
0.0
 11
88.0
 21
35.59800000000001
 31
0.0
  0
LINE
  5
106AC6E
330
106AC68
100
AcDbEntity
  8
2
 62
     0
370
    -2
100
AcDbLine
 10
88.0
 20
-1.299999999999997
 30
0.0
 11
88.0
 21
1.300000000000004
 31
0.0
  0
LINE
  5
106AC6F
330
106AC68
100
AcDbEntity
  8
2
 62
     0
370
    -2
100
AcDbLine
 10
88.0
 20
-4.299999999999997
 30
0.0
 11
88.0
 21
-7.299999999999997
 31
0.0
  0
LINE
  5
106AC70
330
106AC68
100
AcDbEntity
  8
2
 62
     0
370
    -2
100
AcDbLine
 10
88.0
 20
4.300000000000004
 30
0.0
 11
88.0
 21
7.300000000000004
 31
0.0
  0
SOLID
  5
106AC71
330
106AC68
100
AcDbEntity
  8
2
 62
     0
100
AcDbTrace
 10
88.5
 20
-4.299999999999997
 30
0.0
 11
87.5
 21
-4.299999999999997
 31
0.0
 12
88.0
 22
-1.299999999999997
 32
0.0
 13
88.0
 23
-1.299999999999997
 33
0.0
  0
SOLID
  5
106AC72
330
106AC68
100
AcDbEntity
  8
2
 62
     0
100
AcDbTrace
 10
87.5
 20
4.300000000000004
 30
0.0
 11
88.5
 21
4.300000000000004
 31
0.0
 12
88.0
 22
1.300000000000004
 32
0.0
 13
88.0
 23
1.300000000000004
 33
0.0
  0
MTEXT
  5
106AC73
330
106AC68
100
AcDbEntity
  8
2
  6
ByBlock
 62
     0
100
AcDbMText
 10
85.38875
 20
21.44900000000001
 30
0.0
 40
3.5
 41
0.0
 71
     5
 72
     1
  1
\A1;M2.6X0.45
 11
0.0
 21
1.0
 31
0.0
 73
     1
 44
1.0
  0
POINT
  5
106AC74
330
106AC68
100
AcDbEntity
  8
Defpoints
 62
     0
100
AcDbPoint
 10
50.153987871165
 20
-1.3
 30
0.0
  0
POINT
  5
106AC75
330
106AC68
100
AcDbEntity
  8
Defpoints
 62
     0
100
AcDbPoint
 10
50.153987871165
 20
1.3
 30
0.0
  0
POINT
  5
106AC76
330
106AC68
100
AcDbEntity
  8
Defpoints
 62
     0
100
AcDbPoint
 10
88.0
 20
1.300000000000002
 30
0.0
  0
ENDBLK
  5
106AC6A
330
106AC68
100
AcDbEntity
  8
0
100
AcDbBlockEnd
  0
BLOCK
  5
106AC84
330
106AC83
100
AcDbEntity
  8
2
100
AcDbBlockBegin
  2
*D12
 70
     1
 10
0.0
 20
0.0
 30
0.0
  3
*D12
  1

  0
LINE
  5
106AC85
330
106AC83
100
AcDbEntity
  8
2
 62
     0
370
    -2
100
AcDbLine
 10
32.0
 20
0.5
 30
0.0
 11
32.0
 21
36.0
 31
0.0
  0
LINE
  5
106AC86
330
106AC83
100
AcDbEntity
  8
2
 62
     0
370
    -2
100
AcDbLine
 10
0.0000000000000036
 20
2.2905
 30
0.0
 11
0.0000000000000036
 21
36.0
 31
0.0
  0
LINE
  5
106AC87
330
106AC83
100
AcDbEntity
  8
2
 62
     0
370
    -2
100
AcDbLine
 10
29.0
 20
35.0
 30
0.0
 11
3.000000000000004
 21
35.0
 31
0.0
  0
SOLID
  5
106AC88
330
106AC83
100
AcDbEntity
  8
2
 62
     0
100
AcDbTrace
 10
29.0
 20
34.5
 30
0.0
 11
29.0
 21
35.5
 31
0.0
 12
32.0
 22
35.0
 32
0.0
 13
32.0
 23
35.0
 33
0.0
  0
SOLID
  5
106AC89
330
106AC83
100
AcDbEntity
  8
2
 62
     0
100
AcDbTrace
 10
3.000000000000004
 20
35.5
 30
0.0
 11
3.000000000000004
 21
34.5
 31
0.0
 12
0.0000000000000036
 22
35.0
 32
0.0
 13
0.0000000000000036
 23
35.0
 33
0.0
  0
MTEXT
  5
106AC8A
330
106AC83
100
AcDbEntity
  8
2
  6
ByBlock
 62
     0
100
AcDbMText
 10
16.0
 20
37.61125
 30
0.0
 40
3.5
 41
0.0
 71
     5
 72
     1
  1
\A1;32
 73
     1
 44
1.0
  0
POINT
  5
106AC8B
330
106AC83
100
AcDbEntity
  8
Defpoints
 62
     0
100
AcDbPoint
 10
32.0
 20
0.0
 30
0.0
  0
POINT
  5
106AC8C
330
106AC83
100
AcDbEntity
  8
Defpoints
 62
     0
100
AcDbPoint
 10
0.0000000000000036
 20
1.7905
 30
0.0
  0
POINT
  5
106AC8D
330
106AC83
100
AcDbEntity
  8
Defpoints
 62
     0
100
AcDbPoint
 10
0.0000000000000036
 20
35.0
 30
0.0
  0
ENDBLK
  5
106AC8E
330
106AC83
100
AcDbEntity
  8
2
100
AcDbBlockEnd
  0
BLOCK
  5
106AC94
330
106AC93
100
AcDbEntity
  8
0
100
AcDbBlockBegin
  2
*D13
 70
     1
 10
0.0
 20
0.0
 30
0.0
  3
*D13
  1

  0
LINE
  5
106AC96
330
106AC93
100
AcDbEntity
  8
SK2
 62
     0
370
    -2
100
AcDbLine
 10
21.105318339793
 20
2.2905
 30
0.0
 11
21.105318339793
 21
36.0
 31
0.0
  0
LINE
  5
106AC97
330
106AC93
100
AcDbEntity
  8
SK2
 62
     0
370
    -2
100
AcDbLine
 10
1.953987871165
 20
2.2905
 30
0.0
 11
1.953987871164999
 21
36.0
 31
0.0
  0
LINE
  5
106AC98
330
106AC93
100
AcDbEntity
  8
SK2
 62
     0
370
    -2
100
AcDbLine
 10
18.105318339793
 20
35.0
 30
0.0
 11
4.953987871164999
 21
35.0
 31
0.0
  0
SOLID
  5
106AC99
330
106AC93
100
AcDbEntity
  8
SK2
 62
     0
100
AcDbTrace
 10
18.105318339793
 20
34.5
 30
0.0
 11
18.105318339793
 21
35.5
 31
0.0
 12
21.105318339793
 22
35.0
 32
0.0
 13
21.105318339793
 23
35.0
 33
0.0
  0
SOLID
  5
106AC9A
330
106AC93
100
AcDbEntity
  8
SK2
 62
     0
100
AcDbTrace
 10
4.953987871164999
 20
35.5
 30
0.0
 11
4.953987871164999
 21
34.5
 31
0.0
 12
1.953987871164999
 22
35.0
 32
0.0
 13
1.953987871164999
 23
35.0
 33
0.0
  0
MTEXT
  5
106AC9B
330
106AC93
100
AcDbEntity
  8
SK2
  6
ByBlock
 62
     0
100
AcDbMText
 10
11.529653105479
 20
37.61125
 30
0.0
 40
3.5
 41
0.0
 71
     5
 72
     1
  1
\A1;19.2
 73
     1
 44
1.0
  0
POINT
  5
106AC9C
330
106AC93
100
AcDbEntity
  8
Defpoints
 62
     0
100
AcDbPoint
 10
21.105318339793
 20
1.7905
 30
0.0
  0
POINT
  5
106AC9D
330
106AC93
100
AcDbEntity
  8
Defpoints
 62
     0
100
AcDbPoint
 10
1.953987871165
 20
1.7905
 30
0.0
  0
POINT
  5
106AC9E
330
106AC93
100
AcDbEntity
  8
Defpoints
 62
     0
100
AcDbPoint
 10
1.953987871165
 20
35.0
 30
0.0
  0
ENDBLK
  5
106AC95
330
106AC93
100
AcDbEntity
  8
0
100
AcDbBlockEnd
  0
ENDSEC
  0
SECTION
  2
ENTITIES
  0
DIMENSION
  5
3A6
330
30
100
AcDbEntity
  8
SK2
100
AcDbDimension
  2
*D0
 10
1.953987871165001
 20
-40.0
 30
0.0
 11
26.953987871165
 21
-40.0
 31
0.0
 70
   160
  1
<>
 71
     5
 42
50.0
  3
STANDARD
100
AcDbAlignedDimension
 13
51.953987871165
 23
-1.055
 33
0.0
 14
1.953987871165
 24
-1.7905
 34
0.0
100
AcDbRotatedDimension
1001
ACAD
1000
DSTYLE
1002
{
1070
   271
1070
     0
1070
   279
1070
     0
1070
    74
1070
     0
1002
}
  0
DIMENSION
  5
3B4
330
30
100
AcDbEntity
  8
SK2
100
AcDbDimension
  2
*D1
 10
14.0041
 20
1.790500000000002
 30
0.0
 11
14.0041
 21
17.04475
 31
0.0
 70
   160
  1
%%c<>
 71
     5
 42
3.581
  3
STANDARD
100
AcDbAlignedDimension
 13
1.953987871165001
 23
-1.7905
 33
0.0
 14
1.953987871165001
 24
1.7905
 34
0.0
 50
-90.0
100
AcDbRotatedDimension
1001
ACAD
1000
DSTYLE
1002
{
1070
    76
1070
     1
1070
    75
1070
     1
1070
   271
1070
     3
1070
   279
1070
     0
1070
    74
1070
     0
1002
}
  0
DIMENSION
  5
3C2
330
30
100
AcDbEntity
  8
SK2
100
AcDbDimension
  2
*D2
 10
1.953987871164999
 20
-16.0
 30
0.0
 11
-9.109012128835001
 21
-16.0
 31
0.0
 70
   160
  1
<>
 71
     5
 42
4.8
  3
STANDARD
100
AcDbAlignedDimension
 13
6.753987871165
 23
-1.7905
 33
0.0
 14
1.953987871165
 24
-1.7905
 34
0.0
100
AcDbRotatedDimension
1001
ACAD
1000
DSTYLE
1002
{
1070
   271
1070
     1
1070
   279
1070
     0
1070
    74
1070
     0
1002
}
  0
DIMENSION
  5
3D0
330
30
100
AcDbEntity
  8
2
100
AcDbDimension
  2
*D3
 10
39.253987871165
 20
-24.0
 30
0.0
 11
63.0
 21
-24.0
 31
0.0
 70
   160
  1
<>
 71
     5
 42
12.7
  3
STANDARD
100
AcDbAlignedDimension
 13
51.953987871165
 23
-1.055
 33
0.0
 14
39.253987871165
 24
-1.3
 34
0.0
100
AcDbRotatedDimension
1001
ACAD
1000
DSTYLE
1002
{
1070
   271
1070
     1
1070
   279
1070
     0
1070
    74
1070
     0
1002
}
1001
ACAD_DSTYLE_DIMFLIPARROW_SYMBOL
1070
   385
1070
     0
1001
ACAD_DSTYLE_DIMFLIPARROW_WHICH_SYMBOL
1070
   386
1070
     3
  0
DIMENSION
  5
3DE
330
30
100
AcDbEntity
  8
2
100
AcDbDimension
  2
*D4
 10
38.253987871165
 20
-32.0
 30
0.0
 11
28.84698787116501
 21
-32.0
 31
0.0
 70
   160
  1
<>
 71
     5
 42
13.7
  3
STANDARD
100
AcDbAlignedDimension
 13
51.953987871165
 23
-1.055
 33
0.0
 14
38.253987871165
 24
-1.3
 34
0.0
100
AcDbRotatedDimension
1001
ACAD
1000
DSTYLE
1002
{
1070
   271
1070
     1
1070
   279
1070
     0
1070
    74
1070
     0
1002
}
1001
ACAD_DSTYLE_DIMFLIPARROW_SYMBOL
1070
   385
1070
     0
1001
ACAD_DSTYLE_DIMFLIPARROW_WHICH_SYMBOL
1070
   386
1070
     3
  0
DIMENSION
  5
3EC
330
30
100
AcDbEntity
  8
2
100
AcDbDimension
  2
*D5
 10
21.105318339793
 20
35.0
 30
0.0
 11
37.105318339793
 21
35.0
 31
0.0
 70
   160
  1
<>
 71
     5
 42
32.0
  3
STANDARD
100
AcDbAlignedDimension
 13
53.105318339793
 23
0.0
 33
0.0
 14
21.105318339793
 24
1.7905
 34
0.0
100
AcDbRotatedDimension
1001
ACAD
1000
DSTYLE
1002
{
1070
   271
1070
     0
1070
   279
1070
     0
1070
    74
1070
     0
1002
}
  0
LINE
  5
36
330
30
100
AcDbEntity
  8
1
100
AcDbLine
 10
21.105318339793
 20
1.7905
 30
0.0
 11
21.105318339793
 21
-1.7905
 31
0.0
  0
LINE
  5
37
330
30
100
AcDbEntity
  8
1
100
AcDbLine
 10
21.105318339793
 20
-1.7905
 30
0.0
 11
33.254177508097
 21
-1.7905
 31
0.0
  0
LINE
  5
38
330
30
100
AcDbEntity
  8
1
100
AcDbLine
 10
33.254177508097
 20
-1.7905
 30
0.0
 11
38.253987871165
 21
-1.3
 31
0.0
  0
LINE
  5
39
330
30
100
AcDbEntity
  8
1
100
AcDbLine
 10
38.253987871165
 20
-1.3
 30
0.0
 11
39.253987871165
 21
-1.3
 31
0.0
  0
LINE
  5
3A
330
30
100
AcDbEntity
  8
1
100
AcDbLine
 10
39.253987871165
 20
-1.3
 30
0.0
 11
50.153987871165
 21
-1.3
 31
0.0
  0
LINE
  5
3B
330
30
100
AcDbEntity
  8
1
100
AcDbLine
 10
50.153987871165
 20
-1.3
 30
0.0
 11
51.953987871165
 21
-1.055
 31
0.0
  0
LINE
  5
3C
330
30
100
AcDbEntity
  8
1
100
AcDbLine
 10
51.953987871165
 20
-1.055
 30
0.0
 11
53.105318339793
 21
0.0
 31
0.0
  0
LINE
  5
3D
330
30
100
AcDbEntity
  8
1
100
AcDbLine
 10
53.105318339793
 20
0.0
 30
0.0
 11
51.953987871165
 21
1.055
 31
0.0
  0
LINE
  5
3E
330
30
100
AcDbEntity
  8
1
100
AcDbLine
 10
51.953987871165
 20
1.055
 30
0.0
 11
50.153987871165
 21
1.3
 31
0.0
  0
LINE
  5
3F
330
30
100
AcDbEntity
  8
1
100
AcDbLine
 10
50.153987871165
 20
1.3
 30
0.0
 11
39.253987871165
 21
1.3
 31
0.0
  0
LINE
  5
40
330
30
100
AcDbEntity
  8
1
100
AcDbLine
 10
39.253987871165
 20
1.3
 30
0.0
 11
38.253987871165
 21
1.3
 31
0.0
  0
LINE
  5
41
330
30
100
AcDbEntity
  8
1
100
AcDbLine
 10
38.253987871165
 20
1.3
 30
0.0
 11
33.254177508097
 21
1.7905
 31
0.0
  0
LINE
  5
42
330
30
100
AcDbEntity
  8
1
100
AcDbLine
 10
33.254177508097
 20
1.7905
 30
0.0
 11
21.105318339793
 21
1.7905
 31
0.0
  0
LINE
  5
43
330
30
100
AcDbEntity
  8
1
100
AcDbLine
 10
51.953987871165
 20
-1.055
 30
0.0
 11
51.953987871165
 21
1.055
 31
0.0
  0
LINE
  5
44
330
30
100
AcDbEntity
  8
1
100
AcDbLine
 10
50.153987871165
 20
1.3
 30
0.0
 11
50.153987871165
 21
-1.3
 31
0.0
  0
LINE
  5
45
330
30
100
AcDbEntity
  8
1
100
AcDbLine
 10
50.135318339793
 20
-1.3
 30
0.0
 11
50.069318339793
 21
-1.3
 31
0.0
  0
LINE
  5
46
330
30
100
AcDbEntity
  8
1
100
AcDbLine
 10
50.069318339793
 20
-1.3
 30
0.0
 11
50.003318339793
 21
-1.3
 31
0.0
  0
LINE
  5
47
330
30
100
AcDbEntity
  8
1
100
AcDbLine
 10
50.003318339793
 20
-1.3
 30
0.0
 11
49.937318339793
 21
-1.3
 31
0.0
  0
LINE
  5
48
330
30
100
AcDbEntity
  8
1
100
AcDbLine
 10
49.937318339793
 20
-1.3
 30
0.0
 11
49.871318339793
 21
-1.3
 31
0.0
  0
LINE
  5
49
330
30
100
AcDbEntity
  8
1
100
AcDbLine
 10
49.871318339793
 20
-1.3
 30
0.0
 11
49.805318339793
 21
-1.3
 31
0.0
  0
LINE
  5
4A
330
30
100
AcDbEntity
  8
1
100
AcDbLine
 10
49.805318339793
 20
-1.3
 30
0.0
 11
49.739318339793
 21
-1.3
 31
0.0
  0
LINE
  5
4B
330
30
100
AcDbEntity
  8
1
100
AcDbLine
 10
49.739318339793
 20
-1.3
 30
0.0
 11
49.673318339793
 21
-1.3
 31
0.0
  0
LINE
  5
4C
330
30
100
AcDbEntity
  8
1
100
AcDbLine
 10
49.673318339793
 20
-1.3
 30
0.0
 11
49.607318339793
 21
-1.3
 31
0.0
  0
LINE
  5
4D
330
30
100
AcDbEntity
  8
1
100
AcDbLine
 10
49.607318339793
 20
-1.3
 30
0.0
 11
49.541318339793
 21
-1.3
 31
0.0
  0
LINE
  5
4E
330
30
100
AcDbEntity
  8
1
100
AcDbLine
 10
49.541318339793
 20
-1.3
 30
0.0
 11
49.475318339793
 21
-1.3
 31
0.0
  0
LINE
  5
4F
330
30
100
AcDbEntity
  8
1
100
AcDbLine
 10
49.475318339793
 20
-1.3
 30
0.0
 11
49.409318339793
 21
-1.3
 31
0.0
  0
LINE
  5
50
330
30
100
AcDbEntity
  8
1
100
AcDbLine
 10
49.409318339793
 20
-1.3
 30
0.0
 11
49.343318339793
 21
-1.3
 31
0.0
  0
LINE
  5
51
330
30
100
AcDbEntity
  8
1
100
AcDbLine
 10
49.343318339793
 20
-1.3
 30
0.0
 11
49.277318339793
 21
-1.3
 31
0.0
  0
LINE
  5
52
330
30
100
AcDbEntity
  8
1
100
AcDbLine
 10
49.277318339793
 20
-1.3
 30
0.0
 11
49.211318339793
 21
-1.3
 31
0.0
  0
LINE
  5
53
330
30
100
AcDbEntity
  8
1
100
AcDbLine
 10
49.211318339793
 20
-1.3
 30
0.0
 11
49.145318339793
 21
-1.3
 31
0.0
  0
LINE
  5
54
330
30
100
AcDbEntity
  8
1
100
AcDbLine
 10
49.145318339793
 20
-1.3
 30
0.0
 11
49.079318339793
 21
-1.3
 31
0.0
  0
LINE
  5
55
330
30
100
AcDbEntity
  8
1
100
AcDbLine
 10
49.079318339793
 20
-1.3
 30
0.0
 11
49.013318339793
 21
-1.3
 31
0.0
  0
LINE
  5
56
330
30
100
AcDbEntity
  8
1
100
AcDbLine
 10
49.013318339793
 20
-1.3
 30
0.0
 11
48.947318339793
 21
-1.3
 31
0.0
  0
LINE
  5
57
330
30
100
AcDbEntity
  8
1
100
AcDbLine
 10
48.947318339793
 20
-1.3
 30
0.0
 11
48.881318339793
 21
-1.3
 31
0.0
  0
LINE
  5
58
330
30
100
AcDbEntity
  8
1
100
AcDbLine
 10
48.881318339793
 20
-1.3
 30
0.0
 11
48.815318339793
 21
-1.3
 31
0.0
  0
LINE
  5
59
330
30
100
AcDbEntity
  8
1
100
AcDbLine
 10
48.815318339793
 20
-1.3
 30
0.0
 11
48.749318339793
 21
-1.3
 31
0.0
  0
LINE
  5
5A
330
30
100
AcDbEntity
  8
1
100
AcDbLine
 10
48.749318339793
 20
-1.3
 30
0.0
 11
48.683318339793
 21
-1.3
 31
0.0
  0
LINE
  5
5B
330
30
100
AcDbEntity
  8
1
100
AcDbLine
 10
48.683318339793
 20
-1.3
 30
0.0
 11
48.617318339793
 21
-1.3
 31
0.0
  0
LINE
  5
5C
330
30
100
AcDbEntity
  8
1
100
AcDbLine
 10
48.617318339793
 20
-1.3
 30
0.0
 11
48.551318339793
 21
-1.3
 31
0.0
  0
LINE
  5
5D
330
30
100
AcDbEntity
  8
1
100
AcDbLine
 10
48.551318339793
 20
-1.3
 30
0.0
 11
48.485318339793
 21
-1.3
 31
0.0
  0
LINE
  5
5E
330
30
100
AcDbEntity
  8
1
100
AcDbLine
 10
48.485318339793
 20
-1.3
 30
0.0
 11
48.419318339793
 21
-1.3
 31
0.0
  0
LINE
  5
5F
330
30
100
AcDbEntity
  8
1
100
AcDbLine
 10
48.419318339793
 20
-1.3
 30
0.0
 11
48.353318339793
 21
-1.3
 31
0.0
  0
LINE
  5
60
330
30
100
AcDbEntity
  8
1
100
AcDbLine
 10
48.353318339793
 20
-1.3
 30
0.0
 11
48.287318339793
 21
-1.3
 31
0.0
  0
LINE
  5
61
330
30
100
AcDbEntity
  8
1
100
AcDbLine
 10
48.287318339793
 20
-1.3
 30
0.0
 11
48.221318339793
 21
-1.3
 31
0.0
  0
LINE
  5
62
330
30
100
AcDbEntity
  8
1
100
AcDbLine
 10
48.221318339793
 20
-1.3
 30
0.0
 11
48.155318339793
 21
-1.3
 31
0.0
  0
LINE
  5
63
330
30
100
AcDbEntity
  8
1
100
AcDbLine
 10
48.155318339793
 20
-1.3
 30
0.0
 11
48.089318339793
 21
-1.3
 31
0.0
  0
LINE
  5
64
330
30
100
AcDbEntity
  8
1
100
AcDbLine
 10
48.089318339793
 20
-1.3
 30
0.0
 11
48.023318339793
 21
-1.3
 31
0.0
  0
LINE
  5
65
330
30
100
AcDbEntity
  8
1
100
AcDbLine
 10
48.023318339793
 20
-1.3
 30
0.0
 11
47.957318339793
 21
-1.3
 31
0.0
  0
LINE
  5
66
330
30
100
AcDbEntity
  8
1
100
AcDbLine
 10
47.957318339793
 20
-1.3
 30
0.0
 11
47.891318339793
 21
-1.3
 31
0.0
  0
LINE
  5
67
330
30
100
AcDbEntity
  8
1
100
AcDbLine
 10
47.891318339793
 20
-1.3
 30
0.0
 11
47.825318339793
 21
-1.3
 31
0.0
  0
LINE
  5
68
330
30
100
AcDbEntity
  8
1
100
AcDbLine
 10
47.825318339793
 20
-1.3
 30
0.0
 11
47.759318339793
 21
-1.3
 31
0.0
  0
LINE
  5
69
330
30
100
AcDbEntity
  8
1
100
AcDbLine
 10
47.759318339793
 20
-1.3
 30
0.0
 11
47.693318339793
 21
-1.3
 31
0.0
  0
LINE
  5
6A
330
30
100
AcDbEntity
  8
1
100
AcDbLine
 10
47.693318339793
 20
-1.3
 30
0.0
 11
47.627318339793
 21
-1.3
 31
0.0
  0
LINE
  5
6B
330
30
100
AcDbEntity
  8
1
100
AcDbLine
 10
47.627318339793
 20
-1.3
 30
0.0
 11
47.561318339793
 21
-1.3
 31
0.0
  0
LINE
  5
6C
330
30
100
AcDbEntity
  8
1
100
AcDbLine
 10
47.561318339793
 20
-1.3
 30
0.0
 11
47.495318339793
 21
-1.3
 31
0.0
  0
LINE
  5
6D
330
30
100
AcDbEntity
  8
1
100
AcDbLine
 10
47.495318339793
 20
-1.3
 30
0.0
 11
47.429318339793
 21
-1.3
 31
0.0
  0
LINE
  5
6E
330
30
100
AcDbEntity
  8
1
100
AcDbLine
 10
47.429318339793
 20
-1.3
 30
0.0
 11
47.363318339793
 21
-1.3
 31
0.0
  0
LINE
  5
6F
330
30
100
AcDbEntity
  8
1
100
AcDbLine
 10
47.363318339793
 20
-1.3
 30
0.0
 11
47.297318339793
 21
-1.3
 31
0.0
  0
LINE
  5
70
330
30
100
AcDbEntity
  8
1
100
AcDbLine
 10
47.297318339793
 20
-1.3
 30
0.0
 11
47.231318339793
 21
-1.3
 31
0.0
  0
LINE
  5
71
330
30
100
AcDbEntity
  8
1
100
AcDbLine
 10
47.231318339793
 20
-1.3
 30
0.0
 11
47.165318339793
 21
-1.3
 31
0.0
  0
LINE
  5
72
330
30
100
AcDbEntity
  8
1
100
AcDbLine
 10
47.165318339793
 20
-1.3
 30
0.0
 11
47.099318339793
 21
-1.3
 31
0.0
  0
LINE
  5
73
330
30
100
AcDbEntity
  8
1
100
AcDbLine
 10
47.099318339793
 20
-1.3
 30
0.0
 11
47.033318339793
 21
-1.3
 31
0.0
  0
LINE
  5
74
330
30
100
AcDbEntity
  8
1
100
AcDbLine
 10
47.033318339793
 20
-1.3
 30
0.0
 11
46.967318339793
 21
-1.3
 31
0.0
  0
LINE
  5
75
330
30
100
AcDbEntity
  8
1
100
AcDbLine
 10
46.967318339793
 20
-1.3
 30
0.0
 11
46.901318339793
 21
-1.3
 31
0.0
  0
LINE
  5
76
330
30
100
AcDbEntity
  8
1
100
AcDbLine
 10
46.901318339793
 20
-1.3
 30
0.0
 11
46.835318339793
 21
-1.3
 31
0.0
  0
LINE
  5
77
330
30
100
AcDbEntity
  8
1
100
AcDbLine
 10
46.835318339793
 20
-1.3
 30
0.0
 11
46.769318339793
 21
-1.3
 31
0.0
  0
LINE
  5
78
330
30
100
AcDbEntity
  8
1
100
AcDbLine
 10
46.769318339793
 20
-1.3
 30
0.0
 11
46.703318339793
 21
-1.3
 31
0.0
  0
LINE
  5
79
330
30
100
AcDbEntity
  8
1
100
AcDbLine
 10
46.703318339793
 20
-1.3
 30
0.0
 11
46.637318339793
 21
-1.3
 31
0.0
  0
LINE
  5
7A
330
30
100
AcDbEntity
  8
1
100
AcDbLine
 10
46.637318339793
 20
-1.3
 30
0.0
 11
46.571318339793
 21
-1.3
 31
0.0
  0
LINE
  5
7B
330
30
100
AcDbEntity
  8
1
100
AcDbLine
 10
46.571318339793
 20
-1.3
 30
0.0
 11
46.505318339793
 21
-1.3
 31
0.0
  0
LINE
  5
7C
330
30
100
AcDbEntity
  8
1
100
AcDbLine
 10
46.505318339793
 20
-1.3
 30
0.0
 11
46.439318339793
 21
-1.3
 31
0.0
  0
LINE
  5
7D
330
30
100
AcDbEntity
  8
1
100
AcDbLine
 10
46.439318339793
 20
-1.3
 30
0.0
 11
46.373318339793
 21
-1.3
 31
0.0
  0
LINE
  5
7E
330
30
100
AcDbEntity
  8
1
100
AcDbLine
 10
46.373318339793
 20
-1.3
 30
0.0
 11
46.307318339793
 21
-1.3
 31
0.0
  0
LINE
  5
7F
330
30
100
AcDbEntity
  8
1
100
AcDbLine
 10
46.307318339793
 20
-1.3
 30
0.0
 11
46.241318339793
 21
-1.3
 31
0.0
  0
LINE
  5
80
330
30
100
AcDbEntity
  8
1
100
AcDbLine
 10
46.241318339793
 20
-1.3
 30
0.0
 11
46.175318339793
 21
-1.3
 31
0.0
  0
LINE
  5
81
330
30
100
AcDbEntity
  8
1
100
AcDbLine
 10
46.175318339793
 20
-1.3
 30
0.0
 11
46.109318339793
 21
-1.3
 31
0.0
  0
LINE
  5
82
330
30
100
AcDbEntity
  8
1
100
AcDbLine
 10
46.109318339793
 20
-1.3
 30
0.0
 11
46.043318339793
 21
-1.3
 31
0.0
  0
LINE
  5
83
330
30
100
AcDbEntity
  8
1
100
AcDbLine
 10
46.043318339793
 20
-1.3
 30
0.0
 11
45.977318339793
 21
-1.3
 31
0.0
  0
LINE
  5
84
330
30
100
AcDbEntity
  8
1
100
AcDbLine
 10
45.977318339793
 20
-1.3
 30
0.0
 11
45.911318339793
 21
-1.3
 31
0.0
  0
LINE
  5
85
330
30
100
AcDbEntity
  8
1
100
AcDbLine
 10
45.911318339793
 20
-1.3
 30
0.0
 11
45.845318339793
 21
-1.3
 31
0.0
  0
LINE
  5
86
330
30
100
AcDbEntity
  8
1
100
AcDbLine
 10
45.845318339793
 20
-1.3
 30
0.0
 11
45.779318339793
 21
-1.3
 31
0.0
  0
LINE
  5
87
330
30
100
AcDbEntity
  8
1
100
AcDbLine
 10
45.779318339793
 20
-1.3
 30
0.0
 11
45.713318339793
 21
-1.3
 31
0.0
  0
LINE
  5
88
330
30
100
AcDbEntity
  8
1
100
AcDbLine
 10
45.713318339793
 20
-1.3
 30
0.0
 11
45.647318339793
 21
-1.3
 31
0.0
  0
LINE
  5
89
330
30
100
AcDbEntity
  8
1
100
AcDbLine
 10
45.647318339793
 20
-1.3
 30
0.0
 11
45.581318339793
 21
-1.3
 31
0.0
  0
LINE
  5
8A
330
30
100
AcDbEntity
  8
1
100
AcDbLine
 10
45.581318339793
 20
-1.3
 30
0.0
 11
45.515318339793
 21
-1.3
 31
0.0
  0
LINE
  5
8B
330
30
100
AcDbEntity
  8
1
100
AcDbLine
 10
45.515318339793
 20
-1.3
 30
0.0
 11
45.449318339793
 21
-1.3
 31
0.0
  0
LINE
  5
8C
330
30
100
AcDbEntity
  8
1
100
AcDbLine
 10
45.449318339793
 20
-1.3
 30
0.0
 11
45.383318339793
 21
-1.3
 31
0.0
  0
LINE
  5
8D
330
30
100
AcDbEntity
  8
1
100
AcDbLine
 10
45.383318339793
 20
-1.3
 30
0.0
 11
45.317318339793
 21
-1.3
 31
0.0
  0
LINE
  5
8E
330
30
100
AcDbEntity
  8
1
100
AcDbLine
 10
45.317318339793
 20
-1.3
 30
0.0
 11
45.251318339793
 21
-1.3
 31
0.0
  0
LINE
  5
8F
330
30
100
AcDbEntity
  8
1
100
AcDbLine
 10
45.251318339793
 20
-1.3
 30
0.0
 11
45.185318339793
 21
-1.3
 31
0.0
  0
LINE
  5
90
330
30
100
AcDbEntity
  8
1
100
AcDbLine
 10
45.185318339793
 20
-1.3
 30
0.0
 11
45.119318339793
 21
-1.3
 31
0.0
  0
LINE
  5
91
330
30
100
AcDbEntity
  8
1
100
AcDbLine
 10
45.119318339793
 20
-1.3
 30
0.0
 11
45.053318339793
 21
-1.3
 31
0.0
  0
LINE
  5
92
330
30
100
AcDbEntity
  8
1
100
AcDbLine
 10
45.053318339793
 20
-1.3
 30
0.0
 11
44.987318339793
 21
-1.3
 31
0.0
  0
LINE
  5
93
330
30
100
AcDbEntity
  8
1
100
AcDbLine
 10
44.987318339793
 20
-1.3
 30
0.0
 11
44.921318339793
 21
-1.3
 31
0.0
  0
LINE
  5
94
330
30
100
AcDbEntity
  8
1
100
AcDbLine
 10
44.921318339793
 20
-1.3
 30
0.0
 11
44.855318339793
 21
-1.3
 31
0.0
  0
LINE
  5
95
330
30
100
AcDbEntity
  8
1
100
AcDbLine
 10
44.855318339793
 20
-1.3
 30
0.0
 11
44.789318339793
 21
-1.3
 31
0.0
  0
LINE
  5
96
330
30
100
AcDbEntity
  8
1
100
AcDbLine
 10
44.789318339793
 20
-1.3
 30
0.0
 11
44.723318339793
 21
-1.3
 31
0.0
  0
LINE
  5
97
330
30
100
AcDbEntity
  8
1
100
AcDbLine
 10
44.723318339793
 20
-1.3
 30
0.0
 11
44.657318339793
 21
-1.3
 31
0.0
  0
LINE
  5
98
330
30
100
AcDbEntity
  8
1
100
AcDbLine
 10
44.657318339793
 20
-1.3
 30
0.0
 11
44.591318339793
 21
-1.3
 31
0.0
  0
LINE
  5
99
330
30
100
AcDbEntity
  8
1
100
AcDbLine
 10
44.591318339793
 20
-1.3
 30
0.0
 11
44.525318339793
 21
-1.3
 31
0.0
  0
LINE
  5
9A
330
30
100
AcDbEntity
  8
1
100
AcDbLine
 10
44.525318339793
 20
-1.3
 30
0.0
 11
44.459318339793
 21
-1.3
 31
0.0
  0
LINE
  5
9B
330
30
100
AcDbEntity
  8
1
100
AcDbLine
 10
44.459318339793
 20
-1.3
 30
0.0
 11
44.393318339793
 21
-1.3
 31
0.0
  0
LINE
  5
9C
330
30
100
AcDbEntity
  8
1
100
AcDbLine
 10
44.393318339793
 20
-1.3
 30
0.0
 11
44.327318339793
 21
-1.3
 31
0.0
  0
LINE
  5
9D
330
30
100
AcDbEntity
  8
1
100
AcDbLine
 10
44.327318339793
 20
-1.3
 30
0.0
 11
44.261318339793
 21
-1.3
 31
0.0
  0
LINE
  5
9E
330
30
100
AcDbEntity
  8
1
100
AcDbLine
 10
44.261318339793
 20
-1.3
 30
0.0
 11
44.195318339793
 21
-1.3
 31
0.0
  0
LINE
  5
9F
330
30
100
AcDbEntity
  8
1
100
AcDbLine
 10
44.195318339793
 20
-1.3
 30
0.0
 11
44.129318339793
 21
-1.3
 31
0.0
  0
LINE
  5
A0
330
30
100
AcDbEntity
  8
1
100
AcDbLine
 10
44.129318339793
 20
-1.3
 30
0.0
 11
44.063318339793
 21
-1.3
 31
0.0
  0
LINE
  5
A1
330
30
100
AcDbEntity
  8
1
100
AcDbLine
 10
44.063318339793
 20
-1.3
 30
0.0
 11
43.997318339793
 21
-1.3
 31
0.0
  0
LINE
  5
A2
330
30
100
AcDbEntity
  8
1
100
AcDbLine
 10
43.997318339793
 20
-1.3
 30
0.0
 11
43.931318339793
 21
-1.3
 31
0.0
  0
LINE
  5
A3
330
30
100
AcDbEntity
  8
1
100
AcDbLine
 10
43.931318339793
 20
-1.3
 30
0.0
 11
43.865318339793
 21
-1.3
 31
0.0
  0
LINE
  5
A4
330
30
100
AcDbEntity
  8
1
100
AcDbLine
 10
43.865318339793
 20
-1.3
 30
0.0
 11
43.799318339793
 21
-1.3
 31
0.0
  0
LINE
  5
A5
330
30
100
AcDbEntity
  8
1
100
AcDbLine
 10
43.799318339793
 20
-1.3
 30
0.0
 11
43.733318339793
 21
-1.3
 31
0.0
  0
LINE
  5
A6
330
30
100
AcDbEntity
  8
1
100
AcDbLine
 10
43.733318339793
 20
-1.3
 30
0.0
 11
43.667318339793
 21
-1.3
 31
0.0
  0
LINE
  5
A7
330
30
100
AcDbEntity
  8
1
100
AcDbLine
 10
43.667318339793
 20
-1.3
 30
0.0
 11
43.601318339793
 21
-1.3
 31
0.0
  0
LINE
  5
A8
330
30
100
AcDbEntity
  8
1
100
AcDbLine
 10
43.601318339793
 20
-1.3
 30
0.0
 11
43.535318339793
 21
-1.3
 31
0.0
  0
LINE
  5
A9
330
30
100
AcDbEntity
  8
1
100
AcDbLine
 10
43.535318339793
 20
-1.3
 30
0.0
 11
43.469318339793
 21
-1.3
 31
0.0
  0
LINE
  5
AA
330
30
100
AcDbEntity
  8
1
100
AcDbLine
 10
43.469318339793
 20
-1.3
 30
0.0
 11
43.403318339793
 21
-1.3
 31
0.0
  0
LINE
  5
AB
330
30
100
AcDbEntity
  8
1
100
AcDbLine
 10
43.403318339793
 20
-1.3
 30
0.0
 11
43.337318339793
 21
-1.3
 31
0.0
  0
LINE
  5
AC
330
30
100
AcDbEntity
  8
1
100
AcDbLine
 10
43.337318339793
 20
-1.3
 30
0.0
 11
43.271318339793
 21
-1.3
 31
0.0
  0
LINE
  5
AD
330
30
100
AcDbEntity
  8
1
100
AcDbLine
 10
43.271318339793
 20
-1.3
 30
0.0
 11
43.205318339793
 21
-1.3
 31
0.0
  0
LINE
  5
AE
330
30
100
AcDbEntity
  8
1
100
AcDbLine
 10
43.205318339793
 20
-1.3
 30
0.0
 11
43.139318339793
 21
-1.3
 31
0.0
  0
LINE
  5
AF
330
30
100
AcDbEntity
  8
1
100
AcDbLine
 10
43.139318339793
 20
-1.3
 30
0.0
 11
43.073318339793
 21
-1.3
 31
0.0
  0
LINE
  5
B0
330
30
100
AcDbEntity
  8
1
100
AcDbLine
 10
43.073318339793
 20
-1.3
 30
0.0
 11
43.007318339793
 21
-1.3
 31
0.0
  0
LINE
  5
B1
330
30
100
AcDbEntity
  8
1
100
AcDbLine
 10
43.007318339793
 20
-1.3
 30
0.0
 11
42.941318339793
 21
-1.3
 31
0.0
  0
LINE
  5
B2
330
30
100
AcDbEntity
  8
1
100
AcDbLine
 10
42.941318339793
 20
-1.3
 30
0.0
 11
42.875318339793
 21
-1.3
 31
0.0
  0
LINE
  5
B3
330
30
100
AcDbEntity
  8
1
100
AcDbLine
 10
42.875318339793
 20
-1.3
 30
0.0
 11
42.809318339793
 21
-1.3
 31
0.0
  0
LINE
  5
B4
330
30
100
AcDbEntity
  8
1
100
AcDbLine
 10
42.809318339793
 20
-1.3
 30
0.0
 11
42.743318339793
 21
-1.3
 31
0.0
  0
LINE
  5
B5
330
30
100
AcDbEntity
  8
1
100
AcDbLine
 10
42.743318339793
 20
-1.3
 30
0.0
 11
42.677318339793
 21
-1.3
 31
0.0
  0
LINE
  5
B6
330
30
100
AcDbEntity
  8
1
100
AcDbLine
 10
42.677318339793
 20
-1.3
 30
0.0
 11
42.611318339793
 21
-1.3
 31
0.0
  0
LINE
  5
B7
330
30
100
AcDbEntity
  8
1
100
AcDbLine
 10
42.611318339793
 20
-1.3
 30
0.0
 11
42.545318339793
 21
-1.3
 31
0.0
  0
LINE
  5
B8
330
30
100
AcDbEntity
  8
1
100
AcDbLine
 10
42.545318339793
 20
-1.3
 30
0.0
 11
42.479318339793
 21
-1.3
 31
0.0
  0
LINE
  5
B9
330
30
100
AcDbEntity
  8
1
100
AcDbLine
 10
42.479318339793
 20
-1.3
 30
0.0
 11
42.413318339793
 21
-1.3
 31
0.0
  0
LINE
  5
BA
330
30
100
AcDbEntity
  8
1
100
AcDbLine
 10
42.413318339793
 20
-1.3
 30
0.0
 11
42.347318339793
 21
-1.3
 31
0.0
  0
LINE
  5
BB
330
30
100
AcDbEntity
  8
1
100
AcDbLine
 10
42.347318339793
 20
-1.3
 30
0.0
 11
42.281318339793
 21
-1.3
 31
0.0
  0
LINE
  5
BC
330
30
100
AcDbEntity
  8
1
100
AcDbLine
 10
42.281318339793
 20
-1.3
 30
0.0
 11
42.215318339793
 21
-1.3
 31
0.0
  0
LINE
  5
BD
330
30
100
AcDbEntity
  8
1
100
AcDbLine
 10
42.215318339793
 20
-1.3
 30
0.0
 11
42.149318339793
 21
-1.3
 31
0.0
  0
LINE
  5
BE
330
30
100
AcDbEntity
  8
1
100
AcDbLine
 10
42.149318339793
 20
-1.3
 30
0.0
 11
42.083318339793
 21
-1.3
 31
0.0
  0
LINE
  5
BF
330
30
100
AcDbEntity
  8
1
100
AcDbLine
 10
42.083318339793
 20
-1.3
 30
0.0
 11
42.017318339793
 21
-1.3
 31
0.0
  0
LINE
  5
C0
330
30
100
AcDbEntity
  8
1
100
AcDbLine
 10
42.017318339793
 20
-1.3
 30
0.0
 11
41.951318339793
 21
-1.3
 31
0.0
  0
LINE
  5
C1
330
30
100
AcDbEntity
  8
1
100
AcDbLine
 10
41.951318339793
 20
-1.3
 30
0.0
 11
41.885318339793
 21
-1.3
 31
0.0
  0
LINE
  5
C2
330
30
100
AcDbEntity
  8
1
100
AcDbLine
 10
41.885318339793
 20
-1.3
 30
0.0
 11
41.819318339793
 21
-1.3
 31
0.0
  0
LINE
  5
C3
330
30
100
AcDbEntity
  8
1
100
AcDbLine
 10
41.819318339793
 20
-1.3
 30
0.0
 11
41.753318339793
 21
-1.3
 31
0.0
  0
LINE
  5
C4
330
30
100
AcDbEntity
  8
1
100
AcDbLine
 10
41.753318339793
 20
-1.3
 30
0.0
 11
41.687318339793
 21
-1.3
 31
0.0
  0
LINE
  5
C5
330
30
100
AcDbEntity
  8
1
100
AcDbLine
 10
41.687318339793
 20
-1.3
 30
0.0
 11
41.621318339793
 21
-1.3
 31
0.0
  0
LINE
  5
C6
330
30
100
AcDbEntity
  8
1
100
AcDbLine
 10
41.621318339793
 20
-1.3
 30
0.0
 11
41.555318339793
 21
-1.3
 31
0.0
  0
LINE
  5
C7
330
30
100
AcDbEntity
  8
1
100
AcDbLine
 10
41.555318339793
 20
-1.3
 30
0.0
 11
41.489318339793
 21
-1.3
 31
0.0
  0
LINE
  5
C8
330
30
100
AcDbEntity
  8
1
100
AcDbLine
 10
41.489318339793
 20
-1.3
 30
0.0
 11
41.423318339793
 21
-1.3
 31
0.0
  0
LINE
  5
C9
330
30
100
AcDbEntity
  8
1
100
AcDbLine
 10
41.423318339793
 20
-1.3
 30
0.0
 11
41.357318339793
 21
-1.3
 31
0.0
  0
LINE
  5
CA
330
30
100
AcDbEntity
  8
1
100
AcDbLine
 10
41.357318339793
 20
-1.3
 30
0.0
 11
41.291318339793
 21
-1.3
 31
0.0
  0
LINE
  5
CB
330
30
100
AcDbEntity
  8
1
100
AcDbLine
 10
41.291318339793
 20
-1.3
 30
0.0
 11
41.225318339793
 21
-1.3
 31
0.0
  0
LINE
  5
CC
330
30
100
AcDbEntity
  8
1
100
AcDbLine
 10
41.225318339793
 20
-1.3
 30
0.0
 11
41.159318339793
 21
-1.3
 31
0.0
  0
LINE
  5
CD
330
30
100
AcDbEntity
  8
1
100
AcDbLine
 10
41.159318339793
 20
-1.3
 30
0.0
 11
41.093318339793
 21
-1.3
 31
0.0
  0
LINE
  5
CE
330
30
100
AcDbEntity
  8
1
100
AcDbLine
 10
41.093318339793
 20
-1.3
 30
0.0
 11
41.027318339793
 21
-1.3
 31
0.0
  0
LINE
  5
CF
330
30
100
AcDbEntity
  8
1
100
AcDbLine
 10
41.027318339793
 20
-1.3
 30
0.0
 11
40.961318339793
 21
-1.3
 31
0.0
  0
LINE
  5
D0
330
30
100
AcDbEntity
  8
1
100
AcDbLine
 10
40.961318339793
 20
-1.3
 30
0.0
 11
40.895318339793
 21
-1.3
 31
0.0
  0
LINE
  5
D1
330
30
100
AcDbEntity
  8
1
100
AcDbLine
 10
40.895318339793
 20
-1.3
 30
0.0
 11
40.829318339793
 21
-1.3
 31
0.0
  0
LINE
  5
D2
330
30
100
AcDbEntity
  8
1
100
AcDbLine
 10
40.829318339793
 20
-1.3
 30
0.0
 11
40.763318339793
 21
-1.3
 31
0.0
  0
LINE
  5
D3
330
30
100
AcDbEntity
  8
1
100
AcDbLine
 10
40.763318339793
 20
-1.3
 30
0.0
 11
40.697318339793
 21
-1.3
 31
0.0
  0
LINE
  5
D4
330
30
100
AcDbEntity
  8
1
100
AcDbLine
 10
40.697318339793
 20
-1.3
 30
0.0
 11
40.631318339793
 21
-1.3
 31
0.0
  0
LINE
  5
D5
330
30
100
AcDbEntity
  8
1
100
AcDbLine
 10
40.631318339793
 20
-1.3
 30
0.0
 11
40.565318339793
 21
-1.3
 31
0.0
  0
LINE
  5
D6
330
30
100
AcDbEntity
  8
1
100
AcDbLine
 10
40.565318339793
 20
-1.3
 30
0.0
 11
40.499318339793
 21
-1.3
 31
0.0
  0
LINE
  5
D7
330
30
100
AcDbEntity
  8
1
100
AcDbLine
 10
40.499318339793
 20
-1.3
 30
0.0
 11
40.433318339793
 21
-1.3
 31
0.0
  0
LINE
  5
D8
330
30
100
AcDbEntity
  8
1
100
AcDbLine
 10
40.433318339793
 20
-1.3
 30
0.0
 11
40.367318339793
 21
-1.3
 31
0.0
  0
LINE
  5
D9
330
30
100
AcDbEntity
  8
1
100
AcDbLine
 10
40.367318339793
 20
-1.3
 30
0.0
 11
40.301318339793
 21
-1.3
 31
0.0
  0
LINE
  5
DA
330
30
100
AcDbEntity
  8
1
100
AcDbLine
 10
40.301318339793
 20
-1.3
 30
0.0
 11
40.235318339793
 21
-1.3
 31
0.0
  0
LINE
  5
DB
330
30
100
AcDbEntity
  8
1
100
AcDbLine
 10
40.235318339793
 20
-1.3
 30
0.0
 11
40.169318339793
 21
-1.3
 31
0.0
  0
LINE
  5
DC
330
30
100
AcDbEntity
  8
1
100
AcDbLine
 10
40.169318339793
 20
-1.3
 30
0.0
 11
40.103318339793
 21
-1.3
 31
0.0
  0
LINE
  5
DD
330
30
100
AcDbEntity
  8
1
100
AcDbLine
 10
40.103318339793
 20
-1.3
 30
0.0
 11
40.037318339793
 21
-1.3
 31
0.0
  0
LINE
  5
DE
330
30
100
AcDbEntity
  8
1
100
AcDbLine
 10
40.037318339793
 20
-1.3
 30
0.0
 11
39.971318339793
 21
-1.3
 31
0.0
  0
LINE
  5
DF
330
30
100
AcDbEntity
  8
1
100
AcDbLine
 10
39.971318339793
 20
-1.3
 30
0.0
 11
39.905318339793
 21
-1.3
 31
0.0
  0
LINE
  5
E0
330
30
100
AcDbEntity
  8
1
100
AcDbLine
 10
39.905318339793
 20
-1.3
 30
0.0
 11
39.839318339793
 21
-1.3
 31
0.0
  0
LINE
  5
E1
330
30
100
AcDbEntity
  8
1
100
AcDbLine
 10
39.839318339793
 20
-1.3
 30
0.0
 11
39.773318339793
 21
-1.3
 31
0.0
  0
LINE
  5
E2
330
30
100
AcDbEntity
  8
1
100
AcDbLine
 10
39.773318339793
 20
-1.3
 30
0.0
 11
39.707318339793
 21
-1.3
 31
0.0
  0
LINE
  5
E3
330
30
100
AcDbEntity
  8
1
100
AcDbLine
 10
39.707318339793
 20
-1.3
 30
0.0
 11
39.641318339793
 21
-1.3
 31
0.0
  0
LINE
  5
E4
330
30
100
AcDbEntity
  8
1
100
AcDbLine
 10
39.641318339793
 20
-1.3
 30
0.0
 11
39.575318339793
 21
-1.3
 31
0.0
  0
LINE
  5
E5
330
30
100
AcDbEntity
  8
1
100
AcDbLine
 10
39.575318339793
 20
-1.3
 30
0.0
 11
39.509318339793
 21
-1.3
 31
0.0
  0
LINE
  5
E6
330
30
100
AcDbEntity
  8
1
100
AcDbLine
 10
39.509318339793
 20
-1.3
 30
0.0
 11
39.443318339793
 21
-1.3
 31
0.0
  0
LINE
  5
E7
330
30
100
AcDbEntity
  8
1
100
AcDbLine
 10
39.443318339793
 20
-1.3
 30
0.0
 11
39.377318339793
 21
-1.3
 31
0.0
  0
LINE
  5
E8
330
30
100
AcDbEntity
  8
1
100
AcDbLine
 10
39.377318339793
 20
-1.3
 30
0.0
 11
39.311318339793
 21
-1.3
 31
0.0
  0
LINE
  5
E9
330
30
100
AcDbEntity
  8
1
100
AcDbLine
 10
39.311318339793
 20
-1.3
 30
0.0
 11
39.245318339793
 21
-1.3
 31
0.0
  0
LINE
  5
EA
330
30
100
AcDbEntity
  8
1
100
AcDbLine
 10
39.245318339793
 20
-1.3
 30
0.0
 11
39.179318339793
 21
-1.3
 31
0.0
  0
LINE
  5
EB
330
30
100
AcDbEntity
  8
1
100
AcDbLine
 10
39.179318339793
 20
-1.3
 30
0.0
 11
39.113318339793
 21
-1.3
 31
0.0
  0
LINE
  5
EC
330
30
100
AcDbEntity
  8
1
100
AcDbLine
 10
39.113318339793
 20
-1.3
 30
0.0
 11
39.047318339793
 21
-1.3
 31
0.0
  0
LINE
  5
ED
330
30
100
AcDbEntity
  8
1
100
AcDbLine
 10
39.047318339793
 20
-1.3
 30
0.0
 11
38.981318339793
 21
-1.3
 31
0.0
  0
LINE
  5
EE
330
30
100
AcDbEntity
  8
1
100
AcDbLine
 10
38.981318339793
 20
-1.3
 30
0.0
 11
38.915318339793
 21
-1.3
 31
0.0
  0
LINE
  5
EF
330
30
100
AcDbEntity
  8
1
100
AcDbLine
 10
38.915318339793
 20
-1.3
 30
0.0
 11
38.849318339793
 21
-1.3
 31
0.0
  0
LINE
  5
F0
330
30
100
AcDbEntity
  8
1
100
AcDbLine
 10
38.849318339793
 20
-1.3
 30
0.0
 11
38.783318339793
 21
-1.3
 31
0.0
  0
LINE
  5
F1
330
30
100
AcDbEntity
  8
1
100
AcDbLine
 10
38.783318339793
 20
-1.3
 30
0.0
 11
38.717318339793
 21
-1.3
 31
0.0
  0
LINE
  5
F2
330
30
100
AcDbEntity
  8
1
100
AcDbLine
 10
38.717318339793
 20
-1.3
 30
0.0
 11
38.651318339793
 21
-1.3
 31
0.0
  0
LINE
  5
F3
330
30
100
AcDbEntity
  8
1
100
AcDbLine
 10
38.651318339793
 20
-1.3
 30
0.0
 11
38.585318339793
 21
-1.3
 31
0.0
  0
LINE
  5
F4
330
30
100
AcDbEntity
  8
1
100
AcDbLine
 10
38.585318339793
 20
-1.3
 30
0.0
 11
38.519318339793
 21
-1.3
 31
0.0
  0
LINE
  5
F5
330
30
100
AcDbEntity
  8
1
100
AcDbLine
 10
38.519318339793
 20
-1.3
 30
0.0
 11
38.453318339793
 21
-1.3
 31
0.0
  0
LINE
  5
F6
330
30
100
AcDbEntity
  8
1
100
AcDbLine
 10
38.453318339793
 20
-1.3
 30
0.0
 11
38.387318339793
 21
-1.3
 31
0.0
  0
LINE
  5
F7
330
30
100
AcDbEntity
  8
1
100
AcDbLine
 10
38.387318339793
 20
-1.3
 30
0.0
 11
38.321318339793
 21
-1.3
 31
0.0
  0
LINE
  5
F8
330
30
100
AcDbEntity
  8
1
100
AcDbLine
 10
38.321318339793
 20
-1.3
 30
0.0
 11
38.255318339793
 21
-1.3
 31
0.0
  0
LINE
  5
F9
330
30
100
AcDbEntity
  8
1
100
AcDbLine
 10
38.255318339793
 20
-1.3
 30
0.0
 11
38.189318339793
 21
-1.306344246323
 31
0.0
  0
LINE
  5
FA
330
30
100
AcDbEntity
  8
1
100
AcDbLine
 10
38.189318339793
 20
-1.306344246323
 30
0.0
 11
38.123318339793
 21
-1.312818861204
 31
0.0
  0
LINE
  5
FB
330
30
100
AcDbEntity
  8
1
100
AcDbLine
 10
38.123318339793
 20
-1.312818861204
 30
0.0
 11
38.057318339793
 21
-1.319293322988
 31
0.0
  0
LINE
  5
FC
330
30
100
AcDbEntity
  8
1
100
AcDbLine
 10
38.057318339793
 20
-1.319293322988
 30
0.0
 11
37.991318339793
 21
-1.325767633929
 31
0.0
  0
LINE
  5
FD
330
30
100
AcDbEntity
  8
1
100
AcDbLine
 10
37.991318339793
 20
-1.325767633929
 30
0.0
 11
37.925318339793
 21
-1.332241796236
 31
0.0
  0
LINE
  5
FE
330
30
100
AcDbEntity
  8
1
100
AcDbLine
 10
37.925318339793
 20
-1.332241796236
 30
0.0
 11
37.859318339793
 21
-1.338715812076
 31
0.0
  0
LINE
  5
FF
330
30
100
AcDbEntity
  8
1
100
AcDbLine
 10
37.859318339793
 20
-1.338715812076
 30
0.0
 11
37.793318339793
 21
-1.345189683574
 31
0.0
  0
LINE
  5
100
330
30
100
AcDbEntity
  8
1
100
AcDbLine
 10
37.793318339793
 20
-1.345189683574
 30
0.0
 11
37.727318339793
 21
-1.351663412813
 31
0.0
  0
LINE
  5
101
330
30
100
AcDbEntity
  8
1
100
AcDbLine
 10
37.727318339793
 20
-1.351663412813
 30
0.0
 11
37.661318339793
 21
-1.358137001837
 31
0.0
  0
LINE
  5
102
330
30
100
AcDbEntity
  8
1
100
AcDbLine
 10
37.661318339793
 20
-1.358137001837
 30
0.0
 11
37.595318339793
 21
-1.364610452651
 31
0.0
  0
LINE
  5
103
330
30
100
AcDbEntity
  8
1
100
AcDbLine
 10
37.595318339793
 20
-1.364610452651
 30
0.0
 11
37.529318339793
 21
-1.371083767222
 31
0.0
  0
LINE
  5
104
330
30
100
AcDbEntity
  8
1
100
AcDbLine
 10
37.529318339793
 20
-1.371083767222
 30
0.0
 11
37.463318339793
 21
-1.377556947479
 31
0.0
  0
LINE
  5
105
330
30
100
AcDbEntity
  8
1
100
AcDbLine
 10
37.463318339793
 20
-1.377556947479
 30
0.0
 11
37.397318339793
 21
-1.384029995316
 31
0.0
  0
LINE
  5
106
330
30
100
AcDbEntity
  8
1
100
AcDbLine
 10
37.397318339793
 20
-1.384029995316
 30
0.0
 11
37.331318339793
 21
-1.39050291259
 31
0.0
  0
LINE
  5
107
330
30
100
AcDbEntity
  8
1
100
AcDbLine
 10
37.331318339793
 20
-1.39050291259
 30
0.0
 11
37.265318339793
 21
-1.396975701124
 31
0.0
  0
LINE
  5
108
330
30
100
AcDbEntity
  8
1
100
AcDbLine
 10
37.265318339793
 20
-1.396975701124
 30
0.0
 11
37.199318339793
 21
-1.403448362708
 31
0.0
  0
LINE
  5
109
330
30
100
AcDbEntity
  8
1
100
AcDbLine
 10
37.199318339793
 20
-1.403448362708
 30
0.0
 11
37.133318339793
 21
-1.409920899098
 31
0.0
  0
LINE
  5
10A
330
30
100
AcDbEntity
  8
1
100
AcDbLine
 10
37.133318339793
 20
-1.409920899098
 30
0.0
 11
37.067318339793
 21
-1.416393312018
 31
0.0
  0
LINE
  5
10B
330
30
100
AcDbEntity
  8
1
100
AcDbLine
 10
37.067318339793
 20
-1.416393312018
 30
0.0
 11
37.001318339793
 21
-1.42286560316
 31
0.0
  0
LINE
  5
10C
330
30
100
AcDbEntity
  8
1
100
AcDbLine
 10
37.001318339793
 20
-1.42286560316
 30
0.0
 11
36.935318339793
 21
-1.429337774187
 31
0.0
  0
LINE
  5
10D
330
30
100
AcDbEntity
  8
1
100
AcDbLine
 10
36.935318339793
 20
-1.429337774187
 30
0.0
 11
36.869318339793
 21
-1.435809826729
 31
0.0
  0
LINE
  5
10E
330
30
100
AcDbEntity
  8
1
100
AcDbLine
 10
36.869318339793
 20
-1.435809826729
 30
0.0
 11
36.803318339793
 21
-1.442281762389
 31
0.0
  0
LINE
  5
10F
330
30
100
AcDbEntity
  8
1
100
AcDbLine
 10
36.803318339793
 20
-1.442281762389
 30
0.0
 11
36.737318339793
 21
-1.44875358274
 31
0.0
  0
LINE
  5
110
330
30
100
AcDbEntity
  8
1
100
AcDbLine
 10
36.737318339793
 20
-1.44875358274
 30
0.0
 11
36.671318339793
 21
-1.455225289327
 31
0.0
  0
LINE
  5
111
330
30
100
AcDbEntity
  8
1
100
AcDbLine
 10
36.671318339793
 20
-1.455225289327
 30
0.0
 11
36.605318339793
 21
-1.461696883668
 31
0.0
  0
LINE
  5
112
330
30
100
AcDbEntity
  8
1
100
AcDbLine
 10
36.605318339793
 20
-1.461696883668
 30
0.0
 11
36.539318339793
 21
-1.468168367253
 31
0.0
  0
LINE
  5
113
330
30
100
AcDbEntity
  8
1
100
AcDbLine
 10
36.539318339793
 20
-1.468168367253
 30
0.0
 11
36.473318339793
 21
-1.474639741548
 31
0.0
  0
LINE
  5
114
330
30
100
AcDbEntity
  8
1
100
AcDbLine
 10
36.473318339793
 20
-1.474639741548
 30
0.0
 11
36.407318339793
 21
-1.48111100799
 31
0.0
  0
LINE
  5
115
330
30
100
AcDbEntity
  8
1
100
AcDbLine
 10
36.407318339793
 20
-1.48111100799
 30
0.0
 11
36.341318339793
 21
-1.487582167993
 31
0.0
  0
LINE
  5
116
330
30
100
AcDbEntity
  8
1
100
AcDbLine
 10
36.341318339793
 20
-1.487582167993
 30
0.0
 11
36.275318339793
 21
-1.494053222947
 31
0.0
  0
LINE
  5
117
330
30
100
AcDbEntity
  8
1
100
AcDbLine
 10
36.275318339793
 20
-1.494053222947
 30
0.0
 11
36.209318339793
 21
-1.500524174215
 31
0.0
  0
LINE
  5
118
330
30
100
AcDbEntity
  8
1
100
AcDbLine
 10
36.209318339793
 20
-1.500524174215
 30
0.0
 11
36.143318339793
 21
-1.50699502314
 31
0.0
  0
LINE
  5
119
330
30
100
AcDbEntity
  8
1
100
AcDbLine
 10
36.143318339793
 20
-1.50699502314
 30
0.0
 11
36.077318339793
 21
-1.51346577104
 31
0.0
  0
LINE
  5
11A
330
30
100
AcDbEntity
  8
1
100
AcDbLine
 10
36.077318339793
 20
-1.51346577104
 30
0.0
 11
36.011318339793
 21
-1.51993641921
 31
0.0
  0
LINE
  5
11B
330
30
100
AcDbEntity
  8
1
100
AcDbLine
 10
36.011318339793
 20
-1.51993641921
 30
0.0
 11
35.945318339793
 21
-1.526406968923
 31
0.0
  0
LINE
  5
11C
330
30
100
AcDbEntity
  8
1
100
AcDbLine
 10
35.945318339793
 20
-1.526406968923
 30
0.0
 11
35.879318339793
 21
-1.532877421432
 31
0.0
  0
LINE
  5
11D
330
30
100
AcDbEntity
  8
1
100
AcDbLine
 10
35.879318339793
 20
-1.532877421432
 30
0.0
 11
35.813318339793
 21
-1.539347777968
 31
0.0
  0
LINE
  5
11E
330
30
100
AcDbEntity
  8
1
100
AcDbLine
 10
35.813318339793
 20
-1.539347777968
 30
0.0
 11
35.747318339793
 21
-1.54581803974
 31
0.0
  0
LINE
  5
11F
330
30
100
AcDbEntity
  8
1
100
AcDbLine
 10
35.747318339793
 20
-1.54581803974
 30
0.0
 11
35.681318339793
 21
-1.552288207939
 31
0.0
  0
LINE
  5
120
330
30
100
AcDbEntity
  8
1
100
AcDbLine
 10
35.681318339793
 20
-1.552288207939
 30
0.0
 11
35.615318339793
 21
-1.558758283735
 31
0.0
  0
LINE
  5
121
330
30
100
AcDbEntity
  8
1
100
AcDbLine
 10
35.615318339793
 20
-1.558758283735
 30
0.0
 11
35.549318339793
 21
-1.565228268277
 31
0.0
  0
LINE
  5
122
330
30
100
AcDbEntity
  8
1
100
AcDbLine
 10
35.549318339793
 20
-1.565228268277
 30
0.0
 11
35.483318339793
 21
-1.571698162698
 31
0.0
  0
LINE
  5
123
330
30
100
AcDbEntity
  8
1
100
AcDbLine
 10
35.483318339793
 20
-1.571698162698
 30
0.0
 11
35.417318339793
 21
-1.578167968111
 31
0.0
  0
LINE
  5
124
330
30
100
AcDbEntity
  8
1
100
AcDbLine
 10
35.417318339793
 20
-1.578167968111
 30
0.0
 11
35.351318339793
 21
-1.584637685609
 31
0.0
  0
LINE
  5
125
330
30
100
AcDbEntity
  8
1
100
AcDbLine
 10
35.351318339793
 20
-1.584637685609
 30
0.0
 11
35.285318339793
 21
-1.59110731627
 31
0.0
  0
LINE
  5
126
330
30
100
AcDbEntity
  8
1
100
AcDbLine
 10
35.285318339793
 20
-1.59110731627
 30
0.0
 11
35.219318339793
 21
-1.597576861153
 31
0.0
  0
LINE
  5
127
330
30
100
AcDbEntity
  8
1
100
AcDbLine
 10
35.219318339793
 20
-1.597576861153
 30
0.0
 11
35.153318339793
 21
-1.604046321299
 31
0.0
  0
LINE
  5
128
330
30
100
AcDbEntity
  8
1
100
AcDbLine
 10
35.153318339793
 20
-1.604046321299
 30
0.0
 11
35.087318339793
 21
-1.610515697735
 31
0.0
  0
LINE
  5
129
330
30
100
AcDbEntity
  8
1
100
AcDbLine
 10
35.087318339793
 20
-1.610515697735
 30
0.0
 11
35.021318339793
 21
-1.616984991468
 31
0.0
  0
LINE
  5
12A
330
30
100
AcDbEntity
  8
1
100
AcDbLine
 10
35.021318339793
 20
-1.616984991468
 30
0.0
 11
34.955318339793
 21
-1.623454203492
 31
0.0
  0
LINE
  5
12B
330
30
100
AcDbEntity
  8
1
100
AcDbLine
 10
34.955318339793
 20
-1.623454203492
 30
0.0
 11
34.889318339793
 21
-1.629923334783
 31
0.0
  0
LINE
  5
12C
330
30
100
AcDbEntity
  8
1
100
AcDbLine
 10
34.889318339793
 20
-1.629923334783
 30
0.0
 11
34.823318339793
 21
-1.636392386302
 31
0.0
  0
LINE
  5
12D
330
30
100
AcDbEntity
  8
1
100
AcDbLine
 10
34.823318339793
 20
-1.636392386302
 30
0.0
 11
34.757318339793
 21
-1.642861358995
 31
0.0
  0
LINE
  5
12E
330
30
100
AcDbEntity
  8
1
100
AcDbLine
 10
34.757318339793
 20
-1.642861358995
 30
0.0
 11
34.691318339793
 21
-1.649330253793
 31
0.0
  0
LINE
  5
12F
330
30
100
AcDbEntity
  8
1
100
AcDbLine
 10
34.691318339793
 20
-1.649330253793
 30
0.0
 11
34.625318339793
 21
-1.655799071613
 31
0.0
  0
LINE
  5
130
330
30
100
AcDbEntity
  8
1
100
AcDbLine
 10
34.625318339793
 20
-1.655799071613
 30
0.0
 11
34.559318339793
 21
-1.662267813357
 31
0.0
  0
LINE
  5
131
330
30
100
AcDbEntity
  8
1
100
AcDbLine
 10
34.559318339793
 20
-1.662267813357
 30
0.0
 11
34.493318339793
 21
-1.668736479913
 31
0.0
  0
LINE
  5
132
330
30
100
AcDbEntity
  8
1
100
AcDbLine
 10
34.493318339793
 20
-1.668736479913
 30
0.0
 11
34.427318339793
 21
-1.675205072155
 31
0.0
  0
LINE
  5
133
330
30
100
AcDbEntity
  8
1
100
AcDbLine
 10
34.427318339793
 20
-1.675205072155
 30
0.0
 11
34.361318339793
 21
-1.681673590944
 31
0.0
  0
LINE
  5
134
330
30
100
AcDbEntity
  8
1
100
AcDbLine
 10
34.361318339793
 20
-1.681673590944
 30
0.0
 11
34.295318339793
 21
-1.688142037127
 31
0.0
  0
LINE
  5
135
330
30
100
AcDbEntity
  8
1
100
AcDbLine
 10
34.295318339793
 20
-1.688142037127
 30
0.0
 11
34.229318339793
 21
-1.69461041154
 31
0.0
  0
LINE
  5
136
330
30
100
AcDbEntity
  8
1
100
AcDbLine
 10
34.229318339793
 20
-1.69461041154
 30
0.0
 11
34.163318339793
 21
-1.701078715004
 31
0.0
  0
LINE
  5
137
330
30
100
AcDbEntity
  8
1
100
AcDbLine
 10
34.163318339793
 20
-1.701078715004
 30
0.0
 11
34.097318339793
 21
-1.707546948327
 31
0.0
  0
LINE
  5
138
330
30
100
AcDbEntity
  8
1
100
AcDbLine
 10
34.097318339793
 20
-1.707546948327
 30
0.0
 11
34.031318339793
 21
-1.714015112308
 31
0.0
  0
LINE
  5
139
330
30
100
AcDbEntity
  8
1
100
AcDbLine
 10
34.031318339793
 20
-1.714015112308
 30
0.0
 11
33.965318339793
 21
-1.720483207731
 31
0.0
  0
LINE
  5
13A
330
30
100
AcDbEntity
  8
1
100
AcDbLine
 10
33.965318339793
 20
-1.720483207731
 30
0.0
 11
33.899318339793
 21
-1.726951235369
 31
0.0
  0
LINE
  5
13B
330
30
100
AcDbEntity
  8
1
100
AcDbLine
 10
33.899318339793
 20
-1.726951235369
 30
0.0
 11
33.833318339793
 21
-1.733419195984
 31
0.0
  0
LINE
  5
13C
330
30
100
AcDbEntity
  8
1
100
AcDbLine
 10
33.833318339793
 20
-1.733419195984
 30
0.0
 11
33.767318339793
 21
-1.739887090326
 31
0.0
  0
LINE
  5
13D
330
30
100
AcDbEntity
  8
1
100
AcDbLine
 10
33.767318339793
 20
-1.739887090326
 30
0.0
 11
33.701318339793
 21
-1.746354919135
 31
0.0
  0
LINE
  5
13E
330
30
100
AcDbEntity
  8
1
100
AcDbLine
 10
33.701318339793
 20
-1.746354919135
 30
0.0
 11
33.635318339793
 21
-1.752822683137
 31
0.0
  0
LINE
  5
13F
330
30
100
AcDbEntity
  8
1
100
AcDbLine
 10
33.635318339793
 20
-1.752822683137
 30
0.0
 11
33.569318339793
 21
-1.759290383051
 31
0.0
  0
LINE
  5
140
330
30
100
AcDbEntity
  8
1
100
AcDbLine
 10
33.569318339793
 20
-1.759290383051
 30
0.0
 11
33.503318339793
 21
-1.765758019583
 31
0.0
  0
LINE
  5
141
330
30
100
AcDbEntity
  8
1
100
AcDbLine
 10
33.503318339793
 20
-1.765758019583
 30
0.0
 11
33.437318339793
 21
-1.77222559343
 31
0.0
  0
LINE
  5
142
330
30
100
AcDbEntity
  8
1
100
AcDbLine
 10
33.437318339793
 20
-1.77222559343
 30
0.0
 11
33.371318339793
 21
-1.778693105277
 31
0.0
  0
LINE
  5
143
330
30
100
AcDbEntity
  8
1
100
AcDbLine
 10
33.371318339793
 20
-1.778693105277
 30
0.0
 11
33.305318339793
 21
-1.785160555802
 31
0.0
  0
LINE
  5
144
330
30
100
AcDbEntity
  8
1
100
AcDbLine
 10
33.305318339793
 20
-1.785160555802
 30
0.0
 11
33.328712008325
 21
-1.783187888198
 31
0.0
  0
LINE
  5
145
330
30
100
AcDbEntity
  8
1
100
AcDbLine
 10
33.254177508097
 20
-1.7905
 30
0.0
 11
33.254177508097
 21
1.7905
 31
0.0
  0
LINE
  5
146
330
30
100
AcDbEntity
  8
1
100
AcDbLine
 10
33.254177508097
 20
1.7905
 30
0.0
 11
33.254177508097
 21
-1.7905
 31
0.0
  0
LINE
  5
147
330
30
100
AcDbEntity
  8
1
100
AcDbLine
 10
33.328712008325
 20
1.783187888198
 30
0.0
 11
33.371318339793
 21
1.680451565407
 31
0.0
  0
LINE
  5
148
330
30
100
AcDbEntity
  8
1
100
AcDbLine
 10
33.371318339793
 20
1.680451565407
 30
0.0
 11
33.437318339793
 21
1.579192571772
 31
0.0
  0
LINE
  5
149
330
30
100
AcDbEntity
  8
1
100
AcDbLine
 10
33.437318339793
 20
1.579192571772
 30
0.0
 11
33.503318339793
 21
1.48135092948
 31
0.0
  0
LINE
  5
14A
330
30
100
AcDbEntity
  8
1
100
AcDbLine
 10
33.503318339793
 20
1.48135092948
 30
0.0
 11
33.569318339793
 21
1.386893992219
 31
0.0
  0
LINE
  5
14B
330
30
100
AcDbEntity
  8
1
100
AcDbLine
 10
33.569318339793
 20
1.386893992219
 30
0.0
 11
33.635318339793
 21
1.295789112769
 31
0.0
  0
LINE
  5
14C
330
30
100
AcDbEntity
  8
1
100
AcDbLine
 10
33.635318339793
 20
1.295789112769
 30
0.0
 11
33.701318339793
 21
1.208003642982
 31
0.0
  0
LINE
  5
14D
330
30
100
AcDbEntity
  8
1
100
AcDbLine
 10
33.701318339793
 20
1.208003642982
 30
0.0
 11
33.767318339793
 21
1.123504933764
 31
0.0
  0
LINE
  5
14E
330
30
100
AcDbEntity
  8
1
100
AcDbLine
 10
33.767318339793
 20
1.123504933764
 30
0.0
 11
33.833318339793
 21
1.042260335061
 31
0.0
  0
LINE
  5
14F
330
30
100
AcDbEntity
  8
1
100
AcDbLine
 10
33.833318339793
 20
1.042260335061
 30
0.0
 11
33.899318339793
 21
0.964237195835
 31
0.0
  0
LINE
  5
150
330
30
100
AcDbEntity
  8
1
100
AcDbLine
 10
33.899318339793
 20
0.964237195835
 30
0.0
 11
33.965318339793
 21
0.889402864053
 31
0.0
  0
LINE
  5
151
330
30
100
AcDbEntity
  8
1
100
AcDbLine
 10
33.965318339793
 20
0.889402864053
 30
0.0
 11
34.031318339793
 21
0.817724686659
 31
0.0
  0
LINE
  5
152
330
30
100
AcDbEntity
  8
1
100
AcDbLine
 10
34.031318339793
 20
0.817724686659
 30
0.0
 11
34.097318339793
 21
0.749170009562
 31
0.0
  0
LINE
  5
153
330
30
100
AcDbEntity
  8
1
100
AcDbLine
 10
34.097318339793
 20
0.749170009562
 30
0.0
 11
34.163318339793
 21
0.683706177612
 31
0.0
  0
LINE
  5
154
330
30
100
AcDbEntity
  8
1
100
AcDbLine
 10
34.163318339793
 20
0.683706177612
 30
0.0
 11
34.229318339793
 21
0.62130053458
 31
0.0
  0
LINE
  5
155
330
30
100
AcDbEntity
  8
1
100
AcDbLine
 10
34.229318339793
 20
0.62130053458
 30
0.0
 11
34.295318339793
 21
0.561920423141
 31
0.0
  0
LINE
  5
156
330
30
100
AcDbEntity
  8
1
100
AcDbLine
 10
34.295318339793
 20
0.561920423141
 30
0.0
 11
34.361318339793
 21
0.505533184844
 31
0.0
  0
LINE
  5
157
330
30
100
AcDbEntity
  8
1
100
AcDbLine
 10
34.361318339793
 20
0.505533184844
 30
0.0
 11
34.427318339793
 21
0.4521061601
 31
0.0
  0
LINE
  5
158
330
30
100
AcDbEntity
  8
1
100
AcDbLine
 10
34.427318339793
 20
0.4521061601
 30
0.0
 11
34.493318339793
 21
0.401606688152
 31
0.0
  0
LINE
  5
159
330
30
100
AcDbEntity
  8
1
100
AcDbLine
 10
34.493318339793
 20
0.401606688152
 30
0.0
 11
34.559318339793
 21
0.354002107057
 31
0.0
  0
LINE
  5
15A
330
30
100
AcDbEntity
  8
1
100
AcDbLine
 10
34.559318339793
 20
0.354002107057
 30
0.0
 11
34.625318339793
 21
0.30925975366
 31
0.0
  0
LINE
  5
15B
330
30
100
AcDbEntity
  8
1
100
AcDbLine
 10
34.625318339793
 20
0.30925975366
 30
0.0
 11
34.691318339793
 21
0.267346963569
 31
0.0
  0
LINE
  5
15C
330
30
100
AcDbEntity
  8
1
100
AcDbLine
 10
34.691318339793
 20
0.267346963569
 30
0.0
 11
34.757318339793
 21
0.228231071133
 31
0.0
  0
LINE
  5
15D
330
30
100
AcDbEntity
  8
1
100
AcDbLine
 10
34.757318339793
 20
0.228231071133
 30
0.0
 11
34.823318339793
 21
0.191879409417
 31
0.0
  0
LINE
  5
15E
330
30
100
AcDbEntity
  8
1
100
AcDbLine
 10
34.823318339793
 20
0.191879409417
 30
0.0
 11
34.889318339793
 21
0.158259310172
 31
0.0
  0
LINE
  5
15F
330
30
100
AcDbEntity
  8
1
100
AcDbLine
 10
34.889318339793
 20
0.158259310172
 30
0.0
 11
34.955318339793
 21
0.127338103812
 31
0.0
  0
LINE
  5
160
330
30
100
AcDbEntity
  8
1
100
AcDbLine
 10
34.955318339793
 20
0.127338103812
 30
0.0
 11
35.021318339793
 21
0.099083119388
 31
0.0
  0
LINE
  5
161
330
30
100
AcDbEntity
  8
1
100
AcDbLine
 10
35.021318339793
 20
0.099083119388
 30
0.0
 11
35.087318339793
 21
0.073461684556
 31
0.0
  0
LINE
  5
162
330
30
100
AcDbEntity
  8
1
100
AcDbLine
 10
35.087318339793
 20
0.073461684556
 30
0.0
 11
35.153318339793
 21
0.050441125552
 31
0.0
  0
LINE
  5
163
330
30
100
AcDbEntity
  8
1
100
AcDbLine
 10
35.153318339793
 20
0.050441125552
 30
0.0
 11
35.219318339793
 21
0.02998876716
 31
0.0
  0
LINE
  5
164
330
30
100
AcDbEntity
  8
1
100
AcDbLine
 10
35.219318339793
 20
0.02998876716
 30
0.0
 11
35.285318339793
 21
0.012071932687
 31
0.0
  0
LINE
  5
165
330
30
100
AcDbEntity
  8
1
100
AcDbLine
 10
35.285318339793
 20
0.012071932687
 30
0.0
 11
35.351318339793
 21
-0.003342056073
 31
0.0
  0
LINE
  5
166
330
30
100
AcDbEntity
  8
1
100
AcDbLine
 10
35.351318339793
 20
-0.003342056073
 30
0.0
 11
35.417318339793
 21
-0.016285878868
 31
0.0
  0
LINE
  5
167
330
30
100
AcDbEntity
  8
1
100
AcDbLine
 10
35.417318339793
 20
-0.016285878868
 30
0.0
 11
35.483318339793
 21
-0.026792217022
 31
0.0
  0
LINE
  5
168
330
30
100
AcDbEntity
  8
1
100
AcDbLine
 10
35.483318339793
 20
-0.026792217022
 30
0.0
 11
35.549318339793
 21
-0.034893753464
 31
0.0
  0
LINE
  5
169
330
30
100
AcDbEntity
  8
1
100
AcDbLine
 10
35.549318339793
 20
-0.034893753464
 30
0.0
 11
35.615318339793
 21
-0.040623172765
 31
0.0
  0
LINE
  5
16A
330
30
100
AcDbEntity
  8
1
100
AcDbLine
 10
35.615318339793
 20
-0.040623172765
 30
0.0
 11
35.681318339793
 21
-0.044013161173
 31
0.0
  0
LINE
  5
16B
330
30
100
AcDbEntity
  8
1
100
AcDbLine
 10
35.681318339793
 20
-0.044013161173
 30
0.0
 11
35.747318339793
 21
-0.045096406647
 31
0.0
  0
LINE
  5
16C
330
30
100
AcDbEntity
  8
1
100
AcDbLine
 10
35.747318339793
 20
-0.045096406647
 30
0.0
 11
35.813318339793
 21
-0.044187116209
 31
0.0
  0
LINE
  5
16D
330
30
100
AcDbEntity
  8
1
100
AcDbLine
 10
35.813318339793
 20
-0.044187116209
 30
0.0
 11
35.879318339793
 21
-0.042994825003
 31
0.0
  0
LINE
  5
16E
330
30
100
AcDbEntity
  8
1
100
AcDbLine
 10
35.879318339793
 20
-0.042994825003
 30
0.0
 11
35.945318339793
 21
-0.041802410973
 31
0.0
  0
LINE
  5
16F
330
30
100
AcDbEntity
  8
1
100
AcDbLine
 10
35.945318339793
 20
-0.041802410973
 30
0.0
 11
36.011318339793
 21
-0.04060987251
 31
0.0
  0
LINE
  5
170
330
30
100
AcDbEntity
  8
1
100
AcDbLine
 10
36.011318339793
 20
-0.04060987251
 30
0.0
 11
36.077318339793
 21
-0.039417207979
 31
0.0
  0
LINE
  5
171
330
30
100
AcDbEntity
  8
1
100
AcDbLine
 10
36.077318339793
 20
-0.039417207979
 30
0.0
 11
36.143318339793
 21
-0.038224415712
 31
0.0
  0
LINE
  5
172
330
30
100
AcDbEntity
  8
1
100
AcDbLine
 10
36.143318339793
 20
-0.038224415712
 30
0.0
 11
36.209318339793
 21
-0.037031494016
 31
0.0
  0
LINE
  5
173
330
30
100
AcDbEntity
  8
1
100
AcDbLine
 10
36.209318339793
 20
-0.037031494016
 30
0.0
 11
36.275318339793
 21
-0.035838441164
 31
0.0
  0
LINE
  5
174
330
30
100
AcDbEntity
  8
1
100
AcDbLine
 10
36.275318339793
 20
-0.035838441164
 30
0.0
 11
36.341318339793
 21
-0.0346452554
 31
0.0
  0
LINE
  5
175
330
30
100
AcDbEntity
  8
1
100
AcDbLine
 10
36.341318339793
 20
-0.0346452554
 30
0.0
 11
36.407318339793
 21
-0.033451934935
 31
0.0
  0
LINE
  5
176
330
30
100
AcDbEntity
  8
1
100
AcDbLine
 10
36.407318339793
 20
-0.033451934935
 30
0.0
 11
36.473318339793
 21
-0.032258477948
 31
0.0
  0
LINE
  5
177
330
30
100
AcDbEntity
  8
1
100
AcDbLine
 10
36.473318339793
 20
-0.032258477948
 30
0.0
 11
36.539318339793
 21
-0.031064882586
 31
0.0
  0
LINE
  5
178
330
30
100
AcDbEntity
  8
1
100
AcDbLine
 10
36.539318339793
 20
-0.031064882586
 30
0.0
 11
36.605318339793
 21
-0.029871146961
 31
0.0
  0
LINE
  5
179
330
30
100
AcDbEntity
  8
1
100
AcDbLine
 10
36.605318339793
 20
-0.029871146961
 30
0.0
 11
36.671318339793
 21
-0.028677269149
 31
0.0
  0
LINE
  5
17A
330
30
100
AcDbEntity
  8
1
100
AcDbLine
 10
36.671318339793
 20
-0.028677269149
 30
0.0
 11
36.737318339793
 21
-0.027483247193
 31
0.0
  0
LINE
  5
17B
330
30
100
AcDbEntity
  8
1
100
AcDbLine
 10
36.737318339793
 20
-0.027483247193
 30
0.0
 11
36.803318339793
 21
-0.026289079099
 31
0.0
  0
LINE
  5
17C
330
30
100
AcDbEntity
  8
1
100
AcDbLine
 10
36.803318339793
 20
-0.026289079099
 30
0.0
 11
36.869318339793
 21
-0.025094762833
 31
0.0
  0
LINE
  5
17D
330
30
100
AcDbEntity
  8
1
100
AcDbLine
 10
36.869318339793
 20
-0.025094762833
 30
0.0
 11
36.935318339793
 21
-0.023900296328
 31
0.0
  0
LINE
  5
17E
330
30
100
AcDbEntity
  8
1
100
AcDbLine
 10
36.935318339793
 20
-0.023900296328
 30
0.0
 11
37.001318339793
 21
-0.022705677473
 31
0.0
  0
LINE
  5
17F
330
30
100
AcDbEntity
  8
1
100
AcDbLine
 10
37.001318339793
 20
-0.022705677473
 30
0.0
 11
37.067318339793
 21
-0.021510904119
 31
0.0
  0
LINE
  5
180
330
30
100
AcDbEntity
  8
1
100
AcDbLine
 10
37.067318339793
 20
-0.021510904119
 30
0.0
 11
37.133318339793
 21
-0.020315974078
 31
0.0
  0
LINE
  5
181
330
30
100
AcDbEntity
  8
1
100
AcDbLine
 10
37.133318339793
 20
-0.020315974078
 30
0.0
 11
37.199318339793
 21
-0.019120885117
 31
0.0
  0
LINE
  5
182
330
30
100
AcDbEntity
  8
1
100
AcDbLine
 10
37.199318339793
 20
-0.019120885117
 30
0.0
 11
37.265318339793
 21
-0.017925634963
 31
0.0
  0
LINE
  5
183
330
30
100
AcDbEntity
  8
1
100
AcDbLine
 10
37.265318339793
 20
-0.017925634963
 30
0.0
 11
37.331318339793
 21
-0.016730221296
 31
0.0
  0
LINE
  5
184
330
30
100
AcDbEntity
  8
1
100
AcDbLine
 10
37.331318339793
 20
-0.016730221296
 30
0.0
 11
37.397318339793
 21
-0.015534641753
 31
0.0
  0
LINE
  5
185
330
30
100
AcDbEntity
  8
1
100
AcDbLine
 10
37.397318339793
 20
-0.015534641753
 30
0.0
 11
37.463318339793
 21
-0.014338893925
 31
0.0
  0
LINE
  5
186
330
30
100
AcDbEntity
  8
1
100
AcDbLine
 10
37.463318339793
 20
-0.014338893925
 30
0.0
 11
37.529318339793
 21
-0.013142975355
 31
0.0
  0
LINE
  5
187
330
30
100
AcDbEntity
  8
1
100
AcDbLine
 10
37.529318339793
 20
-0.013142975355
 30
0.0
 11
37.595318339793
 21
-0.011946883539
 31
0.0
  0
LINE
  5
188
330
30
100
AcDbEntity
  8
1
100
AcDbLine
 10
37.595318339793
 20
-0.011946883539
 30
0.0
 11
37.661318339793
 21
-0.01075061592
 31
0.0
  0
LINE
  5
189
330
30
100
AcDbEntity
  8
1
100
AcDbLine
 10
37.661318339793
 20
-0.01075061592
 30
0.0
 11
37.727318339793
 21
-0.009554169894
 31
0.0
  0
LINE
  5
18A
330
30
100
AcDbEntity
  8
1
100
AcDbLine
 10
37.727318339793
 20
-0.009554169894
 30
0.0
 11
37.793318339793
 21
-0.008357542803
 31
0.0
  0
LINE
  5
18B
330
30
100
AcDbEntity
  8
1
100
AcDbLine
 10
37.793318339793
 20
-0.008357542803
 30
0.0
 11
37.859318339793
 21
-0.007160731935
 31
0.0
  0
LINE
  5
18C
330
30
100
AcDbEntity
  8
1
100
AcDbLine
 10
37.859318339793
 20
-0.007160731935
 30
0.0
 11
37.925318339793
 21
-0.005963734524
 31
0.0
  0
LINE
  5
18D
330
30
100
AcDbEntity
  8
1
100
AcDbLine
 10
37.925318339793
 20
-0.005963734524
 30
0.0
 11
37.991318339793
 21
-0.004766547749
 31
0.0
  0
LINE
  5
18E
330
30
100
AcDbEntity
  8
1
100
AcDbLine
 10
37.991318339793
 20
-0.004766547749
 30
0.0
 11
38.057318339793
 21
-0.003569168729
 31
0.0
  0
LINE
  5
18F
330
30
100
AcDbEntity
  8
1
100
AcDbLine
 10
38.057318339793
 20
-0.003569168729
 30
0.0
 11
38.123318339793
 21
-0.002371594525
 31
0.0
  0
LINE
  5
190
330
30
100
AcDbEntity
  8
1
100
AcDbLine
 10
38.123318339793
 20
-0.002371594525
 30
0.0
 11
38.189318339793
 21
-0.001173822137
 31
0.0
  0
LINE
  5
191
330
30
100
AcDbEntity
  8
1
100
AcDbLine
 10
38.189318339793
 20
-0.001173822137
 30
0.0
 11
38.255318339793
 21
0.0
 31
0.0
  0
LINE
  5
192
330
30
100
AcDbEntity
  8
1
100
AcDbLine
 10
38.255318339793
 20
0.0
 30
0.0
 11
38.321318339793
 21
0.0
 31
0.0
  0
LINE
  5
193
330
30
100
AcDbEntity
  8
1
100
AcDbLine
 10
38.321318339793
 20
0.0
 30
0.0
 11
38.387318339793
 21
0.0
 31
0.0
  0
LINE
  5
194
330
30
100
AcDbEntity
  8
1
100
AcDbLine
 10
38.387318339793
 20
0.0
 30
0.0
 11
38.453318339793
 21
0.0
 31
0.0
  0
LINE
  5
195
330
30
100
AcDbEntity
  8
1
100
AcDbLine
 10
38.453318339793
 20
0.0
 30
0.0
 11
38.519318339793
 21
0.0
 31
0.0
  0
LINE
  5
196
330
30
100
AcDbEntity
  8
1
100
AcDbLine
 10
38.519318339793
 20
0.0
 30
0.0
 11
38.585318339793
 21
0.0
 31
0.0
  0
LINE
  5
197
330
30
100
AcDbEntity
  8
1
100
AcDbLine
 10
38.585318339793
 20
0.0
 30
0.0
 11
38.651318339793
 21
0.0
 31
0.0
  0
LINE
  5
198
330
30
100
AcDbEntity
  8
1
100
AcDbLine
 10
38.651318339793
 20
0.0
 30
0.0
 11
38.717318339793
 21
0.0
 31
0.0
  0
LINE
  5
199
330
30
100
AcDbEntity
  8
1
100
AcDbLine
 10
38.717318339793
 20
0.0
 30
0.0
 11
38.783318339793
 21
0.0
 31
0.0
  0
LINE
  5
19A
330
30
100
AcDbEntity
  8
1
100
AcDbLine
 10
38.783318339793
 20
0.0
 30
0.0
 11
38.849318339793
 21
0.0
 31
0.0
  0
LINE
  5
19B
330
30
100
AcDbEntity
  8
1
100
AcDbLine
 10
38.849318339793
 20
0.0
 30
0.0
 11
38.915318339793
 21
0.0
 31
0.0
  0
LINE
  5
19C
330
30
100
AcDbEntity
  8
1
100
AcDbLine
 10
38.915318339793
 20
0.0
 30
0.0
 11
38.981318339793
 21
0.0
 31
0.0
  0
LINE
  5
19D
330
30
100
AcDbEntity
  8
1
100
AcDbLine
 10
38.981318339793
 20
0.0
 30
0.0
 11
39.047318339793
 21
0.0
 31
0.0
  0
LINE
  5
19E
330
30
100
AcDbEntity
  8
1
100
AcDbLine
 10
39.047318339793
 20
0.0
 30
0.0
 11
39.113318339793
 21
0.0
 31
0.0
  0
LINE
  5
19F
330
30
100
AcDbEntity
  8
1
100
AcDbLine
 10
39.113318339793
 20
0.0
 30
0.0
 11
39.179318339793
 21
0.0
 31
0.0
  0
LINE
  5
1A0
330
30
100
AcDbEntity
  8
1
100
AcDbLine
 10
39.179318339793
 20
0.0
 30
0.0
 11
39.245318339793
 21
0.0
 31
0.0
  0
LINE
  5
1A1
330
30
100
AcDbEntity
  8
1
100
AcDbLine
 10
39.245318339793
 20
0.0
 30
0.0
 11
39.311318339793
 21
0.0
 31
0.0
  0
LINE
  5
1A2
330
30
100
AcDbEntity
  8
1
100
AcDbLine
 10
39.311318339793
 20
0.0
 30
0.0
 11
39.377318339793
 21
0.0
 31
0.0
  0
LINE
  5
1A3
330
30
100
AcDbEntity
  8
1
100
AcDbLine
 10
39.377318339793
 20
0.0
 30
0.0
 11
39.443318339793
 21
0.0
 31
0.0
  0
LINE
  5
1A4
330
30
100
AcDbEntity
  8
1
100
AcDbLine
 10
39.443318339793
 20
0.0
 30
0.0
 11
39.509318339793
 21
0.0
 31
0.0
  0
LINE
  5
1A5
330
30
100
AcDbEntity
  8
1
100
AcDbLine
 10
39.509318339793
 20
0.0
 30
0.0
 11
39.575318339793
 21
0.0
 31
0.0
  0
LINE
  5
1A6
330
30
100
AcDbEntity
  8
1
100
AcDbLine
 10
39.575318339793
 20
0.0
 30
0.0
 11
39.641318339793
 21
0.0
 31
0.0
  0
LINE
  5
1A7
330
30
100
AcDbEntity
  8
1
100
AcDbLine
 10
39.641318339793
 20
0.0
 30
0.0
 11
39.707318339793
 21
0.0
 31
0.0
  0
LINE
  5
1A8
330
30
100
AcDbEntity
  8
1
100
AcDbLine
 10
39.707318339793
 20
0.0
 30
0.0
 11
39.773318339793
 21
0.0
 31
0.0
  0
LINE
  5
1A9
330
30
100
AcDbEntity
  8
1
100
AcDbLine
 10
39.773318339793
 20
0.0
 30
0.0
 11
39.839318339793
 21
0.0
 31
0.0
  0
LINE
  5
1AA
330
30
100
AcDbEntity
  8
1
100
AcDbLine
 10
39.839318339793
 20
0.0
 30
0.0
 11
39.905318339793
 21
0.0
 31
0.0
  0
LINE
  5
1AB
330
30
100
AcDbEntity
  8
1
100
AcDbLine
 10
39.905318339793
 20
0.0
 30
0.0
 11
39.971318339793
 21
0.0
 31
0.0
  0
LINE
  5
1AC
330
30
100
AcDbEntity
  8
1
100
AcDbLine
 10
39.971318339793
 20
0.0
 30
0.0
 11
40.037318339793
 21
0.0
 31
0.0
  0
LINE
  5
1AD
330
30
100
AcDbEntity
  8
1
100
AcDbLine
 10
40.037318339793
 20
0.0
 30
0.0
 11
40.103318339793
 21
0.0
 31
0.0
  0
LINE
  5
1AE
330
30
100
AcDbEntity
  8
1
100
AcDbLine
 10
40.103318339793
 20
0.0
 30
0.0
 11
40.169318339793
 21
0.0
 31
0.0
  0
LINE
  5
1AF
330
30
100
AcDbEntity
  8
1
100
AcDbLine
 10
40.169318339793
 20
0.0
 30
0.0
 11
40.235318339793
 21
0.0
 31
0.0
  0
LINE
  5
1B0
330
30
100
AcDbEntity
  8
1
100
AcDbLine
 10
40.235318339793
 20
0.0
 30
0.0
 11
40.301318339793
 21
0.0
 31
0.0
  0
LINE
  5
1B1
330
30
100
AcDbEntity
  8
1
100
AcDbLine
 10
40.301318339793
 20
0.0
 30
0.0
 11
40.367318339793
 21
0.0
 31
0.0
  0
LINE
  5
1B2
330
30
100
AcDbEntity
  8
1
100
AcDbLine
 10
40.367318339793
 20
0.0
 30
0.0
 11
40.433318339793
 21
0.0
 31
0.0
  0
LINE
  5
1B3
330
30
100
AcDbEntity
  8
1
100
AcDbLine
 10
40.433318339793
 20
0.0
 30
0.0
 11
40.499318339793
 21
0.0
 31
0.0
  0
LINE
  5
1B4
330
30
100
AcDbEntity
  8
1
100
AcDbLine
 10
40.499318339793
 20
0.0
 30
0.0
 11
40.565318339793
 21
0.0
 31
0.0
  0
LINE
  5
1B5
330
30
100
AcDbEntity
  8
1
100
AcDbLine
 10
40.565318339793
 20
0.0
 30
0.0
 11
40.631318339793
 21
0.0
 31
0.0
  0
LINE
  5
1B6
330
30
100
AcDbEntity
  8
1
100
AcDbLine
 10
40.631318339793
 20
0.0
 30
0.0
 11
40.697318339793
 21
0.0
 31
0.0
  0
LINE
  5
1B7
330
30
100
AcDbEntity
  8
1
100
AcDbLine
 10
40.697318339793
 20
0.0
 30
0.0
 11
40.763318339793
 21
0.0
 31
0.0
  0
LINE
  5
1B8
330
30
100
AcDbEntity
  8
1
100
AcDbLine
 10
40.763318339793
 20
0.0
 30
0.0
 11
40.829318339793
 21
0.0
 31
0.0
  0
LINE
  5
1B9
330
30
100
AcDbEntity
  8
1
100
AcDbLine
 10
40.829318339793
 20
0.0
 30
0.0
 11
40.895318339793
 21
0.0
 31
0.0
  0
LINE
  5
1BA
330
30
100
AcDbEntity
  8
1
100
AcDbLine
 10
40.895318339793
 20
0.0
 30
0.0
 11
40.961318339793
 21
0.0
 31
0.0
  0
LINE
  5
1BB
330
30
100
AcDbEntity
  8
1
100
AcDbLine
 10
40.961318339793
 20
0.0
 30
0.0
 11
41.027318339793
 21
0.0
 31
0.0
  0
LINE
  5
1BC
330
30
100
AcDbEntity
  8
1
100
AcDbLine
 10
41.027318339793
 20
0.0
 30
0.0
 11
41.093318339793
 21
0.0
 31
0.0
  0
LINE
  5
1BD
330
30
100
AcDbEntity
  8
1
100
AcDbLine
 10
41.093318339793
 20
0.0
 30
0.0
 11
41.159318339793
 21
0.0
 31
0.0
  0
LINE
  5
1BE
330
30
100
AcDbEntity
  8
1
100
AcDbLine
 10
41.159318339793
 20
0.0
 30
0.0
 11
41.225318339793
 21
0.0
 31
0.0
  0
LINE
  5
1BF
330
30
100
AcDbEntity
  8
1
100
AcDbLine
 10
41.225318339793
 20
0.0
 30
0.0
 11
41.291318339793
 21
0.0
 31
0.0
  0
LINE
  5
1C0
330
30
100
AcDbEntity
  8
1
100
AcDbLine
 10
41.291318339793
 20
0.0
 30
0.0
 11
41.357318339793
 21
0.0
 31
0.0
  0
LINE
  5
1C1
330
30
100
AcDbEntity
  8
1
100
AcDbLine
 10
41.357318339793
 20
0.0
 30
0.0
 11
41.423318339793
 21
0.0
 31
0.0
  0
LINE
  5
1C2
330
30
100
AcDbEntity
  8
1
100
AcDbLine
 10
41.423318339793
 20
0.0
 30
0.0
 11
41.489318339793
 21
0.0
 31
0.0
  0
LINE
  5
1C3
330
30
100
AcDbEntity
  8
1
100
AcDbLine
 10
41.489318339793
 20
0.0
 30
0.0
 11
41.555318339793
 21
0.0
 31
0.0
  0
LINE
  5
1C4
330
30
100
AcDbEntity
  8
1
100
AcDbLine
 10
41.555318339793
 20
0.0
 30
0.0
 11
41.621318339793
 21
0.0
 31
0.0
  0
LINE
  5
1C5
330
30
100
AcDbEntity
  8
1
100
AcDbLine
 10
41.621318339793
 20
0.0
 30
0.0
 11
41.687318339793
 21
0.0
 31
0.0
  0
LINE
  5
1C6
330
30
100
AcDbEntity
  8
1
100
AcDbLine
 10
41.687318339793
 20
0.0
 30
0.0
 11
41.753318339793
 21
0.0
 31
0.0
  0
LINE
  5
1C7
330
30
100
AcDbEntity
  8
1
100
AcDbLine
 10
41.753318339793
 20
0.0
 30
0.0
 11
41.819318339793
 21
0.0
 31
0.0
  0
LINE
  5
1C8
330
30
100
AcDbEntity
  8
1
100
AcDbLine
 10
41.819318339793
 20
0.0
 30
0.0
 11
41.885318339793
 21
0.0
 31
0.0
  0
LINE
  5
1C9
330
30
100
AcDbEntity
  8
1
100
AcDbLine
 10
41.885318339793
 20
0.0
 30
0.0
 11
41.951318339793
 21
0.0
 31
0.0
  0
LINE
  5
1CA
330
30
100
AcDbEntity
  8
1
100
AcDbLine
 10
41.951318339793
 20
0.0
 30
0.0
 11
42.017318339793
 21
0.0
 31
0.0
  0
LINE
  5
1CB
330
30
100
AcDbEntity
  8
1
100
AcDbLine
 10
42.017318339793
 20
0.0
 30
0.0
 11
42.083318339793
 21
0.0
 31
0.0
  0
LINE
  5
1CC
330
30
100
AcDbEntity
  8
1
100
AcDbLine
 10
42.083318339793
 20
0.0
 30
0.0
 11
42.149318339793
 21
0.0
 31
0.0
  0
LINE
  5
1CD
330
30
100
AcDbEntity
  8
1
100
AcDbLine
 10
42.149318339793
 20
0.0
 30
0.0
 11
42.215318339793
 21
0.0
 31
0.0
  0
LINE
  5
1CE
330
30
100
AcDbEntity
  8
1
100
AcDbLine
 10
42.215318339793
 20
0.0
 30
0.0
 11
42.281318339793
 21
0.0
 31
0.0
  0
LINE
  5
1CF
330
30
100
AcDbEntity
  8
1
100
AcDbLine
 10
42.281318339793
 20
0.0
 30
0.0
 11
42.347318339793
 21
0.0
 31
0.0
  0
LINE
  5
1D0
330
30
100
AcDbEntity
  8
1
100
AcDbLine
 10
42.347318339793
 20
0.0
 30
0.0
 11
42.413318339793
 21
0.0
 31
0.0
  0
LINE
  5
1D1
330
30
100
AcDbEntity
  8
1
100
AcDbLine
 10
42.413318339793
 20
0.0
 30
0.0
 11
42.479318339793
 21
0.0
 31
0.0
  0
LINE
  5
1D2
330
30
100
AcDbEntity
  8
1
100
AcDbLine
 10
42.479318339793
 20
0.0
 30
0.0
 11
42.545318339793
 21
0.0
 31
0.0
  0
LINE
  5
1D3
330
30
100
AcDbEntity
  8
1
100
AcDbLine
 10
42.545318339793
 20
0.0
 30
0.0
 11
42.611318339793
 21
0.0
 31
0.0
  0
LINE
  5
1D4
330
30
100
AcDbEntity
  8
1
100
AcDbLine
 10
42.611318339793
 20
0.0
 30
0.0
 11
42.677318339793
 21
0.0
 31
0.0
  0
LINE
  5
1D5
330
30
100
AcDbEntity
  8
1
100
AcDbLine
 10
42.677318339793
 20
0.0
 30
0.0
 11
42.743318339793
 21
0.0
 31
0.0
  0
LINE
  5
1D6
330
30
100
AcDbEntity
  8
1
100
AcDbLine
 10
42.743318339793
 20
0.0
 30
0.0
 11
42.809318339793
 21
0.0
 31
0.0
  0
LINE
  5
1D7
330
30
100
AcDbEntity
  8
1
100
AcDbLine
 10
42.809318339793
 20
0.0
 30
0.0
 11
42.875318339793
 21
0.0
 31
0.0
  0
LINE
  5
1D8
330
30
100
AcDbEntity
  8
1
100
AcDbLine
 10
42.875318339793
 20
0.0
 30
0.0
 11
42.941318339793
 21
0.0
 31
0.0
  0
LINE
  5
1D9
330
30
100
AcDbEntity
  8
1
100
AcDbLine
 10
42.941318339793
 20
0.0
 30
0.0
 11
43.007318339793
 21
0.0
 31
0.0
  0
LINE
  5
1DA
330
30
100
AcDbEntity
  8
1
100
AcDbLine
 10
43.007318339793
 20
0.0
 30
0.0
 11
43.073318339793
 21
0.0
 31
0.0
  0
LINE
  5
1DB
330
30
100
AcDbEntity
  8
1
100
AcDbLine
 10
43.073318339793
 20
0.0
 30
0.0
 11
43.139318339793
 21
0.0
 31
0.0
  0
LINE
  5
1DC
330
30
100
AcDbEntity
  8
1
100
AcDbLine
 10
43.139318339793
 20
0.0
 30
0.0
 11
43.205318339793
 21
0.0
 31
0.0
  0
LINE
  5
1DD
330
30
100
AcDbEntity
  8
1
100
AcDbLine
 10
43.205318339793
 20
0.0
 30
0.0
 11
43.271318339793
 21
0.0
 31
0.0
  0
LINE
  5
1DE
330
30
100
AcDbEntity
  8
1
100
AcDbLine
 10
43.271318339793
 20
0.0
 30
0.0
 11
43.337318339793
 21
0.0
 31
0.0
  0
LINE
  5
1DF
330
30
100
AcDbEntity
  8
1
100
AcDbLine
 10
43.337318339793
 20
0.0
 30
0.0
 11
43.403318339793
 21
0.0
 31
0.0
  0
LINE
  5
1E0
330
30
100
AcDbEntity
  8
1
100
AcDbLine
 10
43.403318339793
 20
0.0
 30
0.0
 11
43.469318339793
 21
0.0
 31
0.0
  0
LINE
  5
1E1
330
30
100
AcDbEntity
  8
1
100
AcDbLine
 10
43.469318339793
 20
0.0
 30
0.0
 11
43.535318339793
 21
0.0
 31
0.0
  0
LINE
  5
1E2
330
30
100
AcDbEntity
  8
1
100
AcDbLine
 10
43.535318339793
 20
0.0
 30
0.0
 11
43.601318339793
 21
0.0
 31
0.0
  0
LINE
  5
1E3
330
30
100
AcDbEntity
  8
1
100
AcDbLine
 10
43.601318339793
 20
0.0
 30
0.0
 11
43.667318339793
 21
0.0
 31
0.0
  0
LINE
  5
1E4
330
30
100
AcDbEntity
  8
1
100
AcDbLine
 10
43.667318339793
 20
0.0
 30
0.0
 11
43.733318339793
 21
0.0
 31
0.0
  0
LINE
  5
1E5
330
30
100
AcDbEntity
  8
1
100
AcDbLine
 10
43.733318339793
 20
0.0
 30
0.0
 11
43.799318339793
 21
0.0
 31
0.0
  0
LINE
  5
1E6
330
30
100
AcDbEntity
  8
1
100
AcDbLine
 10
43.799318339793
 20
0.0
 30
0.0
 11
43.865318339793
 21
0.0
 31
0.0
  0
LINE
  5
1E7
330
30
100
AcDbEntity
  8
1
100
AcDbLine
 10
43.865318339793
 20
0.0
 30
0.0
 11
43.931318339793
 21
0.0
 31
0.0
  0
LINE
  5
1E8
330
30
100
AcDbEntity
  8
1
100
AcDbLine
 10
43.931318339793
 20
0.0
 30
0.0
 11
43.997318339793
 21
0.0
 31
0.0
  0
LINE
  5
1E9
330
30
100
AcDbEntity
  8
1
100
AcDbLine
 10
43.997318339793
 20
0.0
 30
0.0
 11
44.063318339793
 21
0.0
 31
0.0
  0
LINE
  5
1EA
330
30
100
AcDbEntity
  8
1
100
AcDbLine
 10
44.063318339793
 20
0.0
 30
0.0
 11
44.129318339793
 21
0.0
 31
0.0
  0
LINE
  5
1EB
330
30
100
AcDbEntity
  8
1
100
AcDbLine
 10
44.129318339793
 20
0.0
 30
0.0
 11
44.195318339793
 21
0.0
 31
0.0
  0
LINE
  5
1EC
330
30
100
AcDbEntity
  8
1
100
AcDbLine
 10
44.195318339793
 20
0.0
 30
0.0
 11
44.261318339793
 21
0.0
 31
0.0
  0
LINE
  5
1ED
330
30
100
AcDbEntity
  8
1
100
AcDbLine
 10
44.261318339793
 20
0.0
 30
0.0
 11
44.327318339793
 21
0.0
 31
0.0
  0
LINE
  5
1EE
330
30
100
AcDbEntity
  8
1
100
AcDbLine
 10
44.327318339793
 20
0.0
 30
0.0
 11
44.393318339793
 21
0.0
 31
0.0
  0
LINE
  5
1EF
330
30
100
AcDbEntity
  8
1
100
AcDbLine
 10
44.393318339793
 20
0.0
 30
0.0
 11
44.459318339793
 21
0.0
 31
0.0
  0
LINE
  5
1F0
330
30
100
AcDbEntity
  8
1
100
AcDbLine
 10
44.459318339793
 20
0.0
 30
0.0
 11
44.525318339793
 21
0.0
 31
0.0
  0
LINE
  5
1F1
330
30
100
AcDbEntity
  8
1
100
AcDbLine
 10
44.525318339793
 20
0.0
 30
0.0
 11
44.591318339793
 21
0.0
 31
0.0
  0
LINE
  5
1F2
330
30
100
AcDbEntity
  8
1
100
AcDbLine
 10
44.591318339793
 20
0.0
 30
0.0
 11
44.657318339793
 21
0.0
 31
0.0
  0
LINE
  5
1F3
330
30
100
AcDbEntity
  8
1
100
AcDbLine
 10
44.657318339793
 20
0.0
 30
0.0
 11
44.723318339793
 21
0.0
 31
0.0
  0
LINE
  5
1F4
330
30
100
AcDbEntity
  8
1
100
AcDbLine
 10
44.723318339793
 20
0.0
 30
0.0
 11
44.789318339793
 21
0.0
 31
0.0
  0
LINE
  5
1F5
330
30
100
AcDbEntity
  8
1
100
AcDbLine
 10
44.789318339793
 20
0.0
 30
0.0
 11
44.855318339793
 21
0.0
 31
0.0
  0
LINE
  5
1F6
330
30
100
AcDbEntity
  8
1
100
AcDbLine
 10
44.855318339793
 20
0.0
 30
0.0
 11
44.921318339793
 21
0.0
 31
0.0
  0
LINE
  5
1F7
330
30
100
AcDbEntity
  8
1
100
AcDbLine
 10
44.921318339793
 20
0.0
 30
0.0
 11
44.987318339793
 21
0.0
 31
0.0
  0
LINE
  5
1F8
330
30
100
AcDbEntity
  8
1
100
AcDbLine
 10
44.987318339793
 20
0.0
 30
0.0
 11
45.053318339793
 21
0.0
 31
0.0
  0
LINE
  5
1F9
330
30
100
AcDbEntity
  8
1
100
AcDbLine
 10
45.053318339793
 20
0.0
 30
0.0
 11
45.119318339793
 21
0.0
 31
0.0
  0
LINE
  5
1FA
330
30
100
AcDbEntity
  8
1
100
AcDbLine
 10
45.119318339793
 20
0.0
 30
0.0
 11
45.185318339793
 21
0.0
 31
0.0
  0
LINE
  5
1FB
330
30
100
AcDbEntity
  8
1
100
AcDbLine
 10
45.185318339793
 20
0.0
 30
0.0
 11
45.251318339793
 21
0.0
 31
0.0
  0
LINE
  5
1FC
330
30
100
AcDbEntity
  8
1
100
AcDbLine
 10
45.251318339793
 20
0.0
 30
0.0
 11
45.317318339793
 21
0.0
 31
0.0
  0
LINE
  5
1FD
330
30
100
AcDbEntity
  8
1
100
AcDbLine
 10
45.317318339793
 20
0.0
 30
0.0
 11
45.383318339793
 21
0.0
 31
0.0
  0
LINE
  5
1FE
330
30
100
AcDbEntity
  8
1
100
AcDbLine
 10
45.383318339793
 20
0.0
 30
0.0
 11
45.449318339793
 21
0.0
 31
0.0
  0
LINE
  5
1FF
330
30
100
AcDbEntity
  8
1
100
AcDbLine
 10
45.449318339793
 20
0.0
 30
0.0
 11
45.515318339793
 21
0.0
 31
0.0
  0
LINE
  5
200
330
30
100
AcDbEntity
  8
1
100
AcDbLine
 10
45.515318339793
 20
0.0
 30
0.0
 11
45.581318339793
 21
0.0
 31
0.0
  0
LINE
  5
201
330
30
100
AcDbEntity
  8
1
100
AcDbLine
 10
45.581318339793
 20
0.0
 30
0.0
 11
45.647318339793
 21
0.0
 31
0.0
  0
LINE
  5
202
330
30
100
AcDbEntity
  8
1
100
AcDbLine
 10
45.647318339793
 20
0.0
 30
0.0
 11
45.713318339793
 21
0.0
 31
0.0
  0
LINE
  5
203
330
30
100
AcDbEntity
  8
1
100
AcDbLine
 10
45.713318339793
 20
0.0
 30
0.0
 11
45.779318339793
 21
0.0
 31
0.0
  0
LINE
  5
204
330
30
100
AcDbEntity
  8
1
100
AcDbLine
 10
45.779318339793
 20
0.0
 30
0.0
 11
45.845318339793
 21
0.0
 31
0.0
  0
LINE
  5
205
330
30
100
AcDbEntity
  8
1
100
AcDbLine
 10
45.845318339793
 20
0.0
 30
0.0
 11
45.911318339793
 21
0.0
 31
0.0
  0
LINE
  5
206
330
30
100
AcDbEntity
  8
1
100
AcDbLine
 10
45.911318339793
 20
0.0
 30
0.0
 11
45.977318339793
 21
0.0
 31
0.0
  0
LINE
  5
207
330
30
100
AcDbEntity
  8
1
100
AcDbLine
 10
45.977318339793
 20
0.0
 30
0.0
 11
46.043318339793
 21
0.0
 31
0.0
  0
LINE
  5
208
330
30
100
AcDbEntity
  8
1
100
AcDbLine
 10
46.043318339793
 20
0.0
 30
0.0
 11
46.109318339793
 21
0.0
 31
0.0
  0
LINE
  5
209
330
30
100
AcDbEntity
  8
1
100
AcDbLine
 10
46.109318339793
 20
0.0
 30
0.0
 11
46.175318339793
 21
0.0
 31
0.0
  0
LINE
  5
20A
330
30
100
AcDbEntity
  8
1
100
AcDbLine
 10
46.175318339793
 20
0.0
 30
0.0
 11
46.241318339793
 21
0.0
 31
0.0
  0
LINE
  5
20B
330
30
100
AcDbEntity
  8
1
100
AcDbLine
 10
46.241318339793
 20
0.0
 30
0.0
 11
46.307318339793
 21
0.0
 31
0.0
  0
LINE
  5
20C
330
30
100
AcDbEntity
  8
1
100
AcDbLine
 10
46.307318339793
 20
0.0
 30
0.0
 11
46.373318339793
 21
0.0
 31
0.0
  0
LINE
  5
20D
330
30
100
AcDbEntity
  8
1
100
AcDbLine
 10
46.373318339793
 20
0.0
 30
0.0
 11
46.439318339793
 21
0.0
 31
0.0
  0
LINE
  5
20E
330
30
100
AcDbEntity
  8
1
100
AcDbLine
 10
46.439318339793
 20
0.0
 30
0.0
 11
46.505318339793
 21
0.0
 31
0.0
  0
LINE
  5
20F
330
30
100
AcDbEntity
  8
1
100
AcDbLine
 10
46.505318339793
 20
0.0
 30
0.0
 11
46.571318339793
 21
0.0
 31
0.0
  0
LINE
  5
210
330
30
100
AcDbEntity
  8
1
100
AcDbLine
 10
46.571318339793
 20
0.0
 30
0.0
 11
46.637318339793
 21
0.0
 31
0.0
  0
LINE
  5
211
330
30
100
AcDbEntity
  8
1
100
AcDbLine
 10
46.637318339793
 20
0.0
 30
0.0
 11
46.703318339793
 21
0.0
 31
0.0
  0
LINE
  5
212
330
30
100
AcDbEntity
  8
1
100
AcDbLine
 10
46.703318339793
 20
0.0
 30
0.0
 11
46.769318339793
 21
0.0
 31
0.0
  0
LINE
  5
213
330
30
100
AcDbEntity
  8
1
100
AcDbLine
 10
46.769318339793
 20
0.0
 30
0.0
 11
46.835318339793
 21
0.0
 31
0.0
  0
LINE
  5
214
330
30
100
AcDbEntity
  8
1
100
AcDbLine
 10
46.835318339793
 20
0.0
 30
0.0
 11
46.901318339793
 21
0.0
 31
0.0
  0
LINE
  5
215
330
30
100
AcDbEntity
  8
1
100
AcDbLine
 10
46.901318339793
 20
0.0
 30
0.0
 11
46.967318339793
 21
0.0
 31
0.0
  0
LINE
  5
216
330
30
100
AcDbEntity
  8
1
100
AcDbLine
 10
46.967318339793
 20
0.0
 30
0.0
 11
47.033318339793
 21
0.0
 31
0.0
  0
LINE
  5
217
330
30
100
AcDbEntity
  8
1
100
AcDbLine
 10
47.033318339793
 20
0.0
 30
0.0
 11
47.099318339793
 21
0.0
 31
0.0
  0
LINE
  5
218
330
30
100
AcDbEntity
  8
1
100
AcDbLine
 10
47.099318339793
 20
0.0
 30
0.0
 11
47.165318339793
 21
0.0
 31
0.0
  0
LINE
  5
219
330
30
100
AcDbEntity
  8
1
100
AcDbLine
 10
47.165318339793
 20
0.0
 30
0.0
 11
47.231318339793
 21
0.0
 31
0.0
  0
LINE
  5
21A
330
30
100
AcDbEntity
  8
1
100
AcDbLine
 10
47.231318339793
 20
0.0
 30
0.0
 11
47.297318339793
 21
0.0
 31
0.0
  0
LINE
  5
21B
330
30
100
AcDbEntity
  8
1
100
AcDbLine
 10
47.297318339793
 20
0.0
 30
0.0
 11
47.363318339793
 21
0.0
 31
0.0
  0
LINE
  5
21C
330
30
100
AcDbEntity
  8
1
100
AcDbLine
 10
47.363318339793
 20
0.0
 30
0.0
 11
47.429318339793
 21
0.0
 31
0.0
  0
LINE
  5
21D
330
30
100
AcDbEntity
  8
1
100
AcDbLine
 10
47.429318339793
 20
0.0
 30
0.0
 11
47.495318339793
 21
0.0
 31
0.0
  0
LINE
  5
21E
330
30
100
AcDbEntity
  8
1
100
AcDbLine
 10
47.495318339793
 20
0.0
 30
0.0
 11
47.561318339793
 21
0.0
 31
0.0
  0
LINE
  5
21F
330
30
100
AcDbEntity
  8
1
100
AcDbLine
 10
47.561318339793
 20
0.0
 30
0.0
 11
47.627318339793
 21
0.0
 31
0.0
  0
LINE
  5
220
330
30
100
AcDbEntity
  8
1
100
AcDbLine
 10
47.627318339793
 20
0.0
 30
0.0
 11
47.693318339793
 21
0.0
 31
0.0
  0
LINE
  5
221
330
30
100
AcDbEntity
  8
1
100
AcDbLine
 10
47.693318339793
 20
0.0
 30
0.0
 11
47.759318339793
 21
0.0
 31
0.0
  0
LINE
  5
222
330
30
100
AcDbEntity
  8
1
100
AcDbLine
 10
47.759318339793
 20
0.0
 30
0.0
 11
47.825318339793
 21
0.0
 31
0.0
  0
LINE
  5
223
330
30
100
AcDbEntity
  8
1
100
AcDbLine
 10
47.825318339793
 20
0.0
 30
0.0
 11
47.891318339793
 21
0.0
 31
0.0
  0
LINE
  5
224
330
30
100
AcDbEntity
  8
1
100
AcDbLine
 10
47.891318339793
 20
0.0
 30
0.0
 11
47.957318339793
 21
0.0
 31
0.0
  0
LINE
  5
225
330
30
100
AcDbEntity
  8
1
100
AcDbLine
 10
47.957318339793
 20
0.0
 30
0.0
 11
48.023318339793
 21
0.0
 31
0.0
  0
LINE
  5
226
330
30
100
AcDbEntity
  8
1
100
AcDbLine
 10
48.023318339793
 20
0.0
 30
0.0
 11
48.089318339793
 21
0.0
 31
0.0
  0
LINE
  5
227
330
30
100
AcDbEntity
  8
1
100
AcDbLine
 10
48.089318339793
 20
0.0
 30
0.0
 11
48.155318339793
 21
0.0
 31
0.0
  0
LINE
  5
228
330
30
100
AcDbEntity
  8
1
100
AcDbLine
 10
48.155318339793
 20
0.0
 30
0.0
 11
48.221318339793
 21
0.0
 31
0.0
  0
LINE
  5
229
330
30
100
AcDbEntity
  8
1
100
AcDbLine
 10
48.221318339793
 20
0.0
 30
0.0
 11
48.287318339793
 21
0.0
 31
0.0
  0
LINE
  5
22A
330
30
100
AcDbEntity
  8
1
100
AcDbLine
 10
48.287318339793
 20
0.0
 30
0.0
 11
48.353318339793
 21
0.0
 31
0.0
  0
LINE
  5
22B
330
30
100
AcDbEntity
  8
1
100
AcDbLine
 10
48.353318339793
 20
0.0
 30
0.0
 11
48.419318339793
 21
0.0
 31
0.0
  0
LINE
  5
22C
330
30
100
AcDbEntity
  8
1
100
AcDbLine
 10
48.419318339793
 20
0.0
 30
0.0
 11
48.485318339793
 21
0.0
 31
0.0
  0
LINE
  5
22D
330
30
100
AcDbEntity
  8
1
100
AcDbLine
 10
48.485318339793
 20
0.0
 30
0.0
 11
48.551318339793
 21
0.0
 31
0.0
  0
LINE
  5
22E
330
30
100
AcDbEntity
  8
1
100
AcDbLine
 10
48.551318339793
 20
0.0
 30
0.0
 11
48.617318339793
 21
0.0
 31
0.0
  0
LINE
  5
22F
330
30
100
AcDbEntity
  8
1
100
AcDbLine
 10
48.617318339793
 20
0.0
 30
0.0
 11
48.683318339793
 21
0.0
 31
0.0
  0
LINE
  5
230
330
30
100
AcDbEntity
  8
1
100
AcDbLine
 10
48.683318339793
 20
0.0
 30
0.0
 11
48.749318339793
 21
0.0
 31
0.0
  0
LINE
  5
231
330
30
100
AcDbEntity
  8
1
100
AcDbLine
 10
48.749318339793
 20
0.0
 30
0.0
 11
48.815318339793
 21
0.0
 31
0.0
  0
LINE
  5
232
330
30
100
AcDbEntity
  8
1
100
AcDbLine
 10
48.815318339793
 20
0.0
 30
0.0
 11
48.881318339793
 21
0.0
 31
0.0
  0
LINE
  5
233
330
30
100
AcDbEntity
  8
1
100
AcDbLine
 10
48.881318339793
 20
0.0
 30
0.0
 11
48.947318339793
 21
0.0
 31
0.0
  0
LINE
  5
234
330
30
100
AcDbEntity
  8
1
100
AcDbLine
 10
48.947318339793
 20
0.0
 30
0.0
 11
49.013318339793
 21
0.0
 31
0.0
  0
LINE
  5
235
330
30
100
AcDbEntity
  8
1
100
AcDbLine
 10
49.013318339793
 20
0.0
 30
0.0
 11
49.079318339793
 21
0.0
 31
0.0
  0
LINE
  5
236
330
30
100
AcDbEntity
  8
1
100
AcDbLine
 10
49.079318339793
 20
0.0
 30
0.0
 11
49.145318339793
 21
0.0
 31
0.0
  0
LINE
  5
237
330
30
100
AcDbEntity
  8
1
100
AcDbLine
 10
49.145318339793
 20
0.0
 30
0.0
 11
49.211318339793
 21
0.0
 31
0.0
  0
LINE
  5
238
330
30
100
AcDbEntity
  8
1
100
AcDbLine
 10
49.211318339793
 20
0.0
 30
0.0
 11
49.277318339793
 21
0.0
 31
0.0
  0
LINE
  5
239
330
30
100
AcDbEntity
  8
1
100
AcDbLine
 10
49.277318339793
 20
0.0
 30
0.0
 11
49.343318339793
 21
0.0
 31
0.0
  0
LINE
  5
23A
330
30
100
AcDbEntity
  8
1
100
AcDbLine
 10
49.343318339793
 20
0.0
 30
0.0
 11
49.409318339793
 21
0.0
 31
0.0
  0
LINE
  5
23B
330
30
100
AcDbEntity
  8
1
100
AcDbLine
 10
49.409318339793
 20
0.0
 30
0.0
 11
49.475318339793
 21
0.0
 31
0.0
  0
LINE
  5
23C
330
30
100
AcDbEntity
  8
1
100
AcDbLine
 10
49.475318339793
 20
0.0
 30
0.0
 11
49.541318339793
 21
0.0
 31
0.0
  0
LINE
  5
23D
330
30
100
AcDbEntity
  8
1
100
AcDbLine
 10
49.541318339793
 20
0.0
 30
0.0
 11
49.607318339793
 21
0.0
 31
0.0
  0
LINE
  5
23E
330
30
100
AcDbEntity
  8
1
100
AcDbLine
 10
49.607318339793
 20
0.0
 30
0.0
 11
49.673318339793
 21
0.0
 31
0.0
  0
LINE
  5
23F
330
30
100
AcDbEntity
  8
1
100
AcDbLine
 10
49.673318339793
 20
0.0
 30
0.0
 11
49.739318339793
 21
0.0
 31
0.0
  0
LINE
  5
240
330
30
100
AcDbEntity
  8
1
100
AcDbLine
 10
49.739318339793
 20
0.0
 30
0.0
 11
49.805318339793
 21
0.0
 31
0.0
  0
LINE
  5
241
330
30
100
AcDbEntity
  8
1
100
AcDbLine
 10
49.805318339793
 20
0.0
 30
0.0
 11
49.871318339793
 21
0.0
 31
0.0
  0
LINE
  5
242
330
30
100
AcDbEntity
  8
1
100
AcDbLine
 10
49.871318339793
 20
0.0
 30
0.0
 11
49.937318339793
 21
0.0
 31
0.0
  0
LINE
  5
243
330
30
100
AcDbEntity
  8
1
100
AcDbLine
 10
49.937318339793
 20
0.0
 30
0.0
 11
50.003318339793
 21
0.0
 31
0.0
  0
LINE
  5
244
330
30
100
AcDbEntity
  8
1
100
AcDbLine
 10
50.003318339793
 20
0.0
 30
0.0
 11
50.069318339793
 21
0.0
 31
0.0
  0
LINE
  5
245
330
30
100
AcDbEntity
  8
1
100
AcDbLine
 10
50.069318339793
 20
0.0
 30
0.0
 11
50.135318339793
 21
0.0
 31
0.0
  0
LINE
  5
246
330
30
100
AcDbEntity
  8
1
100
AcDbLine
 10
50.135318339793
 20
0.0
 30
0.0
 11
50.201318339793
 21
0.001192132751
 31
0.0
  0
LINE
  5
247
330
30
100
AcDbEntity
  8
1
100
AcDbLine
 10
50.201318339793
 20
0.001192132751
 30
0.0
 11
50.267318339793
 21
0.002854846575
 31
0.0
  0
LINE
  5
248
330
30
100
AcDbEntity
  8
1
100
AcDbLine
 10
50.267318339793
 20
0.002854846575
 30
0.0
 11
50.333318339793
 21
0.004517968536
 31
0.0
  0
LINE
  5
249
330
30
100
AcDbEntity
  8
1
100
AcDbLine
 10
50.333318339793
 20
0.004517968536
 30
0.0
 11
50.399318339793
 21
0.006181507629
 31
0.0
  0
LINE
  5
24A
330
30
100
AcDbEntity
  8
1
100
AcDbLine
 10
50.399318339793
 20
0.006181507629
 30
0.0
 11
50.465318339793
 21
0.007845473115
 31
0.0
  0
LINE
  5
24B
330
30
100
AcDbEntity
  8
1
100
AcDbLine
 10
50.465318339793
 20
0.007845473115
 30
0.0
 11
50.531318339793
 21
0.009509874537
 31
0.0
  0
LINE
  5
24C
330
30
100
AcDbEntity
  8
1
100
AcDbLine
 10
50.531318339793
 20
0.009509874537
 30
0.0
 11
50.597318339793
 21
0.011174721727
 31
0.0
  0
LINE
  5
24D
330
30
100
AcDbEntity
  8
1
100
AcDbLine
 10
50.597318339793
 20
0.011174721727
 30
0.0
 11
50.663318339793
 21
0.012840024815
 31
0.0
  0
LINE
  5
24E
330
30
100
AcDbEntity
  8
1
100
AcDbLine
 10
50.663318339793
 20
0.012840024815
 30
0.0
 11
50.729318339793
 21
0.014505794247
 31
0.0
  0
LINE
  5
24F
330
30
100
AcDbEntity
  8
1
100
AcDbLine
 10
50.729318339793
 20
0.014505794247
 30
0.0
 11
50.795318339793
 21
0.01617204079
 31
0.0
  0
LINE
  5
250
330
30
100
AcDbEntity
  8
1
100
AcDbLine
 10
50.795318339793
 20
0.01617204079
 30
0.0
 11
50.861318339793
 21
0.017838775552
 31
0.0
  0
LINE
  5
251
330
30
100
AcDbEntity
  8
1
100
AcDbLine
 10
50.861318339793
 20
0.017838775552
 30
0.0
 11
50.927318339793
 21
0.019506009989
 31
0.0
  0
LINE
  5
252
330
30
100
AcDbEntity
  8
1
100
AcDbLine
 10
50.927318339793
 20
0.019506009989
 30
0.0
 11
50.993318339793
 21
0.021173755922
 31
0.0
  0
LINE
  5
253
330
30
100
AcDbEntity
  8
1
100
AcDbLine
 10
50.993318339793
 20
0.021173755922
 30
0.0
 11
51.059318339793
 21
0.022842025554
 31
0.0
  0
LINE
  5
254
330
30
100
AcDbEntity
  8
1
100
AcDbLine
 10
51.059318339793
 20
0.022842025554
 30
0.0
 11
51.125318339793
 21
0.024510831481
 31
0.0
  0
LINE
  5
255
330
30
100
AcDbEntity
  8
1
100
AcDbLine
 10
51.125318339793
 20
0.024510831481
 30
0.0
 11
51.191318339793
 21
0.026180186711
 31
0.0
  0
LINE
  5
256
330
30
100
AcDbEntity
  8
1
100
AcDbLine
 10
51.191318339793
 20
0.026180186711
 30
0.0
 11
51.257318339793
 21
0.027850104681
 31
0.0
  0
LINE
  5
257
330
30
100
AcDbEntity
  8
1
100
AcDbLine
 10
51.257318339793
 20
0.027850104681
 30
0.0
 11
51.323318339793
 21
0.029520599274
 31
0.0
  0
LINE
  5
258
330
30
100
AcDbEntity
  8
1
100
AcDbLine
 10
51.323318339793
 20
0.029520599274
 30
0.0
 11
51.389318339793
 21
0.031191684839
 31
0.0
  0
LINE
  5
259
330
30
100
AcDbEntity
  8
1
100
AcDbLine
 10
51.389318339793
 20
0.031191684839
 30
0.0
 11
51.455318339793
 21
0.032863376212
 31
0.0
  0
LINE
  5
25A
330
30
100
AcDbEntity
  8
1
100
AcDbLine
 10
51.455318339793
 20
0.032863376212
 30
0.0
 11
51.521318339793
 21
0.034535688732
 31
0.0
  0
LINE
  5
25B
330
30
100
AcDbEntity
  8
1
100
AcDbLine
 10
51.521318339793
 20
0.034535688732
 30
0.0
 11
51.587318339793
 21
0.036208638268
 31
0.0
  0
LINE
  5
25C
330
30
100
AcDbEntity
  8
1
100
AcDbLine
 10
51.587318339793
 20
0.036208638268
 30
0.0
 11
51.653318339793
 21
0.037882241241
 31
0.0
  0
LINE
  5
25D
330
30
100
AcDbEntity
  8
1
100
AcDbLine
 10
51.653318339793
 20
0.037882241241
 30
0.0
 11
51.719318339793
 21
0.039556514648
 31
0.0
  0
LINE
  5
25E
330
30
100
AcDbEntity
  8
1
100
AcDbLine
 10
51.719318339793
 20
0.039556514648
 30
0.0
 11
51.785318339793
 21
0.041231476087
 31
0.0
  0
LINE
  5
25F
330
30
100
AcDbEntity
  8
1
100
AcDbLine
 10
51.785318339793
 20
0.041231476087
 30
0.0
 11
51.851318339793
 21
0.042907143785
 31
0.0
  0
LINE
  5
260
330
30
100
AcDbEntity
  8
1
100
AcDbLine
 10
51.851318339793
 20
0.042907143785
 30
0.0
 11
51.917318339793
 21
0.044583536628
 31
0.0
  0
LINE
  5
261
330
30
100
AcDbEntity
  8
1
100
AcDbLine
 10
51.917318339793
 20
0.044583536628
 30
0.0
 11
51.983318339793
 21
0.050536534626
 31
0.0
  0
LINE
  5
262
330
30
100
AcDbEntity
  8
1
100
AcDbLine
 10
51.983318339793
 20
0.050536534626
 30
0.0
 11
52.049318339793
 21
0.061863362271
 31
0.0
  0
LINE
  5
263
330
30
100
AcDbEntity
  8
1
100
AcDbLine
 10
52.049318339793
 20
0.061863362271
 30
0.0
 11
52.115318339793
 21
0.07323546372
 31
0.0
  0
LINE
  5
264
330
30
100
AcDbEntity
  8
1
100
AcDbLine
 10
52.115318339793
 20
0.07323546372
 30
0.0
 11
52.181318339793
 21
0.084663280656
 31
0.0
  0
LINE
  5
265
330
30
100
AcDbEntity
  8
1
100
AcDbLine
 10
52.181318339793
 20
0.084663280656
 30
0.0
 11
52.247318339793
 21
0.096160813991
 31
0.0
  0
LINE
  5
266
330
30
100
AcDbEntity
  8
1
100
AcDbLine
 10
52.247318339793
 20
0.096160813991
 30
0.0
 11
52.313318339793
 21
0.107747325312
 31
0.0
  0
LINE
  5
267
330
30
100
AcDbEntity
  8
1
100
AcDbLine
 10
52.313318339793
 20
0.107747325312
 30
0.0
 11
52.379318339793
 21
0.119450149619
 31
0.0
  0
LINE
  5
268
330
30
100
AcDbEntity
  8
1
100
AcDbLine
 10
52.379318339793
 20
0.119450149619
 30
0.0
 11
52.445318339793
 21
0.131309601531
 31
0.0
  0
LINE
  5
269
330
30
100
AcDbEntity
  8
1
100
AcDbLine
 10
52.445318339793
 20
0.131309601531
 30
0.0
 11
52.511318339793
 21
0.143388136032
 31
0.0
  0
LINE
  5
26A
330
30
100
AcDbEntity
  8
1
100
AcDbLine
 10
52.511318339793
 20
0.143388136032
 30
0.0
 11
52.577318339793
 21
0.155789060169
 31
0.0
  0
LINE
  5
26B
330
30
100
AcDbEntity
  8
1
100
AcDbLine
 10
52.577318339793
 20
0.155789060169
 30
0.0
 11
52.643318339793
 21
0.168699847462
 31
0.0
  0
LINE
  5
26C
330
30
100
AcDbEntity
  8
1
100
AcDbLine
 10
52.643318339793
 20
0.168699847462
 30
0.0
 11
52.709318339793
 21
0.182513379114
 31
0.0
  0
LINE
  5
26D
330
30
100
AcDbEntity
  8
1
100
AcDbLine
 10
52.709318339793
 20
0.182513379114
 30
0.0
 11
52.775318339793
 21
0.198304196726
 31
0.0
  0
LINE
  5
26E
330
30
100
AcDbEntity
  8
1
100
AcDbLine
 10
52.775318339793
 20
0.292905132622
 30
0.0
 11
52.775318339793
 21
0.198304196726
 31
0.0
  0
LINE
  5
26F
330
30
100
AcDbEntity
  8
1
100
AcDbLine
 10
52.775318339793
 20
0.198304196726
 30
0.0
 11
52.775318339793
 21
0.292905132622
 31
0.0
  0
LINE
  5
270
330
30
100
AcDbEntity
  8
1
100
AcDbLine
 10
52.775318339793
 20
0.292905132622
 30
0.0
 11
52.709318339793
 21
0.356823093322
 31
0.0
  0
LINE
  5
271
330
30
100
AcDbEntity
  8
1
100
AcDbLine
 10
52.709318339793
 20
0.356823093322
 30
0.0
 11
52.643318339793
 21
0.418836895941
 31
0.0
  0
LINE
  5
272
330
30
100
AcDbEntity
  8
1
100
AcDbLine
 10
52.643318339793
 20
0.418836895941
 30
0.0
 11
52.577318339793
 21
0.480416512018
 31
0.0
  0
LINE
  5
273
330
30
100
AcDbEntity
  8
1
100
AcDbLine
 10
52.577318339793
 20
0.480416512018
 30
0.0
 11
52.511318339793
 21
0.54171178175
 31
0.0
  0
LINE
  5
274
330
30
100
AcDbEntity
  8
1
100
AcDbLine
 10
52.511318339793
 20
0.54171178175
 30
0.0
 11
52.445318339793
 21
0.602810370601
 31
0.0
  0
LINE
  5
275
330
30
100
AcDbEntity
  8
1
100
AcDbLine
 10
52.445318339793
 20
0.602810370601
 30
0.0
 11
52.379318339793
 21
0.663767115821
 31
0.0
  0
LINE
  5
276
330
30
100
AcDbEntity
  8
1
100
AcDbLine
 10
52.379318339793
 20
0.663767115821
 30
0.0
 11
52.313318339793
 21
0.724618130323
 31
0.0
  0
LINE
  5
277
330
30
100
AcDbEntity
  8
1
100
AcDbLine
 10
52.313318339793
 20
0.724618130323
 30
0.0
 11
52.247318339793
 21
0.785388189749
 31
0.0
  0
LINE
  5
278
330
30
100
AcDbEntity
  8
1
100
AcDbLine
 10
52.247318339793
 20
0.785388189749
 30
0.0
 11
52.181318339793
 21
0.846094869272
 31
0.0
  0
LINE
  5
279
330
30
100
AcDbEntity
  8
1
100
AcDbLine
 10
52.181318339793
 20
0.846094869272
 30
0.0
 11
52.115318339793
 21
0.906750988207
 31
0.0
  0
LINE
  5
27A
330
30
100
AcDbEntity
  8
1
100
AcDbLine
 10
52.115318339793
 20
0.906750988207
 30
0.0
 11
52.049318339793
 21
0.967366120003
 31
0.0
  0
LINE
  5
27B
330
30
100
AcDbEntity
  8
1
100
AcDbLine
 10
52.049318339793
 20
0.967366120003
 30
0.0
 11
51.983318339793
 21
1.027947560265
 31
0.0
  0
LINE
  5
27C
330
30
100
AcDbEntity
  8
1
100
AcDbLine
 10
51.983318339793
 20
1.027947560265
 30
0.0
 11
51.917318339793
 21
1.059858110235
 31
0.0
  0
LINE
  5
27D
330
30
100
AcDbEntity
  8
1
100
AcDbLine
 10
51.917318339793
 20
1.059858110235
 30
0.0
 11
51.851318339793
 21
1.068852257503
 31
0.0
  0
LINE
  5
27E
330
30
100
AcDbEntity
  8
1
100
AcDbLine
 10
51.851318339793
 20
1.068852257503
 30
0.0
 11
51.785318339793
 21
1.077845856865
 31
0.0
  0
LINE
  5
27F
330
30
100
AcDbEntity
  8
1
100
AcDbLine
 10
51.785318339793
 20
1.077845856865
 30
0.0
 11
51.719318339793
 21
1.086838922004
 31
0.0
  0
LINE
  5
280
330
30
100
AcDbEntity
  8
1
100
AcDbLine
 10
51.719318339793
 20
1.086838922004
 30
0.0
 11
51.653318339793
 21
1.095831466147
 31
0.0
  0
LINE
  5
281
330
30
100
AcDbEntity
  8
1
100
AcDbLine
 10
51.653318339793
 20
1.095831466147
 30
0.0
 11
51.587318339793
 21
1.104823502089
 31
0.0
  0
LINE
  5
282
330
30
100
AcDbEntity
  8
1
100
AcDbLine
 10
51.587318339793
 20
1.104823502089
 30
0.0
 11
51.521318339793
 21
1.11381504221
 31
0.0
  0
LINE
  5
283
330
30
100
AcDbEntity
  8
1
100
AcDbLine
 10
51.521318339793
 20
1.11381504221
 30
0.0
 11
51.455318339793
 21
1.122806098488
 31
0.0
  0
LINE
  5
284
330
30
100
AcDbEntity
  8
1
100
AcDbLine
 10
51.455318339793
 20
1.122806098488
 30
0.0
 11
51.389318339793
 21
1.13179668252
 31
0.0
  0
LINE
  5
285
330
30
100
AcDbEntity
  8
1
100
AcDbLine
 10
51.389318339793
 20
1.13179668252
 30
0.0
 11
51.323318339793
 21
1.140786805533
 31
0.0
  0
LINE
  5
286
330
30
100
AcDbEntity
  8
1
100
AcDbLine
 10
51.323318339793
 20
1.140786805533
 30
0.0
 11
51.257318339793
 21
1.1497764784
 31
0.0
  0
LINE
  5
287
330
30
100
AcDbEntity
  8
1
100
AcDbLine
 10
51.257318339793
 20
1.1497764784
 30
0.0
 11
51.191318339793
 21
1.158765711657
 31
0.0
  0
LINE
  5
288
330
30
100
AcDbEntity
  8
1
100
AcDbLine
 10
51.191318339793
 20
1.158765711657
 30
0.0
 11
51.125318339793
 21
1.16775451551
 31
0.0
  0
LINE
  5
289
330
30
100
AcDbEntity
  8
1
100
AcDbLine
 10
51.125318339793
 20
1.16775451551
 30
0.0
 11
51.059318339793
 21
1.176742899854
 31
0.0
  0
LINE
  5
28A
330
30
100
AcDbEntity
  8
1
100
AcDbLine
 10
51.059318339793
 20
1.176742899854
 30
0.0
 11
50.993318339793
 21
1.185730874278
 31
0.0
  0
LINE
  5
28B
330
30
100
AcDbEntity
  8
1
100
AcDbLine
 10
50.993318339793
 20
1.185730874278
 30
0.0
 11
50.927318339793
 21
1.194718448086
 31
0.0
  0
LINE
  5
28C
330
30
100
AcDbEntity
  8
1
100
AcDbLine
 10
50.927318339793
 20
1.194718448086
 30
0.0
 11
50.861318339793
 21
1.203705630296
 31
0.0
  0
LINE
  5
28D
330
30
100
AcDbEntity
  8
1
100
AcDbLine
 10
50.861318339793
 20
1.203705630296
 30
0.0
 11
50.795318339793
 21
1.212692429662
 31
0.0
  0
LINE
  5
28E
330
30
100
AcDbEntity
  8
1
100
AcDbLine
 10
50.795318339793
 20
1.212692429662
 30
0.0
 11
50.729318339793
 21
1.221678854676
 31
0.0
  0
LINE
  5
28F
330
30
100
AcDbEntity
  8
1
100
AcDbLine
 10
50.729318339793
 20
1.221678854676
 30
0.0
 11
50.663318339793
 21
1.230664913581
 31
0.0
  0
LINE
  5
290
330
30
100
AcDbEntity
  8
1
100
AcDbLine
 10
50.663318339793
 20
1.230664913581
 30
0.0
 11
50.597318339793
 21
1.239650614379
 31
0.0
  0
LINE
  5
291
330
30
100
AcDbEntity
  8
1
100
AcDbLine
 10
50.597318339793
 20
1.239650614379
 30
0.0
 11
50.531318339793
 21
1.248635964842
 31
0.0
  0
LINE
  5
292
330
30
100
AcDbEntity
  8
1
100
AcDbLine
 10
50.531318339793
 20
1.248635964842
 30
0.0
 11
50.465318339793
 21
1.257620972516
 31
0.0
  0
LINE
  5
293
330
30
100
AcDbEntity
  8
1
100
AcDbLine
 10
50.465318339793
 20
1.257620972516
 30
0.0
 11
50.399318339793
 21
1.266605644733
 31
0.0
  0
LINE
  5
294
330
30
100
AcDbEntity
  8
1
100
AcDbLine
 10
50.399318339793
 20
1.266605644733
 30
0.0
 11
50.333318339793
 21
1.275589988617
 31
0.0
  0
LINE
  5
295
330
30
100
AcDbEntity
  8
1
100
AcDbLine
 10
50.333318339793
 20
1.275589988617
 30
0.0
 11
50.267318339793
 21
1.28457401109
 31
0.0
  0
LINE
  5
296
330
30
100
AcDbEntity
  8
1
100
AcDbLine
 10
50.267318339793
 20
1.28457401109
 30
0.0
 11
50.201318339793
 21
1.293557718883
 31
0.0
  0
LINE
  5
297
330
30
100
AcDbEntity
  8
1
100
AcDbLine
 10
50.201318339793
 20
1.293557718883
 30
0.0
 11
50.135318339793
 21
1.3
 31
0.0
  0
LINE
  5
298
330
30
100
AcDbEntity
  8
1
100
AcDbLine
 10
50.135318339793
 20
1.3
 30
0.0
 11
50.069318339793
 21
1.3
 31
0.0
  0
LINE
  5
299
330
30
100
AcDbEntity
  8
1
100
AcDbLine
 10
50.069318339793
 20
1.3
 30
0.0
 11
50.003318339793
 21
1.3
 31
0.0
  0
LINE
  5
29A
330
30
100
AcDbEntity
  8
1
100
AcDbLine
 10
50.003318339793
 20
1.3
 30
0.0
 11
49.937318339793
 21
1.3
 31
0.0
  0
LINE
  5
29B
330
30
100
AcDbEntity
  8
1
100
AcDbLine
 10
49.937318339793
 20
1.3
 30
0.0
 11
49.871318339793
 21
1.3
 31
0.0
  0
LINE
  5
29C
330
30
100
AcDbEntity
  8
1
100
AcDbLine
 10
49.871318339793
 20
1.3
 30
0.0
 11
49.805318339793
 21
1.3
 31
0.0
  0
LINE
  5
29D
330
30
100
AcDbEntity
  8
1
100
AcDbLine
 10
49.805318339793
 20
1.3
 30
0.0
 11
49.739318339793
 21
1.3
 31
0.0
  0
LINE
  5
29E
330
30
100
AcDbEntity
  8
1
100
AcDbLine
 10
49.739318339793
 20
1.3
 30
0.0
 11
49.673318339793
 21
1.3
 31
0.0
  0
LINE
  5
29F
330
30
100
AcDbEntity
  8
1
100
AcDbLine
 10
49.673318339793
 20
1.3
 30
0.0
 11
49.607318339793
 21
1.3
 31
0.0
  0
LINE
  5
2A0
330
30
100
AcDbEntity
  8
1
100
AcDbLine
 10
49.607318339793
 20
1.3
 30
0.0
 11
49.541318339793
 21
1.3
 31
0.0
  0
LINE
  5
2A1
330
30
100
AcDbEntity
  8
1
100
AcDbLine
 10
49.541318339793
 20
1.3
 30
0.0
 11
49.475318339793
 21
1.3
 31
0.0
  0
LINE
  5
2A2
330
30
100
AcDbEntity
  8
1
100
AcDbLine
 10
49.475318339793
 20
1.3
 30
0.0
 11
49.409318339793
 21
1.3
 31
0.0
  0
LINE
  5
2A3
330
30
100
AcDbEntity
  8
1
100
AcDbLine
 10
49.409318339793
 20
1.3
 30
0.0
 11
49.343318339793
 21
1.3
 31
0.0
  0
LINE
  5
2A4
330
30
100
AcDbEntity
  8
1
100
AcDbLine
 10
49.343318339793
 20
1.3
 30
0.0
 11
49.277318339793
 21
1.3
 31
0.0
  0
LINE
  5
2A5
330
30
100
AcDbEntity
  8
1
100
AcDbLine
 10
49.277318339793
 20
1.3
 30
0.0
 11
49.211318339793
 21
1.3
 31
0.0
  0
LINE
  5
2A6
330
30
100
AcDbEntity
  8
1
100
AcDbLine
 10
49.211318339793
 20
1.3
 30
0.0
 11
49.145318339793
 21
1.3
 31
0.0
  0
LINE
  5
2A7
330
30
100
AcDbEntity
  8
1
100
AcDbLine
 10
49.145318339793
 20
1.3
 30
0.0
 11
49.079318339793
 21
1.3
 31
0.0
  0
LINE
  5
2A8
330
30
100
AcDbEntity
  8
1
100
AcDbLine
 10
49.079318339793
 20
1.3
 30
0.0
 11
49.013318339793
 21
1.3
 31
0.0
  0
LINE
  5
2A9
330
30
100
AcDbEntity
  8
1
100
AcDbLine
 10
49.013318339793
 20
1.3
 30
0.0
 11
48.947318339793
 21
1.3
 31
0.0
  0
LINE
  5
2AA
330
30
100
AcDbEntity
  8
1
100
AcDbLine
 10
48.947318339793
 20
1.3
 30
0.0
 11
48.881318339793
 21
1.3
 31
0.0
  0
LINE
  5
2AB
330
30
100
AcDbEntity
  8
1
100
AcDbLine
 10
48.881318339793
 20
1.3
 30
0.0
 11
48.815318339793
 21
1.3
 31
0.0
  0
LINE
  5
2AC
330
30
100
AcDbEntity
  8
1
100
AcDbLine
 10
48.815318339793
 20
1.3
 30
0.0
 11
48.749318339793
 21
1.3
 31
0.0
  0
LINE
  5
2AD
330
30
100
AcDbEntity
  8
1
100
AcDbLine
 10
48.749318339793
 20
1.3
 30
0.0
 11
48.683318339793
 21
1.3
 31
0.0
  0
LINE
  5
2AE
330
30
100
AcDbEntity
  8
1
100
AcDbLine
 10
48.683318339793
 20
1.3
 30
0.0
 11
48.617318339793
 21
1.3
 31
0.0
  0
LINE
  5
2AF
330
30
100
AcDbEntity
  8
1
100
AcDbLine
 10
48.617318339793
 20
1.3
 30
0.0
 11
48.551318339793
 21
1.3
 31
0.0
  0
LINE
  5
2B0
330
30
100
AcDbEntity
  8
1
100
AcDbLine
 10
48.551318339793
 20
1.3
 30
0.0
 11
48.485318339793
 21
1.3
 31
0.0
  0
LINE
  5
2B1
330
30
100
AcDbEntity
  8
1
100
AcDbLine
 10
48.485318339793
 20
1.3
 30
0.0
 11
48.419318339793
 21
1.3
 31
0.0
  0
LINE
  5
2B2
330
30
100
AcDbEntity
  8
1
100
AcDbLine
 10
48.419318339793
 20
1.3
 30
0.0
 11
48.353318339793
 21
1.3
 31
0.0
  0
LINE
  5
2B3
330
30
100
AcDbEntity
  8
1
100
AcDbLine
 10
48.353318339793
 20
1.3
 30
0.0
 11
48.287318339793
 21
1.3
 31
0.0
  0
LINE
  5
2B4
330
30
100
AcDbEntity
  8
1
100
AcDbLine
 10
48.287318339793
 20
1.3
 30
0.0
 11
48.221318339793
 21
1.3
 31
0.0
  0
LINE
  5
2B5
330
30
100
AcDbEntity
  8
1
100
AcDbLine
 10
48.221318339793
 20
1.3
 30
0.0
 11
48.155318339793
 21
1.3
 31
0.0
  0
LINE
  5
2B6
330
30
100
AcDbEntity
  8
1
100
AcDbLine
 10
48.155318339793
 20
1.3
 30
0.0
 11
48.089318339793
 21
1.3
 31
0.0
  0
LINE
  5
2B7
330
30
100
AcDbEntity
  8
1
100
AcDbLine
 10
48.089318339793
 20
1.3
 30
0.0
 11
48.023318339793
 21
1.3
 31
0.0
  0
LINE
  5
2B8
330
30
100
AcDbEntity
  8
1
100
AcDbLine
 10
48.023318339793
 20
1.3
 30
0.0
 11
47.957318339793
 21
1.3
 31
0.0
  0
LINE
  5
2B9
330
30
100
AcDbEntity
  8
1
100
AcDbLine
 10
47.957318339793
 20
1.3
 30
0.0
 11
47.891318339793
 21
1.3
 31
0.0
  0
LINE
  5
2BA
330
30
100
AcDbEntity
  8
1
100
AcDbLine
 10
47.891318339793
 20
1.3
 30
0.0
 11
47.825318339793
 21
1.3
 31
0.0
  0
LINE
  5
2BB
330
30
100
AcDbEntity
  8
1
100
AcDbLine
 10
47.825318339793
 20
1.3
 30
0.0
 11
47.759318339793
 21
1.3
 31
0.0
  0
LINE
  5
2BC
330
30
100
AcDbEntity
  8
1
100
AcDbLine
 10
47.759318339793
 20
1.3
 30
0.0
 11
47.693318339793
 21
1.3
 31
0.0
  0
LINE
  5
2BD
330
30
100
AcDbEntity
  8
1
100
AcDbLine
 10
47.693318339793
 20
1.3
 30
0.0
 11
47.627318339793
 21
1.3
 31
0.0
  0
LINE
  5
2BE
330
30
100
AcDbEntity
  8
1
100
AcDbLine
 10
47.627318339793
 20
1.3
 30
0.0
 11
47.561318339793
 21
1.3
 31
0.0
  0
LINE
  5
2BF
330
30
100
AcDbEntity
  8
1
100
AcDbLine
 10
47.561318339793
 20
1.3
 30
0.0
 11
47.495318339793
 21
1.3
 31
0.0
  0
LINE
  5
2C0
330
30
100
AcDbEntity
  8
1
100
AcDbLine
 10
47.495318339793
 20
1.3
 30
0.0
 11
47.429318339793
 21
1.3
 31
0.0
  0
LINE
  5
2C1
330
30
100
AcDbEntity
  8
1
100
AcDbLine
 10
47.429318339793
 20
1.3
 30
0.0
 11
47.363318339793
 21
1.3
 31
0.0
  0
LINE
  5
2C2
330
30
100
AcDbEntity
  8
1
100
AcDbLine
 10
47.363318339793
 20
1.3
 30
0.0
 11
47.297318339793
 21
1.3
 31
0.0
  0
LINE
  5
2C3
330
30
100
AcDbEntity
  8
1
100
AcDbLine
 10
47.297318339793
 20
1.3
 30
0.0
 11
47.231318339793
 21
1.3
 31
0.0
  0
LINE
  5
2C4
330
30
100
AcDbEntity
  8
1
100
AcDbLine
 10
47.231318339793
 20
1.3
 30
0.0
 11
47.165318339793
 21
1.3
 31
0.0
  0
LINE
  5
2C5
330
30
100
AcDbEntity
  8
1
100
AcDbLine
 10
47.165318339793
 20
1.3
 30
0.0
 11
47.099318339793
 21
1.3
 31
0.0
  0
LINE
  5
2C6
330
30
100
AcDbEntity
  8
1
100
AcDbLine
 10
47.099318339793
 20
1.3
 30
0.0
 11
47.033318339793
 21
1.3
 31
0.0
  0
LINE
  5
2C7
330
30
100
AcDbEntity
  8
1
100
AcDbLine
 10
47.033318339793
 20
1.3
 30
0.0
 11
46.967318339793
 21
1.3
 31
0.0
  0
LINE
  5
2C8
330
30
100
AcDbEntity
  8
1
100
AcDbLine
 10
46.967318339793
 20
1.3
 30
0.0
 11
46.901318339793
 21
1.3
 31
0.0
  0
LINE
  5
2C9
330
30
100
AcDbEntity
  8
1
100
AcDbLine
 10
46.901318339793
 20
1.3
 30
0.0
 11
46.835318339793
 21
1.3
 31
0.0
  0
LINE
  5
2CA
330
30
100
AcDbEntity
  8
1
100
AcDbLine
 10
46.835318339793
 20
1.3
 30
0.0
 11
46.769318339793
 21
1.3
 31
0.0
  0
LINE
  5
2CB
330
30
100
AcDbEntity
  8
1
100
AcDbLine
 10
46.769318339793
 20
1.3
 30
0.0
 11
46.703318339793
 21
1.3
 31
0.0
  0
LINE
  5
2CC
330
30
100
AcDbEntity
  8
1
100
AcDbLine
 10
46.703318339793
 20
1.3
 30
0.0
 11
46.637318339793
 21
1.3
 31
0.0
  0
LINE
  5
2CD
330
30
100
AcDbEntity
  8
1
100
AcDbLine
 10
46.637318339793
 20
1.3
 30
0.0
 11
46.571318339793
 21
1.3
 31
0.0
  0
LINE
  5
2CE
330
30
100
AcDbEntity
  8
1
100
AcDbLine
 10
46.571318339793
 20
1.3
 30
0.0
 11
46.505318339793
 21
1.3
 31
0.0
  0
LINE
  5
2CF
330
30
100
AcDbEntity
  8
1
100
AcDbLine
 10
46.505318339793
 20
1.3
 30
0.0
 11
46.439318339793
 21
1.3
 31
0.0
  0
LINE
  5
2D0
330
30
100
AcDbEntity
  8
1
100
AcDbLine
 10
46.439318339793
 20
1.3
 30
0.0
 11
46.373318339793
 21
1.3
 31
0.0
  0
LINE
  5
2D1
330
30
100
AcDbEntity
  8
1
100
AcDbLine
 10
46.373318339793
 20
1.3
 30
0.0
 11
46.307318339793
 21
1.3
 31
0.0
  0
LINE
  5
2D2
330
30
100
AcDbEntity
  8
1
100
AcDbLine
 10
46.307318339793
 20
1.3
 30
0.0
 11
46.241318339793
 21
1.3
 31
0.0
  0
LINE
  5
2D3
330
30
100
AcDbEntity
  8
1
100
AcDbLine
 10
46.241318339793
 20
1.3
 30
0.0
 11
46.175318339793
 21
1.3
 31
0.0
  0
LINE
  5
2D4
330
30
100
AcDbEntity
  8
1
100
AcDbLine
 10
46.175318339793
 20
1.3
 30
0.0
 11
46.109318339793
 21
1.3
 31
0.0
  0
LINE
  5
2D5
330
30
100
AcDbEntity
  8
1
100
AcDbLine
 10
46.109318339793
 20
1.3
 30
0.0
 11
46.043318339793
 21
1.3
 31
0.0
  0
LINE
  5
2D6
330
30
100
AcDbEntity
  8
1
100
AcDbLine
 10
46.043318339793
 20
1.3
 30
0.0
 11
45.977318339793
 21
1.3
 31
0.0
  0
LINE
  5
2D7
330
30
100
AcDbEntity
  8
1
100
AcDbLine
 10
45.977318339793
 20
1.3
 30
0.0
 11
45.911318339793
 21
1.3
 31
0.0
  0
LINE
  5
2D8
330
30
100
AcDbEntity
  8
1
100
AcDbLine
 10
45.911318339793
 20
1.3
 30
0.0
 11
45.845318339793
 21
1.3
 31
0.0
  0
LINE
  5
2D9
330
30
100
AcDbEntity
  8
1
100
AcDbLine
 10
45.845318339793
 20
1.3
 30
0.0
 11
45.779318339793
 21
1.3
 31
0.0
  0
LINE
  5
2DA
330
30
100
AcDbEntity
  8
1
100
AcDbLine
 10
45.779318339793
 20
1.3
 30
0.0
 11
45.713318339793
 21
1.3
 31
0.0
  0
LINE
  5
2DB
330
30
100
AcDbEntity
  8
1
100
AcDbLine
 10
45.713318339793
 20
1.3
 30
0.0
 11
45.647318339793
 21
1.3
 31
0.0
  0
LINE
  5
2DC
330
30
100
AcDbEntity
  8
1
100
AcDbLine
 10
45.647318339793
 20
1.3
 30
0.0
 11
45.581318339793
 21
1.3
 31
0.0
  0
LINE
  5
2DD
330
30
100
AcDbEntity
  8
1
100
AcDbLine
 10
45.581318339793
 20
1.3
 30
0.0
 11
45.515318339793
 21
1.3
 31
0.0
  0
LINE
  5
2DE
330
30
100
AcDbEntity
  8
1
100
AcDbLine
 10
45.515318339793
 20
1.3
 30
0.0
 11
45.449318339793
 21
1.3
 31
0.0
  0
LINE
  5
2DF
330
30
100
AcDbEntity
  8
1
100
AcDbLine
 10
45.449318339793
 20
1.3
 30
0.0
 11
45.383318339793
 21
1.3
 31
0.0
  0
LINE
  5
2E0
330
30
100
AcDbEntity
  8
1
100
AcDbLine
 10
45.383318339793
 20
1.3
 30
0.0
 11
45.317318339793
 21
1.3
 31
0.0
  0
LINE
  5
2E1
330
30
100
AcDbEntity
  8
1
100
AcDbLine
 10
45.317318339793
 20
1.3
 30
0.0
 11
45.251318339793
 21
1.3
 31
0.0
  0
LINE
  5
2E2
330
30
100
AcDbEntity
  8
1
100
AcDbLine
 10
45.251318339793
 20
1.3
 30
0.0
 11
45.185318339793
 21
1.3
 31
0.0
  0
LINE
  5
2E3
330
30
100
AcDbEntity
  8
1
100
AcDbLine
 10
45.185318339793
 20
1.3
 30
0.0
 11
45.119318339793
 21
1.3
 31
0.0
  0
LINE
  5
2E4
330
30
100
AcDbEntity
  8
1
100
AcDbLine
 10
45.119318339793
 20
1.3
 30
0.0
 11
45.053318339793
 21
1.3
 31
0.0
  0
LINE
  5
2E5
330
30
100
AcDbEntity
  8
1
100
AcDbLine
 10
45.053318339793
 20
1.3
 30
0.0
 11
44.987318339793
 21
1.3
 31
0.0
  0
LINE
  5
2E6
330
30
100
AcDbEntity
  8
1
100
AcDbLine
 10
44.987318339793
 20
1.3
 30
0.0
 11
44.921318339793
 21
1.3
 31
0.0
  0
LINE
  5
2E7
330
30
100
AcDbEntity
  8
1
100
AcDbLine
 10
44.921318339793
 20
1.3
 30
0.0
 11
44.855318339793
 21
1.3
 31
0.0
  0
LINE
  5
2E8
330
30
100
AcDbEntity
  8
1
100
AcDbLine
 10
44.855318339793
 20
1.3
 30
0.0
 11
44.789318339793
 21
1.3
 31
0.0
  0
LINE
  5
2E9
330
30
100
AcDbEntity
  8
1
100
AcDbLine
 10
44.789318339793
 20
1.3
 30
0.0
 11
44.723318339793
 21
1.3
 31
0.0
  0
LINE
  5
2EA
330
30
100
AcDbEntity
  8
1
100
AcDbLine
 10
44.723318339793
 20
1.3
 30
0.0
 11
44.657318339793
 21
1.3
 31
0.0
  0
LINE
  5
2EB
330
30
100
AcDbEntity
  8
1
100
AcDbLine
 10
44.657318339793
 20
1.3
 30
0.0
 11
44.591318339793
 21
1.3
 31
0.0
  0
LINE
  5
2EC
330
30
100
AcDbEntity
  8
1
100
AcDbLine
 10
44.591318339793
 20
1.3
 30
0.0
 11
44.525318339793
 21
1.3
 31
0.0
  0
LINE
  5
2ED
330
30
100
AcDbEntity
  8
1
100
AcDbLine
 10
44.525318339793
 20
1.3
 30
0.0
 11
44.459318339793
 21
1.3
 31
0.0
  0
LINE
  5
2EE
330
30
100
AcDbEntity
  8
1
100
AcDbLine
 10
44.459318339793
 20
1.3
 30
0.0
 11
44.393318339793
 21
1.3
 31
0.0
  0
LINE
  5
2EF
330
30
100
AcDbEntity
  8
1
100
AcDbLine
 10
44.393318339793
 20
1.3
 30
0.0
 11
44.327318339793
 21
1.3
 31
0.0
  0
LINE
  5
2F0
330
30
100
AcDbEntity
  8
1
100
AcDbLine
 10
44.327318339793
 20
1.3
 30
0.0
 11
44.261318339793
 21
1.3
 31
0.0
  0
LINE
  5
2F1
330
30
100
AcDbEntity
  8
1
100
AcDbLine
 10
44.261318339793
 20
1.3
 30
0.0
 11
44.195318339793
 21
1.3
 31
0.0
  0
LINE
  5
2F2
330
30
100
AcDbEntity
  8
1
100
AcDbLine
 10
44.195318339793
 20
1.3
 30
0.0
 11
44.129318339793
 21
1.3
 31
0.0
  0
LINE
  5
2F3
330
30
100
AcDbEntity
  8
1
100
AcDbLine
 10
44.129318339793
 20
1.3
 30
0.0
 11
44.063318339793
 21
1.3
 31
0.0
  0
LINE
  5
2F4
330
30
100
AcDbEntity
  8
1
100
AcDbLine
 10
44.063318339793
 20
1.3
 30
0.0
 11
43.997318339793
 21
1.3
 31
0.0
  0
LINE
  5
2F5
330
30
100
AcDbEntity
  8
1
100
AcDbLine
 10
43.997318339793
 20
1.3
 30
0.0
 11
43.931318339793
 21
1.3
 31
0.0
  0
LINE
  5
2F6
330
30
100
AcDbEntity
  8
1
100
AcDbLine
 10
43.931318339793
 20
1.3
 30
0.0
 11
43.865318339793
 21
1.3
 31
0.0
  0
LINE
  5
2F7
330
30
100
AcDbEntity
  8
1
100
AcDbLine
 10
43.865318339793
 20
1.3
 30
0.0
 11
43.799318339793
 21
1.3
 31
0.0
  0
LINE
  5
2F8
330
30
100
AcDbEntity
  8
1
100
AcDbLine
 10
43.799318339793
 20
1.3
 30
0.0
 11
43.733318339793
 21
1.3
 31
0.0
  0
LINE
  5
2F9
330
30
100
AcDbEntity
  8
1
100
AcDbLine
 10
43.733318339793
 20
1.3
 30
0.0
 11
43.667318339793
 21
1.3
 31
0.0
  0
LINE
  5
2FA
330
30
100
AcDbEntity
  8
1
100
AcDbLine
 10
43.667318339793
 20
1.3
 30
0.0
 11
43.601318339793
 21
1.3
 31
0.0
  0
LINE
  5
2FB
330
30
100
AcDbEntity
  8
1
100
AcDbLine
 10
43.601318339793
 20
1.3
 30
0.0
 11
43.535318339793
 21
1.3
 31
0.0
  0
LINE
  5
2FC
330
30
100
AcDbEntity
  8
1
100
AcDbLine
 10
43.535318339793
 20
1.3
 30
0.0
 11
43.469318339793
 21
1.3
 31
0.0
  0
LINE
  5
2FD
330
30
100
AcDbEntity
  8
1
100
AcDbLine
 10
43.469318339793
 20
1.3
 30
0.0
 11
43.403318339793
 21
1.3
 31
0.0
  0
LINE
  5
2FE
330
30
100
AcDbEntity
  8
1
100
AcDbLine
 10
43.403318339793
 20
1.3
 30
0.0
 11
43.337318339793
 21
1.3
 31
0.0
  0
LINE
  5
2FF
330
30
100
AcDbEntity
  8
1
100
AcDbLine
 10
43.337318339793
 20
1.3
 30
0.0
 11
43.271318339793
 21
1.3
 31
0.0
  0
LINE
  5
300
330
30
100
AcDbEntity
  8
1
100
AcDbLine
 10
43.271318339793
 20
1.3
 30
0.0
 11
43.205318339793
 21
1.3
 31
0.0
  0
LINE
  5
301
330
30
100
AcDbEntity
  8
1
100
AcDbLine
 10
43.205318339793
 20
1.3
 30
0.0
 11
43.139318339793
 21
1.3
 31
0.0
  0
LINE
  5
302
330
30
100
AcDbEntity
  8
1
100
AcDbLine
 10
43.139318339793
 20
1.3
 30
0.0
 11
43.073318339793
 21
1.3
 31
0.0
  0
LINE
  5
303
330
30
100
AcDbEntity
  8
1
100
AcDbLine
 10
43.073318339793
 20
1.3
 30
0.0
 11
43.007318339793
 21
1.3
 31
0.0
  0
LINE
  5
304
330
30
100
AcDbEntity
  8
1
100
AcDbLine
 10
43.007318339793
 20
1.3
 30
0.0
 11
42.941318339793
 21
1.3
 31
0.0
  0
LINE
  5
305
330
30
100
AcDbEntity
  8
1
100
AcDbLine
 10
42.941318339793
 20
1.3
 30
0.0
 11
42.875318339793
 21
1.3
 31
0.0
  0
LINE
  5
306
330
30
100
AcDbEntity
  8
1
100
AcDbLine
 10
42.875318339793
 20
1.3
 30
0.0
 11
42.809318339793
 21
1.3
 31
0.0
  0
LINE
  5
307
330
30
100
AcDbEntity
  8
1
100
AcDbLine
 10
42.809318339793
 20
1.3
 30
0.0
 11
42.743318339793
 21
1.3
 31
0.0
  0
LINE
  5
308
330
30
100
AcDbEntity
  8
1
100
AcDbLine
 10
42.743318339793
 20
1.3
 30
0.0
 11
42.677318339793
 21
1.3
 31
0.0
  0
LINE
  5
309
330
30
100
AcDbEntity
  8
1
100
AcDbLine
 10
42.677318339793
 20
1.3
 30
0.0
 11
42.611318339793
 21
1.3
 31
0.0
  0
LINE
  5
30A
330
30
100
AcDbEntity
  8
1
100
AcDbLine
 10
42.611318339793
 20
1.3
 30
0.0
 11
42.545318339793
 21
1.3
 31
0.0
  0
LINE
  5
30B
330
30
100
AcDbEntity
  8
1
100
AcDbLine
 10
42.545318339793
 20
1.3
 30
0.0
 11
42.479318339793
 21
1.3
 31
0.0
  0
LINE
  5
30C
330
30
100
AcDbEntity
  8
1
100
AcDbLine
 10
42.479318339793
 20
1.3
 30
0.0
 11
42.413318339793
 21
1.3
 31
0.0
  0
LINE
  5
30D
330
30
100
AcDbEntity
  8
1
100
AcDbLine
 10
42.413318339793
 20
1.3
 30
0.0
 11
42.347318339793
 21
1.3
 31
0.0
  0
LINE
  5
30E
330
30
100
AcDbEntity
  8
1
100
AcDbLine
 10
42.347318339793
 20
1.3
 30
0.0
 11
42.281318339793
 21
1.3
 31
0.0
  0
LINE
  5
30F
330
30
100
AcDbEntity
  8
1
100
AcDbLine
 10
42.281318339793
 20
1.3
 30
0.0
 11
42.215318339793
 21
1.3
 31
0.0
  0
LINE
  5
310
330
30
100
AcDbEntity
  8
1
100
AcDbLine
 10
42.215318339793
 20
1.3
 30
0.0
 11
42.149318339793
 21
1.3
 31
0.0
  0
LINE
  5
311
330
30
100
AcDbEntity
  8
1
100
AcDbLine
 10
42.149318339793
 20
1.3
 30
0.0
 11
42.083318339793
 21
1.3
 31
0.0
  0
LINE
  5
312
330
30
100
AcDbEntity
  8
1
100
AcDbLine
 10
42.083318339793
 20
1.3
 30
0.0
 11
42.017318339793
 21
1.3
 31
0.0
  0
LINE
  5
313
330
30
100
AcDbEntity
  8
1
100
AcDbLine
 10
42.017318339793
 20
1.3
 30
0.0
 11
41.951318339793
 21
1.3
 31
0.0
  0
LINE
  5
314
330
30
100
AcDbEntity
  8
1
100
AcDbLine
 10
41.951318339793
 20
1.3
 30
0.0
 11
41.885318339793
 21
1.3
 31
0.0
  0
LINE
  5
315
330
30
100
AcDbEntity
  8
1
100
AcDbLine
 10
41.885318339793
 20
1.3
 30
0.0
 11
41.819318339793
 21
1.3
 31
0.0
  0
LINE
  5
316
330
30
100
AcDbEntity
  8
1
100
AcDbLine
 10
41.819318339793
 20
1.3
 30
0.0
 11
41.753318339793
 21
1.3
 31
0.0
  0
LINE
  5
317
330
30
100
AcDbEntity
  8
1
100
AcDbLine
 10
41.753318339793
 20
1.3
 30
0.0
 11
41.687318339793
 21
1.3
 31
0.0
  0
LINE
  5
318
330
30
100
AcDbEntity
  8
1
100
AcDbLine
 10
41.687318339793
 20
1.3
 30
0.0
 11
41.621318339793
 21
1.3
 31
0.0
  0
LINE
  5
319
330
30
100
AcDbEntity
  8
1
100
AcDbLine
 10
41.621318339793
 20
1.3
 30
0.0
 11
41.555318339793
 21
1.3
 31
0.0
  0
LINE
  5
31A
330
30
100
AcDbEntity
  8
1
100
AcDbLine
 10
41.555318339793
 20
1.3
 30
0.0
 11
41.489318339793
 21
1.3
 31
0.0
  0
LINE
  5
31B
330
30
100
AcDbEntity
  8
1
100
AcDbLine
 10
41.489318339793
 20
1.3
 30
0.0
 11
41.423318339793
 21
1.3
 31
0.0
  0
LINE
  5
31C
330
30
100
AcDbEntity
  8
1
100
AcDbLine
 10
41.423318339793
 20
1.3
 30
0.0
 11
41.357318339793
 21
1.3
 31
0.0
  0
LINE
  5
31D
330
30
100
AcDbEntity
  8
1
100
AcDbLine
 10
41.357318339793
 20
1.3
 30
0.0
 11
41.291318339793
 21
1.3
 31
0.0
  0
LINE
  5
31E
330
30
100
AcDbEntity
  8
1
100
AcDbLine
 10
41.291318339793
 20
1.3
 30
0.0
 11
41.225318339793
 21
1.3
 31
0.0
  0
LINE
  5
31F
330
30
100
AcDbEntity
  8
1
100
AcDbLine
 10
41.225318339793
 20
1.3
 30
0.0
 11
41.159318339793
 21
1.3
 31
0.0
  0
LINE
  5
320
330
30
100
AcDbEntity
  8
1
100
AcDbLine
 10
41.159318339793
 20
1.3
 30
0.0
 11
41.093318339793
 21
1.3
 31
0.0
  0
LINE
  5
321
330
30
100
AcDbEntity
  8
1
100
AcDbLine
 10
41.093318339793
 20
1.3
 30
0.0
 11
41.027318339793
 21
1.3
 31
0.0
  0
LINE
  5
322
330
30
100
AcDbEntity
  8
1
100
AcDbLine
 10
41.027318339793
 20
1.3
 30
0.0
 11
40.961318339793
 21
1.3
 31
0.0
  0
LINE
  5
323
330
30
100
AcDbEntity
  8
1
100
AcDbLine
 10
40.961318339793
 20
1.3
 30
0.0
 11
40.895318339793
 21
1.3
 31
0.0
  0
LINE
  5
324
330
30
100
AcDbEntity
  8
1
100
AcDbLine
 10
40.895318339793
 20
1.3
 30
0.0
 11
40.829318339793
 21
1.3
 31
0.0
  0
LINE
  5
325
330
30
100
AcDbEntity
  8
1
100
AcDbLine
 10
40.829318339793
 20
1.3
 30
0.0
 11
40.763318339793
 21
1.3
 31
0.0
  0
LINE
  5
326
330
30
100
AcDbEntity
  8
1
100
AcDbLine
 10
40.763318339793
 20
1.3
 30
0.0
 11
40.697318339793
 21
1.3
 31
0.0
  0
LINE
  5
327
330
30
100
AcDbEntity
  8
1
100
AcDbLine
 10
40.697318339793
 20
1.3
 30
0.0
 11
40.631318339793
 21
1.3
 31
0.0
  0
LINE
  5
328
330
30
100
AcDbEntity
  8
1
100
AcDbLine
 10
40.631318339793
 20
1.3
 30
0.0
 11
40.565318339793
 21
1.3
 31
0.0
  0
LINE
  5
329
330
30
100
AcDbEntity
  8
1
100
AcDbLine
 10
40.565318339793
 20
1.3
 30
0.0
 11
40.499318339793
 21
1.3
 31
0.0
  0
LINE
  5
32A
330
30
100
AcDbEntity
  8
1
100
AcDbLine
 10
40.499318339793
 20
1.3
 30
0.0
 11
40.433318339793
 21
1.3
 31
0.0
  0
LINE
  5
32B
330
30
100
AcDbEntity
  8
1
100
AcDbLine
 10
40.433318339793
 20
1.3
 30
0.0
 11
40.367318339793
 21
1.3
 31
0.0
  0
LINE
  5
32C
330
30
100
AcDbEntity
  8
1
100
AcDbLine
 10
40.367318339793
 20
1.3
 30
0.0
 11
40.301318339793
 21
1.3
 31
0.0
  0
LINE
  5
32D
330
30
100
AcDbEntity
  8
1
100
AcDbLine
 10
40.301318339793
 20
1.3
 30
0.0
 11
40.235318339793
 21
1.3
 31
0.0
  0
LINE
  5
32E
330
30
100
AcDbEntity
  8
1
100
AcDbLine
 10
40.235318339793
 20
1.3
 30
0.0
 11
40.169318339793
 21
1.3
 31
0.0
  0
LINE
  5
32F
330
30
100
AcDbEntity
  8
1
100
AcDbLine
 10
40.169318339793
 20
1.3
 30
0.0
 11
40.103318339793
 21
1.3
 31
0.0
  0
LINE
  5
330
330
30
100
AcDbEntity
  8
1
100
AcDbLine
 10
40.103318339793
 20
1.3
 30
0.0
 11
40.037318339793
 21
1.3
 31
0.0
  0
LINE
  5
331
330
30
100
AcDbEntity
  8
1
100
AcDbLine
 10
40.037318339793
 20
1.3
 30
0.0
 11
39.971318339793
 21
1.3
 31
0.0
  0
LINE
  5
332
330
30
100
AcDbEntity
  8
1
100
AcDbLine
 10
39.971318339793
 20
1.3
 30
0.0
 11
39.905318339793
 21
1.3
 31
0.0
  0
LINE
  5
333
330
30
100
AcDbEntity
  8
1
100
AcDbLine
 10
39.905318339793
 20
1.3
 30
0.0
 11
39.839318339793
 21
1.3
 31
0.0
  0
LINE
  5
334
330
30
100
AcDbEntity
  8
1
100
AcDbLine
 10
39.839318339793
 20
1.3
 30
0.0
 11
39.773318339793
 21
1.3
 31
0.0
  0
LINE
  5
335
330
30
100
AcDbEntity
  8
1
100
AcDbLine
 10
39.773318339793
 20
1.3
 30
0.0
 11
39.707318339793
 21
1.3
 31
0.0
  0
LINE
  5
336
330
30
100
AcDbEntity
  8
1
100
AcDbLine
 10
39.707318339793
 20
1.3
 30
0.0
 11
39.641318339793
 21
1.3
 31
0.0
  0
LINE
  5
337
330
30
100
AcDbEntity
  8
1
100
AcDbLine
 10
39.641318339793
 20
1.3
 30
0.0
 11
39.575318339793
 21
1.3
 31
0.0
  0
LINE
  5
338
330
30
100
AcDbEntity
  8
1
100
AcDbLine
 10
39.575318339793
 20
1.3
 30
0.0
 11
39.509318339793
 21
1.3
 31
0.0
  0
LINE
  5
339
330
30
100
AcDbEntity
  8
1
100
AcDbLine
 10
39.509318339793
 20
1.3
 30
0.0
 11
39.443318339793
 21
1.3
 31
0.0
  0
LINE
  5
33A
330
30
100
AcDbEntity
  8
1
100
AcDbLine
 10
39.443318339793
 20
1.3
 30
0.0
 11
39.377318339793
 21
1.3
 31
0.0
  0
LINE
  5
33B
330
30
100
AcDbEntity
  8
1
100
AcDbLine
 10
39.377318339793
 20
1.3
 30
0.0
 11
39.311318339793
 21
1.3
 31
0.0
  0
LINE
  5
33C
330
30
100
AcDbEntity
  8
1
100
AcDbLine
 10
39.311318339793
 20
1.3
 30
0.0
 11
39.245318339793
 21
1.3
 31
0.0
  0
LINE
  5
33D
330
30
100
AcDbEntity
  8
1
100
AcDbLine
 10
39.245318339793
 20
1.3
 30
0.0
 11
39.179318339793
 21
1.3
 31
0.0
  0
LINE
  5
33E
330
30
100
AcDbEntity
  8
1
100
AcDbLine
 10
39.179318339793
 20
1.3
 30
0.0
 11
39.113318339793
 21
1.3
 31
0.0
  0
LINE
  5
33F
330
30
100
AcDbEntity
  8
1
100
AcDbLine
 10
39.113318339793
 20
1.3
 30
0.0
 11
39.047318339793
 21
1.3
 31
0.0
  0
LINE
  5
340
330
30
100
AcDbEntity
  8
1
100
AcDbLine
 10
39.047318339793
 20
1.3
 30
0.0
 11
38.981318339793
 21
1.3
 31
0.0
  0
LINE
  5
341
330
30
100
AcDbEntity
  8
1
100
AcDbLine
 10
38.981318339793
 20
1.3
 30
0.0
 11
38.915318339793
 21
1.3
 31
0.0
  0
LINE
  5
342
330
30
100
AcDbEntity
  8
1
100
AcDbLine
 10
38.915318339793
 20
1.3
 30
0.0
 11
38.849318339793
 21
1.3
 31
0.0
  0
LINE
  5
343
330
30
100
AcDbEntity
  8
1
100
AcDbLine
 10
38.849318339793
 20
1.3
 30
0.0
 11
38.783318339793
 21
1.3
 31
0.0
  0
LINE
  5
344
330
30
100
AcDbEntity
  8
1
100
AcDbLine
 10
38.783318339793
 20
1.3
 30
0.0
 11
38.717318339793
 21
1.3
 31
0.0
  0
LINE
  5
345
330
30
100
AcDbEntity
  8
1
100
AcDbLine
 10
38.717318339793
 20
1.3
 30
0.0
 11
38.651318339793
 21
1.3
 31
0.0
  0
LINE
  5
346
330
30
100
AcDbEntity
  8
1
100
AcDbLine
 10
38.651318339793
 20
1.3
 30
0.0
 11
38.585318339793
 21
1.3
 31
0.0
  0
LINE
  5
347
330
30
100
AcDbEntity
  8
1
100
AcDbLine
 10
38.585318339793
 20
1.3
 30
0.0
 11
38.519318339793
 21
1.3
 31
0.0
  0
LINE
  5
348
330
30
100
AcDbEntity
  8
1
100
AcDbLine
 10
38.519318339793
 20
1.3
 30
0.0
 11
38.453318339793
 21
1.3
 31
0.0
  0
LINE
  5
349
330
30
100
AcDbEntity
  8
1
100
AcDbLine
 10
38.453318339793
 20
1.3
 30
0.0
 11
38.387318339793
 21
1.3
 31
0.0
  0
LINE
  5
34A
330
30
100
AcDbEntity
  8
1
100
AcDbLine
 10
38.387318339793
 20
1.3
 30
0.0
 11
38.321318339793
 21
1.3
 31
0.0
  0
LINE
  5
34B
330
30
100
AcDbEntity
  8
1
100
AcDbLine
 10
38.321318339793
 20
1.3
 30
0.0
 11
38.255318339793
 21
1.3
 31
0.0
  0
LINE
  5
34C
330
30
100
AcDbEntity
  8
1
100
AcDbLine
 10
38.253987871165
 20
1.3
 30
0.0
 11
38.253987871165
 21
-1.3
 31
0.0
  0
LINE
  5
34D
330
30
100
AcDbEntity
  8
1
100
AcDbLine
 10
39.253987871165
 20
-1.3
 30
0.0
 11
39.253987871165
 21
1.3
 31
0.0
  0
LINE
  5
34E
330
30
100
AcDbEntity
  8
1
100
AcDbLine
 10
39.253987871165
 20
1.3
 30
0.0
 11
39.253987871165
 21
-1.3
 31
0.0
  0
LINE
  5
34F
330
30
100
AcDbEntity
  8
SK1
100
AcDbLine
 10
21.105318339793
 20
1.7905
 30
0.0
 11
1.953987871165
 21
1.7905
 31
0.0
  0
LINE
  5
350
330
30
100
AcDbEntity
  8
SK1
100
AcDbLine
 10
1.953987871165
 20
1.7905
 30
0.0
 11
0.0
 21
0.0
 31
0.0
  0
LINE
  5
351
330
30
100
AcDbEntity
  8
SK1
100
AcDbLine
 10
21.105318339793
 20
-1.7905
 30
0.0
 11
1.953987871165
 21
-1.7905
 31
0.0
  0
LINE
  5
352
330
30
100
AcDbEntity
  8
SK1
100
AcDbLine
 10
1.953987871165
 20
-1.7905
 30
0.0
 11
0.0
 21
0.0
 31
0.0
  0
LINE
  5
353
330
30
100
AcDbEntity
  8
SK1
100
AcDbLine
 10
1.953987871165
 20
1.7905
 30
0.0
 11
1.953987871165
 21
-1.7905
 31
0.0
  0
LINE
  5
354
330
30
100
AcDbEntity
  8
SK1
100
AcDbLine
 10
1.953987871165
 20
1.7905
 30
0.0
 11
1.953987871165
 21
-1.7905
 31
0.0
  0
LINE
  5
355
330
30
100
AcDbEntity
  8
SK1
100
AcDbLine
 10
22.145418339793
 20
1.40688
 30
0.0
 11
22.512218339793
 21
1.0401
 31
0.0
  0
LINE
  5
356
330
30
100
AcDbEntity
  8
SK1
100
AcDbLine
 10
21.638118339793
 20
1.66666
 30
0.0
 11
22.772018339793
 21
0.532833
 31
0.0
  0
LINE
  5
357
330
30
100
AcDbEntity
  8
SK1
100
AcDbLine
 10
21.320718339793
 20
1.73657
 30
0.0
 11
22.841918339793
 21
0.215434
 31
0.0
  0
LINE
  5
358
330
30
100
AcDbEntity
  8
SK1
100
AcDbLine
 10
21.105318339793
 20
1.70452
 30
0.0
 11
22.809818339793
 21
0.0
 31
0.0
  0
LINE
  5
359
330
30
100
AcDbEntity
  8
SK1
100
AcDbLine
 10
21.105318339793
 20
1.45703
 30
0.0
 11
22.562318339793
 21
0.0
 31
0.0
  0
LINE
  5
35A
330
30
100
AcDbEntity
  8
SK1
100
AcDbLine
 10
21.105318339793
 20
1.20954
 30
0.0
 11
22.314818339793
 21
0.0
 31
0.0
  0
LINE
  5
35B
330
30
100
AcDbEntity
  8
SK1
100
AcDbLine
 10
21.105318339793
 20
0.962054
 30
0.0
 11
22.067418339793
 21
0.0
 31
0.0
  0
LINE
  5
35C
330
30
100
AcDbEntity
  8
SK1
100
AcDbLine
 10
21.105318339793
 20
0.714566
 30
0.0
 11
21.819918339793
 21
0.0
 31
0.0
  0
LINE
  5
35D
330
30
100
AcDbEntity
  8
SK1
100
AcDbLine
 10
21.105318339793
 20
0.467079
 30
0.0
 11
21.572418339793
 21
0.0
 31
0.0
  0
LINE
  5
35E
330
30
100
AcDbEntity
  8
SK1
100
AcDbLine
 10
21.105318339793
 20
0.219592
 30
0.0
 11
21.324918339793
 21
0.0
 31
0.0
  0
LINE
  5
35F
330
30
100
AcDbEntity
  8
SK1
100
AcDbLine
 10
21.105318339793
 20
1.70452
 30
0.0
 11
21.149418339793
 21
1.74861
 31
0.0
  0
LINE
  5
360
330
30
100
AcDbEntity
  8
SK1
100
AcDbLine
 10
21.105318339793
 20
1.45703
 30
0.0
 11
21.376318339793
 21
1.72802
 31
0.0
  0
LINE
  5
361
330
30
100
AcDbEntity
  8
SK1
100
AcDbLine
 10
21.105318339793
 20
1.20954
 30
0.0
 11
21.579518339793
 21
1.6837
 31
0.0
  0
LINE
  5
362
330
30
100
AcDbEntity
  8
SK1
100
AcDbLine
 10
21.105318339793
 20
0.962054
 30
0.0
 11
21.764118339793
 21
1.62082
 31
0.0
  0
LINE
  5
363
330
30
100
AcDbEntity
  8
SK1
100
AcDbLine
 10
21.105318339793
 20
0.714566
 30
0.0
 11
21.932418339793
 21
1.54167
 31
0.0
  0
LINE
  5
364
330
30
100
AcDbEntity
  8
SK1
100
AcDbLine
 10
21.105318339793
 20
0.467079
 30
0.0
 11
22.086318339793
 21
1.44812
 31
0.0
  0
LINE
  5
365
330
30
100
AcDbEntity
  8
SK1
100
AcDbLine
 10
21.105318339793
 20
0.219592
 30
0.0
 11
22.227918339793
 21
1.34216
 31
0.0
  0
LINE
  5
366
330
30
100
AcDbEntity
  8
SK1
100
AcDbLine
 10
21.133218339793
 20
0.0
 30
0.0
 11
22.356118339793
 21
1.22288
 31
0.0
  0
LINE
  5
367
330
30
100
AcDbEntity
  8
SK1
100
AcDbLine
 10
21.380718339793
 20
0.0
 30
0.0
 11
22.472318339793
 21
1.09157
 31
0.0
  0
LINE
  5
368
330
30
100
AcDbEntity
  8
SK1
100
AcDbLine
 10
21.628218339793
 20
0.0
 30
0.0
 11
22.576018339793
 21
0.947822
 31
0.0
  0
LINE
  5
369
330
30
100
AcDbEntity
  8
SK1
100
AcDbLine
 10
21.875718339793
 20
0.0
 30
0.0
 11
22.665818339793
 21
0.790145
 31
0.0
  0
LINE
  5
36A
330
30
100
AcDbEntity
  8
SK1
100
AcDbLine
 10
22.123118339793
 20
0.0
 30
0.0
 11
22.741718339793
 21
0.618517
 31
0.0
  0
LINE
  5
36B
330
30
100
AcDbEntity
  8
SK1
100
AcDbLine
 10
22.370618339793
 20
0.0
 30
0.0
 11
22.801318339793
 21
0.430696
 31
0.0
  0
LINE
  5
36C
330
30
100
AcDbEntity
  8
SK1
100
AcDbLine
 10
22.618118339793
 20
0.0
 30
0.0
 11
22.840918339793
 21
0.222827
 31
0.0
  0
LINE
  5
36D
330
30
100
AcDbEntity
  8
SK1
100
AcDbLine
 10
21.105318339793
 20
0.0
 30
0.0
 11
21.105318339793
 21
1.75
 31
0.0
  0
LINE
  5
36E
330
30
100
AcDbEntity
  8
SK1
100
AcDbLine
 10
21.105318339793
 20
0.0
 30
0.0
 11
22.855318339793
 21
0.0
 31
0.0
  0
ARC
  5
36F
330
30
100
AcDbEntity
  8
SK1
100
AcDbCircle
 10
21.105318339793
 20
0.0
 30
0.0
 40
1.75
100
AcDbArc
 50
0.0
 51
90.0
  0
ARC
  5
370
330
30
100
AcDbEntity
  8
SK1
100
AcDbCircle
 10
21.105318339793
 20
0.0
 30
0.0
 40
1.75
100
AcDbArc
 50
90.0
 51
180.0
  0
LINE
  5
371
330
30
100
AcDbEntity
  8
SK1
100
AcDbLine
 10
21.077418339793
 20
0.0
 30
0.0
 11
21.105318339793
 21
-0.0278958
 31
0.0
  0
LINE
  5
372
330
30
100
AcDbEntity
  8
SK1
100
AcDbLine
 10
20.829918339793
 20
0.0
 30
0.0
 11
21.105318339793
 21
-0.275383
 31
0.0
  0
LINE
  5
373
330
30
100
AcDbEntity
  8
SK1
100
AcDbLine
 10
20.582418339793
 20
0.0
 30
0.0
 11
21.105318339793
 21
-0.522871
 31
0.0
  0
LINE
  5
374
330
30
100
AcDbEntity
  8
SK1
100
AcDbLine
 10
20.334918339793
 20
0.0
 30
0.0
 11
21.105318339793
 21
-0.770358
 31
0.0
  0
LINE
  5
375
330
30
100
AcDbEntity
  8
SK1
100
AcDbLine
 10
20.087518339793
 20
0.0
 30
0.0
 11
21.105318339793
 21
-1.01785
 31
0.0
  0
LINE
  5
376
330
30
100
AcDbEntity
  8
SK1
100
AcDbLine
 10
19.840018339793
 20
0.0
 30
0.0
 11
21.105318339793
 21
-1.26533
 31
0.0
  0
LINE
  5
377
330
30
100
AcDbEntity
  8
SK1
100
AcDbLine
 10
19.592518339793
 20
0.0
 30
0.0
 11
21.105318339793
 21
-1.51282
 31
0.0
  0
LINE
  5
378
330
30
100
AcDbEntity
  8
SK1
100
AcDbLine
 10
19.355618339793
 20
-0.0106419
 30
0.0
 11
21.094718339793
 21
-1.74967
 31
0.0
  0
LINE
  5
379
330
30
100
AcDbEntity
  8
SK1
100
AcDbLine
 10
19.378918339793
 20
-0.281429
 30
0.0
 11
20.823918339793
 21
-1.72637
 31
0.0
  0
LINE
  5
37A
330
30
100
AcDbEntity
  8
SK1
100
AcDbLine
 10
19.469218339793
 20
-0.619147
 30
0.0
 11
20.486218339793
 21
-1.63613
 31
0.0
  0
LINE
  5
37B
330
30
100
AcDbEntity
  8
SK1
100
AcDbLine
 10
19.356718339793
 20
-0.0440984
 30
0.0
 11
19.400818339793
 21
0.0
 31
0.0
  0
LINE
  5
37C
330
30
100
AcDbEntity
  8
SK1
100
AcDbLine
 10
19.377318339793
 20
-0.270991
 30
0.0
 11
19.648318339793
 21
0.0
 31
0.0
  0
LINE
  5
37D
330
30
100
AcDbEntity
  8
SK1
100
AcDbLine
 10
19.421618339793
 20
-0.474162
 30
0.0
 11
19.895818339793
 21
0.0
 31
0.0
  0
LINE
  5
37E
330
30
100
AcDbEntity
  8
SK1
100
AcDbLine
 10
19.484518339793
 20
-0.658762
 30
0.0
 11
20.143218339793
 21
0.0
 31
0.0
  0
LINE
  5
37F
330
30
100
AcDbEntity
  8
SK1
100
AcDbLine
 10
19.563618339793
 20
-0.827105
 30
0.0
 11
20.390718339793
 21
0.0
 31
0.0
  0
LINE
  5
380
330
30
100
AcDbEntity
  8
SK1
100
AcDbLine
 10
19.657218339793
 20
-0.981039
 30
0.0
 11
20.638218339793
 21
0.0
 31
0.0
  0
LINE
  5
381
330
30
100
AcDbEntity
  8
SK1
100
AcDbLine
 10
19.763118339793
 20
-1.12257
 30
0.0
 11
20.885718339793
 21
0.0
 31
0.0
  0
LINE
  5
382
330
30
100
AcDbEntity
  8
SK1
100
AcDbLine
 10
19.882418339793
 20
-1.25077
 30
0.0
 11
21.105318339793
 21
-0.0278958
 31
0.0
  0
LINE
  5
383
330
30
100
AcDbEntity
  8
SK1
100
AcDbLine
 10
20.013718339793
 20
-1.36695
 30
0.0
 11
21.105318339793
 21
-0.275383
 31
0.0
  0
LINE
  5
384
330
30
100
AcDbEntity
  8
SK1
100
AcDbLine
 10
20.157518339793
 20
-1.47069
 30
0.0
 11
21.105318339793
 21
-0.522871
 31
0.0
  0
LINE
  5
385
330
30
100
AcDbEntity
  8
SK1
100
AcDbLine
 10
20.315218339793
 20
-1.5605
 30
0.0
 11
21.105318339793
 21
-0.770358
 31
0.0
  0
LINE
  5
386
330
30
100
AcDbEntity
  8
SK1
100
AcDbLine
 10
20.486818339793
 20
-1.63636
 30
0.0
 11
21.105318339793
 21
-1.01785
 31
0.0
  0
LINE
  5
387
330
30
100
AcDbEntity
  8
SK1
100
AcDbLine
 10
20.674618339793
 20
-1.69603
 30
0.0
 11
21.105318339793
 21
-1.26533
 31
0.0
  0
LINE
  5
388
330
30
100
AcDbEntity
  8
SK1
100
AcDbLine
 10
20.882518339793
 20
-1.73565
 30
0.0
 11
21.105318339793
 21
-1.51282
 31
0.0
  0
LINE
  5
389
330
30
100
AcDbEntity
  8
SK1
100
AcDbLine
 10
21.105318339793
 20
0.0
 30
0.0
 11
19.355318339793
 21
0.0
 31
0.0
  0
LINE
  5
38A
330
30
100
AcDbEntity
  8
SK1
100
AcDbLine
 10
21.105318339793
 20
-1.75
 30
0.0
 11
21.105318339793
 21
0.0
 31
0.0
  0
ARC
  5
38B
330
30
100
AcDbEntity
  8
SK1
100
AcDbCircle
 10
21.105318339793
 20
0.0
 30
0.0
 40
1.75
100
AcDbArc
 50
180.0
 51
270.0
  0
ARC
  5
38C
330
30
100
AcDbEntity
  8
SK1
100
AcDbCircle
 10
21.105318339793
 20
0.0
 30
0.0
 40
1.75
100
AcDbArc
 50
270.0
 51
0.0
  0
LINE
  5
3ED
330
30
100
AcDbEntity
  8
NOCUT
100
AcDbLine
 10
39.253987871165
 20
0.0
 30
0.0
 11
39.253987871165
 21
1.3
 31
0.0
  0
LINE
  5
3EE
330
30
100
AcDbEntity
  8
NOCUT
100
AcDbLine
 10
39.253987871165
 20
1.3
 30
0.0
 11
38.253987871165
 21
1.3
 31
0.0
  0
LINE
  5
3EF
330
30
100
AcDbEntity
  8
NOCUT
100
AcDbLine
 10
38.253987871165
 20
1.3
 30
0.0
 11
33.254177508097
 21
1.7905
 31
0.0
  0
LINE
  5
3F0
330
30
100
AcDbEntity
  8
NOCUT
100
AcDbLine
 10
33.254177508097
 20
1.7905
 30
0.0
 11
21.105318339793
 21
1.7905
 31
0.0
  0
LINE
  5
3F1
330
30
100
AcDbEntity
  8
NOCUT
100
AcDbLine
 10
21.105318339793
 20
1.7905
 30
0.0
 11
21.105318339793
 21
0.0
 31
0.0
  0
LINE
  5
3F2
330
30
100
AcDbEntity
  8
NOCUT
100
AcDbLine
 10
21.105318339793
 20
0.0
 30
0.0
 11
39.253987871165
 21
0.0
 31
0.0
  0
LINE
  5
3F3
330
30
100
AcDbEntity
  8
CUT
100
AcDbLine
 10
53.105318339793
 20
0.0
 30
0.0
 11
51.953987871165
 21
1.055
 31
0.0
  0
LINE
  5
3F4
330
30
100
AcDbEntity
  8
CUT
100
AcDbLine
 10
51.953987871165
 20
1.055
 30
0.0
 11
50.153987871165
 21
1.3
 31
0.0
  0
LINE
  5
3F5
330
30
100
AcDbEntity
  8
CUT
100
AcDbLine
 10
50.153987871165
 20
1.3
 30
0.0
 11
39.253987871165
 21
1.3
 31
0.0
  0
LINE
  5
3F6
330
30
100
AcDbEntity
  8
CUT
100
AcDbLine
 10
39.253987871165
 20
1.3
 30
0.0
 11
39.253987871165
 21
0.0
 31
0.0
  0
LINE
  5
3F7
330
30
100
AcDbEntity
  8
CUT
100
AcDbLine
 10
39.253987871165
 20
0.0
 30
0.0
 11
53.105318339793
 21
0.0
 31
0.0
  0
LINE
  5
3F8
330
30
100
AcDbEntity
  8
4
100
AcDbLine
 10
21.105318339793
 20
0.0
 30
0.0
 11
53.105318339793
 21
0.0
 31
0.0
  0
LINE
  5
3F9
330
30
100
AcDbEntity
  8
SK4
100
AcDbLine
 10
-1.0
 20
0.0
 30
0.0
 11
54.105318339793
 21
0.0
 31
0.0
  0
LINE
  5
3FA
330
30
100
AcDbEntity
  8
1
100
AcDbLine
 10
51.942967463001
 20
1.0565
 30
0.0
 11
39.253987871165
 21
1.0565
 31
0.0
  0
LINE
  5
3FB
330
30
100
AcDbEntity
  8
1
100
AcDbLine
 10
51.583992409427
 20
1.105360493403
 30
0.0
 11
51.555782790408
 21
1.0565
 31
0.0
  0
LINE
  5
3FC
330
30
100
AcDbEntity
  8
1
100
AcDbLine
 10
51.555782790408
 20
1.0565
 30
0.0
 11
51.529885330786
 21
1.0565
 31
0.0
  0
LINE
  5
3FD
330
30
100
AcDbEntity
  8
1
100
AcDbLine
 10
51.529885330786
 20
1.0565
 30
0.0
 11
51.503987871165
 21
1.0565
 31
0.0
  0
LINE
  5
3FE
330
30
100
AcDbEntity
  8
1
100
AcDbLine
 10
51.503987871165
 20
1.0565
 30
0.0
 11
51.466549113214
 21
1.121345830943
 31
0.0
  0
LINE
  5
3FF
330
30
100
AcDbEntity
  8
1
100
AcDbLine
 10
51.166778646737
 20
1.162147922214
 30
0.0
 11
51.105782790408
 21
1.0565
 31
0.0
  0
LINE
  5
400
330
30
100
AcDbEntity
  8
1
100
AcDbLine
 10
51.105782790408
 20
1.0565
 30
0.0
 11
51.079885330786
 21
1.0565
 31
0.0
  0
LINE
  5
401
330
30
100
AcDbEntity
  8
1
100
AcDbLine
 10
51.079885330786
 20
1.0565
 30
0.0
 11
51.053987871165
 21
1.0565
 31
0.0
  0
LINE
  5
402
330
30
100
AcDbEntity
  8
1
100
AcDbLine
 10
51.053987871165
 20
1.0565
 30
0.0
 11
50.978170470126
 21
1.187819590697
 31
0.0
  0
LINE
  5
403
330
30
100
AcDbEntity
  8
1
100
AcDbLine
 10
50.749564884047
 20
1.218935351024
 30
0.0
 11
50.655782790408
 21
1.0565
 31
0.0
  0
LINE
  5
404
330
30
100
AcDbEntity
  8
1
100
AcDbLine
 10
50.655782790408
 20
1.0565
 30
0.0
 11
50.629885330786
 21
1.0565
 31
0.0
  0
LINE
  5
405
330
30
100
AcDbEntity
  8
1
100
AcDbLine
 10
50.629885330786
 20
1.0565
 30
0.0
 11
50.603987871165
 21
1.0565
 31
0.0
  0
LINE
  5
406
330
30
100
AcDbEntity
  8
1
100
AcDbLine
 10
50.603987871165
 20
1.0565
 30
0.0
 11
50.489791827038
 21
1.254293350451
 31
0.0
  0
LINE
  5
407
330
30
100
AcDbEntity
  8
1
100
AcDbLine
 10
50.332351121358
 20
1.275722779835
 30
0.0
 11
50.205782790408
 21
1.0565
 31
0.0
  0
LINE
  5
408
330
30
100
AcDbEntity
  8
1
100
AcDbLine
 10
50.205782790408
 20
1.0565
 30
0.0
 11
50.179885330786
 21
1.0565
 31
0.0
  0
LINE
  5
409
330
30
100
AcDbEntity
  8
1
100
AcDbLine
 10
50.179885330786
 20
1.0565
 30
0.0
 11
50.153987871165
 21
1.0565
 31
0.0
  0
LINE
  5
40A
330
30
100
AcDbEntity
  8
1
100
AcDbLine
 10
50.153987871165
 20
1.0565
 30
0.0
 11
50.013403080617
 21
1.3
 31
0.0
  0
LINE
  5
40B
330
30
100
AcDbEntity
  8
1
100
AcDbLine
 10
50.013403080617
 20
1.3
 30
0.0
 11
49.954885330786
 21
1.3
 31
0.0
  0
LINE
  5
40C
330
30
100
AcDbEntity
  8
1
100
AcDbLine
 10
49.954885330786
 20
1.3
 30
0.0
 11
49.896367580955
 21
1.3
 31
0.0
  0
LINE
  5
40D
330
30
100
AcDbEntity
  8
1
100
AcDbLine
 10
49.896367580955
 20
1.3
 30
0.0
 11
49.755782790408
 21
1.0565
 31
0.0
  0
LINE
  5
40E
330
30
100
AcDbEntity
  8
1
100
AcDbLine
 10
49.755782790408
 20
1.0565
 30
0.0
 11
49.729885330786
 21
1.0565
 31
0.0
  0
LINE
  5
40F
330
30
100
AcDbEntity
  8
1
100
AcDbLine
 10
49.729885330786
 20
1.0565
 30
0.0
 11
49.703987871165
 21
1.0565
 31
0.0
  0
LINE
  5
410
330
30
100
AcDbEntity
  8
1
100
AcDbLine
 10
49.703987871165
 20
1.0565
 30
0.0
 11
49.563403080617
 21
1.3
 31
0.0
  0
LINE
  5
411
330
30
100
AcDbEntity
  8
1
100
AcDbLine
 10
49.563403080617
 20
1.3
 30
0.0
 11
49.504885330786
 21
1.3
 31
0.0
  0
LINE
  5
412
330
30
100
AcDbEntity
  8
1
100
AcDbLine
 10
49.504885330786
 20
1.3
 30
0.0
 11
49.446367580955
 21
1.3
 31
0.0
  0
LINE
  5
413
330
30
100
AcDbEntity
  8
1
100
AcDbLine
 10
49.446367580955
 20
1.3
 30
0.0
 11
49.305782790408
 21
1.0565
 31
0.0
  0
LINE
  5
414
330
30
100
AcDbEntity
  8
1
100
AcDbLine
 10
49.305782790408
 20
1.0565
 30
0.0
 11
49.279885330786
 21
1.0565
 31
0.0
  0
LINE
  5
415
330
30
100
AcDbEntity
  8
1
100
AcDbLine
 10
49.279885330786
 20
1.0565
 30
0.0
 11
49.253987871165
 21
1.0565
 31
0.0
  0
LINE
  5
416
330
30
100
AcDbEntity
  8
1
100
AcDbLine
 10
49.253987871165
 20
1.0565
 30
0.0
 11
49.113403080617
 21
1.3
 31
0.0
  0
LINE
  5
417
330
30
100
AcDbEntity
  8
1
100
AcDbLine
 10
49.113403080617
 20
1.3
 30
0.0
 11
49.054885330786
 21
1.3
 31
0.0
  0
LINE
  5
418
330
30
100
AcDbEntity
  8
1
100
AcDbLine
 10
49.054885330786
 20
1.3
 30
0.0
 11
48.996367580955
 21
1.3
 31
0.0
  0
LINE
  5
419
330
30
100
AcDbEntity
  8
1
100
AcDbLine
 10
48.996367580955
 20
1.3
 30
0.0
 11
48.855782790408
 21
1.0565
 31
0.0
  0
LINE
  5
41A
330
30
100
AcDbEntity
  8
1
100
AcDbLine
 10
48.855782790408
 20
1.0565
 30
0.0
 11
48.829885330786
 21
1.0565
 31
0.0
  0
LINE
  5
41B
330
30
100
AcDbEntity
  8
1
100
AcDbLine
 10
48.829885330786
 20
1.0565
 30
0.0
 11
48.803987871165
 21
1.0565
 31
0.0
  0
LINE
  5
41C
330
30
100
AcDbEntity
  8
1
100
AcDbLine
 10
48.803987871165
 20
1.0565
 30
0.0
 11
48.663403080617
 21
1.3
 31
0.0
  0
LINE
  5
41D
330
30
100
AcDbEntity
  8
1
100
AcDbLine
 10
48.663403080617
 20
1.3
 30
0.0
 11
48.604885330786
 21
1.3
 31
0.0
  0
LINE
  5
41E
330
30
100
AcDbEntity
  8
1
100
AcDbLine
 10
48.604885330786
 20
1.3
 30
0.0
 11
48.546367580955
 21
1.3
 31
0.0
  0
LINE
  5
41F
330
30
100
AcDbEntity
  8
1
100
AcDbLine
 10
48.546367580955
 20
1.3
 30
0.0
 11
48.405782790408
 21
1.0565
 31
0.0
  0
LINE
  5
420
330
30
100
AcDbEntity
  8
1
100
AcDbLine
 10
48.405782790408
 20
1.0565
 30
0.0
 11
48.379885330786
 21
1.0565
 31
0.0
  0
LINE
  5
421
330
30
100
AcDbEntity
  8
1
100
AcDbLine
 10
48.379885330786
 20
1.0565
 30
0.0
 11
48.353987871165
 21
1.0565
 31
0.0
  0
LINE
  5
422
330
30
100
AcDbEntity
  8
1
100
AcDbLine
 10
48.353987871165
 20
1.0565
 30
0.0
 11
48.213403080617
 21
1.3
 31
0.0
  0
LINE
  5
423
330
30
100
AcDbEntity
  8
1
100
AcDbLine
 10
48.213403080617
 20
1.3
 30
0.0
 11
48.154885330786
 21
1.3
 31
0.0
  0
LINE
  5
424
330
30
100
AcDbEntity
  8
1
100
AcDbLine
 10
48.154885330786
 20
1.3
 30
0.0
 11
48.096367580955
 21
1.3
 31
0.0
  0
LINE
  5
425
330
30
100
AcDbEntity
  8
1
100
AcDbLine
 10
48.096367580955
 20
1.3
 30
0.0
 11
47.955782790408
 21
1.0565
 31
0.0
  0
LINE
  5
426
330
30
100
AcDbEntity
  8
1
100
AcDbLine
 10
47.955782790408
 20
1.0565
 30
0.0
 11
47.929885330786
 21
1.0565
 31
0.0
  0
LINE
  5
427
330
30
100
AcDbEntity
  8
1
100
AcDbLine
 10
47.929885330786
 20
1.0565
 30
0.0
 11
47.903987871165
 21
1.0565
 31
0.0
  0
LINE
  5
428
330
30
100
AcDbEntity
  8
1
100
AcDbLine
 10
47.903987871165
 20
1.0565
 30
0.0
 11
47.763403080617
 21
1.3
 31
0.0
  0
LINE
  5
429
330
30
100
AcDbEntity
  8
1
100
AcDbLine
 10
47.763403080617
 20
1.3
 30
0.0
 11
47.704885330786
 21
1.3
 31
0.0
  0
LINE
  5
42A
330
30
100
AcDbEntity
  8
1
100
AcDbLine
 10
47.704885330786
 20
1.3
 30
0.0
 11
47.646367580955
 21
1.3
 31
0.0
  0
LINE
  5
42B
330
30
100
AcDbEntity
  8
1
100
AcDbLine
 10
47.646367580955
 20
1.3
 30
0.0
 11
47.505782790408
 21
1.0565
 31
0.0
  0
LINE
  5
42C
330
30
100
AcDbEntity
  8
1
100
AcDbLine
 10
47.505782790408
 20
1.0565
 30
0.0
 11
47.479885330786
 21
1.0565
 31
0.0
  0
LINE
  5
42D
330
30
100
AcDbEntity
  8
1
100
AcDbLine
 10
47.479885330786
 20
1.0565
 30
0.0
 11
47.453987871165
 21
1.0565
 31
0.0
  0
LINE
  5
42E
330
30
100
AcDbEntity
  8
1
100
AcDbLine
 10
47.453987871165
 20
1.0565
 30
0.0
 11
47.313403080617
 21
1.3
 31
0.0
  0
LINE
  5
42F
330
30
100
AcDbEntity
  8
1
100
AcDbLine
 10
47.313403080617
 20
1.3
 30
0.0
 11
47.254885330786
 21
1.3
 31
0.0
  0
LINE
  5
430
330
30
100
AcDbEntity
  8
1
100
AcDbLine
 10
47.254885330786
 20
1.3
 30
0.0
 11
47.196367580955
 21
1.3
 31
0.0
  0
LINE
  5
431
330
30
100
AcDbEntity
  8
1
100
AcDbLine
 10
47.196367580955
 20
1.3
 30
0.0
 11
47.055782790408
 21
1.0565
 31
0.0
  0
LINE
  5
432
330
30
100
AcDbEntity
  8
1
100
AcDbLine
 10
47.055782790408
 20
1.0565
 30
0.0
 11
47.029885330786
 21
1.0565
 31
0.0
  0
LINE
  5
433
330
30
100
AcDbEntity
  8
1
100
AcDbLine
 10
47.029885330786
 20
1.0565
 30
0.0
 11
47.003987871165
 21
1.0565
 31
0.0
  0
LINE
  5
434
330
30
100
AcDbEntity
  8
1
100
AcDbLine
 10
47.003987871165
 20
1.0565
 30
0.0
 11
46.863403080617
 21
1.3
 31
0.0
  0
LINE
  5
435
330
30
100
AcDbEntity
  8
1
100
AcDbLine
 10
46.863403080617
 20
1.3
 30
0.0
 11
46.804885330786
 21
1.3
 31
0.0
  0
LINE
  5
436
330
30
100
AcDbEntity
  8
1
100
AcDbLine
 10
46.804885330786
 20
1.3
 30
0.0
 11
46.746367580955
 21
1.3
 31
0.0
  0
LINE
  5
437
330
30
100
AcDbEntity
  8
1
100
AcDbLine
 10
46.746367580955
 20
1.3
 30
0.0
 11
46.605782790408
 21
1.0565
 31
0.0
  0
LINE
  5
438
330
30
100
AcDbEntity
  8
1
100
AcDbLine
 10
46.605782790408
 20
1.0565
 30
0.0
 11
46.579885330786
 21
1.0565
 31
0.0
  0
LINE
  5
439
330
30
100
AcDbEntity
  8
1
100
AcDbLine
 10
46.579885330786
 20
1.0565
 30
0.0
 11
46.553987871165
 21
1.0565
 31
0.0
  0
LINE
  5
43A
330
30
100
AcDbEntity
  8
1
100
AcDbLine
 10
46.553987871165
 20
1.0565
 30
0.0
 11
46.413403080617
 21
1.3
 31
0.0
  0
LINE
  5
43B
330
30
100
AcDbEntity
  8
1
100
AcDbLine
 10
46.413403080617
 20
1.3
 30
0.0
 11
46.354885330786
 21
1.3
 31
0.0
  0
LINE
  5
43C
330
30
100
AcDbEntity
  8
1
100
AcDbLine
 10
46.354885330786
 20
1.3
 30
0.0
 11
46.296367580955
 21
1.3
 31
0.0
  0
LINE
  5
43D
330
30
100
AcDbEntity
  8
1
100
AcDbLine
 10
46.296367580955
 20
1.3
 30
0.0
 11
46.155782790408
 21
1.0565
 31
0.0
  0
LINE
  5
43E
330
30
100
AcDbEntity
  8
1
100
AcDbLine
 10
46.155782790408
 20
1.0565
 30
0.0
 11
46.129885330786
 21
1.0565
 31
0.0
  0
LINE
  5
43F
330
30
100
AcDbEntity
  8
1
100
AcDbLine
 10
46.129885330786
 20
1.0565
 30
0.0
 11
46.103987871165
 21
1.0565
 31
0.0
  0
LINE
  5
440
330
30
100
AcDbEntity
  8
1
100
AcDbLine
 10
46.103987871165
 20
1.0565
 30
0.0
 11
45.963403080617
 21
1.3
 31
0.0
  0
LINE
  5
441
330
30
100
AcDbEntity
  8
1
100
AcDbLine
 10
45.963403080617
 20
1.3
 30
0.0
 11
45.904885330786
 21
1.3
 31
0.0
  0
LINE
  5
442
330
30
100
AcDbEntity
  8
1
100
AcDbLine
 10
45.904885330786
 20
1.3
 30
0.0
 11
45.846367580955
 21
1.3
 31
0.0
  0
LINE
  5
443
330
30
100
AcDbEntity
  8
1
100
AcDbLine
 10
45.846367580955
 20
1.3
 30
0.0
 11
45.705782790408
 21
1.0565
 31
0.0
  0
LINE
  5
444
330
30
100
AcDbEntity
  8
1
100
AcDbLine
 10
45.705782790408
 20
1.0565
 30
0.0
 11
45.679885330786
 21
1.0565
 31
0.0
  0
LINE
  5
445
330
30
100
AcDbEntity
  8
1
100
AcDbLine
 10
45.679885330786
 20
1.0565
 30
0.0
 11
45.653987871165
 21
1.0565
 31
0.0
  0
LINE
  5
446
330
30
100
AcDbEntity
  8
1
100
AcDbLine
 10
45.653987871165
 20
1.0565
 30
0.0
 11
45.513403080617
 21
1.3
 31
0.0
  0
LINE
  5
447
330
30
100
AcDbEntity
  8
1
100
AcDbLine
 10
45.513403080617
 20
1.3
 30
0.0
 11
45.454885330786
 21
1.3
 31
0.0
  0
LINE
  5
448
330
30
100
AcDbEntity
  8
1
100
AcDbLine
 10
45.454885330786
 20
1.3
 30
0.0
 11
45.396367580955
 21
1.3
 31
0.0
  0
LINE
  5
449
330
30
100
AcDbEntity
  8
1
100
AcDbLine
 10
45.396367580955
 20
1.3
 30
0.0
 11
45.255782790408
 21
1.0565
 31
0.0
  0
LINE
  5
44A
330
30
100
AcDbEntity
  8
1
100
AcDbLine
 10
45.255782790408
 20
1.0565
 30
0.0
 11
45.229885330786
 21
1.0565
 31
0.0
  0
LINE
  5
44B
330
30
100
AcDbEntity
  8
1
100
AcDbLine
 10
45.229885330786
 20
1.0565
 30
0.0
 11
45.203987871165
 21
1.0565
 31
0.0
  0
LINE
  5
44C
330
30
100
AcDbEntity
  8
1
100
AcDbLine
 10
45.203987871165
 20
1.0565
 30
0.0
 11
45.063403080617
 21
1.3
 31
0.0
  0
LINE
  5
44D
330
30
100
AcDbEntity
  8
1
100
AcDbLine
 10
45.063403080617
 20
1.3
 30
0.0
 11
45.004885330786
 21
1.3
 31
0.0
  0
LINE
  5
44E
330
30
100
AcDbEntity
  8
1
100
AcDbLine
 10
45.004885330786
 20
1.3
 30
0.0
 11
44.946367580955
 21
1.3
 31
0.0
  0
LINE
  5
44F
330
30
100
AcDbEntity
  8
1
100
AcDbLine
 10
44.946367580955
 20
1.3
 30
0.0
 11
44.805782790408
 21
1.0565
 31
0.0
  0
LINE
  5
450
330
30
100
AcDbEntity
  8
1
100
AcDbLine
 10
44.805782790408
 20
1.0565
 30
0.0
 11
44.779885330786
 21
1.0565
 31
0.0
  0
LINE
  5
451
330
30
100
AcDbEntity
  8
1
100
AcDbLine
 10
44.779885330786
 20
1.0565
 30
0.0
 11
44.753987871165
 21
1.0565
 31
0.0
  0
LINE
  5
452
330
30
100
AcDbEntity
  8
1
100
AcDbLine
 10
44.753987871165
 20
1.0565
 30
0.0
 11
44.613403080617
 21
1.3
 31
0.0
  0
LINE
  5
453
330
30
100
AcDbEntity
  8
1
100
AcDbLine
 10
44.613403080617
 20
1.3
 30
0.0
 11
44.554885330786
 21
1.3
 31
0.0
  0
LINE
  5
454
330
30
100
AcDbEntity
  8
1
100
AcDbLine
 10
44.554885330786
 20
1.3
 30
0.0
 11
44.496367580955
 21
1.3
 31
0.0
  0
LINE
  5
455
330
30
100
AcDbEntity
  8
1
100
AcDbLine
 10
44.496367580955
 20
1.3
 30
0.0
 11
44.355782790408
 21
1.0565
 31
0.0
  0
LINE
  5
456
330
30
100
AcDbEntity
  8
1
100
AcDbLine
 10
44.355782790408
 20
1.0565
 30
0.0
 11
44.329885330786
 21
1.0565
 31
0.0
  0
LINE
  5
457
330
30
100
AcDbEntity
  8
1
100
AcDbLine
 10
44.329885330786
 20
1.0565
 30
0.0
 11
44.303987871165
 21
1.0565
 31
0.0
  0
LINE
  5
458
330
30
100
AcDbEntity
  8
1
100
AcDbLine
 10
44.303987871165
 20
1.0565
 30
0.0
 11
44.163403080617
 21
1.3
 31
0.0
  0
LINE
  5
459
330
30
100
AcDbEntity
  8
1
100
AcDbLine
 10
44.163403080617
 20
1.3
 30
0.0
 11
44.104885330786
 21
1.3
 31
0.0
  0
LINE
  5
45A
330
30
100
AcDbEntity
  8
1
100
AcDbLine
 10
44.104885330786
 20
1.3
 30
0.0
 11
44.046367580955
 21
1.3
 31
0.0
  0
LINE
  5
45B
330
30
100
AcDbEntity
  8
1
100
AcDbLine
 10
44.046367580955
 20
1.3
 30
0.0
 11
43.905782790408
 21
1.0565
 31
0.0
  0
LINE
  5
45C
330
30
100
AcDbEntity
  8
1
100
AcDbLine
 10
43.905782790408
 20
1.0565
 30
0.0
 11
43.879885330786
 21
1.0565
 31
0.0
  0
LINE
  5
45D
330
30
100
AcDbEntity
  8
1
100
AcDbLine
 10
43.879885330786
 20
1.0565
 30
0.0
 11
43.853987871165
 21
1.0565
 31
0.0
  0
LINE
  5
45E
330
30
100
AcDbEntity
  8
1
100
AcDbLine
 10
43.853987871165
 20
1.0565
 30
0.0
 11
43.713403080617
 21
1.3
 31
0.0
  0
LINE
  5
45F
330
30
100
AcDbEntity
  8
1
100
AcDbLine
 10
43.713403080617
 20
1.3
 30
0.0
 11
43.654885330786
 21
1.3
 31
0.0
  0
LINE
  5
460
330
30
100
AcDbEntity
  8
1
100
AcDbLine
 10
43.654885330786
 20
1.3
 30
0.0
 11
43.596367580955
 21
1.3
 31
0.0
  0
LINE
  5
461
330
30
100
AcDbEntity
  8
1
100
AcDbLine
 10
43.596367580955
 20
1.3
 30
0.0
 11
43.455782790408
 21
1.0565
 31
0.0
  0
LINE
  5
462
330
30
100
AcDbEntity
  8
1
100
AcDbLine
 10
43.455782790408
 20
1.0565
 30
0.0
 11
43.429885330786
 21
1.0565
 31
0.0
  0
LINE
  5
463
330
30
100
AcDbEntity
  8
1
100
AcDbLine
 10
43.429885330786
 20
1.0565
 30
0.0
 11
43.403987871165
 21
1.0565
 31
0.0
  0
LINE
  5
464
330
30
100
AcDbEntity
  8
1
100
AcDbLine
 10
43.403987871165
 20
1.0565
 30
0.0
 11
43.263403080617
 21
1.3
 31
0.0
  0
LINE
  5
465
330
30
100
AcDbEntity
  8
1
100
AcDbLine
 10
43.263403080617
 20
1.3
 30
0.0
 11
43.204885330786
 21
1.3
 31
0.0
  0
LINE
  5
466
330
30
100
AcDbEntity
  8
1
100
AcDbLine
 10
43.204885330786
 20
1.3
 30
0.0
 11
43.146367580955
 21
1.3
 31
0.0
  0
LINE
  5
467
330
30
100
AcDbEntity
  8
1
100
AcDbLine
 10
43.146367580955
 20
1.3
 30
0.0
 11
43.005782790408
 21
1.0565
 31
0.0
  0
LINE
  5
468
330
30
100
AcDbEntity
  8
1
100
AcDbLine
 10
43.005782790408
 20
1.0565
 30
0.0
 11
42.979885330786
 21
1.0565
 31
0.0
  0
LINE
  5
469
330
30
100
AcDbEntity
  8
1
100
AcDbLine
 10
42.979885330786
 20
1.0565
 30
0.0
 11
42.953987871165
 21
1.0565
 31
0.0
  0
LINE
  5
46A
330
30
100
AcDbEntity
  8
1
100
AcDbLine
 10
42.953987871165
 20
1.0565
 30
0.0
 11
42.813403080617
 21
1.3
 31
0.0
  0
LINE
  5
46B
330
30
100
AcDbEntity
  8
1
100
AcDbLine
 10
42.813403080617
 20
1.3
 30
0.0
 11
42.754885330786
 21
1.3
 31
0.0
  0
LINE
  5
46C
330
30
100
AcDbEntity
  8
1
100
AcDbLine
 10
42.754885330786
 20
1.3
 30
0.0
 11
42.696367580955
 21
1.3
 31
0.0
  0
LINE
  5
46D
330
30
100
AcDbEntity
  8
1
100
AcDbLine
 10
42.696367580955
 20
1.3
 30
0.0
 11
42.555782790408
 21
1.0565
 31
0.0
  0
LINE
  5
46E
330
30
100
AcDbEntity
  8
1
100
AcDbLine
 10
42.555782790408
 20
1.0565
 30
0.0
 11
42.529885330786
 21
1.0565
 31
0.0
  0
LINE
  5
46F
330
30
100
AcDbEntity
  8
1
100
AcDbLine
 10
42.529885330786
 20
1.0565
 30
0.0
 11
42.503987871165
 21
1.0565
 31
0.0
  0
LINE
  5
470
330
30
100
AcDbEntity
  8
1
100
AcDbLine
 10
42.503987871165
 20
1.0565
 30
0.0
 11
42.363403080617
 21
1.3
 31
0.0
  0
LINE
  5
471
330
30
100
AcDbEntity
  8
1
100
AcDbLine
 10
42.363403080617
 20
1.3
 30
0.0
 11
42.304885330786
 21
1.3
 31
0.0
  0
LINE
  5
472
330
30
100
AcDbEntity
  8
1
100
AcDbLine
 10
42.304885330786
 20
1.3
 30
0.0
 11
42.246367580955
 21
1.3
 31
0.0
  0
LINE
  5
473
330
30
100
AcDbEntity
  8
1
100
AcDbLine
 10
42.246367580955
 20
1.3
 30
0.0
 11
42.105782790408
 21
1.0565
 31
0.0
  0
LINE
  5
474
330
30
100
AcDbEntity
  8
1
100
AcDbLine
 10
42.105782790408
 20
1.0565
 30
0.0
 11
42.079885330786
 21
1.0565
 31
0.0
  0
LINE
  5
475
330
30
100
AcDbEntity
  8
1
100
AcDbLine
 10
42.079885330786
 20
1.0565
 30
0.0
 11
42.053987871165
 21
1.0565
 31
0.0
  0
LINE
  5
476
330
30
100
AcDbEntity
  8
1
100
AcDbLine
 10
42.053987871165
 20
1.0565
 30
0.0
 11
41.913403080617
 21
1.3
 31
0.0
  0
LINE
  5
477
330
30
100
AcDbEntity
  8
1
100
AcDbLine
 10
41.913403080617
 20
1.3
 30
0.0
 11
41.854885330786
 21
1.3
 31
0.0
  0
LINE
  5
478
330
30
100
AcDbEntity
  8
1
100
AcDbLine
 10
41.854885330786
 20
1.3
 30
0.0
 11
41.796367580955
 21
1.3
 31
0.0
  0
LINE
  5
479
330
30
100
AcDbEntity
  8
1
100
AcDbLine
 10
41.796367580955
 20
1.3
 30
0.0
 11
41.655782790408
 21
1.0565
 31
0.0
  0
LINE
  5
47A
330
30
100
AcDbEntity
  8
1
100
AcDbLine
 10
41.655782790408
 20
1.0565
 30
0.0
 11
41.629885330786
 21
1.0565
 31
0.0
  0
LINE
  5
47B
330
30
100
AcDbEntity
  8
1
100
AcDbLine
 10
41.629885330786
 20
1.0565
 30
0.0
 11
41.603987871165
 21
1.0565
 31
0.0
  0
LINE
  5
47C
330
30
100
AcDbEntity
  8
1
100
AcDbLine
 10
41.603987871165
 20
1.0565
 30
0.0
 11
41.463403080617
 21
1.3
 31
0.0
  0
LINE
  5
47D
330
30
100
AcDbEntity
  8
1
100
AcDbLine
 10
41.463403080617
 20
1.3
 30
0.0
 11
41.404885330786
 21
1.3
 31
0.0
  0
LINE
  5
47E
330
30
100
AcDbEntity
  8
1
100
AcDbLine
 10
41.404885330786
 20
1.3
 30
0.0
 11
41.346367580955
 21
1.3
 31
0.0
  0
LINE
  5
47F
330
30
100
AcDbEntity
  8
1
100
AcDbLine
 10
41.346367580955
 20
1.3
 30
0.0
 11
41.205782790408
 21
1.0565
 31
0.0
  0
LINE
  5
480
330
30
100
AcDbEntity
  8
1
100
AcDbLine
 10
41.205782790408
 20
1.0565
 30
0.0
 11
41.179885330786
 21
1.0565
 31
0.0
  0
LINE
  5
481
330
30
100
AcDbEntity
  8
1
100
AcDbLine
 10
41.179885330786
 20
1.0565
 30
0.0
 11
41.153987871165
 21
1.0565
 31
0.0
  0
LINE
  5
482
330
30
100
AcDbEntity
  8
1
100
AcDbLine
 10
41.153987871165
 20
1.0565
 30
0.0
 11
41.013403080617
 21
1.3
 31
0.0
  0
LINE
  5
483
330
30
100
AcDbEntity
  8
1
100
AcDbLine
 10
41.013403080617
 20
1.3
 30
0.0
 11
40.954885330786
 21
1.3
 31
0.0
  0
LINE
  5
484
330
30
100
AcDbEntity
  8
1
100
AcDbLine
 10
40.954885330786
 20
1.3
 30
0.0
 11
40.896367580955
 21
1.3
 31
0.0
  0
LINE
  5
485
330
30
100
AcDbEntity
  8
1
100
AcDbLine
 10
40.896367580955
 20
1.3
 30
0.0
 11
40.755782790408
 21
1.0565
 31
0.0
  0
LINE
  5
486
330
30
100
AcDbEntity
  8
1
100
AcDbLine
 10
40.755782790408
 20
1.0565
 30
0.0
 11
40.729885330786
 21
1.0565
 31
0.0
  0
LINE
  5
487
330
30
100
AcDbEntity
  8
1
100
AcDbLine
 10
40.729885330786
 20
1.0565
 30
0.0
 11
40.703987871165
 21
1.0565
 31
0.0
  0
LINE
  5
488
330
30
100
AcDbEntity
  8
1
100
AcDbLine
 10
40.703987871165
 20
1.0565
 30
0.0
 11
40.563403080617
 21
1.3
 31
0.0
  0
LINE
  5
489
330
30
100
AcDbEntity
  8
1
100
AcDbLine
 10
40.563403080617
 20
1.3
 30
0.0
 11
40.504885330786
 21
1.3
 31
0.0
  0
LINE
  5
48A
330
30
100
AcDbEntity
  8
1
100
AcDbLine
 10
40.504885330786
 20
1.3
 30
0.0
 11
40.446367580955
 21
1.3
 31
0.0
  0
LINE
  5
48B
330
30
100
AcDbEntity
  8
1
100
AcDbLine
 10
40.446367580955
 20
1.3
 30
0.0
 11
40.305782790408
 21
1.0565
 31
0.0
  0
LINE
  5
48C
330
30
100
AcDbEntity
  8
1
100
AcDbLine
 10
40.305782790408
 20
1.0565
 30
0.0
 11
40.279885330786
 21
1.0565
 31
0.0
  0
LINE
  5
48D
330
30
100
AcDbEntity
  8
1
100
AcDbLine
 10
40.279885330786
 20
1.0565
 30
0.0
 11
40.253987871165
 21
1.0565
 31
0.0
  0
LINE
  5
48E
330
30
100
AcDbEntity
  8
1
100
AcDbLine
 10
40.253987871165
 20
1.0565
 30
0.0
 11
40.113403080617
 21
1.3
 31
0.0
  0
LINE
  5
48F
330
30
100
AcDbEntity
  8
1
100
AcDbLine
 10
40.113403080617
 20
1.3
 30
0.0
 11
40.054885330786
 21
1.3
 31
0.0
  0
LINE
  5
490
330
30
100
AcDbEntity
  8
1
100
AcDbLine
 10
40.054885330786
 20
1.3
 30
0.0
 11
39.996367580955
 21
1.3
 31
0.0
  0
LINE
  5
491
330
30
100
AcDbEntity
  8
1
100
AcDbLine
 10
39.996367580955
 20
1.3
 30
0.0
 11
39.855782790408
 21
1.0565
 31
0.0
  0
LINE
  5
492
330
30
100
AcDbEntity
  8
1
100
AcDbLine
 10
39.855782790408
 20
1.0565
 30
0.0
 11
39.829885330786
 21
1.0565
 31
0.0
  0
LINE
  5
493
330
30
100
AcDbEntity
  8
1
100
AcDbLine
 10
39.829885330786
 20
1.0565
 30
0.0
 11
39.803987871165
 21
1.0565
 31
0.0
  0
LINE
  5
494
330
30
100
AcDbEntity
  8
1
100
AcDbLine
 10
39.803987871165
 20
1.0565
 30
0.0
 11
39.663403080617
 21
1.3
 31
0.0
  0
LINE
  5
495
330
30
100
AcDbEntity
  8
1
100
AcDbLine
 10
39.663403080617
 20
1.3
 30
0.0
 11
39.604885330786
 21
1.3
 31
0.0
  0
LINE
  5
496
330
30
100
AcDbEntity
  8
1
100
AcDbLine
 10
39.604885330786
 20
1.3
 30
0.0
 11
39.546367580955
 21
1.3
 31
0.0
  0
LINE
  5
497
330
30
100
AcDbEntity
  8
1
100
AcDbLine
 10
39.546367580955
 20
1.3
 30
0.0
 11
39.405782790408
 21
1.0565
 31
0.0
  0
LINE
  5
498
330
30
100
AcDbEntity
  8
1
100
AcDbLine
 10
39.405782790408
 20
1.0565
 30
0.0
 11
39.379885330786
 21
1.0565
 31
0.0
  0
LINE
  5
499
330
30
100
AcDbEntity
  8
1
100
AcDbLine
 10
39.379885330786
 20
1.0565
 30
0.0
 11
39.353987871165
 21
1.0565
 31
0.0
  0
LINE
  5
49A
330
30
100
AcDbEntity
  8
1
100
AcDbLine
 10
39.353987871165
 20
1.0565
 30
0.0
 11
39.213403080617
 21
1.3
 31
0.0
  0
LINE
  5
49B
330
30
100
AcDbEntity
  8
1
100
AcDbLine
 10
39.213403080617
 20
1.3
 30
0.0
 11
39.154885330786
 21
1.3
 31
0.0
  0
LINE
  5
49C
330
30
100
AcDbEntity
  8
1
100
AcDbLine
 10
39.154885330786
 20
1.3
 30
0.0
 11
39.096367580955
 21
1.3
 31
0.0
  0
LINE
  5
49D
330
30
100
AcDbEntity
  8
1
100
AcDbLine
 10
51.942967463001
 20
-1.0565
 30
0.0
 11
39.253987871165
 21
-1.0565
 31
0.0
  0
LINE
  5
49E
330
30
100
AcDbEntity
  8
1
100
AcDbLine
 10
51.583992409427
 20
-1.105360493403
 30
0.0
 11
51.555782790408
 21
-1.0565
 31
0.0
  0
LINE
  5
49F
330
30
100
AcDbEntity
  8
1
100
AcDbLine
 10
51.555782790408
 20
-1.0565
 30
0.0
 11
51.529885330786
 21
-1.0565
 31
0.0
  0
LINE
  5
4A0
330
30
100
AcDbEntity
  8
1
100
AcDbLine
 10
51.529885330786
 20
-1.0565
 30
0.0
 11
51.503987871165
 21
-1.0565
 31
0.0
  0
LINE
  5
4A1
330
30
100
AcDbEntity
  8
1
100
AcDbLine
 10
51.503987871165
 20
-1.0565
 30
0.0
 11
51.466549113214
 21
-1.121345830943
 31
0.0
  0
LINE
  5
4A2
330
30
100
AcDbEntity
  8
1
100
AcDbLine
 10
51.166778646737
 20
-1.162147922214
 30
0.0
 11
51.105782790408
 21
-1.0565
 31
0.0
  0
LINE
  5
4A3
330
30
100
AcDbEntity
  8
1
100
AcDbLine
 10
51.105782790408
 20
-1.0565
 30
0.0
 11
51.079885330786
 21
-1.0565
 31
0.0
  0
LINE
  5
4A4
330
30
100
AcDbEntity
  8
1
100
AcDbLine
 10
51.079885330786
 20
-1.0565
 30
0.0
 11
51.053987871165
 21
-1.0565
 31
0.0
  0
LINE
  5
4A5
330
30
100
AcDbEntity
  8
1
100
AcDbLine
 10
51.053987871165
 20
-1.0565
 30
0.0
 11
50.978170470126
 21
-1.187819590697
 31
0.0
  0
LINE
  5
4A6
330
30
100
AcDbEntity
  8
1
100
AcDbLine
 10
50.749564884047
 20
-1.218935351024
 30
0.0
 11
50.655782790408
 21
-1.0565
 31
0.0
  0
LINE
  5
4A7
330
30
100
AcDbEntity
  8
1
100
AcDbLine
 10
50.655782790408
 20
-1.0565
 30
0.0
 11
50.629885330786
 21
-1.0565
 31
0.0
  0
LINE
  5
4A8
330
30
100
AcDbEntity
  8
1
100
AcDbLine
 10
50.629885330786
 20
-1.0565
 30
0.0
 11
50.603987871165
 21
-1.0565
 31
0.0
  0
LINE
  5
4A9
330
30
100
AcDbEntity
  8
1
100
AcDbLine
 10
50.603987871165
 20
-1.0565
 30
0.0
 11
50.489791827038
 21
-1.254293350451
 31
0.0
  0
LINE
  5
4AA
330
30
100
AcDbEntity
  8
1
100
AcDbLine
 10
50.332351121358
 20
-1.275722779835
 30
0.0
 11
50.205782790408
 21
-1.0565
 31
0.0
  0
LINE
  5
4AB
330
30
100
AcDbEntity
  8
1
100
AcDbLine
 10
50.205782790408
 20
-1.0565
 30
0.0
 11
50.179885330786
 21
-1.0565
 31
0.0
  0
LINE
  5
4AC
330
30
100
AcDbEntity
  8
1
100
AcDbLine
 10
50.179885330786
 20
-1.0565
 30
0.0
 11
50.153987871165
 21
-1.0565
 31
0.0
  0
LINE
  5
4AD
330
30
100
AcDbEntity
  8
1
100
AcDbLine
 10
50.153987871165
 20
-1.0565
 30
0.0
 11
50.013403080617
 21
-1.3
 31
0.0
  0
LINE
  5
4AE
330
30
100
AcDbEntity
  8
1
100
AcDbLine
 10
50.013403080617
 20
-1.3
 30
0.0
 11
49.954885330786
 21
-1.3
 31
0.0
  0
LINE
  5
4AF
330
30
100
AcDbEntity
  8
1
100
AcDbLine
 10
49.954885330786
 20
-1.3
 30
0.0
 11
49.896367580955
 21
-1.3
 31
0.0
  0
LINE
  5
4B0
330
30
100
AcDbEntity
  8
1
100
AcDbLine
 10
49.896367580955
 20
-1.3
 30
0.0
 11
49.755782790408
 21
-1.0565
 31
0.0
  0
LINE
  5
4B1
330
30
100
AcDbEntity
  8
1
100
AcDbLine
 10
49.755782790408
 20
-1.0565
 30
0.0
 11
49.729885330786
 21
-1.0565
 31
0.0
  0
LINE
  5
4B2
330
30
100
AcDbEntity
  8
1
100
AcDbLine
 10
49.729885330786
 20
-1.0565
 30
0.0
 11
49.703987871165
 21
-1.0565
 31
0.0
  0
LINE
  5
4B3
330
30
100
AcDbEntity
  8
1
100
AcDbLine
 10
49.703987871165
 20
-1.0565
 30
0.0
 11
49.563403080617
 21
-1.3
 31
0.0
  0
LINE
  5
4B4
330
30
100
AcDbEntity
  8
1
100
AcDbLine
 10
49.563403080617
 20
-1.3
 30
0.0
 11
49.504885330786
 21
-1.3
 31
0.0
  0
LINE
  5
4B5
330
30
100
AcDbEntity
  8
1
100
AcDbLine
 10
49.504885330786
 20
-1.3
 30
0.0
 11
49.446367580955
 21
-1.3
 31
0.0
  0
LINE
  5
4B6
330
30
100
AcDbEntity
  8
1
100
AcDbLine
 10
49.446367580955
 20
-1.3
 30
0.0
 11
49.305782790408
 21
-1.0565
 31
0.0
  0
LINE
  5
4B7
330
30
100
AcDbEntity
  8
1
100
AcDbLine
 10
49.305782790408
 20
-1.0565
 30
0.0
 11
49.279885330786
 21
-1.0565
 31
0.0
  0
LINE
  5
4B8
330
30
100
AcDbEntity
  8
1
100
AcDbLine
 10
49.279885330786
 20
-1.0565
 30
0.0
 11
49.253987871165
 21
-1.0565
 31
0.0
  0
LINE
  5
4B9
330
30
100
AcDbEntity
  8
1
100
AcDbLine
 10
49.253987871165
 20
-1.0565
 30
0.0
 11
49.113403080617
 21
-1.3
 31
0.0
  0
LINE
  5
4BA
330
30
100
AcDbEntity
  8
1
100
AcDbLine
 10
49.113403080617
 20
-1.3
 30
0.0
 11
49.054885330786
 21
-1.3
 31
0.0
  0
LINE
  5
4BB
330
30
100
AcDbEntity
  8
1
100
AcDbLine
 10
49.054885330786
 20
-1.3
 30
0.0
 11
48.996367580955
 21
-1.3
 31
0.0
  0
LINE
  5
4BC
330
30
100
AcDbEntity
  8
1
100
AcDbLine
 10
48.996367580955
 20
-1.3
 30
0.0
 11
48.855782790408
 21
-1.0565
 31
0.0
  0
LINE
  5
4BD
330
30
100
AcDbEntity
  8
1
100
AcDbLine
 10
48.855782790408
 20
-1.0565
 30
0.0
 11
48.829885330786
 21
-1.0565
 31
0.0
  0
LINE
  5
4BE
330
30
100
AcDbEntity
  8
1
100
AcDbLine
 10
48.829885330786
 20
-1.0565
 30
0.0
 11
48.803987871165
 21
-1.0565
 31
0.0
  0
LINE
  5
4BF
330
30
100
AcDbEntity
  8
1
100
AcDbLine
 10
48.803987871165
 20
-1.0565
 30
0.0
 11
48.663403080617
 21
-1.3
 31
0.0
  0
LINE
  5
4C0
330
30
100
AcDbEntity
  8
1
100
AcDbLine
 10
48.663403080617
 20
-1.3
 30
0.0
 11
48.604885330786
 21
-1.3
 31
0.0
  0
LINE
  5
4C1
330
30
100
AcDbEntity
  8
1
100
AcDbLine
 10
48.604885330786
 20
-1.3
 30
0.0
 11
48.546367580955
 21
-1.3
 31
0.0
  0
LINE
  5
4C2
330
30
100
AcDbEntity
  8
1
100
AcDbLine
 10
48.546367580955
 20
-1.3
 30
0.0
 11
48.405782790408
 21
-1.0565
 31
0.0
  0
LINE
  5
4C3
330
30
100
AcDbEntity
  8
1
100
AcDbLine
 10
48.405782790408
 20
-1.0565
 30
0.0
 11
48.379885330786
 21
-1.0565
 31
0.0
  0
LINE
  5
4C4
330
30
100
AcDbEntity
  8
1
100
AcDbLine
 10
48.379885330786
 20
-1.0565
 30
0.0
 11
48.353987871165
 21
-1.0565
 31
0.0
  0
LINE
  5
4C5
330
30
100
AcDbEntity
  8
1
100
AcDbLine
 10
48.353987871165
 20
-1.0565
 30
0.0
 11
48.213403080617
 21
-1.3
 31
0.0
  0
LINE
  5
4C6
330
30
100
AcDbEntity
  8
1
100
AcDbLine
 10
48.213403080617
 20
-1.3
 30
0.0
 11
48.154885330786
 21
-1.3
 31
0.0
  0
LINE
  5
4C7
330
30
100
AcDbEntity
  8
1
100
AcDbLine
 10
48.154885330786
 20
-1.3
 30
0.0
 11
48.096367580955
 21
-1.3
 31
0.0
  0
LINE
  5
4C8
330
30
100
AcDbEntity
  8
1
100
AcDbLine
 10
48.096367580955
 20
-1.3
 30
0.0
 11
47.955782790408
 21
-1.0565
 31
0.0
  0
LINE
  5
4C9
330
30
100
AcDbEntity
  8
1
100
AcDbLine
 10
47.955782790408
 20
-1.0565
 30
0.0
 11
47.929885330786
 21
-1.0565
 31
0.0
  0
LINE
  5
4CA
330
30
100
AcDbEntity
  8
1
100
AcDbLine
 10
47.929885330786
 20
-1.0565
 30
0.0
 11
47.903987871165
 21
-1.0565
 31
0.0
  0
LINE
  5
4CB
330
30
100
AcDbEntity
  8
1
100
AcDbLine
 10
47.903987871165
 20
-1.0565
 30
0.0
 11
47.763403080617
 21
-1.3
 31
0.0
  0
LINE
  5
4CC
330
30
100
AcDbEntity
  8
1
100
AcDbLine
 10
47.763403080617
 20
-1.3
 30
0.0
 11
47.704885330786
 21
-1.3
 31
0.0
  0
LINE
  5
4CD
330
30
100
AcDbEntity
  8
1
100
AcDbLine
 10
47.704885330786
 20
-1.3
 30
0.0
 11
47.646367580955
 21
-1.3
 31
0.0
  0
LINE
  5
4CE
330
30
100
AcDbEntity
  8
1
100
AcDbLine
 10
47.646367580955
 20
-1.3
 30
0.0
 11
47.505782790408
 21
-1.0565
 31
0.0
  0
LINE
  5
4CF
330
30
100
AcDbEntity
  8
1
100
AcDbLine
 10
47.505782790408
 20
-1.0565
 30
0.0
 11
47.479885330786
 21
-1.0565
 31
0.0
  0
LINE
  5
4D0
330
30
100
AcDbEntity
  8
1
100
AcDbLine
 10
47.479885330786
 20
-1.0565
 30
0.0
 11
47.453987871165
 21
-1.0565
 31
0.0
  0
LINE
  5
4D1
330
30
100
AcDbEntity
  8
1
100
AcDbLine
 10
47.453987871165
 20
-1.0565
 30
0.0
 11
47.313403080617
 21
-1.3
 31
0.0
  0
LINE
  5
4D2
330
30
100
AcDbEntity
  8
1
100
AcDbLine
 10
47.313403080617
 20
-1.3
 30
0.0
 11
47.254885330786
 21
-1.3
 31
0.0
  0
LINE
  5
4D3
330
30
100
AcDbEntity
  8
1
100
AcDbLine
 10
47.254885330786
 20
-1.3
 30
0.0
 11
47.196367580955
 21
-1.3
 31
0.0
  0
LINE
  5
4D4
330
30
100
AcDbEntity
  8
1
100
AcDbLine
 10
47.196367580955
 20
-1.3
 30
0.0
 11
47.055782790408
 21
-1.0565
 31
0.0
  0
LINE
  5
4D5
330
30
100
AcDbEntity
  8
1
100
AcDbLine
 10
47.055782790408
 20
-1.0565
 30
0.0
 11
47.029885330786
 21
-1.0565
 31
0.0
  0
LINE
  5
4D6
330
30
100
AcDbEntity
  8
1
100
AcDbLine
 10
47.029885330786
 20
-1.0565
 30
0.0
 11
47.003987871165
 21
-1.0565
 31
0.0
  0
LINE
  5
4D7
330
30
100
AcDbEntity
  8
1
100
AcDbLine
 10
47.003987871165
 20
-1.0565
 30
0.0
 11
46.863403080617
 21
-1.3
 31
0.0
  0
LINE
  5
4D8
330
30
100
AcDbEntity
  8
1
100
AcDbLine
 10
46.863403080617
 20
-1.3
 30
0.0
 11
46.804885330786
 21
-1.3
 31
0.0
  0
LINE
  5
4D9
330
30
100
AcDbEntity
  8
1
100
AcDbLine
 10
46.804885330786
 20
-1.3
 30
0.0
 11
46.746367580955
 21
-1.3
 31
0.0
  0
LINE
  5
4DA
330
30
100
AcDbEntity
  8
1
100
AcDbLine
 10
46.746367580955
 20
-1.3
 30
0.0
 11
46.605782790408
 21
-1.0565
 31
0.0
  0
LINE
  5
4DB
330
30
100
AcDbEntity
  8
1
100
AcDbLine
 10
46.605782790408
 20
-1.0565
 30
0.0
 11
46.579885330786
 21
-1.0565
 31
0.0
  0
LINE
  5
4DC
330
30
100
AcDbEntity
  8
1
100
AcDbLine
 10
46.579885330786
 20
-1.0565
 30
0.0
 11
46.553987871165
 21
-1.0565
 31
0.0
  0
LINE
  5
4DD
330
30
100
AcDbEntity
  8
1
100
AcDbLine
 10
46.553987871165
 20
-1.0565
 30
0.0
 11
46.413403080617
 21
-1.3
 31
0.0
  0
LINE
  5
4DE
330
30
100
AcDbEntity
  8
1
100
AcDbLine
 10
46.413403080617
 20
-1.3
 30
0.0
 11
46.354885330786
 21
-1.3
 31
0.0
  0
LINE
  5
4DF
330
30
100
AcDbEntity
  8
1
100
AcDbLine
 10
46.354885330786
 20
-1.3
 30
0.0
 11
46.296367580955
 21
-1.3
 31
0.0
  0
LINE
  5
4E0
330
30
100
AcDbEntity
  8
1
100
AcDbLine
 10
46.296367580955
 20
-1.3
 30
0.0
 11
46.155782790408
 21
-1.0565
 31
0.0
  0
LINE
  5
4E1
330
30
100
AcDbEntity
  8
1
100
AcDbLine
 10
46.155782790408
 20
-1.0565
 30
0.0
 11
46.129885330786
 21
-1.0565
 31
0.0
  0
LINE
  5
4E2
330
30
100
AcDbEntity
  8
1
100
AcDbLine
 10
46.129885330786
 20
-1.0565
 30
0.0
 11
46.103987871165
 21
-1.0565
 31
0.0
  0
LINE
  5
4E3
330
30
100
AcDbEntity
  8
1
100
AcDbLine
 10
46.103987871165
 20
-1.0565
 30
0.0
 11
45.963403080617
 21
-1.3
 31
0.0
  0
LINE
  5
4E4
330
30
100
AcDbEntity
  8
1
100
AcDbLine
 10
45.963403080617
 20
-1.3
 30
0.0
 11
45.904885330786
 21
-1.3
 31
0.0
  0
LINE
  5
4E5
330
30
100
AcDbEntity
  8
1
100
AcDbLine
 10
45.904885330786
 20
-1.3
 30
0.0
 11
45.846367580955
 21
-1.3
 31
0.0
  0
LINE
  5
4E6
330
30
100
AcDbEntity
  8
1
100
AcDbLine
 10
45.846367580955
 20
-1.3
 30
0.0
 11
45.705782790408
 21
-1.0565
 31
0.0
  0
LINE
  5
4E7
330
30
100
AcDbEntity
  8
1
100
AcDbLine
 10
45.705782790408
 20
-1.0565
 30
0.0
 11
45.679885330786
 21
-1.0565
 31
0.0
  0
LINE
  5
4E8
330
30
100
AcDbEntity
  8
1
100
AcDbLine
 10
45.679885330786
 20
-1.0565
 30
0.0
 11
45.653987871165
 21
-1.0565
 31
0.0
  0
LINE
  5
4E9
330
30
100
AcDbEntity
  8
1
100
AcDbLine
 10
45.653987871165
 20
-1.0565
 30
0.0
 11
45.513403080617
 21
-1.3
 31
0.0
  0
LINE
  5
4EA
330
30
100
AcDbEntity
  8
1
100
AcDbLine
 10
45.513403080617
 20
-1.3
 30
0.0
 11
45.454885330786
 21
-1.3
 31
0.0
  0
LINE
  5
4EB
330
30
100
AcDbEntity
  8
1
100
AcDbLine
 10
45.454885330786
 20
-1.3
 30
0.0
 11
45.396367580955
 21
-1.3
 31
0.0
  0
LINE
  5
4EC
330
30
100
AcDbEntity
  8
1
100
AcDbLine
 10
45.396367580955
 20
-1.3
 30
0.0
 11
45.255782790408
 21
-1.0565
 31
0.0
  0
LINE
  5
4ED
330
30
100
AcDbEntity
  8
1
100
AcDbLine
 10
45.255782790408
 20
-1.0565
 30
0.0
 11
45.229885330786
 21
-1.0565
 31
0.0
  0
LINE
  5
4EE
330
30
100
AcDbEntity
  8
1
100
AcDbLine
 10
45.229885330786
 20
-1.0565
 30
0.0
 11
45.203987871165
 21
-1.0565
 31
0.0
  0
LINE
  5
4EF
330
30
100
AcDbEntity
  8
1
100
AcDbLine
 10
45.203987871165
 20
-1.0565
 30
0.0
 11
45.063403080617
 21
-1.3
 31
0.0
  0
LINE
  5
4F0
330
30
100
AcDbEntity
  8
1
100
AcDbLine
 10
45.063403080617
 20
-1.3
 30
0.0
 11
45.004885330786
 21
-1.3
 31
0.0
  0
LINE
  5
4F1
330
30
100
AcDbEntity
  8
1
100
AcDbLine
 10
45.004885330786
 20
-1.3
 30
0.0
 11
44.946367580955
 21
-1.3
 31
0.0
  0
LINE
  5
4F2
330
30
100
AcDbEntity
  8
1
100
AcDbLine
 10
44.946367580955
 20
-1.3
 30
0.0
 11
44.805782790408
 21
-1.0565
 31
0.0
  0
LINE
  5
4F3
330
30
100
AcDbEntity
  8
1
100
AcDbLine
 10
44.805782790408
 20
-1.0565
 30
0.0
 11
44.779885330786
 21
-1.0565
 31
0.0
  0
LINE
  5
4F4
330
30
100
AcDbEntity
  8
1
100
AcDbLine
 10
44.779885330786
 20
-1.0565
 30
0.0
 11
44.753987871165
 21
-1.0565
 31
0.0
  0
LINE
  5
4F5
330
30
100
AcDbEntity
  8
1
100
AcDbLine
 10
44.753987871165
 20
-1.0565
 30
0.0
 11
44.613403080617
 21
-1.3
 31
0.0
  0
LINE
  5
4F6
330
30
100
AcDbEntity
  8
1
100
AcDbLine
 10
44.613403080617
 20
-1.3
 30
0.0
 11
44.554885330786
 21
-1.3
 31
0.0
  0
LINE
  5
4F7
330
30
100
AcDbEntity
  8
1
100
AcDbLine
 10
44.554885330786
 20
-1.3
 30
0.0
 11
44.496367580955
 21
-1.3
 31
0.0
  0
LINE
  5
4F8
330
30
100
AcDbEntity
  8
1
100
AcDbLine
 10
44.496367580955
 20
-1.3
 30
0.0
 11
44.355782790408
 21
-1.0565
 31
0.0
  0
LINE
  5
4F9
330
30
100
AcDbEntity
  8
1
100
AcDbLine
 10
44.355782790408
 20
-1.0565
 30
0.0
 11
44.329885330786
 21
-1.0565
 31
0.0
  0
LINE
  5
4FA
330
30
100
AcDbEntity
  8
1
100
AcDbLine
 10
44.329885330786
 20
-1.0565
 30
0.0
 11
44.303987871165
 21
-1.0565
 31
0.0
  0
LINE
  5
4FB
330
30
100
AcDbEntity
  8
1
100
AcDbLine
 10
44.303987871165
 20
-1.0565
 30
0.0
 11
44.163403080617
 21
-1.3
 31
0.0
  0
LINE
  5
4FC
330
30
100
AcDbEntity
  8
1
100
AcDbLine
 10
44.163403080617
 20
-1.3
 30
0.0
 11
44.104885330786
 21
-1.3
 31
0.0
  0
LINE
  5
4FD
330
30
100
AcDbEntity
  8
1
100
AcDbLine
 10
44.104885330786
 20
-1.3
 30
0.0
 11
44.046367580955
 21
-1.3
 31
0.0
  0
LINE
  5
4FE
330
30
100
AcDbEntity
  8
1
100
AcDbLine
 10
44.046367580955
 20
-1.3
 30
0.0
 11
43.905782790408
 21
-1.0565
 31
0.0
  0
LINE
  5
4FF
330
30
100
AcDbEntity
  8
1
100
AcDbLine
 10
43.905782790408
 20
-1.0565
 30
0.0
 11
43.879885330786
 21
-1.0565
 31
0.0
  0
LINE
  5
500
330
30
100
AcDbEntity
  8
1
100
AcDbLine
 10
43.879885330786
 20
-1.0565
 30
0.0
 11
43.853987871165
 21
-1.0565
 31
0.0
  0
LINE
  5
501
330
30
100
AcDbEntity
  8
1
100
AcDbLine
 10
43.853987871165
 20
-1.0565
 30
0.0
 11
43.713403080617
 21
-1.3
 31
0.0
  0
LINE
  5
502
330
30
100
AcDbEntity
  8
1
100
AcDbLine
 10
43.713403080617
 20
-1.3
 30
0.0
 11
43.654885330786
 21
-1.3
 31
0.0
  0
LINE
  5
503
330
30
100
AcDbEntity
  8
1
100
AcDbLine
 10
43.654885330786
 20
-1.3
 30
0.0
 11
43.596367580955
 21
-1.3
 31
0.0
  0
LINE
  5
504
330
30
100
AcDbEntity
  8
1
100
AcDbLine
 10
43.596367580955
 20
-1.3
 30
0.0
 11
43.455782790408
 21
-1.0565
 31
0.0
  0
LINE
  5
505
330
30
100
AcDbEntity
  8
1
100
AcDbLine
 10
43.455782790408
 20
-1.0565
 30
0.0
 11
43.429885330786
 21
-1.0565
 31
0.0
  0
LINE
  5
506
330
30
100
AcDbEntity
  8
1
100
AcDbLine
 10
43.429885330786
 20
-1.0565
 30
0.0
 11
43.403987871165
 21
-1.0565
 31
0.0
  0
LINE
  5
507
330
30
100
AcDbEntity
  8
1
100
AcDbLine
 10
43.403987871165
 20
-1.0565
 30
0.0
 11
43.263403080617
 21
-1.3
 31
0.0
  0
LINE
  5
508
330
30
100
AcDbEntity
  8
1
100
AcDbLine
 10
43.263403080617
 20
-1.3
 30
0.0
 11
43.204885330786
 21
-1.3
 31
0.0
  0
LINE
  5
509
330
30
100
AcDbEntity
  8
1
100
AcDbLine
 10
43.204885330786
 20
-1.3
 30
0.0
 11
43.146367580955
 21
-1.3
 31
0.0
  0
LINE
  5
50A
330
30
100
AcDbEntity
  8
1
100
AcDbLine
 10
43.146367580955
 20
-1.3
 30
0.0
 11
43.005782790408
 21
-1.0565
 31
0.0
  0
LINE
  5
50B
330
30
100
AcDbEntity
  8
1
100
AcDbLine
 10
43.005782790408
 20
-1.0565
 30
0.0
 11
42.979885330786
 21
-1.0565
 31
0.0
  0
LINE
  5
50C
330
30
100
AcDbEntity
  8
1
100
AcDbLine
 10
42.979885330786
 20
-1.0565
 30
0.0
 11
42.953987871165
 21
-1.0565
 31
0.0
  0
LINE
  5
50D
330
30
100
AcDbEntity
  8
1
100
AcDbLine
 10
42.953987871165
 20
-1.0565
 30
0.0
 11
42.813403080617
 21
-1.3
 31
0.0
  0
LINE
  5
50E
330
30
100
AcDbEntity
  8
1
100
AcDbLine
 10
42.813403080617
 20
-1.3
 30
0.0
 11
42.754885330786
 21
-1.3
 31
0.0
  0
LINE
  5
50F
330
30
100
AcDbEntity
  8
1
100
AcDbLine
 10
42.754885330786
 20
-1.3
 30
0.0
 11
42.696367580955
 21
-1.3
 31
0.0
  0
LINE
  5
510
330
30
100
AcDbEntity
  8
1
100
AcDbLine
 10
42.696367580955
 20
-1.3
 30
0.0
 11
42.555782790408
 21
-1.0565
 31
0.0
  0
LINE
  5
511
330
30
100
AcDbEntity
  8
1
100
AcDbLine
 10
42.555782790408
 20
-1.0565
 30
0.0
 11
42.529885330786
 21
-1.0565
 31
0.0
  0
LINE
  5
512
330
30
100
AcDbEntity
  8
1
100
AcDbLine
 10
42.529885330786
 20
-1.0565
 30
0.0
 11
42.503987871165
 21
-1.0565
 31
0.0
  0
LINE
  5
513
330
30
100
AcDbEntity
  8
1
100
AcDbLine
 10
42.503987871165
 20
-1.0565
 30
0.0
 11
42.363403080617
 21
-1.3
 31
0.0
  0
LINE
  5
514
330
30
100
AcDbEntity
  8
1
100
AcDbLine
 10
42.363403080617
 20
-1.3
 30
0.0
 11
42.304885330786
 21
-1.3
 31
0.0
  0
LINE
  5
515
330
30
100
AcDbEntity
  8
1
100
AcDbLine
 10
42.304885330786
 20
-1.3
 30
0.0
 11
42.246367580955
 21
-1.3
 31
0.0
  0
LINE
  5
516
330
30
100
AcDbEntity
  8
1
100
AcDbLine
 10
42.246367580955
 20
-1.3
 30
0.0
 11
42.105782790408
 21
-1.0565
 31
0.0
  0
LINE
  5
517
330
30
100
AcDbEntity
  8
1
100
AcDbLine
 10
42.105782790408
 20
-1.0565
 30
0.0
 11
42.079885330786
 21
-1.0565
 31
0.0
  0
LINE
  5
518
330
30
100
AcDbEntity
  8
1
100
AcDbLine
 10
42.079885330786
 20
-1.0565
 30
0.0
 11
42.053987871165
 21
-1.0565
 31
0.0
  0
LINE
  5
519
330
30
100
AcDbEntity
  8
1
100
AcDbLine
 10
42.053987871165
 20
-1.0565
 30
0.0
 11
41.913403080617
 21
-1.3
 31
0.0
  0
LINE
  5
51A
330
30
100
AcDbEntity
  8
1
100
AcDbLine
 10
41.913403080617
 20
-1.3
 30
0.0
 11
41.854885330786
 21
-1.3
 31
0.0
  0
LINE
  5
51B
330
30
100
AcDbEntity
  8
1
100
AcDbLine
 10
41.854885330786
 20
-1.3
 30
0.0
 11
41.796367580955
 21
-1.3
 31
0.0
  0
LINE
  5
51C
330
30
100
AcDbEntity
  8
1
100
AcDbLine
 10
41.796367580955
 20
-1.3
 30
0.0
 11
41.655782790408
 21
-1.0565
 31
0.0
  0
LINE
  5
51D
330
30
100
AcDbEntity
  8
1
100
AcDbLine
 10
41.655782790408
 20
-1.0565
 30
0.0
 11
41.629885330786
 21
-1.0565
 31
0.0
  0
LINE
  5
51E
330
30
100
AcDbEntity
  8
1
100
AcDbLine
 10
41.629885330786
 20
-1.0565
 30
0.0
 11
41.603987871165
 21
-1.0565
 31
0.0
  0
LINE
  5
51F
330
30
100
AcDbEntity
  8
1
100
AcDbLine
 10
41.603987871165
 20
-1.0565
 30
0.0
 11
41.463403080617
 21
-1.3
 31
0.0
  0
LINE
  5
520
330
30
100
AcDbEntity
  8
1
100
AcDbLine
 10
41.463403080617
 20
-1.3
 30
0.0
 11
41.404885330786
 21
-1.3
 31
0.0
  0
LINE
  5
521
330
30
100
AcDbEntity
  8
1
100
AcDbLine
 10
41.404885330786
 20
-1.3
 30
0.0
 11
41.346367580955
 21
-1.3
 31
0.0
  0
LINE
  5
522
330
30
100
AcDbEntity
  8
1
100
AcDbLine
 10
41.346367580955
 20
-1.3
 30
0.0
 11
41.205782790408
 21
-1.0565
 31
0.0
  0
LINE
  5
523
330
30
100
AcDbEntity
  8
1
100
AcDbLine
 10
41.205782790408
 20
-1.0565
 30
0.0
 11
41.179885330786
 21
-1.0565
 31
0.0
  0
LINE
  5
524
330
30
100
AcDbEntity
  8
1
100
AcDbLine
 10
41.179885330786
 20
-1.0565
 30
0.0
 11
41.153987871165
 21
-1.0565
 31
0.0
  0
LINE
  5
525
330
30
100
AcDbEntity
  8
1
100
AcDbLine
 10
41.153987871165
 20
-1.0565
 30
0.0
 11
41.013403080617
 21
-1.3
 31
0.0
  0
LINE
  5
526
330
30
100
AcDbEntity
  8
1
100
AcDbLine
 10
41.013403080617
 20
-1.3
 30
0.0
 11
40.954885330786
 21
-1.3
 31
0.0
  0
LINE
  5
527
330
30
100
AcDbEntity
  8
1
100
AcDbLine
 10
40.954885330786
 20
-1.3
 30
0.0
 11
40.896367580955
 21
-1.3
 31
0.0
  0
LINE
  5
528
330
30
100
AcDbEntity
  8
1
100
AcDbLine
 10
40.896367580955
 20
-1.3
 30
0.0
 11
40.755782790408
 21
-1.0565
 31
0.0
  0
LINE
  5
529
330
30
100
AcDbEntity
  8
1
100
AcDbLine
 10
40.755782790408
 20
-1.0565
 30
0.0
 11
40.729885330786
 21
-1.0565
 31
0.0
  0
LINE
  5
52A
330
30
100
AcDbEntity
  8
1
100
AcDbLine
 10
40.729885330786
 20
-1.0565
 30
0.0
 11
40.703987871165
 21
-1.0565
 31
0.0
  0
LINE
  5
52B
330
30
100
AcDbEntity
  8
1
100
AcDbLine
 10
40.703987871165
 20
-1.0565
 30
0.0
 11
40.563403080617
 21
-1.3
 31
0.0
  0
LINE
  5
52C
330
30
100
AcDbEntity
  8
1
100
AcDbLine
 10
40.563403080617
 20
-1.3
 30
0.0
 11
40.504885330786
 21
-1.3
 31
0.0
  0
LINE
  5
52D
330
30
100
AcDbEntity
  8
1
100
AcDbLine
 10
40.504885330786
 20
-1.3
 30
0.0
 11
40.446367580955
 21
-1.3
 31
0.0
  0
LINE
  5
52E
330
30
100
AcDbEntity
  8
1
100
AcDbLine
 10
40.446367580955
 20
-1.3
 30
0.0
 11
40.305782790408
 21
-1.0565
 31
0.0
  0
LINE
  5
52F
330
30
100
AcDbEntity
  8
1
100
AcDbLine
 10
40.305782790408
 20
-1.0565
 30
0.0
 11
40.279885330786
 21
-1.0565
 31
0.0
  0
LINE
  5
530
330
30
100
AcDbEntity
  8
1
100
AcDbLine
 10
40.279885330786
 20
-1.0565
 30
0.0
 11
40.253987871165
 21
-1.0565
 31
0.0
  0
LINE
  5
531
330
30
100
AcDbEntity
  8
1
100
AcDbLine
 10
40.253987871165
 20
-1.0565
 30
0.0
 11
40.113403080617
 21
-1.3
 31
0.0
  0
LINE
  5
532
330
30
100
AcDbEntity
  8
1
100
AcDbLine
 10
40.113403080617
 20
-1.3
 30
0.0
 11
40.054885330786
 21
-1.3
 31
0.0
  0
LINE
  5
533
330
30
100
AcDbEntity
  8
1
100
AcDbLine
 10
40.054885330786
 20
-1.3
 30
0.0
 11
39.996367580955
 21
-1.3
 31
0.0
  0
LINE
  5
534
330
30
100
AcDbEntity
  8
1
100
AcDbLine
 10
39.996367580955
 20
-1.3
 30
0.0
 11
39.855782790408
 21
-1.0565
 31
0.0
  0
LINE
  5
535
330
30
100
AcDbEntity
  8
1
100
AcDbLine
 10
39.855782790408
 20
-1.0565
 30
0.0
 11
39.829885330786
 21
-1.0565
 31
0.0
  0
LINE
  5
536
330
30
100
AcDbEntity
  8
1
100
AcDbLine
 10
39.829885330786
 20
-1.0565
 30
0.0
 11
39.803987871165
 21
-1.0565
 31
0.0
  0
LINE
  5
537
330
30
100
AcDbEntity
  8
1
100
AcDbLine
 10
39.803987871165
 20
-1.0565
 30
0.0
 11
39.663403080617
 21
-1.3
 31
0.0
  0
LINE
  5
538
330
30
100
AcDbEntity
  8
1
100
AcDbLine
 10
39.663403080617
 20
-1.3
 30
0.0
 11
39.604885330786
 21
-1.3
 31
0.0
  0
LINE
  5
539
330
30
100
AcDbEntity
  8
1
100
AcDbLine
 10
39.604885330786
 20
-1.3
 30
0.0
 11
39.546367580955
 21
-1.3
 31
0.0
  0
LINE
  5
53A
330
30
100
AcDbEntity
  8
1
100
AcDbLine
 10
39.546367580955
 20
-1.3
 30
0.0
 11
39.405782790408
 21
-1.0565
 31
0.0
  0
LINE
  5
53B
330
30
100
AcDbEntity
  8
1
100
AcDbLine
 10
39.405782790408
 20
-1.0565
 30
0.0
 11
39.379885330786
 21
-1.0565
 31
0.0
  0
LINE
  5
53C
330
30
100
AcDbEntity
  8
1
100
AcDbLine
 10
39.379885330786
 20
-1.0565
 30
0.0
 11
39.353987871165
 21
-1.0565
 31
0.0
  0
LINE
  5
53D
330
30
100
AcDbEntity
  8
1
100
AcDbLine
 10
39.353987871165
 20
-1.0565
 30
0.0
 11
39.213403080617
 21
-1.3
 31
0.0
  0
LINE
  5
53E
330
30
100
AcDbEntity
  8
1
100
AcDbLine
 10
39.213403080617
 20
-1.3
 30
0.0
 11
39.154885330786
 21
-1.3
 31
0.0
  0
LINE
  5
53F
330
30
100
AcDbEntity
  8
1
100
AcDbLine
 10
39.154885330786
 20
-1.3
 30
0.0
 11
39.096367580955
 21
-1.3
 31
0.0
  0
LINE
  5
540
330
30
100
AcDbEntity
  8
SK1
100
AcDbLine
 10
6.753987871165
 20
0.804086040245
 30
0.0
 11
6.753987871165
 21
1.7905
 31
0.0
  0
LINE
  5
541
330
30
100
AcDbEntity
  8
SK1
100
AcDbLine
 10
6.753987871165
 20
1.7905
 30
0.0
 11
1.953987871165
 21
1.7905
 31
0.0
  0
LINE
  5
542
330
30
100
AcDbEntity
  8
SK1
100
AcDbLine
 10
1.953987871165
 20
1.7905
 30
0.0
 11
1.953987871165
 21
0.804086040245
 31
0.0
  0
LINE
  5
543
330
30
100
AcDbEntity
  8
SK1
100
AcDbLine
 10
1.953987871165
 20
0.804086040245
 30
0.0
 11
6.753987871165
 21
0.804086040245
 31
0.0
  0
LINE
  5
544
330
30
100
AcDbEntity
  8
SK1
100
AcDbLine
 10
6.753987871165
 20
0.804086040245
 30
0.0
 11
1.953987871165
 21
1.7905
 31
0.0
  0
LINE
  5
545
330
30
100
AcDbEntity
  8
SK1
100
AcDbLine
 10
6.753987871165
 20
1.7905
 30
0.0
 11
1.953987871165
 21
0.804086040245
 31
0.0
  0
LINE
  5
546
330
30
100
AcDbEntity
  8
SK1
100
AcDbLine
 10
6.753987871165
 20
-0.804086040245
 30
0.0
 11
6.753987871165
 21
-1.7905
 31
0.0
  0
LINE
  5
547
330
30
100
AcDbEntity
  8
SK1
100
AcDbLine
 10
6.753987871165
 20
-1.7905
 30
0.0
 11
1.953987871165
 21
-1.7905
 31
0.0
  0
LINE
  5
548
330
30
100
AcDbEntity
  8
SK1
100
AcDbLine
 10
1.953987871165
 20
-1.7905
 30
0.0
 11
1.953987871165
 21
-0.804086040245
 31
0.0
  0
LINE
  5
549
330
30
100
AcDbEntity
  8
SK1
100
AcDbLine
 10
1.953987871165
 20
-0.804086040245
 30
0.0
 11
6.753987871165
 21
-0.804086040245
 31
0.0
  0
LINE
  5
54A
330
30
100
AcDbEntity
  8
SK1
100
AcDbLine
 10
6.753987871165
 20
-0.804086040245
 30
0.0
 11
1.953987871165
 21
-1.7905
 31
0.0
  0
LINE
  5
54B
330
30
100
AcDbEntity
  8
SK1
100
AcDbLine
 10
6.753987871165
 20
-1.7905
 30
0.0
 11
1.953987871165
 21
-0.804086040245
 31
0.0
  0
LINE
  5
54C
330
30
100
AcDbEntity
  8
INFTOTAL
100
AcDbLine
 10
-15.0
 20
45.0
 30
0.0
 11
100.0
 21
45.0
 31
0.0
  0
LINE
  5
54D
330
30
100
AcDbEntity
  8
INFTOTAL
100
AcDbLine
 10
100.0
 20
45.0
 30
0.0
 11
100.0
 21
-45.0
 31
0.0
  0
LINE
  5
54E
330
30
100
AcDbEntity
  8
INFTOTAL
100
AcDbLine
 10
100.0
 20
-45.0
 30
0.0
 11
-15.0
 21
-45.0
 31
0.0
  0
LINE
  5
54F
330
30
100
AcDbEntity
  8
INFTOTAL
100
AcDbLine
 10
-15.0
 20
-45.0
 30
0.0
 11
-15.0
 21
45.0
 31
0.0
  0
DIMENSION
  5
106AC07
330
30
100
AcDbEntity
  8
2
100
AcDbDimension
  2
*D7
 10
80.0
 20
1.055000000000001
 30
0.0
 11
80.0
 21
14.79375
 31
0.0
 70
   160
  1
%%c<>
 71
     5
 42
2.11
  3
STANDARD
100
AcDbAlignedDimension
 13
51.953987871165
 23
-1.055
 33
0.0
 14
51.953987871165
 24
1.055
 34
0.0
 50
-90.0
100
AcDbRotatedDimension
1001
ACAD
1000
DSTYLE
1002
{
1070
   271
1070
     2
1070
   279
1070
     0
1070
    74
1070
     0
1002
}
  0
DIMENSION
  5
106AC32
330
30
100
AcDbEntity
  8
2
100
AcDbDimension
  2
*D9
 10
50.153987871165
 20
-16.0
 30
0.0
 11
63.0
 21
-16.0
 31
0.0
 70
   160
  1
<>
 71
     5
 42
1.799999999999997
  3
STANDARD
100
AcDbAlignedDimension
 13
51.953987871165
 23
-1.055
 33
0.0
 14
50.153987871165
 24
-1.3
 34
0.0
100
AcDbRotatedDimension
1001
ACAD
1000
DSTYLE
1002
{
1070
   271
1070
     1
1070
   279
1070
     0
1070
    74
1070
     0
1002
}
  0
DIMENSION
  5
106AC67
330
30
100
AcDbEntity
  8
2
100
AcDbDimension
  2
*D11
 10
88.0
 20
1.300000000000004
 30
0.0
 11
88.0
 21
21.44900000000001
 31
0.0
 70
   160
  1
M2.6X0.45
 71
     5
 42
2.6
  3
STANDARD
100
AcDbAlignedDimension
 13
50.153987871165
 23
-1.3
 33
0.0
 14
50.153987871165
 24
1.3
 34
0.0
 50
-90.0
100
AcDbRotatedDimension
1001
ACAD
1000
DSTYLE
1002
{
1070
   271
1070
     2
1070
   279
1070
     0
1070
    74
1070
     0
1002
}
  0
DIMENSION
  5
106AC92
330
30
100
AcDbEntity
  8
SK2
100
AcDbDimension
  2
*D13
 10
1.953987871164999
 20
35.0
 30
0.0
 11
11.529653105479
 21
35.0
 31
0.0
 70
   160
  1
<>
 71
     5
 42
19.151330468628
  3
STANDARD
100
AcDbAlignedDimension
 13
21.105318339793
 23
1.7905
 33
0.0
 14
1.953987871165
 24
1.7905
 34
0.0
100
AcDbRotatedDimension
1001
ACAD
1000
DSTYLE
1002
{
1070
   271
1070
     1
1070
   279
1070
     0
1070
    74
1070
     0
1002
}
  0
ENDSEC
  0
SECTION
  2
OBJECTS
  0
DICTIONARY
  5
550
330
0
100
AcDbDictionary
281
     1
  3
ACAD_GROUP
350
551
  3
ACAD_IMAGE_VARS
350
106ABDF
  3
ACAD_LAYOUT
350
106AB97
  3
ACAD_MATERIAL
350
106ABBC
  3
ACAD_MLEADERSTYLE
350
106ABDB
  3
ACAD_MLINESTYLE
350
106AB92
  3
ACAD_PLOTSETTINGS
350
106AB94
  3
ACAD_PLOTSTYLENAME
350
106AB95
  3
ACAD_SCALELIST
350
106AB9A
  3
ACAD_TABLESTYLE
350
106ABD9
  3
ACAD_VISUALSTYLE
350
106ABC0
  3
AcDbVariableDictionary
350
106ACA1
  3
APPDATA
350
106ABDD
  3
DWGPROPS
350
106AD2A
  3
FX_DICT_DIMENSION_PALETTE
350
106ABE2
  3
PRINTCONFIG
350
106AD27
  0
DICTIONARY
  5
106AD2B
330
2
100
AcDbDictionary
280
     1
281
     1
  3
ACAD_XREC_ROUNDTRIP
360
106AD2C
  0
DICTIONARY
  5
106AC9F
330
30
100
AcDbDictionary
280
     1
281
     1
  3
DIM_BOUNDING_BOXES_V1
360
106ACA0
  0
DICTIONARY
  5
551
102
{ACAD_REACTORS
330
550
102
}
330
550
100
AcDbDictionary
281
     1
  0
RASTERVARIABLES
  5
106ABDF
102
{ACAD_REACTORS
330
550
102
}
330
550
100
AcDbRasterVariables
 90
        0
 70
     1
 71
     1
 72
     0
  0
DICTIONARY
  5
106AB97
102
{ACAD_REACTORS
330
550
102
}
330
550
100
AcDbDictionary
281
     1
  3
Model
350
106AB98
  3
シート 1
350
106AB99
  0
DICTIONARY
  5
106ABBC
102
{ACAD_REACTORS
330
550
102
}
330
550
100
AcDbDictionary
281
     1
  3
ByBlock
350
106ABBE
  3
ByLayer
350
106ABBD
  3
Global
350
106ABBF
  0
DICTIONARY
  5
106ABDB
102
{ACAD_REACTORS
330
550
102
}
330
550
100
AcDbDictionary
281
     1
  3
Standard
350
106ABDC
  0
DICTIONARY
  5
106AB92
102
{ACAD_REACTORS
330
550
102
}
330
550
100
AcDbDictionary
281
     1
  3
Standard
350
106AB93
  0
DICTIONARY
  5
106AB94
102
{ACAD_REACTORS
330
550
102
}
330
550
100
AcDbDictionary
281
     1
  0
ACDBDICTIONARYWDFLT
  5
106AB95
102
{ACAD_REACTORS
330
550
102
}
330
550
100
AcDbDictionary
281
     1
  3
Normal
350
106AB96
100
AcDbDictionaryWithDefault
340
106AB96
  0
DICTIONARY
  5
106AB9A
102
{ACAD_REACTORS
330
550
102
}
330
550
100
AcDbDictionary
281
     1
  3
A0
350
106AB9B
  3
A1
350
106AB9C
  3
A2
350
106AB9D
  3
A3
350
106AB9E
  3
A4
350
106AB9F
  3
A5
350
106ABA0
  3
A6
350
106ABA1
  3
A7
350
106ABA2
  3
A8
350
106ABA3
  3
A9
350
106ABA4
  3
B0
350
106ABA5
  3
B1
350
106ABA6
  3
B2
350
106ABA7
  3
B3
350
106ABA8
  3
B4
350
106ABA9
  3
B5
350
106ABAA
  3
B6
350
106ABAB
  3
B7
350
106ABAC
  3
B8
350
106ABAD
  3
B9
350
106ABAE
  3
C0
350
106ABAF
  3
C1
350
106ABB0
  3
C2
350
106ABB1
  3
C3
350
106ABB2
  3
C4
350
106ABB3
  3
C5
350
106ABB4
  3
C6
350
106ABB5
  3
C7
350
106ABB6
  3
C8
350
106ABB7
  3
C9
350
106ABB8
  3
D0
350
106ABB9
  3
D1
350
106ABBA
  3
D2
350
106ABBB
  0
DICTIONARY
  5
106ABD9
102
{ACAD_REACTORS
330
550
102
}
330
550
100
AcDbDictionary
281
     1
  3
Standard
350
106ABDA
  0
DICTIONARY
  5
106ABC0
102
{ACAD_REACTORS
330
550
102
}
330
550
100
AcDbDictionary
281
     1
  3
2dWireframe
350
106ABC5
  3
Basic
350
106ABC8
  3
Brighten
350
106ABCC
  3
ColorChange
350
106ABD0
  3
Conceptual
350
106ABCA
  3
Dim
350
106ABCB
  3
EdgeColorOff
350
106ABD3
  3
Facepattern
350
106ABCF
  3
Flat
350
106ABC1
  3
FlatWithEdges
350
106ABC2
  3
Gouraud
350
106ABC3
  3
GouraudWithEdges
350
106ABC4
  3
Hidden
350
106ABC7
  3
JitterOff
350
106ABD1
  3
Linepattern
350
106ABCE
  3
OverhangOff
350
106ABD2
  3
Realistic
350
106ABC9
  3
Shaded
350
106ABD8
  3
Shaded with edges
350
106ABD7
  3
Shades of Gray
350
106ABD4
  3
Sketchy
350
106ABD5
  3
Thicken
350
106ABCD
  3
Wireframe
350
106ABC6
  3
X-Ray
350
106ABD6
  0
DICTIONARY
  5
106ACA1
102
{ACAD_REACTORS
330
550
102
}
330
550
100
AcDbDictionary
281
     1
  3
CANNOSCALE
350
106AD2D
  3
CMLEADERSTYLE
350
106ACA3
  3
CTABLESTYLE
350
106ACA2
  3
DIMASSOC
350
106ACA6
  3
HIDETEXT
350
106ACA7
  3
MSLTSCALE
350
106ACAE
  0
DICTIONARY
  5
106ABDD
102
{ACAD_REACTORS
330
550
102
}
330
550
100
AcDbDictionary
281
     1
  0
XRECORD
  5
106AD2A
102
{ACAD_REACTORS
330
550
102
}
330
550
100
AcDbXrecord
280
     1
  1
DWGPROPS COOKIE
  2

  3

  4

  6

  7

  8
usr2460
  9

300
=
301
=
302
=
303
=
304
=
305
=
306
=
307
=
308
=
309
=
 40
0.0
 41
0.0
 42
2460865.174871262
  1

 90
        0
  0
DICTIONARY
  5
106ABE2
102
{ACAD_REACTORS
330
550
102
}
330
550
100
AcDbDictionary
281
     1
1001
FX_DIMP_FAV_VERSION
1071
        1
  0
DICTIONARYVAR
  5
106AD27
102
{ACAD_REACTORS
330
550
102
}
330
550
100
DictionaryVariables
280
     0
  1
0
  0
XRECORD
  5
106AD2C
102
{ACAD_REACTORS
330
106AD2B
102
}
330
106AD2B
100
AcDbXrecord
280
     1
102
VTR_0.000_0.000_1.000_1.000_VISUALSTYLE
340
106ABC5
102
VTR_0.000_0.000_1.000_1.000_GRIDDISPLAY
 70
     3
102
VTR_0.000_0.000_1.000_1.000_GRIDMAJOR
 70
     5
102
VTR_0.000_0.000_1.000_1.000_DEFAULTLIGHTING
280
     1
102
VTR_0.000_0.000_1.000_1.000_DEFAULTLIGHTINGTYPE
 70
     1
102
VTR_0.000_0.000_1.000_1.000_BRIGHTNESS
141
0.0
102
VTR_0.000_0.000_1.000_1.000_CONTRAST
142
0.0
  0
DICTIONARY
  5
106ACA0
102
{ACAD_REACTORS
330
106AC9F
102
}
330
106AC9F
100
AcDbDictionary
281
     1
  0
LAYOUT
  5
106AB98
102
{ACAD_REACTORS
330
106AB97
102
}
330
106AB97
100
AcDbPlotSettings
  1

  2
none_device
  4
Letter_(8.50_x_11.00_Inches)
  6

 40
6.35
 41
6.35
 42
6.35
 43
6.35
 44
215.9
 45
279.4
 46
0.0
 47
0.0
 48
0.0
 49
0.0
140
0.0
141
0.0
142
1.0
143
2.21959459445662
 70
  1712
 72
     0
 73
     0
 74
     0
  7

 75
     0
147
0.4505327245333333
148
-39.40881537143161
149
0.0
100
AcDbLayout
  1
Model
 70
     1
 71
     0
 10
0.0
 20
0.0
 11
12.0
 21
9.0
 12
0.0
 22
0.0
 32
0.0
 14
-15.0
 24
-45.0
 34
0.0
 15
100.0
 25
45.0
 35
0.0
146
0.0
 13
0.0
 23
0.0
 33
0.0
 16
1.0
 26
0.0
 36
0.0
 17
0.0
 27
1.0
 37
0.0
 76
     0
330
30
331
106AB91
  0
LAYOUT
  5
106AB99
102
{ACAD_REACTORS
330
106AB97
102
}
330
106AB97
100
AcDbPlotSettings
  1

  2
none_device
  4

  6

 40
0.0
 41
0.0
 42
0.0
 43
0.0
 44
0.0
 45
0.0
 46
0.0
 47
0.0
 48
0.0
 49
0.0
140
0.0
141
0.0
142
1.0
143
1.0
 70
   688
 72
     0
 73
     0
 74
     5
  7

 75
    16
147
1.0
148
0.0
149
0.0
100
AcDbLayout
  1
シート 1
 70
     1
 71
     1
 10
0.0
 20
0.0
 11
0.0
 21
0.0
 12
0.0
 22
0.0
 32
0.0
 14
1.000000000000000E+20
 24
1.000000000000000E+20
 34
1.000000000000000E+20
 15
-1.000000000000000E+20
 25
-1.000000000000000E+20
 35
-1.000000000000000E+20
146
0.0
 13
0.0
 23
0.0
 33
0.0
 16
1.0
 26
0.0
 36
0.0
 17
0.0
 27
1.0
 37
0.0
 76
     0
330
31
  0
MATERIAL
  5
106ABBE
102
{ACAD_REACTORS
330
106ABBC
102
}
102
{ACAD_XDICTIONARY
360
106AD2E
102
}
330
106ABBC
100
AcDbMaterial
  1
ByBlock
  0
MATERIAL
  5
106ABBD
102
{ACAD_REACTORS
330
106ABBC
102
}
102
{ACAD_XDICTIONARY
360
106AD30
102
}
330
106ABBC
100
AcDbMaterial
  1
ByLayer
  0
MATERIAL
  5
106ABBF
102
{ACAD_REACTORS
330
106ABBC
102
}
102
{ACAD_XDICTIONARY
360
106AD32
102
}
330
106ABBC
100
AcDbMaterial
  1
Global
  0
MLEADERSTYLE
  5
106ABDC
102
{ACAD_REACTORS
330
106ABDB
102
}
102
{ACAD_XDICTIONARY
360
106AD34
102
}
330
106ABDB
100
AcDbMLeaderStyle
170
     2
171
     1
172
     0
 90
        2
 40
0.0
 41
0.0
173
     1
 91
-1056964608
340
4
 92
       -2
290
     1
 42
0.09
291
     1
 43
0.36
  3
Standard
341
0
 44
0.18
300

342
28
174
     1
178
     1
175
     1
176
     0
 93
-1056964608
 45
0.18
292
     0
297
     0
 46
0.18
343
0
 94
-1056964608
 47
1.0
 49
1.0
140
1.0
293
     1
141
0.0
294
     1
177
     0
142
1.0
295
     0
296
     0
143
0.125
1001
ACAD_MLEADERVER
1070
     2
  0
MLINESTYLE
  5
106AB93
102
{ACAD_REACTORS
330
106AB92
102
}
330
106AB92
100
AcDbMlineStyle
  2
Standard
 70
     0
  3

 62
   256
 51
90.0
 52
90.0
 71
     2
 49
0.5
 62
   256
  6
BYLAYER
 49
-0.5
 62
   256
  6
BYLAYER
  0
ACDBPLACEHOLDER
  5
106AB96
102
{ACAD_REACTORS
330
106AB95
102
}
330
106AB95
  0
SCALE
  5
106AB9B
102
{ACAD_REACTORS
330
106AB9A
102
}
330
106AB9A
100
AcDbScale
 70
     0
300
1:1
140
1.0
141
1.0
290
     1
  0
SCALE
  5
106AB9C
102
{ACAD_REACTORS
330
106AB9A
102
}
330
106AB9A
100
AcDbScale
 70
     0
300
1:2
140
1.0
141
2.0
290
     0
  0
SCALE
  5
106AB9D
102
{ACAD_REACTORS
330
106AB9A
102
}
330
106AB9A
100
AcDbScale
 70
     0
300
1:4
140
1.0
141
4.0
290
     0
  0
SCALE
  5
106AB9E
102
{ACAD_REACTORS
330
106AB9A
102
}
330
106AB9A
100
AcDbScale
 70
     0
300
1:5
140
1.0
141
5.0
290
     0
  0
SCALE
  5
106AB9F
102
{ACAD_REACTORS
330
106AB9A
102
}
330
106AB9A
100
AcDbScale
 70
     0
300
1:8
140
1.0
141
8.0
290
     0
  0
SCALE
  5
106ABA0
102
{ACAD_REACTORS
330
106AB9A
102
}
330
106AB9A
100
AcDbScale
 70
     0
300
1:10
140
1.0
141
10.0
290
     0
  0
SCALE
  5
106ABA1
102
{ACAD_REACTORS
330
106AB9A
102
}
330
106AB9A
100
AcDbScale
 70
     0
300
1:16
140
1.0
141
16.0
290
     0
  0
SCALE
  5
106ABA2
102
{ACAD_REACTORS
330
106AB9A
102
}
330
106AB9A
100
AcDbScale
 70
     0
300
1:20
140
1.0
141
20.0
290
     0
  0
SCALE
  5
106ABA3
102
{ACAD_REACTORS
330
106AB9A
102
}
330
106AB9A
100
AcDbScale
 70
     0
300
1:30
140
1.0
141
30.0
290
     0
  0
SCALE
  5
106ABA4
102
{ACAD_REACTORS
330
106AB9A
102
}
330
106AB9A
100
AcDbScale
 70
     0
300
1:40
140
1.0
141
40.0
290
     0
  0
SCALE
  5
106ABA5
102
{ACAD_REACTORS
330
106AB9A
102
}
330
106AB9A
100
AcDbScale
 70
     0
300
1:50
140
1.0
141
50.0
290
     0
  0
SCALE
  5
106ABA6
102
{ACAD_REACTORS
330
106AB9A
102
}
330
106AB9A
100
AcDbScale
 70
     0
300
1:100
140
1.0
141
100.0
290
     0
  0
SCALE
  5
106ABA7
102
{ACAD_REACTORS
330
106AB9A
102
}
330
106AB9A
100
AcDbScale
 70
     0
300
2:1
140
2.0
141
1.0
290
     0
  0
SCALE
  5
106ABA8
102
{ACAD_REACTORS
330
106AB9A
102
}
330
106AB9A
100
AcDbScale
 70
     0
300
4:1
140
4.0
141
1.0
290
     0
  0
SCALE
  5
106ABA9
102
{ACAD_REACTORS
330
106AB9A
102
}
330
106AB9A
100
AcDbScale
 70
     0
300
8:1
140
8.0
141
1.0
290
     0
  0
SCALE
  5
106ABAA
102
{ACAD_REACTORS
330
106AB9A
102
}
330
106AB9A
100
AcDbScale
 70
     0
300
10:1
140
10.0
141
1.0
290
     0
  0
SCALE
  5
106ABAB
102
{ACAD_REACTORS
330
106AB9A
102
}
330
106AB9A
100
AcDbScale
 70
     0
300
100:1
140
100.0
141
1.0
290
     0
  0
SCALE
  5
106ABAC
102
{ACAD_REACTORS
330
106AB9A
102
}
330
106AB9A
100
AcDbScale
 70
     0
300
1/128" = 1'-0"
140
0.0078125
141
12.0
290
     0
  0
SCALE
  5
106ABAD
102
{ACAD_REACTORS
330
106AB9A
102
}
330
106AB9A
100
AcDbScale
 70
     0
300
1/64" = 1'-0"
140
0.015625
141
12.0
290
     0
  0
SCALE
  5
106ABAE
102
{ACAD_REACTORS
330
106AB9A
102
}
330
106AB9A
100
AcDbScale
 70
     0
300
1/32" = 1'-0"
140
0.03125
141
12.0
290
     0
  0
SCALE
  5
106ABAF
102
{ACAD_REACTORS
330
106AB9A
102
}
330
106AB9A
100
AcDbScale
 70
     0
300
1/16" = 1'-0"
140
0.0625
141
12.0
290
     0
  0
SCALE
  5
106ABB0
102
{ACAD_REACTORS
330
106AB9A
102
}
330
106AB9A
100
AcDbScale
 70
     0
300
3/32" = 1'-0"
140
0.09375
141
12.0
290
     0
  0
SCALE
  5
106ABB1
102
{ACAD_REACTORS
330
106AB9A
102
}
330
106AB9A
100
AcDbScale
 70
     0
300
1/8" = 1'-0"
140
0.125
141
12.0
290
     0
  0
SCALE
  5
106ABB2
102
{ACAD_REACTORS
330
106AB9A
102
}
330
106AB9A
100
AcDbScale
 70
     0
300
3/16" = 1'-0"
140
0.1875
141
12.0
290
     0
  0
SCALE
  5
106ABB3
102
{ACAD_REACTORS
330
106AB9A
102
}
330
106AB9A
100
AcDbScale
 70
     0
300
1/4" = 1'-0"
140
0.25
141
12.0
290
     0
  0
SCALE
  5
106ABB4
102
{ACAD_REACTORS
330
106AB9A
102
}
330
106AB9A
100
AcDbScale
 70
     0
300
3/8" = 1'-0"
140
0.375
141
12.0
290
     0
  0
SCALE
  5
106ABB5
102
{ACAD_REACTORS
330
106AB9A
102
}
330
106AB9A
100
AcDbScale
 70
     0
300
1/2" = 1'-0"
140
0.5
141
12.0
290
     0
  0
SCALE
  5
106ABB6
102
{ACAD_REACTORS
330
106AB9A
102
}
330
106AB9A
100
AcDbScale
 70
     0
300
3/4" = 1'-0"
140
0.75
141
12.0
290
     0
  0
SCALE
  5
106ABB7
102
{ACAD_REACTORS
330
106AB9A
102
}
330
106AB9A
100
AcDbScale
 70
     0
300
1" = 1'-0"
140
1.0
141
12.0
290
     0
  0
SCALE
  5
106ABB8
102
{ACAD_REACTORS
330
106AB9A
102
}
330
106AB9A
100
AcDbScale
 70
     0
300
1-1/2" = 1'-0"
140
1.5
141
12.0
290
     0
  0
SCALE
  5
106ABB9
102
{ACAD_REACTORS
330
106AB9A
102
}
330
106AB9A
100
AcDbScale
 70
     0
300
3" = 1'-0"
140
3.0
141
12.0
290
     0
  0
SCALE
  5
106ABBA
102
{ACAD_REACTORS
330
106AB9A
102
}
330
106AB9A
100
AcDbScale
 70
     0
300
6" = 1'-0"
140
6.0
141
12.0
290
     0
  0
SCALE
  5
106ABBB
102
{ACAD_REACTORS
330
106AB9A
102
}
330
106AB9A
100
AcDbScale
 70
     0
300
1'-0" = 1'-0"
140
12.0
141
12.0
290
     0
  0
TABLESTYLE
  5
106ABDA
102
{ACAD_REACTORS
330
106ABD9
102
}
330
106ABD9
100
AcDbTableStyle
  3
Standard
 70
     0
 71
     0
 40
0.06
 41
0.06
280
     0
281
     0
  7
Monospac821 BT
140
0.18
170
     2
 62
     0
 63
   257
283
     0
274
    -2
284
     1
 64
     0
275
    -2
285
     1
 65
     0
276
    -2
286
     1
 66
     0
277
    -2
287
     1
 67
     0
278
    -2
288
     1
 68
     0
279
    -2
289
     1
 69
     0
  7
Monospac821 BT
140
0.25
170
     5
 62
     0
 63
   257
283
     0
274
    -2
284
     1
 64
     0
275
    -2
285
     1
 65
     0
276
    -2
286
     1
 66
     0
277
    -2
287
     1
 67
     0
278
    -2
288
     1
 68
     0
279
    -2
289
     1
 69
     0
  7
Monospac821 BT
140
0.18
170
     5
 62
     0
 63
   257
283
     0
274
    -2
284
     1
 64
     0
275
    -2
285
     1
 65
     0
276
    -2
286
     1
 66
     0
277
    -2
287
     1
 67
     0
278
    -2
288
     1
 68
     0
279
    -2
289
     1
 69
     0
  0
VISUALSTYLE
  5
106ABC5
102
{ACAD_REACTORS
330
106ABC0
102
}
102
{ACAD_XDICTIONARY
360
106AD36
102
}
330
106ABC0
100
AcDbVisualStyle
  2
2dWireframe
 70
     4
 71
     0
 72
     2
 73
     0
 90
        0
 40
0.6
 41
30.0
 62
     5
 63
     7
 74
     1
 91
        4
 64
     7
 65
   257
 75
     1
175
     1
 42
1.0
 92
        0
 66
   257
 43
1.0
 76
     1
 77
     6
 78
     2
 67
     7
 79
     5
170
     0
171
     0
290
     0
174
     0
 93
        1
 44
0.0
173
     0
291
     0
 45
0.0
1001
ACAD
1000
AcDbSavedByObjectVersion
1070
     0
  0
VISUALSTYLE
  5
106ABC8
102
{ACAD_REACTORS
330
106ABC0
102
}
102
{ACAD_XDICTIONARY
360
106AD38
102
}
330
106ABC0
100
AcDbVisualStyle
  2
Basic
 70
     7
 71
     1
 72
     0
 73
     1
 90
        0
 40
0.6
 41
30.0
 62
     5
 63
     7
 74
     0
 91
        4
 64
     7
 65
   257
 75
     1
175
     1
 42
1.0
 92
        8
 66
     7
 43
1.0
 76
     1
 77
     6
 78
     2
 67
     7
 79
     5
170
     0
171
     0
290
     0
174
     0
 93
        1
 44
0.0
173
     0
291
     1
 45
0.0
1001
ACAD
1000
AcDbSavedByObjectVersion
1070
     0
  0
VISUALSTYLE
  5
106ABCC
102
{ACAD_REACTORS
330
106ABC0
102
}
102
{ACAD_XDICTIONARY
360
106AD3A
102
}
330
106ABC0
100
AcDbVisualStyle
  2
Brighten
 70
    12
 71
     2
 72
     2
 73
     0
 90
        0
 40
0.6
 41
30.0
 62
     5
 63
     7
 74
     1
 91
        4
 64
     7
 65
   257
 75
     1
175
     1
 42
1.0
 92
        8
 66
     7
 43
1.0
 76
     1
 77
     6
 78
     2
 67
     7
 79
     5
170
     0
171
     0
290
     0
174
     0
 93
        1
 44
50.0
173
     0
291
     1
 45
0.0
1001
ACAD
1000
AcDbSavedByObjectVersion
1070
     0
  0
VISUALSTYLE
  5
106ABD0
102
{ACAD_REACTORS
330
106ABC0
102
}
102
{ACAD_XDICTIONARY
360
106AD3C
102
}
330
106ABC0
100
AcDbVisualStyle
  2
ColorChange
 70
    16
 71
     2
 72
     2
 73
     3
 90
        0
 40
0.6
 41
30.0
 62
     5
 63
     8
 74
     1
 91
        4
 64
     7
 65
   257
 75
     1
175
     1
 42
1.0
 92
        8
 66
     8
 43
1.0
 76
     1
 77
     6
 78
     2
 67
     7
 79
     5
170
     0
171
     0
290
     0
174
     0
 93
        1
 44
0.0
173
     0
291
     1
 45
0.0
1001
ACAD
1000
AcDbSavedByObjectVersion
1070
     0
  0
VISUALSTYLE
  5
106ABCA
102
{ACAD_REACTORS
330
106ABC0
102
}
102
{ACAD_XDICTIONARY
360
106AD3E
102
}
330
106ABC0
100
AcDbVisualStyle
  2
Conceptual
 70
     9
 71
     3
 72
     2
 73
     0
 90
        0
 40
0.6
 41
30.0
 62
     5
 63
     7
 74
     2
 91
        2
 64
     7
 65
   257
 75
     1
175
     1
 42
179.0
 92
        8
 66
     7
 43
1.0
 76
     1
 77
     6
 78
     2
 67
     7
 79
     3
170
     0
171
     0
290
     0
174
     0
 93
        1
 44
0.0
173
     0
291
     0
 45
0.0
1001
ACAD
1000
AcDbSavedByObjectVersion
1070
     0
  0
VISUALSTYLE
  5
106ABCB
102
{ACAD_REACTORS
330
106ABC0
102
}
102
{ACAD_XDICTIONARY
360
106AD40
102
}
330
106ABC0
100
AcDbVisualStyle
  2
Dim
 70
    11
 71
     2
 72
     2
 73
     0
 90
        0
 40
0.6
 41
30.0
 62
     5
 63
     7
 74
     1
 91
        4
 64
     7
 65
   257
 75
     1
175
     1
 42
1.0
 92
        8
 66
     7
 43
1.0
 76
     1
 77
     6
 78
     2
 67
     7
 79
     5
170
     0
171
     0
290
     0
174
     0
 93
        1
 44
-50.0
173
     0
291
     1
 45
0.0
1001
ACAD
1000
AcDbSavedByObjectVersion
1070
     0
  0
VISUALSTYLE
  5
106ABD3
102
{ACAD_REACTORS
330
106ABC0
102
}
102
{ACAD_XDICTIONARY
360
106AD42
102
}
330
106ABC0
100
AcDbVisualStyle
  2
EdgeColorOff
 70
    22
 71
     2
 72
     2
 73
     0
 90
        0
 40
0.6
 41
30.0
 62
     5
 63
     7
 74
     1
 91
        4
 64
     7
 65
   257
 75
     1
175
     1
 42
1.0
 92
        8
 66
     7
 43
1.0
 76
     1
 77
     6
 78
     2
 67
     7
 79
     5
170
     0
171
     0
290
     0
174
     0
 93
        1
 44
0.0
173
     0
291
     1
 45
0.0
1001
ACAD
1000
AcDbSavedByObjectVersion
1070
     0
  0
VISUALSTYLE
  5
106ABCF
102
{ACAD_REACTORS
330
106ABC0
102
}
102
{ACAD_XDICTIONARY
360
106AD44
102
}
330
106ABC0
100
AcDbVisualStyle
  2
Facepattern
 70
    15
 71
     2
 72
     2
 73
     0
 90
        0
 40
0.6
 41
30.0
 62
     5
 63
     7
 74
     1
 91
        4
 64
     7
 65
   257
 75
     1
175
     1
 42
1.0
 92
        8
 66
     7
 43
1.0
 76
     1
 77
     6
 78
     2
 67
     7
 79
     5
170
     0
171
     0
290
     0
174
     0
 93
        1
 44
0.0
173
     0
291
     1
 45
0.0
1001
ACAD
1000
AcDbSavedByObjectVersion
1070
     0
  0
VISUALSTYLE
  5
106ABC1
102
{ACAD_REACTORS
330
106ABC0
102
}
102
{ACAD_XDICTIONARY
360
106AD46
102
}
330
106ABC0
100
AcDbVisualStyle
  2
Flat
 70
     0
 71
     2
 72
     1
 73
     1
 90
        2
 40
0.6
 41
30.0
 62
     5
 63
     7
 74
     0
 91
        0
 64
     7
 65
   257
 75
     1
175
     1
 42
1.0
 92
        8
 66
     7
 43
1.0
 76
     1
 77
     6
 78
     2
 67
     7
 79
     5
170
     0
171
     0
290
     0
174
     0
 93
       13
 44
0.0
173
     0
291
     1
 45
0.0
1001
ACAD
1000
AcDbSavedByObjectVersion
1070
     0
  0
VISUALSTYLE
  5
106ABC2
102
{ACAD_REACTORS
330
106ABC0
102
}
102
{ACAD_XDICTIONARY
360
106AD48
102
}
330
106ABC0
100
AcDbVisualStyle
  2
FlatWithEdges
 70
     1
 71
     2
 72
     1
 73
     1
 90
        2
 40
0.6
 41
30.0
 62
     5
 63
     7
 74
     1
 91
        0
 64
     7
 65
   257
 75
     1
175
     1
 42
1.0
 92
        0
 66
   257
 43
1.0
 76
     1
 77
     6
 78
     2
 67
     7
 79
     5
170
     0
171
     0
290
     0
174
     0
 93
       13
 44
0.0
173
     0
291
     1
 45
0.0
1001
ACAD
1000
AcDbSavedByObjectVersion
1070
     0
  0
VISUALSTYLE
  5
106ABC3
102
{ACAD_REACTORS
330
106ABC0
102
}
102
{ACAD_XDICTIONARY
360
106AD4A
102
}
330
106ABC0
100
AcDbVisualStyle
  2
Gouraud
 70
     2
 71
     2
 72
     2
 73
     1
 90
        2
 40
0.6
 41
30.0
 62
     5
 63
     7
 74
     0
 91
        0
 64
     7
 65
   257
 75
     1
175
     1
 42
1.0
 92
        0
 66
     7
 43
1.0
 76
     1
 77
     6
 78
     2
 67
     7
 79
     5
170
     0
171
     0
290
     0
174
     0
 93
       13
 44
0.0
173
     0
291
     1
 45
0.0
1001
ACAD
1000
AcDbSavedByObjectVersion
1070
     0
  0
VISUALSTYLE
  5
106ABC4
102
{ACAD_REACTORS
330
106ABC0
102
}
102
{ACAD_XDICTIONARY
360
106AD4C
102
}
330
106ABC0
100
AcDbVisualStyle
  2
GouraudWithEdges
 70
     3
 71
     2
 72
     2
 73
     1
 90
        2
 40
0.6
 41
30.0
 62
     5
 63
     7
 74
     1
 91
        0
 64
     7
 65
   257
 75
     1
175
     1
 42
1.0
 92
        0
 66
   257
 43
1.0
 76
     1
 77
     6
 78
     2
 67
     7
 79
     5
170
     0
171
     0
290
     0
174
     0
 93
       13
 44
0.0
173
     0
291
     1
 45
0.0
1001
ACAD
1000
AcDbSavedByObjectVersion
1070
     0
  0
VISUALSTYLE
  5
106ABC7
102
{ACAD_REACTORS
330
106ABC0
102
}
102
{ACAD_XDICTIONARY
360
106AD4E
102
}
330
106ABC0
100
AcDbVisualStyle
  2
Hidden
 70
     6
 71
     1
 72
     2
 73
     2
 90
        0
 40
0.6
 41
30.0
 62
     5
 63
     7
 74
     2
 91
        2
 64
     7
 65
   257
 75
     2
175
     1
 42
40.0
 92
        0
 66
   257
 43
1.0
 76
     1
 77
     6
 78
     2
 67
     7
 79
     3
170
     0
171
     0
290
     0
174
     0
 93
        1
 44
0.0
173
     0
291
     0
 45
0.0
1001
ACAD
1000
AcDbSavedByObjectVersion
1070
     0
  0
VISUALSTYLE
  5
106ABD1
102
{ACAD_REACTORS
330
106ABC0
102
}
102
{ACAD_XDICTIONARY
360
106AD50
102
}
330
106ABC0
100
AcDbVisualStyle
  2
JitterOff
 70
    20
 71
     2
 72
     2
 73
     0
 90
        0
 40
0.6
 41
30.0
 62
     5
 63
     7
 74
     1
 91
        4
 64
     7
 65
   257
 75
     1
175
     1
 42
1.0
 92
       10
 66
     7
 43
1.0
 76
     1
 77
     6
 78
     2
 67
     7
 79
     5
170
     0
171
     0
290
     0
174
     0
 93
        1
 44
0.0
173
     0
291
     1
 45
0.0
1001
ACAD
1000
AcDbSavedByObjectVersion
1070
     0
  0
VISUALSTYLE
  5
106ABCE
102
{ACAD_REACTORS
330
106ABC0
102
}
102
{ACAD_XDICTIONARY
360
106AD52
102
}
330
106ABC0
100
AcDbVisualStyle
  2
Linepattern
 70
    14
 71
     2
 72
     2
 73
     0
 90
        0
 40
0.6
 41
30.0
 62
     5
 63
     7
 74
     1
 91
        4
 64
     7
 65
   257
 75
     7
175
     7
 42
1.0
 92
        8
 66
     7
 43
1.0
 76
     1
 77
     6
 78
     2
 67
     7
 79
     5
170
     0
171
     0
290
     0
174
     0
 93
        1
 44
0.0
173
     0
291
     1
 45
0.0
1001
ACAD
1000
AcDbSavedByObjectVersion
1070
     0
  0
VISUALSTYLE
  5
106ABD2
102
{ACAD_REACTORS
330
106ABC0
102
}
102
{ACAD_XDICTIONARY
360
106AD54
102
}
330
106ABC0
100
AcDbVisualStyle
  2
OverhangOff
 70
    21
 71
     2
 72
     2
 73
     0
 90
        0
 40
0.6
 41
30.0
 62
     5
 63
     7
 74
     1
 91
        4
 64
     7
 65
   257
 75
     1
175
     1
 42
1.0
 92
        9
 66
     7
 43
1.0
 76
     1
 77
     6
 78
     2
 67
     7
 79
     5
170
     0
171
     0
290
     0
174
     0
 93
        1
 44
0.0
173
     0
291
     1
 45
0.0
1001
ACAD
1000
AcDbSavedByObjectVersion
1070
     0
  0
VISUALSTYLE
  5
106ABC9
102
{ACAD_REACTORS
330
106ABC0
102
}
102
{ACAD_XDICTIONARY
360
106AD56
102
}
330
106ABC0
100
AcDbVisualStyle
  2
Realistic
 70
     8
 71
     2
 72
     3
 73
     0
 90
        2
 40
0.6
 41
30.0
 62
     5
 63
     7
 74
     0
 91
        0
 64
     7
 65
   257
 75
     1
175
     1
 42
1.0
 92
        8
 66
   257
 43
1.0
 76
     1
 77
     6
 78
     2
 67
     7
 79
     3
170
     0
171
     0
290
     0
174
     0
 93
       13
 44
0.0
173
     0
291
     0
 45
0.0
1001
ACAD
1000
AcDbSavedByObjectVersion
1070
     0
  0
VISUALSTYLE
  5
106ABD8
102
{ACAD_REACTORS
330
106ABC0
102
}
102
{ACAD_XDICTIONARY
360
106AD58
102
}
330
106ABC0
100
AcDbVisualStyle
  2
Shaded
 70
    27
 71
     2
 72
     2
 73
     1
 90
        2
 40
0.6
 41
30.0
 62
     5
 63
     7
 74
     0
 91
        4
 64
     7
 65
   257
 75
     1
175
     1
 42
1.0
 92
        8
 66
   257
 43
1.0
 76
     1
 77
     6
 78
     2
 67
     8
 79
     3
170
     0
171
     0
290
     0
174
     0
 93
        5
 44
0.0
173
     0
291
     0
 45
0.0
1001
ACAD
1000
AcDbSavedByObjectVersion
1070
     0
  0
VISUALSTYLE
  5
106ABD7
102
{ACAD_REACTORS
330
106ABC0
102
}
102
{ACAD_XDICTIONARY
360
106AD5A
102
}
330
106ABC0
100
AcDbVisualStyle
  2
Shaded with edges
 70
    26
 71
     2
 72
     2
 73
     1
 90
        2
 40
0.6
 41
30.0
 62
     5
 63
     7
 74
     1
 91
       10
 64
     7
 65
   257
 75
     2
175
     1
 42
1.0
 92
        8
 66
   257
 43
1.0
 76
     1
 77
     6
 78
     2
 67
     7
 79
     3
170
     0
171
     0
290
     0
174
     0
 93
        5
 44
0.0
173
     0
291
     0
 45
0.0
1001
ACAD
1000
AcDbSavedByObjectVersion
1070
     0
  0
VISUALSTYLE
  5
106ABD4
102
{ACAD_REACTORS
330
106ABC0
102
}
102
{ACAD_XDICTIONARY
360
106AD5C
102
}
330
106ABC0
100
AcDbVisualStyle
  2
Shades of Gray
 70
    23
 71
     2
 72
     2
 73
     3
 90
        0
 40
0.6
 41
30.0
 62
     5
 63
     7
 74
     2
 91
        2
 64
     7
 65
     7
 75
     1
175
     1
 42
40.0
 92
        8
 66
     7
 43
1.0
 76
     1
 77
     6
 78
     2
 67
     7
 79
     3
170
     0
171
     0
290
     0
174
     0
 93
        1
 44
0.0
173
     0
291
     0
 45
0.0
1001
ACAD
1000
AcDbSavedByObjectVersion
1070
     0
  0
VISUALSTYLE
  5
106ABD5
102
{ACAD_REACTORS
330
106ABC0
102
}
102
{ACAD_XDICTIONARY
360
106AD5E
102
}
330
106ABC0
100
AcDbVisualStyle
  2
Sketchy
 70
    24
 71
     1
 72
     2
 73
     2
 90
        0
 40
0.6
 41
30.0
 62
     5
 63
     7
 74
     2
 91
        2
 64
     7
 65
     7
 75
     1
175
     1
 42
40.0
 92
       11
 66
     7
 43
1.0
 76
     1
 77
     6
 78
     2
 67
     7
 79
     6
170
     0
171
     0
290
     0
174
     0
 93
        1
 44
0.0
173
     0
291
     0
 45
0.0
1001
ACAD
1000
AcDbSavedByObjectVersion
1070
     0
  0
VISUALSTYLE
  5
106ABCD
102
{ACAD_REACTORS
330
106ABC0
102
}
102
{ACAD_XDICTIONARY
360
106AD60
102
}
330
106ABC0
100
AcDbVisualStyle
  2
Thicken
 70
    13
 71
     2
 72
     2
 73
     0
 90
        0
 40
0.6
 41
30.0
 62
     5
 63
     7
 74
     1
 91
        4
 64
     7
 65
   257
 75
     1
175
     1
 42
1.0
 92
       12
 66
     7
 43
1.0
 76
     1
 77
     6
 78
     2
 67
     7
 79
     5
170
     0
171
     0
290
     0
174
     0
 93
        1
 44
0.0
173
     0
291
     1
 45
0.0
1001
ACAD
1000
AcDbSavedByObjectVersion
1070
     0
  0
VISUALSTYLE
  5
106ABC6
102
{ACAD_REACTORS
330
106ABC0
102
}
102
{ACAD_XDICTIONARY
360
106AD62
102
}
330
106ABC0
100
AcDbVisualStyle
  2
Wireframe
 70
     5
 71
     0
 72
     2
 73
     0
 90
        0
 40
0.6
 41
30.0
 62
     5
 63
     7
 74
     1
 91
        4
 64
     7
 65
   257
 75
     1
175
     1
 42
1.0
 92
        0
 66
   257
 43
1.0
 76
     1
 77
     6
 78
     2
 67
     7
 79
     3
170
     0
171
     0
290
     0
174
     0
 93
        1
 44
0.0
173
     0
291
     0
 45
0.0
1001
ACAD
1000
AcDbSavedByObjectVersion
1070
     0
  0
VISUALSTYLE
  5
106ABD6
102
{ACAD_REACTORS
330
106ABC0
102
}
102
{ACAD_XDICTIONARY
360
106AD64
102
}
330
106ABC0
100
AcDbVisualStyle
  2
X-Ray
 70
    25
 71
     2
 72
     2
 73
     1
 90
        1
 40
0.5
 41
30.0
 62
     5
 63
     7
 74
     1
 91
        0
 64
     7
 65
   257
 75
     1
175
     1
 42
1.0
 92
        8
 66
     7
 43
1.0
 76
     1
 77
     6
 78
     2
 67
     7
 79
     3
170
     0
171
     0
290
     0
174
     0
 93
       13
 44
0.0
173
     0
291
     0
 45
0.0
1001
ACAD
1000
AcDbSavedByObjectVersion
1070
     0
  0
DICTIONARYVAR
  5
106AD2D
102
{ACAD_REACTORS
330
106ACA1
102
}
330
106ACA1
100
DictionaryVariables
280
     0
  1
1:1
  0
DICTIONARYVAR
  5
106ACA3
102
{ACAD_REACTORS
330
106ACA1
102
}
330
106ACA1
100
DictionaryVariables
280
     0
  1
Standard
  0
DICTIONARYVAR
  5
106ACA2
102
{ACAD_REACTORS
330
106ACA1
102
}
330
106ACA1
100
DictionaryVariables
280
     0
  1
Standard
  0
DICTIONARYVAR
  5
106ACA6
102
{ACAD_REACTORS
330
106ACA1
102
}
330
106ACA1
100
DictionaryVariables
280
     0
  1
2
  0
DICTIONARYVAR
  5
106ACA7
102
{ACAD_REACTORS
330
106ACA1
102
}
330
106ACA1
100
DictionaryVariables
280
     0
  1
1
  0
DICTIONARYVAR
  5
106ACAE
102
{ACAD_REACTORS
330
106ACA1
102
}
330
106ACA1
100
DictionaryVariables
280
     0
  1
1
  0
DICTIONARY
  5
106AD2E
330
106ABBE
100
AcDbDictionary
280
     1
281
     1
  3
ACAD_XREC_ROUNDTRIP
360
106AD2F
  0
DICTIONARY
  5
106AD30
330
106ABBD
100
AcDbDictionary
280
     1
281
     1
  3
ACAD_XREC_ROUNDTRIP
360
106AD31
  0
DICTIONARY
  5
106AD32
330
106ABBF
100
AcDbDictionary
280
     1
281
     1
  3
ACAD_XREC_ROUNDTRIP
360
106AD33
  0
DICTIONARY
  5
106AD34
330
106ABDC
100
AcDbDictionary
280
     1
281
     1
  3
ACAD_XREC_ROUNDTRIP
360
106AD35
  0
DICTIONARY
  5
106AD36
330
106ABC5
100
AcDbDictionary
280
     1
281
     1
  3
ACAD_XREC_ROUNDTRIP
360
106AD37
  0
DICTIONARY
  5
106AD38
330
106ABC8
100
AcDbDictionary
280
     1
281
     1
  3
ACAD_XREC_ROUNDTRIP
360
106AD39
  0
DICTIONARY
  5
106AD3A
330
106ABCC
100
AcDbDictionary
280
     1
281
     1
  3
ACAD_XREC_ROUNDTRIP
360
106AD3B
  0
DICTIONARY
  5
106AD3C
330
106ABD0
100
AcDbDictionary
280
     1
281
     1
  3
ACAD_XREC_ROUNDTRIP
360
106AD3D
  0
DICTIONARY
  5
106AD3E
330
106ABCA
100
AcDbDictionary
280
     1
281
     1
  3
ACAD_XREC_ROUNDTRIP
360
106AD3F
  0
DICTIONARY
  5
106AD40
330
106ABCB
100
AcDbDictionary
280
     1
281
     1
  3
ACAD_XREC_ROUNDTRIP
360
106AD41
  0
DICTIONARY
  5
106AD42
330
106ABD3
100
AcDbDictionary
280
     1
281
     1
  3
ACAD_XREC_ROUNDTRIP
360
106AD43
  0
DICTIONARY
  5
106AD44
330
106ABCF
100
AcDbDictionary
280
     1
281
     1
  3
ACAD_XREC_ROUNDTRIP
360
106AD45
  0
DICTIONARY
  5
106AD46
330
106ABC1
100
AcDbDictionary
280
     1
281
     1
  3
ACAD_XREC_ROUNDTRIP
360
106AD47
  0
DICTIONARY
  5
106AD48
330
106ABC2
100
AcDbDictionary
280
     1
281
     1
  3
ACAD_XREC_ROUNDTRIP
360
106AD49
  0
DICTIONARY
  5
106AD4A
330
106ABC3
100
AcDbDictionary
280
     1
281
     1
  3
ACAD_XREC_ROUNDTRIP
360
106AD4B
  0
DICTIONARY
  5
106AD4C
330
106ABC4
100
AcDbDictionary
280
     1
281
     1
  3
ACAD_XREC_ROUNDTRIP
360
106AD4D
  0
DICTIONARY
  5
106AD4E
330
106ABC7
100
AcDbDictionary
280
     1
281
     1
  3
ACAD_XREC_ROUNDTRIP
360
106AD4F
  0
DICTIONARY
  5
106AD50
330
106ABD1
100
AcDbDictionary
280
     1
281
     1
  3
ACAD_XREC_ROUNDTRIP
360
106AD51
  0
DICTIONARY
  5
106AD52
330
106ABCE
100
AcDbDictionary
280
     1
281
     1
  3
ACAD_XREC_ROUNDTRIP
360
106AD53
  0
DICTIONARY
  5
106AD54
330
106ABD2
100
AcDbDictionary
280
     1
281
     1
  3
ACAD_XREC_ROUNDTRIP
360
106AD55
  0
DICTIONARY
  5
106AD56
330
106ABC9
100
AcDbDictionary
280
     1
281
     1
  3
ACAD_XREC_ROUNDTRIP
360
106AD57
  0
DICTIONARY
  5
106AD58
330
106ABD8
100
AcDbDictionary
280
     1
281
     1
  3
ACAD_XREC_ROUNDTRIP
360
106AD59
  0
DICTIONARY
  5
106AD5A
330
106ABD7
100
AcDbDictionary
280
     1
281
     1
  3
ACAD_XREC_ROUNDTRIP
360
106AD5B
  0
DICTIONARY
  5
106AD5C
330
106ABD4
100
AcDbDictionary
280
     1
281
     1
  3
ACAD_XREC_ROUNDTRIP
360
106AD5D
  0
DICTIONARY
  5
106AD5E
330
106ABD5
100
AcDbDictionary
280
     1
281
     1
  3
ACAD_XREC_ROUNDTRIP
360
106AD5F
  0
DICTIONARY
  5
106AD60
330
106ABCD
100
AcDbDictionary
280
     1
281
     1
  3
ACAD_XREC_ROUNDTRIP
360
106AD61
  0
DICTIONARY
  5
106AD62
330
106ABC6
100
AcDbDictionary
280
     1
281
     1
  3
ACAD_XREC_ROUNDTRIP
360
106AD63
  0
DICTIONARY
  5
106AD64
330
106ABD6
100
AcDbDictionary
280
     1
281
     1
  3
ACAD_XREC_ROUNDTRIP
360
106AD65
  0
XRECORD
  5
106AD2F
102
{ACAD_REACTORS
330
106AD2E
102
}
330
106AD2E
100
AcDbXrecord
280
     1
102
MATERIAL
148
0.0
149
0.0
149
0.0
 93
        0
 94
      127
282
     0
 72
     1
 77
     1
171
     1
175
     1
179
     1
273
     0
  0
XRECORD
  5
106AD31
102
{ACAD_REACTORS
330
106AD30
102
}
330
106AD30
100
AcDbXrecord
280
     1
102
MATERIAL
148
0.0
149
0.0
149
0.0
 93
        0
 94
      127
282
     0
 72
     1
 77
     1
171
     1
175
     1
179
     1
273
     0
  0
XRECORD
  5
106AD33
102
{ACAD_REACTORS
330
106AD32
102
}
330
106AD32
100
AcDbXrecord
280
     1
102
MATERIAL
148
0.0
149
0.0
149
0.0
 93
        0
 94
      127
282
     0
 72
     1
 77
     1
171
     1
175
     1
179
     1
273
     0
  0
XRECORD
  5
106AD35
102
{ACAD_REACTORS
330
106AD34
102
}
330
106AD34
100
AcDbXrecord
280
     1
102
ACAD_ROUNDTRIP_2010_MLEADER_STYLE
  0
XRECORD
  5
106AD37
102
{ACAD_REACTORS
330
106AD36
102
}
330
106AD36
100
AcDbXrecord
280
     1
102
RTVSPropertyOp0
 70
     1
102
RTVSPropertyOp1
 70
     1
102
RTVSPropertyOp2
 70
     1
102
RTVSPropertyOp3
 70
     1
102
RTVSPropertyOp4
 70
     1
102
RTVSPropertyOp5
 70
     1
102
RTVSPropertyOp6
 70
     1
102
RTVSPropertyOp7
 70
     1
102
RTVSPropertyOp8
 70
     1
102
RTVSPropertyOp9
 70
     1
102
RTVSPropertyOp10
 70
     1
102
RTVSPropertyOp11
 70
     1
102
RTVSPropertyOp12
 70
     1
102
RTVSPropertyOp13
 70
     1
102
RTVSPropertyOp14
 70
     1
102
RTVSPropertyOp15
 70
     1
102
RTVSPropertyOp16
 70
     1
102
RTVSPropertyOp17
 70
     1
102
RTVSPropertyOp18
 70
     1
102
RTVSPropertyOp19
 70
     1
102
RTVSPropertyOp20
 70
     1
102
RTVSPropertyOp21
 70
     1
102
RTVSPropertyOp22
 70
     1
102
RTVSPropertyOp23
 70
     1
102
RTVSPropertyOp24
 70
     1
102
RTVSPropertyOp25
 70
     1
102
RTVSPropertyOp26
 70
     1
102
RTVSPropertyOp27
 70
     1
102
RTVSPropertyOp28
 70
     1
102
RTVSPropertyOp29
 70
     1
102
RTVSPropertyOp30
 70
     1
102
RTVSPropertyOp31
 70
     1
102
RTVSPropertyOp32
 70
     1
102
RTVSPropertyOp33
 70
     1
102
RTVSPropertyOp34
 70
     1
102
RTVSPropertyOp35
 70
     1
102
RTVSPropertyOp36
 70
     1
102
RTVSPropertyOp37
 70
     1
102
RTVSPropertyOp38
 70
     1
102
RTVSPropertyOp39
 70
     1
102
RTVSPropertyOp40
 70
     1
102
RTVSPropertyOp41
 70
     1
102
RTVSPropertyOp42
 70
     1
102
RTVSPropertyOp43
 70
     1
102
RTVSPropertyOp44
 70
     1
102
RTVSPropertyOp45
 70
     1
102
RTVSPropertyOp46
 70
     1
102
RTVSPropertyOp47
 70
     1
102
RTVSPropertyOp48
 70
     1
102
RTVSPropertyOp49
 70
     1
102
RTVSPropertyOp50
 70
     1
102
RTVSPropertyOp51
 70
     0
102
RTVSPropertyOp52
 70
     0
102
RTVSPropertyOp53
 70
     1
102
RTVSPropertyOp54
 70
     1
102
RTVSPropertyOp55
 70
     1
102
RTVSPropertyOp56
 70
     1
102
RTVSPropertyOp57
 70
     1
102
RTVSPost2010Prop28
280
     1
102
RTVSPost2010PropOp28
 70
     1
102
RTVSPost2010Prop29
280
     1
102
RTVSPost2010PropOp29
 70
     1
102
RTVSPost2010Prop30
280
     0
102
RTVSPost2010PropOp30
 70
     1
102
RTVSPost2010Prop31
280
     0
102
RTVSPost2010PropOp31
 70
     1
102
RTVSPost2010Prop32
280
     0
102
RTVSPost2010PropOp32
 70
     1
102
RTVSPost2010Prop33
280
     0
102
RTVSPost2010PropOp33
 70
     1
102
RTVSPost2010Prop34
280
     0
102
RTVSPost2010PropOp34
 70
     1
102
RTVSPost2010Prop35
280
     0
102
RTVSPost2010PropOp35
 70
     1
102
RTVSPost2010Prop36
280
     0
102
RTVSPost2010PropOp36
 70
     1
102
RTVSPost2010Prop37
 90
       50
102
RTVSPost2010PropOp37
 70
     1
102
RTVSPost2010Prop38
140
0.0
102
RTVSPost2010PropOp38
 70
     1
102
RTVSPost2010Prop39
140
1.0
102
RTVSPost2010PropOp39
 70
     1
102
RTVSPost2010Prop40
 90
        0
102
RTVSPost2010PropOp40
 70
     1
102
RTVSPost2010Prop41ColorIndex
 90
       18
102
RTVSPost2010Prop41ColorRGB
 90
        0
102
RTVSPost2010PropOp41
 70
     1
102
RTVSPost2010Prop42
 90
       50
102
RTVSPost2010PropOp42
 70
     1
102
RTVSPost2010Prop43
 90
        3
102
RTVSPost2010PropOp43
 70
     1
102
RTVSPost2010Prop44ColorIndex
 90
        5
102
RTVSPost2010Prop44ColorRGB
 90
      255
102
RTVSPost2010PropOp44
 70
     1
102
RTVSPost2010Prop45
280
     0
102
RTVSPost2010PropOp45
 70
     1
102
RTVSPost2010Prop46
 90
       50
102
RTVSPost2010PropOp46
 70
     1
102
RTVSPost2010Prop47
 90
       50
102
RTVSPost2010PropOp47
 70
     1
102
RTVSPost2010Prop48
 90
       50
102
RTVSPost2010PropOp48
 70
     1
102
RTVSPost2010Prop49
280
     0
102
RTVSPost2010PropOp49
 70
     1
102
RTVSPost2010Prop50
 90
       50
102
RTVSPost2010PropOp50
 70
     1
102
RTVSPost2010Prop51ColorIndex
 90
      256
102
RTVSPost2010Prop51ColorRGB
 90
-16777216
102
RTVSPost2010PropOp51
 70
     0
102
RTVSPost2010Prop52
140
1.0
102
RTVSPost2010PropOp52
 70
     0
102
RTVSPost2010Prop53
 90
        2
102
RTVSPost2010PropOp53
 70
     1
102
RTVSPost2010Prop54
  1
strokes_ogs.tif
102
RTVSPost2010PropOp54
 70
     1
102
RTVSPost2010Prop55
280
     0
102
RTVSPost2010PropOp55
 70
     1
102
RTVSPost2010Prop56
140
1.0
102
RTVSPost2010PropOp56
 70
     1
102
RTVSPost2010Prop57
140
1.0
102
RTVSPost2010PropOp57
 70
     1
  0
XRECORD
  5
106AD39
102
{ACAD_REACTORS
330
106AD38
102
}
330
106AD38
100
AcDbXrecord
280
     1
102
RTVSPropertyOp0
 70
     1
102
RTVSPropertyOp1
 70
     1
102
RTVSPropertyOp2
 70
     1
102
RTVSPropertyOp3
 70
     1
102
RTVSPropertyOp4
 70
     1
102
RTVSPropertyOp5
 70
     1
102
RTVSPropertyOp6
 70
     1
102
RTVSPropertyOp7
 70
     1
102
RTVSPropertyOp8
 70
     1
102
RTVSPropertyOp9
 70
     1
102
RTVSPropertyOp10
 70
     1
102
RTVSPropertyOp11
 70
     1
102
RTVSPropertyOp12
 70
     1
102
RTVSPropertyOp13
 70
     1
102
RTVSPropertyOp14
 70
     1
102
RTVSPropertyOp15
 70
     1
102
RTVSPropertyOp16
 70
     1
102
RTVSPropertyOp17
 70
     1
102
RTVSPropertyOp18
 70
     1
102
RTVSPropertyOp19
 70
     1
102
RTVSPropertyOp20
 70
     1
102
RTVSPropertyOp21
 70
     1
102
RTVSPropertyOp22
 70
     1
102
RTVSPropertyOp23
 70
     1
102
RTVSPropertyOp24
 70
     1
102
RTVSPropertyOp25
 70
     1
102
RTVSPropertyOp26
 70
     1
102
RTVSPropertyOp27
 70
     1
102
RTVSPropertyOp28
 70
     1
102
RTVSPropertyOp29
 70
     1
102
RTVSPropertyOp30
 70
     1
102
RTVSPropertyOp31
 70
     1
102
RTVSPropertyOp32
 70
     1
102
RTVSPropertyOp33
 70
     1
102
RTVSPropertyOp34
 70
     1
102
RTVSPropertyOp35
 70
     1
102
RTVSPropertyOp36
 70
     1
102
RTVSPropertyOp37
 70
     1
102
RTVSPropertyOp38
 70
     1
102
RTVSPropertyOp39
 70
     1
102
RTVSPropertyOp40
 70
     1
102
RTVSPropertyOp41
 70
     1
102
RTVSPropertyOp42
 70
     1
102
RTVSPropertyOp43
 70
     1
102
RTVSPropertyOp44
 70
     1
102
RTVSPropertyOp45
 70
     1
102
RTVSPropertyOp46
 70
     1
102
RTVSPropertyOp47
 70
     1
102
RTVSPropertyOp48
 70
     1
102
RTVSPropertyOp49
 70
     1
102
RTVSPropertyOp50
 70
     1
102
RTVSPropertyOp51
 70
     0
102
RTVSPropertyOp52
 70
     0
102
RTVSPropertyOp53
 70
     1
102
RTVSPropertyOp54
 70
     1
102
RTVSPropertyOp55
 70
     1
102
RTVSPropertyOp56
 70
     1
102
RTVSPropertyOp57
 70
     1
102
RTVSPost2010Prop28
280
     0
102
RTVSPost2010PropOp28
 70
     1
102
RTVSPost2010Prop29
280
     1
102
RTVSPost2010PropOp29
 70
     1
102
RTVSPost2010Prop30
280
     1
102
RTVSPost2010PropOp30
 70
     1
102
RTVSPost2010Prop31
280
     0
102
RTVSPost2010PropOp31
 70
     1
102
RTVSPost2010Prop32
280
     0
102
RTVSPost2010PropOp32
 70
     1
102
RTVSPost2010Prop33
280
     0
102
RTVSPost2010PropOp33
 70
     1
102
RTVSPost2010Prop34
280
     0
102
RTVSPost2010PropOp34
 70
     1
102
RTVSPost2010Prop35
280
     0
102
RTVSPost2010PropOp35
 70
     1
102
RTVSPost2010Prop36
280
     0
102
RTVSPost2010PropOp36
 70
     1
102
RTVSPost2010Prop37
 90
       50
102
RTVSPost2010PropOp37
 70
     1
102
RTVSPost2010Prop38
140
0.0
102
RTVSPost2010PropOp38
 70
     1
102
RTVSPost2010Prop39
140
1.0
102
RTVSPost2010PropOp39
 70
     1
102
RTVSPost2010Prop40
 90
        0
102
RTVSPost2010PropOp40
 70
     1
102
RTVSPost2010Prop41ColorIndex
 90
       18
102
RTVSPost2010Prop41ColorRGB
 90
        0
102
RTVSPost2010PropOp41
 70
     1
102
RTVSPost2010Prop42
 90
       50
102
RTVSPost2010PropOp42
 70
     1
102
RTVSPost2010Prop43
 90
        3
102
RTVSPost2010PropOp43
 70
     1
102
RTVSPost2010Prop44ColorIndex
 90
        5
102
RTVSPost2010Prop44ColorRGB
 90
      255
102
RTVSPost2010PropOp44
 70
     1
102
RTVSPost2010Prop45
280
     0
102
RTVSPost2010PropOp45
 70
     1
102
RTVSPost2010Prop46
 90
       50
102
RTVSPost2010PropOp46
 70
     1
102
RTVSPost2010Prop47
 90
       50
102
RTVSPost2010PropOp47
 70
     1
102
RTVSPost2010Prop48
 90
       50
102
RTVSPost2010PropOp48
 70
     1
102
RTVSPost2010Prop49
280
     0
102
RTVSPost2010PropOp49
 70
     1
102
RTVSPost2010Prop50
 90
       50
102
RTVSPost2010PropOp50
 70
     1
102
RTVSPost2010Prop51ColorIndex
 90
      256
102
RTVSPost2010Prop51ColorRGB
 90
-16777216
102
RTVSPost2010PropOp51
 70
     0
102
RTVSPost2010Prop52
140
1.0
102
RTVSPost2010PropOp52
 70
     0
102
RTVSPost2010Prop53
 90
        2
102
RTVSPost2010PropOp53
 70
     1
102
RTVSPost2010Prop54
  1
strokes_ogs.tif
102
RTVSPost2010PropOp54
 70
     1
102
RTVSPost2010Prop55
280
     0
102
RTVSPost2010PropOp55
 70
     1
102
RTVSPost2010Prop56
140
1.0
102
RTVSPost2010PropOp56
 70
     1
102
RTVSPost2010Prop57
140
1.0
102
RTVSPost2010PropOp57
 70
     1
  0
XRECORD
  5
106AD3B
102
{ACAD_REACTORS
330
106AD3A
102
}
330
106AD3A
100
AcDbXrecord
280
     1
102
RTVSPropertyOp0
 70
     1
102
RTVSPropertyOp1
 70
     1
102
RTVSPropertyOp2
 70
     1
102
RTVSPropertyOp3
 70
     1
102
RTVSPropertyOp4
 70
     1
102
RTVSPropertyOp5
 70
     1
102
RTVSPropertyOp6
 70
     1
102
RTVSPropertyOp7
 70
     1
102
RTVSPropertyOp8
 70
     1
102
RTVSPropertyOp9
 70
     1
102
RTVSPropertyOp10
 70
     1
102
RTVSPropertyOp11
 70
     1
102
RTVSPropertyOp12
 70
     1
102
RTVSPropertyOp13
 70
     1
102
RTVSPropertyOp14
 70
     1
102
RTVSPropertyOp15
 70
     1
102
RTVSPropertyOp16
 70
     1
102
RTVSPropertyOp17
 70
     1
102
RTVSPropertyOp18
 70
     1
102
RTVSPropertyOp19
 70
     1
102
RTVSPropertyOp20
 70
     1
102
RTVSPropertyOp21
 70
     1
102
RTVSPropertyOp22
 70
     1
102
RTVSPropertyOp23
 70
     1
102
RTVSPropertyOp24
 70
     1
102
RTVSPropertyOp25
 70
     1
102
RTVSPropertyOp26
 70
     1
102
RTVSPropertyOp27
 70
     1
102
RTVSPropertyOp28
 70
     1
102
RTVSPropertyOp29
 70
     1
102
RTVSPropertyOp30
 70
     1
102
RTVSPropertyOp31
 70
     1
102
RTVSPropertyOp32
 70
     1
102
RTVSPropertyOp33
 70
     1
102
RTVSPropertyOp34
 70
     1
102
RTVSPropertyOp35
 70
     1
102
RTVSPropertyOp36
 70
     1
102
RTVSPropertyOp37
 70
     1
102
RTVSPropertyOp38
 70
     1
102
RTVSPropertyOp39
 70
     1
102
RTVSPropertyOp40
 70
     1
102
RTVSPropertyOp41
 70
     1
102
RTVSPropertyOp42
 70
     1
102
RTVSPropertyOp43
 70
     1
102
RTVSPropertyOp44
 70
     1
102
RTVSPropertyOp45
 70
     1
102
RTVSPropertyOp46
 70
     1
102
RTVSPropertyOp47
 70
     1
102
RTVSPropertyOp48
 70
     1
102
RTVSPropertyOp49
 70
     1
102
RTVSPropertyOp50
 70
     1
102
RTVSPropertyOp51
 70
     0
102
RTVSPropertyOp52
 70
     0
102
RTVSPropertyOp53
 70
     1
102
RTVSPropertyOp54
 70
     1
102
RTVSPropertyOp55
 70
     1
102
RTVSPropertyOp56
 70
     1
102
RTVSPropertyOp57
 70
     1
102
RTVSPost2010Prop28
280
     0
102
RTVSPost2010PropOp28
 70
     1
102
RTVSPost2010Prop29
280
     1
102
RTVSPost2010PropOp29
 70
     1
102
RTVSPost2010Prop30
280
     1
102
RTVSPost2010PropOp30
 70
     1
102
RTVSPost2010Prop31
280
     0
102
RTVSPost2010PropOp31
 70
     1
102
RTVSPost2010Prop32
280
     0
102
RTVSPost2010PropOp32
 70
     1
102
RTVSPost2010Prop33
280
     0
102
RTVSPost2010PropOp33
 70
     1
102
RTVSPost2010Prop34
280
     0
102
RTVSPost2010PropOp34
 70
     1
102
RTVSPost2010Prop35
280
     0
102
RTVSPost2010PropOp35
 70
     1
102
RTVSPost2010Prop36
280
     0
102
RTVSPost2010PropOp36
 70
     1
102
RTVSPost2010Prop37
 90
       50
102
RTVSPost2010PropOp37
 70
     1
102
RTVSPost2010Prop38
140
0.0
102
RTVSPost2010PropOp38
 70
     1
102
RTVSPost2010Prop39
140
1.0
102
RTVSPost2010PropOp39
 70
     1
102
RTVSPost2010Prop40
 90
        0
102
RTVSPost2010PropOp40
 70
     1
102
RTVSPost2010Prop41ColorIndex
 90
       18
102
RTVSPost2010Prop41ColorRGB
 90
        0
102
RTVSPost2010PropOp41
 70
     1
102
RTVSPost2010Prop42
 90
       50
102
RTVSPost2010PropOp42
 70
     1
102
RTVSPost2010Prop43
 90
        3
102
RTVSPost2010PropOp43
 70
     1
102
RTVSPost2010Prop44ColorIndex
 90
        5
102
RTVSPost2010Prop44ColorRGB
 90
      255
102
RTVSPost2010PropOp44
 70
     1
102
RTVSPost2010Prop45
280
     0
102
RTVSPost2010PropOp45
 70
     1
102
RTVSPost2010Prop46
 90
       50
102
RTVSPost2010PropOp46
 70
     1
102
RTVSPost2010Prop47
 90
       50
102
RTVSPost2010PropOp47
 70
     1
102
RTVSPost2010Prop48
 90
       50
102
RTVSPost2010PropOp48
 70
     1
102
RTVSPost2010Prop49
280
     0
102
RTVSPost2010PropOp49
 70
     1
102
RTVSPost2010Prop50
 90
       50
102
RTVSPost2010PropOp50
 70
     1
102
RTVSPost2010Prop51ColorIndex
 90
      256
102
RTVSPost2010Prop51ColorRGB
 90
-16777216
102
RTVSPost2010PropOp51
 70
     0
102
RTVSPost2010Prop52
140
1.0
102
RTVSPost2010PropOp52
 70
     0
102
RTVSPost2010Prop53
 90
        2
102
RTVSPost2010PropOp53
 70
     1
102
RTVSPost2010Prop54
  1
strokes_ogs.tif
102
RTVSPost2010PropOp54
 70
     1
102
RTVSPost2010Prop55
280
     0
102
RTVSPost2010PropOp55
 70
     1
102
RTVSPost2010Prop56
140
1.0
102
RTVSPost2010PropOp56
 70
     1
102
RTVSPost2010Prop57
140
1.0
102
RTVSPost2010PropOp57
 70
     1
  0
XRECORD
  5
106AD3D
102
{ACAD_REACTORS
330
106AD3C
102
}
330
106AD3C
100
AcDbXrecord
280
     1
102
RTVSPropertyOp0
 70
     1
102
RTVSPropertyOp1
 70
     1
102
RTVSPropertyOp2
 70
     1
102
RTVSPropertyOp3
 70
     1
102
RTVSPropertyOp4
 70
     1
102
RTVSPropertyOp5
 70
     1
102
RTVSPropertyOp6
 70
     1
102
RTVSPropertyOp7
 70
     1
102
RTVSPropertyOp8
 70
     1
102
RTVSPropertyOp9
 70
     1
102
RTVSPropertyOp10
 70
     1
102
RTVSPropertyOp11
 70
     1
102
RTVSPropertyOp12
 70
     1
102
RTVSPropertyOp13
 70
     1
102
RTVSPropertyOp14
 70
     1
102
RTVSPropertyOp15
 70
     1
102
RTVSPropertyOp16
 70
     1
102
RTVSPropertyOp17
 70
     1
102
RTVSPropertyOp18
 70
     1
102
RTVSPropertyOp19
 70
     1
102
RTVSPropertyOp20
 70
     1
102
RTVSPropertyOp21
 70
     1
102
RTVSPropertyOp22
 70
     1
102
RTVSPropertyOp23
 70
     1
102
RTVSPropertyOp24
 70
     1
102
RTVSPropertyOp25
 70
     1
102
RTVSPropertyOp26
 70
     1
102
RTVSPropertyOp27
 70
     1
102
RTVSPropertyOp28
 70
     1
102
RTVSPropertyOp29
 70
     1
102
RTVSPropertyOp30
 70
     1
102
RTVSPropertyOp31
 70
     1
102
RTVSPropertyOp32
 70
     1
102
RTVSPropertyOp33
 70
     1
102
RTVSPropertyOp34
 70
     1
102
RTVSPropertyOp35
 70
     1
102
RTVSPropertyOp36
 70
     1
102
RTVSPropertyOp37
 70
     1
102
RTVSPropertyOp38
 70
     1
102
RTVSPropertyOp39
 70
     1
102
RTVSPropertyOp40
 70
     1
102
RTVSPropertyOp41
 70
     1
102
RTVSPropertyOp42
 70
     1
102
RTVSPropertyOp43
 70
     1
102
RTVSPropertyOp44
 70
     1
102
RTVSPropertyOp45
 70
     1
102
RTVSPropertyOp46
 70
     1
102
RTVSPropertyOp47
 70
     1
102
RTVSPropertyOp48
 70
     1
102
RTVSPropertyOp49
 70
     1
102
RTVSPropertyOp50
 70
     1
102
RTVSPropertyOp51
 70
     0
102
RTVSPropertyOp52
 70
     0
102
RTVSPropertyOp53
 70
     1
102
RTVSPropertyOp54
 70
     1
102
RTVSPropertyOp55
 70
     1
102
RTVSPropertyOp56
 70
     1
102
RTVSPropertyOp57
 70
     1
102
RTVSPost2010Prop28
280
     0
102
RTVSPost2010PropOp28
 70
     1
102
RTVSPost2010Prop29
280
     1
102
RTVSPost2010PropOp29
 70
     1
102
RTVSPost2010Prop30
280
     1
102
RTVSPost2010PropOp30
 70
     1
102
RTVSPost2010Prop31
280
     0
102
RTVSPost2010PropOp31
 70
     1
102
RTVSPost2010Prop32
280
     0
102
RTVSPost2010PropOp32
 70
     1
102
RTVSPost2010Prop33
280
     0
102
RTVSPost2010PropOp33
 70
     1
102
RTVSPost2010Prop34
280
     0
102
RTVSPost2010PropOp34
 70
     1
102
RTVSPost2010Prop35
280
     0
102
RTVSPost2010PropOp35
 70
     1
102
RTVSPost2010Prop36
280
     0
102
RTVSPost2010PropOp36
 70
     1
102
RTVSPost2010Prop37
 90
       50
102
RTVSPost2010PropOp37
 70
     1
102
RTVSPost2010Prop38
140
0.0
102
RTVSPost2010PropOp38
 70
     1
102
RTVSPost2010Prop39
140
1.0
102
RTVSPost2010PropOp39
 70
     1
102
RTVSPost2010Prop40
 90
        0
102
RTVSPost2010PropOp40
 70
     1
102
RTVSPost2010Prop41ColorIndex
 90
       18
102
RTVSPost2010Prop41ColorRGB
 90
        0
102
RTVSPost2010PropOp41
 70
     1
102
RTVSPost2010Prop42
 90
       50
102
RTVSPost2010PropOp42
 70
     1
102
RTVSPost2010Prop43
 90
        3
102
RTVSPost2010PropOp43
 70
     1
102
RTVSPost2010Prop44ColorIndex
 90
        5
102
RTVSPost2010Prop44ColorRGB
 90
      255
102
RTVSPost2010PropOp44
 70
     1
102
RTVSPost2010Prop45
280
     0
102
RTVSPost2010PropOp45
 70
     1
102
RTVSPost2010Prop46
 90
       50
102
RTVSPost2010PropOp46
 70
     1
102
RTVSPost2010Prop47
 90
       50
102
RTVSPost2010PropOp47
 70
     1
102
RTVSPost2010Prop48
 90
       50
102
RTVSPost2010PropOp48
 70
     1
102
RTVSPost2010Prop49
280
     0
102
RTVSPost2010PropOp49
 70
     1
102
RTVSPost2010Prop50
 90
       50
102
RTVSPost2010PropOp50
 70
     1
102
RTVSPost2010Prop51ColorIndex
 90
      256
102
RTVSPost2010Prop51ColorRGB
 90
-16777216
102
RTVSPost2010PropOp51
 70
     0
102
RTVSPost2010Prop52
140
1.0
102
RTVSPost2010PropOp52
 70
     0
102
RTVSPost2010Prop53
 90
        2
102
RTVSPost2010PropOp53
 70
     1
102
RTVSPost2010Prop54
  1
strokes_ogs.tif
102
RTVSPost2010PropOp54
 70
     1
102
RTVSPost2010Prop55
280
     0
102
RTVSPost2010PropOp55
 70
     1
102
RTVSPost2010Prop56
140
1.0
102
RTVSPost2010PropOp56
 70
     1
102
RTVSPost2010Prop57
140
1.0
102
RTVSPost2010PropOp57
 70
     1
  0
XRECORD
  5
106AD3F
102
{ACAD_REACTORS
330
106AD3E
102
}
330
106AD3E
100
AcDbXrecord
280
     1
102
RTVSPropertyOp0
 70
     1
102
RTVSPropertyOp1
 70
     1
102
RTVSPropertyOp2
 70
     1
102
RTVSPropertyOp3
 70
     1
102
RTVSPropertyOp4
 70
     1
102
RTVSPropertyOp5
 70
     1
102
RTVSPropertyOp6
 70
     1
102
RTVSPropertyOp7
 70
     1
102
RTVSPropertyOp8
 70
     1
102
RTVSPropertyOp9
 70
     1
102
RTVSPropertyOp10
 70
     1
102
RTVSPropertyOp11
 70
     1
102
RTVSPropertyOp12
 70
     1
102
RTVSPropertyOp13
 70
     1
102
RTVSPropertyOp14
 70
     1
102
RTVSPropertyOp15
 70
     1
102
RTVSPropertyOp16
 70
     1
102
RTVSPropertyOp17
 70
     1
102
RTVSPropertyOp18
 70
     1
102
RTVSPropertyOp19
 70
     1
102
RTVSPropertyOp20
 70
     1
102
RTVSPropertyOp21
 70
     1
102
RTVSPropertyOp22
 70
     1
102
RTVSPropertyOp23
 70
     1
102
RTVSPropertyOp24
 70
     1
102
RTVSPropertyOp25
 70
     1
102
RTVSPropertyOp26
 70
     1
102
RTVSPropertyOp27
 70
     1
102
RTVSPropertyOp28
 70
     1
102
RTVSPropertyOp29
 70
     1
102
RTVSPropertyOp30
 70
     1
102
RTVSPropertyOp31
 70
     1
102
RTVSPropertyOp32
 70
     1
102
RTVSPropertyOp33
 70
     1
102
RTVSPropertyOp34
 70
     1
102
RTVSPropertyOp35
 70
     1
102
RTVSPropertyOp36
 70
     1
102
RTVSPropertyOp37
 70
     1
102
RTVSPropertyOp38
 70
     1
102
RTVSPropertyOp39
 70
     1
102
RTVSPropertyOp40
 70
     1
102
RTVSPropertyOp41
 70
     1
102
RTVSPropertyOp42
 70
     1
102
RTVSPropertyOp43
 70
     1
102
RTVSPropertyOp44
 70
     1
102
RTVSPropertyOp45
 70
     1
102
RTVSPropertyOp46
 70
     1
102
RTVSPropertyOp47
 70
     1
102
RTVSPropertyOp48
 70
     1
102
RTVSPropertyOp49
 70
     1
102
RTVSPropertyOp50
 70
     1
102
RTVSPropertyOp51
 70
     0
102
RTVSPropertyOp52
 70
     0
102
RTVSPropertyOp53
 70
     1
102
RTVSPropertyOp54
 70
     1
102
RTVSPropertyOp55
 70
     1
102
RTVSPropertyOp56
 70
     1
102
RTVSPropertyOp57
 70
     1
102
RTVSPost2010Prop28
280
     0
102
RTVSPost2010PropOp28
 70
     1
102
RTVSPost2010Prop29
280
     1
102
RTVSPost2010PropOp29
 70
     1
102
RTVSPost2010Prop30
280
     1
102
RTVSPost2010PropOp30
 70
     1
102
RTVSPost2010Prop31
280
     0
102
RTVSPost2010PropOp31
 70
     1
102
RTVSPost2010Prop32
280
     0
102
RTVSPost2010PropOp32
 70
     1
102
RTVSPost2010Prop33
280
     0
102
RTVSPost2010PropOp33
 70
     1
102
RTVSPost2010Prop34
280
     0
102
RTVSPost2010PropOp34
 70
     1
102
RTVSPost2010Prop35
280
     0
102
RTVSPost2010PropOp35
 70
     1
102
RTVSPost2010Prop36
280
     0
102
RTVSPost2010PropOp36
 70
     1
102
RTVSPost2010Prop37
 90
       50
102
RTVSPost2010PropOp37
 70
     1
102
RTVSPost2010Prop38
140
0.0
102
RTVSPost2010PropOp38
 70
     1
102
RTVSPost2010Prop39
140
1.0
102
RTVSPost2010PropOp39
 70
     1
102
RTVSPost2010Prop40
 90
        0
102
RTVSPost2010PropOp40
 70
     1
102
RTVSPost2010Prop41ColorIndex
 90
       18
102
RTVSPost2010Prop41ColorRGB
 90
        0
102
RTVSPost2010PropOp41
 70
     1
102
RTVSPost2010Prop42
 90
       50
102
RTVSPost2010PropOp42
 70
     1
102
RTVSPost2010Prop43
 90
        3
102
RTVSPost2010PropOp43
 70
     1
102
RTVSPost2010Prop44ColorIndex
 90
        5
102
RTVSPost2010Prop44ColorRGB
 90
      255
102
RTVSPost2010PropOp44
 70
     1
102
RTVSPost2010Prop45
280
     0
102
RTVSPost2010PropOp45
 70
     1
102
RTVSPost2010Prop46
 90
       50
102
RTVSPost2010PropOp46
 70
     1
102
RTVSPost2010Prop47
 90
       50
102
RTVSPost2010PropOp47
 70
     1
102
RTVSPost2010Prop48
 90
       50
102
RTVSPost2010PropOp48
 70
     1
102
RTVSPost2010Prop49
280
     0
102
RTVSPost2010PropOp49
 70
     1
102
RTVSPost2010Prop50
 90
       50
102
RTVSPost2010PropOp50
 70
     1
102
RTVSPost2010Prop51ColorIndex
 90
      256
102
RTVSPost2010Prop51ColorRGB
 90
-16777216
102
RTVSPost2010PropOp51
 70
     0
102
RTVSPost2010Prop52
140
1.0
102
RTVSPost2010PropOp52
 70
     0
102
RTVSPost2010Prop53
 90
        2
102
RTVSPost2010PropOp53
 70
     1
102
RTVSPost2010Prop54
  1
strokes_ogs.tif
102
RTVSPost2010PropOp54
 70
     1
102
RTVSPost2010Prop55
280
     0
102
RTVSPost2010PropOp55
 70
     1
102
RTVSPost2010Prop56
140
1.0
102
RTVSPost2010PropOp56
 70
     1
102
RTVSPost2010Prop57
140
1.0
102
RTVSPost2010PropOp57
 70
     1
  0
XRECORD
  5
106AD41
102
{ACAD_REACTORS
330
106AD40
102
}
330
106AD40
100
AcDbXrecord
280
     1
102
RTVSPropertyOp0
 70
     1
102
RTVSPropertyOp1
 70
     1
102
RTVSPropertyOp2
 70
     1
102
RTVSPropertyOp3
 70
     1
102
RTVSPropertyOp4
 70
     1
102
RTVSPropertyOp5
 70
     1
102
RTVSPropertyOp6
 70
     1
102
RTVSPropertyOp7
 70
     1
102
RTVSPropertyOp8
 70
     1
102
RTVSPropertyOp9
 70
     1
102
RTVSPropertyOp10
 70
     1
102
RTVSPropertyOp11
 70
     1
102
RTVSPropertyOp12
 70
     1
102
RTVSPropertyOp13
 70
     1
102
RTVSPropertyOp14
 70
     1
102
RTVSPropertyOp15
 70
     1
102
RTVSPropertyOp16
 70
     1
102
RTVSPropertyOp17
 70
     1
102
RTVSPropertyOp18
 70
     1
102
RTVSPropertyOp19
 70
     1
102
RTVSPropertyOp20
 70
     1
102
RTVSPropertyOp21
 70
     1
102
RTVSPropertyOp22
 70
     1
102
RTVSPropertyOp23
 70
     1
102
RTVSPropertyOp24
 70
     1
102
RTVSPropertyOp25
 70
     1
102
RTVSPropertyOp26
 70
     1
102
RTVSPropertyOp27
 70
     1
102
RTVSPropertyOp28
 70
     1
102
RTVSPropertyOp29
 70
     1
102
RTVSPropertyOp30
 70
     1
102
RTVSPropertyOp31
 70
     1
102
RTVSPropertyOp32
 70
     1
102
RTVSPropertyOp33
 70
     1
102
RTVSPropertyOp34
 70
     1
102
RTVSPropertyOp35
 70
     1
102
RTVSPropertyOp36
 70
     1
102
RTVSPropertyOp37
 70
     1
102
RTVSPropertyOp38
 70
     1
102
RTVSPropertyOp39
 70
     1
102
RTVSPropertyOp40
 70
     1
102
RTVSPropertyOp41
 70
     1
102
RTVSPropertyOp42
 70
     1
102
RTVSPropertyOp43
 70
     1
102
RTVSPropertyOp44
 70
     1
102
RTVSPropertyOp45
 70
     1
102
RTVSPropertyOp46
 70
     1
102
RTVSPropertyOp47
 70
     1
102
RTVSPropertyOp48
 70
     1
102
RTVSPropertyOp49
 70
     1
102
RTVSPropertyOp50
 70
     1
102
RTVSPropertyOp51
 70
     0
102
RTVSPropertyOp52
 70
     0
102
RTVSPropertyOp53
 70
     1
102
RTVSPropertyOp54
 70
     1
102
RTVSPropertyOp55
 70
     1
102
RTVSPropertyOp56
 70
     1
102
RTVSPropertyOp57
 70
     1
102
RTVSPost2010Prop28
280
     0
102
RTVSPost2010PropOp28
 70
     1
102
RTVSPost2010Prop29
280
     1
102
RTVSPost2010PropOp29
 70
     1
102
RTVSPost2010Prop30
280
     1
102
RTVSPost2010PropOp30
 70
     1
102
RTVSPost2010Prop31
280
     0
102
RTVSPost2010PropOp31
 70
     1
102
RTVSPost2010Prop32
280
     0
102
RTVSPost2010PropOp32
 70
     1
102
RTVSPost2010Prop33
280
     0
102
RTVSPost2010PropOp33
 70
     1
102
RTVSPost2010Prop34
280
     0
102
RTVSPost2010PropOp34
 70
     1
102
RTVSPost2010Prop35
280
     0
102
RTVSPost2010PropOp35
 70
     1
102
RTVSPost2010Prop36
280
     0
102
RTVSPost2010PropOp36
 70
     1
102
RTVSPost2010Prop37
 90
       50
102
RTVSPost2010PropOp37
 70
     1
102
RTVSPost2010Prop38
140
0.0
102
RTVSPost2010PropOp38
 70
     1
102
RTVSPost2010Prop39
140
1.0
102
RTVSPost2010PropOp39
 70
     1
102
RTVSPost2010Prop40
 90
        0
102
RTVSPost2010PropOp40
 70
     1
102
RTVSPost2010Prop41ColorIndex
 90
       18
102
RTVSPost2010Prop41ColorRGB
 90
        0
102
RTVSPost2010PropOp41
 70
     1
102
RTVSPost2010Prop42
 90
       50
102
RTVSPost2010PropOp42
 70
     1
102
RTVSPost2010Prop43
 90
        3
102
RTVSPost2010PropOp43
 70
     1
102
RTVSPost2010Prop44ColorIndex
 90
        5
102
RTVSPost2010Prop44ColorRGB
 90
      255
102
RTVSPost2010PropOp44
 70
     1
102
RTVSPost2010Prop45
280
     0
102
RTVSPost2010PropOp45
 70
     1
102
RTVSPost2010Prop46
 90
       50
102
RTVSPost2010PropOp46
 70
     1
102
RTVSPost2010Prop47
 90
       50
102
RTVSPost2010PropOp47
 70
     1
102
RTVSPost2010Prop48
 90
       50
102
RTVSPost2010PropOp48
 70
     1
102
RTVSPost2010Prop49
280
     0
102
RTVSPost2010PropOp49
 70
     1
102
RTVSPost2010Prop50
 90
       50
102
RTVSPost2010PropOp50
 70
     1
102
RTVSPost2010Prop51ColorIndex
 90
      256
102
RTVSPost2010Prop51ColorRGB
 90
-16777216
102
RTVSPost2010PropOp51
 70
     0
102
RTVSPost2010Prop52
140
1.0
102
RTVSPost2010PropOp52
 70
     0
102
RTVSPost2010Prop53
 90
        2
102
RTVSPost2010PropOp53
 70
     1
102
RTVSPost2010Prop54
  1
strokes_ogs.tif
102
RTVSPost2010PropOp54
 70
     1
102
RTVSPost2010Prop55
280
     0
102
RTVSPost2010PropOp55
 70
     1
102
RTVSPost2010Prop56
140
1.0
102
RTVSPost2010PropOp56
 70
     1
102
RTVSPost2010Prop57
140
1.0
102
RTVSPost2010PropOp57
 70
     1
  0
XRECORD
  5
106AD43
102
{ACAD_REACTORS
330
106AD42
102
}
330
106AD42
100
AcDbXrecord
280
     1
102
RTVSPropertyOp0
 70
     0
102
RTVSPropertyOp1
 70
     0
102
RTVSPropertyOp2
 70
     0
102
RTVSPropertyOp3
 70
     0
102
RTVSPropertyOp4
 70
     0
102
RTVSPropertyOp5
 70
     0
102
RTVSPropertyOp6
 70
     0
102
RTVSPropertyOp7
 70
     0
102
RTVSPropertyOp8
 70
     0
102
RTVSPropertyOp9
 70
     0
102
RTVSPropertyOp10
 70
     0
102
RTVSPropertyOp11
 70
     0
102
RTVSPropertyOp12
 70
     0
102
RTVSPropertyOp13
 70
     0
102
RTVSPropertyOp14
 70
     2
102
RTVSPropertyOp15
 70
     0
102
RTVSPropertyOp16
 70
     0
102
RTVSPropertyOp17
 70
     0
102
RTVSPropertyOp18
 70
     0
102
RTVSPropertyOp19
 70
     0
102
RTVSPropertyOp20
 70
     0
102
RTVSPropertyOp21
 70
     0
102
RTVSPropertyOp22
 70
     0
102
RTVSPropertyOp23
 70
     0
102
RTVSPropertyOp24
 70
     0
102
RTVSPropertyOp25
 70
     0
102
RTVSPropertyOp26
 70
     0
102
RTVSPropertyOp27
 70
     0
102
RTVSPropertyOp28
 70
     0
102
RTVSPropertyOp29
 70
     0
102
RTVSPropertyOp30
 70
     0
102
RTVSPropertyOp31
 70
     0
102
RTVSPropertyOp32
 70
     0
102
RTVSPropertyOp33
 70
     0
102
RTVSPropertyOp34
 70
     0
102
RTVSPropertyOp35
 70
     0
102
RTVSPropertyOp36
 70
     0
102
RTVSPropertyOp37
 70
     0
102
RTVSPropertyOp38
 70
     0
102
RTVSPropertyOp39
 70
     0
102
RTVSPropertyOp40
 70
     0
102
RTVSPropertyOp41
 70
     0
102
RTVSPropertyOp42
 70
     0
102
RTVSPropertyOp43
 70
     0
102
RTVSPropertyOp44
 70
     0
102
RTVSPropertyOp45
 70
     0
102
RTVSPropertyOp46
 70
     0
102
RTVSPropertyOp47
 70
     0
102
RTVSPropertyOp48
 70
     0
102
RTVSPropertyOp49
 70
     0
102
RTVSPropertyOp50
 70
     0
102
RTVSPropertyOp51
 70
     0
102
RTVSPropertyOp52
 70
     0
102
RTVSPropertyOp53
 70
     0
102
RTVSPropertyOp54
 70
     0
102
RTVSPropertyOp55
 70
     0
102
RTVSPropertyOp56
 70
     0
102
RTVSPropertyOp57
 70
     0
102
RTVSPost2010Prop28
280
     0
102
RTVSPost2010PropOp28
 70
     0
102
RTVSPost2010Prop29
280
     1
102
RTVSPost2010PropOp29
 70
     0
102
RTVSPost2010Prop30
280
     1
102
RTVSPost2010PropOp30
 70
     0
102
RTVSPost2010Prop31
280
     0
102
RTVSPost2010PropOp31
 70
     0
102
RTVSPost2010Prop32
280
     0
102
RTVSPost2010PropOp32
 70
     0
102
RTVSPost2010Prop33
280
     0
102
RTVSPost2010PropOp33
 70
     0
102
RTVSPost2010Prop34
280
     0
102
RTVSPost2010PropOp34
 70
     0
102
RTVSPost2010Prop35
280
     0
102
RTVSPost2010PropOp35
 70
     0
102
RTVSPost2010Prop36
280
     0
102
RTVSPost2010PropOp36
 70
     0
102
RTVSPost2010Prop37
 90
       50
102
RTVSPost2010PropOp37
 70
     0
102
RTVSPost2010Prop38
140
0.0
102
RTVSPost2010PropOp38
 70
     0
102
RTVSPost2010Prop39
140
1.0
102
RTVSPost2010PropOp39
 70
     0
102
RTVSPost2010Prop40
 90
        0
102
RTVSPost2010PropOp40
 70
     0
102
RTVSPost2010Prop41ColorIndex
 90
       18
102
RTVSPost2010Prop41ColorRGB
 90
        0
102
RTVSPost2010PropOp41
 70
     0
102
RTVSPost2010Prop42
 90
       50
102
RTVSPost2010PropOp42
 70
     0
102
RTVSPost2010Prop43
 90
        3
102
RTVSPost2010PropOp43
 70
     0
102
RTVSPost2010Prop44ColorIndex
 90
        5
102
RTVSPost2010Prop44ColorRGB
 90
      255
102
RTVSPost2010PropOp44
 70
     0
102
RTVSPost2010Prop45
280
     0
102
RTVSPost2010PropOp45
 70
     0
102
RTVSPost2010Prop46
 90
       50
102
RTVSPost2010PropOp46
 70
     0
102
RTVSPost2010Prop47
 90
       50
102
RTVSPost2010PropOp47
 70
     0
102
RTVSPost2010Prop48
 90
       50
102
RTVSPost2010PropOp48
 70
     0
102
RTVSPost2010Prop49
280
     0
102
RTVSPost2010PropOp49
 70
     0
102
RTVSPost2010Prop50
 90
       50
102
RTVSPost2010PropOp50
 70
     0
102
RTVSPost2010Prop51ColorIndex
 90
      256
102
RTVSPost2010Prop51ColorRGB
 90
-16777216
102
RTVSPost2010PropOp51
 70
     0
102
RTVSPost2010Prop52
140
1.0
102
RTVSPost2010PropOp52
 70
     0
102
RTVSPost2010Prop53
 90
        2
102
RTVSPost2010PropOp53
 70
     0
102
RTVSPost2010Prop54
  1
strokes_ogs.tif
102
RTVSPost2010PropOp54
 70
     0
102
RTVSPost2010Prop55
280
     0
102
RTVSPost2010PropOp55
 70
     0
102
RTVSPost2010Prop56
140
1.0
102
RTVSPost2010PropOp56
 70
     0
102
RTVSPost2010Prop57
140
1.0
102
RTVSPost2010PropOp57
 70
     0
  0
XRECORD
  5
106AD45
102
{ACAD_REACTORS
330
106AD44
102
}
330
106AD44
100
AcDbXrecord
280
     1
102
RTVSPropertyOp0
 70
     1
102
RTVSPropertyOp1
 70
     1
102
RTVSPropertyOp2
 70
     1
102
RTVSPropertyOp3
 70
     1
102
RTVSPropertyOp4
 70
     1
102
RTVSPropertyOp5
 70
     1
102
RTVSPropertyOp6
 70
     1
102
RTVSPropertyOp7
 70
     1
102
RTVSPropertyOp8
 70
     1
102
RTVSPropertyOp9
 70
     1
102
RTVSPropertyOp10
 70
     1
102
RTVSPropertyOp11
 70
     1
102
RTVSPropertyOp12
 70
     1
102
RTVSPropertyOp13
 70
     1
102
RTVSPropertyOp14
 70
     1
102
RTVSPropertyOp15
 70
     1
102
RTVSPropertyOp16
 70
     1
102
RTVSPropertyOp17
 70
     1
102
RTVSPropertyOp18
 70
     1
102
RTVSPropertyOp19
 70
     1
102
RTVSPropertyOp20
 70
     1
102
RTVSPropertyOp21
 70
     1
102
RTVSPropertyOp22
 70
     1
102
RTVSPropertyOp23
 70
     1
102
RTVSPropertyOp24
 70
     1
102
RTVSPropertyOp25
 70
     1
102
RTVSPropertyOp26
 70
     1
102
RTVSPropertyOp27
 70
     1
102
RTVSPropertyOp28
 70
     1
102
RTVSPropertyOp29
 70
     1
102
RTVSPropertyOp30
 70
     1
102
RTVSPropertyOp31
 70
     1
102
RTVSPropertyOp32
 70
     1
102
RTVSPropertyOp33
 70
     1
102
RTVSPropertyOp34
 70
     1
102
RTVSPropertyOp35
 70
     1
102
RTVSPropertyOp36
 70
     1
102
RTVSPropertyOp37
 70
     1
102
RTVSPropertyOp38
 70
     1
102
RTVSPropertyOp39
 70
     1
102
RTVSPropertyOp40
 70
     1
102
RTVSPropertyOp41
 70
     1
102
RTVSPropertyOp42
 70
     1
102
RTVSPropertyOp43
 70
     1
102
RTVSPropertyOp44
 70
     1
102
RTVSPropertyOp45
 70
     1
102
RTVSPropertyOp46
 70
     1
102
RTVSPropertyOp47
 70
     1
102
RTVSPropertyOp48
 70
     1
102
RTVSPropertyOp49
 70
     1
102
RTVSPropertyOp50
 70
     1
102
RTVSPropertyOp51
 70
     0
102
RTVSPropertyOp52
 70
     0
102
RTVSPropertyOp53
 70
     1
102
RTVSPropertyOp54
 70
     1
102
RTVSPropertyOp55
 70
     1
102
RTVSPropertyOp56
 70
     1
102
RTVSPropertyOp57
 70
     1
102
RTVSPost2010Prop28
280
     0
102
RTVSPost2010PropOp28
 70
     1
102
RTVSPost2010Prop29
280
     1
102
RTVSPost2010PropOp29
 70
     1
102
RTVSPost2010Prop30
280
     1
102
RTVSPost2010PropOp30
 70
     1
102
RTVSPost2010Prop31
280
     0
102
RTVSPost2010PropOp31
 70
     1
102
RTVSPost2010Prop32
280
     0
102
RTVSPost2010PropOp32
 70
     1
102
RTVSPost2010Prop33
280
     0
102
RTVSPost2010PropOp33
 70
     1
102
RTVSPost2010Prop34
280
     0
102
RTVSPost2010PropOp34
 70
     1
102
RTVSPost2010Prop35
280
     0
102
RTVSPost2010PropOp35
 70
     1
102
RTVSPost2010Prop36
280
     0
102
RTVSPost2010PropOp36
 70
     1
102
RTVSPost2010Prop37
 90
       50
102
RTVSPost2010PropOp37
 70
     1
102
RTVSPost2010Prop38
140
0.0
102
RTVSPost2010PropOp38
 70
     1
102
RTVSPost2010Prop39
140
1.0
102
RTVSPost2010PropOp39
 70
     1
102
RTVSPost2010Prop40
 90
        0
102
RTVSPost2010PropOp40
 70
     1
102
RTVSPost2010Prop41ColorIndex
 90
       18
102
RTVSPost2010Prop41ColorRGB
 90
        0
102
RTVSPost2010PropOp41
 70
     1
102
RTVSPost2010Prop42
 90
       50
102
RTVSPost2010PropOp42
 70
     1
102
RTVSPost2010Prop43
 90
        3
102
RTVSPost2010PropOp43
 70
     1
102
RTVSPost2010Prop44ColorIndex
 90
        5
102
RTVSPost2010Prop44ColorRGB
 90
      255
102
RTVSPost2010PropOp44
 70
     1
102
RTVSPost2010Prop45
280
     0
102
RTVSPost2010PropOp45
 70
     1
102
RTVSPost2010Prop46
 90
       50
102
RTVSPost2010PropOp46
 70
     1
102
RTVSPost2010Prop47
 90
       50
102
RTVSPost2010PropOp47
 70
     1
102
RTVSPost2010Prop48
 90
       50
102
RTVSPost2010PropOp48
 70
     1
102
RTVSPost2010Prop49
280
     0
102
RTVSPost2010PropOp49
 70
     1
102
RTVSPost2010Prop50
 90
       50
102
RTVSPost2010PropOp50
 70
     1
102
RTVSPost2010Prop51ColorIndex
 90
      256
102
RTVSPost2010Prop51ColorRGB
 90
-16777216
102
RTVSPost2010PropOp51
 70
     0
102
RTVSPost2010Prop52
140
1.0
102
RTVSPost2010PropOp52
 70
     0
102
RTVSPost2010Prop53
 90
        2
102
RTVSPost2010PropOp53
 70
     1
102
RTVSPost2010Prop54
  1
strokes_ogs.tif
102
RTVSPost2010PropOp54
 70
     1
102
RTVSPost2010Prop55
280
     0
102
RTVSPost2010PropOp55
 70
     1
102
RTVSPost2010Prop56
140
1.0
102
RTVSPost2010PropOp56
 70
     1
102
RTVSPost2010Prop57
140
1.0
102
RTVSPost2010PropOp57
 70
     1
  0
XRECORD
  5
106AD47
102
{ACAD_REACTORS
330
106AD46
102
}
330
106AD46
100
AcDbXrecord
280
     1
102
RTVSPropertyOp0
 70
     1
102
RTVSPropertyOp1
 70
     1
102
RTVSPropertyOp2
 70
     1
102
RTVSPropertyOp3
 70
     1
102
RTVSPropertyOp4
 70
     1
102
RTVSPropertyOp5
 70
     1
102
RTVSPropertyOp6
 70
     1
102
RTVSPropertyOp7
 70
     1
102
RTVSPropertyOp8
 70
     1
102
RTVSPropertyOp9
 70
     1
102
RTVSPropertyOp10
 70
     1
102
RTVSPropertyOp11
 70
     1
102
RTVSPropertyOp12
 70
     1
102
RTVSPropertyOp13
 70
     1
102
RTVSPropertyOp14
 70
     1
102
RTVSPropertyOp15
 70
     1
102
RTVSPropertyOp16
 70
     1
102
RTVSPropertyOp17
 70
     1
102
RTVSPropertyOp18
 70
     1
102
RTVSPropertyOp19
 70
     1
102
RTVSPropertyOp20
 70
     1
102
RTVSPropertyOp21
 70
     1
102
RTVSPropertyOp22
 70
     1
102
RTVSPropertyOp23
 70
     1
102
RTVSPropertyOp24
 70
     1
102
RTVSPropertyOp25
 70
     1
102
RTVSPropertyOp26
 70
     1
102
RTVSPropertyOp27
 70
     1
102
RTVSPropertyOp28
 70
     1
102
RTVSPropertyOp29
 70
     1
102
RTVSPropertyOp30
 70
     1
102
RTVSPropertyOp31
 70
     1
102
RTVSPropertyOp32
 70
     1
102
RTVSPropertyOp33
 70
     1
102
RTVSPropertyOp34
 70
     1
102
RTVSPropertyOp35
 70
     1
102
RTVSPropertyOp36
 70
     1
102
RTVSPropertyOp37
 70
     1
102
RTVSPropertyOp38
 70
     1
102
RTVSPropertyOp39
 70
     1
102
RTVSPropertyOp40
 70
     1
102
RTVSPropertyOp41
 70
     1
102
RTVSPropertyOp42
 70
     1
102
RTVSPropertyOp43
 70
     1
102
RTVSPropertyOp44
 70
     1
102
RTVSPropertyOp45
 70
     1
102
RTVSPropertyOp46
 70
     1
102
RTVSPropertyOp47
 70
     1
102
RTVSPropertyOp48
 70
     1
102
RTVSPropertyOp49
 70
     1
102
RTVSPropertyOp50
 70
     1
102
RTVSPropertyOp51
 70
     0
102
RTVSPropertyOp52
 70
     0
102
RTVSPropertyOp53
 70
     1
102
RTVSPropertyOp54
 70
     1
102
RTVSPropertyOp55
 70
     1
102
RTVSPropertyOp56
 70
     1
102
RTVSPropertyOp57
 70
     1
102
RTVSPost2010Prop28
280
     0
102
RTVSPost2010PropOp28
 70
     1
102
RTVSPost2010Prop29
280
     1
102
RTVSPost2010PropOp29
 70
     1
102
RTVSPost2010Prop30
280
     1
102
RTVSPost2010PropOp30
 70
     1
102
RTVSPost2010Prop31
280
     0
102
RTVSPost2010PropOp31
 70
     1
102
RTVSPost2010Prop32
280
     0
102
RTVSPost2010PropOp32
 70
     1
102
RTVSPost2010Prop33
280
     0
102
RTVSPost2010PropOp33
 70
     1
102
RTVSPost2010Prop34
280
     0
102
RTVSPost2010PropOp34
 70
     1
102
RTVSPost2010Prop35
280
     0
102
RTVSPost2010PropOp35
 70
     1
102
RTVSPost2010Prop36
280
     0
102
RTVSPost2010PropOp36
 70
     1
102
RTVSPost2010Prop37
 90
       50
102
RTVSPost2010PropOp37
 70
     1
102
RTVSPost2010Prop38
140
0.0
102
RTVSPost2010PropOp38
 70
     1
102
RTVSPost2010Prop39
140
1.0
102
RTVSPost2010PropOp39
 70
     1
102
RTVSPost2010Prop40
 90
        0
102
RTVSPost2010PropOp40
 70
     1
102
RTVSPost2010Prop41ColorIndex
 90
       18
102
RTVSPost2010Prop41ColorRGB
 90
        0
102
RTVSPost2010PropOp41
 70
     1
102
RTVSPost2010Prop42
 90
       50
102
RTVSPost2010PropOp42
 70
     1
102
RTVSPost2010Prop43
 90
        3
102
RTVSPost2010PropOp43
 70
     1
102
RTVSPost2010Prop44ColorIndex
 90
        5
102
RTVSPost2010Prop44ColorRGB
 90
      255
102
RTVSPost2010PropOp44
 70
     1
102
RTVSPost2010Prop45
280
     0
102
RTVSPost2010PropOp45
 70
     1
102
RTVSPost2010Prop46
 90
       50
102
RTVSPost2010PropOp46
 70
     1
102
RTVSPost2010Prop47
 90
       50
102
RTVSPost2010PropOp47
 70
     1
102
RTVSPost2010Prop48
 90
       50
102
RTVSPost2010PropOp48
 70
     1
102
RTVSPost2010Prop49
280
     0
102
RTVSPost2010PropOp49
 70
     1
102
RTVSPost2010Prop50
 90
       50
102
RTVSPost2010PropOp50
 70
     1
102
RTVSPost2010Prop51ColorIndex
 90
      256
102
RTVSPost2010Prop51ColorRGB
 90
-16777216
102
RTVSPost2010PropOp51
 70
     0
102
RTVSPost2010Prop52
140
1.0
102
RTVSPost2010PropOp52
 70
     0
102
RTVSPost2010Prop53
 90
        2
102
RTVSPost2010PropOp53
 70
     1
102
RTVSPost2010Prop54
  1
strokes_ogs.tif
102
RTVSPost2010PropOp54
 70
     1
102
RTVSPost2010Prop55
280
     0
102
RTVSPost2010PropOp55
 70
     1
102
RTVSPost2010Prop56
140
1.0
102
RTVSPost2010PropOp56
 70
     1
102
RTVSPost2010Prop57
140
1.0
102
RTVSPost2010PropOp57
 70
     1
  0
XRECORD
  5
106AD49
102
{ACAD_REACTORS
330
106AD48
102
}
330
106AD48
100
AcDbXrecord
280
     1
102
RTVSPropertyOp0
 70
     1
102
RTVSPropertyOp1
 70
     1
102
RTVSPropertyOp2
 70
     1
102
RTVSPropertyOp3
 70
     1
102
RTVSPropertyOp4
 70
     1
102
RTVSPropertyOp5
 70
     1
102
RTVSPropertyOp6
 70
     1
102
RTVSPropertyOp7
 70
     1
102
RTVSPropertyOp8
 70
     1
102
RTVSPropertyOp9
 70
     1
102
RTVSPropertyOp10
 70
     1
102
RTVSPropertyOp11
 70
     1
102
RTVSPropertyOp12
 70
     1
102
RTVSPropertyOp13
 70
     1
102
RTVSPropertyOp14
 70
     1
102
RTVSPropertyOp15
 70
     1
102
RTVSPropertyOp16
 70
     1
102
RTVSPropertyOp17
 70
     1
102
RTVSPropertyOp18
 70
     1
102
RTVSPropertyOp19
 70
     1
102
RTVSPropertyOp20
 70
     1
102
RTVSPropertyOp21
 70
     1
102
RTVSPropertyOp22
 70
     1
102
RTVSPropertyOp23
 70
     1
102
RTVSPropertyOp24
 70
     1
102
RTVSPropertyOp25
 70
     1
102
RTVSPropertyOp26
 70
     1
102
RTVSPropertyOp27
 70
     1
102
RTVSPropertyOp28
 70
     1
102
RTVSPropertyOp29
 70
     1
102
RTVSPropertyOp30
 70
     1
102
RTVSPropertyOp31
 70
     1
102
RTVSPropertyOp32
 70
     1
102
RTVSPropertyOp33
 70
     1
102
RTVSPropertyOp34
 70
     1
102
RTVSPropertyOp35
 70
     1
102
RTVSPropertyOp36
 70
     1
102
RTVSPropertyOp37
 70
     1
102
RTVSPropertyOp38
 70
     1
102
RTVSPropertyOp39
 70
     1
102
RTVSPropertyOp40
 70
     1
102
RTVSPropertyOp41
 70
     1
102
RTVSPropertyOp42
 70
     1
102
RTVSPropertyOp43
 70
     1
102
RTVSPropertyOp44
 70
     1
102
RTVSPropertyOp45
 70
     1
102
RTVSPropertyOp46
 70
     1
102
RTVSPropertyOp47
 70
     1
102
RTVSPropertyOp48
 70
     1
102
RTVSPropertyOp49
 70
     1
102
RTVSPropertyOp50
 70
     1
102
RTVSPropertyOp51
 70
     0
102
RTVSPropertyOp52
 70
     0
102
RTVSPropertyOp53
 70
     1
102
RTVSPropertyOp54
 70
     1
102
RTVSPropertyOp55
 70
     1
102
RTVSPropertyOp56
 70
     1
102
RTVSPropertyOp57
 70
     1
102
RTVSPost2010Prop28
280
     0
102
RTVSPost2010PropOp28
 70
     1
102
RTVSPost2010Prop29
280
     1
102
RTVSPost2010PropOp29
 70
     1
102
RTVSPost2010Prop30
280
     1
102
RTVSPost2010PropOp30
 70
     1
102
RTVSPost2010Prop31
280
     0
102
RTVSPost2010PropOp31
 70
     1
102
RTVSPost2010Prop32
280
     0
102
RTVSPost2010PropOp32
 70
     1
102
RTVSPost2010Prop33
280
     0
102
RTVSPost2010PropOp33
 70
     1
102
RTVSPost2010Prop34
280
     0
102
RTVSPost2010PropOp34
 70
     1
102
RTVSPost2010Prop35
280
     0
102
RTVSPost2010PropOp35
 70
     1
102
RTVSPost2010Prop36
280
     0
102
RTVSPost2010PropOp36
 70
     1
102
RTVSPost2010Prop37
 90
       50
102
RTVSPost2010PropOp37
 70
     1
102
RTVSPost2010Prop38
140
0.0
102
RTVSPost2010PropOp38
 70
     1
102
RTVSPost2010Prop39
140
1.0
102
RTVSPost2010PropOp39
 70
     1
102
RTVSPost2010Prop40
 90
        0
102
RTVSPost2010PropOp40
 70
     1
102
RTVSPost2010Prop41ColorIndex
 90
       18
102
RTVSPost2010Prop41ColorRGB
 90
        0
102
RTVSPost2010PropOp41
 70
     1
102
RTVSPost2010Prop42
 90
       50
102
RTVSPost2010PropOp42
 70
     1
102
RTVSPost2010Prop43
 90
        3
102
RTVSPost2010PropOp43
 70
     1
102
RTVSPost2010Prop44ColorIndex
 90
        5
102
RTVSPost2010Prop44ColorRGB
 90
      255
102
RTVSPost2010PropOp44
 70
     1
102
RTVSPost2010Prop45
280
     0
102
RTVSPost2010PropOp45
 70
     1
102
RTVSPost2010Prop46
 90
       50
102
RTVSPost2010PropOp46
 70
     1
102
RTVSPost2010Prop47
 90
       50
102
RTVSPost2010PropOp47
 70
     1
102
RTVSPost2010Prop48
 90
       50
102
RTVSPost2010PropOp48
 70
     1
102
RTVSPost2010Prop49
280
     0
102
RTVSPost2010PropOp49
 70
     1
102
RTVSPost2010Prop50
 90
       50
102
RTVSPost2010PropOp50
 70
     1
102
RTVSPost2010Prop51ColorIndex
 90
      256
102
RTVSPost2010Prop51ColorRGB
 90
-16777216
102
RTVSPost2010PropOp51
 70
     0
102
RTVSPost2010Prop52
140
1.0
102
RTVSPost2010PropOp52
 70
     0
102
RTVSPost2010Prop53
 90
        2
102
RTVSPost2010PropOp53
 70
     1
102
RTVSPost2010Prop54
  1
strokes_ogs.tif
102
RTVSPost2010PropOp54
 70
     1
102
RTVSPost2010Prop55
280
     0
102
RTVSPost2010PropOp55
 70
     1
102
RTVSPost2010Prop56
140
1.0
102
RTVSPost2010PropOp56
 70
     1
102
RTVSPost2010Prop57
140
1.0
102
RTVSPost2010PropOp57
 70
     1
  0
XRECORD
  5
106AD4B
102
{ACAD_REACTORS
330
106AD4A
102
}
330
106AD4A
100
AcDbXrecord
280
     1
102
RTVSPropertyOp0
 70
     1
102
RTVSPropertyOp1
 70
     1
102
RTVSPropertyOp2
 70
     1
102
RTVSPropertyOp3
 70
     1
102
RTVSPropertyOp4
 70
     1
102
RTVSPropertyOp5
 70
     1
102
RTVSPropertyOp6
 70
     1
102
RTVSPropertyOp7
 70
     1
102
RTVSPropertyOp8
 70
     1
102
RTVSPropertyOp9
 70
     1
102
RTVSPropertyOp10
 70
     1
102
RTVSPropertyOp11
 70
     1
102
RTVSPropertyOp12
 70
     1
102
RTVSPropertyOp13
 70
     1
102
RTVSPropertyOp14
 70
     1
102
RTVSPropertyOp15
 70
     1
102
RTVSPropertyOp16
 70
     1
102
RTVSPropertyOp17
 70
     1
102
RTVSPropertyOp18
 70
     1
102
RTVSPropertyOp19
 70
     1
102
RTVSPropertyOp20
 70
     1
102
RTVSPropertyOp21
 70
     1
102
RTVSPropertyOp22
 70
     1
102
RTVSPropertyOp23
 70
     1
102
RTVSPropertyOp24
 70
     1
102
RTVSPropertyOp25
 70
     1
102
RTVSPropertyOp26
 70
     1
102
RTVSPropertyOp27
 70
     1
102
RTVSPropertyOp28
 70
     1
102
RTVSPropertyOp29
 70
     1
102
RTVSPropertyOp30
 70
     1
102
RTVSPropertyOp31
 70
     1
102
RTVSPropertyOp32
 70
     1
102
RTVSPropertyOp33
 70
     1
102
RTVSPropertyOp34
 70
     1
102
RTVSPropertyOp35
 70
     1
102
RTVSPropertyOp36
 70
     1
102
RTVSPropertyOp37
 70
     1
102
RTVSPropertyOp38
 70
     1
102
RTVSPropertyOp39
 70
     1
102
RTVSPropertyOp40
 70
     1
102
RTVSPropertyOp41
 70
     1
102
RTVSPropertyOp42
 70
     1
102
RTVSPropertyOp43
 70
     1
102
RTVSPropertyOp44
 70
     1
102
RTVSPropertyOp45
 70
     1
102
RTVSPropertyOp46
 70
     1
102
RTVSPropertyOp47
 70
     1
102
RTVSPropertyOp48
 70
     1
102
RTVSPropertyOp49
 70
     1
102
RTVSPropertyOp50
 70
     1
102
RTVSPropertyOp51
 70
     0
102
RTVSPropertyOp52
 70
     0
102
RTVSPropertyOp53
 70
     1
102
RTVSPropertyOp54
 70
     1
102
RTVSPropertyOp55
 70
     1
102
RTVSPropertyOp56
 70
     1
102
RTVSPropertyOp57
 70
     1
102
RTVSPost2010Prop28
280
     0
102
RTVSPost2010PropOp28
 70
     1
102
RTVSPost2010Prop29
280
     1
102
RTVSPost2010PropOp29
 70
     1
102
RTVSPost2010Prop30
280
     1
102
RTVSPost2010PropOp30
 70
     1
102
RTVSPost2010Prop31
280
     0
102
RTVSPost2010PropOp31
 70
     1
102
RTVSPost2010Prop32
280
     0
102
RTVSPost2010PropOp32
 70
     1
102
RTVSPost2010Prop33
280
     0
102
RTVSPost2010PropOp33
 70
     1
102
RTVSPost2010Prop34
280
     0
102
RTVSPost2010PropOp34
 70
     1
102
RTVSPost2010Prop35
280
     0
102
RTVSPost2010PropOp35
 70
     1
102
RTVSPost2010Prop36
280
     0
102
RTVSPost2010PropOp36
 70
     1
102
RTVSPost2010Prop37
 90
       50
102
RTVSPost2010PropOp37
 70
     1
102
RTVSPost2010Prop38
140
0.0
102
RTVSPost2010PropOp38
 70
     1
102
RTVSPost2010Prop39
140
1.0
102
RTVSPost2010PropOp39
 70
     1
102
RTVSPost2010Prop40
 90
        0
102
RTVSPost2010PropOp40
 70
     1
102
RTVSPost2010Prop41ColorIndex
 90
       18
102
RTVSPost2010Prop41ColorRGB
 90
        0
102
RTVSPost2010PropOp41
 70
     1
102
RTVSPost2010Prop42
 90
       50
102
RTVSPost2010PropOp42
 70
     1
102
RTVSPost2010Prop43
 90
        3
102
RTVSPost2010PropOp43
 70
     1
102
RTVSPost2010Prop44ColorIndex
 90
        5
102
RTVSPost2010Prop44ColorRGB
 90
      255
102
RTVSPost2010PropOp44
 70
     1
102
RTVSPost2010Prop45
280
     0
102
RTVSPost2010PropOp45
 70
     1
102
RTVSPost2010Prop46
 90
       50
102
RTVSPost2010PropOp46
 70
     1
102
RTVSPost2010Prop47
 90
       50
102
RTVSPost2010PropOp47
 70
     1
102
RTVSPost2010Prop48
 90
       50
102
RTVSPost2010PropOp48
 70
     1
102
RTVSPost2010Prop49
280
     0
102
RTVSPost2010PropOp49
 70
     1
102
RTVSPost2010Prop50
 90
       50
102
RTVSPost2010PropOp50
 70
     1
102
RTVSPost2010Prop51ColorIndex
 90
      256
102
RTVSPost2010Prop51ColorRGB
 90
-16777216
102
RTVSPost2010PropOp51
 70
     0
102
RTVSPost2010Prop52
140
1.0
102
RTVSPost2010PropOp52
 70
     0
102
RTVSPost2010Prop53
 90
        2
102
RTVSPost2010PropOp53
 70
     1
102
RTVSPost2010Prop54
  1
strokes_ogs.tif
102
RTVSPost2010PropOp54
 70
     1
102
RTVSPost2010Prop55
280
     0
102
RTVSPost2010PropOp55
 70
     1
102
RTVSPost2010Prop56
140
1.0
102
RTVSPost2010PropOp56
 70
     1
102
RTVSPost2010Prop57
140
1.0
102
RTVSPost2010PropOp57
 70
     1
  0
XRECORD
  5
106AD4D
102
{ACAD_REACTORS
330
106AD4C
102
}
330
106AD4C
100
AcDbXrecord
280
     1
102
RTVSPropertyOp0
 70
     1
102
RTVSPropertyOp1
 70
     1
102
RTVSPropertyOp2
 70
     1
102
RTVSPropertyOp3
 70
     1
102
RTVSPropertyOp4
 70
     1
102
RTVSPropertyOp5
 70
     1
102
RTVSPropertyOp6
 70
     1
102
RTVSPropertyOp7
 70
     1
102
RTVSPropertyOp8
 70
     1
102
RTVSPropertyOp9
 70
     1
102
RTVSPropertyOp10
 70
     1
102
RTVSPropertyOp11
 70
     1
102
RTVSPropertyOp12
 70
     1
102
RTVSPropertyOp13
 70
     1
102
RTVSPropertyOp14
 70
     1
102
RTVSPropertyOp15
 70
     1
102
RTVSPropertyOp16
 70
     1
102
RTVSPropertyOp17
 70
     1
102
RTVSPropertyOp18
 70
     1
102
RTVSPropertyOp19
 70
     1
102
RTVSPropertyOp20
 70
     1
102
RTVSPropertyOp21
 70
     1
102
RTVSPropertyOp22
 70
     1
102
RTVSPropertyOp23
 70
     1
102
RTVSPropertyOp24
 70
     1
102
RTVSPropertyOp25
 70
     1
102
RTVSPropertyOp26
 70
     1
102
RTVSPropertyOp27
 70
     1
102
RTVSPropertyOp28
 70
     1
102
RTVSPropertyOp29
 70
     1
102
RTVSPropertyOp30
 70
     1
102
RTVSPropertyOp31
 70
     1
102
RTVSPropertyOp32
 70
     1
102
RTVSPropertyOp33
 70
     1
102
RTVSPropertyOp34
 70
     1
102
RTVSPropertyOp35
 70
     1
102
RTVSPropertyOp36
 70
     1
102
RTVSPropertyOp37
 70
     1
102
RTVSPropertyOp38
 70
     1
102
RTVSPropertyOp39
 70
     1
102
RTVSPropertyOp40
 70
     1
102
RTVSPropertyOp41
 70
     1
102
RTVSPropertyOp42
 70
     1
102
RTVSPropertyOp43
 70
     1
102
RTVSPropertyOp44
 70
     1
102
RTVSPropertyOp45
 70
     1
102
RTVSPropertyOp46
 70
     1
102
RTVSPropertyOp47
 70
     1
102
RTVSPropertyOp48
 70
     1
102
RTVSPropertyOp49
 70
     1
102
RTVSPropertyOp50
 70
     1
102
RTVSPropertyOp51
 70
     0
102
RTVSPropertyOp52
 70
     0
102
RTVSPropertyOp53
 70
     1
102
RTVSPropertyOp54
 70
     1
102
RTVSPropertyOp55
 70
     1
102
RTVSPropertyOp56
 70
     1
102
RTVSPropertyOp57
 70
     1
102
RTVSPost2010Prop28
280
     0
102
RTVSPost2010PropOp28
 70
     1
102
RTVSPost2010Prop29
280
     1
102
RTVSPost2010PropOp29
 70
     1
102
RTVSPost2010Prop30
280
     1
102
RTVSPost2010PropOp30
 70
     1
102
RTVSPost2010Prop31
280
     0
102
RTVSPost2010PropOp31
 70
     1
102
RTVSPost2010Prop32
280
     0
102
RTVSPost2010PropOp32
 70
     1
102
RTVSPost2010Prop33
280
     0
102
RTVSPost2010PropOp33
 70
     1
102
RTVSPost2010Prop34
280
     0
102
RTVSPost2010PropOp34
 70
     1
102
RTVSPost2010Prop35
280
     0
102
RTVSPost2010PropOp35
 70
     1
102
RTVSPost2010Prop36
280
     0
102
RTVSPost2010PropOp36
 70
     1
102
RTVSPost2010Prop37
 90
       50
102
RTVSPost2010PropOp37
 70
     1
102
RTVSPost2010Prop38
140
0.0
102
RTVSPost2010PropOp38
 70
     1
102
RTVSPost2010Prop39
140
1.0
102
RTVSPost2010PropOp39
 70
     1
102
RTVSPost2010Prop40
 90
        0
102
RTVSPost2010PropOp40
 70
     1
102
RTVSPost2010Prop41ColorIndex
 90
       18
102
RTVSPost2010Prop41ColorRGB
 90
        0
102
RTVSPost2010PropOp41
 70
     1
102
RTVSPost2010Prop42
 90
       50
102
RTVSPost2010PropOp42
 70
     1
102
RTVSPost2010Prop43
 90
        3
102
RTVSPost2010PropOp43
 70
     1
102
RTVSPost2010Prop44ColorIndex
 90
        5
102
RTVSPost2010Prop44ColorRGB
 90
      255
102
RTVSPost2010PropOp44
 70
     1
102
RTVSPost2010Prop45
280
     0
102
RTVSPost2010PropOp45
 70
     1
102
RTVSPost2010Prop46
 90
       50
102
RTVSPost2010PropOp46
 70
     1
102
RTVSPost2010Prop47
 90
       50
102
RTVSPost2010PropOp47
 70
     1
102
RTVSPost2010Prop48
 90
       50
102
RTVSPost2010PropOp48
 70
     1
102
RTVSPost2010Prop49
280
     0
102
RTVSPost2010PropOp49
 70
     1
102
RTVSPost2010Prop50
 90
       50
102
RTVSPost2010PropOp50
 70
     1
102
RTVSPost2010Prop51ColorIndex
 90
      256
102
RTVSPost2010Prop51ColorRGB
 90
-16777216
102
RTVSPost2010PropOp51
 70
     0
102
RTVSPost2010Prop52
140
1.0
102
RTVSPost2010PropOp52
 70
     0
102
RTVSPost2010Prop53
 90
        2
102
RTVSPost2010PropOp53
 70
     1
102
RTVSPost2010Prop54
  1
strokes_ogs.tif
102
RTVSPost2010PropOp54
 70
     1
102
RTVSPost2010Prop55
280
     0
102
RTVSPost2010PropOp55
 70
     1
102
RTVSPost2010Prop56
140
1.0
102
RTVSPost2010PropOp56
 70
     1
102
RTVSPost2010Prop57
140
1.0
102
RTVSPost2010PropOp57
 70
     1
  0
XRECORD
  5
106AD4F
102
{ACAD_REACTORS
330
106AD4E
102
}
330
106AD4E
100
AcDbXrecord
280
     1
102
RTVSPropertyOp0
 70
     1
102
RTVSPropertyOp1
 70
     1
102
RTVSPropertyOp2
 70
     1
102
RTVSPropertyOp3
 70
     1
102
RTVSPropertyOp4
 70
     1
102
RTVSPropertyOp5
 70
     1
102
RTVSPropertyOp6
 70
     1
102
RTVSPropertyOp7
 70
     1
102
RTVSPropertyOp8
 70
     1
102
RTVSPropertyOp9
 70
     1
102
RTVSPropertyOp10
 70
     1
102
RTVSPropertyOp11
 70
     1
102
RTVSPropertyOp12
 70
     1
102
RTVSPropertyOp13
 70
     1
102
RTVSPropertyOp14
 70
     1
102
RTVSPropertyOp15
 70
     1
102
RTVSPropertyOp16
 70
     1
102
RTVSPropertyOp17
 70
     1
102
RTVSPropertyOp18
 70
     1
102
RTVSPropertyOp19
 70
     1
102
RTVSPropertyOp20
 70
     1
102
RTVSPropertyOp21
 70
     1
102
RTVSPropertyOp22
 70
     1
102
RTVSPropertyOp23
 70
     1
102
RTVSPropertyOp24
 70
     1
102
RTVSPropertyOp25
 70
     1
102
RTVSPropertyOp26
 70
     1
102
RTVSPropertyOp27
 70
     1
102
RTVSPropertyOp28
 70
     1
102
RTVSPropertyOp29
 70
     1
102
RTVSPropertyOp30
 70
     1
102
RTVSPropertyOp31
 70
     1
102
RTVSPropertyOp32
 70
     1
102
RTVSPropertyOp33
 70
     1
102
RTVSPropertyOp34
 70
     1
102
RTVSPropertyOp35
 70
     1
102
RTVSPropertyOp36
 70
     1
102
RTVSPropertyOp37
 70
     1
102
RTVSPropertyOp38
 70
     1
102
RTVSPropertyOp39
 70
     1
102
RTVSPropertyOp40
 70
     1
102
RTVSPropertyOp41
 70
     1
102
RTVSPropertyOp42
 70
     1
102
RTVSPropertyOp43
 70
     1
102
RTVSPropertyOp44
 70
     1
102
RTVSPropertyOp45
 70
     1
102
RTVSPropertyOp46
 70
     1
102
RTVSPropertyOp47
 70
     1
102
RTVSPropertyOp48
 70
     1
102
RTVSPropertyOp49
 70
     1
102
RTVSPropertyOp50
 70
     1
102
RTVSPropertyOp51
 70
     0
102
RTVSPropertyOp52
 70
     0
102
RTVSPropertyOp53
 70
     1
102
RTVSPropertyOp54
 70
     1
102
RTVSPropertyOp55
 70
     1
102
RTVSPropertyOp56
 70
     1
102
RTVSPropertyOp57
 70
     1
102
RTVSPost2010Prop28
280
     0
102
RTVSPost2010PropOp28
 70
     1
102
RTVSPost2010Prop29
280
     1
102
RTVSPost2010PropOp29
 70
     1
102
RTVSPost2010Prop30
280
     1
102
RTVSPost2010PropOp30
 70
     1
102
RTVSPost2010Prop31
280
     0
102
RTVSPost2010PropOp31
 70
     1
102
RTVSPost2010Prop32
280
     0
102
RTVSPost2010PropOp32
 70
     1
102
RTVSPost2010Prop33
280
     0
102
RTVSPost2010PropOp33
 70
     1
102
RTVSPost2010Prop34
280
     0
102
RTVSPost2010PropOp34
 70
     1
102
RTVSPost2010Prop35
280
     0
102
RTVSPost2010PropOp35
 70
     1
102
RTVSPost2010Prop36
280
     0
102
RTVSPost2010PropOp36
 70
     1
102
RTVSPost2010Prop37
 90
       50
102
RTVSPost2010PropOp37
 70
     1
102
RTVSPost2010Prop38
140
0.0
102
RTVSPost2010PropOp38
 70
     1
102
RTVSPost2010Prop39
140
1.0
102
RTVSPost2010PropOp39
 70
     1
102
RTVSPost2010Prop40
 90
        0
102
RTVSPost2010PropOp40
 70
     1
102
RTVSPost2010Prop41ColorIndex
 90
       18
102
RTVSPost2010Prop41ColorRGB
 90
        0
102
RTVSPost2010PropOp41
 70
     1
102
RTVSPost2010Prop42
 90
       50
102
RTVSPost2010PropOp42
 70
     1
102
RTVSPost2010Prop43
 90
        3
102
RTVSPost2010PropOp43
 70
     1
102
RTVSPost2010Prop44ColorIndex
 90
        5
102
RTVSPost2010Prop44ColorRGB
 90
      255
102
RTVSPost2010PropOp44
 70
     1
102
RTVSPost2010Prop45
280
     0
102
RTVSPost2010PropOp45
 70
     1
102
RTVSPost2010Prop46
 90
       50
102
RTVSPost2010PropOp46
 70
     1
102
RTVSPost2010Prop47
 90
       50
102
RTVSPost2010PropOp47
 70
     1
102
RTVSPost2010Prop48
 90
       50
102
RTVSPost2010PropOp48
 70
     1
102
RTVSPost2010Prop49
280
     0
102
RTVSPost2010PropOp49
 70
     1
102
RTVSPost2010Prop50
 90
       50
102
RTVSPost2010PropOp50
 70
     1
102
RTVSPost2010Prop51ColorIndex
 90
      256
102
RTVSPost2010Prop51ColorRGB
 90
-16777216
102
RTVSPost2010PropOp51
 70
     0
102
RTVSPost2010Prop52
140
1.0
102
RTVSPost2010PropOp52
 70
     0
102
RTVSPost2010Prop53
 90
        2
102
RTVSPost2010PropOp53
 70
     1
102
RTVSPost2010Prop54
  1
strokes_ogs.tif
102
RTVSPost2010PropOp54
 70
     1
102
RTVSPost2010Prop55
280
     0
102
RTVSPost2010PropOp55
 70
     1
102
RTVSPost2010Prop56
140
1.0
102
RTVSPost2010PropOp56
 70
     1
102
RTVSPost2010Prop57
140
1.0
102
RTVSPost2010PropOp57
 70
     1
  0
XRECORD
  5
106AD51
102
{ACAD_REACTORS
330
106AD50
102
}
330
106AD50
100
AcDbXrecord
280
     1
102
RTVSPropertyOp0
 70
     0
102
RTVSPropertyOp1
 70
     0
102
RTVSPropertyOp2
 70
     0
102
RTVSPropertyOp3
 70
     0
102
RTVSPropertyOp4
 70
     0
102
RTVSPropertyOp5
 70
     0
102
RTVSPropertyOp6
 70
     0
102
RTVSPropertyOp7
 70
     0
102
RTVSPropertyOp8
 70
     0
102
RTVSPropertyOp9
 70
     0
102
RTVSPropertyOp10
 70
     0
102
RTVSPropertyOp11
 70
     0
102
RTVSPropertyOp12
 70
     0
102
RTVSPropertyOp13
 70
     0
102
RTVSPropertyOp14
 70
     2
102
RTVSPropertyOp15
 70
     0
102
RTVSPropertyOp16
 70
     0
102
RTVSPropertyOp17
 70
     0
102
RTVSPropertyOp18
 70
     0
102
RTVSPropertyOp19
 70
     0
102
RTVSPropertyOp20
 70
     0
102
RTVSPropertyOp21
 70
     0
102
RTVSPropertyOp22
 70
     0
102
RTVSPropertyOp23
 70
     0
102
RTVSPropertyOp24
 70
     0
102
RTVSPropertyOp25
 70
     0
102
RTVSPropertyOp26
 70
     0
102
RTVSPropertyOp27
 70
     0
102
RTVSPropertyOp28
 70
     0
102
RTVSPropertyOp29
 70
     0
102
RTVSPropertyOp30
 70
     0
102
RTVSPropertyOp31
 70
     0
102
RTVSPropertyOp32
 70
     0
102
RTVSPropertyOp33
 70
     0
102
RTVSPropertyOp34
 70
     0
102
RTVSPropertyOp35
 70
     0
102
RTVSPropertyOp36
 70
     0
102
RTVSPropertyOp37
 70
     0
102
RTVSPropertyOp38
 70
     0
102
RTVSPropertyOp39
 70
     0
102
RTVSPropertyOp40
 70
     0
102
RTVSPropertyOp41
 70
     0
102
RTVSPropertyOp42
 70
     0
102
RTVSPropertyOp43
 70
     0
102
RTVSPropertyOp44
 70
     0
102
RTVSPropertyOp45
 70
     0
102
RTVSPropertyOp46
 70
     0
102
RTVSPropertyOp47
 70
     0
102
RTVSPropertyOp48
 70
     0
102
RTVSPropertyOp49
 70
     0
102
RTVSPropertyOp50
 70
     0
102
RTVSPropertyOp51
 70
     0
102
RTVSPropertyOp52
 70
     0
102
RTVSPropertyOp53
 70
     0
102
RTVSPropertyOp54
 70
     0
102
RTVSPropertyOp55
 70
     0
102
RTVSPropertyOp56
 70
     0
102
RTVSPropertyOp57
 70
     0
102
RTVSPost2010Prop28
280
     0
102
RTVSPost2010PropOp28
 70
     0
102
RTVSPost2010Prop29
280
     1
102
RTVSPost2010PropOp29
 70
     0
102
RTVSPost2010Prop30
280
     1
102
RTVSPost2010PropOp30
 70
     0
102
RTVSPost2010Prop31
280
     0
102
RTVSPost2010PropOp31
 70
     0
102
RTVSPost2010Prop32
280
     0
102
RTVSPost2010PropOp32
 70
     0
102
RTVSPost2010Prop33
280
     0
102
RTVSPost2010PropOp33
 70
     0
102
RTVSPost2010Prop34
280
     0
102
RTVSPost2010PropOp34
 70
     0
102
RTVSPost2010Prop35
280
     0
102
RTVSPost2010PropOp35
 70
     0
102
RTVSPost2010Prop36
280
     0
102
RTVSPost2010PropOp36
 70
     0
102
RTVSPost2010Prop37
 90
       50
102
RTVSPost2010PropOp37
 70
     0
102
RTVSPost2010Prop38
140
0.0
102
RTVSPost2010PropOp38
 70
     0
102
RTVSPost2010Prop39
140
1.0
102
RTVSPost2010PropOp39
 70
     0
102
RTVSPost2010Prop40
 90
        0
102
RTVSPost2010PropOp40
 70
     0
102
RTVSPost2010Prop41ColorIndex
 90
       18
102
RTVSPost2010Prop41ColorRGB
 90
        0
102
RTVSPost2010PropOp41
 70
     0
102
RTVSPost2010Prop42
 90
       50
102
RTVSPost2010PropOp42
 70
     0
102
RTVSPost2010Prop43
 90
        3
102
RTVSPost2010PropOp43
 70
     0
102
RTVSPost2010Prop44ColorIndex
 90
        5
102
RTVSPost2010Prop44ColorRGB
 90
      255
102
RTVSPost2010PropOp44
 70
     0
102
RTVSPost2010Prop45
280
     0
102
RTVSPost2010PropOp45
 70
     0
102
RTVSPost2010Prop46
 90
       50
102
RTVSPost2010PropOp46
 70
     0
102
RTVSPost2010Prop47
 90
       50
102
RTVSPost2010PropOp47
 70
     0
102
RTVSPost2010Prop48
 90
       50
102
RTVSPost2010PropOp48
 70
     0
102
RTVSPost2010Prop49
280
     0
102
RTVSPost2010PropOp49
 70
     0
102
RTVSPost2010Prop50
 90
       50
102
RTVSPost2010PropOp50
 70
     0
102
RTVSPost2010Prop51ColorIndex
 90
      256
102
RTVSPost2010Prop51ColorRGB
 90
-16777216
102
RTVSPost2010PropOp51
 70
     0
102
RTVSPost2010Prop52
140
1.0
102
RTVSPost2010PropOp52
 70
     0
102
RTVSPost2010Prop53
 90
        2
102
RTVSPost2010PropOp53
 70
     0
102
RTVSPost2010Prop54
  1
strokes_ogs.tif
102
RTVSPost2010PropOp54
 70
     0
102
RTVSPost2010Prop55
280
     0
102
RTVSPost2010PropOp55
 70
     0
102
RTVSPost2010Prop56
140
1.0
102
RTVSPost2010PropOp56
 70
     0
102
RTVSPost2010Prop57
140
1.0
102
RTVSPost2010PropOp57
 70
     0
  0
XRECORD
  5
106AD53
102
{ACAD_REACTORS
330
106AD52
102
}
330
106AD52
100
AcDbXrecord
280
     1
102
RTVSPropertyOp0
 70
     1
102
RTVSPropertyOp1
 70
     1
102
RTVSPropertyOp2
 70
     1
102
RTVSPropertyOp3
 70
     1
102
RTVSPropertyOp4
 70
     1
102
RTVSPropertyOp5
 70
     1
102
RTVSPropertyOp6
 70
     1
102
RTVSPropertyOp7
 70
     1
102
RTVSPropertyOp8
 70
     1
102
RTVSPropertyOp9
 70
     1
102
RTVSPropertyOp10
 70
     1
102
RTVSPropertyOp11
 70
     1
102
RTVSPropertyOp12
 70
     1
102
RTVSPropertyOp13
 70
     1
102
RTVSPropertyOp14
 70
     1
102
RTVSPropertyOp15
 70
     1
102
RTVSPropertyOp16
 70
     1
102
RTVSPropertyOp17
 70
     1
102
RTVSPropertyOp18
 70
     1
102
RTVSPropertyOp19
 70
     1
102
RTVSPropertyOp20
 70
     1
102
RTVSPropertyOp21
 70
     1
102
RTVSPropertyOp22
 70
     1
102
RTVSPropertyOp23
 70
     1
102
RTVSPropertyOp24
 70
     1
102
RTVSPropertyOp25
 70
     1
102
RTVSPropertyOp26
 70
     1
102
RTVSPropertyOp27
 70
     1
102
RTVSPropertyOp28
 70
     1
102
RTVSPropertyOp29
 70
     1
102
RTVSPropertyOp30
 70
     1
102
RTVSPropertyOp31
 70
     1
102
RTVSPropertyOp32
 70
     1
102
RTVSPropertyOp33
 70
     1
102
RTVSPropertyOp34
 70
     1
102
RTVSPropertyOp35
 70
     1
102
RTVSPropertyOp36
 70
     1
102
RTVSPropertyOp37
 70
     1
102
RTVSPropertyOp38
 70
     1
102
RTVSPropertyOp39
 70
     1
102
RTVSPropertyOp40
 70
     1
102
RTVSPropertyOp41
 70
     1
102
RTVSPropertyOp42
 70
     1
102
RTVSPropertyOp43
 70
     1
102
RTVSPropertyOp44
 70
     1
102
RTVSPropertyOp45
 70
     1
102
RTVSPropertyOp46
 70
     1
102
RTVSPropertyOp47
 70
     1
102
RTVSPropertyOp48
 70
     1
102
RTVSPropertyOp49
 70
     1
102
RTVSPropertyOp50
 70
     1
102
RTVSPropertyOp51
 70
     0
102
RTVSPropertyOp52
 70
     0
102
RTVSPropertyOp53
 70
     1
102
RTVSPropertyOp54
 70
     1
102
RTVSPropertyOp55
 70
     1
102
RTVSPropertyOp56
 70
     1
102
RTVSPropertyOp57
 70
     1
102
RTVSPost2010Prop28
280
     0
102
RTVSPost2010PropOp28
 70
     1
102
RTVSPost2010Prop29
280
     1
102
RTVSPost2010PropOp29
 70
     1
102
RTVSPost2010Prop30
280
     1
102
RTVSPost2010PropOp30
 70
     1
102
RTVSPost2010Prop31
280
     0
102
RTVSPost2010PropOp31
 70
     1
102
RTVSPost2010Prop32
280
     0
102
RTVSPost2010PropOp32
 70
     1
102
RTVSPost2010Prop33
280
     0
102
RTVSPost2010PropOp33
 70
     1
102
RTVSPost2010Prop34
280
     0
102
RTVSPost2010PropOp34
 70
     1
102
RTVSPost2010Prop35
280
     0
102
RTVSPost2010PropOp35
 70
     1
102
RTVSPost2010Prop36
280
     0
102
RTVSPost2010PropOp36
 70
     1
102
RTVSPost2010Prop37
 90
       50
102
RTVSPost2010PropOp37
 70
     1
102
RTVSPost2010Prop38
140
0.0
102
RTVSPost2010PropOp38
 70
     1
102
RTVSPost2010Prop39
140
1.0
102
RTVSPost2010PropOp39
 70
     1
102
RTVSPost2010Prop40
 90
        0
102
RTVSPost2010PropOp40
 70
     1
102
RTVSPost2010Prop41ColorIndex
 90
       18
102
RTVSPost2010Prop41ColorRGB
 90
        0
102
RTVSPost2010PropOp41
 70
     1
102
RTVSPost2010Prop42
 90
       50
102
RTVSPost2010PropOp42
 70
     1
102
RTVSPost2010Prop43
 90
        3
102
RTVSPost2010PropOp43
 70
     1
102
RTVSPost2010Prop44ColorIndex
 90
        5
102
RTVSPost2010Prop44ColorRGB
 90
      255
102
RTVSPost2010PropOp44
 70
     1
102
RTVSPost2010Prop45
280
     0
102
RTVSPost2010PropOp45
 70
     1
102
RTVSPost2010Prop46
 90
       50
102
RTVSPost2010PropOp46
 70
     1
102
RTVSPost2010Prop47
 90
       50
102
RTVSPost2010PropOp47
 70
     1
102
RTVSPost2010Prop48
 90
       50
102
RTVSPost2010PropOp48
 70
     1
102
RTVSPost2010Prop49
280
     0
102
RTVSPost2010PropOp49
 70
     1
102
RTVSPost2010Prop50
 90
       50
102
RTVSPost2010PropOp50
 70
     1
102
RTVSPost2010Prop51ColorIndex
 90
      256
102
RTVSPost2010Prop51ColorRGB
 90
-16777216
102
RTVSPost2010PropOp51
 70
     0
102
RTVSPost2010Prop52
140
1.0
102
RTVSPost2010PropOp52
 70
     0
102
RTVSPost2010Prop53
 90
        2
102
RTVSPost2010PropOp53
 70
     1
102
RTVSPost2010Prop54
  1
strokes_ogs.tif
102
RTVSPost2010PropOp54
 70
     1
102
RTVSPost2010Prop55
280
     0
102
RTVSPost2010PropOp55
 70
     1
102
RTVSPost2010Prop56
140
1.0
102
RTVSPost2010PropOp56
 70
     1
102
RTVSPost2010Prop57
140
1.0
102
RTVSPost2010PropOp57
 70
     1
  0
XRECORD
  5
106AD55
102
{ACAD_REACTORS
330
106AD54
102
}
330
106AD54
100
AcDbXrecord
280
     1
102
RTVSPropertyOp0
 70
     0
102
RTVSPropertyOp1
 70
     0
102
RTVSPropertyOp2
 70
     0
102
RTVSPropertyOp3
 70
     0
102
RTVSPropertyOp4
 70
     0
102
RTVSPropertyOp5
 70
     0
102
RTVSPropertyOp6
 70
     0
102
RTVSPropertyOp7
 70
     0
102
RTVSPropertyOp8
 70
     0
102
RTVSPropertyOp9
 70
     0
102
RTVSPropertyOp10
 70
     0
102
RTVSPropertyOp11
 70
     0
102
RTVSPropertyOp12
 70
     0
102
RTVSPropertyOp13
 70
     0
102
RTVSPropertyOp14
 70
     2
102
RTVSPropertyOp15
 70
     0
102
RTVSPropertyOp16
 70
     0
102
RTVSPropertyOp17
 70
     0
102
RTVSPropertyOp18
 70
     0
102
RTVSPropertyOp19
 70
     0
102
RTVSPropertyOp20
 70
     0
102
RTVSPropertyOp21
 70
     0
102
RTVSPropertyOp22
 70
     0
102
RTVSPropertyOp23
 70
     0
102
RTVSPropertyOp24
 70
     0
102
RTVSPropertyOp25
 70
     0
102
RTVSPropertyOp26
 70
     0
102
RTVSPropertyOp27
 70
     0
102
RTVSPropertyOp28
 70
     0
102
RTVSPropertyOp29
 70
     0
102
RTVSPropertyOp30
 70
     0
102
RTVSPropertyOp31
 70
     0
102
RTVSPropertyOp32
 70
     0
102
RTVSPropertyOp33
 70
     0
102
RTVSPropertyOp34
 70
     0
102
RTVSPropertyOp35
 70
     0
102
RTVSPropertyOp36
 70
     0
102
RTVSPropertyOp37
 70
     0
102
RTVSPropertyOp38
 70
     0
102
RTVSPropertyOp39
 70
     0
102
RTVSPropertyOp40
 70
     0
102
RTVSPropertyOp41
 70
     0
102
RTVSPropertyOp42
 70
     0
102
RTVSPropertyOp43
 70
     0
102
RTVSPropertyOp44
 70
     0
102
RTVSPropertyOp45
 70
     0
102
RTVSPropertyOp46
 70
     0
102
RTVSPropertyOp47
 70
     0
102
RTVSPropertyOp48
 70
     0
102
RTVSPropertyOp49
 70
     0
102
RTVSPropertyOp50
 70
     0
102
RTVSPropertyOp51
 70
     0
102
RTVSPropertyOp52
 70
     0
102
RTVSPropertyOp53
 70
     0
102
RTVSPropertyOp54
 70
     0
102
RTVSPropertyOp55
 70
     0
102
RTVSPropertyOp56
 70
     0
102
RTVSPropertyOp57
 70
     0
102
RTVSPost2010Prop28
280
     0
102
RTVSPost2010PropOp28
 70
     0
102
RTVSPost2010Prop29
280
     1
102
RTVSPost2010PropOp29
 70
     0
102
RTVSPost2010Prop30
280
     1
102
RTVSPost2010PropOp30
 70
     0
102
RTVSPost2010Prop31
280
     0
102
RTVSPost2010PropOp31
 70
     0
102
RTVSPost2010Prop32
280
     0
102
RTVSPost2010PropOp32
 70
     0
102
RTVSPost2010Prop33
280
     0
102
RTVSPost2010PropOp33
 70
     0
102
RTVSPost2010Prop34
280
     0
102
RTVSPost2010PropOp34
 70
     0
102
RTVSPost2010Prop35
280
     0
102
RTVSPost2010PropOp35
 70
     0
102
RTVSPost2010Prop36
280
     0
102
RTVSPost2010PropOp36
 70
     0
102
RTVSPost2010Prop37
 90
       50
102
RTVSPost2010PropOp37
 70
     0
102
RTVSPost2010Prop38
140
0.0
102
RTVSPost2010PropOp38
 70
     0
102
RTVSPost2010Prop39
140
1.0
102
RTVSPost2010PropOp39
 70
     0
102
RTVSPost2010Prop40
 90
        0
102
RTVSPost2010PropOp40
 70
     0
102
RTVSPost2010Prop41ColorIndex
 90
       18
102
RTVSPost2010Prop41ColorRGB
 90
        0
102
RTVSPost2010PropOp41
 70
     0
102
RTVSPost2010Prop42
 90
       50
102
RTVSPost2010PropOp42
 70
     0
102
RTVSPost2010Prop43
 90
        3
102
RTVSPost2010PropOp43
 70
     0
102
RTVSPost2010Prop44ColorIndex
 90
        5
102
RTVSPost2010Prop44ColorRGB
 90
      255
102
RTVSPost2010PropOp44
 70
     0
102
RTVSPost2010Prop45
280
     0
102
RTVSPost2010PropOp45
 70
     0
102
RTVSPost2010Prop46
 90
       50
102
RTVSPost2010PropOp46
 70
     0
102
RTVSPost2010Prop47
 90
       50
102
RTVSPost2010PropOp47
 70
     0
102
RTVSPost2010Prop48
 90
       50
102
RTVSPost2010PropOp48
 70
     0
102
RTVSPost2010Prop49
280
     0
102
RTVSPost2010PropOp49
 70
     0
102
RTVSPost2010Prop50
 90
       50
102
RTVSPost2010PropOp50
 70
     0
102
RTVSPost2010Prop51ColorIndex
 90
      256
102
RTVSPost2010Prop51ColorRGB
 90
-16777216
102
RTVSPost2010PropOp51
 70
     0
102
RTVSPost2010Prop52
140
1.0
102
RTVSPost2010PropOp52
 70
     0
102
RTVSPost2010Prop53
 90
        2
102
RTVSPost2010PropOp53
 70
     0
102
RTVSPost2010Prop54
  1
strokes_ogs.tif
102
RTVSPost2010PropOp54
 70
     0
102
RTVSPost2010Prop55
280
     0
102
RTVSPost2010PropOp55
 70
     0
102
RTVSPost2010Prop56
140
1.0
102
RTVSPost2010PropOp56
 70
     0
102
RTVSPost2010Prop57
140
1.0
102
RTVSPost2010PropOp57
 70
     0
  0
XRECORD
  5
106AD57
102
{ACAD_REACTORS
330
106AD56
102
}
330
106AD56
100
AcDbXrecord
280
     1
102
RTVSPropertyOp0
 70
     1
102
RTVSPropertyOp1
 70
     1
102
RTVSPropertyOp2
 70
     1
102
RTVSPropertyOp3
 70
     1
102
RTVSPropertyOp4
 70
     1
102
RTVSPropertyOp5
 70
     1
102
RTVSPropertyOp6
 70
     1
102
RTVSPropertyOp7
 70
     1
102
RTVSPropertyOp8
 70
     1
102
RTVSPropertyOp9
 70
     1
102
RTVSPropertyOp10
 70
     1
102
RTVSPropertyOp11
 70
     1
102
RTVSPropertyOp12
 70
     1
102
RTVSPropertyOp13
 70
     1
102
RTVSPropertyOp14
 70
     1
102
RTVSPropertyOp15
 70
     1
102
RTVSPropertyOp16
 70
     1
102
RTVSPropertyOp17
 70
     1
102
RTVSPropertyOp18
 70
     1
102
RTVSPropertyOp19
 70
     1
102
RTVSPropertyOp20
 70
     1
102
RTVSPropertyOp21
 70
     1
102
RTVSPropertyOp22
 70
     1
102
RTVSPropertyOp23
 70
     1
102
RTVSPropertyOp24
 70
     1
102
RTVSPropertyOp25
 70
     1
102
RTVSPropertyOp26
 70
     1
102
RTVSPropertyOp27
 70
     1
102
RTVSPropertyOp28
 70
     1
102
RTVSPropertyOp29
 70
     1
102
RTVSPropertyOp30
 70
     1
102
RTVSPropertyOp31
 70
     1
102
RTVSPropertyOp32
 70
     1
102
RTVSPropertyOp33
 70
     1
102
RTVSPropertyOp34
 70
     1
102
RTVSPropertyOp35
 70
     1
102
RTVSPropertyOp36
 70
     1
102
RTVSPropertyOp37
 70
     1
102
RTVSPropertyOp38
 70
     1
102
RTVSPropertyOp39
 70
     1
102
RTVSPropertyOp40
 70
     1
102
RTVSPropertyOp41
 70
     1
102
RTVSPropertyOp42
 70
     1
102
RTVSPropertyOp43
 70
     1
102
RTVSPropertyOp44
 70
     1
102
RTVSPropertyOp45
 70
     1
102
RTVSPropertyOp46
 70
     1
102
RTVSPropertyOp47
 70
     1
102
RTVSPropertyOp48
 70
     1
102
RTVSPropertyOp49
 70
     1
102
RTVSPropertyOp50
 70
     1
102
RTVSPropertyOp51
 70
     0
102
RTVSPropertyOp52
 70
     0
102
RTVSPropertyOp53
 70
     1
102
RTVSPropertyOp54
 70
     1
102
RTVSPropertyOp55
 70
     1
102
RTVSPropertyOp56
 70
     1
102
RTVSPropertyOp57
 70
     1
102
RTVSPost2010Prop28
280
     0
102
RTVSPost2010PropOp28
 70
     1
102
RTVSPost2010Prop29
280
     1
102
RTVSPost2010PropOp29
 70
     1
102
RTVSPost2010Prop30
280
     1
102
RTVSPost2010PropOp30
 70
     1
102
RTVSPost2010Prop31
280
     0
102
RTVSPost2010PropOp31
 70
     1
102
RTVSPost2010Prop32
280
     0
102
RTVSPost2010PropOp32
 70
     1
102
RTVSPost2010Prop33
280
     0
102
RTVSPost2010PropOp33
 70
     1
102
RTVSPost2010Prop34
280
     0
102
RTVSPost2010PropOp34
 70
     1
102
RTVSPost2010Prop35
280
     0
102
RTVSPost2010PropOp35
 70
     1
102
RTVSPost2010Prop36
280
     0
102
RTVSPost2010PropOp36
 70
     1
102
RTVSPost2010Prop37
 90
       50
102
RTVSPost2010PropOp37
 70
     1
102
RTVSPost2010Prop38
140
0.0
102
RTVSPost2010PropOp38
 70
     1
102
RTVSPost2010Prop39
140
1.0
102
RTVSPost2010PropOp39
 70
     1
102
RTVSPost2010Prop40
 90
        0
102
RTVSPost2010PropOp40
 70
     1
102
RTVSPost2010Prop41ColorIndex
 90
       18
102
RTVSPost2010Prop41ColorRGB
 90
        0
102
RTVSPost2010PropOp41
 70
     1
102
RTVSPost2010Prop42
 90
       50
102
RTVSPost2010PropOp42
 70
     1
102
RTVSPost2010Prop43
 90
        3
102
RTVSPost2010PropOp43
 70
     1
102
RTVSPost2010Prop44ColorIndex
 90
        5
102
RTVSPost2010Prop44ColorRGB
 90
      255
102
RTVSPost2010PropOp44
 70
     1
102
RTVSPost2010Prop45
280
     0
102
RTVSPost2010PropOp45
 70
     1
102
RTVSPost2010Prop46
 90
       50
102
RTVSPost2010PropOp46
 70
     1
102
RTVSPost2010Prop47
 90
       50
102
RTVSPost2010PropOp47
 70
     1
102
RTVSPost2010Prop48
 90
       50
102
RTVSPost2010PropOp48
 70
     1
102
RTVSPost2010Prop49
280
     0
102
RTVSPost2010PropOp49
 70
     1
102
RTVSPost2010Prop50
 90
       50
102
RTVSPost2010PropOp50
 70
     1
102
RTVSPost2010Prop51ColorIndex
 90
      256
102
RTVSPost2010Prop51ColorRGB
 90
-16777216
102
RTVSPost2010PropOp51
 70
     0
102
RTVSPost2010Prop52
140
1.0
102
RTVSPost2010PropOp52
 70
     0
102
RTVSPost2010Prop53
 90
        2
102
RTVSPost2010PropOp53
 70
     1
102
RTVSPost2010Prop54
  1
strokes_ogs.tif
102
RTVSPost2010PropOp54
 70
     1
102
RTVSPost2010Prop55
280
     0
102
RTVSPost2010PropOp55
 70
     1
102
RTVSPost2010Prop56
140
1.0
102
RTVSPost2010PropOp56
 70
     1
102
RTVSPost2010Prop57
140
1.0
102
RTVSPost2010PropOp57
 70
     1
  0
XRECORD
  5
106AD59
102
{ACAD_REACTORS
330
106AD58
102
}
330
106AD58
100
AcDbXrecord
280
     1
102
RTVSPropertyOp0
 70
     1
102
RTVSPropertyOp1
 70
     1
102
RTVSPropertyOp2
 70
     1
102
RTVSPropertyOp3
 70
     1
102
RTVSPropertyOp4
 70
     1
102
RTVSPropertyOp5
 70
     1
102
RTVSPropertyOp6
 70
     1
102
RTVSPropertyOp7
 70
     1
102
RTVSPropertyOp8
 70
     1
102
RTVSPropertyOp9
 70
     1
102
RTVSPropertyOp10
 70
     1
102
RTVSPropertyOp11
 70
     1
102
RTVSPropertyOp12
 70
     1
102
RTVSPropertyOp13
 70
     1
102
RTVSPropertyOp14
 70
     1
102
RTVSPropertyOp15
 70
     1
102
RTVSPropertyOp16
 70
     1
102
RTVSPropertyOp17
 70
     1
102
RTVSPropertyOp18
 70
     1
102
RTVSPropertyOp19
 70
     1
102
RTVSPropertyOp20
 70
     1
102
RTVSPropertyOp21
 70
     1
102
RTVSPropertyOp22
 70
     1
102
RTVSPropertyOp23
 70
     1
102
RTVSPropertyOp24
 70
     1
102
RTVSPropertyOp25
 70
     1
102
RTVSPropertyOp26
 70
     1
102
RTVSPropertyOp27
 70
     1
102
RTVSPropertyOp28
 70
     1
102
RTVSPropertyOp29
 70
     1
102
RTVSPropertyOp30
 70
     1
102
RTVSPropertyOp31
 70
     1
102
RTVSPropertyOp32
 70
     1
102
RTVSPropertyOp33
 70
     1
102
RTVSPropertyOp34
 70
     1
102
RTVSPropertyOp35
 70
     1
102
RTVSPropertyOp36
 70
     1
102
RTVSPropertyOp37
 70
     1
102
RTVSPropertyOp38
 70
     1
102
RTVSPropertyOp39
 70
     1
102
RTVSPropertyOp40
 70
     1
102
RTVSPropertyOp41
 70
     1
102
RTVSPropertyOp42
 70
     1
102
RTVSPropertyOp43
 70
     1
102
RTVSPropertyOp44
 70
     1
102
RTVSPropertyOp45
 70
     1
102
RTVSPropertyOp46
 70
     1
102
RTVSPropertyOp47
 70
     1
102
RTVSPropertyOp48
 70
     1
102
RTVSPropertyOp49
 70
     1
102
RTVSPropertyOp50
 70
     1
102
RTVSPropertyOp51
 70
     0
102
RTVSPropertyOp52
 70
     0
102
RTVSPropertyOp53
 70
     1
102
RTVSPropertyOp54
 70
     1
102
RTVSPropertyOp55
 70
     1
102
RTVSPropertyOp56
 70
     1
102
RTVSPropertyOp57
 70
     1
102
RTVSPost2010Prop28
280
     0
102
RTVSPost2010PropOp28
 70
     1
102
RTVSPost2010Prop29
280
     1
102
RTVSPost2010PropOp29
 70
     1
102
RTVSPost2010Prop30
280
     1
102
RTVSPost2010PropOp30
 70
     1
102
RTVSPost2010Prop31
280
     0
102
RTVSPost2010PropOp31
 70
     1
102
RTVSPost2010Prop32
280
     0
102
RTVSPost2010PropOp32
 70
     1
102
RTVSPost2010Prop33
280
     0
102
RTVSPost2010PropOp33
 70
     1
102
RTVSPost2010Prop34
280
     0
102
RTVSPost2010PropOp34
 70
     1
102
RTVSPost2010Prop35
280
     0
102
RTVSPost2010PropOp35
 70
     1
102
RTVSPost2010Prop36
280
     0
102
RTVSPost2010PropOp36
 70
     1
102
RTVSPost2010Prop37
 90
       50
102
RTVSPost2010PropOp37
 70
     1
102
RTVSPost2010Prop38
140
0.0
102
RTVSPost2010PropOp38
 70
     1
102
RTVSPost2010Prop39
140
1.0
102
RTVSPost2010PropOp39
 70
     1
102
RTVSPost2010Prop40
 90
        0
102
RTVSPost2010PropOp40
 70
     1
102
RTVSPost2010Prop41ColorIndex
 90
       18
102
RTVSPost2010Prop41ColorRGB
 90
        0
102
RTVSPost2010PropOp41
 70
     1
102
RTVSPost2010Prop42
 90
       50
102
RTVSPost2010PropOp42
 70
     1
102
RTVSPost2010Prop43
 90
        3
102
RTVSPost2010PropOp43
 70
     1
102
RTVSPost2010Prop44ColorIndex
 90
        5
102
RTVSPost2010Prop44ColorRGB
 90
      255
102
RTVSPost2010PropOp44
 70
     1
102
RTVSPost2010Prop45
280
     0
102
RTVSPost2010PropOp45
 70
     1
102
RTVSPost2010Prop46
 90
       50
102
RTVSPost2010PropOp46
 70
     1
102
RTVSPost2010Prop47
 90
       50
102
RTVSPost2010PropOp47
 70
     1
102
RTVSPost2010Prop48
 90
       50
102
RTVSPost2010PropOp48
 70
     1
102
RTVSPost2010Prop49
280
     0
102
RTVSPost2010PropOp49
 70
     1
102
RTVSPost2010Prop50
 90
       50
102
RTVSPost2010PropOp50
 70
     1
102
RTVSPost2010Prop51ColorIndex
 90
      256
102
RTVSPost2010Prop51ColorRGB
 90
-16777216
102
RTVSPost2010PropOp51
 70
     0
102
RTVSPost2010Prop52
140
1.0
102
RTVSPost2010PropOp52
 70
     0
102
RTVSPost2010Prop53
 90
        2
102
RTVSPost2010PropOp53
 70
     1
102
RTVSPost2010Prop54
  1
strokes_ogs.tif
102
RTVSPost2010PropOp54
 70
     1
102
RTVSPost2010Prop55
280
     0
102
RTVSPost2010PropOp55
 70
     1
102
RTVSPost2010Prop56
140
1.0
102
RTVSPost2010PropOp56
 70
     1
102
RTVSPost2010Prop57
140
1.0
102
RTVSPost2010PropOp57
 70
     1
  0
XRECORD
  5
106AD5B
102
{ACAD_REACTORS
330
106AD5A
102
}
330
106AD5A
100
AcDbXrecord
280
     1
102
RTVSPropertyOp0
 70
     1
102
RTVSPropertyOp1
 70
     1
102
RTVSPropertyOp2
 70
     1
102
RTVSPropertyOp3
 70
     1
102
RTVSPropertyOp4
 70
     1
102
RTVSPropertyOp5
 70
     1
102
RTVSPropertyOp6
 70
     1
102
RTVSPropertyOp7
 70
     1
102
RTVSPropertyOp8
 70
     1
102
RTVSPropertyOp9
 70
     1
102
RTVSPropertyOp10
 70
     1
102
RTVSPropertyOp11
 70
     1
102
RTVSPropertyOp12
 70
     1
102
RTVSPropertyOp13
 70
     1
102
RTVSPropertyOp14
 70
     1
102
RTVSPropertyOp15
 70
     1
102
RTVSPropertyOp16
 70
     1
102
RTVSPropertyOp17
 70
     1
102
RTVSPropertyOp18
 70
     1
102
RTVSPropertyOp19
 70
     1
102
RTVSPropertyOp20
 70
     1
102
RTVSPropertyOp21
 70
     1
102
RTVSPropertyOp22
 70
     1
102
RTVSPropertyOp23
 70
     1
102
RTVSPropertyOp24
 70
     1
102
RTVSPropertyOp25
 70
     1
102
RTVSPropertyOp26
 70
     1
102
RTVSPropertyOp27
 70
     1
102
RTVSPropertyOp28
 70
     1
102
RTVSPropertyOp29
 70
     1
102
RTVSPropertyOp30
 70
     1
102
RTVSPropertyOp31
 70
     1
102
RTVSPropertyOp32
 70
     1
102
RTVSPropertyOp33
 70
     1
102
RTVSPropertyOp34
 70
     1
102
RTVSPropertyOp35
 70
     1
102
RTVSPropertyOp36
 70
     1
102
RTVSPropertyOp37
 70
     1
102
RTVSPropertyOp38
 70
     1
102
RTVSPropertyOp39
 70
     1
102
RTVSPropertyOp40
 70
     1
102
RTVSPropertyOp41
 70
     1
102
RTVSPropertyOp42
 70
     1
102
RTVSPropertyOp43
 70
     1
102
RTVSPropertyOp44
 70
     1
102
RTVSPropertyOp45
 70
     1
102
RTVSPropertyOp46
 70
     1
102
RTVSPropertyOp47
 70
     1
102
RTVSPropertyOp48
 70
     1
102
RTVSPropertyOp49
 70
     1
102
RTVSPropertyOp50
 70
     1
102
RTVSPropertyOp51
 70
     0
102
RTVSPropertyOp52
 70
     0
102
RTVSPropertyOp53
 70
     1
102
RTVSPropertyOp54
 70
     1
102
RTVSPropertyOp55
 70
     1
102
RTVSPropertyOp56
 70
     1
102
RTVSPropertyOp57
 70
     1
102
RTVSPost2010Prop28
280
     0
102
RTVSPost2010PropOp28
 70
     1
102
RTVSPost2010Prop29
280
     1
102
RTVSPost2010PropOp29
 70
     1
102
RTVSPost2010Prop30
280
     1
102
RTVSPost2010PropOp30
 70
     1
102
RTVSPost2010Prop31
280
     0
102
RTVSPost2010PropOp31
 70
     1
102
RTVSPost2010Prop32
280
     0
102
RTVSPost2010PropOp32
 70
     1
102
RTVSPost2010Prop33
280
     0
102
RTVSPost2010PropOp33
 70
     1
102
RTVSPost2010Prop34
280
     0
102
RTVSPost2010PropOp34
 70
     1
102
RTVSPost2010Prop35
280
     0
102
RTVSPost2010PropOp35
 70
     1
102
RTVSPost2010Prop36
280
     0
102
RTVSPost2010PropOp36
 70
     1
102
RTVSPost2010Prop37
 90
       50
102
RTVSPost2010PropOp37
 70
     1
102
RTVSPost2010Prop38
140
0.0
102
RTVSPost2010PropOp38
 70
     1
102
RTVSPost2010Prop39
140
1.0
102
RTVSPost2010PropOp39
 70
     1
102
RTVSPost2010Prop40
 90
        0
102
RTVSPost2010PropOp40
 70
     1
102
RTVSPost2010Prop41ColorIndex
 90
       18
102
RTVSPost2010Prop41ColorRGB
 90
        0
102
RTVSPost2010PropOp41
 70
     1
102
RTVSPost2010Prop42
 90
       50
102
RTVSPost2010PropOp42
 70
     1
102
RTVSPost2010Prop43
 90
        3
102
RTVSPost2010PropOp43
 70
     1
102
RTVSPost2010Prop44ColorIndex
 90
        5
102
RTVSPost2010Prop44ColorRGB
 90
      255
102
RTVSPost2010PropOp44
 70
     1
102
RTVSPost2010Prop45
280
     0
102
RTVSPost2010PropOp45
 70
     1
102
RTVSPost2010Prop46
 90
       50
102
RTVSPost2010PropOp46
 70
     1
102
RTVSPost2010Prop47
 90
       50
102
RTVSPost2010PropOp47
 70
     1
102
RTVSPost2010Prop48
 90
       50
102
RTVSPost2010PropOp48
 70
     1
102
RTVSPost2010Prop49
280
     0
102
RTVSPost2010PropOp49
 70
     1
102
RTVSPost2010Prop50
 90
       50
102
RTVSPost2010PropOp50
 70
     1
102
RTVSPost2010Prop51ColorIndex
 90
      256
102
RTVSPost2010Prop51ColorRGB
 90
-16777216
102
RTVSPost2010PropOp51
 70
     0
102
RTVSPost2010Prop52
140
1.0
102
RTVSPost2010PropOp52
 70
     0
102
RTVSPost2010Prop53
 90
        2
102
RTVSPost2010PropOp53
 70
     1
102
RTVSPost2010Prop54
  1
strokes_ogs.tif
102
RTVSPost2010PropOp54
 70
     1
102
RTVSPost2010Prop55
280
     0
102
RTVSPost2010PropOp55
 70
     1
102
RTVSPost2010Prop56
140
1.0
102
RTVSPost2010PropOp56
 70
     1
102
RTVSPost2010Prop57
140
1.0
102
RTVSPost2010PropOp57
 70
     1
  0
XRECORD
  5
106AD5D
102
{ACAD_REACTORS
330
106AD5C
102
}
330
106AD5C
100
AcDbXrecord
280
     1
102
RTVSPropertyOp0
 70
     1
102
RTVSPropertyOp1
 70
     1
102
RTVSPropertyOp2
 70
     1
102
RTVSPropertyOp3
 70
     1
102
RTVSPropertyOp4
 70
     1
102
RTVSPropertyOp5
 70
     1
102
RTVSPropertyOp6
 70
     1
102
RTVSPropertyOp7
 70
     1
102
RTVSPropertyOp8
 70
     1
102
RTVSPropertyOp9
 70
     1
102
RTVSPropertyOp10
 70
     1
102
RTVSPropertyOp11
 70
     1
102
RTVSPropertyOp12
 70
     1
102
RTVSPropertyOp13
 70
     1
102
RTVSPropertyOp14
 70
     1
102
RTVSPropertyOp15
 70
     1
102
RTVSPropertyOp16
 70
     1
102
RTVSPropertyOp17
 70
     1
102
RTVSPropertyOp18
 70
     1
102
RTVSPropertyOp19
 70
     1
102
RTVSPropertyOp20
 70
     1
102
RTVSPropertyOp21
 70
     1
102
RTVSPropertyOp22
 70
     1
102
RTVSPropertyOp23
 70
     1
102
RTVSPropertyOp24
 70
     1
102
RTVSPropertyOp25
 70
     1
102
RTVSPropertyOp26
 70
     1
102
RTVSPropertyOp27
 70
     1
102
RTVSPropertyOp28
 70
     1
102
RTVSPropertyOp29
 70
     1
102
RTVSPropertyOp30
 70
     1
102
RTVSPropertyOp31
 70
     1
102
RTVSPropertyOp32
 70
     1
102
RTVSPropertyOp33
 70
     1
102
RTVSPropertyOp34
 70
     1
102
RTVSPropertyOp35
 70
     1
102
RTVSPropertyOp36
 70
     1
102
RTVSPropertyOp37
 70
     1
102
RTVSPropertyOp38
 70
     1
102
RTVSPropertyOp39
 70
     1
102
RTVSPropertyOp40
 70
     1
102
RTVSPropertyOp41
 70
     1
102
RTVSPropertyOp42
 70
     1
102
RTVSPropertyOp43
 70
     1
102
RTVSPropertyOp44
 70
     1
102
RTVSPropertyOp45
 70
     1
102
RTVSPropertyOp46
 70
     1
102
RTVSPropertyOp47
 70
     1
102
RTVSPropertyOp48
 70
     1
102
RTVSPropertyOp49
 70
     1
102
RTVSPropertyOp50
 70
     1
102
RTVSPropertyOp51
 70
     0
102
RTVSPropertyOp52
 70
     0
102
RTVSPropertyOp53
 70
     1
102
RTVSPropertyOp54
 70
     1
102
RTVSPropertyOp55
 70
     1
102
RTVSPropertyOp56
 70
     1
102
RTVSPropertyOp57
 70
     1
102
RTVSPost2010Prop28
280
     0
102
RTVSPost2010PropOp28
 70
     1
102
RTVSPost2010Prop29
280
     1
102
RTVSPost2010PropOp29
 70
     1
102
RTVSPost2010Prop30
280
     1
102
RTVSPost2010PropOp30
 70
     1
102
RTVSPost2010Prop31
280
     0
102
RTVSPost2010PropOp31
 70
     1
102
RTVSPost2010Prop32
280
     0
102
RTVSPost2010PropOp32
 70
     1
102
RTVSPost2010Prop33
280
     0
102
RTVSPost2010PropOp33
 70
     1
102
RTVSPost2010Prop34
280
     0
102
RTVSPost2010PropOp34
 70
     1
102
RTVSPost2010Prop35
280
     0
102
RTVSPost2010PropOp35
 70
     1
102
RTVSPost2010Prop36
280
     0
102
RTVSPost2010PropOp36
 70
     1
102
RTVSPost2010Prop37
 90
       50
102
RTVSPost2010PropOp37
 70
     1
102
RTVSPost2010Prop38
140
0.0
102
RTVSPost2010PropOp38
 70
     1
102
RTVSPost2010Prop39
140
1.0
102
RTVSPost2010PropOp39
 70
     1
102
RTVSPost2010Prop40
 90
        0
102
RTVSPost2010PropOp40
 70
     1
102
RTVSPost2010Prop41ColorIndex
 90
       18
102
RTVSPost2010Prop41ColorRGB
 90
        0
102
RTVSPost2010PropOp41
 70
     1
102
RTVSPost2010Prop42
 90
       50
102
RTVSPost2010PropOp42
 70
     1
102
RTVSPost2010Prop43
 90
        3
102
RTVSPost2010PropOp43
 70
     1
102
RTVSPost2010Prop44ColorIndex
 90
        5
102
RTVSPost2010Prop44ColorRGB
 90
      255
102
RTVSPost2010PropOp44
 70
     1
102
RTVSPost2010Prop45
280
     0
102
RTVSPost2010PropOp45
 70
     1
102
RTVSPost2010Prop46
 90
       50
102
RTVSPost2010PropOp46
 70
     1
102
RTVSPost2010Prop47
 90
       50
102
RTVSPost2010PropOp47
 70
     1
102
RTVSPost2010Prop48
 90
       50
102
RTVSPost2010PropOp48
 70
     1
102
RTVSPost2010Prop49
280
     0
102
RTVSPost2010PropOp49
 70
     1
102
RTVSPost2010Prop50
 90
       50
102
RTVSPost2010PropOp50
 70
     1
102
RTVSPost2010Prop51ColorIndex
 90
      256
102
RTVSPost2010Prop51ColorRGB
 90
-16777216
102
RTVSPost2010PropOp51
 70
     0
102
RTVSPost2010Prop52
140
1.0
102
RTVSPost2010PropOp52
 70
     0
102
RTVSPost2010Prop53
 90
        2
102
RTVSPost2010PropOp53
 70
     1
102
RTVSPost2010Prop54
  1
strokes_ogs.tif
102
RTVSPost2010PropOp54
 70
     1
102
RTVSPost2010Prop55
280
     0
102
RTVSPost2010PropOp55
 70
     1
102
RTVSPost2010Prop56
140
1.0
102
RTVSPost2010PropOp56
 70
     1
102
RTVSPost2010Prop57
140
1.0
102
RTVSPost2010PropOp57
 70
     1
  0
XRECORD
  5
106AD5F
102
{ACAD_REACTORS
330
106AD5E
102
}
330
106AD5E
100
AcDbXrecord
280
     1
102
RTVSPropertyOp0
 70
     1
102
RTVSPropertyOp1
 70
     1
102
RTVSPropertyOp2
 70
     1
102
RTVSPropertyOp3
 70
     1
102
RTVSPropertyOp4
 70
     1
102
RTVSPropertyOp5
 70
     1
102
RTVSPropertyOp6
 70
     1
102
RTVSPropertyOp7
 70
     1
102
RTVSPropertyOp8
 70
     1
102
RTVSPropertyOp9
 70
     1
102
RTVSPropertyOp10
 70
     1
102
RTVSPropertyOp11
 70
     1
102
RTVSPropertyOp12
 70
     1
102
RTVSPropertyOp13
 70
     1
102
RTVSPropertyOp14
 70
     1
102
RTVSPropertyOp15
 70
     1
102
RTVSPropertyOp16
 70
     1
102
RTVSPropertyOp17
 70
     1
102
RTVSPropertyOp18
 70
     1
102
RTVSPropertyOp19
 70
     1
102
RTVSPropertyOp20
 70
     1
102
RTVSPropertyOp21
 70
     1
102
RTVSPropertyOp22
 70
     1
102
RTVSPropertyOp23
 70
     1
102
RTVSPropertyOp24
 70
     1
102
RTVSPropertyOp25
 70
     1
102
RTVSPropertyOp26
 70
     1
102
RTVSPropertyOp27
 70
     1
102
RTVSPropertyOp28
 70
     1
102
RTVSPropertyOp29
 70
     1
102
RTVSPropertyOp30
 70
     1
102
RTVSPropertyOp31
 70
     1
102
RTVSPropertyOp32
 70
     1
102
RTVSPropertyOp33
 70
     1
102
RTVSPropertyOp34
 70
     1
102
RTVSPropertyOp35
 70
     1
102
RTVSPropertyOp36
 70
     1
102
RTVSPropertyOp37
 70
     1
102
RTVSPropertyOp38
 70
     1
102
RTVSPropertyOp39
 70
     1
102
RTVSPropertyOp40
 70
     1
102
RTVSPropertyOp41
 70
     1
102
RTVSPropertyOp42
 70
     1
102
RTVSPropertyOp43
 70
     1
102
RTVSPropertyOp44
 70
     1
102
RTVSPropertyOp45
 70
     1
102
RTVSPropertyOp46
 70
     1
102
RTVSPropertyOp47
 70
     1
102
RTVSPropertyOp48
 70
     1
102
RTVSPropertyOp49
 70
     1
102
RTVSPropertyOp50
 70
     1
102
RTVSPropertyOp51
 70
     0
102
RTVSPropertyOp52
 70
     0
102
RTVSPropertyOp53
 70
     1
102
RTVSPropertyOp54
 70
     1
102
RTVSPropertyOp55
 70
     1
102
RTVSPropertyOp56
 70
     1
102
RTVSPropertyOp57
 70
     1
102
RTVSPost2010Prop28
280
     0
102
RTVSPost2010PropOp28
 70
     1
102
RTVSPost2010Prop29
280
     1
102
RTVSPost2010PropOp29
 70
     1
102
RTVSPost2010Prop30
280
     1
102
RTVSPost2010PropOp30
 70
     1
102
RTVSPost2010Prop31
280
     0
102
RTVSPost2010PropOp31
 70
     1
102
RTVSPost2010Prop32
280
     0
102
RTVSPost2010PropOp32
 70
     1
102
RTVSPost2010Prop33
280
     0
102
RTVSPost2010PropOp33
 70
     1
102
RTVSPost2010Prop34
280
     0
102
RTVSPost2010PropOp34
 70
     1
102
RTVSPost2010Prop35
280
     0
102
RTVSPost2010PropOp35
 70
     1
102
RTVSPost2010Prop36
280
     0
102
RTVSPost2010PropOp36
 70
     1
102
RTVSPost2010Prop37
 90
       50
102
RTVSPost2010PropOp37
 70
     1
102
RTVSPost2010Prop38
140
0.0
102
RTVSPost2010PropOp38
 70
     1
102
RTVSPost2010Prop39
140
1.0
102
RTVSPost2010PropOp39
 70
     1
102
RTVSPost2010Prop40
 90
        0
102
RTVSPost2010PropOp40
 70
     1
102
RTVSPost2010Prop41ColorIndex
 90
       18
102
RTVSPost2010Prop41ColorRGB
 90
        0
102
RTVSPost2010PropOp41
 70
     1
102
RTVSPost2010Prop42
 90
       50
102
RTVSPost2010PropOp42
 70
     1
102
RTVSPost2010Prop43
 90
        3
102
RTVSPost2010PropOp43
 70
     1
102
RTVSPost2010Prop44ColorIndex
 90
        5
102
RTVSPost2010Prop44ColorRGB
 90
      255
102
RTVSPost2010PropOp44
 70
     1
102
RTVSPost2010Prop45
280
     0
102
RTVSPost2010PropOp45
 70
     1
102
RTVSPost2010Prop46
 90
       50
102
RTVSPost2010PropOp46
 70
     1
102
RTVSPost2010Prop47
 90
       50
102
RTVSPost2010PropOp47
 70
     1
102
RTVSPost2010Prop48
 90
       50
102
RTVSPost2010PropOp48
 70
     1
102
RTVSPost2010Prop49
280
     0
102
RTVSPost2010PropOp49
 70
     1
102
RTVSPost2010Prop50
 90
       50
102
RTVSPost2010PropOp50
 70
     1
102
RTVSPost2010Prop51ColorIndex
 90
      256
102
RTVSPost2010Prop51ColorRGB
 90
-16777216
102
RTVSPost2010PropOp51
 70
     0
102
RTVSPost2010Prop52
140
1.0
102
RTVSPost2010PropOp52
 70
     0
102
RTVSPost2010Prop53
 90
        2
102
RTVSPost2010PropOp53
 70
     1
102
RTVSPost2010Prop54
  1
strokes_ogs.tif
102
RTVSPost2010PropOp54
 70
     1
102
RTVSPost2010Prop55
280
     0
102
RTVSPost2010PropOp55
 70
     1
102
RTVSPost2010Prop56
140
1.0
102
RTVSPost2010PropOp56
 70
     1
102
RTVSPost2010Prop57
140
1.0
102
RTVSPost2010PropOp57
 70
     1
  0
XRECORD
  5
106AD61
102
{ACAD_REACTORS
330
106AD60
102
}
330
106AD60
100
AcDbXrecord
280
     1
102
RTVSPropertyOp0
 70
     1
102
RTVSPropertyOp1
 70
     1
102
RTVSPropertyOp2
 70
     1
102
RTVSPropertyOp3
 70
     1
102
RTVSPropertyOp4
 70
     1
102
RTVSPropertyOp5
 70
     1
102
RTVSPropertyOp6
 70
     1
102
RTVSPropertyOp7
 70
     1
102
RTVSPropertyOp8
 70
     1
102
RTVSPropertyOp9
 70
     1
102
RTVSPropertyOp10
 70
     1
102
RTVSPropertyOp11
 70
     1
102
RTVSPropertyOp12
 70
     1
102
RTVSPropertyOp13
 70
     1
102
RTVSPropertyOp14
 70
     1
102
RTVSPropertyOp15
 70
     1
102
RTVSPropertyOp16
 70
     1
102
RTVSPropertyOp17
 70
     1
102
RTVSPropertyOp18
 70
     1
102
RTVSPropertyOp19
 70
     1
102
RTVSPropertyOp20
 70
     1
102
RTVSPropertyOp21
 70
     1
102
RTVSPropertyOp22
 70
     1
102
RTVSPropertyOp23
 70
     1
102
RTVSPropertyOp24
 70
     1
102
RTVSPropertyOp25
 70
     1
102
RTVSPropertyOp26
 70
     1
102
RTVSPropertyOp27
 70
     1
102
RTVSPropertyOp28
 70
     1
102
RTVSPropertyOp29
 70
     1
102
RTVSPropertyOp30
 70
     1
102
RTVSPropertyOp31
 70
     1
102
RTVSPropertyOp32
 70
     1
102
RTVSPropertyOp33
 70
     1
102
RTVSPropertyOp34
 70
     1
102
RTVSPropertyOp35
 70
     1
102
RTVSPropertyOp36
 70
     1
102
RTVSPropertyOp37
 70
     1
102
RTVSPropertyOp38
 70
     1
102
RTVSPropertyOp39
 70
     1
102
RTVSPropertyOp40
 70
     1
102
RTVSPropertyOp41
 70
     1
102
RTVSPropertyOp42
 70
     1
102
RTVSPropertyOp43
 70
     1
102
RTVSPropertyOp44
 70
     1
102
RTVSPropertyOp45
 70
     1
102
RTVSPropertyOp46
 70
     1
102
RTVSPropertyOp47
 70
     1
102
RTVSPropertyOp48
 70
     1
102
RTVSPropertyOp49
 70
     1
102
RTVSPropertyOp50
 70
     1
102
RTVSPropertyOp51
 70
     0
102
RTVSPropertyOp52
 70
     0
102
RTVSPropertyOp53
 70
     1
102
RTVSPropertyOp54
 70
     1
102
RTVSPropertyOp55
 70
     1
102
RTVSPropertyOp56
 70
     1
102
RTVSPropertyOp57
 70
     1
102
RTVSPost2010Prop28
280
     0
102
RTVSPost2010PropOp28
 70
     1
102
RTVSPost2010Prop29
280
     1
102
RTVSPost2010PropOp29
 70
     1
102
RTVSPost2010Prop30
280
     1
102
RTVSPost2010PropOp30
 70
     1
102
RTVSPost2010Prop31
280
     0
102
RTVSPost2010PropOp31
 70
     1
102
RTVSPost2010Prop32
280
     0
102
RTVSPost2010PropOp32
 70
     1
102
RTVSPost2010Prop33
280
     0
102
RTVSPost2010PropOp33
 70
     1
102
RTVSPost2010Prop34
280
     0
102
RTVSPost2010PropOp34
 70
     1
102
RTVSPost2010Prop35
280
     0
102
RTVSPost2010PropOp35
 70
     1
102
RTVSPost2010Prop36
280
     0
102
RTVSPost2010PropOp36
 70
     1
102
RTVSPost2010Prop37
 90
       50
102
RTVSPost2010PropOp37
 70
     1
102
RTVSPost2010Prop38
140
0.0
102
RTVSPost2010PropOp38
 70
     1
102
RTVSPost2010Prop39
140
1.0
102
RTVSPost2010PropOp39
 70
     1
102
RTVSPost2010Prop40
 90
        0
102
RTVSPost2010PropOp40
 70
     1
102
RTVSPost2010Prop41ColorIndex
 90
       18
102
RTVSPost2010Prop41ColorRGB
 90
        0
102
RTVSPost2010PropOp41
 70
     1
102
RTVSPost2010Prop42
 90
       50
102
RTVSPost2010PropOp42
 70
     1
102
RTVSPost2010Prop43
 90
        3
102
RTVSPost2010PropOp43
 70
     1
102
RTVSPost2010Prop44ColorIndex
 90
        5
102
RTVSPost2010Prop44ColorRGB
 90
      255
102
RTVSPost2010PropOp44
 70
     1
102
RTVSPost2010Prop45
280
     0
102
RTVSPost2010PropOp45
 70
     1
102
RTVSPost2010Prop46
 90
       50
102
RTVSPost2010PropOp46
 70
     1
102
RTVSPost2010Prop47
 90
       50
102
RTVSPost2010PropOp47
 70
     1
102
RTVSPost2010Prop48
 90
       50
102
RTVSPost2010PropOp48
 70
     1
102
RTVSPost2010Prop49
280
     0
102
RTVSPost2010PropOp49
 70
     1
102
RTVSPost2010Prop50
 90
       50
102
RTVSPost2010PropOp50
 70
     1
102
RTVSPost2010Prop51ColorIndex
 90
      256
102
RTVSPost2010Prop51ColorRGB
 90
-16777216
102
RTVSPost2010PropOp51
 70
     0
102
RTVSPost2010Prop52
140
1.0
102
RTVSPost2010PropOp52
 70
     0
102
RTVSPost2010Prop53
 90
        2
102
RTVSPost2010PropOp53
 70
     1
102
RTVSPost2010Prop54
  1
strokes_ogs.tif
102
RTVSPost2010PropOp54
 70
     1
102
RTVSPost2010Prop55
280
     0
102
RTVSPost2010PropOp55
 70
     1
102
RTVSPost2010Prop56
140
1.0
102
RTVSPost2010PropOp56
 70
     1
102
RTVSPost2010Prop57
140
1.0
102
RTVSPost2010PropOp57
 70
     1
  0
XRECORD
  5
106AD63
102
{ACAD_REACTORS
330
106AD62
102
}
330
106AD62
100
AcDbXrecord
280
     1
102
RTVSPropertyOp0
 70
     1
102
RTVSPropertyOp1
 70
     1
102
RTVSPropertyOp2
 70
     1
102
RTVSPropertyOp3
 70
     1
102
RTVSPropertyOp4
 70
     1
102
RTVSPropertyOp5
 70
     1
102
RTVSPropertyOp6
 70
     1
102
RTVSPropertyOp7
 70
     1
102
RTVSPropertyOp8
 70
     1
102
RTVSPropertyOp9
 70
     1
102
RTVSPropertyOp10
 70
     1
102
RTVSPropertyOp11
 70
     1
102
RTVSPropertyOp12
 70
     1
102
RTVSPropertyOp13
 70
     1
102
RTVSPropertyOp14
 70
     1
102
RTVSPropertyOp15
 70
     1
102
RTVSPropertyOp16
 70
     1
102
RTVSPropertyOp17
 70
     1
102
RTVSPropertyOp18
 70
     1
102
RTVSPropertyOp19
 70
     1
102
RTVSPropertyOp20
 70
     1
102
RTVSPropertyOp21
 70
     1
102
RTVSPropertyOp22
 70
     1
102
RTVSPropertyOp23
 70
     1
102
RTVSPropertyOp24
 70
     1
102
RTVSPropertyOp25
 70
     1
102
RTVSPropertyOp26
 70
     1
102
RTVSPropertyOp27
 70
     1
102
RTVSPropertyOp28
 70
     1
102
RTVSPropertyOp29
 70
     1
102
RTVSPropertyOp30
 70
     1
102
RTVSPropertyOp31
 70
     1
102
RTVSPropertyOp32
 70
     1
102
RTVSPropertyOp33
 70
     1
102
RTVSPropertyOp34
 70
     1
102
RTVSPropertyOp35
 70
     1
102
RTVSPropertyOp36
 70
     1
102
RTVSPropertyOp37
 70
     1
102
RTVSPropertyOp38
 70
     1
102
RTVSPropertyOp39
 70
     1
102
RTVSPropertyOp40
 70
     1
102
RTVSPropertyOp41
 70
     1
102
RTVSPropertyOp42
 70
     1
102
RTVSPropertyOp43
 70
     1
102
RTVSPropertyOp44
 70
     1
102
RTVSPropertyOp45
 70
     1
102
RTVSPropertyOp46
 70
     1
102
RTVSPropertyOp47
 70
     1
102
RTVSPropertyOp48
 70
     1
102
RTVSPropertyOp49
 70
     1
102
RTVSPropertyOp50
 70
     1
102
RTVSPropertyOp51
 70
     0
102
RTVSPropertyOp52
 70
     0
102
RTVSPropertyOp53
 70
     1
102
RTVSPropertyOp54
 70
     1
102
RTVSPropertyOp55
 70
     1
102
RTVSPropertyOp56
 70
     1
102
RTVSPropertyOp57
 70
     1
102
RTVSPost2010Prop28
280
     0
102
RTVSPost2010PropOp28
 70
     1
102
RTVSPost2010Prop29
280
     1
102
RTVSPost2010PropOp29
 70
     1
102
RTVSPost2010Prop30
280
     1
102
RTVSPost2010PropOp30
 70
     1
102
RTVSPost2010Prop31
280
     0
102
RTVSPost2010PropOp31
 70
     1
102
RTVSPost2010Prop32
280
     0
102
RTVSPost2010PropOp32
 70
     1
102
RTVSPost2010Prop33
280
     0
102
RTVSPost2010PropOp33
 70
     1
102
RTVSPost2010Prop34
280
     0
102
RTVSPost2010PropOp34
 70
     1
102
RTVSPost2010Prop35
280
     0
102
RTVSPost2010PropOp35
 70
     1
102
RTVSPost2010Prop36
280
     0
102
RTVSPost2010PropOp36
 70
     1
102
RTVSPost2010Prop37
 90
       50
102
RTVSPost2010PropOp37
 70
     1
102
RTVSPost2010Prop38
140
0.0
102
RTVSPost2010PropOp38
 70
     1
102
RTVSPost2010Prop39
140
1.0
102
RTVSPost2010PropOp39
 70
     1
102
RTVSPost2010Prop40
 90
        0
102
RTVSPost2010PropOp40
 70
     1
102
RTVSPost2010Prop41ColorIndex
 90
       18
102
RTVSPost2010Prop41ColorRGB
 90
        0
102
RTVSPost2010PropOp41
 70
     1
102
RTVSPost2010Prop42
 90
       50
102
RTVSPost2010PropOp42
 70
     1
102
RTVSPost2010Prop43
 90
        3
102
RTVSPost2010PropOp43
 70
     1
102
RTVSPost2010Prop44ColorIndex
 90
        5
102
RTVSPost2010Prop44ColorRGB
 90
      255
102
RTVSPost2010PropOp44
 70
     1
102
RTVSPost2010Prop45
280
     0
102
RTVSPost2010PropOp45
 70
     1
102
RTVSPost2010Prop46
 90
       50
102
RTVSPost2010PropOp46
 70
     1
102
RTVSPost2010Prop47
 90
       50
102
RTVSPost2010PropOp47
 70
     1
102
RTVSPost2010Prop48
 90
       50
102
RTVSPost2010PropOp48
 70
     1
102
RTVSPost2010Prop49
280
     0
102
RTVSPost2010PropOp49
 70
     1
102
RTVSPost2010Prop50
 90
       50
102
RTVSPost2010PropOp50
 70
     1
102
RTVSPost2010Prop51ColorIndex
 90
      256
102
RTVSPost2010Prop51ColorRGB
 90
-16777216
102
RTVSPost2010PropOp51
 70
     0
102
RTVSPost2010Prop52
140
1.0
102
RTVSPost2010PropOp52
 70
     0
102
RTVSPost2010Prop53
 90
        2
102
RTVSPost2010PropOp53
 70
     1
102
RTVSPost2010Prop54
  1
strokes_ogs.tif
102
RTVSPost2010PropOp54
 70
     1
102
RTVSPost2010Prop55
280
     0
102
RTVSPost2010PropOp55
 70
     1
102
RTVSPost2010Prop56
140
1.0
102
RTVSPost2010PropOp56
 70
     1
102
RTVSPost2010Prop57
140
1.0
102
RTVSPost2010PropOp57
 70
     1
  0
XRECORD
  5
106AD65
102
{ACAD_REACTORS
330
106AD64
102
}
330
106AD64
100
AcDbXrecord
280
     1
102
RTVSPropertyOp0
 70
     1
102
RTVSPropertyOp1
 70
     1
102
RTVSPropertyOp2
 70
     1
102
RTVSPropertyOp3
 70
     1
102
RTVSPropertyOp4
 70
     1
102
RTVSPropertyOp5
 70
     1
102
RTVSPropertyOp6
 70
     1
102
RTVSPropertyOp7
 70
     1
102
RTVSPropertyOp8
 70
     1
102
RTVSPropertyOp9
 70
     1
102
RTVSPropertyOp10
 70
     1
102
RTVSPropertyOp11
 70
     1
102
RTVSPropertyOp12
 70
     1
102
RTVSPropertyOp13
 70
     1
102
RTVSPropertyOp14
 70
     1
102
RTVSPropertyOp15
 70
     1
102
RTVSPropertyOp16
 70
     1
102
RTVSPropertyOp17
 70
     1
102
RTVSPropertyOp18
 70
     1
102
RTVSPropertyOp19
 70
     1
102
RTVSPropertyOp20
 70
     1
102
RTVSPropertyOp21
 70
     1
102
RTVSPropertyOp22
 70
     1
102
RTVSPropertyOp23
 70
     1
102
RTVSPropertyOp24
 70
     1
102
RTVSPropertyOp25
 70
     1
102
RTVSPropertyOp26
 70
     1
102
RTVSPropertyOp27
 70
     1
102
RTVSPropertyOp28
 70
     1
102
RTVSPropertyOp29
 70
     1
102
RTVSPropertyOp30
 70
     1
102
RTVSPropertyOp31
 70
     1
102
RTVSPropertyOp32
 70
     1
102
RTVSPropertyOp33
 70
     1
102
RTVSPropertyOp34
 70
     1
102
RTVSPropertyOp35
 70
     1
102
RTVSPropertyOp36
 70
     1
102
RTVSPropertyOp37
 70
     1
102
RTVSPropertyOp38
 70
     1
102
RTVSPropertyOp39
 70
     1
102
RTVSPropertyOp40
 70
     1
102
RTVSPropertyOp41
 70
     1
102
RTVSPropertyOp42
 70
     1
102
RTVSPropertyOp43
 70
     1
102
RTVSPropertyOp44
 70
     1
102
RTVSPropertyOp45
 70
     1
102
RTVSPropertyOp46
 70
     1
102
RTVSPropertyOp47
 70
     1
102
RTVSPropertyOp48
 70
     1
102
RTVSPropertyOp49
 70
     1
102
RTVSPropertyOp50
 70
     1
102
RTVSPropertyOp51
 70
     0
102
RTVSPropertyOp52
 70
     0
102
RTVSPropertyOp53
 70
     1
102
RTVSPropertyOp54
 70
     1
102
RTVSPropertyOp55
 70
     1
102
RTVSPropertyOp56
 70
     1
102
RTVSPropertyOp57
 70
     1
102
RTVSPost2010Prop28
280
     0
102
RTVSPost2010PropOp28
 70
     1
102
RTVSPost2010Prop29
280
     1
102
RTVSPost2010PropOp29
 70
     1
102
RTVSPost2010Prop30
280
     1
102
RTVSPost2010PropOp30
 70
     1
102
RTVSPost2010Prop31
280
     0
102
RTVSPost2010PropOp31
 70
     1
102
RTVSPost2010Prop32
280
     0
102
RTVSPost2010PropOp32
 70
     1
102
RTVSPost2010Prop33
280
     0
102
RTVSPost2010PropOp33
 70
     1
102
RTVSPost2010Prop34
280
     0
102
RTVSPost2010PropOp34
 70
     1
102
RTVSPost2010Prop35
280
     0
102
RTVSPost2010PropOp35
 70
     1
102
RTVSPost2010Prop36
280
     0
102
RTVSPost2010PropOp36
 70
     1
102
RTVSPost2010Prop37
 90
       50
102
RTVSPost2010PropOp37
 70
     1
102
RTVSPost2010Prop38
140
0.0
102
RTVSPost2010PropOp38
 70
     1
102
RTVSPost2010Prop39
140
1.0
102
RTVSPost2010PropOp39
 70
     1
102
RTVSPost2010Prop40
 90
        0
102
RTVSPost2010PropOp40
 70
     1
102
RTVSPost2010Prop41ColorIndex
 90
       18
102
RTVSPost2010Prop41ColorRGB
 90
        0
102
RTVSPost2010PropOp41
 70
     1
102
RTVSPost2010Prop42
 90
       50
102
RTVSPost2010PropOp42
 70
     1
102
RTVSPost2010Prop43
 90
        3
102
RTVSPost2010PropOp43
 70
     1
102
RTVSPost2010Prop44ColorIndex
 90
        5
102
RTVSPost2010Prop44ColorRGB
 90
      255
102
RTVSPost2010PropOp44
 70
     1
102
RTVSPost2010Prop45
280
     0
102
RTVSPost2010PropOp45
 70
     1
102
RTVSPost2010Prop46
 90
       50
102
RTVSPost2010PropOp46
 70
     1
102
RTVSPost2010Prop47
 90
       50
102
RTVSPost2010PropOp47
 70
     1
102
RTVSPost2010Prop48
 90
       50
102
RTVSPost2010PropOp48
 70
     1
102
RTVSPost2010Prop49
280
     0
102
RTVSPost2010PropOp49
 70
     1
102
RTVSPost2010Prop50
 90
       50
102
RTVSPost2010PropOp50
 70
     1
102
RTVSPost2010Prop51ColorIndex
 90
      256
102
RTVSPost2010Prop51ColorRGB
 90
-16777216
102
RTVSPost2010PropOp51
 70
     0
102
RTVSPost2010Prop52
140
1.0
102
RTVSPost2010PropOp52
 70
     0
102
RTVSPost2010Prop53
 90
        2
102
RTVSPost2010PropOp53
 70
     1
102
RTVSPost2010Prop54
  1
strokes_ogs.tif
102
RTVSPost2010PropOp54
 70
     1
102
RTVSPost2010Prop55
280
     0
102
RTVSPost2010PropOp55
 70
     1
102
RTVSPost2010Prop56
140
1.0
102
RTVSPost2010PropOp56
 70
     1
102
RTVSPost2010Prop57
140
1.0
102
RTVSPost2010PropOp57
 70
     1
  0
ENDSEC
  0
EOF
