  0
SECTION
  2
HEADER
  9
$ACADVER
  1
AC1015
  9
$ACADMAINTVER
 70
     6
  9
$DWGCODEPAGE
  3
ANSI_932
  9
$INSBASE
 10
0.0
 20
0.0
 30
0.0
  9
$EXTMIN
 10
-15.0
 20
-45.0
 30
0.0
  9
$EXTMAX
 10
106.0
 20
45.0
 30
0.0
  9
$LIMMIN
 10
0.0
 20
0.0
  9
$LIMMAX
 10
12.0
 20
9.0
  9
$ORTHOMODE
 70
     0
  9
$REGENMODE
 70
     1
  9
$FILLMODE
 70
     1
  9
$QTEXTMODE
 70
     0
  9
$MIRRTEXT
 70
     1
  9
$LTSCALE
 40
1.0
  9
$ATTMODE
 70
     1
  9
$TEXTSIZE
 40
0.2
  9
$TRACEWID
 40
0.05
  9
$TEXTSTYLE
  7
Standard
  9
$CLAYER
  8
0
  9
$CELTYPE
  6
ByBlock
  9
$CECOLOR
 62
   256
  9
$CELTSCALE
 40
1.0
  9
$DISPSILH
 70
     0
  9
$DIMSCALE
 40
1.0
  9
$DIMASZ
 40
0.18
  9
$DIMEXO
 40
0.0625
  9
$DIMDLI
 40
0.38
  9
$DIMRND
 40
0.0
  9
$DIMDLE
 40
0.0
  9
$DIMEXE
 40
0.18
  9
$DIMTP
 40
0.0
  9
$DIMTM
 40
0.0
  9
$DIMTXT
 40
0.18
  9
$DIMCEN
 40
0.09
  9
$DIMTSZ
 40
0.0
  9
$DIMTOL
 70
     0
  9
$DIMLIM
 70
     0
  9
$DIMTIH
 70
     1
  9
$DIMTOH
 70
     1
  9
$DIMSE1
 70
     0
  9
$DIMSE2
 70
     0
  9
$DIMTAD
 70
     0
  9
$DIMZIN
 70
     0
  9
$DIMBLK
  1

  9
$DIMASO
 70
     1
  9
$DIMSHO
 70
     1
  9
$DIMPOST
  1

  9
$DIMAPOST
  1

  9
$DIMALT
 70
     0
  9
$DIMALTD
 70
     2
  9
$DIMALTF
 40
25.4
  9
$DIMLFAC
 40
1.0
  9
$DIMTOFL
 70
     0
  9
$DIMTVP
 40
0.0
  9
$DIMTIX
 70
     0
  9
$DIMSOXD
 70
     0
  9
$DIMSAH
 70
     0
  9
$DIMBLK1
  1

  9
$DIMBLK2
  1

  9
$DIMSTYLE
  2
STANDARD
  9
$DIMCLRD
 70
     0
  9
$DIMCLRE
 70
     0
  9
$DIMCLRT
 70
     0
  9
$DIMTFAC
 40
1.0
  9
$DIMGAP
 40
0.09
  9
$DIMJUST
 70
     0
  9
$DIMSD1
 70
     0
  9
$DIMSD2
 70
     0
  9
$DIMTOLJ
 70
     1
  9
$DIMTZIN
 70
     0
  9
$DIMALTZ
 70
     0
  9
$DIMALTTZ
 70
     0
  9
$DIMUPT
 70
     0
  9
$DIMDEC
 70
     4
  9
$DIMTDEC
 70
     4
  9
$DIMALTU
 70
     2
  9
$DIMALTTD
 70
     2
  9
$DIMTXSTY
  7
Standard
  9
$DIMAUNIT
 70
     0
  9
$DIMADEC
 70
     0
  9
$DIMALTRND
 40
0.0
  9
$DIMAZIN
 70
     0
  9
$DIMDSEP
 70
    46
  9
$DIMATFIT
 70
     3
  9
$DIMFRAC
 70
     0
  9
$DIMLDRBLK
  1

  9
$DIMLUNIT
 70
     2
  9
$DIMLWD
 70
    -2
  9
$DIMLWE
 70
    -2
  9
$DIMTMOVE
 70
     0
  9
$LUNITS
 70
     2
  9
$LUPREC
 70
     4
  9
$SKETCHINC
 40
0.1
  9
$FILLETRAD
 40
0.5
  9
$AUNITS
 70
     0
  9
$AUPREC
 70
     0
  9
$MENU
  1
.
  9
$ELEVATION
 40
0.0
  9
$PELEVATION
 40
0.0
  9
$THICKNESS
 40
0.0
  9
$LIMCHECK
 70
     0
  9
$CHAMFERA
 40
0.0
  9
$CHAMFERB
 40
0.0
  9
$CHAMFERC
 40
0.0
  9
$CHAMFERD
 40
0.0
  9
$SKPOLY
 70
     0
  9
$TDCREATE
 40
2447893.375
  9
$TDUCREATE
 40
0.0
  9
$TDUPDATE
 40
2460864.675453843
  9
$TDUUPDATE
 40
2460864.300453843
  9
$TDINDWG
 40
0.0065871875
  9
$TDUSRTIMER
 40
0.0001185995
  9
$USRTIMER
 70
     1
  9
$ANGBASE
 50
0.0
  9
$ANGDIR
 70
     0
  9
$PDMODE
 70
     0
  9
$PDSIZE
 40
0.0
  9
$PLINEWID
 40
0.0
  9
$SPLFRAME
 70
     0
  9
$SPLINETYPE
 70
     6
  9
$SPLINESEGS
 70
     8
  9
$HANDSEED
  5
106AD29
  9
$SURFTAB1
 70
     6
  9
$SURFTAB2
 70
     6
  9
$SURFTYPE
 70
     6
  9
$SURFU
 70
     6
  9
$SURFV
 70
     6
  9
$UCSBASE
  2

  9
$UCSNAME
  2

  9
$UCSORG
 10
0.0
 20
0.0
 30
0.0
  9
$UCSXDIR
 10
1.0
 20
0.0
 30
0.0
  9
$UCSYDIR
 10
0.0
 20
1.0
 30
0.0
  9
$UCSORTHOREF
  2

  9
$UCSORTHOVIEW
 70
     0
  9
$UCSORGTOP
 10
0.0
 20
0.0
 30
0.0
  9
$UCSORGBOTTOM
 10
0.0
 20
0.0
 30
0.0
  9
$UCSORGLEFT
 10
0.0
 20
0.0
 30
0.0
  9
$UCSORGRIGHT
 10
0.0
 20
0.0
 30
0.0
  9
$UCSORGFRONT
 10
0.0
 20
0.0
 30
0.0
  9
$UCSORGBACK
 10
0.0
 20
0.0
 30
0.0
  9
$PUCSBASE
  2

  9
$PUCSNAME
  2

  9
$PUCSORG
 10
0.0
 20
0.0
 30
0.0
  9
$PUCSXDIR
 10
1.0
 20
0.0
 30
0.0
  9
$PUCSYDIR
 10
0.0
 20
1.0
 30
0.0
  9
$PUCSORTHOREF
  2

  9
$PUCSORTHOVIEW
 70
     0
  9
$PUCSORGTOP
 10
0.0
 20
0.0
 30
0.0
  9
$PUCSORGBOTTOM
 10
0.0
 20
0.0
 30
0.0
  9
$PUCSORGLEFT
 10
0.0
 20
0.0
 30
0.0
  9
$PUCSORGRIGHT
 10
0.0
 20
0.0
 30
0.0
  9
$PUCSORGFRONT
 10
0.0
 20
0.0
 30
0.0
  9
$PUCSORGBACK
 10
0.0
 20
0.0
 30
0.0
  9
$USERI1
 70
     0
  9
$USERI2
 70
     0
  9
$USERI3
 70
     0
  9
$USERI4
 70
     0
  9
$USERI5
 70
     0
  9
$USERR1
 40
0.0
  9
$USERR2
 40
0.0
  9
$USERR3
 40
0.0
  9
$USERR4
 40
0.0
  9
$USERR5
 40
0.0
  9
$WORLDVIEW
 70
     1
  9
$SHADEDGE
 70
     3
  9
$SHADEDIF
 70
    70
  9
$TILEMODE
 70
     1
  9
$MAXACTVP
 70
    64
  9
$PINSBASE
 10
0.0
 20
0.0
 30
0.0
  9
$PLIMCHECK
 70
     0
  9
$PEXTMIN
 10
1.000000000000000E+20
 20
1.000000000000000E+20
 30
1.000000000000000E+20
  9
$PEXTMAX
 10
-1.000000000000000E+20
 20
-1.000000000000000E+20
 30
-1.000000000000000E+20
  9
$PLIMMIN
 10
0.0
 20
0.0
  9
$PLIMMAX
 10
0.0
 20
0.0
  9
$UNITMODE
 70
     0
  9
$VISRETAIN
 70
     1
  9
$PLINEGEN
 70
     0
  9
$PSLTSCALE
 70
     1
  9
$TREEDEPTH
 70
  3020
  9
$CMLSTYLE
  2
Standard
  9
$CMLJUST
 70
     0
  9
$CMLSCALE
 40
1.0
  9
$PROXYGRAPHICS
 70
     1
  9
$MEASUREMENT
 70
     0
  9
$CELWEIGHT
370
    -1
  9
$ENDCAPS
280
     0
  9
$JOINSTYLE
280
     0
  9
$LWDISPLAY
290
     0
  9
$INSUNITS
 70
     0
  9
$HYPERLINKBASE
  1

  9
$STYLESHEET
  1

  9
$XEDIT
290
     1
  9
$CEPSNTYPE
380
     0
  9
$PSTYLEMODE
290
     1
  9
$FINGERPRINTGUID
  2
{db3d3156-ff0d-41c7-9c92-54e9b324451e}
  9
$VERSIONGUID
  2
{FAEB1C32-E019-11D5-929B-00C0DF256EC4}
  9
$EXTNAMES
290
     1
  9
$PSVPSCALE
 40
0.0
  9
$OLESTARTUP
290
     0
  0
ENDSEC
  0
SECTION
  2
CLASSES
  0
CLASS
  1
IMAGEDEF
  2
AcDbRasterImageDef
  3
ISM
 90
        0
280
     0
281
     0
  0
CLASS
  1
IMAGE
  2
AcDbRasterImage
  3
ISM
 90
      127
280
     0
281
     1
  0
CLASS
  1
IMAGEDEF_REACTOR
  2
AcDbRasterImageDefReactor
  3
ISM
 90
        1
280
     0
281
     0
  0
CLASS
  1
ACDBDICTIONARYWDFLT
  2
AcDbDictionaryWithDefault
  3
ObjectDBX Classes
 90
        0
280
     0
281
     0
  0
CLASS
  1
SCALE
  2
AcDbScale
  3
ObjectDBX Classes
 90
     1153
280
     0
281
     0
  0
CLASS
  1
MATERIAL
  2
AcDbMaterial
  3
ObjectDBX Classes
 90
     1153
280
     0
281
     0
  0
CLASS
  1
VISUALSTYLE
  2
AcDbVisualStyle
  3
ObjectDBX Classes
 90
     4095
280
     0
281
     0
  0
CLASS
  1
TABLESTYLE
  2
AcDbTableStyle
  3
ObjectDBX Classes
 90
     4095
280
     0
281
     0
  0
CLASS
  1
MLEADERSTYLE
  2
AcDbMLeaderStyle
  3
ACDB_MLEADERSTYLE_CLASS
 90
     4095
280
     0
281
     0
  0
CLASS
  1
SUN
  2
AcDbSun
  3
SCENEOE
 90
     1153
280
     0
281
     0
  0
CLASS
  1
RASTERVARIABLES
  2
AcDbRasterVariables
  3
ISM
 90
        0
280
     0
281
     0
  0
CLASS
  1
DICTIONARYVAR
  2
AcDbDictionaryVar
  3
ObjectDBX Classes
 90
        0
280
     0
281
     0
  0
CLASS
  1
ACDBPLACEHOLDER
  2
AcDbPlaceHolder
  3
ObjectDBX Classes
 90
        0
280
     0
281
     0
  0
CLASS
  1
LAYOUT
  2
AcDbLayout
  3
ObjectDBX Classes
 90
        0
280
     0
281
     0
  0
ENDSEC
  0
SECTION
  2
TABLES
  0
TABLE
  2
VPORT
  5
2
102
{ACAD_XDICTIONARY
360
106ACEE
102
}
330
0
100
AcDbSymbolTable
 70
     1
  0
VPORT
  5
106AB91
330
2
100
AcDbSymbolTableRecord
100
AcDbViewportTableRecord
  2
*Active
 70
     0
 10
0.0
 20
0.0
 11
1.0
 21
1.0
 12
45.5
 22
0.0
 13
0.0
 23
0.0
 14
0.5
 24
0.5
 15
0.5
 25
0.5
 16
0.0
 26
0.0
 36
1.0
 17
0.0
 27
0.0
 37
0.0
 40
91.8
 41
2.05750350631136
 42
50.0
 43
0.0
 44
0.0
 50
0.0
 51
0.0
 71
    16
 72
   100
 73
     1
 74
     3
 75
     0
 76
     0
 77
     0
 78
     0
281
     0
 65
     1
110
0.0
120
0.0
130
0.0
111
1.0
121
0.0
131
0.0
112
0.0
122
1.0
132
0.0
 79
     0
146
0.0
  0
ENDTAB
  0
TABLE
  2
LTYPE
  5
3
330
0
100
AcDbSymbolTable
 70
     3
  0
LTYPE
  5
4
330
3
100
AcDbSymbolTableRecord
100
AcDbLinetypeTableRecord
  2
ByBlock
 70
     0
  3

 72
    65
 73
     0
 40
0.0
  0
LTYPE
  5
5
330
3
100
AcDbSymbolTableRecord
100
AcDbLinetypeTableRecord
  2
ByLayer
 70
     0
  3

 72
    65
 73
     0
 40
0.0
  0
LTYPE
  5
6
330
3
100
AcDbSymbolTableRecord
100
AcDbLinetypeTableRecord
  2
CONTINUOUS
 70
     0
  3
Solid Line
 72
    65
 73
     0
 40
0.0
  0
LTYPE
  5
7
330
3
100
AcDbSymbolTableRecord
100
AcDbLinetypeTableRecord
  2
DASH
 70
     0
  3
Hidden
 72
    65
 73
     2
 40
2.5
 49
1.5
 74
     0
 49
-1.0
 74
     0
  0
LTYPE
  5
8
330
3
100
AcDbSymbolTableRecord
100
AcDbLinetypeTableRecord
  2
LONGDASHDASH
 70
     0
  3
__ . __
 72
    65
 73
     4
 40
7.0
 49
4.0
 74
     0
 49
-1.0
 74
     0
 49
1.0
 74
     0
 49
-1.0
 74
     0
  0
ENDTAB
  0
TABLE
  2
LAYER
  5
9
330
0
100
AcDbSymbolTable
 70
    11
  0
LAYER
  5
A
330
9
100
AcDbSymbolTableRecord
100
AcDbLayerTableRecord
  2
0
 70
     0
 62
     7
  6
CONTINUOUS
370
    -3
390
106AB96
  0
LAYER
  5
C
330
9
100
AcDbSymbolTableRecord
100
AcDbLayerTableRecord
  2
1
 70
     0
 62
     4
  6
CONTINUOUS
370
    50
390
106AB96
  0
LAYER
  5
D
330
9
100
AcDbSymbolTableRecord
100
AcDbLayerTableRecord
  2
2
 70
     0
 62
     7
  6
CONTINUOUS
370
    25
390
106AB96
  0
LAYER
  5
F
330
9
100
AcDbSymbolTableRecord
100
AcDbLayerTableRecord
  2
4
 70
     0
 62
     2
  6
LONGDASHDASH
370
    25
390
106AB96
  0
LAYER
  5
13
330
9
100
AcDbSymbolTableRecord
100
AcDbLayerTableRecord
  2
SK1
 70
     0
 62
     4
  6
CONTINUOUS
370
    50
390
106AB96
  0
LAYER
  5
14
330
9
100
AcDbSymbolTableRecord
100
AcDbLayerTableRecord
  2
SK2
 70
     0
 62
     7
  6
CONTINUOUS
370
    25
390
106AB96
  0
LAYER
  5
16
330
9
100
AcDbSymbolTableRecord
100
AcDbLayerTableRecord
  2
SK4
 70
     0
 62
     2
  6
LONGDASHDASH
370
    25
390
106AB96
  0
LAYER
  5
21
330
9
100
AcDbSymbolTableRecord
100
AcDbLayerTableRecord
  2
NOCUT
 70
     0
 62
     7
  6
CONTINUOUS
370
    25
390
106AB96
  0
LAYER
  5
22
330
9
100
AcDbSymbolTableRecord
100
AcDbLayerTableRecord
  2
CUT
 70
     0
 62
     1
  6
CONTINUOUS
370
    25
390
106AB96
  0
LAYER
  5
26
330
9
100
AcDbSymbolTableRecord
100
AcDbLayerTableRecord
  2
INFTOTAL
 70
     0
 62
     9
  6
CONTINUOUS
370
    18
390
106AB96
  0
LAYER
  5
106ABE1
330
9
100
AcDbSymbolTableRecord
100
AcDbLayerTableRecord
  2
Defpoints
 70
     0
 62
     7
  6
CONTINUOUS
290
     0
370
    -3
390
106AB96
  0
ENDTAB
  0
TABLE
  2
STYLE
  5
27
330
0
100
AcDbSymbolTable
 70
     2
  0
STYLE
  5
28
330
27
100
AcDbSymbolTableRecord
100
AcDbTextStyleTableRecord
  2
Monospac821 BT
 70
     0
 40
3.5
 41
1.0
 50
0.0
 71
     0
 42
3.0
  3

  4

1001
ACAD
1000
Monospac821 BT
1071
      256
  0
STYLE
  5
106AB90
330
27
100
AcDbSymbolTableRecord
100
AcDbTextStyleTableRecord
  2
Standard
 70
     0
 40
0.0
 41
1.0
 50
0.0
 71
     0
 42
0.2
  3
txt
  4

  0
ENDTAB
  0
TABLE
  2
VIEW
  5
29
330
0
100
AcDbSymbolTable
 70
     0
  0
ENDTAB
  0
TABLE
  2
UCS
  5
2A
330
0
100
AcDbSymbolTable
 70
     0
  0
ENDTAB
  0
TABLE
  2
APPID
  5
2B
330
0
100
AcDbSymbolTable
 70
     3
  0
APPID
  5
2C
330
2B
100
AcDbSymbolTableRecord
100
AcDbRegAppTableRecord
  2
ACAD
 70
     0
  0
APPID
  5
106AC48
330
2B
100
AcDbSymbolTableRecord
100
AcDbRegAppTableRecord
  2
FX_DIMP_FAV_VERSION
 70
     0
  0
APPID
  5
106ACE7
330
2B
100
AcDbSymbolTableRecord
100
AcDbRegAppTableRecord
  2
ACAD_MLEADERVER
 70
     0
  0
ENDTAB
  0
TABLE
  2
DIMSTYLE
  5
2D
330
0
100
AcDbSymbolTable
 70
     1
100
AcDbDimStyleTable
  0
DIMSTYLE
105
2E
102
{ACAD_REACTORS
330
106AC0B
330
106AC38
330
106AC6B
330
106AC96
102
}
330
2D
100
AcDbSymbolTableRecord
100
AcDbDimStyleTableRecord
  2
STANDARD
 70
     0
 41
3.0
 42
0.5
 44
1.0
 73
     0
 77
     1
 78
     1
140
3.5
141
2.5
143
0.03937007874
147
0.8
172
     1
174
     1
178
     0
179
     1
271
     2
279
     1
284
     1
340
28
  0
ENDTAB
  0
TABLE
  2
BLOCK_RECORD
  5
2F
330
0
100
AcDbSymbolTable
 70
    15
  0
BLOCK_RECORD
  5
30
102
{ACAD_XDICTIONARY
360
106ACA3
102
}
330
2F
100
AcDbSymbolTableRecord
100
AcDbBlockTableRecord
  2
*Model_Space
340
106AB98
  0
BLOCK_RECORD
  5
31
330
2F
100
AcDbSymbolTableRecord
100
AcDbBlockTableRecord
  2
*Paper_Space
340
106AB99
  0
BLOCK_RECORD
  5
397
330
2F
100
AcDbSymbolTableRecord
100
AcDbBlockTableRecord
  2
*D0
340
0
  0
BLOCK_RECORD
  5
3A5
330
2F
100
AcDbSymbolTableRecord
100
AcDbBlockTableRecord
  2
*D1
340
0
  0
BLOCK_RECORD
  5
3B3
330
2F
100
AcDbSymbolTableRecord
100
AcDbBlockTableRecord
  2
*D2
340
0
  0
BLOCK_RECORD
  5
3C1
330
2F
100
AcDbSymbolTableRecord
100
AcDbBlockTableRecord
  2
*D3
340
0
  0
BLOCK_RECORD
  5
3CF
330
2F
100
AcDbSymbolTableRecord
100
AcDbBlockTableRecord
  2
*D4
340
0
  0
BLOCK_RECORD
  5
3DD
330
2F
100
AcDbSymbolTableRecord
100
AcDbBlockTableRecord
  2
*D5
340
0
  0
BLOCK_RECORD
  5
3EB
330
2F
100
AcDbSymbolTableRecord
100
AcDbBlockTableRecord
  2
*D6
340
0
  0
BLOCK_RECORD
  5
106ABF9
330
2F
100
AcDbSymbolTableRecord
100
AcDbBlockTableRecord
  2
*D7
340
0
  0
BLOCK_RECORD
  5
106AC0C
330
2F
100
AcDbSymbolTableRecord
100
AcDbBlockTableRecord
  2
*D8
340
0
  0
BLOCK_RECORD
  5
106AC27
330
2F
100
AcDbSymbolTableRecord
100
AcDbBlockTableRecord
  2
*D9
340
0
  0
BLOCK_RECORD
  5
106AC39
330
2F
100
AcDbSymbolTableRecord
100
AcDbBlockTableRecord
  2
*D10
340
0
  0
BLOCK_RECORD
  5
106AC59
330
2F
100
AcDbSymbolTableRecord
100
AcDbBlockTableRecord
  2
*D11
340
0
  0
BLOCK_RECORD
  5
106AC6C
330
2F
100
AcDbSymbolTableRecord
100
AcDbBlockTableRecord
  2
*D12
340
0
  0
BLOCK_RECORD
  5
106AC87
330
2F
100
AcDbSymbolTableRecord
100
AcDbBlockTableRecord
  2
*D13
340
0
  0
BLOCK_RECORD
  5
106AC97
330
2F
100
AcDbSymbolTableRecord
100
AcDbBlockTableRecord
  2
*D14
340
0
  0
ENDTAB
  0
ENDSEC
  0
SECTION
  2
BLOCKS
  0
BLOCK
  5
32
330
30
100
AcDbEntity
  8
0
100
AcDbBlockBegin
  2
*Model_Space
 70
     0
 10
0.0
 20
0.0
 30
0.0
  3
*Model_Space
  1

  0
ENDBLK
  5
33
330
30
100
AcDbEntity
  8
0
100
AcDbBlockEnd
  0
BLOCK
  5
34
330
31
100
AcDbEntity
 67
     1
  8
0
100
AcDbBlockBegin
  2
*Paper_Space
 70
     0
 10
0.0
 20
0.0
 30
0.0
  3
*Paper_Space
  1

  0
ENDBLK
  5
35
330
31
100
AcDbEntity
 67
     1
  8
0
100
AcDbBlockEnd
  0
BLOCK
  5
395
330
397
100
AcDbEntity
  8
SK2
100
AcDbBlockBegin
  2
*D0
 70
     1
 10
0.0
 20
0.0
 30
0.0
  3
*D0
  1

  0
LINE
  5
398
330
397
100
AcDbEntity
  8
SK2
 62
     0
370
    -2
100
AcDbLine
 10
57.953987871165
 20
-2.04
 30
0.0
 11
57.953987871165
 21
-41.0
 31
0.0
  0
LINE
  5
399
330
397
100
AcDbEntity
  8
SK2
 62
     0
370
    -2
100
AcDbLine
 10
1.953987871165
 20
-2.2905
 30
0.0
 11
1.953987871165001
 21
-41.0
 31
0.0
  0
LINE
  5
39A
330
397
100
AcDbEntity
  8
SK2
 62
     0
370
    -2
100
AcDbLine
 10
54.953987871165
 20
-40.0
 30
0.0
 11
4.953987871165001
 21
-40.0
 31
0.0
  0
SOLID
  5
39B
330
397
100
AcDbEntity
  8
SK2
 62
     0
100
AcDbTrace
 10
54.953987871165
 20
-40.5
 30
0.0
 11
54.953987871165
 21
-39.5
 31
0.0
 12
57.953987871165
 22
-40.0
 32
0.0
 13
57.953987871165
 23
-40.0
 33
0.0
  0
SOLID
  5
39C
330
397
100
AcDbEntity
  8
SK2
 62
     0
100
AcDbTrace
 10
4.953987871165001
 20
-39.5
 30
0.0
 11
4.953987871165001
 21
-40.5
 31
0.0
 12
1.953987871165001
 22
-40.0
 32
0.0
 13
1.953987871165001
 23
-40.0
 33
0.0
  0
MTEXT
  5
39D
330
397
100
AcDbEntity
  8
SK2
  6
ByBlock
 62
     0
100
AcDbMText
 10
29.953987871165
 20
-37.38875
 30
0.0
 40
3.5
 41
0.0
 71
     5
 72
     1
  1
\A1;56
 73
     1
 44
1.0
  0
POINT
  5
39E
330
397
100
AcDbEntity
  8
Defpoints
 62
     0
100
AcDbPoint
 10
57.953987871165
 20
-1.54
 30
0.0
  0
POINT
  5
39F
330
397
100
AcDbEntity
  8
Defpoints
 62
     0
100
AcDbPoint
 10
1.953987871165
 20
-1.7905
 30
0.0
  0
POINT
  5
3A0
330
397
100
AcDbEntity
  8
Defpoints
 62
     0
100
AcDbPoint
 10
1.953987871165
 20
-40.0
 30
0.0
  0
ENDBLK
  5
3A1
330
397
100
AcDbEntity
  8
SK2
100
AcDbBlockEnd
  0
BLOCK
  5
3A3
330
3A5
100
AcDbEntity
  8
SK2
100
AcDbBlockBegin
  2
*D1
 70
     1
 10
0.0
 20
0.0
 30
0.0
  3
*D1
  1

  0
LINE
  5
3A6
330
3A5
100
AcDbEntity
  8
SK2
 62
     0
370
    -2
100
AcDbLine
 10
14.8541
 20
1.790500000000002
 30
0.0
 11
14.8541
 21
26.29900000000001
 31
0.0
  0
LINE
  5
3A7
330
3A5
100
AcDbEntity
  8
SK2
 62
     0
370
    -2
100
AcDbLine
 10
14.8541
 20
-1.790499999999994
 30
0.0
 11
14.8541
 21
1.790500000000002
 31
0.0
  0
LINE
  5
3A8
330
3A5
100
AcDbEntity
  8
SK2
 62
     0
370
    -2
100
AcDbLine
 10
14.8541
 20
-4.790499999999994
 30
0.0
 11
14.8541
 21
-7.790499999999994
 31
0.0
  0
LINE
  5
3A9
330
3A5
100
AcDbEntity
  8
SK2
 62
     0
370
    -2
100
AcDbLine
 10
14.8541
 20
4.790500000000002
 30
0.0
 11
14.8541
 21
7.790500000000002
 31
0.0
  0
SOLID
  5
3AA
330
3A5
100
AcDbEntity
  8
SK2
 62
     0
100
AcDbTrace
 10
15.3541
 20
-4.790499999999994
 30
0.0
 11
14.3541
 21
-4.790499999999994
 31
0.0
 12
14.8541
 22
-1.790499999999994
 32
0.0
 13
14.8541
 23
-1.790499999999994
 33
0.0
  0
SOLID
  5
3AB
330
3A5
100
AcDbEntity
  8
SK2
 62
     0
100
AcDbTrace
 10
14.3541
 20
4.790500000000002
 30
0.0
 11
15.3541
 21
4.790500000000002
 31
0.0
 12
14.8541
 22
1.790500000000002
 32
0.0
 13
14.8541
 23
1.790500000000002
 33
0.0
  0
MTEXT
  5
3AC
330
3A5
100
AcDbEntity
  8
SK2
  6
ByBlock
 62
     0
100
AcDbMText
 10
12.1921
 20
17.04475
 30
0.0
 40
3.5
 41
0.0
 71
     5
 72
     1
  1
\A1;%%c3.581
 11
0.0
 21
1.0
 31
0.0
 73
     1
 44
1.0
  0
POINT
  5
3AD
330
3A5
100
AcDbEntity
  8
Defpoints
 62
     0
100
AcDbPoint
 10
1.953987871164999
 20
-1.7905
 30
0.0
  0
POINT
  5
3AE
330
3A5
100
AcDbEntity
  8
Defpoints
 62
     0
100
AcDbPoint
 10
1.953987871164999
 20
1.7905
 30
0.0
  0
POINT
  5
106ABE2
330
3A5
100
AcDbEntity
  8
Defpoints
 62
     0
100
AcDbPoint
 10
14.8541
 20
1.790500000000001
 30
0.0
  0
ENDBLK
  5
3AF
330
3A5
100
AcDbEntity
  8
SK2
100
AcDbBlockEnd
  0
BLOCK
  5
3B1
330
3B3
100
AcDbEntity
  8
SK2
100
AcDbBlockBegin
  2
*D2
 70
     1
 10
0.0
 20
0.0
 30
0.0
  3
*D2
  1

  0
LINE
  5
3B4
330
3B3
100
AcDbEntity
  8
SK2
 62
     0
370
    -2
100
AcDbLine
 10
6.753987871165
 20
-2.2905
 30
0.0
 11
6.753987871165
 21
-17.0
 31
0.0
  0
LINE
  5
3B5
330
3B3
100
AcDbEntity
  8
SK2
 62
     0
370
    -2
100
AcDbLine
 10
1.953987871165
 20
-2.2905
 30
0.0
 11
1.953987871164999
 21
-17.0
 31
0.0
  0
LINE
  5
3B6
330
3B3
100
AcDbEntity
  8
SK2
 62
     0
370
    -2
100
AcDbLine
 10
1.953987871164999
 20
-16.0
 30
0.0
 11
-14.172012128835
 21
-16.0
 31
0.0
  0
LINE
  5
3B7
330
3B3
100
AcDbEntity
  8
SK2
 62
     0
370
    -2
100
AcDbLine
 10
6.753987871165
 20
-16.0
 30
0.0
 11
1.953987871164999
 21
-16.0
 31
0.0
  0
LINE
  5
3B8
330
3B3
100
AcDbEntity
  8
SK2
 62
     0
370
    -2
100
AcDbLine
 10
9.753987871165
 20
-16.0
 30
0.0
 11
12.753987871165
 21
-16.0
 31
0.0
  0
LINE
  5
3B9
330
3B3
100
AcDbEntity
  8
SK2
 62
     0
370
    -2
100
AcDbLine
 10
-1.046012128835001
 20
-16.0
 30
0.0
 11
-4.046012128835001
 21
-16.0
 31
0.0
  0
SOLID
  5
3BA
330
3B3
100
AcDbEntity
  8
SK2
 62
     0
100
AcDbTrace
 10
9.753987871165
 20
-15.5
 30
0.0
 11
9.753987871165
 21
-16.5
 31
0.0
 12
6.753987871165
 22
-16.0
 32
0.0
 13
6.753987871165
 23
-16.0
 33
0.0
  0
SOLID
  5
3BB
330
3B3
100
AcDbEntity
  8
SK2
 62
     0
100
AcDbTrace
 10
-1.046012128835001
 20
-16.5
 30
0.0
 11
-1.046012128835001
 21
-15.5
 31
0.0
 12
1.953987871164999
 22
-16.0
 32
0.0
 13
1.953987871164999
 23
-16.0
 33
0.0
  0
MTEXT
  5
3BC
330
3B3
100
AcDbEntity
  8
SK2
  6
ByBlock
 62
     0
100
AcDbMText
 10
-9.109012128835001
 20
-13.38875
 30
0.0
 40
3.5
 41
0.0
 71
     5
 72
     1
  1
\A1;4.8
 73
     1
 44
1.0
  0
POINT
  5
106ABE4
330
3B3
100
AcDbEntity
  8
Defpoints
 62
     0
100
AcDbPoint
 10
6.753987871165
 20
-1.7905
 30
0.0
  0
POINT
  5
106ABE5
330
3B3
100
AcDbEntity
  8
Defpoints
 62
     0
100
AcDbPoint
 10
1.953987871165
 20
-1.7905
 30
0.0
  0
POINT
  5
106ABEC
330
3B3
100
AcDbEntity
  8
Defpoints
 62
     0
100
AcDbPoint
 10
1.953987871165
 20
-16.0
 30
0.0
  0
ENDBLK
  5
3BD
330
3B3
100
AcDbEntity
  8
SK2
100
AcDbBlockEnd
  0
BLOCK
  5
3BF
330
3C1
100
AcDbEntity
  8
2
100
AcDbBlockBegin
  2
*D3
 70
     1
 10
0.0
 20
0.0
 30
0.0
  3
*D3
  1

  0
LINE
  5
3C2
330
3C1
100
AcDbEntity
  8
2
 62
     0
370
    -2
100
AcDbLine
 10
57.953987871165
 20
-2.04
 30
0.0
 11
57.953987871165
 21
-25.0
 31
0.0
  0
LINE
  5
3C3
330
3C1
100
AcDbEntity
  8
2
 62
     0
370
    -2
100
AcDbLine
 10
50.753987871165
 20
-2.25
 30
0.0
 11
50.753987871165
 21
-25.0
 31
0.0
  0
LINE
  5
3C4
330
3C1
100
AcDbEntity
  8
2
 62
     0
370
    -2
100
AcDbLine
 10
57.953987871165
 20
-24.0
 30
0.0
 11
74.00699999999999
 21
-24.0
 31
0.0
  0
LINE
  5
3C5
330
3C1
100
AcDbEntity
  8
2
 62
     0
370
    -2
100
AcDbLine
 10
57.953987871165
 20
-24.0
 30
0.0
 11
50.753987871165
 21
-24.0
 31
0.0
  0
LINE
  5
3C6
330
3C1
100
AcDbEntity
  8
2
 62
     0
370
    -2
100
AcDbLine
 10
60.953987871165
 20
-24.0
 30
0.0
 11
63.953987871165
 21
-24.0
 31
0.0
  0
LINE
  5
3C7
330
3C1
100
AcDbEntity
  8
2
 62
     0
370
    -2
100
AcDbLine
 10
47.753987871165
 20
-24.0
 30
0.0
 11
44.753987871165
 21
-24.0
 31
0.0
  0
SOLID
  5
3C8
330
3C1
100
AcDbEntity
  8
2
 62
     0
100
AcDbTrace
 10
60.953987871165
 20
-23.5
 30
0.0
 11
60.953987871165
 21
-24.5
 31
0.0
 12
57.953987871165
 22
-24.0
 32
0.0
 13
57.953987871165
 23
-24.0
 33
0.0
  0
SOLID
  5
3C9
330
3C1
100
AcDbEntity
  8
2
 62
     0
100
AcDbTrace
 10
47.753987871165
 20
-24.5
 30
0.0
 11
47.753987871165
 21
-23.5
 31
0.0
 12
50.753987871165
 22
-24.0
 32
0.0
 13
50.753987871165
 23
-24.0
 33
0.0
  0
MTEXT
  5
3CA
330
3C1
100
AcDbEntity
  8
2
  6
ByBlock
 62
     0
100
AcDbMText
 10
69.0
 20
-21.4395
 30
0.0
 40
3.5
 41
0.0
 71
     5
 72
     1
  1
\A1;7.2
 73
     1
 44
1.0
  0
POINT
  5
106ABE6
330
3C1
100
AcDbEntity
  8
Defpoints
 62
     0
100
AcDbPoint
 10
57.953987871165
 20
-1.54
 30
0.0
  0
POINT
  5
106ABE7
330
3C1
100
AcDbEntity
  8
Defpoints
 62
     0
100
AcDbPoint
 10
50.753987871165
 20
-1.75
 30
0.0
  0
POINT
  5
106AC49
330
3C1
100
AcDbEntity
  8
Defpoints
 62
     0
100
AcDbPoint
 10
50.753987871165
 20
-24.0
 30
0.0
  0
ENDBLK
  5
3CB
330
3C1
100
AcDbEntity
  8
2
100
AcDbBlockEnd
  0
BLOCK
  5
3CD
330
3CF
100
AcDbEntity
  8
2
100
AcDbBlockBegin
  2
*D4
 70
     1
 10
0.0
 20
0.0
 30
0.0
  3
*D4
  1

  0
LINE
  5
3D0
330
3CF
100
AcDbEntity
  8
2
 62
     0
370
    -2
100
AcDbLine
 10
57.953987871165
 20
-2.04
 30
0.0
 11
57.953987871165
 21
-33.0
 31
0.0
  0
LINE
  5
3D1
330
3CF
100
AcDbEntity
  8
2
 62
     0
370
    -2
100
AcDbLine
 10
37.953987871165
 20
-1.85
 30
0.0
 11
37.953987871165
 21
-33.0
 31
0.0
  0
LINE
  5
3D2
330
3CF
100
AcDbEntity
  8
2
 62
     0
370
    -2
100
AcDbLine
 10
54.953987871165
 20
-32.0
 30
0.0
 11
40.953987871165
 21
-32.0
 31
0.0
  0
SOLID
  5
3D3
330
3CF
100
AcDbEntity
  8
2
 62
     0
100
AcDbTrace
 10
54.953987871165
 20
-32.5
 30
0.0
 11
54.953987871165
 21
-31.5
 31
0.0
 12
57.953987871165
 22
-32.0
 32
0.0
 13
57.953987871165
 23
-32.0
 33
0.0
  0
SOLID
  5
3D4
330
3CF
100
AcDbEntity
  8
2
 62
     0
100
AcDbTrace
 10
40.953987871165
 20
-31.5
 30
0.0
 11
40.953987871165
 21
-32.5
 31
0.0
 12
37.953987871165
 22
-32.0
 32
0.0
 13
37.953987871165
 23
-32.0
 33
0.0
  0
MTEXT
  5
3D5
330
3CF
100
AcDbEntity
  8
2
  6
ByBlock
 62
     0
100
AcDbMText
 10
47.953987871165
 20
-29.38875
 30
0.0
 40
3.5
 41
0.0
 71
     5
 72
     1
  1
\A1;20
 73
     1
 44
1.0
  0
POINT
  5
3D6
330
3CF
100
AcDbEntity
  8
Defpoints
 62
     0
100
AcDbPoint
 10
57.953987871165
 20
-1.54
 30
0.0
  0
POINT
  5
3D7
330
3CF
100
AcDbEntity
  8
Defpoints
 62
     0
100
AcDbPoint
 10
37.953987871165
 20
-1.35
 30
0.0
  0
POINT
  5
3D8
330
3CF
100
AcDbEntity
  8
Defpoints
 62
     0
100
AcDbPoint
 10
37.953987871165
 20
-32.0
 30
0.0
  0
ENDBLK
  5
3D9
330
3CF
100
AcDbEntity
  8
2
100
AcDbBlockEnd
  0
BLOCK
  5
3DB
330
3DD
100
AcDbEntity
  8
2
100
AcDbBlockBegin
  2
*D5
 70
     1
 10
0.0
 20
0.0
 30
0.0
  3
*D5
  1

  0
LINE
  5
3DE
330
3DD
100
AcDbEntity
  8
2
 62
     0
370
    -2
100
AcDbLine
 10
44.007577709651
 20
1.35
 30
0.0
 11
44.007577709651
 21
20.6435
 31
0.0
  0
LINE
  5
3DF
330
3DD
100
AcDbEntity
  8
2
 62
     0
370
    -2
100
AcDbLine
 10
44.007577709651
 20
-1.35
 30
0.0
 11
44.007577709651
 21
1.35
 31
0.0
  0
LINE
  5
3E0
330
3DD
100
AcDbEntity
  8
2
 62
     0
370
    -2
100
AcDbLine
 10
44.007577709651
 20
-4.35
 30
0.0
 11
44.007577709651
 21
-7.35
 31
0.0
  0
LINE
  5
3E1
330
3DD
100
AcDbEntity
  8
2
 62
     0
370
    -2
100
AcDbLine
 10
44.007577709651
 20
4.35
 30
0.0
 11
44.007577709651
 21
7.35
 31
0.0
  0
SOLID
  5
3E2
330
3DD
100
AcDbEntity
  8
2
 62
     0
100
AcDbTrace
 10
44.507577709651
 20
-4.35
 30
0.0
 11
43.507577709651
 21
-4.35
 31
0.0
 12
44.007577709651
 22
-1.35
 32
0.0
 13
44.007577709651
 23
-1.35
 33
0.0
  0
SOLID
  5
3E3
330
3DD
100
AcDbEntity
  8
2
 62
     0
100
AcDbTrace
 10
43.507577709651
 20
4.35
 30
0.0
 11
44.507577709651
 21
4.35
 31
0.0
 12
44.007577709651
 22
1.35
 32
0.0
 13
44.007577709651
 23
1.35
 33
0.0
  0
MTEXT
  5
3E4
330
3DD
100
AcDbEntity
  8
2
  6
ByBlock
 62
     0
100
AcDbMText
 10
41.345577709651
 20
13.99675
 30
0.0
 40
3.5
 41
0.0
 71
     5
 72
     1
  1
\A1;%%c2.7
 11
0.0
 21
1.0
 31
0.0
 73
     1
 44
1.0
  0
POINT
  5
3E5
330
3DD
100
AcDbEntity
  8
Defpoints
 62
     0
100
AcDbPoint
 10
37.953987871165
 20
-1.35
 30
0.0
  0
POINT
  5
3E6
330
3DD
100
AcDbEntity
  8
Defpoints
 62
     0
100
AcDbPoint
 10
37.953987871165
 20
1.35
 30
0.0
  0
POINT
  5
106ABE8
330
3DD
100
AcDbEntity
  8
Defpoints
 62
     0
100
AcDbPoint
 10
44.007577709651
 20
1.350000000000001
 30
0.0
  0
ENDBLK
  5
3E7
330
3DD
100
AcDbEntity
  8
2
100
AcDbBlockEnd
  0
BLOCK
  5
3E9
330
3EB
100
AcDbEntity
  8
2
100
AcDbBlockBegin
  2
*D6
 70
     1
 10
0.0
 20
0.0
 30
0.0
  3
*D6
  1

  0
LINE
  5
3EC
330
3EB
100
AcDbEntity
  8
2
 62
     0
370
    -2
100
AcDbLine
 10
59.634602962811
 20
0.5
 30
0.0
 11
59.634602962811
 21
36.0
 31
0.0
  0
LINE
  5
3ED
330
3EB
100
AcDbEntity
  8
2
 62
     0
370
    -2
100
AcDbLine
 10
21.134602962811
 20
2.2905
 30
0.0
 11
21.134602962811
 21
36.0
 31
0.0
  0
LINE
  5
3EE
330
3EB
100
AcDbEntity
  8
2
 62
     0
370
    -2
100
AcDbLine
 10
56.634602962811
 20
35.0
 30
0.0
 11
24.134602962811
 21
35.0
 31
0.0
  0
SOLID
  5
3EF
330
3EB
100
AcDbEntity
  8
2
 62
     0
100
AcDbTrace
 10
56.634602962811
 20
34.5
 30
0.0
 11
56.634602962811
 21
35.5
 31
0.0
 12
59.634602962811
 22
35.0
 32
0.0
 13
59.634602962811
 23
35.0
 33
0.0
  0
SOLID
  5
3F0
330
3EB
100
AcDbEntity
  8
2
 62
     0
100
AcDbTrace
 10
24.134602962811
 20
35.5
 30
0.0
 11
24.134602962811
 21
34.5
 31
0.0
 12
21.134602962811
 22
35.0
 32
0.0
 13
21.134602962811
 23
35.0
 33
0.0
  0
MTEXT
  5
3F1
330
3EB
100
AcDbEntity
  8
2
  6
ByBlock
 62
     0
100
AcDbMText
 10
40.384602962811
 20
37.61125
 30
0.0
 40
3.5
 41
0.0
 71
     5
 72
     1
  1
\A1;38.5
 73
     1
 44
1.0
  0
POINT
  5
3F2
330
3EB
100
AcDbEntity
  8
Defpoints
 62
     0
100
AcDbPoint
 10
59.634602962811
 20
0.0
 30
0.0
  0
POINT
  5
3F3
330
3EB
100
AcDbEntity
  8
Defpoints
 62
     0
100
AcDbPoint
 10
21.134602962811
 20
1.7905
 30
0.0
  0
POINT
  5
3F4
330
3EB
100
AcDbEntity
  8
Defpoints
 62
     0
100
AcDbPoint
 10
21.134602962811
 20
35.0
 30
0.0
  0
ENDBLK
  5
3F5
330
3EB
100
AcDbEntity
  8
2
100
AcDbBlockEnd
  0
BLOCK
  5
106ABFA
330
106ABF9
100
AcDbEntity
  8
2
100
AcDbBlockBegin
  2
*D7
 70
     1
 10
0.0
 20
0.0
 30
0.0
  3
*D7
  1

  0
LINE
  5
106ABFB
330
106ABF9
100
AcDbEntity
  8
2
 62
     0
370
    -2
100
AcDbLine
 10
3.081749999999992
 20
6.0
 30
0.0
 11
5.581749999999992
 21
6.0
 31
0.0
  0
LINE
  5
106ABFC
330
106ABF9
100
AcDbEntity
  8
2
 62
     0
370
    -2
100
AcDbLine
 10
3.081749999999992
 20
8.7
 30
0.0
 11
5.581749999999992
 21
8.7
 31
0.0
  0
LINE
  5
106ABFD
330
106ABF9
100
AcDbEntity
  8
2
 62
     0
370
    -2
100
AcDbLine
 10
4.581749999999992
 20
8.7
 30
0.0
 11
4.581749999999992
 21
29.50375
 31
0.0
  0
LINE
  5
106ABFE
330
106ABF9
100
AcDbEntity
  8
2
 62
     0
370
    -2
100
AcDbLine
 10
4.581749999999992
 20
6.0
 30
0.0
 11
4.581749999999992
 21
8.7
 31
0.0
  0
LINE
  5
106ABFF
330
106ABF9
100
AcDbEntity
  8
2
 62
     0
370
    -2
100
AcDbLine
 10
4.581749999999992
 20
3.0
 30
0.0
 11
4.581749999999992
 21
0.0
 31
0.0
  0
LINE
  5
106AC00
330
106ABF9
100
AcDbEntity
  8
2
 62
     0
370
    -2
100
AcDbLine
 10
4.581749999999992
 20
11.7
 30
0.0
 11
4.581749999999992
 21
14.7
 31
0.0
  0
SOLID
  5
106AC01
330
106ABF9
100
AcDbEntity
  8
2
 62
     0
100
AcDbTrace
 10
5.081749999999992
 20
3.0
 30
0.0
 11
4.081749999999992
 21
3.0
 31
0.0
 12
4.581749999999992
 22
6.0
 32
0.0
 13
4.581749999999992
 23
6.0
 33
0.0
  0
SOLID
  5
106AC02
330
106ABF9
100
AcDbEntity
  8
2
 62
     0
100
AcDbTrace
 10
4.081749999999992
 20
11.7
 30
0.0
 11
5.081749999999992
 21
11.7
 31
0.0
 12
4.581749999999992
 22
8.7
 32
0.0
 13
4.581749999999992
 23
8.7
 33
0.0
  0
MTEXT
  5
106AC03
330
106ABF9
100
AcDbEntity
  8
2
  6
ByBlock
 62
     0
100
AcDbMText
 10
1.919749999999994
 20
22.857
 30
0.0
 40
3.5
 41
0.0
 71
     5
 72
     1
  1
\A1;%%c2.7
 11
0.0
 21
1.0
 31
0.0
 73
     1
 44
1.0
  0
POINT
  5
106AC04
330
106ABF9
100
AcDbEntity
  8
Defpoints
 62
     0
100
AcDbPoint
 10
2.581749999999992
 20
6.0
 30
0.0
  0
POINT
  5
106AC05
330
106ABF9
100
AcDbEntity
  8
Defpoints
 62
     0
100
AcDbPoint
 10
2.581749999999992
 20
8.7
 30
0.0
  0
POINT
  5
106AC06
330
106ABF9
100
AcDbEntity
  8
Defpoints
 62
     0
100
AcDbPoint
 10
4.581749999999992
 20
8.7
 30
0.0
  0
ENDBLK
  5
106AC07
330
106ABF9
100
AcDbEntity
  8
2
100
AcDbBlockEnd
  0
BLOCK
  5
106AC0D
330
106AC0C
100
AcDbEntity
  8
0
100
AcDbBlockBegin
  2
*D8
 70
     1
 10
0.0
 20
0.0
 30
0.0
  3
*D8
  1

  0
LINE
  5
106AC0F
330
106AC0C
100
AcDbEntity
  8
2
 62
     0
370
    -2
100
AcDbLine
 10
58.453987871165
 20
-1.54
 30
0.0
 11
87.0
 21
-1.540000000000001
 31
0.0
  0
LINE
  5
106AC10
330
106AC0C
100
AcDbEntity
  8
2
 62
     0
370
    -2
100
AcDbLine
 10
58.453987871165
 20
1.54
 30
0.0
 11
87.0
 21
1.540000000000003
 31
0.0
  0
LINE
  5
106AC11
330
106AC0C
100
AcDbEntity
  8
2
 62
     0
370
    -2
100
AcDbLine
 10
86.0
 20
1.540000000000003
 30
0.0
 11
86.0
 21
23.85049999999999
 31
0.0
  0
LINE
  5
106AC12
330
106AC0C
100
AcDbEntity
  8
2
 62
     0
370
    -2
100
AcDbLine
 10
86.0
 20
-1.540000000000001
 30
0.0
 11
86.0
 21
1.540000000000003
 31
0.0
  0
LINE
  5
106AC13
330
106AC0C
100
AcDbEntity
  8
2
 62
     0
370
    -2
100
AcDbLine
 10
86.0
 20
-4.540000000000001
 30
0.0
 11
86.0
 21
-7.540000000000001
 31
0.0
  0
LINE
  5
106AC14
330
106AC0C
100
AcDbEntity
  8
2
 62
     0
370
    -2
100
AcDbLine
 10
86.0
 20
4.540000000000003
 30
0.0
 11
86.0
 21
7.540000000000003
 31
0.0
  0
SOLID
  5
106AC15
330
106AC0C
100
AcDbEntity
  8
2
 62
     0
100
AcDbTrace
 10
86.5
 20
-4.540000000000001
 30
0.0
 11
85.5
 21
-4.540000000000001
 31
0.0
 12
86.0
 22
-1.540000000000001
 32
0.0
 13
86.0
 23
-1.540000000000001
 33
0.0
  0
SOLID
  5
106AC16
330
106AC0C
100
AcDbEntity
  8
2
 62
     0
100
AcDbTrace
 10
85.5
 20
4.540000000000003
 30
0.0
 11
86.5
 21
4.540000000000003
 31
0.0
 12
86.0
 22
1.540000000000003
 32
0.0
 13
86.0
 23
1.540000000000003
 33
0.0
  0
MTEXT
  5
106AC17
330
106AC0C
100
AcDbEntity
  8
2
  6
ByBlock
 62
     0
100
AcDbMText
 10
83.338
 20
15.69525
 30
0.0
 40
3.5
 41
0.0
 71
     5
 72
     1
  1
\A1;%%c3.08
 11
0.0
 21
1.0
 31
0.0
 73
     1
 44
1.0
  0
POINT
  5
106AC18
330
106AC0C
100
AcDbEntity
  8
Defpoints
 62
     0
100
AcDbPoint
 10
57.953987871165
 20
-1.54
 30
0.0
  0
POINT
  5
106AC19
330
106AC0C
100
AcDbEntity
  8
Defpoints
 62
     0
100
AcDbPoint
 10
57.953987871165
 20
1.54
 30
0.0
  0
POINT
  5
106AC1A
330
106AC0C
100
AcDbEntity
  8
Defpoints
 62
     0
100
AcDbPoint
 10
86.0
 20
1.540000000000002
 30
0.0
  0
ENDBLK
  5
106AC0E
330
106AC0C
100
AcDbEntity
  8
0
100
AcDbBlockEnd
  0
BLOCK
  5
106AC28
330
106AC27
100
AcDbEntity
  8
2
100
AcDbBlockBegin
  2
*D9
 70
     1
 10
0.0
 20
0.0
 30
0.0
  3
*D9
  1

  0
LINE
  5
106AC29
330
106AC27
100
AcDbEntity
  8
2
 62
     0
370
    -2
100
AcDbLine
 10
13.2
 20
12.7505
 30
0.0
 11
13.2
 21
0.0000000000000018
 31
0.0
  0
LINE
  5
106AC2A
330
106AC27
100
AcDbEntity
  8
2
 62
     0
370
    -2
100
AcDbLine
 10
6.000000000000007
 20
12.5405
 30
0.0
 11
6.000000000000007
 21
0.0000000000000018
 31
0.0
  0
LINE
  5
106AC2B
330
106AC27
100
AcDbEntity
  8
2
 62
     0
370
    -2
100
AcDbLine
 10
13.2
 20
1.000000000000002
 30
0.0
 11
6.000000000000007
 21
1.000000000000002
 31
0.0
  0
LINE
  5
106AC2C
330
106AC27
100
AcDbEntity
  8
2
 62
     0
370
    -2
100
AcDbLine
 10
16.2
 20
1.000000000000002
 30
0.0
 11
19.2
 21
1.000000000000002
 31
0.0
  0
LINE
  5
106AC2D
330
106AC27
100
AcDbEntity
  8
2
 62
     0
370
    -2
100
AcDbLine
 10
3.000000000000007
 20
1.000000000000002
 30
0.0
 11
0.0000000000000071
 21
1.000000000000002
 31
0.0
  0
SOLID
  5
106AC2E
330
106AC27
100
AcDbEntity
  8
2
 62
     0
100
AcDbTrace
 10
16.2
 20
1.500000000000002
 30
0.0
 11
16.2
 21
0.5000000000000018
 31
0.0
 12
13.2
 22
1.000000000000002
 32
0.0
 13
13.2
 23
1.000000000000002
 33
0.0
  0
SOLID
  5
106AC2F
330
106AC27
100
AcDbEntity
  8
2
 62
     0
100
AcDbTrace
 10
3.000000000000007
 20
0.5000000000000018
 30
0.0
 11
3.000000000000007
 21
1.500000000000002
 31
0.0
 12
6.000000000000007
 22
1.000000000000002
 32
0.0
 13
6.000000000000007
 23
1.000000000000002
 33
0.0
  0
MTEXT
  5
106AC30
330
106AC27
100
AcDbEntity
  8
2
  6
ByBlock
 62
     0
100
AcDbMText
 10
9.600000000000009
 20
3.560500000000002
 30
0.0
 40
3.5
 41
0.0
 71
     5
 72
     1
  1
\A1;7.2
 73
     1
 44
1.0
  0
POINT
  5
106AC31
330
106AC27
100
AcDbEntity
  8
Defpoints
 62
     0
100
AcDbPoint
 10
13.2
 20
13.2505
 30
0.0
  0
POINT
  5
106AC32
330
106AC27
100
AcDbEntity
  8
Defpoints
 62
     0
100
AcDbPoint
 10
6.000000000000007
 20
13.0405
 30
0.0
  0
POINT
  5
106AC33
330
106AC27
100
AcDbEntity
  8
Defpoints
 62
     0
100
AcDbPoint
 10
6.000000000000007
 20
1.000000000000002
 30
0.0
  0
ENDBLK
  5
106AC34
330
106AC27
100
AcDbEntity
  8
2
100
AcDbBlockEnd
  0
BLOCK
  5
106AC3A
330
106AC39
100
AcDbEntity
  8
0
100
AcDbBlockBegin
  2
*D10
 70
     1
 10
0.0
 20
0.0
 30
0.0
  3
*D10
  1

  0
LINE
  5
106AC3C
330
106AC39
100
AcDbEntity
  8
2
 62
     0
370
    -2
100
AcDbLine
 10
57.953987871165
 20
-2.04
 30
0.0
 11
57.953987871165
 21
-17.0
 31
0.0
  0
LINE
  5
106AC3D
330
106AC39
100
AcDbEntity
  8
2
 62
     0
370
    -2
100
AcDbLine
 10
56.553987871165
 20
-2.25
 30
0.0
 11
56.553987871165
 21
-17.0
 31
0.0
  0
LINE
  5
106AC3E
330
106AC39
100
AcDbEntity
  8
2
 62
     0
370
    -2
100
AcDbLine
 10
57.953987871165
 20
-16.0
 30
0.0
 11
73.89675
 21
-16.0
 31
0.0
  0
LINE
  5
106AC3F
330
106AC39
100
AcDbEntity
  8
2
 62
     0
370
    -2
100
AcDbLine
 10
57.953987871165
 20
-16.0
 30
0.0
 11
56.553987871165
 21
-16.0
 31
0.0
  0
LINE
  5
106AC40
330
106AC39
100
AcDbEntity
  8
2
 62
     0
370
    -2
100
AcDbLine
 10
60.953987871165
 20
-16.0
 30
0.0
 11
63.953987871165
 21
-16.0
 31
0.0
  0
LINE
  5
106AC41
330
106AC39
100
AcDbEntity
  8
2
 62
     0
370
    -2
100
AcDbLine
 10
53.553987871165
 20
-16.0
 30
0.0
 11
50.553987871165
 21
-16.0
 31
0.0
  0
SOLID
  5
106AC42
330
106AC39
100
AcDbEntity
  8
2
 62
     0
100
AcDbTrace
 10
60.953987871165
 20
-15.5
 30
0.0
 11
60.953987871165
 21
-16.5
 31
0.0
 12
57.953987871165
 22
-16.0
 32
0.0
 13
57.953987871165
 23
-16.0
 33
0.0
  0
SOLID
  5
106AC43
330
106AC39
100
AcDbEntity
  8
2
 62
     0
100
AcDbTrace
 10
53.553987871165
 20
-16.5
 30
0.0
 11
53.553987871165
 21
-15.5
 31
0.0
 12
56.553987871165
 22
-16.0
 32
0.0
 13
56.553987871165
 23
-16.0
 33
0.0
  0
MTEXT
  5
106AC44
330
106AC39
100
AcDbEntity
  8
2
  6
ByBlock
 62
     0
100
AcDbMText
 10
69.0
 20
-13.4395
 30
0.0
 40
3.5
 41
0.0
 71
     5
 72
     1
  1
\A1;1.4
 73
     1
 44
1.0
  0
POINT
  5
106AC4A
330
106AC39
100
AcDbEntity
  8
Defpoints
 62
     0
100
AcDbPoint
 10
57.953987871165
 20
-1.54
 30
0.0
  0
POINT
  5
106AC4B
330
106AC39
100
AcDbEntity
  8
Defpoints
 62
     0
100
AcDbPoint
 10
56.553987871165
 20
-1.75
 30
0.0
  0
POINT
  5
106AC4C
330
106AC39
100
AcDbEntity
  8
Defpoints
 62
     0
100
AcDbPoint
 10
56.553987871165
 20
-16.0
 30
0.0
  0
ENDBLK
  5
106AC3B
330
106AC39
100
AcDbEntity
  8
0
100
AcDbBlockEnd
  0
BLOCK
  5
106AC5A
330
106AC59
100
AcDbEntity
  8
0
100
AcDbBlockBegin
  2
*D11
 70
     1
 10
0.0
 20
0.0
 30
0.0
  3
*D11
  1

  0
LINE
  5
106AC5B
330
106AC59
100
AcDbEntity
  8
2
 62
     0
370
    -2
100
AcDbLine
 10
0.5
 20
6.000000000000001
 30
0.0
 11
29.046012128835
 21
6.0
 31
0.0
  0
LINE
  5
106AC5C
330
106AC59
100
AcDbEntity
  8
2
 62
     0
370
    -2
100
AcDbLine
 10
0.5
 20
9.080000000000002
 30
0.0
 11
29.046012128835
 21
9.080000000000004
 31
0.0
  0
LINE
  5
106AC5D
330
106AC59
100
AcDbEntity
  8
2
 62
     0
370
    -2
100
AcDbLine
 10
28.046012128835
 20
9.080000000000004
 30
0.0
 11
28.046012128835
 21
31.3905
 31
0.0
  0
LINE
  5
106AC5E
330
106AC59
100
AcDbEntity
  8
2
 62
     0
370
    -2
100
AcDbLine
 10
28.046012128835
 20
6.0
 30
0.0
 11
28.046012128835
 21
9.080000000000004
 31
0.0
  0
LINE
  5
106AC5F
330
106AC59
100
AcDbEntity
  8
2
 62
     0
370
    -2
100
AcDbLine
 10
28.046012128835
 20
3.0
 30
0.0
 11
28.046012128835
 21
0.0
 31
0.0
  0
LINE
  5
106AC60
330
106AC59
100
AcDbEntity
  8
2
 62
     0
370
    -2
100
AcDbLine
 10
28.046012128835
 20
12.08
 30
0.0
 11
28.046012128835
 21
15.08
 31
0.0
  0
SOLID
  5
106AC61
330
106AC59
100
AcDbEntity
  8
2
 62
     0
100
AcDbTrace
 10
28.546012128835
 20
3.0
 30
0.0
 11
27.546012128835
 21
3.0
 31
0.0
 12
28.046012128835
 22
6.0
 32
0.0
 13
28.046012128835
 23
6.0
 33
0.0
  0
SOLID
  5
106AC62
330
106AC59
100
AcDbEntity
  8
2
 62
     0
100
AcDbTrace
 10
27.546012128835
 20
12.08
 30
0.0
 11
28.546012128835
 21
12.08
 31
0.0
 12
28.046012128835
 22
9.080000000000004
 32
0.0
 13
28.046012128835
 23
9.080000000000004
 33
0.0
  0
MTEXT
  5
106AC63
330
106AC59
100
AcDbEntity
  8
2
  6
ByBlock
 62
     0
100
AcDbMText
 10
25.384012128835
 20
23.23525
 30
0.0
 40
3.5
 41
0.0
 71
     5
 72
     1
  1
\A1;%%c3.08
 11
0.0
 21
1.0
 31
0.0
 73
     1
 44
1.0
  0
POINT
  5
106AC64
330
106AC59
100
AcDbEntity
  8
Defpoints
 62
     0
100
AcDbPoint
 10
0.0
 20
6.000000000000001
 30
0.0
  0
POINT
  5
106AC65
330
106AC59
100
AcDbEntity
  8
Defpoints
 62
     0
100
AcDbPoint
 10
0.0
 20
9.080000000000002
 30
0.0
  0
POINT
  5
106AC66
330
106AC59
100
AcDbEntity
  8
Defpoints
 62
     0
100
AcDbPoint
 10
28.046012128835
 20
9.080000000000004
 30
0.0
  0
ENDBLK
  5
106AC67
330
106AC59
100
AcDbEntity
  8
0
100
AcDbBlockEnd
  0
BLOCK
  5
106AC6D
330
106AC6C
100
AcDbEntity
  8
0
100
AcDbBlockBegin
  2
*D12
 70
     1
 10
0.0
 20
0.0
 30
0.0
  3
*D12
  1

  0
LINE
  5
106AC6F
330
106AC6C
100
AcDbEntity
  8
2
 62
     0
370
    -2
100
AcDbLine
 10
57.053987871165
 20
-1.75
 30
0.0
 11
95.0
 21
-1.749999999999996
 31
0.0
  0
LINE
  5
106AC70
330
106AC6C
100
AcDbEntity
  8
2
 62
     0
370
    -2
100
AcDbLine
 10
57.053987871165
 20
1.75
 30
0.0
 11
95.0
 21
1.750000000000004
 31
0.0
  0
LINE
  5
106AC71
330
106AC6C
100
AcDbEntity
  8
2
 62
     0
370
    -2
100
AcDbLine
 10
94.0
 20
1.750000000000004
 30
0.0
 11
94.0
 21
36.048
 31
0.0
  0
LINE
  5
106AC72
330
106AC6C
100
AcDbEntity
  8
2
 62
     0
370
    -2
100
AcDbLine
 10
94.0
 20
-1.749999999999996
 30
0.0
 11
94.0
 21
1.750000000000004
 31
0.0
  0
LINE
  5
106AC73
330
106AC6C
100
AcDbEntity
  8
2
 62
     0
370
    -2
100
AcDbLine
 10
94.0
 20
-4.749999999999996
 30
0.0
 11
94.0
 21
-7.749999999999996
 31
0.0
  0
LINE
  5
106AC74
330
106AC6C
100
AcDbEntity
  8
2
 62
     0
370
    -2
100
AcDbLine
 10
94.0
 20
4.750000000000004
 30
0.0
 11
94.0
 21
7.750000000000004
 31
0.0
  0
SOLID
  5
106AC75
330
106AC6C
100
AcDbEntity
  8
2
 62
     0
100
AcDbTrace
 10
94.5
 20
-4.749999999999996
 30
0.0
 11
93.5
 21
-4.749999999999996
 31
0.0
 12
94.0
 22
-1.749999999999996
 32
0.0
 13
94.0
 23
-1.749999999999996
 33
0.0
  0
SOLID
  5
106AC76
330
106AC6C
100
AcDbEntity
  8
2
 62
     0
100
AcDbTrace
 10
93.5
 20
4.750000000000004
 30
0.0
 11
94.5
 21
4.750000000000004
 31
0.0
 12
94.0
 22
1.750000000000004
 32
0.0
 13
94.0
 23
1.750000000000004
 33
0.0
  0
MTEXT
  5
106AC77
330
106AC6C
100
AcDbEntity
  8
2
  6
ByBlock
 62
     0
100
AcDbMText
 10
91.38875
 20
21.899
 30
0.0
 40
3.5
 41
0.0
 71
     5
 72
     1
  1
\A1;M3.5X0.35
 11
0.0
 21
1.0
 31
0.0
 73
     1
 44
1.0
  0
POINT
  5
106AC78
330
106AC6C
100
AcDbEntity
  8
Defpoints
 62
     0
100
AcDbPoint
 10
56.553987871165
 20
-1.75
 30
0.0
  0
POINT
  5
106AC79
330
106AC6C
100
AcDbEntity
  8
Defpoints
 62
     0
100
AcDbPoint
 10
56.553987871165
 20
1.75
 30
0.0
  0
POINT
  5
106AC7A
330
106AC6C
100
AcDbEntity
  8
Defpoints
 62
     0
100
AcDbPoint
 10
94.0
 20
1.750000000000002
 30
0.0
  0
ENDBLK
  5
106AC6E
330
106AC6C
100
AcDbEntity
  8
0
100
AcDbBlockEnd
  0
BLOCK
  5
106AC88
330
106AC87
100
AcDbEntity
  8
2
100
AcDbBlockBegin
  2
*D13
 70
     1
 10
0.0
 20
0.0
 30
0.0
  3
*D13
  1

  0
LINE
  5
106AC89
330
106AC87
100
AcDbEntity
  8
2
 62
     0
370
    -2
100
AcDbLine
 10
38.5
 20
0.5
 30
0.0
 11
38.5
 21
36.0
 31
0.0
  0
LINE
  5
106AC8A
330
106AC87
100
AcDbEntity
  8
2
 62
     0
370
    -2
100
AcDbLine
 10
0.0000000000000036
 20
2.2905
 30
0.0
 11
0.0000000000000036
 21
36.0
 31
0.0
  0
LINE
  5
106AC8B
330
106AC87
100
AcDbEntity
  8
2
 62
     0
370
    -2
100
AcDbLine
 10
35.5
 20
35.0
 30
0.0
 11
3.000000000000004
 21
35.0
 31
0.0
  0
SOLID
  5
106AC8C
330
106AC87
100
AcDbEntity
  8
2
 62
     0
100
AcDbTrace
 10
35.5
 20
34.5
 30
0.0
 11
35.5
 21
35.5
 31
0.0
 12
38.5
 22
35.0
 32
0.0
 13
38.5
 23
35.0
 33
0.0
  0
SOLID
  5
106AC8D
330
106AC87
100
AcDbEntity
  8
2
 62
     0
100
AcDbTrace
 10
3.000000000000004
 20
35.5
 30
0.0
 11
3.000000000000004
 21
34.5
 31
0.0
 12
0.0000000000000036
 22
35.0
 32
0.0
 13
0.0000000000000036
 23
35.0
 33
0.0
  0
MTEXT
  5
106AC8E
330
106AC87
100
AcDbEntity
  8
2
  6
ByBlock
 62
     0
100
AcDbMText
 10
19.25
 20
37.61125
 30
0.0
 40
3.5
 41
0.0
 71
     5
 72
     1
  1
\A1;38.5
 73
     1
 44
1.0
  0
POINT
  5
106AC8F
330
106AC87
100
AcDbEntity
  8
Defpoints
 62
     0
100
AcDbPoint
 10
38.5
 20
0.0
 30
0.0
  0
POINT
  5
106AC90
330
106AC87
100
AcDbEntity
  8
Defpoints
 62
     0
100
AcDbPoint
 10
0.0000000000000036
 20
1.7905
 30
0.0
  0
POINT
  5
106AC91
330
106AC87
100
AcDbEntity
  8
Defpoints
 62
     0
100
AcDbPoint
 10
0.0000000000000036
 20
35.0
 30
0.0
  0
ENDBLK
  5
106AC92
330
106AC87
100
AcDbEntity
  8
2
100
AcDbBlockEnd
  0
BLOCK
  5
106AC98
330
106AC97
100
AcDbEntity
  8
0
100
AcDbBlockBegin
  2
*D14
 70
     1
 10
0.0
 20
0.0
 30
0.0
  3
*D14
  1

  0
LINE
  5
106AC9A
330
106AC97
100
AcDbEntity
  8
SK2
 62
     0
370
    -2
100
AcDbLine
 10
21.134602962811
 20
2.2905
 30
0.0
 11
21.134602962811
 21
36.0
 31
0.0
  0
LINE
  5
106AC9B
330
106AC97
100
AcDbEntity
  8
SK2
 62
     0
370
    -2
100
AcDbLine
 10
1.953987871165
 20
2.2905
 30
0.0
 11
1.953987871164999
 21
36.0
 31
0.0
  0
LINE
  5
106AC9C
330
106AC97
100
AcDbEntity
  8
SK2
 62
     0
370
    -2
100
AcDbLine
 10
18.134602962811
 20
35.0
 30
0.0
 11
4.953987871164999
 21
35.0
 31
0.0
  0
SOLID
  5
106AC9D
330
106AC97
100
AcDbEntity
  8
SK2
 62
     0
100
AcDbTrace
 10
18.134602962811
 20
34.5
 30
0.0
 11
18.134602962811
 21
35.5
 31
0.0
 12
21.134602962811
 22
35.0
 32
0.0
 13
21.134602962811
 23
35.0
 33
0.0
  0
SOLID
  5
106AC9E
330
106AC97
100
AcDbEntity
  8
SK2
 62
     0
100
AcDbTrace
 10
4.953987871164999
 20
35.5
 30
0.0
 11
4.953987871164999
 21
34.5
 31
0.0
 12
1.953987871164999
 22
35.0
 32
0.0
 13
1.953987871164999
 23
35.0
 33
0.0
  0
MTEXT
  5
106AC9F
330
106AC97
100
AcDbEntity
  8
SK2
  6
ByBlock
 62
     0
100
AcDbMText
 10
11.544295416988
 20
37.61125
 30
0.0
 40
3.5
 41
0.0
 71
     5
 72
     1
  1
\A1;19.2
 73
     1
 44
1.0
  0
POINT
  5
106ACA0
330
106AC97
100
AcDbEntity
  8
Defpoints
 62
     0
100
AcDbPoint
 10
21.134602962811
 20
1.7905
 30
0.0
  0
POINT
  5
106ACA1
330
106AC97
100
AcDbEntity
  8
Defpoints
 62
     0
100
AcDbPoint
 10
1.953987871165
 20
1.7905
 30
0.0
  0
POINT
  5
106ACA2
330
106AC97
100
AcDbEntity
  8
Defpoints
 62
     0
100
AcDbPoint
 10
1.953987871165
 20
35.0
 30
0.0
  0
ENDBLK
  5
106AC99
330
106AC97
100
AcDbEntity
  8
0
100
AcDbBlockEnd
  0
ENDSEC
  0
SECTION
  2
ENTITIES
  0
DIMENSION
  5
3A2
330
30
100
AcDbEntity
  8
SK2
100
AcDbDimension
  2
*D0
 10
1.953987871165001
 20
-40.0
 30
0.0
 11
29.953987871165
 21
-40.0
 31
0.0
 70
   160
  1
<>
 71
     5
 42
56.0
  3
STANDARD
100
AcDbAlignedDimension
 13
57.953987871165
 23
-1.54
 33
0.0
 14
1.953987871165
 24
-1.7905
 34
0.0
100
AcDbRotatedDimension
1001
ACAD
1000
DSTYLE
1002
{
1070
   271
1070
     0
1070
   279
1070
     0
1070
    74
1070
     0
1002
}
  0
DIMENSION
  5
3B0
330
30
100
AcDbEntity
  8
SK2
100
AcDbDimension
  2
*D1
 10
14.8541
 20
1.790500000000002
 30
0.0
 11
14.8541
 21
17.04475
 31
0.0
 70
   160
  1
%%c<>
 71
     5
 42
3.581
  3
STANDARD
100
AcDbAlignedDimension
 13
1.953987871164999
 23
-1.7905
 33
0.0
 14
1.953987871164999
 24
1.7905
 34
0.0
 50
-90.0
100
AcDbRotatedDimension
1001
ACAD
1000
DSTYLE
1002
{
1070
    76
1070
     1
1070
    75
1070
     1
1070
   271
1070
     3
1070
   279
1070
     0
1070
    74
1070
     0
1002
}
  0
DIMENSION
  5
3BE
330
30
100
AcDbEntity
  8
SK2
100
AcDbDimension
  2
*D2
 10
1.953987871164999
 20
-16.0
 30
0.0
 11
-9.109012128835001
 21
-16.0
 31
0.0
 70
   160
  1
<>
 71
     5
 42
4.8
  3
STANDARD
100
AcDbAlignedDimension
 13
6.753987871165
 23
-1.7905
 33
0.0
 14
1.953987871165
 24
-1.7905
 34
0.0
100
AcDbRotatedDimension
1001
ACAD
1000
DSTYLE
1002
{
1070
   271
1070
     1
1070
   279
1070
     0
1070
    74
1070
     0
1002
}
  0
DIMENSION
  5
3CC
330
30
100
AcDbEntity
  8
2
100
AcDbDimension
  2
*D3
 10
50.753987871165
 20
-24.0
 30
0.0
 11
69.0
 21
-24.0
 31
0.0
 70
   160
  1
<>
 71
     5
 42
7.199999999999996
  3
STANDARD
100
AcDbAlignedDimension
 13
57.953987871165
 23
-1.54
 33
0.0
 14
50.753987871165
 24
-1.75
 34
0.0
100
AcDbRotatedDimension
1001
ACAD
1000
DSTYLE
1002
{
1070
   271
1070
     1
1070
   279
1070
     0
1070
    74
1070
     0
1002
}
  0
DIMENSION
  5
3DA
330
30
100
AcDbEntity
  8
2
100
AcDbDimension
  2
*D4
 10
37.953987871165
 20
-32.0
 30
0.0
 11
47.953987871165
 21
-32.0
 31
0.0
 70
   160
  1
<>
 71
     5
 42
20.0
  3
STANDARD
100
AcDbAlignedDimension
 13
57.953987871165
 23
-1.54
 33
0.0
 14
37.953987871165
 24
-1.35
 34
0.0
100
AcDbRotatedDimension
1001
ACAD
1000
DSTYLE
1002
{
1070
   271
1070
     0
1070
   279
1070
     0
1070
    74
1070
     0
1002
}
  0
DIMENSION
  5
3E8
330
30
100
AcDbEntity
  8
2
100
AcDbDimension
  2
*D5
 10
44.007577709651
 20
1.35
 30
0.0
 11
44.007577709651
 21
13.99675
 31
0.0
 70
   160
  1
%%c<>
 71
     5
 42
2.7
  3
STANDARD
100
AcDbAlignedDimension
 13
37.953987871165
 23
-1.35
 33
0.0
 14
37.953987871165
 24
1.35
 34
0.0
 50
-90.0
100
AcDbRotatedDimension
1001
ACAD
1000
DSTYLE
1002
{
1070
    76
1070
     1
1070
    75
1070
     1
1070
   271
1070
     1
1070
   279
1070
     0
1070
    74
1070
     0
1002
}
  0
DIMENSION
  5
3F6
330
30
100
AcDbEntity
  8
2
100
AcDbDimension
  2
*D6
 10
21.134602962811
 20
35.0
 30
0.0
 11
40.384602962811
 21
35.0
 31
0.0
 70
   160
  1
<>
 71
     5
 42
38.5
  3
STANDARD
100
AcDbAlignedDimension
 13
59.634602962811
 23
0.0
 33
0.0
 14
21.134602962811
 24
1.7905
 34
0.0
100
AcDbRotatedDimension
1001
ACAD
1000
DSTYLE
1002
{
1070
   271
1070
     1
1070
   279
1070
     0
1070
    74
1070
     0
1002
}
  0
LINE
  5
36
330
30
100
AcDbEntity
  8
1
100
AcDbLine
 10
21.134602962811
 20
1.7905
 30
0.0
 11
21.134602962811
 21
-1.7905
 31
0.0
  0
LINE
  5
37
330
30
100
AcDbEntity
  8
1
100
AcDbLine
 10
21.134602962811
 20
-1.7905
 30
0.0
 11
32.954228351338
 21
-1.7905
 31
0.0
  0
LINE
  5
38
330
30
100
AcDbEntity
  8
1
100
AcDbLine
 10
32.954228351338
 20
-1.7905
 30
0.0
 11
37.953987871165
 21
-1.35
 31
0.0
  0
LINE
  5
39
330
30
100
AcDbEntity
  8
1
100
AcDbLine
 10
37.953987871165
 20
-1.35
 30
0.0
 11
50.061167548137
 21
-1.35
 31
0.0
  0
LINE
  5
3A
330
30
100
AcDbEntity
  8
1
100
AcDbLine
 10
50.061167548137
 20
-1.35
 30
0.0
 11
50.753987871165
 21
-1.75
 31
0.0
  0
LINE
  5
3B
330
30
100
AcDbEntity
  8
1
100
AcDbLine
 10
50.753987871165
 20
-1.75
 30
0.0
 11
56.553987871165
 21
-1.75
 31
0.0
  0
LINE
  5
3C
330
30
100
AcDbEntity
  8
1
100
AcDbLine
 10
56.553987871165
 20
-1.75
 30
0.0
 11
57.953987871165
 21
-1.54
 31
0.0
  0
LINE
  5
3D
330
30
100
AcDbEntity
  8
1
100
AcDbLine
 10
57.953987871165
 20
-1.54
 30
0.0
 11
59.634602962811
 21
0.0
 31
0.0
  0
LINE
  5
3E
330
30
100
AcDbEntity
  8
1
100
AcDbLine
 10
59.634602962811
 20
0.0
 30
0.0
 11
57.953987871165
 21
1.54
 31
0.0
  0
LINE
  5
3F
330
30
100
AcDbEntity
  8
1
100
AcDbLine
 10
57.953987871165
 20
1.54
 30
0.0
 11
56.553987871165
 21
1.75
 31
0.0
  0
LINE
  5
40
330
30
100
AcDbEntity
  8
1
100
AcDbLine
 10
56.553987871165
 20
1.75
 30
0.0
 11
50.753987871165
 21
1.75
 31
0.0
  0
LINE
  5
41
330
30
100
AcDbEntity
  8
1
100
AcDbLine
 10
50.753987871165
 20
1.75
 30
0.0
 11
50.061167548137
 21
1.35
 31
0.0
  0
LINE
  5
42
330
30
100
AcDbEntity
  8
1
100
AcDbLine
 10
50.061167548137
 20
1.35
 30
0.0
 11
37.953987871165
 21
1.35
 31
0.0
  0
LINE
  5
43
330
30
100
AcDbEntity
  8
1
100
AcDbLine
 10
37.953987871165
 20
1.35
 30
0.0
 11
32.954228351338
 21
1.7905
 31
0.0
  0
LINE
  5
44
330
30
100
AcDbEntity
  8
1
100
AcDbLine
 10
32.954228351338
 20
1.7905
 30
0.0
 11
21.134602962811
 21
1.7905
 31
0.0
  0
LINE
  5
45
330
30
100
AcDbEntity
  8
1
100
AcDbLine
 10
59.244602962811
 20
0.038497128236
 30
0.0
 11
59.244602962811
 21
-0.044242852126
 31
0.0
  0
LINE
  5
46
330
30
100
AcDbEntity
  8
1
100
AcDbLine
 10
57.953987871165
 20
-1.54
 30
0.0
 11
57.953987871165
 21
1.54
 31
0.0
  0
LINE
  5
47
330
30
100
AcDbEntity
  8
1
100
AcDbLine
 10
50.794602962811
 20
1.75
 30
0.0
 11
50.859602962811
 21
1.75
 31
0.0
  0
LINE
  5
48
330
30
100
AcDbEntity
  8
1
100
AcDbLine
 10
50.859602962811
 20
1.75
 30
0.0
 11
50.924602962811
 21
1.75
 31
0.0
  0
LINE
  5
49
330
30
100
AcDbEntity
  8
1
100
AcDbLine
 10
50.924602962811
 20
1.75
 30
0.0
 11
50.989602962811
 21
1.75
 31
0.0
  0
LINE
  5
4A
330
30
100
AcDbEntity
  8
1
100
AcDbLine
 10
50.989602962811
 20
1.75
 30
0.0
 11
51.054602962811
 21
1.75
 31
0.0
  0
LINE
  5
4B
330
30
100
AcDbEntity
  8
1
100
AcDbLine
 10
51.054602962811
 20
1.75
 30
0.0
 11
51.119602962811
 21
1.75
 31
0.0
  0
LINE
  5
4C
330
30
100
AcDbEntity
  8
1
100
AcDbLine
 10
51.119602962811
 20
1.75
 30
0.0
 11
51.184602962811
 21
1.75
 31
0.0
  0
LINE
  5
4D
330
30
100
AcDbEntity
  8
1
100
AcDbLine
 10
51.184602962811
 20
1.75
 30
0.0
 11
51.249602962811
 21
1.75
 31
0.0
  0
LINE
  5
4E
330
30
100
AcDbEntity
  8
1
100
AcDbLine
 10
51.249602962811
 20
1.75
 30
0.0
 11
51.314602962811
 21
1.75
 31
0.0
  0
LINE
  5
4F
330
30
100
AcDbEntity
  8
1
100
AcDbLine
 10
51.314602962811
 20
1.75
 30
0.0
 11
51.379602962811
 21
1.75
 31
0.0
  0
LINE
  5
50
330
30
100
AcDbEntity
  8
1
100
AcDbLine
 10
51.379602962811
 20
1.75
 30
0.0
 11
51.444602962811
 21
1.75
 31
0.0
  0
LINE
  5
51
330
30
100
AcDbEntity
  8
1
100
AcDbLine
 10
51.444602962811
 20
1.75
 30
0.0
 11
51.509602962811
 21
1.75
 31
0.0
  0
LINE
  5
52
330
30
100
AcDbEntity
  8
1
100
AcDbLine
 10
51.509602962811
 20
1.75
 30
0.0
 11
51.574602962811
 21
1.75
 31
0.0
  0
LINE
  5
53
330
30
100
AcDbEntity
  8
1
100
AcDbLine
 10
51.574602962811
 20
1.75
 30
0.0
 11
51.639602962811
 21
1.75
 31
0.0
  0
LINE
  5
54
330
30
100
AcDbEntity
  8
1
100
AcDbLine
 10
51.639602962811
 20
1.75
 30
0.0
 11
51.704602962811
 21
1.75
 31
0.0
  0
LINE
  5
55
330
30
100
AcDbEntity
  8
1
100
AcDbLine
 10
51.704602962811
 20
1.75
 30
0.0
 11
51.769602962811
 21
1.75
 31
0.0
  0
LINE
  5
56
330
30
100
AcDbEntity
  8
1
100
AcDbLine
 10
51.769602962811
 20
1.75
 30
0.0
 11
51.834602962811
 21
1.75
 31
0.0
  0
LINE
  5
57
330
30
100
AcDbEntity
  8
1
100
AcDbLine
 10
51.834602962811
 20
1.75
 30
0.0
 11
51.899602962811
 21
1.75
 31
0.0
  0
LINE
  5
58
330
30
100
AcDbEntity
  8
1
100
AcDbLine
 10
51.899602962811
 20
1.75
 30
0.0
 11
51.964602962811
 21
1.75
 31
0.0
  0
LINE
  5
59
330
30
100
AcDbEntity
  8
1
100
AcDbLine
 10
51.964602962811
 20
1.75
 30
0.0
 11
52.029602962811
 21
1.75
 31
0.0
  0
LINE
  5
5A
330
30
100
AcDbEntity
  8
1
100
AcDbLine
 10
52.029602962811
 20
1.75
 30
0.0
 11
52.094602962811
 21
1.75
 31
0.0
  0
LINE
  5
5B
330
30
100
AcDbEntity
  8
1
100
AcDbLine
 10
52.094602962811
 20
1.75
 30
0.0
 11
52.159602962811
 21
1.75
 31
0.0
  0
LINE
  5
5C
330
30
100
AcDbEntity
  8
1
100
AcDbLine
 10
52.159602962811
 20
1.75
 30
0.0
 11
52.224602962811
 21
1.75
 31
0.0
  0
LINE
  5
5D
330
30
100
AcDbEntity
  8
1
100
AcDbLine
 10
52.224602962811
 20
1.75
 30
0.0
 11
52.289602962811
 21
1.75
 31
0.0
  0
LINE
  5
5E
330
30
100
AcDbEntity
  8
1
100
AcDbLine
 10
52.289602962811
 20
1.75
 30
0.0
 11
52.354602962811
 21
1.75
 31
0.0
  0
LINE
  5
5F
330
30
100
AcDbEntity
  8
1
100
AcDbLine
 10
52.354602962811
 20
1.75
 30
0.0
 11
52.419602962811
 21
1.75
 31
0.0
  0
LINE
  5
60
330
30
100
AcDbEntity
  8
1
100
AcDbLine
 10
52.419602962811
 20
1.75
 30
0.0
 11
52.484602962811
 21
1.75
 31
0.0
  0
LINE
  5
61
330
30
100
AcDbEntity
  8
1
100
AcDbLine
 10
52.484602962811
 20
1.75
 30
0.0
 11
52.549602962811
 21
1.75
 31
0.0
  0
LINE
  5
62
330
30
100
AcDbEntity
  8
1
100
AcDbLine
 10
52.549602962811
 20
1.75
 30
0.0
 11
52.614602962811
 21
1.75
 31
0.0
  0
LINE
  5
63
330
30
100
AcDbEntity
  8
1
100
AcDbLine
 10
52.614602962811
 20
1.75
 30
0.0
 11
52.679602962811
 21
1.75
 31
0.0
  0
LINE
  5
64
330
30
100
AcDbEntity
  8
1
100
AcDbLine
 10
52.679602962811
 20
1.75
 30
0.0
 11
52.744602962811
 21
1.75
 31
0.0
  0
LINE
  5
65
330
30
100
AcDbEntity
  8
1
100
AcDbLine
 10
52.744602962811
 20
1.75
 30
0.0
 11
52.809602962811
 21
1.75
 31
0.0
  0
LINE
  5
66
330
30
100
AcDbEntity
  8
1
100
AcDbLine
 10
52.809602962811
 20
1.75
 30
0.0
 11
52.874602962811
 21
1.75
 31
0.0
  0
LINE
  5
67
330
30
100
AcDbEntity
  8
1
100
AcDbLine
 10
52.874602962811
 20
1.75
 30
0.0
 11
52.939602962811
 21
1.75
 31
0.0
  0
LINE
  5
68
330
30
100
AcDbEntity
  8
1
100
AcDbLine
 10
52.939602962811
 20
1.75
 30
0.0
 11
53.004602962811
 21
1.75
 31
0.0
  0
LINE
  5
69
330
30
100
AcDbEntity
  8
1
100
AcDbLine
 10
53.004602962811
 20
1.75
 30
0.0
 11
53.069602962811
 21
1.75
 31
0.0
  0
LINE
  5
6A
330
30
100
AcDbEntity
  8
1
100
AcDbLine
 10
53.069602962811
 20
1.75
 30
0.0
 11
53.134602962811
 21
1.75
 31
0.0
  0
LINE
  5
6B
330
30
100
AcDbEntity
  8
1
100
AcDbLine
 10
53.134602962811
 20
1.75
 30
0.0
 11
53.199602962811
 21
1.75
 31
0.0
  0
LINE
  5
6C
330
30
100
AcDbEntity
  8
1
100
AcDbLine
 10
53.199602962811
 20
1.75
 30
0.0
 11
53.264602962811
 21
1.75
 31
0.0
  0
LINE
  5
6D
330
30
100
AcDbEntity
  8
1
100
AcDbLine
 10
53.264602962811
 20
1.75
 30
0.0
 11
53.329602962811
 21
1.75
 31
0.0
  0
LINE
  5
6E
330
30
100
AcDbEntity
  8
1
100
AcDbLine
 10
53.329602962811
 20
1.75
 30
0.0
 11
53.394602962811
 21
1.75
 31
0.0
  0
LINE
  5
6F
330
30
100
AcDbEntity
  8
1
100
AcDbLine
 10
53.394602962811
 20
1.75
 30
0.0
 11
53.459602962811
 21
1.75
 31
0.0
  0
LINE
  5
70
330
30
100
AcDbEntity
  8
1
100
AcDbLine
 10
53.459602962811
 20
1.75
 30
0.0
 11
53.524602962811
 21
1.75
 31
0.0
  0
LINE
  5
71
330
30
100
AcDbEntity
  8
1
100
AcDbLine
 10
53.524602962811
 20
1.75
 30
0.0
 11
53.589602962811
 21
1.75
 31
0.0
  0
LINE
  5
72
330
30
100
AcDbEntity
  8
1
100
AcDbLine
 10
53.589602962811
 20
1.75
 30
0.0
 11
53.654602962811
 21
1.75
 31
0.0
  0
LINE
  5
73
330
30
100
AcDbEntity
  8
1
100
AcDbLine
 10
53.654602962811
 20
1.75
 30
0.0
 11
53.719602962811
 21
1.75
 31
0.0
  0
LINE
  5
74
330
30
100
AcDbEntity
  8
1
100
AcDbLine
 10
53.719602962811
 20
1.75
 30
0.0
 11
53.784602962811
 21
1.75
 31
0.0
  0
LINE
  5
75
330
30
100
AcDbEntity
  8
1
100
AcDbLine
 10
53.784602962811
 20
1.75
 30
0.0
 11
53.849602962811
 21
1.75
 31
0.0
  0
LINE
  5
76
330
30
100
AcDbEntity
  8
1
100
AcDbLine
 10
53.849602962811
 20
1.75
 30
0.0
 11
53.914602962811
 21
1.75
 31
0.0
  0
LINE
  5
77
330
30
100
AcDbEntity
  8
1
100
AcDbLine
 10
53.914602962811
 20
1.75
 30
0.0
 11
53.979602962811
 21
1.75
 31
0.0
  0
LINE
  5
78
330
30
100
AcDbEntity
  8
1
100
AcDbLine
 10
53.979602962811
 20
1.75
 30
0.0
 11
54.044602962811
 21
1.75
 31
0.0
  0
LINE
  5
79
330
30
100
AcDbEntity
  8
1
100
AcDbLine
 10
54.044602962811
 20
1.75
 30
0.0
 11
54.109602962811
 21
1.75
 31
0.0
  0
LINE
  5
7A
330
30
100
AcDbEntity
  8
1
100
AcDbLine
 10
54.109602962811
 20
1.75
 30
0.0
 11
54.174602962811
 21
1.75
 31
0.0
  0
LINE
  5
7B
330
30
100
AcDbEntity
  8
1
100
AcDbLine
 10
54.174602962811
 20
1.75
 30
0.0
 11
54.239602962811
 21
1.75
 31
0.0
  0
LINE
  5
7C
330
30
100
AcDbEntity
  8
1
100
AcDbLine
 10
54.239602962811
 20
1.75
 30
0.0
 11
54.304602962811
 21
1.75
 31
0.0
  0
LINE
  5
7D
330
30
100
AcDbEntity
  8
1
100
AcDbLine
 10
54.304602962811
 20
1.75
 30
0.0
 11
54.369602962811
 21
1.75
 31
0.0
  0
LINE
  5
7E
330
30
100
AcDbEntity
  8
1
100
AcDbLine
 10
54.369602962811
 20
1.75
 30
0.0
 11
54.434602962811
 21
1.75
 31
0.0
  0
LINE
  5
7F
330
30
100
AcDbEntity
  8
1
100
AcDbLine
 10
54.434602962811
 20
1.75
 30
0.0
 11
54.499602962811
 21
1.75
 31
0.0
  0
LINE
  5
80
330
30
100
AcDbEntity
  8
1
100
AcDbLine
 10
54.499602962811
 20
1.75
 30
0.0
 11
54.564602962811
 21
1.75
 31
0.0
  0
LINE
  5
81
330
30
100
AcDbEntity
  8
1
100
AcDbLine
 10
54.564602962811
 20
1.75
 30
0.0
 11
54.629602962811
 21
1.75
 31
0.0
  0
LINE
  5
82
330
30
100
AcDbEntity
  8
1
100
AcDbLine
 10
54.629602962811
 20
1.75
 30
0.0
 11
54.694602962811
 21
1.75
 31
0.0
  0
LINE
  5
83
330
30
100
AcDbEntity
  8
1
100
AcDbLine
 10
54.694602962811
 20
1.75
 30
0.0
 11
54.759602962811
 21
1.75
 31
0.0
  0
LINE
  5
84
330
30
100
AcDbEntity
  8
1
100
AcDbLine
 10
54.759602962811
 20
1.75
 30
0.0
 11
54.824602962811
 21
1.75
 31
0.0
  0
LINE
  5
85
330
30
100
AcDbEntity
  8
1
100
AcDbLine
 10
54.824602962811
 20
1.75
 30
0.0
 11
54.889602962811
 21
1.75
 31
0.0
  0
LINE
  5
86
330
30
100
AcDbEntity
  8
1
100
AcDbLine
 10
54.889602962811
 20
1.75
 30
0.0
 11
54.954602962811
 21
1.75
 31
0.0
  0
LINE
  5
87
330
30
100
AcDbEntity
  8
1
100
AcDbLine
 10
54.954602962811
 20
1.75
 30
0.0
 11
55.019602962811
 21
1.75
 31
0.0
  0
LINE
  5
88
330
30
100
AcDbEntity
  8
1
100
AcDbLine
 10
55.019602962811
 20
1.75
 30
0.0
 11
55.084602962811
 21
1.75
 31
0.0
  0
LINE
  5
89
330
30
100
AcDbEntity
  8
1
100
AcDbLine
 10
55.084602962811
 20
1.75
 30
0.0
 11
55.149602962811
 21
1.75
 31
0.0
  0
LINE
  5
8A
330
30
100
AcDbEntity
  8
1
100
AcDbLine
 10
55.149602962811
 20
1.75
 30
0.0
 11
55.214602962811
 21
1.75
 31
0.0
  0
LINE
  5
8B
330
30
100
AcDbEntity
  8
1
100
AcDbLine
 10
55.214602962811
 20
1.75
 30
0.0
 11
55.279602962811
 21
1.75
 31
0.0
  0
LINE
  5
8C
330
30
100
AcDbEntity
  8
1
100
AcDbLine
 10
55.279602962811
 20
1.75
 30
0.0
 11
55.344602962811
 21
1.75
 31
0.0
  0
LINE
  5
8D
330
30
100
AcDbEntity
  8
1
100
AcDbLine
 10
55.344602962811
 20
1.75
 30
0.0
 11
55.409602962811
 21
1.75
 31
0.0
  0
LINE
  5
8E
330
30
100
AcDbEntity
  8
1
100
AcDbLine
 10
55.409602962811
 20
1.75
 30
0.0
 11
55.474602962811
 21
1.75
 31
0.0
  0
LINE
  5
8F
330
30
100
AcDbEntity
  8
1
100
AcDbLine
 10
55.474602962811
 20
1.75
 30
0.0
 11
55.539602962811
 21
1.75
 31
0.0
  0
LINE
  5
90
330
30
100
AcDbEntity
  8
1
100
AcDbLine
 10
55.539602962811
 20
1.75
 30
0.0
 11
55.604602962811
 21
1.75
 31
0.0
  0
LINE
  5
91
330
30
100
AcDbEntity
  8
1
100
AcDbLine
 10
55.604602962811
 20
1.75
 30
0.0
 11
55.669602962811
 21
1.75
 31
0.0
  0
LINE
  5
92
330
30
100
AcDbEntity
  8
1
100
AcDbLine
 10
55.669602962811
 20
1.75
 30
0.0
 11
55.734602962811
 21
1.75
 31
0.0
  0
LINE
  5
93
330
30
100
AcDbEntity
  8
1
100
AcDbLine
 10
55.734602962811
 20
1.75
 30
0.0
 11
55.799602962811
 21
1.75
 31
0.0
  0
LINE
  5
94
330
30
100
AcDbEntity
  8
1
100
AcDbLine
 10
55.799602962811
 20
1.75
 30
0.0
 11
55.864602962811
 21
1.75
 31
0.0
  0
LINE
  5
95
330
30
100
AcDbEntity
  8
1
100
AcDbLine
 10
55.864602962811
 20
1.75
 30
0.0
 11
55.929602962811
 21
1.75
 31
0.0
  0
LINE
  5
96
330
30
100
AcDbEntity
  8
1
100
AcDbLine
 10
55.929602962811
 20
1.75
 30
0.0
 11
55.994602962811
 21
1.75
 31
0.0
  0
LINE
  5
97
330
30
100
AcDbEntity
  8
1
100
AcDbLine
 10
55.994602962811
 20
1.75
 30
0.0
 11
56.059602962811
 21
1.75
 31
0.0
  0
LINE
  5
98
330
30
100
AcDbEntity
  8
1
100
AcDbLine
 10
56.059602962811
 20
1.75
 30
0.0
 11
56.124602962811
 21
1.75
 31
0.0
  0
LINE
  5
99
330
30
100
AcDbEntity
  8
1
100
AcDbLine
 10
56.124602962811
 20
1.75
 30
0.0
 11
56.189602962811
 21
1.75
 31
0.0
  0
LINE
  5
9A
330
30
100
AcDbEntity
  8
1
100
AcDbLine
 10
56.189602962811
 20
1.75
 30
0.0
 11
56.254602962811
 21
1.75
 31
0.0
  0
LINE
  5
9B
330
30
100
AcDbEntity
  8
1
100
AcDbLine
 10
56.254602962811
 20
1.75
 30
0.0
 11
56.319602962811
 21
1.75
 31
0.0
  0
LINE
  5
9C
330
30
100
AcDbEntity
  8
1
100
AcDbLine
 10
56.319602962811
 20
1.75
 30
0.0
 11
56.384602962811
 21
1.75
 31
0.0
  0
LINE
  5
9D
330
30
100
AcDbEntity
  8
1
100
AcDbLine
 10
56.384602962811
 20
1.75
 30
0.0
 11
56.449602962811
 21
1.75
 31
0.0
  0
LINE
  5
9E
330
30
100
AcDbEntity
  8
1
100
AcDbLine
 10
56.449602962811
 20
1.75
 30
0.0
 11
56.514602962811
 21
1.75
 31
0.0
  0
LINE
  5
9F
330
30
100
AcDbEntity
  8
1
100
AcDbLine
 10
56.553987871165
 20
1.75
 30
0.0
 11
56.553987871165
 21
-1.75
 31
0.0
  0
LINE
  5
A0
330
30
100
AcDbEntity
  8
1
100
AcDbLine
 10
56.514602962811
 20
-1.75
 30
0.0
 11
56.449602962811
 21
-1.75
 31
0.0
  0
LINE
  5
A1
330
30
100
AcDbEntity
  8
1
100
AcDbLine
 10
56.449602962811
 20
-1.75
 30
0.0
 11
56.384602962811
 21
-1.75
 31
0.0
  0
LINE
  5
A2
330
30
100
AcDbEntity
  8
1
100
AcDbLine
 10
56.384602962811
 20
-1.75
 30
0.0
 11
56.319602962811
 21
-1.75
 31
0.0
  0
LINE
  5
A3
330
30
100
AcDbEntity
  8
1
100
AcDbLine
 10
56.319602962811
 20
-1.75
 30
0.0
 11
56.254602962811
 21
-1.75
 31
0.0
  0
LINE
  5
A4
330
30
100
AcDbEntity
  8
1
100
AcDbLine
 10
56.254602962811
 20
-1.75
 30
0.0
 11
56.189602962811
 21
-1.75
 31
0.0
  0
LINE
  5
A5
330
30
100
AcDbEntity
  8
1
100
AcDbLine
 10
56.189602962811
 20
-1.75
 30
0.0
 11
56.124602962811
 21
-1.75
 31
0.0
  0
LINE
  5
A6
330
30
100
AcDbEntity
  8
1
100
AcDbLine
 10
56.124602962811
 20
-1.75
 30
0.0
 11
56.059602962811
 21
-1.75
 31
0.0
  0
LINE
  5
A7
330
30
100
AcDbEntity
  8
1
100
AcDbLine
 10
56.059602962811
 20
-1.75
 30
0.0
 11
55.994602962811
 21
-1.75
 31
0.0
  0
LINE
  5
A8
330
30
100
AcDbEntity
  8
1
100
AcDbLine
 10
55.994602962811
 20
-1.75
 30
0.0
 11
55.929602962811
 21
-1.75
 31
0.0
  0
LINE
  5
A9
330
30
100
AcDbEntity
  8
1
100
AcDbLine
 10
55.929602962811
 20
-1.75
 30
0.0
 11
55.864602962811
 21
-1.75
 31
0.0
  0
LINE
  5
AA
330
30
100
AcDbEntity
  8
1
100
AcDbLine
 10
55.864602962811
 20
-1.75
 30
0.0
 11
55.799602962811
 21
-1.75
 31
0.0
  0
LINE
  5
AB
330
30
100
AcDbEntity
  8
1
100
AcDbLine
 10
55.799602962811
 20
-1.75
 30
0.0
 11
55.734602962811
 21
-1.75
 31
0.0
  0
LINE
  5
AC
330
30
100
AcDbEntity
  8
1
100
AcDbLine
 10
55.734602962811
 20
-1.75
 30
0.0
 11
55.669602962811
 21
-1.75
 31
0.0
  0
LINE
  5
AD
330
30
100
AcDbEntity
  8
1
100
AcDbLine
 10
55.669602962811
 20
-1.75
 30
0.0
 11
55.604602962811
 21
-1.75
 31
0.0
  0
LINE
  5
AE
330
30
100
AcDbEntity
  8
1
100
AcDbLine
 10
55.604602962811
 20
-1.75
 30
0.0
 11
55.539602962811
 21
-1.75
 31
0.0
  0
LINE
  5
AF
330
30
100
AcDbEntity
  8
1
100
AcDbLine
 10
55.539602962811
 20
-1.75
 30
0.0
 11
55.474602962811
 21
-1.75
 31
0.0
  0
LINE
  5
B0
330
30
100
AcDbEntity
  8
1
100
AcDbLine
 10
55.474602962811
 20
-1.75
 30
0.0
 11
55.409602962811
 21
-1.75
 31
0.0
  0
LINE
  5
B1
330
30
100
AcDbEntity
  8
1
100
AcDbLine
 10
55.409602962811
 20
-1.75
 30
0.0
 11
55.344602962811
 21
-1.75
 31
0.0
  0
LINE
  5
B2
330
30
100
AcDbEntity
  8
1
100
AcDbLine
 10
55.344602962811
 20
-1.75
 30
0.0
 11
55.279602962811
 21
-1.75
 31
0.0
  0
LINE
  5
B3
330
30
100
AcDbEntity
  8
1
100
AcDbLine
 10
55.279602962811
 20
-1.75
 30
0.0
 11
55.214602962811
 21
-1.75
 31
0.0
  0
LINE
  5
B4
330
30
100
AcDbEntity
  8
1
100
AcDbLine
 10
55.214602962811
 20
-1.75
 30
0.0
 11
55.149602962811
 21
-1.75
 31
0.0
  0
LINE
  5
B5
330
30
100
AcDbEntity
  8
1
100
AcDbLine
 10
55.149602962811
 20
-1.75
 30
0.0
 11
55.084602962811
 21
-1.75
 31
0.0
  0
LINE
  5
B6
330
30
100
AcDbEntity
  8
1
100
AcDbLine
 10
55.084602962811
 20
-1.75
 30
0.0
 11
55.019602962811
 21
-1.75
 31
0.0
  0
LINE
  5
B7
330
30
100
AcDbEntity
  8
1
100
AcDbLine
 10
55.019602962811
 20
-1.75
 30
0.0
 11
54.954602962811
 21
-1.75
 31
0.0
  0
LINE
  5
B8
330
30
100
AcDbEntity
  8
1
100
AcDbLine
 10
54.954602962811
 20
-1.75
 30
0.0
 11
54.889602962811
 21
-1.75
 31
0.0
  0
LINE
  5
B9
330
30
100
AcDbEntity
  8
1
100
AcDbLine
 10
54.889602962811
 20
-1.75
 30
0.0
 11
54.824602962811
 21
-1.75
 31
0.0
  0
LINE
  5
BA
330
30
100
AcDbEntity
  8
1
100
AcDbLine
 10
54.824602962811
 20
-1.75
 30
0.0
 11
54.759602962811
 21
-1.75
 31
0.0
  0
LINE
  5
BB
330
30
100
AcDbEntity
  8
1
100
AcDbLine
 10
54.759602962811
 20
-1.75
 30
0.0
 11
54.694602962811
 21
-1.75
 31
0.0
  0
LINE
  5
BC
330
30
100
AcDbEntity
  8
1
100
AcDbLine
 10
54.694602962811
 20
-1.75
 30
0.0
 11
54.629602962811
 21
-1.75
 31
0.0
  0
LINE
  5
BD
330
30
100
AcDbEntity
  8
1
100
AcDbLine
 10
54.629602962811
 20
-1.75
 30
0.0
 11
54.564602962811
 21
-1.75
 31
0.0
  0
LINE
  5
BE
330
30
100
AcDbEntity
  8
1
100
AcDbLine
 10
54.564602962811
 20
-1.75
 30
0.0
 11
54.499602962811
 21
-1.75
 31
0.0
  0
LINE
  5
BF
330
30
100
AcDbEntity
  8
1
100
AcDbLine
 10
54.499602962811
 20
-1.75
 30
0.0
 11
54.434602962811
 21
-1.75
 31
0.0
  0
LINE
  5
C0
330
30
100
AcDbEntity
  8
1
100
AcDbLine
 10
54.434602962811
 20
-1.75
 30
0.0
 11
54.369602962811
 21
-1.75
 31
0.0
  0
LINE
  5
C1
330
30
100
AcDbEntity
  8
1
100
AcDbLine
 10
54.369602962811
 20
-1.75
 30
0.0
 11
54.304602962811
 21
-1.75
 31
0.0
  0
LINE
  5
C2
330
30
100
AcDbEntity
  8
1
100
AcDbLine
 10
54.304602962811
 20
-1.75
 30
0.0
 11
54.239602962811
 21
-1.75
 31
0.0
  0
LINE
  5
C3
330
30
100
AcDbEntity
  8
1
100
AcDbLine
 10
54.239602962811
 20
-1.75
 30
0.0
 11
54.174602962811
 21
-1.75
 31
0.0
  0
LINE
  5
C4
330
30
100
AcDbEntity
  8
1
100
AcDbLine
 10
54.174602962811
 20
-1.75
 30
0.0
 11
54.109602962811
 21
-1.75
 31
0.0
  0
LINE
  5
C5
330
30
100
AcDbEntity
  8
1
100
AcDbLine
 10
54.109602962811
 20
-1.75
 30
0.0
 11
54.044602962811
 21
-1.75
 31
0.0
  0
LINE
  5
C6
330
30
100
AcDbEntity
  8
1
100
AcDbLine
 10
54.044602962811
 20
-1.75
 30
0.0
 11
53.979602962811
 21
-1.75
 31
0.0
  0
LINE
  5
C7
330
30
100
AcDbEntity
  8
1
100
AcDbLine
 10
53.979602962811
 20
-1.75
 30
0.0
 11
53.914602962811
 21
-1.75
 31
0.0
  0
LINE
  5
C8
330
30
100
AcDbEntity
  8
1
100
AcDbLine
 10
53.914602962811
 20
-1.75
 30
0.0
 11
53.849602962811
 21
-1.75
 31
0.0
  0
LINE
  5
C9
330
30
100
AcDbEntity
  8
1
100
AcDbLine
 10
53.849602962811
 20
-1.75
 30
0.0
 11
53.784602962811
 21
-1.75
 31
0.0
  0
LINE
  5
CA
330
30
100
AcDbEntity
  8
1
100
AcDbLine
 10
53.784602962811
 20
-1.75
 30
0.0
 11
53.719602962811
 21
-1.75
 31
0.0
  0
LINE
  5
CB
330
30
100
AcDbEntity
  8
1
100
AcDbLine
 10
53.719602962811
 20
-1.75
 30
0.0
 11
53.654602962811
 21
-1.75
 31
0.0
  0
LINE
  5
CC
330
30
100
AcDbEntity
  8
1
100
AcDbLine
 10
53.654602962811
 20
-1.75
 30
0.0
 11
53.589602962811
 21
-1.75
 31
0.0
  0
LINE
  5
CD
330
30
100
AcDbEntity
  8
1
100
AcDbLine
 10
53.589602962811
 20
-1.75
 30
0.0
 11
53.524602962811
 21
-1.75
 31
0.0
  0
LINE
  5
CE
330
30
100
AcDbEntity
  8
1
100
AcDbLine
 10
53.524602962811
 20
-1.75
 30
0.0
 11
53.459602962811
 21
-1.75
 31
0.0
  0
LINE
  5
CF
330
30
100
AcDbEntity
  8
1
100
AcDbLine
 10
53.459602962811
 20
-1.75
 30
0.0
 11
53.394602962811
 21
-1.75
 31
0.0
  0
LINE
  5
D0
330
30
100
AcDbEntity
  8
1
100
AcDbLine
 10
53.394602962811
 20
-1.75
 30
0.0
 11
53.329602962811
 21
-1.75
 31
0.0
  0
LINE
  5
D1
330
30
100
AcDbEntity
  8
1
100
AcDbLine
 10
53.329602962811
 20
-1.75
 30
0.0
 11
53.264602962811
 21
-1.75
 31
0.0
  0
LINE
  5
D2
330
30
100
AcDbEntity
  8
1
100
AcDbLine
 10
53.264602962811
 20
-1.75
 30
0.0
 11
53.199602962811
 21
-1.75
 31
0.0
  0
LINE
  5
D3
330
30
100
AcDbEntity
  8
1
100
AcDbLine
 10
53.199602962811
 20
-1.75
 30
0.0
 11
53.134602962811
 21
-1.75
 31
0.0
  0
LINE
  5
D4
330
30
100
AcDbEntity
  8
1
100
AcDbLine
 10
53.134602962811
 20
-1.75
 30
0.0
 11
53.069602962811
 21
-1.75
 31
0.0
  0
LINE
  5
D5
330
30
100
AcDbEntity
  8
1
100
AcDbLine
 10
53.069602962811
 20
-1.75
 30
0.0
 11
53.004602962811
 21
-1.75
 31
0.0
  0
LINE
  5
D6
330
30
100
AcDbEntity
  8
1
100
AcDbLine
 10
53.004602962811
 20
-1.75
 30
0.0
 11
52.939602962811
 21
-1.75
 31
0.0
  0
LINE
  5
D7
330
30
100
AcDbEntity
  8
1
100
AcDbLine
 10
52.939602962811
 20
-1.75
 30
0.0
 11
52.874602962811
 21
-1.75
 31
0.0
  0
LINE
  5
D8
330
30
100
AcDbEntity
  8
1
100
AcDbLine
 10
52.874602962811
 20
-1.75
 30
0.0
 11
52.809602962811
 21
-1.75
 31
0.0
  0
LINE
  5
D9
330
30
100
AcDbEntity
  8
1
100
AcDbLine
 10
52.809602962811
 20
-1.75
 30
0.0
 11
52.744602962811
 21
-1.75
 31
0.0
  0
LINE
  5
DA
330
30
100
AcDbEntity
  8
1
100
AcDbLine
 10
52.744602962811
 20
-1.75
 30
0.0
 11
52.679602962811
 21
-1.75
 31
0.0
  0
LINE
  5
DB
330
30
100
AcDbEntity
  8
1
100
AcDbLine
 10
52.679602962811
 20
-1.75
 30
0.0
 11
52.614602962811
 21
-1.75
 31
0.0
  0
LINE
  5
DC
330
30
100
AcDbEntity
  8
1
100
AcDbLine
 10
52.614602962811
 20
-1.75
 30
0.0
 11
52.549602962811
 21
-1.75
 31
0.0
  0
LINE
  5
DD
330
30
100
AcDbEntity
  8
1
100
AcDbLine
 10
52.549602962811
 20
-1.75
 30
0.0
 11
52.484602962811
 21
-1.75
 31
0.0
  0
LINE
  5
DE
330
30
100
AcDbEntity
  8
1
100
AcDbLine
 10
52.484602962811
 20
-1.75
 30
0.0
 11
52.419602962811
 21
-1.75
 31
0.0
  0
LINE
  5
DF
330
30
100
AcDbEntity
  8
1
100
AcDbLine
 10
52.419602962811
 20
-1.75
 30
0.0
 11
52.354602962811
 21
-1.75
 31
0.0
  0
LINE
  5
E0
330
30
100
AcDbEntity
  8
1
100
AcDbLine
 10
52.354602962811
 20
-1.75
 30
0.0
 11
52.289602962811
 21
-1.75
 31
0.0
  0
LINE
  5
E1
330
30
100
AcDbEntity
  8
1
100
AcDbLine
 10
52.289602962811
 20
-1.75
 30
0.0
 11
52.224602962811
 21
-1.75
 31
0.0
  0
LINE
  5
E2
330
30
100
AcDbEntity
  8
1
100
AcDbLine
 10
52.224602962811
 20
-1.75
 30
0.0
 11
52.159602962811
 21
-1.75
 31
0.0
  0
LINE
  5
E3
330
30
100
AcDbEntity
  8
1
100
AcDbLine
 10
52.159602962811
 20
-1.75
 30
0.0
 11
52.094602962811
 21
-1.75
 31
0.0
  0
LINE
  5
E4
330
30
100
AcDbEntity
  8
1
100
AcDbLine
 10
52.094602962811
 20
-1.75
 30
0.0
 11
52.029602962811
 21
-1.75
 31
0.0
  0
LINE
  5
E5
330
30
100
AcDbEntity
  8
1
100
AcDbLine
 10
52.029602962811
 20
-1.75
 30
0.0
 11
51.964602962811
 21
-1.75
 31
0.0
  0
LINE
  5
E6
330
30
100
AcDbEntity
  8
1
100
AcDbLine
 10
51.964602962811
 20
-1.75
 30
0.0
 11
51.899602962811
 21
-1.75
 31
0.0
  0
LINE
  5
E7
330
30
100
AcDbEntity
  8
1
100
AcDbLine
 10
51.899602962811
 20
-1.75
 30
0.0
 11
51.834602962811
 21
-1.75
 31
0.0
  0
LINE
  5
E8
330
30
100
AcDbEntity
  8
1
100
AcDbLine
 10
51.834602962811
 20
-1.75
 30
0.0
 11
51.769602962811
 21
-1.75
 31
0.0
  0
LINE
  5
E9
330
30
100
AcDbEntity
  8
1
100
AcDbLine
 10
51.769602962811
 20
-1.75
 30
0.0
 11
51.704602962811
 21
-1.75
 31
0.0
  0
LINE
  5
EA
330
30
100
AcDbEntity
  8
1
100
AcDbLine
 10
51.704602962811
 20
-1.75
 30
0.0
 11
51.639602962811
 21
-1.75
 31
0.0
  0
LINE
  5
EB
330
30
100
AcDbEntity
  8
1
100
AcDbLine
 10
51.639602962811
 20
-1.75
 30
0.0
 11
51.574602962811
 21
-1.75
 31
0.0
  0
LINE
  5
EC
330
30
100
AcDbEntity
  8
1
100
AcDbLine
 10
51.574602962811
 20
-1.75
 30
0.0
 11
51.509602962811
 21
-1.75
 31
0.0
  0
LINE
  5
ED
330
30
100
AcDbEntity
  8
1
100
AcDbLine
 10
51.509602962811
 20
-1.75
 30
0.0
 11
51.444602962811
 21
-1.75
 31
0.0
  0
LINE
  5
EE
330
30
100
AcDbEntity
  8
1
100
AcDbLine
 10
51.444602962811
 20
-1.75
 30
0.0
 11
51.379602962811
 21
-1.75
 31
0.0
  0
LINE
  5
EF
330
30
100
AcDbEntity
  8
1
100
AcDbLine
 10
51.379602962811
 20
-1.75
 30
0.0
 11
51.314602962811
 21
-1.75
 31
0.0
  0
LINE
  5
F0
330
30
100
AcDbEntity
  8
1
100
AcDbLine
 10
51.314602962811
 20
-1.75
 30
0.0
 11
51.249602962811
 21
-1.75
 31
0.0
  0
LINE
  5
F1
330
30
100
AcDbEntity
  8
1
100
AcDbLine
 10
51.249602962811
 20
-1.75
 30
0.0
 11
51.184602962811
 21
-1.75
 31
0.0
  0
LINE
  5
F2
330
30
100
AcDbEntity
  8
1
100
AcDbLine
 10
51.184602962811
 20
-1.75
 30
0.0
 11
51.119602962811
 21
-1.75
 31
0.0
  0
LINE
  5
F3
330
30
100
AcDbEntity
  8
1
100
AcDbLine
 10
51.119602962811
 20
-1.75
 30
0.0
 11
51.054602962811
 21
-1.75
 31
0.0
  0
LINE
  5
F4
330
30
100
AcDbEntity
  8
1
100
AcDbLine
 10
51.054602962811
 20
-1.75
 30
0.0
 11
50.989602962811
 21
-1.75
 31
0.0
  0
LINE
  5
F5
330
30
100
AcDbEntity
  8
1
100
AcDbLine
 10
50.989602962811
 20
-1.75
 30
0.0
 11
50.924602962811
 21
-1.75
 31
0.0
  0
LINE
  5
F6
330
30
100
AcDbEntity
  8
1
100
AcDbLine
 10
50.924602962811
 20
-1.75
 30
0.0
 11
50.859602962811
 21
-1.75
 31
0.0
  0
LINE
  5
F7
330
30
100
AcDbEntity
  8
1
100
AcDbLine
 10
50.859602962811
 20
-1.75
 30
0.0
 11
50.794602962811
 21
-1.75
 31
0.0
  0
LINE
  5
F8
330
30
100
AcDbEntity
  8
1
100
AcDbLine
 10
50.753987871165
 20
-1.75
 30
0.0
 11
50.753987871165
 21
1.75
 31
0.0
  0
LINE
  5
F9
330
30
100
AcDbEntity
  8
1
100
AcDbLine
 10
50.753987871165
 20
1.75
 30
0.0
 11
50.753987871165
 21
-1.75
 31
0.0
  0
LINE
  5
FA
330
30
100
AcDbEntity
  8
1
100
AcDbLine
 10
50.061167548137
 20
-1.35
 30
0.0
 11
50.061167548137
 21
1.35
 31
0.0
  0
LINE
  5
FB
330
30
100
AcDbEntity
  8
1
100
AcDbLine
 10
40.134602962811
 20
0.65061395915
 30
0.0
 11
40.199602962811
 21
0.65061395915
 31
0.0
  0
LINE
  5
FC
330
30
100
AcDbEntity
  8
1
100
AcDbLine
 10
40.199602962811
 20
0.65061395915
 30
0.0
 11
40.264602962811
 21
0.65061395915
 31
0.0
  0
LINE
  5
FD
330
30
100
AcDbEntity
  8
1
100
AcDbLine
 10
40.264602962811
 20
0.65061395915
 30
0.0
 11
40.329602962811
 21
0.65061395915
 31
0.0
  0
LINE
  5
FE
330
30
100
AcDbEntity
  8
1
100
AcDbLine
 10
40.329602962811
 20
0.65061395915
 30
0.0
 11
40.394602962811
 21
0.65061395915
 31
0.0
  0
LINE
  5
FF
330
30
100
AcDbEntity
  8
1
100
AcDbLine
 10
40.394602962811
 20
0.65061395915
 30
0.0
 11
40.459602962811
 21
0.65061395915
 31
0.0
  0
LINE
  5
100
330
30
100
AcDbEntity
  8
1
100
AcDbLine
 10
40.459602962811
 20
0.65061395915
 30
0.0
 11
40.524602962811
 21
0.65061395915
 31
0.0
  0
LINE
  5
101
330
30
100
AcDbEntity
  8
1
100
AcDbLine
 10
40.524602962811
 20
0.65061395915
 30
0.0
 11
40.589602962811
 21
0.65061395915
 31
0.0
  0
LINE
  5
102
330
30
100
AcDbEntity
  8
1
100
AcDbLine
 10
40.589602962811
 20
0.65061395915
 30
0.0
 11
40.654602962811
 21
0.65061395915
 31
0.0
  0
LINE
  5
103
330
30
100
AcDbEntity
  8
1
100
AcDbLine
 10
40.654602962811
 20
0.65061395915
 30
0.0
 11
40.719602962811
 21
0.65061395915
 31
0.0
  0
LINE
  5
104
330
30
100
AcDbEntity
  8
1
100
AcDbLine
 10
40.719602962811
 20
0.65061395915
 30
0.0
 11
40.784602962811
 21
0.65061395915
 31
0.0
  0
LINE
  5
105
330
30
100
AcDbEntity
  8
1
100
AcDbLine
 10
40.784602962811
 20
0.65061395915
 30
0.0
 11
40.849602962811
 21
0.65061395915
 31
0.0
  0
LINE
  5
106
330
30
100
AcDbEntity
  8
1
100
AcDbLine
 10
40.849602962811
 20
0.65061395915
 30
0.0
 11
40.914602962811
 21
0.65061395915
 31
0.0
  0
LINE
  5
107
330
30
100
AcDbEntity
  8
1
100
AcDbLine
 10
40.914602962811
 20
0.65061395915
 30
0.0
 11
40.979602962811
 21
0.65061395915
 31
0.0
  0
LINE
  5
108
330
30
100
AcDbEntity
  8
1
100
AcDbLine
 10
40.979602962811
 20
0.65061395915
 30
0.0
 11
41.044602962811
 21
0.65061395915
 31
0.0
  0
LINE
  5
109
330
30
100
AcDbEntity
  8
1
100
AcDbLine
 10
41.044602962811
 20
0.65061395915
 30
0.0
 11
41.109602962811
 21
0.65061395915
 31
0.0
  0
LINE
  5
10A
330
30
100
AcDbEntity
  8
1
100
AcDbLine
 10
41.109602962811
 20
0.65061395915
 30
0.0
 11
41.174602962811
 21
0.65061395915
 31
0.0
  0
LINE
  5
10B
330
30
100
AcDbEntity
  8
1
100
AcDbLine
 10
41.174602962811
 20
0.65061395915
 30
0.0
 11
41.239602962811
 21
0.65061395915
 31
0.0
  0
LINE
  5
10C
330
30
100
AcDbEntity
  8
1
100
AcDbLine
 10
41.239602962811
 20
0.65061395915
 30
0.0
 11
41.304602962811
 21
0.65061395915
 31
0.0
  0
LINE
  5
10D
330
30
100
AcDbEntity
  8
1
100
AcDbLine
 10
41.304602962811
 20
0.65061395915
 30
0.0
 11
41.369602962811
 21
0.65061395915
 31
0.0
  0
LINE
  5
10E
330
30
100
AcDbEntity
  8
1
100
AcDbLine
 10
41.369602962811
 20
0.65061395915
 30
0.0
 11
41.434602962811
 21
0.65061395915
 31
0.0
  0
LINE
  5
10F
330
30
100
AcDbEntity
  8
1
100
AcDbLine
 10
41.434602962811
 20
0.65061395915
 30
0.0
 11
41.499602962811
 21
0.65061395915
 31
0.0
  0
LINE
  5
110
330
30
100
AcDbEntity
  8
1
100
AcDbLine
 10
41.499602962811
 20
0.65061395915
 30
0.0
 11
41.564602962811
 21
0.65061395915
 31
0.0
  0
LINE
  5
111
330
30
100
AcDbEntity
  8
1
100
AcDbLine
 10
41.564602962811
 20
0.65061395915
 30
0.0
 11
41.629602962811
 21
0.65061395915
 31
0.0
  0
LINE
  5
112
330
30
100
AcDbEntity
  8
1
100
AcDbLine
 10
41.629602962811
 20
0.65061395915
 30
0.0
 11
41.694602962811
 21
0.65061395915
 31
0.0
  0
LINE
  5
113
330
30
100
AcDbEntity
  8
1
100
AcDbLine
 10
41.694602962811
 20
0.65061395915
 30
0.0
 11
41.759602962811
 21
0.65061395915
 31
0.0
  0
LINE
  5
114
330
30
100
AcDbEntity
  8
1
100
AcDbLine
 10
41.759602962811
 20
0.65061395915
 30
0.0
 11
41.824602962811
 21
0.65061395915
 31
0.0
  0
LINE
  5
115
330
30
100
AcDbEntity
  8
1
100
AcDbLine
 10
41.824602962811
 20
0.65061395915
 30
0.0
 11
41.889602962811
 21
0.65061395915
 31
0.0
  0
LINE
  5
116
330
30
100
AcDbEntity
  8
1
100
AcDbLine
 10
41.889602962811
 20
0.65061395915
 30
0.0
 11
41.954602962811
 21
0.65061395915
 31
0.0
  0
LINE
  5
117
330
30
100
AcDbEntity
  8
1
100
AcDbLine
 10
41.954602962811
 20
0.65061395915
 30
0.0
 11
42.019602962811
 21
0.65061395915
 31
0.0
  0
LINE
  5
118
330
30
100
AcDbEntity
  8
1
100
AcDbLine
 10
42.019602962811
 20
0.65061395915
 30
0.0
 11
42.084602962811
 21
0.65061395915
 31
0.0
  0
LINE
  5
119
330
30
100
AcDbEntity
  8
1
100
AcDbLine
 10
42.084602962811
 20
0.65061395915
 30
0.0
 11
42.149602962811
 21
0.65061395915
 31
0.0
  0
LINE
  5
11A
330
30
100
AcDbEntity
  8
1
100
AcDbLine
 10
42.149602962811
 20
0.65061395915
 30
0.0
 11
42.214602962811
 21
0.65061395915
 31
0.0
  0
LINE
  5
11B
330
30
100
AcDbEntity
  8
1
100
AcDbLine
 10
42.214602962811
 20
0.65061395915
 30
0.0
 11
42.279602962811
 21
0.65061395915
 31
0.0
  0
LINE
  5
11C
330
30
100
AcDbEntity
  8
1
100
AcDbLine
 10
42.279602962811
 20
0.65061395915
 30
0.0
 11
42.344602962811
 21
0.65061395915
 31
0.0
  0
LINE
  5
11D
330
30
100
AcDbEntity
  8
1
100
AcDbLine
 10
42.344602962811
 20
0.65061395915
 30
0.0
 11
42.409602962811
 21
0.65061395915
 31
0.0
  0
LINE
  5
11E
330
30
100
AcDbEntity
  8
1
100
AcDbLine
 10
42.409602962811
 20
0.65061395915
 30
0.0
 11
42.474602962811
 21
0.65061395915
 31
0.0
  0
LINE
  5
11F
330
30
100
AcDbEntity
  8
1
100
AcDbLine
 10
42.474602962811
 20
0.65061395915
 30
0.0
 11
42.539602962811
 21
0.65061395915
 31
0.0
  0
LINE
  5
120
330
30
100
AcDbEntity
  8
1
100
AcDbLine
 10
42.539602962811
 20
0.65061395915
 30
0.0
 11
42.604602962811
 21
0.65061395915
 31
0.0
  0
LINE
  5
121
330
30
100
AcDbEntity
  8
1
100
AcDbLine
 10
42.604602962811
 20
0.65061395915
 30
0.0
 11
42.669602962811
 21
0.65061395915
 31
0.0
  0
LINE
  5
122
330
30
100
AcDbEntity
  8
1
100
AcDbLine
 10
42.669602962811
 20
0.65061395915
 30
0.0
 11
42.734602962811
 21
0.65061395915
 31
0.0
  0
LINE
  5
123
330
30
100
AcDbEntity
  8
1
100
AcDbLine
 10
42.734602962811
 20
0.65061395915
 30
0.0
 11
42.799602962811
 21
0.65061395915
 31
0.0
  0
LINE
  5
124
330
30
100
AcDbEntity
  8
1
100
AcDbLine
 10
42.799602962811
 20
0.65061395915
 30
0.0
 11
42.864602962811
 21
0.65061395915
 31
0.0
  0
LINE
  5
125
330
30
100
AcDbEntity
  8
1
100
AcDbLine
 10
42.864602962811
 20
0.65061395915
 30
0.0
 11
42.929602962811
 21
0.65061395915
 31
0.0
  0
LINE
  5
126
330
30
100
AcDbEntity
  8
1
100
AcDbLine
 10
42.929602962811
 20
0.65061395915
 30
0.0
 11
42.994602962811
 21
0.65061395915
 31
0.0
  0
LINE
  5
127
330
30
100
AcDbEntity
  8
1
100
AcDbLine
 10
42.994602962811
 20
0.65061395915
 30
0.0
 11
43.059602962811
 21
0.65061395915
 31
0.0
  0
LINE
  5
128
330
30
100
AcDbEntity
  8
1
100
AcDbLine
 10
43.059602962811
 20
0.65061395915
 30
0.0
 11
43.124602962811
 21
0.65061395915
 31
0.0
  0
LINE
  5
129
330
30
100
AcDbEntity
  8
1
100
AcDbLine
 10
43.124602962811
 20
0.65061395915
 30
0.0
 11
43.189602962811
 21
0.65061395915
 31
0.0
  0
LINE
  5
12A
330
30
100
AcDbEntity
  8
1
100
AcDbLine
 10
43.189602962811
 20
0.65061395915
 30
0.0
 11
43.254602962811
 21
0.65061395915
 31
0.0
  0
LINE
  5
12B
330
30
100
AcDbEntity
  8
1
100
AcDbLine
 10
43.254602962811
 20
0.65061395915
 30
0.0
 11
43.319602962811
 21
0.65061395915
 31
0.0
  0
LINE
  5
12C
330
30
100
AcDbEntity
  8
1
100
AcDbLine
 10
43.319602962811
 20
0.65061395915
 30
0.0
 11
43.384602962811
 21
0.65061395915
 31
0.0
  0
LINE
  5
12D
330
30
100
AcDbEntity
  8
1
100
AcDbLine
 10
43.384602962811
 20
0.65061395915
 30
0.0
 11
43.449602962811
 21
0.65061395915
 31
0.0
  0
LINE
  5
12E
330
30
100
AcDbEntity
  8
1
100
AcDbLine
 10
43.449602962811
 20
0.65061395915
 30
0.0
 11
43.514602962811
 21
0.65061395915
 31
0.0
  0
LINE
  5
12F
330
30
100
AcDbEntity
  8
1
100
AcDbLine
 10
43.514602962811
 20
0.65061395915
 30
0.0
 11
43.579602962811
 21
0.65061395915
 31
0.0
  0
LINE
  5
130
330
30
100
AcDbEntity
  8
1
100
AcDbLine
 10
43.579602962811
 20
0.65061395915
 30
0.0
 11
43.644602962811
 21
0.65061395915
 31
0.0
  0
LINE
  5
131
330
30
100
AcDbEntity
  8
1
100
AcDbLine
 10
43.644602962811
 20
0.65061395915
 30
0.0
 11
43.709602962811
 21
0.65061395915
 31
0.0
  0
LINE
  5
132
330
30
100
AcDbEntity
  8
1
100
AcDbLine
 10
43.709602962811
 20
0.65061395915
 30
0.0
 11
43.774602962811
 21
0.65061395915
 31
0.0
  0
LINE
  5
133
330
30
100
AcDbEntity
  8
1
100
AcDbLine
 10
43.774602962811
 20
0.65061395915
 30
0.0
 11
43.839602962811
 21
0.65061395915
 31
0.0
  0
LINE
  5
134
330
30
100
AcDbEntity
  8
1
100
AcDbLine
 10
43.839602962811
 20
0.65061395915
 30
0.0
 11
43.904602962811
 21
0.65061395915
 31
0.0
  0
LINE
  5
135
330
30
100
AcDbEntity
  8
1
100
AcDbLine
 10
43.904602962811
 20
0.65061395915
 30
0.0
 11
43.969602962811
 21
0.65061395915
 31
0.0
  0
LINE
  5
136
330
30
100
AcDbEntity
  8
1
100
AcDbLine
 10
43.969602962811
 20
0.65061395915
 30
0.0
 11
44.034602962811
 21
0.65061395915
 31
0.0
  0
LINE
  5
137
330
30
100
AcDbEntity
  8
1
100
AcDbLine
 10
44.034602962811
 20
0.65061395915
 30
0.0
 11
44.099602962811
 21
0.65061395915
 31
0.0
  0
LINE
  5
138
330
30
100
AcDbEntity
  8
1
100
AcDbLine
 10
44.099602962811
 20
0.65061395915
 30
0.0
 11
44.164602962811
 21
0.65061395915
 31
0.0
  0
LINE
  5
139
330
30
100
AcDbEntity
  8
1
100
AcDbLine
 10
44.164602962811
 20
0.65061395915
 30
0.0
 11
44.229602962811
 21
0.65061395915
 31
0.0
  0
LINE
  5
13A
330
30
100
AcDbEntity
  8
1
100
AcDbLine
 10
44.229602962811
 20
0.65061395915
 30
0.0
 11
44.294602962811
 21
0.65061395915
 31
0.0
  0
LINE
  5
13B
330
30
100
AcDbEntity
  8
1
100
AcDbLine
 10
44.294602962811
 20
0.65061395915
 30
0.0
 11
44.359602962811
 21
0.65061395915
 31
0.0
  0
LINE
  5
13C
330
30
100
AcDbEntity
  8
1
100
AcDbLine
 10
44.359602962811
 20
0.65061395915
 30
0.0
 11
44.424602962811
 21
0.65061395915
 31
0.0
  0
LINE
  5
13D
330
30
100
AcDbEntity
  8
1
100
AcDbLine
 10
44.424602962811
 20
0.65061395915
 30
0.0
 11
44.489602962811
 21
0.65061395915
 31
0.0
  0
LINE
  5
13E
330
30
100
AcDbEntity
  8
1
100
AcDbLine
 10
44.489602962811
 20
0.65061395915
 30
0.0
 11
44.554602962811
 21
0.65061395915
 31
0.0
  0
LINE
  5
13F
330
30
100
AcDbEntity
  8
1
100
AcDbLine
 10
44.554602962811
 20
0.65061395915
 30
0.0
 11
44.619602962811
 21
0.65061395915
 31
0.0
  0
LINE
  5
140
330
30
100
AcDbEntity
  8
1
100
AcDbLine
 10
44.619602962811
 20
0.65061395915
 30
0.0
 11
44.684602962811
 21
0.65061395915
 31
0.0
  0
LINE
  5
141
330
30
100
AcDbEntity
  8
1
100
AcDbLine
 10
44.684602962811
 20
0.65061395915
 30
0.0
 11
44.749602962811
 21
0.65061395915
 31
0.0
  0
LINE
  5
142
330
30
100
AcDbEntity
  8
1
100
AcDbLine
 10
44.749602962811
 20
0.65061395915
 30
0.0
 11
44.814602962811
 21
0.65061395915
 31
0.0
  0
LINE
  5
143
330
30
100
AcDbEntity
  8
1
100
AcDbLine
 10
44.814602962811
 20
0.65061395915
 30
0.0
 11
44.879602962811
 21
0.65061395915
 31
0.0
  0
LINE
  5
144
330
30
100
AcDbEntity
  8
1
100
AcDbLine
 10
44.879602962811
 20
0.65061395915
 30
0.0
 11
44.944602962811
 21
0.65061395915
 31
0.0
  0
LINE
  5
145
330
30
100
AcDbEntity
  8
1
100
AcDbLine
 10
44.944602962811
 20
0.65061395915
 30
0.0
 11
45.009602962811
 21
0.65061395915
 31
0.0
  0
LINE
  5
146
330
30
100
AcDbEntity
  8
1
100
AcDbLine
 10
45.009602962811
 20
0.65061395915
 30
0.0
 11
45.074602962811
 21
0.65061395915
 31
0.0
  0
LINE
  5
147
330
30
100
AcDbEntity
  8
1
100
AcDbLine
 10
45.074602962811
 20
0.65061395915
 30
0.0
 11
45.139602962811
 21
0.65061395915
 31
0.0
  0
LINE
  5
148
330
30
100
AcDbEntity
  8
1
100
AcDbLine
 10
45.139602962811
 20
0.65061395915
 30
0.0
 11
45.204602962811
 21
0.65061395915
 31
0.0
  0
LINE
  5
149
330
30
100
AcDbEntity
  8
1
100
AcDbLine
 10
45.204602962811
 20
0.65061395915
 30
0.0
 11
45.269602962811
 21
0.65061395915
 31
0.0
  0
LINE
  5
14A
330
30
100
AcDbEntity
  8
1
100
AcDbLine
 10
45.269602962811
 20
0.65061395915
 30
0.0
 11
45.334602962811
 21
0.65061395915
 31
0.0
  0
LINE
  5
14B
330
30
100
AcDbEntity
  8
1
100
AcDbLine
 10
45.334602962811
 20
0.65061395915
 30
0.0
 11
45.399602962811
 21
0.65061395915
 31
0.0
  0
LINE
  5
14C
330
30
100
AcDbEntity
  8
1
100
AcDbLine
 10
45.399602962811
 20
0.65061395915
 30
0.0
 11
45.464602962811
 21
0.65061395915
 31
0.0
  0
LINE
  5
14D
330
30
100
AcDbEntity
  8
1
100
AcDbLine
 10
45.464602962811
 20
0.65061395915
 30
0.0
 11
45.529602962811
 21
0.65061395915
 31
0.0
  0
LINE
  5
14E
330
30
100
AcDbEntity
  8
1
100
AcDbLine
 10
45.529602962811
 20
0.65061395915
 30
0.0
 11
45.594602962811
 21
0.65061395915
 31
0.0
  0
LINE
  5
14F
330
30
100
AcDbEntity
  8
1
100
AcDbLine
 10
45.594602962811
 20
0.65061395915
 30
0.0
 11
45.659602962811
 21
0.65061395915
 31
0.0
  0
LINE
  5
150
330
30
100
AcDbEntity
  8
1
100
AcDbLine
 10
45.659602962811
 20
0.65061395915
 30
0.0
 11
45.724602962811
 21
0.65061395915
 31
0.0
  0
LINE
  5
151
330
30
100
AcDbEntity
  8
1
100
AcDbLine
 10
45.724602962811
 20
0.65061395915
 30
0.0
 11
45.789602962811
 21
0.65061395915
 31
0.0
  0
LINE
  5
152
330
30
100
AcDbEntity
  8
1
100
AcDbLine
 10
45.789602962811
 20
0.65061395915
 30
0.0
 11
45.854602962811
 21
0.65061395915
 31
0.0
  0
LINE
  5
153
330
30
100
AcDbEntity
  8
1
100
AcDbLine
 10
45.854602962811
 20
0.65061395915
 30
0.0
 11
45.919602962811
 21
0.65061395915
 31
0.0
  0
LINE
  5
154
330
30
100
AcDbEntity
  8
1
100
AcDbLine
 10
45.919602962811
 20
0.65061395915
 30
0.0
 11
45.984602962811
 21
0.65061395915
 31
0.0
  0
LINE
  5
155
330
30
100
AcDbEntity
  8
1
100
AcDbLine
 10
45.984602962811
 20
0.65061395915
 30
0.0
 11
46.049602962811
 21
0.65061395915
 31
0.0
  0
LINE
  5
156
330
30
100
AcDbEntity
  8
1
100
AcDbLine
 10
46.049602962811
 20
0.65061395915
 30
0.0
 11
46.114602962811
 21
0.65061395915
 31
0.0
  0
LINE
  5
157
330
30
100
AcDbEntity
  8
1
100
AcDbLine
 10
46.114602962811
 20
0.65061395915
 30
0.0
 11
46.179602962811
 21
0.65061395915
 31
0.0
  0
LINE
  5
158
330
30
100
AcDbEntity
  8
1
100
AcDbLine
 10
46.179602962811
 20
0.65061395915
 30
0.0
 11
46.244602962811
 21
0.65061395915
 31
0.0
  0
LINE
  5
159
330
30
100
AcDbEntity
  8
1
100
AcDbLine
 10
46.244602962811
 20
0.65061395915
 30
0.0
 11
46.309602962811
 21
0.65061395915
 31
0.0
  0
LINE
  5
15A
330
30
100
AcDbEntity
  8
1
100
AcDbLine
 10
46.309602962811
 20
0.65061395915
 30
0.0
 11
46.374602962811
 21
0.65061395915
 31
0.0
  0
LINE
  5
15B
330
30
100
AcDbEntity
  8
1
100
AcDbLine
 10
46.374602962811
 20
0.65061395915
 30
0.0
 11
46.439602962811
 21
0.65061395915
 31
0.0
  0
LINE
  5
15C
330
30
100
AcDbEntity
  8
1
100
AcDbLine
 10
46.439602962811
 20
0.65061395915
 30
0.0
 11
46.504602962811
 21
0.65061395915
 31
0.0
  0
LINE
  5
15D
330
30
100
AcDbEntity
  8
1
100
AcDbLine
 10
46.504602962811
 20
0.65061395915
 30
0.0
 11
46.569602962811
 21
0.65061395915
 31
0.0
  0
LINE
  5
15E
330
30
100
AcDbEntity
  8
1
100
AcDbLine
 10
46.569602962811
 20
0.65061395915
 30
0.0
 11
46.634602962811
 21
0.65061395915
 31
0.0
  0
LINE
  5
15F
330
30
100
AcDbEntity
  8
1
100
AcDbLine
 10
46.634602962811
 20
0.65061395915
 30
0.0
 11
46.699602962811
 21
0.65061395915
 31
0.0
  0
LINE
  5
160
330
30
100
AcDbEntity
  8
1
100
AcDbLine
 10
46.699602962811
 20
0.65061395915
 30
0.0
 11
46.764602962811
 21
0.65061395915
 31
0.0
  0
LINE
  5
161
330
30
100
AcDbEntity
  8
1
100
AcDbLine
 10
46.764602962811
 20
0.65061395915
 30
0.0
 11
46.829602962811
 21
0.65061395915
 31
0.0
  0
LINE
  5
162
330
30
100
AcDbEntity
  8
1
100
AcDbLine
 10
46.829602962811
 20
0.65061395915
 30
0.0
 11
46.894602962811
 21
0.65061395915
 31
0.0
  0
LINE
  5
163
330
30
100
AcDbEntity
  8
1
100
AcDbLine
 10
46.894602962811
 20
0.65061395915
 30
0.0
 11
46.959602962811
 21
0.65061395915
 31
0.0
  0
LINE
  5
164
330
30
100
AcDbEntity
  8
1
100
AcDbLine
 10
46.959602962811
 20
0.65061395915
 30
0.0
 11
47.024602962811
 21
0.65061395915
 31
0.0
  0
LINE
  5
165
330
30
100
AcDbEntity
  8
1
100
AcDbLine
 10
47.024602962811
 20
0.65061395915
 30
0.0
 11
47.089602962811
 21
0.65061395915
 31
0.0
  0
LINE
  5
166
330
30
100
AcDbEntity
  8
1
100
AcDbLine
 10
47.089602962811
 20
0.65061395915
 30
0.0
 11
47.154602962811
 21
0.65061395915
 31
0.0
  0
LINE
  5
167
330
30
100
AcDbEntity
  8
1
100
AcDbLine
 10
47.154602962811
 20
0.65061395915
 30
0.0
 11
47.219602962811
 21
0.65061395915
 31
0.0
  0
LINE
  5
168
330
30
100
AcDbEntity
  8
1
100
AcDbLine
 10
47.219602962811
 20
0.65061395915
 30
0.0
 11
47.284602962811
 21
0.65061395915
 31
0.0
  0
LINE
  5
169
330
30
100
AcDbEntity
  8
1
100
AcDbLine
 10
47.284602962811
 20
0.65061395915
 30
0.0
 11
47.349602962811
 21
0.65061395915
 31
0.0
  0
LINE
  5
16A
330
30
100
AcDbEntity
  8
1
100
AcDbLine
 10
47.349602962811
 20
0.65061395915
 30
0.0
 11
47.414602962811
 21
0.65061395915
 31
0.0
  0
LINE
  5
16B
330
30
100
AcDbEntity
  8
1
100
AcDbLine
 10
47.414602962811
 20
0.65061395915
 30
0.0
 11
47.479602962811
 21
0.65061395915
 31
0.0
  0
LINE
  5
16C
330
30
100
AcDbEntity
  8
1
100
AcDbLine
 10
47.479602962811
 20
0.65061395915
 30
0.0
 11
47.544602962811
 21
0.65061395915
 31
0.0
  0
LINE
  5
16D
330
30
100
AcDbEntity
  8
1
100
AcDbLine
 10
47.544602962811
 20
0.65061395915
 30
0.0
 11
47.609602962811
 21
0.65061395915
 31
0.0
  0
LINE
  5
16E
330
30
100
AcDbEntity
  8
1
100
AcDbLine
 10
47.609602962811
 20
0.65061395915
 30
0.0
 11
47.674602962811
 21
0.65061395915
 31
0.0
  0
LINE
  5
16F
330
30
100
AcDbEntity
  8
1
100
AcDbLine
 10
47.674602962811
 20
0.65061395915
 30
0.0
 11
47.739602962811
 21
0.65061395915
 31
0.0
  0
LINE
  5
170
330
30
100
AcDbEntity
  8
1
100
AcDbLine
 10
47.739602962811
 20
0.65061395915
 30
0.0
 11
47.804602962811
 21
0.65061395915
 31
0.0
  0
LINE
  5
171
330
30
100
AcDbEntity
  8
1
100
AcDbLine
 10
47.804602962811
 20
0.65061395915
 30
0.0
 11
47.869602962811
 21
0.65061395915
 31
0.0
  0
LINE
  5
172
330
30
100
AcDbEntity
  8
1
100
AcDbLine
 10
47.869602962811
 20
0.65061395915
 30
0.0
 11
47.934602962811
 21
0.65061395915
 31
0.0
  0
LINE
  5
173
330
30
100
AcDbEntity
  8
1
100
AcDbLine
 10
47.934602962811
 20
0.65061395915
 30
0.0
 11
47.999602962811
 21
0.65061395915
 31
0.0
  0
LINE
  5
174
330
30
100
AcDbEntity
  8
1
100
AcDbLine
 10
47.999602962811
 20
0.65061395915
 30
0.0
 11
48.064602962811
 21
0.65061395915
 31
0.0
  0
LINE
  5
175
330
30
100
AcDbEntity
  8
1
100
AcDbLine
 10
48.064602962811
 20
0.65061395915
 30
0.0
 11
48.129602962811
 21
0.65061395915
 31
0.0
  0
LINE
  5
176
330
30
100
AcDbEntity
  8
1
100
AcDbLine
 10
48.129602962811
 20
0.65061395915
 30
0.0
 11
48.194602962811
 21
0.65061395915
 31
0.0
  0
LINE
  5
177
330
30
100
AcDbEntity
  8
1
100
AcDbLine
 10
48.194602962811
 20
0.65061395915
 30
0.0
 11
48.259602962811
 21
0.65061395915
 31
0.0
  0
LINE
  5
178
330
30
100
AcDbEntity
  8
1
100
AcDbLine
 10
48.259602962811
 20
0.65061395915
 30
0.0
 11
48.324602962811
 21
0.65061395915
 31
0.0
  0
LINE
  5
179
330
30
100
AcDbEntity
  8
1
100
AcDbLine
 10
48.324602962811
 20
0.65061395915
 30
0.0
 11
48.389602962811
 21
0.65061395915
 31
0.0
  0
LINE
  5
17A
330
30
100
AcDbEntity
  8
1
100
AcDbLine
 10
48.389602962811
 20
0.65061395915
 30
0.0
 11
48.454602962811
 21
0.65061395915
 31
0.0
  0
LINE
  5
17B
330
30
100
AcDbEntity
  8
1
100
AcDbLine
 10
48.454602962811
 20
0.65061395915
 30
0.0
 11
48.519602962811
 21
0.65061395915
 31
0.0
  0
LINE
  5
17C
330
30
100
AcDbEntity
  8
1
100
AcDbLine
 10
48.519602962811
 20
0.65061395915
 30
0.0
 11
48.584602962811
 21
0.65061395915
 31
0.0
  0
LINE
  5
17D
330
30
100
AcDbEntity
  8
1
100
AcDbLine
 10
48.584602962811
 20
0.65061395915
 30
0.0
 11
48.649602962811
 21
0.65061395915
 31
0.0
  0
LINE
  5
17E
330
30
100
AcDbEntity
  8
1
100
AcDbLine
 10
48.649602962811
 20
0.65061395915
 30
0.0
 11
48.714602962811
 21
0.65061395915
 31
0.0
  0
LINE
  5
17F
330
30
100
AcDbEntity
  8
1
100
AcDbLine
 10
48.714602962811
 20
0.65061395915
 30
0.0
 11
48.779602962811
 21
0.65061395915
 31
0.0
  0
LINE
  5
180
330
30
100
AcDbEntity
  8
1
100
AcDbLine
 10
48.779602962811
 20
0.65061395915
 30
0.0
 11
48.844602962811
 21
0.65061395915
 31
0.0
  0
LINE
  5
181
330
30
100
AcDbEntity
  8
1
100
AcDbLine
 10
48.844602962811
 20
0.65061395915
 30
0.0
 11
48.909602962811
 21
0.65061395915
 31
0.0
  0
LINE
  5
182
330
30
100
AcDbEntity
  8
1
100
AcDbLine
 10
48.909602962811
 20
0.65061395915
 30
0.0
 11
48.974602962811
 21
0.65061395915
 31
0.0
  0
LINE
  5
183
330
30
100
AcDbEntity
  8
1
100
AcDbLine
 10
48.974602962811
 20
0.65061395915
 30
0.0
 11
49.039602962811
 21
0.65061395915
 31
0.0
  0
LINE
  5
184
330
30
100
AcDbEntity
  8
1
100
AcDbLine
 10
49.039602962811
 20
0.65061395915
 30
0.0
 11
49.104602962811
 21
0.65061395915
 31
0.0
  0
LINE
  5
185
330
30
100
AcDbEntity
  8
1
100
AcDbLine
 10
49.104602962811
 20
0.65061395915
 30
0.0
 11
49.169602962811
 21
0.65061395915
 31
0.0
  0
LINE
  5
186
330
30
100
AcDbEntity
  8
1
100
AcDbLine
 10
49.169602962811
 20
0.65061395915
 30
0.0
 11
49.234602962811
 21
0.65061395915
 31
0.0
  0
LINE
  5
187
330
30
100
AcDbEntity
  8
1
100
AcDbLine
 10
49.234602962811
 20
0.65061395915
 30
0.0
 11
49.299602962811
 21
0.65061395915
 31
0.0
  0
LINE
  5
188
330
30
100
AcDbEntity
  8
1
100
AcDbLine
 10
49.299602962811
 20
0.65061395915
 30
0.0
 11
49.364602962811
 21
0.65061395915
 31
0.0
  0
LINE
  5
189
330
30
100
AcDbEntity
  8
1
100
AcDbLine
 10
49.364602962811
 20
0.65061395915
 30
0.0
 11
49.429602962811
 21
0.65061395915
 31
0.0
  0
LINE
  5
18A
330
30
100
AcDbEntity
  8
1
100
AcDbLine
 10
49.429602962811
 20
0.65061395915
 30
0.0
 11
49.494602962811
 21
0.65061395915
 31
0.0
  0
LINE
  5
18B
330
30
100
AcDbEntity
  8
1
100
AcDbLine
 10
49.494602962811
 20
0.65061395915
 30
0.0
 11
49.559602962811
 21
0.65061395915
 31
0.0
  0
LINE
  5
18C
330
30
100
AcDbEntity
  8
1
100
AcDbLine
 10
49.559602962811
 20
0.65061395915
 30
0.0
 11
49.624602962811
 21
0.65061395915
 31
0.0
  0
LINE
  5
18D
330
30
100
AcDbEntity
  8
1
100
AcDbLine
 10
49.624602962811
 20
0.65061395915
 30
0.0
 11
49.689602962811
 21
0.65061395915
 31
0.0
  0
LINE
  5
18E
330
30
100
AcDbEntity
  8
1
100
AcDbLine
 10
49.689602962811
 20
0.65061395915
 30
0.0
 11
49.754602962811
 21
0.65061395915
 31
0.0
  0
LINE
  5
18F
330
30
100
AcDbEntity
  8
1
100
AcDbLine
 10
49.754602962811
 20
0.65061395915
 30
0.0
 11
49.819602962811
 21
0.65061395915
 31
0.0
  0
LINE
  5
190
330
30
100
AcDbEntity
  8
1
100
AcDbLine
 10
49.819602962811
 20
0.65061395915
 30
0.0
 11
49.884602962811
 21
0.65061395915
 31
0.0
  0
LINE
  5
191
330
30
100
AcDbEntity
  8
1
100
AcDbLine
 10
49.884602962811
 20
0.65061395915
 30
0.0
 11
49.949602962811
 21
0.65061395915
 31
0.0
  0
LINE
  5
192
330
30
100
AcDbEntity
  8
1
100
AcDbLine
 10
49.949602962811
 20
0.65061395915
 30
0.0
 11
50.014602962811
 21
0.65061395915
 31
0.0
  0
LINE
  5
193
330
30
100
AcDbEntity
  8
1
100
AcDbLine
 10
50.014602962811
 20
0.65061395915
 30
0.0
 11
50.079602962811
 21
0.656590126856
 31
0.0
  0
LINE
  5
194
330
30
100
AcDbEntity
  8
1
100
AcDbLine
 10
50.079602962811
 20
0.656590126856
 30
0.0
 11
50.144602962811
 21
0.677658065362
 31
0.0
  0
LINE
  5
195
330
30
100
AcDbEntity
  8
1
100
AcDbLine
 10
50.144602962811
 20
0.677658065362
 30
0.0
 11
50.209602962811
 21
0.698721657422
 31
0.0
  0
LINE
  5
196
330
30
100
AcDbEntity
  8
1
100
AcDbLine
 10
50.209602962811
 20
0.698721657422
 30
0.0
 11
50.274602962811
 21
0.719781237579
 31
0.0
  0
LINE
  5
197
330
30
100
AcDbEntity
  8
1
100
AcDbLine
 10
50.274602962811
 20
0.719781237579
 30
0.0
 11
50.339602962811
 21
0.740837106849
 31
0.0
  0
LINE
  5
198
330
30
100
AcDbEntity
  8
1
100
AcDbLine
 10
50.339602962811
 20
0.740837106849
 30
0.0
 11
50.404602962811
 21
0.761889536822
 31
0.0
  0
LINE
  5
199
330
30
100
AcDbEntity
  8
1
100
AcDbLine
 10
50.404602962811
 20
0.761889536822
 30
0.0
 11
50.469602962811
 21
0.782938773178
 31
0.0
  0
LINE
  5
19A
330
30
100
AcDbEntity
  8
1
100
AcDbLine
 10
50.469602962811
 20
0.782938773178
 30
0.0
 11
50.534602962811
 21
0.80398503871
 31
0.0
  0
LINE
  5
19B
330
30
100
AcDbEntity
  8
1
100
AcDbLine
 10
50.534602962811
 20
0.80398503871
 30
0.0
 11
50.599602962811
 21
0.825028535933
 31
0.0
  0
LINE
  5
19C
330
30
100
AcDbEntity
  8
1
100
AcDbLine
 10
50.599602962811
 20
0.825028535933
 30
0.0
 11
50.664602962811
 21
0.846069449337
 31
0.0
  0
LINE
  5
19D
330
30
100
AcDbEntity
  8
1
100
AcDbLine
 10
50.664602962811
 20
0.846069449337
 30
0.0
 11
50.729602962811
 21
0.867107947359
 31
0.0
  0
LINE
  5
19E
330
30
100
AcDbEntity
  8
1
100
AcDbLine
 10
50.729602962811
 20
0.867107947359
 30
0.0
 11
50.794602962811
 21
0.875
 31
0.0
  0
LINE
  5
19F
330
30
100
AcDbEntity
  8
1
100
AcDbLine
 10
50.794602962811
 20
0.875
 30
0.0
 11
50.859602962811
 21
0.875
 31
0.0
  0
LINE
  5
1A0
330
30
100
AcDbEntity
  8
1
100
AcDbLine
 10
50.859602962811
 20
0.875
 30
0.0
 11
50.924602962811
 21
0.875
 31
0.0
  0
LINE
  5
1A1
330
30
100
AcDbEntity
  8
1
100
AcDbLine
 10
50.924602962811
 20
0.875
 30
0.0
 11
50.989602962811
 21
0.875
 31
0.0
  0
LINE
  5
1A2
330
30
100
AcDbEntity
  8
1
100
AcDbLine
 10
50.989602962811
 20
0.875
 30
0.0
 11
51.054602962811
 21
0.875
 31
0.0
  0
LINE
  5
1A3
330
30
100
AcDbEntity
  8
1
100
AcDbLine
 10
51.054602962811
 20
0.875
 30
0.0
 11
51.119602962811
 21
0.875
 31
0.0
  0
LINE
  5
1A4
330
30
100
AcDbEntity
  8
1
100
AcDbLine
 10
51.119602962811
 20
0.875
 30
0.0
 11
51.184602962811
 21
0.875
 31
0.0
  0
LINE
  5
1A5
330
30
100
AcDbEntity
  8
1
100
AcDbLine
 10
51.184602962811
 20
0.875
 30
0.0
 11
51.249602962811
 21
0.875
 31
0.0
  0
LINE
  5
1A6
330
30
100
AcDbEntity
  8
1
100
AcDbLine
 10
51.249602962811
 20
0.875
 30
0.0
 11
51.314602962811
 21
0.875
 31
0.0
  0
LINE
  5
1A7
330
30
100
AcDbEntity
  8
1
100
AcDbLine
 10
51.314602962811
 20
0.875
 30
0.0
 11
51.379602962811
 21
0.875
 31
0.0
  0
LINE
  5
1A8
330
30
100
AcDbEntity
  8
1
100
AcDbLine
 10
51.379602962811
 20
0.875
 30
0.0
 11
51.444602962811
 21
0.875
 31
0.0
  0
LINE
  5
1A9
330
30
100
AcDbEntity
  8
1
100
AcDbLine
 10
51.444602962811
 20
0.875
 30
0.0
 11
51.509602962811
 21
0.875
 31
0.0
  0
LINE
  5
1AA
330
30
100
AcDbEntity
  8
1
100
AcDbLine
 10
51.509602962811
 20
0.875
 30
0.0
 11
51.574602962811
 21
0.875
 31
0.0
  0
LINE
  5
1AB
330
30
100
AcDbEntity
  8
1
100
AcDbLine
 10
51.574602962811
 20
0.875
 30
0.0
 11
51.639602962811
 21
0.875
 31
0.0
  0
LINE
  5
1AC
330
30
100
AcDbEntity
  8
1
100
AcDbLine
 10
51.639602962811
 20
0.875
 30
0.0
 11
51.704602962811
 21
0.875
 31
0.0
  0
LINE
  5
1AD
330
30
100
AcDbEntity
  8
1
100
AcDbLine
 10
51.704602962811
 20
0.875
 30
0.0
 11
51.769602962811
 21
0.875
 31
0.0
  0
LINE
  5
1AE
330
30
100
AcDbEntity
  8
1
100
AcDbLine
 10
51.769602962811
 20
0.875
 30
0.0
 11
51.834602962811
 21
0.875
 31
0.0
  0
LINE
  5
1AF
330
30
100
AcDbEntity
  8
1
100
AcDbLine
 10
51.834602962811
 20
0.875
 30
0.0
 11
51.899602962811
 21
0.875
 31
0.0
  0
LINE
  5
1B0
330
30
100
AcDbEntity
  8
1
100
AcDbLine
 10
51.899602962811
 20
0.875
 30
0.0
 11
51.964602962811
 21
0.875
 31
0.0
  0
LINE
  5
1B1
330
30
100
AcDbEntity
  8
1
100
AcDbLine
 10
51.964602962811
 20
0.875
 30
0.0
 11
52.029602962811
 21
0.875
 31
0.0
  0
LINE
  5
1B2
330
30
100
AcDbEntity
  8
1
100
AcDbLine
 10
52.029602962811
 20
0.875
 30
0.0
 11
52.094602962811
 21
0.875
 31
0.0
  0
LINE
  5
1B3
330
30
100
AcDbEntity
  8
1
100
AcDbLine
 10
52.094602962811
 20
0.875
 30
0.0
 11
52.159602962811
 21
0.875
 31
0.0
  0
LINE
  5
1B4
330
30
100
AcDbEntity
  8
1
100
AcDbLine
 10
52.159602962811
 20
0.875
 30
0.0
 11
52.224602962811
 21
0.875
 31
0.0
  0
LINE
  5
1B5
330
30
100
AcDbEntity
  8
1
100
AcDbLine
 10
52.224602962811
 20
0.875
 30
0.0
 11
52.289602962811
 21
0.875
 31
0.0
  0
LINE
  5
1B6
330
30
100
AcDbEntity
  8
1
100
AcDbLine
 10
52.289602962811
 20
0.875
 30
0.0
 11
52.354602962811
 21
0.875
 31
0.0
  0
LINE
  5
1B7
330
30
100
AcDbEntity
  8
1
100
AcDbLine
 10
52.354602962811
 20
0.875
 30
0.0
 11
52.419602962811
 21
0.875
 31
0.0
  0
LINE
  5
1B8
330
30
100
AcDbEntity
  8
1
100
AcDbLine
 10
52.419602962811
 20
0.875
 30
0.0
 11
52.484602962811
 21
0.875
 31
0.0
  0
LINE
  5
1B9
330
30
100
AcDbEntity
  8
1
100
AcDbLine
 10
52.484602962811
 20
0.875
 30
0.0
 11
52.549602962811
 21
0.875
 31
0.0
  0
LINE
  5
1BA
330
30
100
AcDbEntity
  8
1
100
AcDbLine
 10
52.549602962811
 20
0.875
 30
0.0
 11
52.614602962811
 21
0.875
 31
0.0
  0
LINE
  5
1BB
330
30
100
AcDbEntity
  8
1
100
AcDbLine
 10
52.614602962811
 20
0.875
 30
0.0
 11
52.679602962811
 21
0.875
 31
0.0
  0
LINE
  5
1BC
330
30
100
AcDbEntity
  8
1
100
AcDbLine
 10
52.679602962811
 20
0.875
 30
0.0
 11
52.744602962811
 21
0.875
 31
0.0
  0
LINE
  5
1BD
330
30
100
AcDbEntity
  8
1
100
AcDbLine
 10
52.744602962811
 20
0.875
 30
0.0
 11
52.809602962811
 21
0.875
 31
0.0
  0
LINE
  5
1BE
330
30
100
AcDbEntity
  8
1
100
AcDbLine
 10
52.809602962811
 20
0.875
 30
0.0
 11
52.874602962811
 21
0.875
 31
0.0
  0
LINE
  5
1BF
330
30
100
AcDbEntity
  8
1
100
AcDbLine
 10
52.874602962811
 20
0.875
 30
0.0
 11
52.939602962811
 21
0.875
 31
0.0
  0
LINE
  5
1C0
330
30
100
AcDbEntity
  8
1
100
AcDbLine
 10
52.939602962811
 20
0.875
 30
0.0
 11
53.004602962811
 21
0.875
 31
0.0
  0
LINE
  5
1C1
330
30
100
AcDbEntity
  8
1
100
AcDbLine
 10
53.004602962811
 20
0.875
 30
0.0
 11
53.069602962811
 21
0.875
 31
0.0
  0
LINE
  5
1C2
330
30
100
AcDbEntity
  8
1
100
AcDbLine
 10
53.069602962811
 20
0.875
 30
0.0
 11
53.134602962811
 21
0.875
 31
0.0
  0
LINE
  5
1C3
330
30
100
AcDbEntity
  8
1
100
AcDbLine
 10
53.134602962811
 20
0.875
 30
0.0
 11
53.199602962811
 21
0.875
 31
0.0
  0
LINE
  5
1C4
330
30
100
AcDbEntity
  8
1
100
AcDbLine
 10
53.199602962811
 20
0.875
 30
0.0
 11
53.264602962811
 21
0.875
 31
0.0
  0
LINE
  5
1C5
330
30
100
AcDbEntity
  8
1
100
AcDbLine
 10
53.264602962811
 20
0.875
 30
0.0
 11
53.329602962811
 21
0.875
 31
0.0
  0
LINE
  5
1C6
330
30
100
AcDbEntity
  8
1
100
AcDbLine
 10
53.329602962811
 20
0.875
 30
0.0
 11
53.394602962811
 21
0.875
 31
0.0
  0
LINE
  5
1C7
330
30
100
AcDbEntity
  8
1
100
AcDbLine
 10
53.394602962811
 20
0.875
 30
0.0
 11
53.459602962811
 21
0.875
 31
0.0
  0
LINE
  5
1C8
330
30
100
AcDbEntity
  8
1
100
AcDbLine
 10
53.459602962811
 20
0.875
 30
0.0
 11
53.524602962811
 21
0.875
 31
0.0
  0
LINE
  5
1C9
330
30
100
AcDbEntity
  8
1
100
AcDbLine
 10
53.524602962811
 20
0.875
 30
0.0
 11
53.589602962811
 21
0.875
 31
0.0
  0
LINE
  5
1CA
330
30
100
AcDbEntity
  8
1
100
AcDbLine
 10
53.589602962811
 20
0.875
 30
0.0
 11
53.654602962811
 21
0.875
 31
0.0
  0
LINE
  5
1CB
330
30
100
AcDbEntity
  8
1
100
AcDbLine
 10
53.654602962811
 20
0.875
 30
0.0
 11
53.719602962811
 21
0.875
 31
0.0
  0
LINE
  5
1CC
330
30
100
AcDbEntity
  8
1
100
AcDbLine
 10
53.719602962811
 20
0.875
 30
0.0
 11
53.784602962811
 21
0.875
 31
0.0
  0
LINE
  5
1CD
330
30
100
AcDbEntity
  8
1
100
AcDbLine
 10
53.784602962811
 20
0.875
 30
0.0
 11
53.849602962811
 21
0.875
 31
0.0
  0
LINE
  5
1CE
330
30
100
AcDbEntity
  8
1
100
AcDbLine
 10
53.849602962811
 20
0.875
 30
0.0
 11
53.914602962811
 21
0.875
 31
0.0
  0
LINE
  5
1CF
330
30
100
AcDbEntity
  8
1
100
AcDbLine
 10
53.914602962811
 20
0.875
 30
0.0
 11
53.979602962811
 21
0.875
 31
0.0
  0
LINE
  5
1D0
330
30
100
AcDbEntity
  8
1
100
AcDbLine
 10
53.979602962811
 20
0.875
 30
0.0
 11
54.044602962811
 21
0.875
 31
0.0
  0
LINE
  5
1D1
330
30
100
AcDbEntity
  8
1
100
AcDbLine
 10
54.044602962811
 20
0.875
 30
0.0
 11
54.109602962811
 21
0.875
 31
0.0
  0
LINE
  5
1D2
330
30
100
AcDbEntity
  8
1
100
AcDbLine
 10
54.109602962811
 20
0.875
 30
0.0
 11
54.174602962811
 21
0.875
 31
0.0
  0
LINE
  5
1D3
330
30
100
AcDbEntity
  8
1
100
AcDbLine
 10
54.174602962811
 20
0.875
 30
0.0
 11
54.239602962811
 21
0.875
 31
0.0
  0
LINE
  5
1D4
330
30
100
AcDbEntity
  8
1
100
AcDbLine
 10
54.239602962811
 20
0.875
 30
0.0
 11
54.304602962811
 21
0.875
 31
0.0
  0
LINE
  5
1D5
330
30
100
AcDbEntity
  8
1
100
AcDbLine
 10
54.304602962811
 20
0.875
 30
0.0
 11
54.369602962811
 21
0.875
 31
0.0
  0
LINE
  5
1D6
330
30
100
AcDbEntity
  8
1
100
AcDbLine
 10
54.369602962811
 20
0.875
 30
0.0
 11
54.434602962811
 21
0.875
 31
0.0
  0
LINE
  5
1D7
330
30
100
AcDbEntity
  8
1
100
AcDbLine
 10
54.434602962811
 20
0.875
 30
0.0
 11
54.499602962811
 21
0.875
 31
0.0
  0
LINE
  5
1D8
330
30
100
AcDbEntity
  8
1
100
AcDbLine
 10
54.499602962811
 20
0.875
 30
0.0
 11
54.564602962811
 21
0.875
 31
0.0
  0
LINE
  5
1D9
330
30
100
AcDbEntity
  8
1
100
AcDbLine
 10
54.564602962811
 20
0.875
 30
0.0
 11
54.629602962811
 21
0.875
 31
0.0
  0
LINE
  5
1DA
330
30
100
AcDbEntity
  8
1
100
AcDbLine
 10
54.629602962811
 20
0.875
 30
0.0
 11
54.694602962811
 21
0.875
 31
0.0
  0
LINE
  5
1DB
330
30
100
AcDbEntity
  8
1
100
AcDbLine
 10
54.694602962811
 20
0.875
 30
0.0
 11
54.759602962811
 21
0.875
 31
0.0
  0
LINE
  5
1DC
330
30
100
AcDbEntity
  8
1
100
AcDbLine
 10
54.759602962811
 20
0.875
 30
0.0
 11
54.824602962811
 21
0.875
 31
0.0
  0
LINE
  5
1DD
330
30
100
AcDbEntity
  8
1
100
AcDbLine
 10
54.824602962811
 20
0.875
 30
0.0
 11
54.889602962811
 21
0.875
 31
0.0
  0
LINE
  5
1DE
330
30
100
AcDbEntity
  8
1
100
AcDbLine
 10
54.889602962811
 20
0.875
 30
0.0
 11
54.954602962811
 21
0.875
 31
0.0
  0
LINE
  5
1DF
330
30
100
AcDbEntity
  8
1
100
AcDbLine
 10
54.954602962811
 20
0.875
 30
0.0
 11
55.019602962811
 21
0.875
 31
0.0
  0
LINE
  5
1E0
330
30
100
AcDbEntity
  8
1
100
AcDbLine
 10
55.019602962811
 20
0.875
 30
0.0
 11
55.084602962811
 21
0.875
 31
0.0
  0
LINE
  5
1E1
330
30
100
AcDbEntity
  8
1
100
AcDbLine
 10
55.084602962811
 20
0.875
 30
0.0
 11
55.149602962811
 21
0.875
 31
0.0
  0
LINE
  5
1E2
330
30
100
AcDbEntity
  8
1
100
AcDbLine
 10
55.149602962811
 20
0.875
 30
0.0
 11
55.214602962811
 21
0.875
 31
0.0
  0
LINE
  5
1E3
330
30
100
AcDbEntity
  8
1
100
AcDbLine
 10
55.214602962811
 20
0.875
 30
0.0
 11
55.279602962811
 21
0.875
 31
0.0
  0
LINE
  5
1E4
330
30
100
AcDbEntity
  8
1
100
AcDbLine
 10
55.279602962811
 20
0.875
 30
0.0
 11
55.344602962811
 21
0.875
 31
0.0
  0
LINE
  5
1E5
330
30
100
AcDbEntity
  8
1
100
AcDbLine
 10
55.344602962811
 20
0.875
 30
0.0
 11
55.409602962811
 21
0.875
 31
0.0
  0
LINE
  5
1E6
330
30
100
AcDbEntity
  8
1
100
AcDbLine
 10
55.409602962811
 20
0.875
 30
0.0
 11
55.474602962811
 21
0.875
 31
0.0
  0
LINE
  5
1E7
330
30
100
AcDbEntity
  8
1
100
AcDbLine
 10
55.474602962811
 20
0.875
 30
0.0
 11
55.539602962811
 21
0.875
 31
0.0
  0
LINE
  5
1E8
330
30
100
AcDbEntity
  8
1
100
AcDbLine
 10
55.539602962811
 20
0.875
 30
0.0
 11
55.604602962811
 21
0.875
 31
0.0
  0
LINE
  5
1E9
330
30
100
AcDbEntity
  8
1
100
AcDbLine
 10
55.604602962811
 20
0.875
 30
0.0
 11
55.669602962811
 21
0.875
 31
0.0
  0
LINE
  5
1EA
330
30
100
AcDbEntity
  8
1
100
AcDbLine
 10
55.669602962811
 20
0.875
 30
0.0
 11
55.734602962811
 21
0.875
 31
0.0
  0
LINE
  5
1EB
330
30
100
AcDbEntity
  8
1
100
AcDbLine
 10
55.734602962811
 20
0.875
 30
0.0
 11
55.799602962811
 21
0.875
 31
0.0
  0
LINE
  5
1EC
330
30
100
AcDbEntity
  8
1
100
AcDbLine
 10
55.799602962811
 20
0.875
 30
0.0
 11
55.864602962811
 21
0.875
 31
0.0
  0
LINE
  5
1ED
330
30
100
AcDbEntity
  8
1
100
AcDbLine
 10
55.864602962811
 20
0.875
 30
0.0
 11
55.929602962811
 21
0.875
 31
0.0
  0
LINE
  5
1EE
330
30
100
AcDbEntity
  8
1
100
AcDbLine
 10
55.929602962811
 20
0.875
 30
0.0
 11
55.994602962811
 21
0.875
 31
0.0
  0
LINE
  5
1EF
330
30
100
AcDbEntity
  8
1
100
AcDbLine
 10
55.994602962811
 20
0.875
 30
0.0
 11
56.059602962811
 21
0.875
 31
0.0
  0
LINE
  5
1F0
330
30
100
AcDbEntity
  8
1
100
AcDbLine
 10
56.059602962811
 20
0.875
 30
0.0
 11
56.124602962811
 21
0.875
 31
0.0
  0
LINE
  5
1F1
330
30
100
AcDbEntity
  8
1
100
AcDbLine
 10
56.124602962811
 20
0.875
 30
0.0
 11
56.189602962811
 21
0.875
 31
0.0
  0
LINE
  5
1F2
330
30
100
AcDbEntity
  8
1
100
AcDbLine
 10
56.189602962811
 20
0.875
 30
0.0
 11
56.254602962811
 21
0.875
 31
0.0
  0
LINE
  5
1F3
330
30
100
AcDbEntity
  8
1
100
AcDbLine
 10
56.254602962811
 20
0.875
 30
0.0
 11
56.319602962811
 21
0.875
 31
0.0
  0
LINE
  5
1F4
330
30
100
AcDbEntity
  8
1
100
AcDbLine
 10
56.319602962811
 20
0.875
 30
0.0
 11
56.384602962811
 21
0.875
 31
0.0
  0
LINE
  5
1F5
330
30
100
AcDbEntity
  8
1
100
AcDbLine
 10
56.384602962811
 20
0.875
 30
0.0
 11
56.449602962811
 21
0.875
 31
0.0
  0
LINE
  5
1F6
330
30
100
AcDbEntity
  8
1
100
AcDbLine
 10
56.449602962811
 20
0.875
 30
0.0
 11
56.514602962811
 21
0.875
 31
0.0
  0
LINE
  5
1F7
330
30
100
AcDbEntity
  8
1
100
AcDbLine
 10
56.514602962811
 20
0.875
 30
0.0
 11
56.579602962811
 21
0.872846175212
 31
0.0
  0
LINE
  5
1F8
330
30
100
AcDbEntity
  8
1
100
AcDbLine
 10
56.579602962811
 20
0.872846175212
 30
0.0
 11
56.644602962811
 21
0.867380596619
 31
0.0
  0
LINE
  5
1F9
330
30
100
AcDbEntity
  8
1
100
AcDbLine
 10
56.644602962811
 20
0.867380596619
 30
0.0
 11
56.709602962811
 21
0.861914865585
 31
0.0
  0
LINE
  5
1FA
330
30
100
AcDbEntity
  8
1
100
AcDbLine
 10
56.709602962811
 20
0.861914865585
 30
0.0
 11
56.774602962811
 21
0.856448979499
 31
0.0
  0
LINE
  5
1FB
330
30
100
AcDbEntity
  8
1
100
AcDbLine
 10
56.774602962811
 20
0.856448979499
 30
0.0
 11
56.839602962811
 21
0.850982935693
 31
0.0
  0
LINE
  5
1FC
330
30
100
AcDbEntity
  8
1
100
AcDbLine
 10
56.839602962811
 20
0.850982935693
 30
0.0
 11
56.904602962811
 21
0.845516731432
 31
0.0
  0
LINE
  5
1FD
330
30
100
AcDbEntity
  8
1
100
AcDbLine
 10
56.904602962811
 20
0.845516731432
 30
0.0
 11
56.969602962811
 21
0.840050363923
 31
0.0
  0
LINE
  5
1FE
330
30
100
AcDbEntity
  8
1
100
AcDbLine
 10
56.969602962811
 20
0.840050363923
 30
0.0
 11
57.034602962811
 21
0.834583830304
 31
0.0
  0
LINE
  5
1FF
330
30
100
AcDbEntity
  8
1
100
AcDbLine
 10
57.034602962811
 20
0.834583830304
 30
0.0
 11
57.099602962811
 21
0.829117127648
 31
0.0
  0
LINE
  5
200
330
30
100
AcDbEntity
  8
1
100
AcDbLine
 10
57.099602962811
 20
0.829117127648
 30
0.0
 11
57.164602962811
 21
0.823650252956
 31
0.0
  0
LINE
  5
201
330
30
100
AcDbEntity
  8
1
100
AcDbLine
 10
57.164602962811
 20
0.823650252956
 30
0.0
 11
57.229602962811
 21
0.818183203159
 31
0.0
  0
LINE
  5
202
330
30
100
AcDbEntity
  8
1
100
AcDbLine
 10
57.229602962811
 20
0.818183203159
 30
0.0
 11
57.294602962811
 21
0.812715975117
 31
0.0
  0
LINE
  5
203
330
30
100
AcDbEntity
  8
1
100
AcDbLine
 10
57.294602962811
 20
0.812715975117
 30
0.0
 11
57.359602962811
 21
0.807248565609
 31
0.0
  0
LINE
  5
204
330
30
100
AcDbEntity
  8
1
100
AcDbLine
 10
57.359602962811
 20
0.807248565609
 30
0.0
 11
57.424602962811
 21
0.801780971341
 31
0.0
  0
LINE
  5
205
330
30
100
AcDbEntity
  8
1
100
AcDbLine
 10
57.424602962811
 20
0.801780971341
 30
0.0
 11
57.489602962811
 21
0.796313188934
 31
0.0
  0
LINE
  5
206
330
30
100
AcDbEntity
  8
1
100
AcDbLine
 10
57.489602962811
 20
0.796313188934
 30
0.0
 11
57.554602962811
 21
0.790845214931
 31
0.0
  0
LINE
  5
207
330
30
100
AcDbEntity
  8
1
100
AcDbLine
 10
57.554602962811
 20
0.790845214931
 30
0.0
 11
57.619602962811
 21
0.785377045786
 31
0.0
  0
LINE
  5
208
330
30
100
AcDbEntity
  8
1
100
AcDbLine
 10
57.619602962811
 20
0.785377045786
 30
0.0
 11
57.684602962811
 21
0.779908677865
 31
0.0
  0
LINE
  5
209
330
30
100
AcDbEntity
  8
1
100
AcDbLine
 10
57.684602962811
 20
0.779908677865
 30
0.0
 11
57.749602962811
 21
0.774440107445
 31
0.0
  0
LINE
  5
20A
330
30
100
AcDbEntity
  8
1
100
AcDbLine
 10
57.749602962811
 20
0.774440107445
 30
0.0
 11
57.814602962811
 21
0.768971330707
 31
0.0
  0
LINE
  5
20B
330
30
100
AcDbEntity
  8
1
100
AcDbLine
 10
57.814602962811
 20
0.768971330707
 30
0.0
 11
57.879602962811
 21
0.763502343738
 31
0.0
  0
LINE
  5
20C
330
30
100
AcDbEntity
  8
1
100
AcDbLine
 10
57.879602962811
 20
0.763502343738
 30
0.0
 11
57.944602962811
 21
0.758033142523
 31
0.0
  0
LINE
  5
20D
330
30
100
AcDbEntity
  8
1
100
AcDbLine
 10
57.944602962811
 20
0.758033142523
 30
0.0
 11
58.009602962811
 21
0.728652912651
 31
0.0
  0
LINE
  5
20E
330
30
100
AcDbEntity
  8
1
100
AcDbLine
 10
58.009602962811
 20
0.728652912651
 30
0.0
 11
58.074602962811
 21
0.695229324117
 31
0.0
  0
LINE
  5
20F
330
30
100
AcDbEntity
  8
1
100
AcDbLine
 10
58.074602962811
 20
0.695229324117
 30
0.0
 11
58.139602962811
 21
0.661795485139
 31
0.0
  0
LINE
  5
210
330
30
100
AcDbEntity
  8
1
100
AcDbLine
 10
58.139602962811
 20
0.661795485139
 30
0.0
 11
58.204602962811
 21
0.628349986455
 31
0.0
  0
LINE
  5
211
330
30
100
AcDbEntity
  8
1
100
AcDbLine
 10
58.204602962811
 20
0.628349986455
 30
0.0
 11
58.269602962811
 21
0.594891147413
 31
0.0
  0
LINE
  5
212
330
30
100
AcDbEntity
  8
1
100
AcDbLine
 10
58.269602962811
 20
0.594891147413
 30
0.0
 11
58.334602962811
 21
0.561416947163
 31
0.0
  0
LINE
  5
213
330
30
100
AcDbEntity
  8
1
100
AcDbLine
 10
58.334602962811
 20
0.561416947163
 30
0.0
 11
58.399602962811
 21
0.527924933728
 31
0.0
  0
LINE
  5
214
330
30
100
AcDbEntity
  8
1
100
AcDbLine
 10
58.399602962811
 20
0.527924933728
 30
0.0
 11
58.464602962811
 21
0.494412102162
 31
0.0
  0
LINE
  5
215
330
30
100
AcDbEntity
  8
1
100
AcDbLine
 10
58.464602962811
 20
0.494412102162
 30
0.0
 11
58.529602962811
 21
0.460874728756
 31
0.0
  0
LINE
  5
216
330
30
100
AcDbEntity
  8
1
100
AcDbLine
 10
58.529602962811
 20
0.460874728756
 30
0.0
 11
58.594602962811
 21
0.427308141534
 31
0.0
  0
LINE
  5
217
330
30
100
AcDbEntity
  8
1
100
AcDbLine
 10
58.594602962811
 20
0.427308141534
 30
0.0
 11
58.659602962811
 21
0.393706396372
 31
0.0
  0
LINE
  5
218
330
30
100
AcDbEntity
  8
1
100
AcDbLine
 10
58.659602962811
 20
0.393706396372
 30
0.0
 11
58.724602962811
 21
0.360061809899
 31
0.0
  0
LINE
  5
219
330
30
100
AcDbEntity
  8
1
100
AcDbLine
 10
58.724602962811
 20
0.360061809899
 30
0.0
 11
58.789602962811
 21
0.326364268912
 31
0.0
  0
LINE
  5
21A
330
30
100
AcDbEntity
  8
1
100
AcDbLine
 10
58.789602962811
 20
0.326364268912
 30
0.0
 11
58.854602962811
 21
0.292600179796
 31
0.0
  0
LINE
  5
21B
330
30
100
AcDbEntity
  8
1
100
AcDbLine
 10
58.854602962811
 20
0.292600179796
 30
0.0
 11
58.919602962811
 21
0.258750816205
 31
0.0
  0
LINE
  5
21C
330
30
100
AcDbEntity
  8
1
100
AcDbLine
 10
58.919602962811
 20
0.258750816205
 30
0.0
 11
58.984602962811
 21
0.224789615921
 31
0.0
  0
LINE
  5
21D
330
30
100
AcDbEntity
  8
1
100
AcDbLine
 10
58.984602962811
 20
0.224789615921
 30
0.0
 11
59.049602962811
 21
0.19067754403
 31
0.0
  0
LINE
  5
21E
330
30
100
AcDbEntity
  8
1
100
AcDbLine
 10
59.049602962811
 20
0.19067754403
 30
0.0
 11
59.114602962811
 21
0.156354661388
 31
0.0
  0
LINE
  5
21F
330
30
100
AcDbEntity
  8
1
100
AcDbLine
 10
59.114602962811
 20
0.156354661388
 30
0.0
 11
59.179602962811
 21
0.118097089995
 31
0.0
  0
LINE
  5
220
330
30
100
AcDbEntity
  8
1
100
AcDbLine
 10
59.179602962811
 20
0.118097089995
 30
0.0
 11
59.244602962811
 21
0.038497128236
 31
0.0
  0
LINE
  5
221
330
30
100
AcDbEntity
  8
1
100
AcDbLine
 10
59.244602962811
 20
0.038497128236
 30
0.0
 11
59.244602962811
 21
-0.044242852126
 31
0.0
  0
LINE
  5
222
330
30
100
AcDbEntity
  8
1
100
AcDbLine
 10
59.244602962811
 20
-0.044242852126
 30
0.0
 11
59.179602962811
 21
-0.12451095244
 31
0.0
  0
LINE
  5
223
330
30
100
AcDbEntity
  8
1
100
AcDbLine
 10
59.179602962811
 20
-0.12451095244
 30
0.0
 11
59.114602962811
 21
-0.16305121442
 31
0.0
  0
LINE
  5
224
330
30
100
AcDbEntity
  8
1
100
AcDbLine
 10
59.114602962811
 20
-0.16305121442
 30
0.0
 11
59.049602962811
 21
-0.196946017943
 31
0.0
  0
LINE
  5
225
330
30
100
AcDbEntity
  8
1
100
AcDbLine
 10
59.049602962811
 20
-0.196946017943
 30
0.0
 11
58.984602962811
 21
-0.230664729492
 31
0.0
  0
LINE
  5
226
330
30
100
AcDbEntity
  8
1
100
AcDbLine
 10
58.984602962811
 20
-0.230664729492
 30
0.0
 11
58.919602962811
 21
-0.264257104284
 31
0.0
  0
LINE
  5
227
330
30
100
AcDbEntity
  8
1
100
AcDbLine
 10
58.919602962811
 20
-0.264257104284
 30
0.0
 11
58.854602962811
 21
-0.29775566173
 31
0.0
  0
LINE
  5
228
330
30
100
AcDbEntity
  8
1
100
AcDbLine
 10
58.854602962811
 20
-0.29775566173
 30
0.0
 11
58.789602962811
 21
-0.331182588652
 31
0.0
  0
LINE
  5
229
330
30
100
AcDbEntity
  8
1
100
AcDbLine
 10
58.789602962811
 20
-0.331182588652
 30
0.0
 11
58.724602962811
 21
-0.364553557801
 31
0.0
  0
LINE
  5
22A
330
30
100
AcDbEntity
  8
1
100
AcDbLine
 10
58.724602962811
 20
-0.364553557801
 30
0.0
 11
58.659602962811
 21
-0.397879963647
 31
0.0
  0
LINE
  5
22B
330
30
100
AcDbEntity
  8
1
100
AcDbLine
 10
58.659602962811
 20
-0.397879963647
 30
0.0
 11
58.594602962811
 21
-0.431170293608
 31
0.0
  0
LINE
  5
22C
330
30
100
AcDbEntity
  8
1
100
AcDbLine
 10
58.594602962811
 20
-0.431170293608
 30
0.0
 11
58.529602962811
 21
-0.464431002197
 31
0.0
  0
LINE
  5
22D
330
30
100
AcDbEntity
  8
1
100
AcDbLine
 10
58.529602962811
 20
-0.464431002197
 30
0.0
 11
58.464602962811
 21
-0.497667086845
 31
0.0
  0
LINE
  5
22E
330
30
100
AcDbEntity
  8
1
100
AcDbLine
 10
58.464602962811
 20
-0.497667086845
 30
0.0
 11
58.399602962811
 21
-0.530882478046
 31
0.0
  0
LINE
  5
22F
330
30
100
AcDbEntity
  8
1
100
AcDbLine
 10
58.399602962811
 20
-0.530882478046
 30
0.0
 11
58.334602962811
 21
-0.564080310265
 31
0.0
  0
LINE
  5
230
330
30
100
AcDbEntity
  8
1
100
AcDbLine
 10
58.334602962811
 20
-0.564080310265
 30
0.0
 11
58.269602962811
 21
-0.59726311413
 31
0.0
  0
LINE
  5
231
330
30
100
AcDbEntity
  8
1
100
AcDbLine
 10
58.269602962811
 20
-0.59726311413
 30
0.0
 11
58.204602962811
 21
-0.630432955415
 31
0.0
  0
LINE
  5
232
330
30
100
AcDbEntity
  8
1
100
AcDbLine
 10
58.204602962811
 20
-0.630432955415
 30
0.0
 11
58.139602962811
 21
-0.663591537255
 31
0.0
  0
LINE
  5
233
330
30
100
AcDbEntity
  8
1
100
AcDbLine
 10
58.139602962811
 20
-0.663591537255
 30
0.0
 11
58.074602962811
 21
-0.696740276502
 31
0.0
  0
LINE
  5
234
330
30
100
AcDbEntity
  8
1
100
AcDbLine
 10
58.074602962811
 20
-0.696740276502
 30
0.0
 11
58.009602962811
 21
-0.729880361525
 31
0.0
  0
LINE
  5
235
330
30
100
AcDbEntity
  8
1
100
AcDbLine
 10
58.009602962811
 20
-0.729880361525
 30
0.0
 11
57.944602962811
 21
-0.759012490683
 31
0.0
  0
LINE
  5
236
330
30
100
AcDbEntity
  8
1
100
AcDbLine
 10
57.944602962811
 20
-0.759012490683
 30
0.0
 11
57.879602962811
 21
-0.764435612623
 31
0.0
  0
LINE
  5
237
330
30
100
AcDbEntity
  8
1
100
AcDbLine
 10
57.879602962811
 20
-0.764435612623
 30
0.0
 11
57.814602962811
 21
-0.769858553636
 31
0.0
  0
LINE
  5
238
330
30
100
AcDbEntity
  8
1
100
AcDbLine
 10
57.814602962811
 20
-0.769858553636
 30
0.0
 11
57.749602962811
 21
-0.775281317106
 31
0.0
  0
LINE
  5
239
330
30
100
AcDbEntity
  8
1
100
AcDbLine
 10
57.749602962811
 20
-0.775281317106
 30
0.0
 11
57.684602962811
 21
-0.780703906338
 31
0.0
  0
LINE
  5
23A
330
30
100
AcDbEntity
  8
1
100
AcDbLine
 10
57.684602962811
 20
-0.780703906338
 30
0.0
 11
57.619602962811
 21
-0.786126324553
 31
0.0
  0
LINE
  5
23B
330
30
100
AcDbEntity
  8
1
100
AcDbLine
 10
57.619602962811
 20
-0.786126324553
 30
0.0
 11
57.554602962811
 21
-0.791548574893
 31
0.0
  0
LINE
  5
23C
330
30
100
AcDbEntity
  8
1
100
AcDbLine
 10
57.554602962811
 20
-0.791548574893
 30
0.0
 11
57.489602962811
 21
-0.796970660424
 31
0.0
  0
LINE
  5
23D
330
30
100
AcDbEntity
  8
1
100
AcDbLine
 10
57.489602962811
 20
-0.796970660424
 30
0.0
 11
57.424602962811
 21
-0.802392584136
 31
0.0
  0
LINE
  5
23E
330
30
100
AcDbEntity
  8
1
100
AcDbLine
 10
57.424602962811
 20
-0.802392584136
 30
0.0
 11
57.359602962811
 21
-0.807814348951
 31
0.0
  0
LINE
  5
23F
330
30
100
AcDbEntity
  8
1
100
AcDbLine
 10
57.359602962811
 20
-0.807814348951
 30
0.0
 11
57.294602962811
 21
-0.813235957716
 31
0.0
  0
LINE
  5
240
330
30
100
AcDbEntity
  8
1
100
AcDbLine
 10
57.294602962811
 20
-0.813235957716
 30
0.0
 11
57.229602962811
 21
-0.818657413214
 31
0.0
  0
LINE
  5
241
330
30
100
AcDbEntity
  8
1
100
AcDbLine
 10
57.229602962811
 20
-0.818657413214
 30
0.0
 11
57.164602962811
 21
-0.824078718161
 31
0.0
  0
LINE
  5
242
330
30
100
AcDbEntity
  8
1
100
AcDbLine
 10
57.164602962811
 20
-0.824078718161
 30
0.0
 11
57.099602962811
 21
-0.829499875208
 31
0.0
  0
LINE
  5
243
330
30
100
AcDbEntity
  8
1
100
AcDbLine
 10
57.099602962811
 20
-0.829499875208
 30
0.0
 11
57.034602962811
 21
-0.834920886946
 31
0.0
  0
LINE
  5
244
330
30
100
AcDbEntity
  8
1
100
AcDbLine
 10
57.034602962811
 20
-0.834920886946
 30
0.0
 11
56.969602962811
 21
-0.840341755905
 31
0.0
  0
LINE
  5
245
330
30
100
AcDbEntity
  8
1
100
AcDbLine
 10
56.969602962811
 20
-0.840341755905
 30
0.0
 11
56.904602962811
 21
-0.845762484556
 31
0.0
  0
LINE
  5
246
330
30
100
AcDbEntity
  8
1
100
AcDbLine
 10
56.904602962811
 20
-0.845762484556
 30
0.0
 11
56.839602962811
 21
-0.851183075313
 31
0.0
  0
LINE
  5
247
330
30
100
AcDbEntity
  8
1
100
AcDbLine
 10
56.839602962811
 20
-0.851183075313
 30
0.0
 11
56.774602962811
 21
-0.856603530536
 31
0.0
  0
LINE
  5
248
330
30
100
AcDbEntity
  8
1
100
AcDbLine
 10
56.774602962811
 20
-0.856603530536
 30
0.0
 11
56.709602962811
 21
-0.862023852531
 31
0.0
  0
LINE
  5
249
330
30
100
AcDbEntity
  8
1
100
AcDbLine
 10
56.709602962811
 20
-0.862023852531
 30
0.0
 11
56.644602962811
 21
-0.867444043552
 31
0.0
  0
LINE
  5
24A
330
30
100
AcDbEntity
  8
1
100
AcDbLine
 10
56.644602962811
 20
-0.867444043552
 30
0.0
 11
56.579602962811
 21
-0.872864105802
 31
0.0
  0
LINE
  5
24B
330
30
100
AcDbEntity
  8
1
100
AcDbLine
 10
56.579602962811
 20
-0.872864105802
 30
0.0
 11
56.514602962811
 21
-0.875
 31
0.0
  0
LINE
  5
24C
330
30
100
AcDbEntity
  8
1
100
AcDbLine
 10
56.514602962811
 20
-0.875
 30
0.0
 11
56.449602962811
 21
-0.875
 31
0.0
  0
LINE
  5
24D
330
30
100
AcDbEntity
  8
1
100
AcDbLine
 10
56.449602962811
 20
-0.875
 30
0.0
 11
56.384602962811
 21
-0.875
 31
0.0
  0
LINE
  5
24E
330
30
100
AcDbEntity
  8
1
100
AcDbLine
 10
56.384602962811
 20
-0.875
 30
0.0
 11
56.319602962811
 21
-0.875
 31
0.0
  0
LINE
  5
24F
330
30
100
AcDbEntity
  8
1
100
AcDbLine
 10
56.319602962811
 20
-0.875
 30
0.0
 11
56.254602962811
 21
-0.875
 31
0.0
  0
LINE
  5
250
330
30
100
AcDbEntity
  8
1
100
AcDbLine
 10
56.254602962811
 20
-0.875
 30
0.0
 11
56.189602962811
 21
-0.875
 31
0.0
  0
LINE
  5
251
330
30
100
AcDbEntity
  8
1
100
AcDbLine
 10
56.189602962811
 20
-0.875
 30
0.0
 11
56.124602962811
 21
-0.875
 31
0.0
  0
LINE
  5
252
330
30
100
AcDbEntity
  8
1
100
AcDbLine
 10
56.124602962811
 20
-0.875
 30
0.0
 11
56.059602962811
 21
-0.875
 31
0.0
  0
LINE
  5
253
330
30
100
AcDbEntity
  8
1
100
AcDbLine
 10
56.059602962811
 20
-0.875
 30
0.0
 11
55.994602962811
 21
-0.875
 31
0.0
  0
LINE
  5
254
330
30
100
AcDbEntity
  8
1
100
AcDbLine
 10
55.994602962811
 20
-0.875
 30
0.0
 11
55.929602962811
 21
-0.875
 31
0.0
  0
LINE
  5
255
330
30
100
AcDbEntity
  8
1
100
AcDbLine
 10
55.929602962811
 20
-0.875
 30
0.0
 11
55.864602962811
 21
-0.875
 31
0.0
  0
LINE
  5
256
330
30
100
AcDbEntity
  8
1
100
AcDbLine
 10
55.864602962811
 20
-0.875
 30
0.0
 11
55.799602962811
 21
-0.875
 31
0.0
  0
LINE
  5
257
330
30
100
AcDbEntity
  8
1
100
AcDbLine
 10
55.799602962811
 20
-0.875
 30
0.0
 11
55.734602962811
 21
-0.875
 31
0.0
  0
LINE
  5
258
330
30
100
AcDbEntity
  8
1
100
AcDbLine
 10
55.734602962811
 20
-0.875
 30
0.0
 11
55.669602962811
 21
-0.875
 31
0.0
  0
LINE
  5
259
330
30
100
AcDbEntity
  8
1
100
AcDbLine
 10
55.669602962811
 20
-0.875
 30
0.0
 11
55.604602962811
 21
-0.875
 31
0.0
  0
LINE
  5
25A
330
30
100
AcDbEntity
  8
1
100
AcDbLine
 10
55.604602962811
 20
-0.875
 30
0.0
 11
55.539602962811
 21
-0.875
 31
0.0
  0
LINE
  5
25B
330
30
100
AcDbEntity
  8
1
100
AcDbLine
 10
55.539602962811
 20
-0.875
 30
0.0
 11
55.474602962811
 21
-0.875
 31
0.0
  0
LINE
  5
25C
330
30
100
AcDbEntity
  8
1
100
AcDbLine
 10
55.474602962811
 20
-0.875
 30
0.0
 11
55.409602962811
 21
-0.875
 31
0.0
  0
LINE
  5
25D
330
30
100
AcDbEntity
  8
1
100
AcDbLine
 10
55.409602962811
 20
-0.875
 30
0.0
 11
55.344602962811
 21
-0.875
 31
0.0
  0
LINE
  5
25E
330
30
100
AcDbEntity
  8
1
100
AcDbLine
 10
55.344602962811
 20
-0.875
 30
0.0
 11
55.279602962811
 21
-0.875
 31
0.0
  0
LINE
  5
25F
330
30
100
AcDbEntity
  8
1
100
AcDbLine
 10
55.279602962811
 20
-0.875
 30
0.0
 11
55.214602962811
 21
-0.875
 31
0.0
  0
LINE
  5
260
330
30
100
AcDbEntity
  8
1
100
AcDbLine
 10
55.214602962811
 20
-0.875
 30
0.0
 11
55.149602962811
 21
-0.875
 31
0.0
  0
LINE
  5
261
330
30
100
AcDbEntity
  8
1
100
AcDbLine
 10
55.149602962811
 20
-0.875
 30
0.0
 11
55.084602962811
 21
-0.875
 31
0.0
  0
LINE
  5
262
330
30
100
AcDbEntity
  8
1
100
AcDbLine
 10
55.084602962811
 20
-0.875
 30
0.0
 11
55.019602962811
 21
-0.875
 31
0.0
  0
LINE
  5
263
330
30
100
AcDbEntity
  8
1
100
AcDbLine
 10
55.019602962811
 20
-0.875
 30
0.0
 11
54.954602962811
 21
-0.875
 31
0.0
  0
LINE
  5
264
330
30
100
AcDbEntity
  8
1
100
AcDbLine
 10
54.954602962811
 20
-0.875
 30
0.0
 11
54.889602962811
 21
-0.875
 31
0.0
  0
LINE
  5
265
330
30
100
AcDbEntity
  8
1
100
AcDbLine
 10
54.889602962811
 20
-0.875
 30
0.0
 11
54.824602962811
 21
-0.875
 31
0.0
  0
LINE
  5
266
330
30
100
AcDbEntity
  8
1
100
AcDbLine
 10
54.824602962811
 20
-0.875
 30
0.0
 11
54.759602962811
 21
-0.875
 31
0.0
  0
LINE
  5
267
330
30
100
AcDbEntity
  8
1
100
AcDbLine
 10
54.759602962811
 20
-0.875
 30
0.0
 11
54.694602962811
 21
-0.875
 31
0.0
  0
LINE
  5
268
330
30
100
AcDbEntity
  8
1
100
AcDbLine
 10
54.694602962811
 20
-0.875
 30
0.0
 11
54.629602962811
 21
-0.875
 31
0.0
  0
LINE
  5
269
330
30
100
AcDbEntity
  8
1
100
AcDbLine
 10
54.629602962811
 20
-0.875
 30
0.0
 11
54.564602962811
 21
-0.875
 31
0.0
  0
LINE
  5
26A
330
30
100
AcDbEntity
  8
1
100
AcDbLine
 10
54.564602962811
 20
-0.875
 30
0.0
 11
54.499602962811
 21
-0.875
 31
0.0
  0
LINE
  5
26B
330
30
100
AcDbEntity
  8
1
100
AcDbLine
 10
54.499602962811
 20
-0.875
 30
0.0
 11
54.434602962811
 21
-0.875
 31
0.0
  0
LINE
  5
26C
330
30
100
AcDbEntity
  8
1
100
AcDbLine
 10
54.434602962811
 20
-0.875
 30
0.0
 11
54.369602962811
 21
-0.875
 31
0.0
  0
LINE
  5
26D
330
30
100
AcDbEntity
  8
1
100
AcDbLine
 10
54.369602962811
 20
-0.875
 30
0.0
 11
54.304602962811
 21
-0.875
 31
0.0
  0
LINE
  5
26E
330
30
100
AcDbEntity
  8
1
100
AcDbLine
 10
54.304602962811
 20
-0.875
 30
0.0
 11
54.239602962811
 21
-0.875
 31
0.0
  0
LINE
  5
26F
330
30
100
AcDbEntity
  8
1
100
AcDbLine
 10
54.239602962811
 20
-0.875
 30
0.0
 11
54.174602962811
 21
-0.875
 31
0.0
  0
LINE
  5
270
330
30
100
AcDbEntity
  8
1
100
AcDbLine
 10
54.174602962811
 20
-0.875
 30
0.0
 11
54.109602962811
 21
-0.875
 31
0.0
  0
LINE
  5
271
330
30
100
AcDbEntity
  8
1
100
AcDbLine
 10
54.109602962811
 20
-0.875
 30
0.0
 11
54.044602962811
 21
-0.875
 31
0.0
  0
LINE
  5
272
330
30
100
AcDbEntity
  8
1
100
AcDbLine
 10
54.044602962811
 20
-0.875
 30
0.0
 11
53.979602962811
 21
-0.875
 31
0.0
  0
LINE
  5
273
330
30
100
AcDbEntity
  8
1
100
AcDbLine
 10
53.979602962811
 20
-0.875
 30
0.0
 11
53.914602962811
 21
-0.875
 31
0.0
  0
LINE
  5
274
330
30
100
AcDbEntity
  8
1
100
AcDbLine
 10
53.914602962811
 20
-0.875
 30
0.0
 11
53.849602962811
 21
-0.875
 31
0.0
  0
LINE
  5
275
330
30
100
AcDbEntity
  8
1
100
AcDbLine
 10
53.849602962811
 20
-0.875
 30
0.0
 11
53.784602962811
 21
-0.875
 31
0.0
  0
LINE
  5
276
330
30
100
AcDbEntity
  8
1
100
AcDbLine
 10
53.784602962811
 20
-0.875
 30
0.0
 11
53.719602962811
 21
-0.875
 31
0.0
  0
LINE
  5
277
330
30
100
AcDbEntity
  8
1
100
AcDbLine
 10
53.719602962811
 20
-0.875
 30
0.0
 11
53.654602962811
 21
-0.875
 31
0.0
  0
LINE
  5
278
330
30
100
AcDbEntity
  8
1
100
AcDbLine
 10
53.654602962811
 20
-0.875
 30
0.0
 11
53.589602962811
 21
-0.875
 31
0.0
  0
LINE
  5
279
330
30
100
AcDbEntity
  8
1
100
AcDbLine
 10
53.589602962811
 20
-0.875
 30
0.0
 11
53.524602962811
 21
-0.875
 31
0.0
  0
LINE
  5
27A
330
30
100
AcDbEntity
  8
1
100
AcDbLine
 10
53.524602962811
 20
-0.875
 30
0.0
 11
53.459602962811
 21
-0.875
 31
0.0
  0
LINE
  5
27B
330
30
100
AcDbEntity
  8
1
100
AcDbLine
 10
53.459602962811
 20
-0.875
 30
0.0
 11
53.394602962811
 21
-0.875
 31
0.0
  0
LINE
  5
27C
330
30
100
AcDbEntity
  8
1
100
AcDbLine
 10
53.394602962811
 20
-0.875
 30
0.0
 11
53.329602962811
 21
-0.875
 31
0.0
  0
LINE
  5
27D
330
30
100
AcDbEntity
  8
1
100
AcDbLine
 10
53.329602962811
 20
-0.875
 30
0.0
 11
53.264602962811
 21
-0.875
 31
0.0
  0
LINE
  5
27E
330
30
100
AcDbEntity
  8
1
100
AcDbLine
 10
53.264602962811
 20
-0.875
 30
0.0
 11
53.199602962811
 21
-0.875
 31
0.0
  0
LINE
  5
27F
330
30
100
AcDbEntity
  8
1
100
AcDbLine
 10
53.199602962811
 20
-0.875
 30
0.0
 11
53.134602962811
 21
-0.875
 31
0.0
  0
LINE
  5
280
330
30
100
AcDbEntity
  8
1
100
AcDbLine
 10
53.134602962811
 20
-0.875
 30
0.0
 11
53.069602962811
 21
-0.875
 31
0.0
  0
LINE
  5
281
330
30
100
AcDbEntity
  8
1
100
AcDbLine
 10
53.069602962811
 20
-0.875
 30
0.0
 11
53.004602962811
 21
-0.875
 31
0.0
  0
LINE
  5
282
330
30
100
AcDbEntity
  8
1
100
AcDbLine
 10
53.004602962811
 20
-0.875
 30
0.0
 11
52.939602962811
 21
-0.875
 31
0.0
  0
LINE
  5
283
330
30
100
AcDbEntity
  8
1
100
AcDbLine
 10
52.939602962811
 20
-0.875
 30
0.0
 11
52.874602962811
 21
-0.875
 31
0.0
  0
LINE
  5
284
330
30
100
AcDbEntity
  8
1
100
AcDbLine
 10
52.874602962811
 20
-0.875
 30
0.0
 11
52.809602962811
 21
-0.875
 31
0.0
  0
LINE
  5
285
330
30
100
AcDbEntity
  8
1
100
AcDbLine
 10
52.809602962811
 20
-0.875
 30
0.0
 11
52.744602962811
 21
-0.875
 31
0.0
  0
LINE
  5
286
330
30
100
AcDbEntity
  8
1
100
AcDbLine
 10
52.744602962811
 20
-0.875
 30
0.0
 11
52.679602962811
 21
-0.875
 31
0.0
  0
LINE
  5
287
330
30
100
AcDbEntity
  8
1
100
AcDbLine
 10
52.679602962811
 20
-0.875
 30
0.0
 11
52.614602962811
 21
-0.875
 31
0.0
  0
LINE
  5
288
330
30
100
AcDbEntity
  8
1
100
AcDbLine
 10
52.614602962811
 20
-0.875
 30
0.0
 11
52.549602962811
 21
-0.875
 31
0.0
  0
LINE
  5
289
330
30
100
AcDbEntity
  8
1
100
AcDbLine
 10
52.549602962811
 20
-0.875
 30
0.0
 11
52.484602962811
 21
-0.875
 31
0.0
  0
LINE
  5
28A
330
30
100
AcDbEntity
  8
1
100
AcDbLine
 10
52.484602962811
 20
-0.875
 30
0.0
 11
52.419602962811
 21
-0.875
 31
0.0
  0
LINE
  5
28B
330
30
100
AcDbEntity
  8
1
100
AcDbLine
 10
52.419602962811
 20
-0.875
 30
0.0
 11
52.354602962811
 21
-0.875
 31
0.0
  0
LINE
  5
28C
330
30
100
AcDbEntity
  8
1
100
AcDbLine
 10
52.354602962811
 20
-0.875
 30
0.0
 11
52.289602962811
 21
-0.875
 31
0.0
  0
LINE
  5
28D
330
30
100
AcDbEntity
  8
1
100
AcDbLine
 10
52.289602962811
 20
-0.875
 30
0.0
 11
52.224602962811
 21
-0.875
 31
0.0
  0
LINE
  5
28E
330
30
100
AcDbEntity
  8
1
100
AcDbLine
 10
52.224602962811
 20
-0.875
 30
0.0
 11
52.159602962811
 21
-0.875
 31
0.0
  0
LINE
  5
28F
330
30
100
AcDbEntity
  8
1
100
AcDbLine
 10
52.159602962811
 20
-0.875
 30
0.0
 11
52.094602962811
 21
-0.875
 31
0.0
  0
LINE
  5
290
330
30
100
AcDbEntity
  8
1
100
AcDbLine
 10
52.094602962811
 20
-0.875
 30
0.0
 11
52.029602962811
 21
-0.875
 31
0.0
  0
LINE
  5
291
330
30
100
AcDbEntity
  8
1
100
AcDbLine
 10
52.029602962811
 20
-0.875
 30
0.0
 11
51.964602962811
 21
-0.875
 31
0.0
  0
LINE
  5
292
330
30
100
AcDbEntity
  8
1
100
AcDbLine
 10
51.964602962811
 20
-0.875
 30
0.0
 11
51.899602962811
 21
-0.875
 31
0.0
  0
LINE
  5
293
330
30
100
AcDbEntity
  8
1
100
AcDbLine
 10
51.899602962811
 20
-0.875
 30
0.0
 11
51.834602962811
 21
-0.875
 31
0.0
  0
LINE
  5
294
330
30
100
AcDbEntity
  8
1
100
AcDbLine
 10
51.834602962811
 20
-0.875
 30
0.0
 11
51.769602962811
 21
-0.875
 31
0.0
  0
LINE
  5
295
330
30
100
AcDbEntity
  8
1
100
AcDbLine
 10
51.769602962811
 20
-0.875
 30
0.0
 11
51.704602962811
 21
-0.875
 31
0.0
  0
LINE
  5
296
330
30
100
AcDbEntity
  8
1
100
AcDbLine
 10
51.704602962811
 20
-0.875
 30
0.0
 11
51.639602962811
 21
-0.875
 31
0.0
  0
LINE
  5
297
330
30
100
AcDbEntity
  8
1
100
AcDbLine
 10
51.639602962811
 20
-0.875
 30
0.0
 11
51.574602962811
 21
-0.875
 31
0.0
  0
LINE
  5
298
330
30
100
AcDbEntity
  8
1
100
AcDbLine
 10
51.574602962811
 20
-0.875
 30
0.0
 11
51.509602962811
 21
-0.875
 31
0.0
  0
LINE
  5
299
330
30
100
AcDbEntity
  8
1
100
AcDbLine
 10
51.509602962811
 20
-0.875
 30
0.0
 11
51.444602962811
 21
-0.875
 31
0.0
  0
LINE
  5
29A
330
30
100
AcDbEntity
  8
1
100
AcDbLine
 10
51.444602962811
 20
-0.875
 30
0.0
 11
51.379602962811
 21
-0.875
 31
0.0
  0
LINE
  5
29B
330
30
100
AcDbEntity
  8
1
100
AcDbLine
 10
51.379602962811
 20
-0.875
 30
0.0
 11
51.314602962811
 21
-0.875
 31
0.0
  0
LINE
  5
29C
330
30
100
AcDbEntity
  8
1
100
AcDbLine
 10
51.314602962811
 20
-0.875
 30
0.0
 11
51.249602962811
 21
-0.875
 31
0.0
  0
LINE
  5
29D
330
30
100
AcDbEntity
  8
1
100
AcDbLine
 10
51.249602962811
 20
-0.875
 30
0.0
 11
51.184602962811
 21
-0.875
 31
0.0
  0
LINE
  5
29E
330
30
100
AcDbEntity
  8
1
100
AcDbLine
 10
51.184602962811
 20
-0.875
 30
0.0
 11
51.119602962811
 21
-0.875
 31
0.0
  0
LINE
  5
29F
330
30
100
AcDbEntity
  8
1
100
AcDbLine
 10
51.119602962811
 20
-0.875
 30
0.0
 11
51.054602962811
 21
-0.875
 31
0.0
  0
LINE
  5
2A0
330
30
100
AcDbEntity
  8
1
100
AcDbLine
 10
51.054602962811
 20
-0.875
 30
0.0
 11
50.989602962811
 21
-0.875
 31
0.0
  0
LINE
  5
2A1
330
30
100
AcDbEntity
  8
1
100
AcDbLine
 10
50.989602962811
 20
-0.875
 30
0.0
 11
50.924602962811
 21
-0.875
 31
0.0
  0
LINE
  5
2A2
330
30
100
AcDbEntity
  8
1
100
AcDbLine
 10
50.924602962811
 20
-0.875
 30
0.0
 11
50.859602962811
 21
-0.875
 31
0.0
  0
LINE
  5
2A3
330
30
100
AcDbEntity
  8
1
100
AcDbLine
 10
50.859602962811
 20
-0.875
 30
0.0
 11
50.794602962811
 21
-0.875
 31
0.0
  0
LINE
  5
2A4
330
30
100
AcDbEntity
  8
1
100
AcDbLine
 10
50.794602962811
 20
-0.875
 30
0.0
 11
50.729602962811
 21
-0.867173665449
 31
0.0
  0
LINE
  5
2A5
330
30
100
AcDbEntity
  8
1
100
AcDbLine
 10
50.729602962811
 20
-0.867173665449
 30
0.0
 11
50.664602962811
 21
-0.846310589145
 31
0.0
  0
LINE
  5
2A6
330
30
100
AcDbEntity
  8
1
100
AcDbLine
 10
50.664602962811
 20
-0.846310589145
 30
0.0
 11
50.599602962811
 21
-0.825445472609
 31
0.0
  0
LINE
  5
2A7
330
30
100
AcDbEntity
  8
1
100
AcDbLine
 10
50.599602962811
 20
-0.825445472609
 30
0.0
 11
50.534602962811
 21
-0.804578173682
 31
0.0
  0
LINE
  5
2A8
330
30
100
AcDbEntity
  8
1
100
AcDbLine
 10
50.534602962811
 20
-0.804578173682
 30
0.0
 11
50.469602962811
 21
-0.783708536665
 31
0.0
  0
LINE
  5
2A9
330
30
100
AcDbEntity
  8
1
100
AcDbLine
 10
50.469602962811
 20
-0.783708536665
 30
0.0
 11
50.404602962811
 21
-0.762836390672
 31
0.0
  0
LINE
  5
2AA
330
30
100
AcDbEntity
  8
1
100
AcDbLine
 10
50.404602962811
 20
-0.762836390672
 30
0.0
 11
50.339602962811
 21
-0.741961547719
 31
0.0
  0
LINE
  5
2AB
330
30
100
AcDbEntity
  8
1
100
AcDbLine
 10
50.339602962811
 20
-0.741961547719
 30
0.0
 11
50.274602962811
 21
-0.721083800538
 31
0.0
  0
LINE
  5
2AC
330
30
100
AcDbEntity
  8
1
100
AcDbLine
 10
50.274602962811
 20
-0.721083800538
 30
0.0
 11
50.209602962811
 21
-0.700202920028
 31
0.0
  0
LINE
  5
2AD
330
30
100
AcDbEntity
  8
1
100
AcDbLine
 10
50.209602962811
 20
-0.700202920028
 30
0.0
 11
50.144602962811
 21
-0.6793186523
 31
0.0
  0
LINE
  5
2AE
330
30
100
AcDbEntity
  8
1
100
AcDbLine
 10
50.144602962811
 20
-0.6793186523
 30
0.0
 11
50.079602962811
 21
-0.658430715226
 31
0.0
  0
LINE
  5
2AF
330
30
100
AcDbEntity
  8
1
100
AcDbLine
 10
50.079602962811
 20
-0.658430715226
 30
0.0
 11
50.014602962811
 21
-0.652505731035
 31
0.0
  0
LINE
  5
2B0
330
30
100
AcDbEntity
  8
1
100
AcDbLine
 10
50.014602962811
 20
-0.652505731035
 30
0.0
 11
49.949602962811
 21
-0.652505731035
 31
0.0
  0
LINE
  5
2B1
330
30
100
AcDbEntity
  8
1
100
AcDbLine
 10
49.949602962811
 20
-0.652505731035
 30
0.0
 11
49.884602962811
 21
-0.652505731035
 31
0.0
  0
LINE
  5
2B2
330
30
100
AcDbEntity
  8
1
100
AcDbLine
 10
49.884602962811
 20
-0.652505731035
 30
0.0
 11
49.819602962811
 21
-0.652505731035
 31
0.0
  0
LINE
  5
2B3
330
30
100
AcDbEntity
  8
1
100
AcDbLine
 10
49.819602962811
 20
-0.652505731035
 30
0.0
 11
49.754602962811
 21
-0.652505731035
 31
0.0
  0
LINE
  5
2B4
330
30
100
AcDbEntity
  8
1
100
AcDbLine
 10
49.754602962811
 20
-0.652505731035
 30
0.0
 11
49.689602962811
 21
-0.652505731035
 31
0.0
  0
LINE
  5
2B5
330
30
100
AcDbEntity
  8
1
100
AcDbLine
 10
49.689602962811
 20
-0.652505731035
 30
0.0
 11
49.624602962811
 21
-0.652505731035
 31
0.0
  0
LINE
  5
2B6
330
30
100
AcDbEntity
  8
1
100
AcDbLine
 10
49.624602962811
 20
-0.652505731035
 30
0.0
 11
49.559602962811
 21
-0.652505731035
 31
0.0
  0
LINE
  5
2B7
330
30
100
AcDbEntity
  8
1
100
AcDbLine
 10
49.559602962811
 20
-0.652505731035
 30
0.0
 11
49.494602962811
 21
-0.652505731035
 31
0.0
  0
LINE
  5
2B8
330
30
100
AcDbEntity
  8
1
100
AcDbLine
 10
49.494602962811
 20
-0.652505731035
 30
0.0
 11
49.429602962811
 21
-0.652505731035
 31
0.0
  0
LINE
  5
2B9
330
30
100
AcDbEntity
  8
1
100
AcDbLine
 10
49.429602962811
 20
-0.652505731035
 30
0.0
 11
49.364602962811
 21
-0.652505731035
 31
0.0
  0
LINE
  5
2BA
330
30
100
AcDbEntity
  8
1
100
AcDbLine
 10
49.364602962811
 20
-0.652505731035
 30
0.0
 11
49.299602962811
 21
-0.652505731035
 31
0.0
  0
LINE
  5
2BB
330
30
100
AcDbEntity
  8
1
100
AcDbLine
 10
49.299602962811
 20
-0.652505731035
 30
0.0
 11
49.234602962811
 21
-0.652505731035
 31
0.0
  0
LINE
  5
2BC
330
30
100
AcDbEntity
  8
1
100
AcDbLine
 10
49.234602962811
 20
-0.652505731035
 30
0.0
 11
49.169602962811
 21
-0.652505731035
 31
0.0
  0
LINE
  5
2BD
330
30
100
AcDbEntity
  8
1
100
AcDbLine
 10
49.169602962811
 20
-0.652505731035
 30
0.0
 11
49.104602962811
 21
-0.652505731035
 31
0.0
  0
LINE
  5
2BE
330
30
100
AcDbEntity
  8
1
100
AcDbLine
 10
49.104602962811
 20
-0.652505731035
 30
0.0
 11
49.039602962811
 21
-0.652505731035
 31
0.0
  0
LINE
  5
2BF
330
30
100
AcDbEntity
  8
1
100
AcDbLine
 10
49.039602962811
 20
-0.652505731035
 30
0.0
 11
48.974602962811
 21
-0.652505731035
 31
0.0
  0
LINE
  5
2C0
330
30
100
AcDbEntity
  8
1
100
AcDbLine
 10
48.974602962811
 20
-0.652505731035
 30
0.0
 11
48.909602962811
 21
-0.652505731035
 31
0.0
  0
LINE
  5
2C1
330
30
100
AcDbEntity
  8
1
100
AcDbLine
 10
48.909602962811
 20
-0.652505731035
 30
0.0
 11
48.844602962811
 21
-0.652505731035
 31
0.0
  0
LINE
  5
2C2
330
30
100
AcDbEntity
  8
1
100
AcDbLine
 10
48.844602962811
 20
-0.652505731035
 30
0.0
 11
48.779602962811
 21
-0.652505731035
 31
0.0
  0
LINE
  5
2C3
330
30
100
AcDbEntity
  8
1
100
AcDbLine
 10
48.779602962811
 20
-0.652505731035
 30
0.0
 11
48.714602962811
 21
-0.652505731035
 31
0.0
  0
LINE
  5
2C4
330
30
100
AcDbEntity
  8
1
100
AcDbLine
 10
48.714602962811
 20
-0.652505731035
 30
0.0
 11
48.649602962811
 21
-0.652505731035
 31
0.0
  0
LINE
  5
2C5
330
30
100
AcDbEntity
  8
1
100
AcDbLine
 10
48.649602962811
 20
-0.652505731035
 30
0.0
 11
48.584602962811
 21
-0.652505731035
 31
0.0
  0
LINE
  5
2C6
330
30
100
AcDbEntity
  8
1
100
AcDbLine
 10
48.584602962811
 20
-0.652505731035
 30
0.0
 11
48.519602962811
 21
-0.652505731035
 31
0.0
  0
LINE
  5
2C7
330
30
100
AcDbEntity
  8
1
100
AcDbLine
 10
48.519602962811
 20
-0.652505731035
 30
0.0
 11
48.454602962811
 21
-0.652505731035
 31
0.0
  0
LINE
  5
2C8
330
30
100
AcDbEntity
  8
1
100
AcDbLine
 10
48.454602962811
 20
-0.652505731035
 30
0.0
 11
48.389602962811
 21
-0.652505731035
 31
0.0
  0
LINE
  5
2C9
330
30
100
AcDbEntity
  8
1
100
AcDbLine
 10
48.389602962811
 20
-0.652505731035
 30
0.0
 11
48.324602962811
 21
-0.652505731035
 31
0.0
  0
LINE
  5
2CA
330
30
100
AcDbEntity
  8
1
100
AcDbLine
 10
48.324602962811
 20
-0.652505731035
 30
0.0
 11
48.259602962811
 21
-0.652505731035
 31
0.0
  0
LINE
  5
2CB
330
30
100
AcDbEntity
  8
1
100
AcDbLine
 10
48.259602962811
 20
-0.652505731035
 30
0.0
 11
48.194602962811
 21
-0.652505731035
 31
0.0
  0
LINE
  5
2CC
330
30
100
AcDbEntity
  8
1
100
AcDbLine
 10
48.194602962811
 20
-0.652505731035
 30
0.0
 11
48.129602962811
 21
-0.652505731035
 31
0.0
  0
LINE
  5
2CD
330
30
100
AcDbEntity
  8
1
100
AcDbLine
 10
48.129602962811
 20
-0.652505731035
 30
0.0
 11
48.064602962811
 21
-0.652505731035
 31
0.0
  0
LINE
  5
2CE
330
30
100
AcDbEntity
  8
1
100
AcDbLine
 10
48.064602962811
 20
-0.652505731035
 30
0.0
 11
47.999602962811
 21
-0.652505731035
 31
0.0
  0
LINE
  5
2CF
330
30
100
AcDbEntity
  8
1
100
AcDbLine
 10
47.999602962811
 20
-0.652505731035
 30
0.0
 11
47.934602962811
 21
-0.652505731035
 31
0.0
  0
LINE
  5
2D0
330
30
100
AcDbEntity
  8
1
100
AcDbLine
 10
47.934602962811
 20
-0.652505731035
 30
0.0
 11
47.869602962811
 21
-0.652505731035
 31
0.0
  0
LINE
  5
2D1
330
30
100
AcDbEntity
  8
1
100
AcDbLine
 10
47.869602962811
 20
-0.652505731035
 30
0.0
 11
47.804602962811
 21
-0.652505731035
 31
0.0
  0
LINE
  5
2D2
330
30
100
AcDbEntity
  8
1
100
AcDbLine
 10
47.804602962811
 20
-0.652505731035
 30
0.0
 11
47.739602962811
 21
-0.652505731035
 31
0.0
  0
LINE
  5
2D3
330
30
100
AcDbEntity
  8
1
100
AcDbLine
 10
47.739602962811
 20
-0.652505731035
 30
0.0
 11
47.674602962811
 21
-0.652505731035
 31
0.0
  0
LINE
  5
2D4
330
30
100
AcDbEntity
  8
1
100
AcDbLine
 10
47.674602962811
 20
-0.652505731035
 30
0.0
 11
47.609602962811
 21
-0.652505731035
 31
0.0
  0
LINE
  5
2D5
330
30
100
AcDbEntity
  8
1
100
AcDbLine
 10
47.609602962811
 20
-0.652505731035
 30
0.0
 11
47.544602962811
 21
-0.652505731035
 31
0.0
  0
LINE
  5
2D6
330
30
100
AcDbEntity
  8
1
100
AcDbLine
 10
47.544602962811
 20
-0.652505731035
 30
0.0
 11
47.479602962811
 21
-0.652505731035
 31
0.0
  0
LINE
  5
2D7
330
30
100
AcDbEntity
  8
1
100
AcDbLine
 10
47.479602962811
 20
-0.652505731035
 30
0.0
 11
47.414602962811
 21
-0.652505731035
 31
0.0
  0
LINE
  5
2D8
330
30
100
AcDbEntity
  8
1
100
AcDbLine
 10
47.414602962811
 20
-0.652505731035
 30
0.0
 11
47.349602962811
 21
-0.652505731035
 31
0.0
  0
LINE
  5
2D9
330
30
100
AcDbEntity
  8
1
100
AcDbLine
 10
47.349602962811
 20
-0.652505731035
 30
0.0
 11
47.284602962811
 21
-0.652505731035
 31
0.0
  0
LINE
  5
2DA
330
30
100
AcDbEntity
  8
1
100
AcDbLine
 10
47.284602962811
 20
-0.652505731035
 30
0.0
 11
47.219602962811
 21
-0.652505731035
 31
0.0
  0
LINE
  5
2DB
330
30
100
AcDbEntity
  8
1
100
AcDbLine
 10
47.219602962811
 20
-0.652505731035
 30
0.0
 11
47.154602962811
 21
-0.652505731035
 31
0.0
  0
LINE
  5
2DC
330
30
100
AcDbEntity
  8
1
100
AcDbLine
 10
47.154602962811
 20
-0.652505731035
 30
0.0
 11
47.089602962811
 21
-0.652505731035
 31
0.0
  0
LINE
  5
2DD
330
30
100
AcDbEntity
  8
1
100
AcDbLine
 10
47.089602962811
 20
-0.652505731035
 30
0.0
 11
47.024602962811
 21
-0.652505731035
 31
0.0
  0
LINE
  5
2DE
330
30
100
AcDbEntity
  8
1
100
AcDbLine
 10
47.024602962811
 20
-0.652505731035
 30
0.0
 11
46.959602962811
 21
-0.652505731035
 31
0.0
  0
LINE
  5
2DF
330
30
100
AcDbEntity
  8
1
100
AcDbLine
 10
46.959602962811
 20
-0.652505731035
 30
0.0
 11
46.894602962811
 21
-0.652505731035
 31
0.0
  0
LINE
  5
2E0
330
30
100
AcDbEntity
  8
1
100
AcDbLine
 10
46.894602962811
 20
-0.652505731035
 30
0.0
 11
46.829602962811
 21
-0.652505731035
 31
0.0
  0
LINE
  5
2E1
330
30
100
AcDbEntity
  8
1
100
AcDbLine
 10
46.829602962811
 20
-0.652505731035
 30
0.0
 11
46.764602962811
 21
-0.652505731035
 31
0.0
  0
LINE
  5
2E2
330
30
100
AcDbEntity
  8
1
100
AcDbLine
 10
46.764602962811
 20
-0.652505731035
 30
0.0
 11
46.699602962811
 21
-0.652505731035
 31
0.0
  0
LINE
  5
2E3
330
30
100
AcDbEntity
  8
1
100
AcDbLine
 10
46.699602962811
 20
-0.652505731035
 30
0.0
 11
46.634602962811
 21
-0.652505731035
 31
0.0
  0
LINE
  5
2E4
330
30
100
AcDbEntity
  8
1
100
AcDbLine
 10
46.634602962811
 20
-0.652505731035
 30
0.0
 11
46.569602962811
 21
-0.652505731035
 31
0.0
  0
LINE
  5
2E5
330
30
100
AcDbEntity
  8
1
100
AcDbLine
 10
46.569602962811
 20
-0.652505731035
 30
0.0
 11
46.504602962811
 21
-0.652505731035
 31
0.0
  0
LINE
  5
2E6
330
30
100
AcDbEntity
  8
1
100
AcDbLine
 10
46.504602962811
 20
-0.652505731035
 30
0.0
 11
46.439602962811
 21
-0.652505731035
 31
0.0
  0
LINE
  5
2E7
330
30
100
AcDbEntity
  8
1
100
AcDbLine
 10
46.439602962811
 20
-0.652505731035
 30
0.0
 11
46.374602962811
 21
-0.652505731035
 31
0.0
  0
LINE
  5
2E8
330
30
100
AcDbEntity
  8
1
100
AcDbLine
 10
46.374602962811
 20
-0.652505731035
 30
0.0
 11
46.309602962811
 21
-0.652505731035
 31
0.0
  0
LINE
  5
2E9
330
30
100
AcDbEntity
  8
1
100
AcDbLine
 10
46.309602962811
 20
-0.652505731035
 30
0.0
 11
46.244602962811
 21
-0.652505731035
 31
0.0
  0
LINE
  5
2EA
330
30
100
AcDbEntity
  8
1
100
AcDbLine
 10
46.244602962811
 20
-0.652505731035
 30
0.0
 11
46.179602962811
 21
-0.652505731035
 31
0.0
  0
LINE
  5
2EB
330
30
100
AcDbEntity
  8
1
100
AcDbLine
 10
46.179602962811
 20
-0.652505731035
 30
0.0
 11
46.114602962811
 21
-0.652505731035
 31
0.0
  0
LINE
  5
2EC
330
30
100
AcDbEntity
  8
1
100
AcDbLine
 10
46.114602962811
 20
-0.652505731035
 30
0.0
 11
46.049602962811
 21
-0.652505731035
 31
0.0
  0
LINE
  5
2ED
330
30
100
AcDbEntity
  8
1
100
AcDbLine
 10
46.049602962811
 20
-0.652505731035
 30
0.0
 11
45.984602962811
 21
-0.652505731035
 31
0.0
  0
LINE
  5
2EE
330
30
100
AcDbEntity
  8
1
100
AcDbLine
 10
45.984602962811
 20
-0.652505731035
 30
0.0
 11
45.919602962811
 21
-0.652505731035
 31
0.0
  0
LINE
  5
2EF
330
30
100
AcDbEntity
  8
1
100
AcDbLine
 10
45.919602962811
 20
-0.652505731035
 30
0.0
 11
45.854602962811
 21
-0.652505731035
 31
0.0
  0
LINE
  5
2F0
330
30
100
AcDbEntity
  8
1
100
AcDbLine
 10
45.854602962811
 20
-0.652505731035
 30
0.0
 11
45.789602962811
 21
-0.652505731035
 31
0.0
  0
LINE
  5
2F1
330
30
100
AcDbEntity
  8
1
100
AcDbLine
 10
45.789602962811
 20
-0.652505731035
 30
0.0
 11
45.724602962811
 21
-0.652505731035
 31
0.0
  0
LINE
  5
2F2
330
30
100
AcDbEntity
  8
1
100
AcDbLine
 10
45.724602962811
 20
-0.652505731035
 30
0.0
 11
45.659602962811
 21
-0.652505731035
 31
0.0
  0
LINE
  5
2F3
330
30
100
AcDbEntity
  8
1
100
AcDbLine
 10
45.659602962811
 20
-0.652505731035
 30
0.0
 11
45.594602962811
 21
-0.652505731035
 31
0.0
  0
LINE
  5
2F4
330
30
100
AcDbEntity
  8
1
100
AcDbLine
 10
45.594602962811
 20
-0.652505731035
 30
0.0
 11
45.529602962811
 21
-0.652505731035
 31
0.0
  0
LINE
  5
2F5
330
30
100
AcDbEntity
  8
1
100
AcDbLine
 10
45.529602962811
 20
-0.652505731035
 30
0.0
 11
45.464602962811
 21
-0.652505731035
 31
0.0
  0
LINE
  5
2F6
330
30
100
AcDbEntity
  8
1
100
AcDbLine
 10
45.464602962811
 20
-0.652505731035
 30
0.0
 11
45.399602962811
 21
-0.652505731035
 31
0.0
  0
LINE
  5
2F7
330
30
100
AcDbEntity
  8
1
100
AcDbLine
 10
45.399602962811
 20
-0.652505731035
 30
0.0
 11
45.334602962811
 21
-0.652505731035
 31
0.0
  0
LINE
  5
2F8
330
30
100
AcDbEntity
  8
1
100
AcDbLine
 10
45.334602962811
 20
-0.652505731035
 30
0.0
 11
45.269602962811
 21
-0.652505731035
 31
0.0
  0
LINE
  5
2F9
330
30
100
AcDbEntity
  8
1
100
AcDbLine
 10
45.269602962811
 20
-0.652505731035
 30
0.0
 11
45.204602962811
 21
-0.652505731035
 31
0.0
  0
LINE
  5
2FA
330
30
100
AcDbEntity
  8
1
100
AcDbLine
 10
45.204602962811
 20
-0.652505731035
 30
0.0
 11
45.139602962811
 21
-0.652505731035
 31
0.0
  0
LINE
  5
2FB
330
30
100
AcDbEntity
  8
1
100
AcDbLine
 10
45.139602962811
 20
-0.652505731035
 30
0.0
 11
45.074602962811
 21
-0.652505731035
 31
0.0
  0
LINE
  5
2FC
330
30
100
AcDbEntity
  8
1
100
AcDbLine
 10
45.074602962811
 20
-0.652505731035
 30
0.0
 11
45.009602962811
 21
-0.652505731035
 31
0.0
  0
LINE
  5
2FD
330
30
100
AcDbEntity
  8
1
100
AcDbLine
 10
45.009602962811
 20
-0.652505731035
 30
0.0
 11
44.944602962811
 21
-0.652505731035
 31
0.0
  0
LINE
  5
2FE
330
30
100
AcDbEntity
  8
1
100
AcDbLine
 10
44.944602962811
 20
-0.652505731035
 30
0.0
 11
44.879602962811
 21
-0.652505731035
 31
0.0
  0
LINE
  5
2FF
330
30
100
AcDbEntity
  8
1
100
AcDbLine
 10
44.879602962811
 20
-0.652505731035
 30
0.0
 11
44.814602962811
 21
-0.652505731035
 31
0.0
  0
LINE
  5
300
330
30
100
AcDbEntity
  8
1
100
AcDbLine
 10
44.814602962811
 20
-0.652505731035
 30
0.0
 11
44.749602962811
 21
-0.652505731035
 31
0.0
  0
LINE
  5
301
330
30
100
AcDbEntity
  8
1
100
AcDbLine
 10
44.749602962811
 20
-0.652505731035
 30
0.0
 11
44.684602962811
 21
-0.652505731035
 31
0.0
  0
LINE
  5
302
330
30
100
AcDbEntity
  8
1
100
AcDbLine
 10
44.684602962811
 20
-0.652505731035
 30
0.0
 11
44.619602962811
 21
-0.652505731035
 31
0.0
  0
LINE
  5
303
330
30
100
AcDbEntity
  8
1
100
AcDbLine
 10
44.619602962811
 20
-0.652505731035
 30
0.0
 11
44.554602962811
 21
-0.652505731035
 31
0.0
  0
LINE
  5
304
330
30
100
AcDbEntity
  8
1
100
AcDbLine
 10
44.554602962811
 20
-0.652505731035
 30
0.0
 11
44.489602962811
 21
-0.652505731035
 31
0.0
  0
LINE
  5
305
330
30
100
AcDbEntity
  8
1
100
AcDbLine
 10
44.489602962811
 20
-0.652505731035
 30
0.0
 11
44.424602962811
 21
-0.652505731035
 31
0.0
  0
LINE
  5
306
330
30
100
AcDbEntity
  8
1
100
AcDbLine
 10
44.424602962811
 20
-0.652505731035
 30
0.0
 11
44.359602962811
 21
-0.652505731035
 31
0.0
  0
LINE
  5
307
330
30
100
AcDbEntity
  8
1
100
AcDbLine
 10
44.359602962811
 20
-0.652505731035
 30
0.0
 11
44.294602962811
 21
-0.652505731035
 31
0.0
  0
LINE
  5
308
330
30
100
AcDbEntity
  8
1
100
AcDbLine
 10
44.294602962811
 20
-0.652505731035
 30
0.0
 11
44.229602962811
 21
-0.652505731035
 31
0.0
  0
LINE
  5
309
330
30
100
AcDbEntity
  8
1
100
AcDbLine
 10
44.229602962811
 20
-0.652505731035
 30
0.0
 11
44.164602962811
 21
-0.652505731035
 31
0.0
  0
LINE
  5
30A
330
30
100
AcDbEntity
  8
1
100
AcDbLine
 10
44.164602962811
 20
-0.652505731035
 30
0.0
 11
44.099602962811
 21
-0.652505731035
 31
0.0
  0
LINE
  5
30B
330
30
100
AcDbEntity
  8
1
100
AcDbLine
 10
44.099602962811
 20
-0.652505731035
 30
0.0
 11
44.034602962811
 21
-0.652505731035
 31
0.0
  0
LINE
  5
30C
330
30
100
AcDbEntity
  8
1
100
AcDbLine
 10
44.034602962811
 20
-0.652505731035
 30
0.0
 11
43.969602962811
 21
-0.652505731035
 31
0.0
  0
LINE
  5
30D
330
30
100
AcDbEntity
  8
1
100
AcDbLine
 10
43.969602962811
 20
-0.652505731035
 30
0.0
 11
43.904602962811
 21
-0.652505731035
 31
0.0
  0
LINE
  5
30E
330
30
100
AcDbEntity
  8
1
100
AcDbLine
 10
43.904602962811
 20
-0.652505731035
 30
0.0
 11
43.839602962811
 21
-0.652505731035
 31
0.0
  0
LINE
  5
30F
330
30
100
AcDbEntity
  8
1
100
AcDbLine
 10
43.839602962811
 20
-0.652505731035
 30
0.0
 11
43.774602962811
 21
-0.652505731035
 31
0.0
  0
LINE
  5
310
330
30
100
AcDbEntity
  8
1
100
AcDbLine
 10
43.774602962811
 20
-0.652505731035
 30
0.0
 11
43.709602962811
 21
-0.652505731035
 31
0.0
  0
LINE
  5
311
330
30
100
AcDbEntity
  8
1
100
AcDbLine
 10
43.709602962811
 20
-0.652505731035
 30
0.0
 11
43.644602962811
 21
-0.652505731035
 31
0.0
  0
LINE
  5
312
330
30
100
AcDbEntity
  8
1
100
AcDbLine
 10
43.644602962811
 20
-0.652505731035
 30
0.0
 11
43.579602962811
 21
-0.652505731035
 31
0.0
  0
LINE
  5
313
330
30
100
AcDbEntity
  8
1
100
AcDbLine
 10
43.579602962811
 20
-0.652505731035
 30
0.0
 11
43.514602962811
 21
-0.652505731035
 31
0.0
  0
LINE
  5
314
330
30
100
AcDbEntity
  8
1
100
AcDbLine
 10
43.514602962811
 20
-0.652505731035
 30
0.0
 11
43.449602962811
 21
-0.652505731035
 31
0.0
  0
LINE
  5
315
330
30
100
AcDbEntity
  8
1
100
AcDbLine
 10
43.449602962811
 20
-0.652505731035
 30
0.0
 11
43.384602962811
 21
-0.652505731035
 31
0.0
  0
LINE
  5
316
330
30
100
AcDbEntity
  8
1
100
AcDbLine
 10
43.384602962811
 20
-0.652505731035
 30
0.0
 11
43.319602962811
 21
-0.652505731035
 31
0.0
  0
LINE
  5
317
330
30
100
AcDbEntity
  8
1
100
AcDbLine
 10
43.319602962811
 20
-0.652505731035
 30
0.0
 11
43.254602962811
 21
-0.652505731035
 31
0.0
  0
LINE
  5
318
330
30
100
AcDbEntity
  8
1
100
AcDbLine
 10
43.254602962811
 20
-0.652505731035
 30
0.0
 11
43.189602962811
 21
-0.652505731035
 31
0.0
  0
LINE
  5
319
330
30
100
AcDbEntity
  8
1
100
AcDbLine
 10
43.189602962811
 20
-0.652505731035
 30
0.0
 11
43.124602962811
 21
-0.652505731035
 31
0.0
  0
LINE
  5
31A
330
30
100
AcDbEntity
  8
1
100
AcDbLine
 10
43.124602962811
 20
-0.652505731035
 30
0.0
 11
43.059602962811
 21
-0.652505731035
 31
0.0
  0
LINE
  5
31B
330
30
100
AcDbEntity
  8
1
100
AcDbLine
 10
43.059602962811
 20
-0.652505731035
 30
0.0
 11
42.994602962811
 21
-0.652505731035
 31
0.0
  0
LINE
  5
31C
330
30
100
AcDbEntity
  8
1
100
AcDbLine
 10
42.994602962811
 20
-0.652505731035
 30
0.0
 11
42.929602962811
 21
-0.652505731035
 31
0.0
  0
LINE
  5
31D
330
30
100
AcDbEntity
  8
1
100
AcDbLine
 10
42.929602962811
 20
-0.652505731035
 30
0.0
 11
42.864602962811
 21
-0.652505731035
 31
0.0
  0
LINE
  5
31E
330
30
100
AcDbEntity
  8
1
100
AcDbLine
 10
42.864602962811
 20
-0.652505731035
 30
0.0
 11
42.799602962811
 21
-0.652505731035
 31
0.0
  0
LINE
  5
31F
330
30
100
AcDbEntity
  8
1
100
AcDbLine
 10
42.799602962811
 20
-0.652505731035
 30
0.0
 11
42.734602962811
 21
-0.652505731035
 31
0.0
  0
LINE
  5
320
330
30
100
AcDbEntity
  8
1
100
AcDbLine
 10
42.734602962811
 20
-0.652505731035
 30
0.0
 11
42.669602962811
 21
-0.652505731035
 31
0.0
  0
LINE
  5
321
330
30
100
AcDbEntity
  8
1
100
AcDbLine
 10
42.669602962811
 20
-0.652505731035
 30
0.0
 11
42.604602962811
 21
-0.652505731035
 31
0.0
  0
LINE
  5
322
330
30
100
AcDbEntity
  8
1
100
AcDbLine
 10
42.604602962811
 20
-0.652505731035
 30
0.0
 11
42.539602962811
 21
-0.652274065312
 31
0.0
  0
LINE
  5
323
330
30
100
AcDbEntity
  8
1
100
AcDbLine
 10
42.539602962811
 20
-0.652274065312
 30
0.0
 11
42.474602962811
 21
-0.650420739531
 31
0.0
  0
LINE
  5
324
330
30
100
AcDbEntity
  8
1
100
AcDbLine
 10
42.474602962811
 20
-0.650420739531
 30
0.0
 11
42.409602962811
 21
-0.646714087967
 31
0.0
  0
LINE
  5
325
330
30
100
AcDbEntity
  8
1
100
AcDbLine
 10
42.409602962811
 20
-0.646714087967
 30
0.0
 11
42.344602962811
 21
-0.641154110623
 31
0.0
  0
LINE
  5
326
330
30
100
AcDbEntity
  8
1
100
AcDbLine
 10
42.344602962811
 20
-0.641154110623
 30
0.0
 11
42.279602962811
 21
-0.633740807496
 31
0.0
  0
LINE
  5
327
330
30
100
AcDbEntity
  8
1
100
AcDbLine
 10
42.279602962811
 20
-0.633740807496
 30
0.0
 11
42.214602962811
 21
-0.624474178588
 31
0.0
  0
LINE
  5
328
330
30
100
AcDbEntity
  8
1
100
AcDbLine
 10
42.214602962811
 20
-0.624474178588
 30
0.0
 11
42.149602962811
 21
-0.613354223899
 31
0.0
  0
LINE
  5
329
330
30
100
AcDbEntity
  8
1
100
AcDbLine
 10
42.149602962811
 20
-0.613354223899
 30
0.0
 11
42.084602962811
 21
-0.600380943427
 31
0.0
  0
LINE
  5
32A
330
30
100
AcDbEntity
  8
1
100
AcDbLine
 10
42.084602962811
 20
-0.600380943427
 30
0.0
 11
42.019602962811
 21
-0.585554337175
 31
0.0
  0
LINE
  5
32B
330
30
100
AcDbEntity
  8
1
100
AcDbLine
 10
42.019602962811
 20
-0.585554337175
 30
0.0
 11
41.954602962811
 21
-0.56887440514
 31
0.0
  0
LINE
  5
32C
330
30
100
AcDbEntity
  8
1
100
AcDbLine
 10
41.954602962811
 20
-0.56887440514
 30
0.0
 11
41.889602962811
 21
-0.550341147324
 31
0.0
  0
LINE
  5
32D
330
30
100
AcDbEntity
  8
1
100
AcDbLine
 10
41.889602962811
 20
-0.550341147324
 30
0.0
 11
41.824602962811
 21
-0.529954563727
 31
0.0
  0
LINE
  5
32E
330
30
100
AcDbEntity
  8
1
100
AcDbLine
 10
41.824602962811
 20
-0.529954563727
 30
0.0
 11
41.759602962811
 21
-0.507714654348
 31
0.0
  0
LINE
  5
32F
330
30
100
AcDbEntity
  8
1
100
AcDbLine
 10
41.759602962811
 20
-0.507714654348
 30
0.0
 11
41.694602962811
 21
-0.483621419187
 31
0.0
  0
LINE
  5
330
330
30
100
AcDbEntity
  8
1
100
AcDbLine
 10
41.694602962811
 20
-0.483621419187
 30
0.0
 11
41.629602962811
 21
-0.457674858245
 31
0.0
  0
LINE
  5
331
330
30
100
AcDbEntity
  8
1
100
AcDbLine
 10
41.629602962811
 20
-0.457674858245
 30
0.0
 11
41.564602962811
 21
-0.429874971521
 31
0.0
  0
LINE
  5
332
330
30
100
AcDbEntity
  8
1
100
AcDbLine
 10
41.564602962811
 20
-0.429874971521
 30
0.0
 11
41.499602962811
 21
-0.400221759015
 31
0.0
  0
LINE
  5
333
330
30
100
AcDbEntity
  8
1
100
AcDbLine
 10
41.499602962811
 20
-0.400221759015
 30
0.0
 11
41.434602962811
 21
-0.368715220728
 31
0.0
  0
LINE
  5
334
330
30
100
AcDbEntity
  8
1
100
AcDbLine
 10
41.434602962811
 20
-0.368715220728
 30
0.0
 11
41.369602962811
 21
-0.335355356659
 31
0.0
  0
LINE
  5
335
330
30
100
AcDbEntity
  8
1
100
AcDbLine
 10
41.369602962811
 20
-0.335355356659
 30
0.0
 11
41.304602962811
 21
-0.300142166809
 31
0.0
  0
LINE
  5
336
330
30
100
AcDbEntity
  8
1
100
AcDbLine
 10
41.304602962811
 20
-0.300142166809
 30
0.0
 11
41.239602962811
 21
-0.263075651177
 31
0.0
  0
LINE
  5
337
330
30
100
AcDbEntity
  8
1
100
AcDbLine
 10
41.239602962811
 20
-0.263075651177
 30
0.0
 11
41.174602962811
 21
-0.224155809763
 31
0.0
  0
LINE
  5
338
330
30
100
AcDbEntity
  8
1
100
AcDbLine
 10
41.174602962811
 20
-0.224155809763
 30
0.0
 11
41.109602962811
 21
-0.183382642568
 31
0.0
  0
LINE
  5
339
330
30
100
AcDbEntity
  8
1
100
AcDbLine
 10
41.109602962811
 20
-0.183382642568
 30
0.0
 11
41.044602962811
 21
-0.140756149592
 31
0.0
  0
LINE
  5
33A
330
30
100
AcDbEntity
  8
1
100
AcDbLine
 10
41.044602962811
 20
-0.140756149592
 30
0.0
 11
40.979602962811
 21
-0.096276330833
 31
0.0
  0
LINE
  5
33B
330
30
100
AcDbEntity
  8
1
100
AcDbLine
 10
40.979602962811
 20
-0.096276330833
 30
0.0
 11
40.914602962811
 21
-0.049943186293
 31
0.0
  0
LINE
  5
33C
330
30
100
AcDbEntity
  8
1
100
AcDbLine
 10
40.914602962811
 20
-0.049943186293
 30
0.0
 11
40.849602962811
 21
-0.001756715972
 31
0.0
  0
LINE
  5
33D
330
30
100
AcDbEntity
  8
1
100
AcDbLine
 10
40.849602962811
 20
-0.001756715972
 30
0.0
 11
40.784602962811
 21
0.048283080131
 31
0.0
  0
LINE
  5
33E
330
30
100
AcDbEntity
  8
1
100
AcDbLine
 10
40.784602962811
 20
0.048283080131
 30
0.0
 11
40.719602962811
 21
0.100176202016
 31
0.0
  0
LINE
  5
33F
330
30
100
AcDbEntity
  8
1
100
AcDbLine
 10
40.719602962811
 20
0.100176202016
 30
0.0
 11
40.654602962811
 21
0.153922649682
 31
0.0
  0
LINE
  5
340
330
30
100
AcDbEntity
  8
1
100
AcDbLine
 10
40.654602962811
 20
0.153922649682
 30
0.0
 11
40.589602962811
 21
0.20952242313
 31
0.0
  0
LINE
  5
341
330
30
100
AcDbEntity
  8
1
100
AcDbLine
 10
40.589602962811
 20
0.20952242313
 30
0.0
 11
40.524602962811
 21
0.266975522359
 31
0.0
  0
LINE
  5
342
330
30
100
AcDbEntity
  8
1
100
AcDbLine
 10
40.524602962811
 20
0.266975522359
 30
0.0
 11
40.459602962811
 21
0.32628194737
 31
0.0
  0
LINE
  5
343
330
30
100
AcDbEntity
  8
1
100
AcDbLine
 10
40.459602962811
 20
0.32628194737
 30
0.0
 11
40.394602962811
 21
0.387441698163
 31
0.0
  0
LINE
  5
344
330
30
100
AcDbEntity
  8
1
100
AcDbLine
 10
40.394602962811
 20
0.387441698163
 30
0.0
 11
40.329602962811
 21
0.450454774737
 31
0.0
  0
LINE
  5
345
330
30
100
AcDbEntity
  8
1
100
AcDbLine
 10
40.329602962811
 20
0.450454774737
 30
0.0
 11
40.264602962811
 21
0.515321177093
 31
0.0
  0
LINE
  5
346
330
30
100
AcDbEntity
  8
1
100
AcDbLine
 10
40.264602962811
 20
0.515321177093
 30
0.0
 11
40.199602962811
 21
0.582040905231
 31
0.0
  0
LINE
  5
347
330
30
100
AcDbEntity
  8
1
100
AcDbLine
 10
40.199602962811
 20
0.582040905231
 30
0.0
 11
40.134602962811
 21
0.65061395915
 31
0.0
  0
LINE
  5
348
330
30
100
AcDbEntity
  8
1
100
AcDbLine
 10
37.953987871165
 20
1.35
 30
0.0
 11
37.953987871165
 21
-1.35
 31
0.0
  0
LINE
  5
349
330
30
100
AcDbEntity
  8
1
100
AcDbLine
 10
32.954228351338
 20
-1.7905
 30
0.0
 11
32.954228351338
 21
1.7905
 31
0.0
  0
LINE
  5
34A
330
30
100
AcDbEntity
  8
1
100
AcDbLine
 10
32.954228351338
 20
1.7905
 30
0.0
 11
32.954228351338
 21
-1.7905
 31
0.0
  0
LINE
  5
34B
330
30
100
AcDbEntity
  8
SK1
100
AcDbLine
 10
21.134602962811
 20
1.7905
 30
0.0
 11
1.953987871165
 21
1.7905
 31
0.0
  0
LINE
  5
34C
330
30
100
AcDbEntity
  8
SK1
100
AcDbLine
 10
1.953987871165
 20
1.7905
 30
0.0
 11
0.0
 21
0.0
 31
0.0
  0
LINE
  5
34D
330
30
100
AcDbEntity
  8
SK1
100
AcDbLine
 10
21.134602962811
 20
-1.7905
 30
0.0
 11
1.953987871165
 21
-1.7905
 31
0.0
  0
LINE
  5
34E
330
30
100
AcDbEntity
  8
SK1
100
AcDbLine
 10
1.953987871165
 20
-1.7905
 30
0.0
 11
0.0
 21
0.0
 31
0.0
  0
LINE
  5
34F
330
30
100
AcDbEntity
  8
SK1
100
AcDbLine
 10
1.953987871165
 20
1.7905
 30
0.0
 11
1.953987871165
 21
-1.7905
 31
0.0
  0
LINE
  5
350
330
30
100
AcDbEntity
  8
SK1
100
AcDbLine
 10
1.953987871165
 20
1.7905
 30
0.0
 11
1.953987871165
 21
-1.7905
 31
0.0
  0
LINE
  5
351
330
30
100
AcDbEntity
  8
SK1
100
AcDbLine
 10
22.174702962811
 20
1.40688
 30
0.0
 11
22.541502962811
 21
1.0401
 31
0.0
  0
LINE
  5
352
330
30
100
AcDbEntity
  8
SK1
100
AcDbLine
 10
21.667402962811
 20
1.66666
 30
0.0
 11
22.801302962811
 21
0.532833
 31
0.0
  0
LINE
  5
353
330
30
100
AcDbEntity
  8
SK1
100
AcDbLine
 10
21.350002962811
 20
1.73657
 30
0.0
 11
22.871202962811
 21
0.215434
 31
0.0
  0
LINE
  5
354
330
30
100
AcDbEntity
  8
SK1
100
AcDbLine
 10
21.134602962811
 20
1.70452
 30
0.0
 11
22.839102962811
 21
0.0
 31
0.0
  0
LINE
  5
355
330
30
100
AcDbEntity
  8
SK1
100
AcDbLine
 10
21.134602962811
 20
1.45703
 30
0.0
 11
22.591602962811
 21
0.0
 31
0.0
  0
LINE
  5
356
330
30
100
AcDbEntity
  8
SK1
100
AcDbLine
 10
21.134602962811
 20
1.20954
 30
0.0
 11
22.344102962811
 21
0.0
 31
0.0
  0
LINE
  5
357
330
30
100
AcDbEntity
  8
SK1
100
AcDbLine
 10
21.134602962811
 20
0.962054
 30
0.0
 11
22.096702962811
 21
0.0
 31
0.0
  0
LINE
  5
358
330
30
100
AcDbEntity
  8
SK1
100
AcDbLine
 10
21.134602962811
 20
0.714566
 30
0.0
 11
21.849202962811
 21
0.0
 31
0.0
  0
LINE
  5
359
330
30
100
AcDbEntity
  8
SK1
100
AcDbLine
 10
21.134602962811
 20
0.467079
 30
0.0
 11
21.601702962811
 21
0.0
 31
0.0
  0
LINE
  5
35A
330
30
100
AcDbEntity
  8
SK1
100
AcDbLine
 10
21.134602962811
 20
0.219592
 30
0.0
 11
21.354202962811
 21
0.0
 31
0.0
  0
LINE
  5
35B
330
30
100
AcDbEntity
  8
SK1
100
AcDbLine
 10
21.134602962811
 20
1.70452
 30
0.0
 11
21.178702962811
 21
1.74861
 31
0.0
  0
LINE
  5
35C
330
30
100
AcDbEntity
  8
SK1
100
AcDbLine
 10
21.134602962811
 20
1.45703
 30
0.0
 11
21.405602962811
 21
1.72802
 31
0.0
  0
LINE
  5
35D
330
30
100
AcDbEntity
  8
SK1
100
AcDbLine
 10
21.134602962811
 20
1.20954
 30
0.0
 11
21.608802962811
 21
1.6837
 31
0.0
  0
LINE
  5
35E
330
30
100
AcDbEntity
  8
SK1
100
AcDbLine
 10
21.134602962811
 20
0.962054
 30
0.0
 11
21.793402962811
 21
1.62082
 31
0.0
  0
LINE
  5
35F
330
30
100
AcDbEntity
  8
SK1
100
AcDbLine
 10
21.134602962811
 20
0.714566
 30
0.0
 11
21.961702962811
 21
1.54167
 31
0.0
  0
LINE
  5
360
330
30
100
AcDbEntity
  8
SK1
100
AcDbLine
 10
21.134602962811
 20
0.467079
 30
0.0
 11
22.115602962811
 21
1.44812
 31
0.0
  0
LINE
  5
361
330
30
100
AcDbEntity
  8
SK1
100
AcDbLine
 10
21.134602962811
 20
0.219592
 30
0.0
 11
22.257202962811
 21
1.34216
 31
0.0
  0
LINE
  5
362
330
30
100
AcDbEntity
  8
SK1
100
AcDbLine
 10
21.162502962811
 20
0.0
 30
0.0
 11
22.385402962811
 21
1.22288
 31
0.0
  0
LINE
  5
363
330
30
100
AcDbEntity
  8
SK1
100
AcDbLine
 10
21.410002962811
 20
0.0
 30
0.0
 11
22.501602962811
 21
1.09157
 31
0.0
  0
LINE
  5
364
330
30
100
AcDbEntity
  8
SK1
100
AcDbLine
 10
21.657502962811
 20
0.0
 30
0.0
 11
22.605302962811
 21
0.947822
 31
0.0
  0
LINE
  5
365
330
30
100
AcDbEntity
  8
SK1
100
AcDbLine
 10
21.905002962811
 20
0.0
 30
0.0
 11
22.695102962811
 21
0.790145
 31
0.0
  0
LINE
  5
366
330
30
100
AcDbEntity
  8
SK1
100
AcDbLine
 10
22.152402962811
 20
0.0
 30
0.0
 11
22.771002962811
 21
0.618517
 31
0.0
  0
LINE
  5
367
330
30
100
AcDbEntity
  8
SK1
100
AcDbLine
 10
22.399902962811
 20
0.0
 30
0.0
 11
22.830602962811
 21
0.430696
 31
0.0
  0
LINE
  5
368
330
30
100
AcDbEntity
  8
SK1
100
AcDbLine
 10
22.647402962811
 20
0.0
 30
0.0
 11
22.870202962811
 21
0.222827
 31
0.0
  0
LINE
  5
369
330
30
100
AcDbEntity
  8
SK1
100
AcDbLine
 10
21.134602962811
 20
0.0
 30
0.0
 11
21.134602962811
 21
1.75
 31
0.0
  0
LINE
  5
36A
330
30
100
AcDbEntity
  8
SK1
100
AcDbLine
 10
21.134602962811
 20
0.0
 30
0.0
 11
22.884602962811
 21
0.0
 31
0.0
  0
ARC
  5
36B
330
30
100
AcDbEntity
  8
SK1
100
AcDbCircle
 10
21.134602962811
 20
0.0
 30
0.0
 40
1.75
100
AcDbArc
 50
0.0
 51
90.0
  0
ARC
  5
36C
330
30
100
AcDbEntity
  8
SK1
100
AcDbCircle
 10
21.134602962811
 20
0.0
 30
0.0
 40
1.75
100
AcDbArc
 50
90.0
 51
180.0
  0
LINE
  5
36D
330
30
100
AcDbEntity
  8
SK1
100
AcDbLine
 10
21.106702962811
 20
0.0
 30
0.0
 11
21.134602962811
 21
-0.0278958
 31
0.0
  0
LINE
  5
36E
330
30
100
AcDbEntity
  8
SK1
100
AcDbLine
 10
20.859202962811
 20
0.0
 30
0.0
 11
21.134602962811
 21
-0.275383
 31
0.0
  0
LINE
  5
36F
330
30
100
AcDbEntity
  8
SK1
100
AcDbLine
 10
20.611702962811
 20
0.0
 30
0.0
 11
21.134602962811
 21
-0.522871
 31
0.0
  0
LINE
  5
370
330
30
100
AcDbEntity
  8
SK1
100
AcDbLine
 10
20.364202962811
 20
0.0
 30
0.0
 11
21.134602962811
 21
-0.770358
 31
0.0
  0
LINE
  5
371
330
30
100
AcDbEntity
  8
SK1
100
AcDbLine
 10
20.116802962811
 20
0.0
 30
0.0
 11
21.134602962811
 21
-1.01785
 31
0.0
  0
LINE
  5
372
330
30
100
AcDbEntity
  8
SK1
100
AcDbLine
 10
19.869302962811
 20
0.0
 30
0.0
 11
21.134602962811
 21
-1.26533
 31
0.0
  0
LINE
  5
373
330
30
100
AcDbEntity
  8
SK1
100
AcDbLine
 10
19.621802962811
 20
0.0
 30
0.0
 11
21.134602962811
 21
-1.51282
 31
0.0
  0
LINE
  5
374
330
30
100
AcDbEntity
  8
SK1
100
AcDbLine
 10
19.384902962811
 20
-0.0106419
 30
0.0
 11
21.124002962811
 21
-1.74967
 31
0.0
  0
LINE
  5
375
330
30
100
AcDbEntity
  8
SK1
100
AcDbLine
 10
19.408202962811
 20
-0.281429
 30
0.0
 11
20.853202962811
 21
-1.72637
 31
0.0
  0
LINE
  5
376
330
30
100
AcDbEntity
  8
SK1
100
AcDbLine
 10
19.498502962811
 20
-0.619147
 30
0.0
 11
20.515502962811
 21
-1.63613
 31
0.0
  0
LINE
  5
377
330
30
100
AcDbEntity
  8
SK1
100
AcDbLine
 10
19.386002962811
 20
-0.0440984
 30
0.0
 11
19.430102962811
 21
0.0
 31
0.0
  0
LINE
  5
378
330
30
100
AcDbEntity
  8
SK1
100
AcDbLine
 10
19.406602962811
 20
-0.270991
 30
0.0
 11
19.677602962811
 21
0.0
 31
0.0
  0
LINE
  5
379
330
30
100
AcDbEntity
  8
SK1
100
AcDbLine
 10
19.450902962811
 20
-0.474162
 30
0.0
 11
19.925102962811
 21
0.0
 31
0.0
  0
LINE
  5
37A
330
30
100
AcDbEntity
  8
SK1
100
AcDbLine
 10
19.513802962811
 20
-0.658762
 30
0.0
 11
20.172502962811
 21
0.0
 31
0.0
  0
LINE
  5
37B
330
30
100
AcDbEntity
  8
SK1
100
AcDbLine
 10
19.592902962811
 20
-0.827105
 30
0.0
 11
20.420002962811
 21
0.0
 31
0.0
  0
LINE
  5
37C
330
30
100
AcDbEntity
  8
SK1
100
AcDbLine
 10
19.686502962811
 20
-0.981039
 30
0.0
 11
20.667502962811
 21
0.0
 31
0.0
  0
LINE
  5
37D
330
30
100
AcDbEntity
  8
SK1
100
AcDbLine
 10
19.792402962811
 20
-1.12257
 30
0.0
 11
20.915002962811
 21
0.0
 31
0.0
  0
LINE
  5
37E
330
30
100
AcDbEntity
  8
SK1
100
AcDbLine
 10
19.911702962811
 20
-1.25077
 30
0.0
 11
21.134602962811
 21
-0.0278958
 31
0.0
  0
LINE
  5
37F
330
30
100
AcDbEntity
  8
SK1
100
AcDbLine
 10
20.043002962811
 20
-1.36695
 30
0.0
 11
21.134602962811
 21
-0.275383
 31
0.0
  0
LINE
  5
380
330
30
100
AcDbEntity
  8
SK1
100
AcDbLine
 10
20.186802962811
 20
-1.47069
 30
0.0
 11
21.134602962811
 21
-0.522871
 31
0.0
  0
LINE
  5
381
330
30
100
AcDbEntity
  8
SK1
100
AcDbLine
 10
20.344502962811
 20
-1.5605
 30
0.0
 11
21.134602962811
 21
-0.770358
 31
0.0
  0
LINE
  5
382
330
30
100
AcDbEntity
  8
SK1
100
AcDbLine
 10
20.516102962811
 20
-1.63636
 30
0.0
 11
21.134602962811
 21
-1.01785
 31
0.0
  0
LINE
  5
383
330
30
100
AcDbEntity
  8
SK1
100
AcDbLine
 10
20.703902962811
 20
-1.69603
 30
0.0
 11
21.134602962811
 21
-1.26533
 31
0.0
  0
LINE
  5
384
330
30
100
AcDbEntity
  8
SK1
100
AcDbLine
 10
20.911802962811
 20
-1.73565
 30
0.0
 11
21.134602962811
 21
-1.51282
 31
0.0
  0
LINE
  5
385
330
30
100
AcDbEntity
  8
SK1
100
AcDbLine
 10
21.134602962811
 20
0.0
 30
0.0
 11
19.384602962811
 21
0.0
 31
0.0
  0
LINE
  5
386
330
30
100
AcDbEntity
  8
SK1
100
AcDbLine
 10
21.134602962811
 20
-1.75
 30
0.0
 11
21.134602962811
 21
0.0
 31
0.0
  0
ARC
  5
387
330
30
100
AcDbEntity
  8
SK1
100
AcDbCircle
 10
21.134602962811
 20
0.0
 30
0.0
 40
1.75
100
AcDbArc
 50
180.0
 51
270.0
  0
ARC
  5
388
330
30
100
AcDbEntity
  8
SK1
100
AcDbCircle
 10
21.134602962811
 20
0.0
 30
0.0
 40
1.75
100
AcDbArc
 50
270.0
 51
0.0
  0
LINE
  5
3F7
330
30
100
AcDbEntity
  8
NOCUT
100
AcDbLine
 10
50.753987871165
 20
0.0
 30
0.0
 11
50.753987871165
 21
1.75
 31
0.0
  0
LINE
  5
3F8
330
30
100
AcDbEntity
  8
NOCUT
100
AcDbLine
 10
50.753987871165
 20
1.75
 30
0.0
 11
50.061167548137
 21
1.35
 31
0.0
  0
LINE
  5
3F9
330
30
100
AcDbEntity
  8
NOCUT
100
AcDbLine
 10
50.061167548137
 20
1.35
 30
0.0
 11
37.953987871165
 21
1.35
 31
0.0
  0
LINE
  5
3FA
330
30
100
AcDbEntity
  8
NOCUT
100
AcDbLine
 10
37.953987871165
 20
1.35
 30
0.0
 11
32.954228351338
 21
1.7905
 31
0.0
  0
LINE
  5
3FB
330
30
100
AcDbEntity
  8
NOCUT
100
AcDbLine
 10
32.954228351338
 20
1.7905
 30
0.0
 11
21.134602962811
 21
1.7905
 31
0.0
  0
LINE
  5
3FC
330
30
100
AcDbEntity
  8
NOCUT
100
AcDbLine
 10
21.134602962811
 20
1.7905
 30
0.0
 11
21.134602962811
 21
0.0
 31
0.0
  0
LINE
  5
3FD
330
30
100
AcDbEntity
  8
NOCUT
100
AcDbLine
 10
21.134602962811
 20
0.0
 30
0.0
 11
50.753987871165
 21
0.0
 31
0.0
  0
LINE
  5
3FE
330
30
100
AcDbEntity
  8
CUT
100
AcDbLine
 10
59.634602962811
 20
0.0
 30
0.0
 11
57.953987871165
 21
1.54
 31
0.0
  0
LINE
  5
3FF
330
30
100
AcDbEntity
  8
CUT
100
AcDbLine
 10
57.953987871165
 20
1.54
 30
0.0
 11
56.553987871165
 21
1.75
 31
0.0
  0
LINE
  5
400
330
30
100
AcDbEntity
  8
CUT
100
AcDbLine
 10
56.553987871165
 20
1.75
 30
0.0
 11
50.753987871165
 21
1.75
 31
0.0
  0
LINE
  5
401
330
30
100
AcDbEntity
  8
CUT
100
AcDbLine
 10
50.753987871165
 20
1.75
 30
0.0
 11
50.753987871165
 21
0.0
 31
0.0
  0
LINE
  5
402
330
30
100
AcDbEntity
  8
CUT
100
AcDbLine
 10
50.753987871165
 20
0.0
 30
0.0
 11
59.634602962811
 21
0.0
 31
0.0
  0
LINE
  5
403
330
30
100
AcDbEntity
  8
4
100
AcDbLine
 10
21.134602962811
 20
0.0
 30
0.0
 11
59.634602962811
 21
0.0
 31
0.0
  0
LINE
  5
404
330
30
100
AcDbEntity
  8
SK4
100
AcDbLine
 10
-1.0
 20
0.0
 30
0.0
 11
60.634602962811
 21
0.0
 31
0.0
  0
LINE
  5
405
330
30
100
AcDbEntity
  8
1
100
AcDbLine
 10
57.817321204498
 20
1.5605
 30
0.0
 11
50.753987871165
 21
1.5605
 31
0.0
  0
LINE
  5
406
330
30
100
AcDbEntity
  8
1
100
AcDbLine
 10
57.658064816156
 20
1.584388458251
 30
0.0
 11
57.644272808354
 21
1.5605
 31
0.0
  0
LINE
  5
407
330
30
100
AcDbEntity
  8
1
100
AcDbLine
 10
57.644272808354
 20
1.5605
 30
0.0
 11
57.624130339759
 21
1.5605
 31
0.0
  0
LINE
  5
408
330
30
100
AcDbEntity
  8
1
100
AcDbLine
 10
57.624130339759
 20
1.5605
 30
0.0
 11
57.603987871165
 21
1.5605
 31
0.0
  0
LINE
  5
409
330
30
100
AcDbEntity
  8
1
100
AcDbLine
 10
57.603987871165
 20
1.5605
 30
0.0
 11
57.583760960722
 21
1.595534036566
 31
0.0
  0
LINE
  5
40A
330
30
100
AcDbEntity
  8
1
100
AcDbLine
 10
57.335959918556
 20
1.632704192891
 30
0.0
 11
57.294272808354
 21
1.5605
 31
0.0
  0
LINE
  5
40B
330
30
100
AcDbEntity
  8
1
100
AcDbLine
 10
57.294272808354
 20
1.5605
 30
0.0
 11
57.274130339759
 21
1.5605
 31
0.0
  0
LINE
  5
40C
330
30
100
AcDbEntity
  8
1
100
AcDbLine
 10
57.274130339759
 20
1.5605
 30
0.0
 11
57.253987871165
 21
1.5605
 31
0.0
  0
LINE
  5
40D
330
30
100
AcDbEntity
  8
1
100
AcDbLine
 10
57.253987871165
 20
1.5605
 30
0.0
 11
57.200576185778
 21
1.653011752808
 31
0.0
  0
LINE
  5
40E
330
30
100
AcDbEntity
  8
1
100
AcDbLine
 10
57.013855020956
 20
1.681019927531
 30
0.0
 11
56.944272808354
 21
1.5605
 31
0.0
  0
LINE
  5
40F
330
30
100
AcDbEntity
  8
1
100
AcDbLine
 10
56.944272808354
 20
1.5605
 30
0.0
 11
56.924130339759
 21
1.5605
 31
0.0
  0
LINE
  5
410
330
30
100
AcDbEntity
  8
1
100
AcDbLine
 10
56.924130339759
 20
1.5605
 30
0.0
 11
56.903987871165
 21
1.5605
 31
0.0
  0
LINE
  5
411
330
30
100
AcDbEntity
  8
1
100
AcDbLine
 10
56.903987871165
 20
1.5605
 30
0.0
 11
56.817391410833
 21
1.71048946905
 31
0.0
  0
LINE
  5
412
330
30
100
AcDbEntity
  8
1
100
AcDbLine
 10
56.691750123357
 20
1.729335662171
 30
0.0
 11
56.594272808354
 21
1.5605
 31
0.0
  0
LINE
  5
413
330
30
100
AcDbEntity
  8
1
100
AcDbLine
 10
56.594272808354
 20
1.5605
 30
0.0
 11
56.574130339759
 21
1.5605
 31
0.0
  0
LINE
  5
414
330
30
100
AcDbEntity
  8
1
100
AcDbLine
 10
56.574130339759
 20
1.5605
 30
0.0
 11
56.553987871165
 21
1.5605
 31
0.0
  0
LINE
  5
415
330
30
100
AcDbEntity
  8
1
100
AcDbLine
 10
56.553987871165
 20
1.5605
 30
0.0
 11
56.444579995153
 21
1.75
 31
0.0
  0
LINE
  5
416
330
30
100
AcDbEntity
  8
1
100
AcDbLine
 10
56.444579995153
 20
1.75
 30
0.0
 11
56.399130339759
 21
1.75
 31
0.0
  0
LINE
  5
417
330
30
100
AcDbEntity
  8
1
100
AcDbLine
 10
56.399130339759
 20
1.75
 30
0.0
 11
56.353680684365
 21
1.75
 31
0.0
  0
LINE
  5
418
330
30
100
AcDbEntity
  8
1
100
AcDbLine
 10
56.353680684365
 20
1.75
 30
0.0
 11
56.244272808354
 21
1.5605
 31
0.0
  0
LINE
  5
419
330
30
100
AcDbEntity
  8
1
100
AcDbLine
 10
56.244272808354
 20
1.5605
 30
0.0
 11
56.224130339759
 21
1.5605
 31
0.0
  0
LINE
  5
41A
330
30
100
AcDbEntity
  8
1
100
AcDbLine
 10
56.224130339759
 20
1.5605
 30
0.0
 11
56.203987871165
 21
1.5605
 31
0.0
  0
LINE
  5
41B
330
30
100
AcDbEntity
  8
1
100
AcDbLine
 10
56.203987871165
 20
1.5605
 30
0.0
 11
56.094579995153
 21
1.75
 31
0.0
  0
LINE
  5
41C
330
30
100
AcDbEntity
  8
1
100
AcDbLine
 10
56.094579995153
 20
1.75
 30
0.0
 11
56.049130339759
 21
1.75
 31
0.0
  0
LINE
  5
41D
330
30
100
AcDbEntity
  8
1
100
AcDbLine
 10
56.049130339759
 20
1.75
 30
0.0
 11
56.003680684365
 21
1.75
 31
0.0
  0
LINE
  5
41E
330
30
100
AcDbEntity
  8
1
100
AcDbLine
 10
56.003680684365
 20
1.75
 30
0.0
 11
55.894272808354
 21
1.5605
 31
0.0
  0
LINE
  5
41F
330
30
100
AcDbEntity
  8
1
100
AcDbLine
 10
55.894272808354
 20
1.5605
 30
0.0
 11
55.874130339759
 21
1.5605
 31
0.0
  0
LINE
  5
420
330
30
100
AcDbEntity
  8
1
100
AcDbLine
 10
55.874130339759
 20
1.5605
 30
0.0
 11
55.853987871165
 21
1.5605
 31
0.0
  0
LINE
  5
421
330
30
100
AcDbEntity
  8
1
100
AcDbLine
 10
55.853987871165
 20
1.5605
 30
0.0
 11
55.744579995153
 21
1.75
 31
0.0
  0
LINE
  5
422
330
30
100
AcDbEntity
  8
1
100
AcDbLine
 10
55.744579995153
 20
1.75
 30
0.0
 11
55.699130339759
 21
1.75
 31
0.0
  0
LINE
  5
423
330
30
100
AcDbEntity
  8
1
100
AcDbLine
 10
55.699130339759
 20
1.75
 30
0.0
 11
55.653680684365
 21
1.75
 31
0.0
  0
LINE
  5
424
330
30
100
AcDbEntity
  8
1
100
AcDbLine
 10
55.653680684365
 20
1.75
 30
0.0
 11
55.544272808354
 21
1.5605
 31
0.0
  0
LINE
  5
425
330
30
100
AcDbEntity
  8
1
100
AcDbLine
 10
55.544272808354
 20
1.5605
 30
0.0
 11
55.524130339759
 21
1.5605
 31
0.0
  0
LINE
  5
426
330
30
100
AcDbEntity
  8
1
100
AcDbLine
 10
55.524130339759
 20
1.5605
 30
0.0
 11
55.503987871165
 21
1.5605
 31
0.0
  0
LINE
  5
427
330
30
100
AcDbEntity
  8
1
100
AcDbLine
 10
55.503987871165
 20
1.5605
 30
0.0
 11
55.394579995153
 21
1.75
 31
0.0
  0
LINE
  5
428
330
30
100
AcDbEntity
  8
1
100
AcDbLine
 10
55.394579995153
 20
1.75
 30
0.0
 11
55.349130339759
 21
1.75
 31
0.0
  0
LINE
  5
429
330
30
100
AcDbEntity
  8
1
100
AcDbLine
 10
55.349130339759
 20
1.75
 30
0.0
 11
55.303680684365
 21
1.75
 31
0.0
  0
LINE
  5
42A
330
30
100
AcDbEntity
  8
1
100
AcDbLine
 10
55.303680684365
 20
1.75
 30
0.0
 11
55.194272808354
 21
1.5605
 31
0.0
  0
LINE
  5
42B
330
30
100
AcDbEntity
  8
1
100
AcDbLine
 10
55.194272808354
 20
1.5605
 30
0.0
 11
55.174130339759
 21
1.5605
 31
0.0
  0
LINE
  5
42C
330
30
100
AcDbEntity
  8
1
100
AcDbLine
 10
55.174130339759
 20
1.5605
 30
0.0
 11
55.153987871165
 21
1.5605
 31
0.0
  0
LINE
  5
42D
330
30
100
AcDbEntity
  8
1
100
AcDbLine
 10
55.153987871165
 20
1.5605
 30
0.0
 11
55.044579995153
 21
1.75
 31
0.0
  0
LINE
  5
42E
330
30
100
AcDbEntity
  8
1
100
AcDbLine
 10
55.044579995153
 20
1.75
 30
0.0
 11
54.999130339759
 21
1.75
 31
0.0
  0
LINE
  5
42F
330
30
100
AcDbEntity
  8
1
100
AcDbLine
 10
54.999130339759
 20
1.75
 30
0.0
 11
54.953680684365
 21
1.75
 31
0.0
  0
LINE
  5
430
330
30
100
AcDbEntity
  8
1
100
AcDbLine
 10
54.953680684365
 20
1.75
 30
0.0
 11
54.844272808354
 21
1.5605
 31
0.0
  0
LINE
  5
431
330
30
100
AcDbEntity
  8
1
100
AcDbLine
 10
54.844272808354
 20
1.5605
 30
0.0
 11
54.824130339759
 21
1.5605
 31
0.0
  0
LINE
  5
432
330
30
100
AcDbEntity
  8
1
100
AcDbLine
 10
54.824130339759
 20
1.5605
 30
0.0
 11
54.803987871165
 21
1.5605
 31
0.0
  0
LINE
  5
433
330
30
100
AcDbEntity
  8
1
100
AcDbLine
 10
54.803987871165
 20
1.5605
 30
0.0
 11
54.694579995153
 21
1.75
 31
0.0
  0
LINE
  5
434
330
30
100
AcDbEntity
  8
1
100
AcDbLine
 10
54.694579995153
 20
1.75
 30
0.0
 11
54.649130339759
 21
1.75
 31
0.0
  0
LINE
  5
435
330
30
100
AcDbEntity
  8
1
100
AcDbLine
 10
54.649130339759
 20
1.75
 30
0.0
 11
54.603680684365
 21
1.75
 31
0.0
  0
LINE
  5
436
330
30
100
AcDbEntity
  8
1
100
AcDbLine
 10
54.603680684365
 20
1.75
 30
0.0
 11
54.494272808354
 21
1.5605
 31
0.0
  0
LINE
  5
437
330
30
100
AcDbEntity
  8
1
100
AcDbLine
 10
54.494272808354
 20
1.5605
 30
0.0
 11
54.474130339759
 21
1.5605
 31
0.0
  0
LINE
  5
438
330
30
100
AcDbEntity
  8
1
100
AcDbLine
 10
54.474130339759
 20
1.5605
 30
0.0
 11
54.453987871165
 21
1.5605
 31
0.0
  0
LINE
  5
439
330
30
100
AcDbEntity
  8
1
100
AcDbLine
 10
54.453987871165
 20
1.5605
 30
0.0
 11
54.344579995153
 21
1.75
 31
0.0
  0
LINE
  5
43A
330
30
100
AcDbEntity
  8
1
100
AcDbLine
 10
54.344579995153
 20
1.75
 30
0.0
 11
54.299130339759
 21
1.75
 31
0.0
  0
LINE
  5
43B
330
30
100
AcDbEntity
  8
1
100
AcDbLine
 10
54.299130339759
 20
1.75
 30
0.0
 11
54.253680684365
 21
1.75
 31
0.0
  0
LINE
  5
43C
330
30
100
AcDbEntity
  8
1
100
AcDbLine
 10
54.253680684365
 20
1.75
 30
0.0
 11
54.144272808354
 21
1.5605
 31
0.0
  0
LINE
  5
43D
330
30
100
AcDbEntity
  8
1
100
AcDbLine
 10
54.144272808354
 20
1.5605
 30
0.0
 11
54.124130339759
 21
1.5605
 31
0.0
  0
LINE
  5
43E
330
30
100
AcDbEntity
  8
1
100
AcDbLine
 10
54.124130339759
 20
1.5605
 30
0.0
 11
54.103987871165
 21
1.5605
 31
0.0
  0
LINE
  5
43F
330
30
100
AcDbEntity
  8
1
100
AcDbLine
 10
54.103987871165
 20
1.5605
 30
0.0
 11
53.994579995153
 21
1.75
 31
0.0
  0
LINE
  5
440
330
30
100
AcDbEntity
  8
1
100
AcDbLine
 10
53.994579995153
 20
1.75
 30
0.0
 11
53.949130339759
 21
1.75
 31
0.0
  0
LINE
  5
441
330
30
100
AcDbEntity
  8
1
100
AcDbLine
 10
53.949130339759
 20
1.75
 30
0.0
 11
53.903680684365
 21
1.75
 31
0.0
  0
LINE
  5
442
330
30
100
AcDbEntity
  8
1
100
AcDbLine
 10
53.903680684365
 20
1.75
 30
0.0
 11
53.794272808354
 21
1.5605
 31
0.0
  0
LINE
  5
443
330
30
100
AcDbEntity
  8
1
100
AcDbLine
 10
53.794272808354
 20
1.5605
 30
0.0
 11
53.774130339759
 21
1.5605
 31
0.0
  0
LINE
  5
444
330
30
100
AcDbEntity
  8
1
100
AcDbLine
 10
53.774130339759
 20
1.5605
 30
0.0
 11
53.753987871165
 21
1.5605
 31
0.0
  0
LINE
  5
445
330
30
100
AcDbEntity
  8
1
100
AcDbLine
 10
53.753987871165
 20
1.5605
 30
0.0
 11
53.644579995153
 21
1.75
 31
0.0
  0
LINE
  5
446
330
30
100
AcDbEntity
  8
1
100
AcDbLine
 10
53.644579995153
 20
1.75
 30
0.0
 11
53.599130339759
 21
1.75
 31
0.0
  0
LINE
  5
447
330
30
100
AcDbEntity
  8
1
100
AcDbLine
 10
53.599130339759
 20
1.75
 30
0.0
 11
53.553680684365
 21
1.75
 31
0.0
  0
LINE
  5
448
330
30
100
AcDbEntity
  8
1
100
AcDbLine
 10
53.553680684365
 20
1.75
 30
0.0
 11
53.444272808354
 21
1.5605
 31
0.0
  0
LINE
  5
449
330
30
100
AcDbEntity
  8
1
100
AcDbLine
 10
53.444272808354
 20
1.5605
 30
0.0
 11
53.424130339759
 21
1.5605
 31
0.0
  0
LINE
  5
44A
330
30
100
AcDbEntity
  8
1
100
AcDbLine
 10
53.424130339759
 20
1.5605
 30
0.0
 11
53.403987871165
 21
1.5605
 31
0.0
  0
LINE
  5
44B
330
30
100
AcDbEntity
  8
1
100
AcDbLine
 10
53.403987871165
 20
1.5605
 30
0.0
 11
53.294579995153
 21
1.75
 31
0.0
  0
LINE
  5
44C
330
30
100
AcDbEntity
  8
1
100
AcDbLine
 10
53.294579995153
 20
1.75
 30
0.0
 11
53.249130339759
 21
1.75
 31
0.0
  0
LINE
  5
44D
330
30
100
AcDbEntity
  8
1
100
AcDbLine
 10
53.249130339759
 20
1.75
 30
0.0
 11
53.203680684365
 21
1.75
 31
0.0
  0
LINE
  5
44E
330
30
100
AcDbEntity
  8
1
100
AcDbLine
 10
53.203680684365
 20
1.75
 30
0.0
 11
53.094272808354
 21
1.5605
 31
0.0
  0
LINE
  5
44F
330
30
100
AcDbEntity
  8
1
100
AcDbLine
 10
53.094272808354
 20
1.5605
 30
0.0
 11
53.074130339759
 21
1.5605
 31
0.0
  0
LINE
  5
450
330
30
100
AcDbEntity
  8
1
100
AcDbLine
 10
53.074130339759
 20
1.5605
 30
0.0
 11
53.053987871165
 21
1.5605
 31
0.0
  0
LINE
  5
451
330
30
100
AcDbEntity
  8
1
100
AcDbLine
 10
53.053987871165
 20
1.5605
 30
0.0
 11
52.944579995153
 21
1.75
 31
0.0
  0
LINE
  5
452
330
30
100
AcDbEntity
  8
1
100
AcDbLine
 10
52.944579995153
 20
1.75
 30
0.0
 11
52.899130339759
 21
1.75
 31
0.0
  0
LINE
  5
453
330
30
100
AcDbEntity
  8
1
100
AcDbLine
 10
52.899130339759
 20
1.75
 30
0.0
 11
52.853680684365
 21
1.75
 31
0.0
  0
LINE
  5
454
330
30
100
AcDbEntity
  8
1
100
AcDbLine
 10
52.853680684365
 20
1.75
 30
0.0
 11
52.744272808354
 21
1.5605
 31
0.0
  0
LINE
  5
455
330
30
100
AcDbEntity
  8
1
100
AcDbLine
 10
52.744272808354
 20
1.5605
 30
0.0
 11
52.724130339759
 21
1.5605
 31
0.0
  0
LINE
  5
456
330
30
100
AcDbEntity
  8
1
100
AcDbLine
 10
52.724130339759
 20
1.5605
 30
0.0
 11
52.703987871165
 21
1.5605
 31
0.0
  0
LINE
  5
457
330
30
100
AcDbEntity
  8
1
100
AcDbLine
 10
52.703987871165
 20
1.5605
 30
0.0
 11
52.594579995153
 21
1.75
 31
0.0
  0
LINE
  5
458
330
30
100
AcDbEntity
  8
1
100
AcDbLine
 10
52.594579995153
 20
1.75
 30
0.0
 11
52.549130339759
 21
1.75
 31
0.0
  0
LINE
  5
459
330
30
100
AcDbEntity
  8
1
100
AcDbLine
 10
52.549130339759
 20
1.75
 30
0.0
 11
52.503680684365
 21
1.75
 31
0.0
  0
LINE
  5
45A
330
30
100
AcDbEntity
  8
1
100
AcDbLine
 10
52.503680684365
 20
1.75
 30
0.0
 11
52.394272808354
 21
1.5605
 31
0.0
  0
LINE
  5
45B
330
30
100
AcDbEntity
  8
1
100
AcDbLine
 10
52.394272808354
 20
1.5605
 30
0.0
 11
52.374130339759
 21
1.5605
 31
0.0
  0
LINE
  5
45C
330
30
100
AcDbEntity
  8
1
100
AcDbLine
 10
52.374130339759
 20
1.5605
 30
0.0
 11
52.353987871165
 21
1.5605
 31
0.0
  0
LINE
  5
45D
330
30
100
AcDbEntity
  8
1
100
AcDbLine
 10
52.353987871165
 20
1.5605
 30
0.0
 11
52.244579995153
 21
1.75
 31
0.0
  0
LINE
  5
45E
330
30
100
AcDbEntity
  8
1
100
AcDbLine
 10
52.244579995153
 20
1.75
 30
0.0
 11
52.199130339759
 21
1.75
 31
0.0
  0
LINE
  5
45F
330
30
100
AcDbEntity
  8
1
100
AcDbLine
 10
52.199130339759
 20
1.75
 30
0.0
 11
52.153680684365
 21
1.75
 31
0.0
  0
LINE
  5
460
330
30
100
AcDbEntity
  8
1
100
AcDbLine
 10
52.153680684365
 20
1.75
 30
0.0
 11
52.044272808354
 21
1.5605
 31
0.0
  0
LINE
  5
461
330
30
100
AcDbEntity
  8
1
100
AcDbLine
 10
52.044272808354
 20
1.5605
 30
0.0
 11
52.024130339759
 21
1.5605
 31
0.0
  0
LINE
  5
462
330
30
100
AcDbEntity
  8
1
100
AcDbLine
 10
52.024130339759
 20
1.5605
 30
0.0
 11
52.003987871165
 21
1.5605
 31
0.0
  0
LINE
  5
463
330
30
100
AcDbEntity
  8
1
100
AcDbLine
 10
52.003987871165
 20
1.5605
 30
0.0
 11
51.894579995153
 21
1.75
 31
0.0
  0
LINE
  5
464
330
30
100
AcDbEntity
  8
1
100
AcDbLine
 10
51.894579995153
 20
1.75
 30
0.0
 11
51.849130339759
 21
1.75
 31
0.0
  0
LINE
  5
465
330
30
100
AcDbEntity
  8
1
100
AcDbLine
 10
51.849130339759
 20
1.75
 30
0.0
 11
51.803680684365
 21
1.75
 31
0.0
  0
LINE
  5
466
330
30
100
AcDbEntity
  8
1
100
AcDbLine
 10
51.803680684365
 20
1.75
 30
0.0
 11
51.694272808354
 21
1.5605
 31
0.0
  0
LINE
  5
467
330
30
100
AcDbEntity
  8
1
100
AcDbLine
 10
51.694272808354
 20
1.5605
 30
0.0
 11
51.674130339759
 21
1.5605
 31
0.0
  0
LINE
  5
468
330
30
100
AcDbEntity
  8
1
100
AcDbLine
 10
51.674130339759
 20
1.5605
 30
0.0
 11
51.653987871165
 21
1.5605
 31
0.0
  0
LINE
  5
469
330
30
100
AcDbEntity
  8
1
100
AcDbLine
 10
51.653987871165
 20
1.5605
 30
0.0
 11
51.544579995153
 21
1.75
 31
0.0
  0
LINE
  5
46A
330
30
100
AcDbEntity
  8
1
100
AcDbLine
 10
51.544579995153
 20
1.75
 30
0.0
 11
51.499130339759
 21
1.75
 31
0.0
  0
LINE
  5
46B
330
30
100
AcDbEntity
  8
1
100
AcDbLine
 10
51.499130339759
 20
1.75
 30
0.0
 11
51.453680684365
 21
1.75
 31
0.0
  0
LINE
  5
46C
330
30
100
AcDbEntity
  8
1
100
AcDbLine
 10
51.453680684365
 20
1.75
 30
0.0
 11
51.344272808354
 21
1.5605
 31
0.0
  0
LINE
  5
46D
330
30
100
AcDbEntity
  8
1
100
AcDbLine
 10
51.344272808354
 20
1.5605
 30
0.0
 11
51.324130339759
 21
1.5605
 31
0.0
  0
LINE
  5
46E
330
30
100
AcDbEntity
  8
1
100
AcDbLine
 10
51.324130339759
 20
1.5605
 30
0.0
 11
51.303987871165
 21
1.5605
 31
0.0
  0
LINE
  5
46F
330
30
100
AcDbEntity
  8
1
100
AcDbLine
 10
51.303987871165
 20
1.5605
 30
0.0
 11
51.194579995153
 21
1.75
 31
0.0
  0
LINE
  5
470
330
30
100
AcDbEntity
  8
1
100
AcDbLine
 10
51.194579995153
 20
1.75
 30
0.0
 11
51.149130339759
 21
1.75
 31
0.0
  0
LINE
  5
471
330
30
100
AcDbEntity
  8
1
100
AcDbLine
 10
51.149130339759
 20
1.75
 30
0.0
 11
51.103680684365
 21
1.75
 31
0.0
  0
LINE
  5
472
330
30
100
AcDbEntity
  8
1
100
AcDbLine
 10
51.103680684365
 20
1.75
 30
0.0
 11
50.994272808354
 21
1.5605
 31
0.0
  0
LINE
  5
473
330
30
100
AcDbEntity
  8
1
100
AcDbLine
 10
50.994272808354
 20
1.5605
 30
0.0
 11
50.974130339759
 21
1.5605
 31
0.0
  0
LINE
  5
474
330
30
100
AcDbEntity
  8
1
100
AcDbLine
 10
50.974130339759
 20
1.5605
 30
0.0
 11
50.953987871165
 21
1.5605
 31
0.0
  0
LINE
  5
475
330
30
100
AcDbEntity
  8
1
100
AcDbLine
 10
50.953987871165
 20
1.5605
 30
0.0
 11
50.844579995153
 21
1.75
 31
0.0
  0
LINE
  5
476
330
30
100
AcDbEntity
  8
1
100
AcDbLine
 10
50.844579995153
 20
1.75
 30
0.0
 11
50.799130339759
 21
1.75
 31
0.0
  0
LINE
  5
477
330
30
100
AcDbEntity
  8
1
100
AcDbLine
 10
50.799130339759
 20
1.75
 30
0.0
 11
50.753987871165
 21
1.75
 31
0.0
  0
LINE
  5
478
330
30
100
AcDbEntity
  8
1
100
AcDbLine
 10
57.817321204498
 20
-1.5605
 30
0.0
 11
50.753987871165
 21
-1.5605
 31
0.0
  0
LINE
  5
479
330
30
100
AcDbEntity
  8
1
100
AcDbLine
 10
57.658064816156
 20
-1.584388458251
 30
0.0
 11
57.644272808354
 21
-1.5605
 31
0.0
  0
LINE
  5
47A
330
30
100
AcDbEntity
  8
1
100
AcDbLine
 10
57.644272808354
 20
-1.5605
 30
0.0
 11
57.624130339759
 21
-1.5605
 31
0.0
  0
LINE
  5
47B
330
30
100
AcDbEntity
  8
1
100
AcDbLine
 10
57.624130339759
 20
-1.5605
 30
0.0
 11
57.603987871165
 21
-1.5605
 31
0.0
  0
LINE
  5
47C
330
30
100
AcDbEntity
  8
1
100
AcDbLine
 10
57.603987871165
 20
-1.5605
 30
0.0
 11
57.583760960722
 21
-1.595534036566
 31
0.0
  0
LINE
  5
47D
330
30
100
AcDbEntity
  8
1
100
AcDbLine
 10
57.335959918556
 20
-1.632704192891
 30
0.0
 11
57.294272808354
 21
-1.5605
 31
0.0
  0
LINE
  5
47E
330
30
100
AcDbEntity
  8
1
100
AcDbLine
 10
57.294272808354
 20
-1.5605
 30
0.0
 11
57.274130339759
 21
-1.5605
 31
0.0
  0
LINE
  5
47F
330
30
100
AcDbEntity
  8
1
100
AcDbLine
 10
57.274130339759
 20
-1.5605
 30
0.0
 11
57.253987871165
 21
-1.5605
 31
0.0
  0
LINE
  5
480
330
30
100
AcDbEntity
  8
1
100
AcDbLine
 10
57.253987871165
 20
-1.5605
 30
0.0
 11
57.200576185778
 21
-1.653011752808
 31
0.0
  0
LINE
  5
481
330
30
100
AcDbEntity
  8
1
100
AcDbLine
 10
57.013855020956
 20
-1.681019927531
 30
0.0
 11
56.944272808354
 21
-1.5605
 31
0.0
  0
LINE
  5
482
330
30
100
AcDbEntity
  8
1
100
AcDbLine
 10
56.944272808354
 20
-1.5605
 30
0.0
 11
56.924130339759
 21
-1.5605
 31
0.0
  0
LINE
  5
483
330
30
100
AcDbEntity
  8
1
100
AcDbLine
 10
56.924130339759
 20
-1.5605
 30
0.0
 11
56.903987871165
 21
-1.5605
 31
0.0
  0
LINE
  5
484
330
30
100
AcDbEntity
  8
1
100
AcDbLine
 10
56.903987871165
 20
-1.5605
 30
0.0
 11
56.817391410833
 21
-1.71048946905
 31
0.0
  0
LINE
  5
485
330
30
100
AcDbEntity
  8
1
100
AcDbLine
 10
56.691750123357
 20
-1.729335662171
 30
0.0
 11
56.594272808354
 21
-1.5605
 31
0.0
  0
LINE
  5
486
330
30
100
AcDbEntity
  8
1
100
AcDbLine
 10
56.594272808354
 20
-1.5605
 30
0.0
 11
56.574130339759
 21
-1.5605
 31
0.0
  0
LINE
  5
487
330
30
100
AcDbEntity
  8
1
100
AcDbLine
 10
56.574130339759
 20
-1.5605
 30
0.0
 11
56.553987871165
 21
-1.5605
 31
0.0
  0
LINE
  5
488
330
30
100
AcDbEntity
  8
1
100
AcDbLine
 10
56.553987871165
 20
-1.5605
 30
0.0
 11
56.444579995153
 21
-1.75
 31
0.0
  0
LINE
  5
489
330
30
100
AcDbEntity
  8
1
100
AcDbLine
 10
56.444579995153
 20
-1.75
 30
0.0
 11
56.399130339759
 21
-1.75
 31
0.0
  0
LINE
  5
48A
330
30
100
AcDbEntity
  8
1
100
AcDbLine
 10
56.399130339759
 20
-1.75
 30
0.0
 11
56.353680684365
 21
-1.75
 31
0.0
  0
LINE
  5
48B
330
30
100
AcDbEntity
  8
1
100
AcDbLine
 10
56.353680684365
 20
-1.75
 30
0.0
 11
56.244272808354
 21
-1.5605
 31
0.0
  0
LINE
  5
48C
330
30
100
AcDbEntity
  8
1
100
AcDbLine
 10
56.244272808354
 20
-1.5605
 30
0.0
 11
56.224130339759
 21
-1.5605
 31
0.0
  0
LINE
  5
48D
330
30
100
AcDbEntity
  8
1
100
AcDbLine
 10
56.224130339759
 20
-1.5605
 30
0.0
 11
56.203987871165
 21
-1.5605
 31
0.0
  0
LINE
  5
48E
330
30
100
AcDbEntity
  8
1
100
AcDbLine
 10
56.203987871165
 20
-1.5605
 30
0.0
 11
56.094579995153
 21
-1.75
 31
0.0
  0
LINE
  5
48F
330
30
100
AcDbEntity
  8
1
100
AcDbLine
 10
56.094579995153
 20
-1.75
 30
0.0
 11
56.049130339759
 21
-1.75
 31
0.0
  0
LINE
  5
490
330
30
100
AcDbEntity
  8
1
100
AcDbLine
 10
56.049130339759
 20
-1.75
 30
0.0
 11
56.003680684365
 21
-1.75
 31
0.0
  0
LINE
  5
491
330
30
100
AcDbEntity
  8
1
100
AcDbLine
 10
56.003680684365
 20
-1.75
 30
0.0
 11
55.894272808354
 21
-1.5605
 31
0.0
  0
LINE
  5
492
330
30
100
AcDbEntity
  8
1
100
AcDbLine
 10
55.894272808354
 20
-1.5605
 30
0.0
 11
55.874130339759
 21
-1.5605
 31
0.0
  0
LINE
  5
493
330
30
100
AcDbEntity
  8
1
100
AcDbLine
 10
55.874130339759
 20
-1.5605
 30
0.0
 11
55.853987871165
 21
-1.5605
 31
0.0
  0
LINE
  5
494
330
30
100
AcDbEntity
  8
1
100
AcDbLine
 10
55.853987871165
 20
-1.5605
 30
0.0
 11
55.744579995153
 21
-1.75
 31
0.0
  0
LINE
  5
495
330
30
100
AcDbEntity
  8
1
100
AcDbLine
 10
55.744579995153
 20
-1.75
 30
0.0
 11
55.699130339759
 21
-1.75
 31
0.0
  0
LINE
  5
496
330
30
100
AcDbEntity
  8
1
100
AcDbLine
 10
55.699130339759
 20
-1.75
 30
0.0
 11
55.653680684365
 21
-1.75
 31
0.0
  0
LINE
  5
497
330
30
100
AcDbEntity
  8
1
100
AcDbLine
 10
55.653680684365
 20
-1.75
 30
0.0
 11
55.544272808354
 21
-1.5605
 31
0.0
  0
LINE
  5
498
330
30
100
AcDbEntity
  8
1
100
AcDbLine
 10
55.544272808354
 20
-1.5605
 30
0.0
 11
55.524130339759
 21
-1.5605
 31
0.0
  0
LINE
  5
499
330
30
100
AcDbEntity
  8
1
100
AcDbLine
 10
55.524130339759
 20
-1.5605
 30
0.0
 11
55.503987871165
 21
-1.5605
 31
0.0
  0
LINE
  5
49A
330
30
100
AcDbEntity
  8
1
100
AcDbLine
 10
55.503987871165
 20
-1.5605
 30
0.0
 11
55.394579995153
 21
-1.75
 31
0.0
  0
LINE
  5
49B
330
30
100
AcDbEntity
  8
1
100
AcDbLine
 10
55.394579995153
 20
-1.75
 30
0.0
 11
55.349130339759
 21
-1.75
 31
0.0
  0
LINE
  5
49C
330
30
100
AcDbEntity
  8
1
100
AcDbLine
 10
55.349130339759
 20
-1.75
 30
0.0
 11
55.303680684365
 21
-1.75
 31
0.0
  0
LINE
  5
49D
330
30
100
AcDbEntity
  8
1
100
AcDbLine
 10
55.303680684365
 20
-1.75
 30
0.0
 11
55.194272808354
 21
-1.5605
 31
0.0
  0
LINE
  5
49E
330
30
100
AcDbEntity
  8
1
100
AcDbLine
 10
55.194272808354
 20
-1.5605
 30
0.0
 11
55.174130339759
 21
-1.5605
 31
0.0
  0
LINE
  5
49F
330
30
100
AcDbEntity
  8
1
100
AcDbLine
 10
55.174130339759
 20
-1.5605
 30
0.0
 11
55.153987871165
 21
-1.5605
 31
0.0
  0
LINE
  5
4A0
330
30
100
AcDbEntity
  8
1
100
AcDbLine
 10
55.153987871165
 20
-1.5605
 30
0.0
 11
55.044579995153
 21
-1.75
 31
0.0
  0
LINE
  5
4A1
330
30
100
AcDbEntity
  8
1
100
AcDbLine
 10
55.044579995153
 20
-1.75
 30
0.0
 11
54.999130339759
 21
-1.75
 31
0.0
  0
LINE
  5
4A2
330
30
100
AcDbEntity
  8
1
100
AcDbLine
 10
54.999130339759
 20
-1.75
 30
0.0
 11
54.953680684365
 21
-1.75
 31
0.0
  0
LINE
  5
4A3
330
30
100
AcDbEntity
  8
1
100
AcDbLine
 10
54.953680684365
 20
-1.75
 30
0.0
 11
54.844272808354
 21
-1.5605
 31
0.0
  0
LINE
  5
4A4
330
30
100
AcDbEntity
  8
1
100
AcDbLine
 10
54.844272808354
 20
-1.5605
 30
0.0
 11
54.824130339759
 21
-1.5605
 31
0.0
  0
LINE
  5
4A5
330
30
100
AcDbEntity
  8
1
100
AcDbLine
 10
54.824130339759
 20
-1.5605
 30
0.0
 11
54.803987871165
 21
-1.5605
 31
0.0
  0
LINE
  5
4A6
330
30
100
AcDbEntity
  8
1
100
AcDbLine
 10
54.803987871165
 20
-1.5605
 30
0.0
 11
54.694579995153
 21
-1.75
 31
0.0
  0
LINE
  5
4A7
330
30
100
AcDbEntity
  8
1
100
AcDbLine
 10
54.694579995153
 20
-1.75
 30
0.0
 11
54.649130339759
 21
-1.75
 31
0.0
  0
LINE
  5
4A8
330
30
100
AcDbEntity
  8
1
100
AcDbLine
 10
54.649130339759
 20
-1.75
 30
0.0
 11
54.603680684365
 21
-1.75
 31
0.0
  0
LINE
  5
4A9
330
30
100
AcDbEntity
  8
1
100
AcDbLine
 10
54.603680684365
 20
-1.75
 30
0.0
 11
54.494272808354
 21
-1.5605
 31
0.0
  0
LINE
  5
4AA
330
30
100
AcDbEntity
  8
1
100
AcDbLine
 10
54.494272808354
 20
-1.5605
 30
0.0
 11
54.474130339759
 21
-1.5605
 31
0.0
  0
LINE
  5
4AB
330
30
100
AcDbEntity
  8
1
100
AcDbLine
 10
54.474130339759
 20
-1.5605
 30
0.0
 11
54.453987871165
 21
-1.5605
 31
0.0
  0
LINE
  5
4AC
330
30
100
AcDbEntity
  8
1
100
AcDbLine
 10
54.453987871165
 20
-1.5605
 30
0.0
 11
54.344579995153
 21
-1.75
 31
0.0
  0
LINE
  5
4AD
330
30
100
AcDbEntity
  8
1
100
AcDbLine
 10
54.344579995153
 20
-1.75
 30
0.0
 11
54.299130339759
 21
-1.75
 31
0.0
  0
LINE
  5
4AE
330
30
100
AcDbEntity
  8
1
100
AcDbLine
 10
54.299130339759
 20
-1.75
 30
0.0
 11
54.253680684365
 21
-1.75
 31
0.0
  0
LINE
  5
4AF
330
30
100
AcDbEntity
  8
1
100
AcDbLine
 10
54.253680684365
 20
-1.75
 30
0.0
 11
54.144272808354
 21
-1.5605
 31
0.0
  0
LINE
  5
4B0
330
30
100
AcDbEntity
  8
1
100
AcDbLine
 10
54.144272808354
 20
-1.5605
 30
0.0
 11
54.124130339759
 21
-1.5605
 31
0.0
  0
LINE
  5
4B1
330
30
100
AcDbEntity
  8
1
100
AcDbLine
 10
54.124130339759
 20
-1.5605
 30
0.0
 11
54.103987871165
 21
-1.5605
 31
0.0
  0
LINE
  5
4B2
330
30
100
AcDbEntity
  8
1
100
AcDbLine
 10
54.103987871165
 20
-1.5605
 30
0.0
 11
53.994579995153
 21
-1.75
 31
0.0
  0
LINE
  5
4B3
330
30
100
AcDbEntity
  8
1
100
AcDbLine
 10
53.994579995153
 20
-1.75
 30
0.0
 11
53.949130339759
 21
-1.75
 31
0.0
  0
LINE
  5
4B4
330
30
100
AcDbEntity
  8
1
100
AcDbLine
 10
53.949130339759
 20
-1.75
 30
0.0
 11
53.903680684365
 21
-1.75
 31
0.0
  0
LINE
  5
4B5
330
30
100
AcDbEntity
  8
1
100
AcDbLine
 10
53.903680684365
 20
-1.75
 30
0.0
 11
53.794272808354
 21
-1.5605
 31
0.0
  0
LINE
  5
4B6
330
30
100
AcDbEntity
  8
1
100
AcDbLine
 10
53.794272808354
 20
-1.5605
 30
0.0
 11
53.774130339759
 21
-1.5605
 31
0.0
  0
LINE
  5
4B7
330
30
100
AcDbEntity
  8
1
100
AcDbLine
 10
53.774130339759
 20
-1.5605
 30
0.0
 11
53.753987871165
 21
-1.5605
 31
0.0
  0
LINE
  5
4B8
330
30
100
AcDbEntity
  8
1
100
AcDbLine
 10
53.753987871165
 20
-1.5605
 30
0.0
 11
53.644579995153
 21
-1.75
 31
0.0
  0
LINE
  5
4B9
330
30
100
AcDbEntity
  8
1
100
AcDbLine
 10
53.644579995153
 20
-1.75
 30
0.0
 11
53.599130339759
 21
-1.75
 31
0.0
  0
LINE
  5
4BA
330
30
100
AcDbEntity
  8
1
100
AcDbLine
 10
53.599130339759
 20
-1.75
 30
0.0
 11
53.553680684365
 21
-1.75
 31
0.0
  0
LINE
  5
4BB
330
30
100
AcDbEntity
  8
1
100
AcDbLine
 10
53.553680684365
 20
-1.75
 30
0.0
 11
53.444272808354
 21
-1.5605
 31
0.0
  0
LINE
  5
4BC
330
30
100
AcDbEntity
  8
1
100
AcDbLine
 10
53.444272808354
 20
-1.5605
 30
0.0
 11
53.424130339759
 21
-1.5605
 31
0.0
  0
LINE
  5
4BD
330
30
100
AcDbEntity
  8
1
100
AcDbLine
 10
53.424130339759
 20
-1.5605
 30
0.0
 11
53.403987871165
 21
-1.5605
 31
0.0
  0
LINE
  5
4BE
330
30
100
AcDbEntity
  8
1
100
AcDbLine
 10
53.403987871165
 20
-1.5605
 30
0.0
 11
53.294579995153
 21
-1.75
 31
0.0
  0
LINE
  5
4BF
330
30
100
AcDbEntity
  8
1
100
AcDbLine
 10
53.294579995153
 20
-1.75
 30
0.0
 11
53.249130339759
 21
-1.75
 31
0.0
  0
LINE
  5
4C0
330
30
100
AcDbEntity
  8
1
100
AcDbLine
 10
53.249130339759
 20
-1.75
 30
0.0
 11
53.203680684365
 21
-1.75
 31
0.0
  0
LINE
  5
4C1
330
30
100
AcDbEntity
  8
1
100
AcDbLine
 10
53.203680684365
 20
-1.75
 30
0.0
 11
53.094272808354
 21
-1.5605
 31
0.0
  0
LINE
  5
4C2
330
30
100
AcDbEntity
  8
1
100
AcDbLine
 10
53.094272808354
 20
-1.5605
 30
0.0
 11
53.074130339759
 21
-1.5605
 31
0.0
  0
LINE
  5
4C3
330
30
100
AcDbEntity
  8
1
100
AcDbLine
 10
53.074130339759
 20
-1.5605
 30
0.0
 11
53.053987871165
 21
-1.5605
 31
0.0
  0
LINE
  5
4C4
330
30
100
AcDbEntity
  8
1
100
AcDbLine
 10
53.053987871165
 20
-1.5605
 30
0.0
 11
52.944579995153
 21
-1.75
 31
0.0
  0
LINE
  5
4C5
330
30
100
AcDbEntity
  8
1
100
AcDbLine
 10
52.944579995153
 20
-1.75
 30
0.0
 11
52.899130339759
 21
-1.75
 31
0.0
  0
LINE
  5
4C6
330
30
100
AcDbEntity
  8
1
100
AcDbLine
 10
52.899130339759
 20
-1.75
 30
0.0
 11
52.853680684365
 21
-1.75
 31
0.0
  0
LINE
  5
4C7
330
30
100
AcDbEntity
  8
1
100
AcDbLine
 10
52.853680684365
 20
-1.75
 30
0.0
 11
52.744272808354
 21
-1.5605
 31
0.0
  0
LINE
  5
4C8
330
30
100
AcDbEntity
  8
1
100
AcDbLine
 10
52.744272808354
 20
-1.5605
 30
0.0
 11
52.724130339759
 21
-1.5605
 31
0.0
  0
LINE
  5
4C9
330
30
100
AcDbEntity
  8
1
100
AcDbLine
 10
52.724130339759
 20
-1.5605
 30
0.0
 11
52.703987871165
 21
-1.5605
 31
0.0
  0
LINE
  5
4CA
330
30
100
AcDbEntity
  8
1
100
AcDbLine
 10
52.703987871165
 20
-1.5605
 30
0.0
 11
52.594579995153
 21
-1.75
 31
0.0
  0
LINE
  5
4CB
330
30
100
AcDbEntity
  8
1
100
AcDbLine
 10
52.594579995153
 20
-1.75
 30
0.0
 11
52.549130339759
 21
-1.75
 31
0.0
  0
LINE
  5
4CC
330
30
100
AcDbEntity
  8
1
100
AcDbLine
 10
52.549130339759
 20
-1.75
 30
0.0
 11
52.503680684365
 21
-1.75
 31
0.0
  0
LINE
  5
4CD
330
30
100
AcDbEntity
  8
1
100
AcDbLine
 10
52.503680684365
 20
-1.75
 30
0.0
 11
52.394272808354
 21
-1.5605
 31
0.0
  0
LINE
  5
4CE
330
30
100
AcDbEntity
  8
1
100
AcDbLine
 10
52.394272808354
 20
-1.5605
 30
0.0
 11
52.374130339759
 21
-1.5605
 31
0.0
  0
LINE
  5
4CF
330
30
100
AcDbEntity
  8
1
100
AcDbLine
 10
52.374130339759
 20
-1.5605
 30
0.0
 11
52.353987871165
 21
-1.5605
 31
0.0
  0
LINE
  5
4D0
330
30
100
AcDbEntity
  8
1
100
AcDbLine
 10
52.353987871165
 20
-1.5605
 30
0.0
 11
52.244579995153
 21
-1.75
 31
0.0
  0
LINE
  5
4D1
330
30
100
AcDbEntity
  8
1
100
AcDbLine
 10
52.244579995153
 20
-1.75
 30
0.0
 11
52.199130339759
 21
-1.75
 31
0.0
  0
LINE
  5
4D2
330
30
100
AcDbEntity
  8
1
100
AcDbLine
 10
52.199130339759
 20
-1.75
 30
0.0
 11
52.153680684365
 21
-1.75
 31
0.0
  0
LINE
  5
4D3
330
30
100
AcDbEntity
  8
1
100
AcDbLine
 10
52.153680684365
 20
-1.75
 30
0.0
 11
52.044272808354
 21
-1.5605
 31
0.0
  0
LINE
  5
4D4
330
30
100
AcDbEntity
  8
1
100
AcDbLine
 10
52.044272808354
 20
-1.5605
 30
0.0
 11
52.024130339759
 21
-1.5605
 31
0.0
  0
LINE
  5
4D5
330
30
100
AcDbEntity
  8
1
100
AcDbLine
 10
52.024130339759
 20
-1.5605
 30
0.0
 11
52.003987871165
 21
-1.5605
 31
0.0
  0
LINE
  5
4D6
330
30
100
AcDbEntity
  8
1
100
AcDbLine
 10
52.003987871165
 20
-1.5605
 30
0.0
 11
51.894579995153
 21
-1.75
 31
0.0
  0
LINE
  5
4D7
330
30
100
AcDbEntity
  8
1
100
AcDbLine
 10
51.894579995153
 20
-1.75
 30
0.0
 11
51.849130339759
 21
-1.75
 31
0.0
  0
LINE
  5
4D8
330
30
100
AcDbEntity
  8
1
100
AcDbLine
 10
51.849130339759
 20
-1.75
 30
0.0
 11
51.803680684365
 21
-1.75
 31
0.0
  0
LINE
  5
4D9
330
30
100
AcDbEntity
  8
1
100
AcDbLine
 10
51.803680684365
 20
-1.75
 30
0.0
 11
51.694272808354
 21
-1.5605
 31
0.0
  0
LINE
  5
4DA
330
30
100
AcDbEntity
  8
1
100
AcDbLine
 10
51.694272808354
 20
-1.5605
 30
0.0
 11
51.674130339759
 21
-1.5605
 31
0.0
  0
LINE
  5
4DB
330
30
100
AcDbEntity
  8
1
100
AcDbLine
 10
51.674130339759
 20
-1.5605
 30
0.0
 11
51.653987871165
 21
-1.5605
 31
0.0
  0
LINE
  5
4DC
330
30
100
AcDbEntity
  8
1
100
AcDbLine
 10
51.653987871165
 20
-1.5605
 30
0.0
 11
51.544579995153
 21
-1.75
 31
0.0
  0
LINE
  5
4DD
330
30
100
AcDbEntity
  8
1
100
AcDbLine
 10
51.544579995153
 20
-1.75
 30
0.0
 11
51.499130339759
 21
-1.75
 31
0.0
  0
LINE
  5
4DE
330
30
100
AcDbEntity
  8
1
100
AcDbLine
 10
51.499130339759
 20
-1.75
 30
0.0
 11
51.453680684365
 21
-1.75
 31
0.0
  0
LINE
  5
4DF
330
30
100
AcDbEntity
  8
1
100
AcDbLine
 10
51.453680684365
 20
-1.75
 30
0.0
 11
51.344272808354
 21
-1.5605
 31
0.0
  0
LINE
  5
4E0
330
30
100
AcDbEntity
  8
1
100
AcDbLine
 10
51.344272808354
 20
-1.5605
 30
0.0
 11
51.324130339759
 21
-1.5605
 31
0.0
  0
LINE
  5
4E1
330
30
100
AcDbEntity
  8
1
100
AcDbLine
 10
51.324130339759
 20
-1.5605
 30
0.0
 11
51.303987871165
 21
-1.5605
 31
0.0
  0
LINE
  5
4E2
330
30
100
AcDbEntity
  8
1
100
AcDbLine
 10
51.303987871165
 20
-1.5605
 30
0.0
 11
51.194579995153
 21
-1.75
 31
0.0
  0
LINE
  5
4E3
330
30
100
AcDbEntity
  8
1
100
AcDbLine
 10
51.194579995153
 20
-1.75
 30
0.0
 11
51.149130339759
 21
-1.75
 31
0.0
  0
LINE
  5
4E4
330
30
100
AcDbEntity
  8
1
100
AcDbLine
 10
51.149130339759
 20
-1.75
 30
0.0
 11
51.103680684365
 21
-1.75
 31
0.0
  0
LINE
  5
4E5
330
30
100
AcDbEntity
  8
1
100
AcDbLine
 10
51.103680684365
 20
-1.75
 30
0.0
 11
50.994272808354
 21
-1.5605
 31
0.0
  0
LINE
  5
4E6
330
30
100
AcDbEntity
  8
1
100
AcDbLine
 10
50.994272808354
 20
-1.5605
 30
0.0
 11
50.974130339759
 21
-1.5605
 31
0.0
  0
LINE
  5
4E7
330
30
100
AcDbEntity
  8
1
100
AcDbLine
 10
50.974130339759
 20
-1.5605
 30
0.0
 11
50.953987871165
 21
-1.5605
 31
0.0
  0
LINE
  5
4E8
330
30
100
AcDbEntity
  8
1
100
AcDbLine
 10
50.953987871165
 20
-1.5605
 30
0.0
 11
50.844579995153
 21
-1.75
 31
0.0
  0
LINE
  5
4E9
330
30
100
AcDbEntity
  8
1
100
AcDbLine
 10
50.844579995153
 20
-1.75
 30
0.0
 11
50.799130339759
 21
-1.75
 31
0.0
  0
LINE
  5
4EA
330
30
100
AcDbEntity
  8
1
100
AcDbLine
 10
50.799130339759
 20
-1.75
 30
0.0
 11
50.753987871165
 21
-1.75
 31
0.0
  0
LINE
  5
4EB
330
30
100
AcDbEntity
  8
SK1
100
AcDbLine
 10
6.753987871165
 20
0.804086040245
 30
0.0
 11
6.753987871165
 21
1.7905
 31
0.0
  0
LINE
  5
4EC
330
30
100
AcDbEntity
  8
SK1
100
AcDbLine
 10
6.753987871165
 20
1.7905
 30
0.0
 11
1.953987871165
 21
1.7905
 31
0.0
  0
LINE
  5
4ED
330
30
100
AcDbEntity
  8
SK1
100
AcDbLine
 10
1.953987871165
 20
1.7905
 30
0.0
 11
1.953987871165
 21
0.804086040245
 31
0.0
  0
LINE
  5
4EE
330
30
100
AcDbEntity
  8
SK1
100
AcDbLine
 10
1.953987871165
 20
0.804086040245
 30
0.0
 11
6.753987871165
 21
0.804086040245
 31
0.0
  0
LINE
  5
4EF
330
30
100
AcDbEntity
  8
SK1
100
AcDbLine
 10
6.753987871165
 20
0.804086040245
 30
0.0
 11
1.953987871165
 21
1.7905
 31
0.0
  0
LINE
  5
4F0
330
30
100
AcDbEntity
  8
SK1
100
AcDbLine
 10
6.753987871165
 20
1.7905
 30
0.0
 11
1.953987871165
 21
0.804086040245
 31
0.0
  0
LINE
  5
4F1
330
30
100
AcDbEntity
  8
SK1
100
AcDbLine
 10
6.753987871165
 20
-0.804086040245
 30
0.0
 11
6.753987871165
 21
-1.7905
 31
0.0
  0
LINE
  5
4F2
330
30
100
AcDbEntity
  8
SK1
100
AcDbLine
 10
6.753987871165
 20
-1.7905
 30
0.0
 11
1.953987871165
 21
-1.7905
 31
0.0
  0
LINE
  5
4F3
330
30
100
AcDbEntity
  8
SK1
100
AcDbLine
 10
1.953987871165
 20
-1.7905
 30
0.0
 11
1.953987871165
 21
-0.804086040245
 31
0.0
  0
LINE
  5
4F4
330
30
100
AcDbEntity
  8
SK1
100
AcDbLine
 10
1.953987871165
 20
-0.804086040245
 30
0.0
 11
6.753987871165
 21
-0.804086040245
 31
0.0
  0
LINE
  5
4F5
330
30
100
AcDbEntity
  8
SK1
100
AcDbLine
 10
6.753987871165
 20
-0.804086040245
 30
0.0
 11
1.953987871165
 21
-1.7905
 31
0.0
  0
LINE
  5
4F6
330
30
100
AcDbEntity
  8
SK1
100
AcDbLine
 10
6.753987871165
 20
-1.7905
 30
0.0
 11
1.953987871165
 21
-0.804086040245
 31
0.0
  0
LINE
  5
4F7
330
30
100
AcDbEntity
  8
INFTOTAL
100
AcDbLine
 10
-15.0
 20
45.0
 30
0.0
 11
106.0
 21
45.0
 31
0.0
  0
LINE
  5
4F8
330
30
100
AcDbEntity
  8
INFTOTAL
100
AcDbLine
 10
106.0
 20
45.0
 30
0.0
 11
106.0
 21
-45.0
 31
0.0
  0
LINE
  5
4F9
330
30
100
AcDbEntity
  8
INFTOTAL
100
AcDbLine
 10
106.0
 20
-45.0
 30
0.0
 11
-15.0
 21
-45.0
 31
0.0
  0
LINE
  5
4FA
330
30
100
AcDbEntity
  8
INFTOTAL
100
AcDbLine
 10
-15.0
 20
-45.0
 30
0.0
 11
-15.0
 21
45.0
 31
0.0
  0
DIMENSION
  5
106AC0B
330
30
100
AcDbEntity
  8
2
100
AcDbDimension
  2
*D8
 10
86.0
 20
1.540000000000003
 30
0.0
 11
86.0
 21
15.69525
 31
0.0
 70
   160
  1
%%c<>
 71
     5
 42
3.08
  3
STANDARD
100
AcDbAlignedDimension
 13
57.953987871165
 23
-1.54
 33
0.0
 14
57.953987871165
 24
1.54
 34
0.0
 50
-90.0
100
AcDbRotatedDimension
1001
ACAD
1000
DSTYLE
1002
{
1070
   271
1070
     2
1070
   279
1070
     0
1070
    74
1070
     0
1002
}
  0
DIMENSION
  5
106AC38
330
30
100
AcDbEntity
  8
2
100
AcDbDimension
  2
*D10
 10
56.553987871165
 20
-16.0
 30
0.0
 11
69.0
 21
-16.0
 31
0.0
 70
   160
  1
<>
 71
     5
 42
1.399999999999999
  3
STANDARD
100
AcDbAlignedDimension
 13
57.953987871165
 23
-1.54
 33
0.0
 14
56.553987871165
 24
-1.75
 34
0.0
100
AcDbRotatedDimension
1001
ACAD
1000
DSTYLE
1002
{
1070
   271
1070
     1
1070
   279
1070
     0
1070
    74
1070
     0
1002
}
  0
DIMENSION
  5
106AC6B
330
30
100
AcDbEntity
  8
2
100
AcDbDimension
  2
*D12
 10
94.0
 20
1.750000000000004
 30
0.0
 11
94.0
 21
21.899
 31
0.0
 70
   160
  1
M3.5X0.35
 71
     5
 42
3.5
  3
STANDARD
100
AcDbAlignedDimension
 13
56.553987871165
 23
-1.75
 33
0.0
 14
56.553987871165
 24
1.75
 34
0.0
 50
-90.0
100
AcDbRotatedDimension
1001
ACAD
1000
DSTYLE
1002
{
1070
   271
1070
     2
1070
   279
1070
     0
1070
    74
1070
     0
1002
}
  0
DIMENSION
  5
106AC96
330
30
100
AcDbEntity
  8
SK2
100
AcDbDimension
  2
*D14
 10
1.953987871164999
 20
35.0
 30
0.0
 11
11.544295416988
 21
35.0
 31
0.0
 70
   160
  1
<>
 71
     5
 42
19.180615091646
  3
STANDARD
100
AcDbAlignedDimension
 13
21.134602962811
 23
1.7905
 33
0.0
 14
1.953987871165
 24
1.7905
 34
0.0
100
AcDbRotatedDimension
1001
ACAD
1000
DSTYLE
1002
{
1070
   271
1070
     1
1070
   279
1070
     0
1070
    74
1070
     0
1002
}
  0
ENDSEC
  0
SECTION
  2
OBJECTS
  0
DICTIONARY
  5
4FB
330
0
100
AcDbDictionary
281
     1
  3
ACAD_GROUP
350
4FC
  3
ACAD_IMAGE_VARS
350
106ABDF
  3
ACAD_LAYOUT
350
106AB97
  3
ACAD_MATERIAL
350
106ABBC
  3
ACAD_MLEADERSTYLE
350
106ABDB
  3
ACAD_MLINESTYLE
350
106AB92
  3
ACAD_PLOTSETTINGS
350
106AB94
  3
ACAD_PLOTSTYLENAME
350
106AB95
  3
ACAD_SCALELIST
350
106AB9A
  3
ACAD_TABLESTYLE
350
106ABD9
  3
ACAD_VISUALSTYLE
350
106ABC0
  3
AcDbVariableDictionary
350
106ACA5
  3
APPDATA
350
106ABDD
  3
DWGPROPS
350
106ACED
  3
FX_DICT_DIMENSION_PALETTE
350
106AC47
  3
PRINTCONFIG
350
106ACEA
  0
DICTIONARY
  5
106ACEE
330
2
100
AcDbDictionary
280
     1
281
     1
  3
ACAD_XREC_ROUNDTRIP
360
106ACEF
  0
DICTIONARY
  5
106ACA3
330
30
100
AcDbDictionary
280
     1
281
     1
  3
DIM_BOUNDING_BOXES_V1
360
106ACA4
  0
DICTIONARY
  5
4FC
102
{ACAD_REACTORS
330
4FB
102
}
330
4FB
100
AcDbDictionary
281
     1
  0
RASTERVARIABLES
  5
106ABDF
102
{ACAD_REACTORS
330
4FB
102
}
330
4FB
100
AcDbRasterVariables
 90
        0
 70
     1
 71
     1
 72
     0
  0
DICTIONARY
  5
106AB97
102
{ACAD_REACTORS
330
4FB
102
}
330
4FB
100
AcDbDictionary
281
     1
  3
Model
350
106AB98
  3
シート 1
350
106AB99
  0
DICTIONARY
  5
106ABBC
102
{ACAD_REACTORS
330
4FB
102
}
330
4FB
100
AcDbDictionary
281
     1
  3
ByBlock
350
106ABBE
  3
ByLayer
350
106ABBD
  3
Global
350
106ABBF
  0
DICTIONARY
  5
106ABDB
102
{ACAD_REACTORS
330
4FB
102
}
330
4FB
100
AcDbDictionary
281
     1
  3
Standard
350
106ABDC
  0
DICTIONARY
  5
106AB92
102
{ACAD_REACTORS
330
4FB
102
}
330
4FB
100
AcDbDictionary
281
     1
  3
Standard
350
106AB93
  0
DICTIONARY
  5
106AB94
102
{ACAD_REACTORS
330
4FB
102
}
330
4FB
100
AcDbDictionary
281
     1
  0
ACDBDICTIONARYWDFLT
  5
106AB95
102
{ACAD_REACTORS
330
4FB
102
}
330
4FB
100
AcDbDictionary
281
     1
  3
Normal
350
106AB96
100
AcDbDictionaryWithDefault
340
106AB96
  0
DICTIONARY
  5
106AB9A
102
{ACAD_REACTORS
330
4FB
102
}
330
4FB
100
AcDbDictionary
281
     1
  3
A0
350
106AB9B
  3
A1
350
106AB9C
  3
A2
350
106AB9D
  3
A3
350
106AB9E
  3
A4
350
106AB9F
  3
A5
350
106ABA0
  3
A6
350
106ABA1
  3
A7
350
106ABA2
  3
A8
350
106ABA3
  3
A9
350
106ABA4
  3
B0
350
106ABA5
  3
B1
350
106ABA6
  3
B2
350
106ABA7
  3
B3
350
106ABA8
  3
B4
350
106ABA9
  3
B5
350
106ABAA
  3
B6
350
106ABAB
  3
B7
350
106ABAC
  3
B8
350
106ABAD
  3
B9
350
106ABAE
  3
C0
350
106ABAF
  3
C1
350
106ABB0
  3
C2
350
106ABB1
  3
C3
350
106ABB2
  3
C4
350
106ABB3
  3
C5
350
106ABB4
  3
C6
350
106ABB5
  3
C7
350
106ABB6
  3
C8
350
106ABB7
  3
C9
350
106ABB8
  3
D0
350
106ABB9
  3
D1
350
106ABBA
  3
D2
350
106ABBB
  0
DICTIONARY
  5
106ABD9
102
{ACAD_REACTORS
330
4FB
102
}
330
4FB
100
AcDbDictionary
281
     1
  3
Standard
350
106ABDA
  0
DICTIONARY
  5
106ABC0
102
{ACAD_REACTORS
330
4FB
102
}
330
4FB
100
AcDbDictionary
281
     1
  3
2dWireframe
350
106ABC5
  3
Basic
350
106ABC8
  3
Brighten
350
106ABCC
  3
ColorChange
350
106ABD0
  3
Conceptual
350
106ABCA
  3
Dim
350
106ABCB
  3
EdgeColorOff
350
106ABD3
  3
Facepattern
350
106ABCF
  3
Flat
350
106ABC1
  3
FlatWithEdges
350
106ABC2
  3
Gouraud
350
106ABC3
  3
GouraudWithEdges
350
106ABC4
  3
Hidden
350
106ABC7
  3
JitterOff
350
106ABD1
  3
Linepattern
350
106ABCE
  3
OverhangOff
350
106ABD2
  3
Realistic
350
106ABC9
  3
Shaded
350
106ABD8
  3
Shaded with edges
350
106ABD7
  3
Shades of Gray
350
106ABD4
  3
Sketchy
350
106ABD5
  3
Thicken
350
106ABCD
  3
Wireframe
350
106ABC6
  3
X-Ray
350
106ABD6
  0
DICTIONARY
  5
106ACA5
102
{ACAD_REACTORS
330
4FB
102
}
330
4FB
100
AcDbDictionary
281
     1
  3
CANNOSCALE
350
106ACF0
  3
CMLEADERSTYLE
350
106ACA7
  3
CTABLESTYLE
350
106ACA6
  3
DIMASSOC
350
106ACAA
  3
HIDETEXT
350
106ACAB
  3
MSLTSCALE
350
106ACB0
  0
DICTIONARY
  5
106ABDD
102
{ACAD_REACTORS
330
4FB
102
}
330
4FB
100
AcDbDictionary
281
     1
  0
XRECORD
  5
106ACED
102
{ACAD_REACTORS
330
4FB
102
}
330
4FB
100
AcDbXrecord
280
     1
  1
DWGPROPS COOKIE
  2

  3

  4

  6

  7

  8
usr2460
  9

300
=
301
=
302
=
303
=
304
=
305
=
306
=
307
=
308
=
309
=
 40
0.0
 41
0.0
 42
2460864.300453843
  1

 90
        0
  0
DICTIONARY
  5
106AC47
102
{ACAD_REACTORS
330
4FB
102
}
330
4FB
100
AcDbDictionary
281
     1
1001
FX_DIMP_FAV_VERSION
1071
        1
  0
DICTIONARYVAR
  5
106ACEA
102
{ACAD_REACTORS
330
4FB
102
}
330
4FB
100
DictionaryVariables
280
     0
  1
0
  0
XRECORD
  5
106ACEF
102
{ACAD_REACTORS
330
106ACEE
102
}
330
106ACEE
100
AcDbXrecord
280
     1
102
VTR_0.000_0.000_1.000_1.000_VISUALSTYLE
340
106ABC5
102
VTR_0.000_0.000_1.000_1.000_GRIDDISPLAY
 70
     3
102
VTR_0.000_0.000_1.000_1.000_GRIDMAJOR
 70
     5
102
VTR_0.000_0.000_1.000_1.000_DEFAULTLIGHTING
280
     1
102
VTR_0.000_0.000_1.000_1.000_DEFAULTLIGHTINGTYPE
 70
     1
102
VTR_0.000_0.000_1.000_1.000_BRIGHTNESS
141
0.0
102
VTR_0.000_0.000_1.000_1.000_CONTRAST
142
0.0
  0
DICTIONARY
  5
106ACA4
102
{ACAD_REACTORS
330
106ACA3
102
}
330
106ACA3
100
AcDbDictionary
281
     1
  0
LAYOUT
  5
106AB98
102
{ACAD_REACTORS
330
106AB97
102
}
330
106AB97
100
AcDbPlotSettings
  1

  2
none_device
  4
Letter_(8.50_x_11.00_Inches)
  6

 40
6.35
 41
6.35
 42
6.35
 43
6.35
 44
215.9
 45
279.4
 46
0.0
 47
0.0
 48
0.0
 49
0.0
140
0.0
141
0.0
142
1.0
143
2.21959459445662
 70
  1712
 72
     0
 73
     0
 74
     0
  7

 75
     0
147
0.4505327245333333
148
-39.40881537143161
149
0.0
100
AcDbLayout
  1
Model
 70
     1
 71
     0
 10
0.0
 20
0.0
 11
12.0
 21
9.0
 12
0.0
 22
0.0
 32
0.0
 14
-15.0
 24
-45.0
 34
0.0
 15
106.0
 25
45.0
 35
0.0
146
0.0
 13
0.0
 23
0.0
 33
0.0
 16
1.0
 26
0.0
 36
0.0
 17
0.0
 27
1.0
 37
0.0
 76
     0
330
30
331
106AB91
  0
LAYOUT
  5
106AB99
102
{ACAD_REACTORS
330
106AB97
102
}
330
106AB97
100
AcDbPlotSettings
  1

  2
none_device
  4

  6

 40
0.0
 41
0.0
 42
0.0
 43
0.0
 44
0.0
 45
0.0
 46
0.0
 47
0.0
 48
0.0
 49
0.0
140
0.0
141
0.0
142
1.0
143
1.0
 70
   688
 72
     0
 73
     0
 74
     5
  7

 75
    16
147
1.0
148
0.0
149
0.0
100
AcDbLayout
  1
シート 1
 70
     1
 71
     1
 10
0.0
 20
0.0
 11
0.0
 21
0.0
 12
0.0
 22
0.0
 32
0.0
 14
1.000000000000000E+20
 24
1.000000000000000E+20
 34
1.000000000000000E+20
 15
-1.000000000000000E+20
 25
-1.000000000000000E+20
 35
-1.000000000000000E+20
146
0.0
 13
0.0
 23
0.0
 33
0.0
 16
1.0
 26
0.0
 36
0.0
 17
0.0
 27
1.0
 37
0.0
 76
     0
330
31
  0
MATERIAL
  5
106ABBE
102
{ACAD_REACTORS
330
106ABBC
102
}
102
{ACAD_XDICTIONARY
360
106ACF1
102
}
330
106ABBC
100
AcDbMaterial
  1
ByBlock
  0
MATERIAL
  5
106ABBD
102
{ACAD_REACTORS
330
106ABBC
102
}
102
{ACAD_XDICTIONARY
360
106ACF3
102
}
330
106ABBC
100
AcDbMaterial
  1
ByLayer
  0
MATERIAL
  5
106ABBF
102
{ACAD_REACTORS
330
106ABBC
102
}
102
{ACAD_XDICTIONARY
360
106ACF5
102
}
330
106ABBC
100
AcDbMaterial
  1
Global
  0
MLEADERSTYLE
  5
106ABDC
102
{ACAD_REACTORS
330
106ABDB
102
}
102
{ACAD_XDICTIONARY
360
106ACF7
102
}
330
106ABDB
100
AcDbMLeaderStyle
170
     2
171
     1
172
     0
 90
        2
 40
0.0
 41
0.0
173
     1
 91
-1056964608
340
4
 92
       -2
290
     1
 42
0.09
291
     1
 43
0.36
  3
Standard
341
0
 44
0.18
300

342
28
174
     1
178
     1
175
     1
176
     0
 93
-1056964608
 45
0.18
292
     0
297
     0
 46
0.18
343
0
 94
-1056964608
 47
1.0
 49
1.0
140
1.0
293
     1
141
0.0
294
     1
177
     0
142
1.0
295
     0
296
     0
143
0.125
1001
ACAD_MLEADERVER
1070
     2
  0
MLINESTYLE
  5
106AB93
102
{ACAD_REACTORS
330
106AB92
102
}
330
106AB92
100
AcDbMlineStyle
  2
Standard
 70
     0
  3

 62
   256
 51
90.0
 52
90.0
 71
     2
 49
0.5
 62
   256
  6
BYLAYER
 49
-0.5
 62
   256
  6
BYLAYER
  0
ACDBPLACEHOLDER
  5
106AB96
102
{ACAD_REACTORS
330
106AB95
102
}
330
106AB95
  0
SCALE
  5
106AB9B
102
{ACAD_REACTORS
330
106AB9A
102
}
330
106AB9A
100
AcDbScale
 70
     0
300
1:1
140
1.0
141
1.0
290
     1
  0
SCALE
  5
106AB9C
102
{ACAD_REACTORS
330
106AB9A
102
}
330
106AB9A
100
AcDbScale
 70
     0
300
1:2
140
1.0
141
2.0
290
     0
  0
SCALE
  5
106AB9D
102
{ACAD_REACTORS
330
106AB9A
102
}
330
106AB9A
100
AcDbScale
 70
     0
300
1:4
140
1.0
141
4.0
290
     0
  0
SCALE
  5
106AB9E
102
{ACAD_REACTORS
330
106AB9A
102
}
330
106AB9A
100
AcDbScale
 70
     0
300
1:5
140
1.0
141
5.0
290
     0
  0
SCALE
  5
106AB9F
102
{ACAD_REACTORS
330
106AB9A
102
}
330
106AB9A
100
AcDbScale
 70
     0
300
1:8
140
1.0
141
8.0
290
     0
  0
SCALE
  5
106ABA0
102
{ACAD_REACTORS
330
106AB9A
102
}
330
106AB9A
100
AcDbScale
 70
     0
300
1:10
140
1.0
141
10.0
290
     0
  0
SCALE
  5
106ABA1
102
{ACAD_REACTORS
330
106AB9A
102
}
330
106AB9A
100
AcDbScale
 70
     0
300
1:16
140
1.0
141
16.0
290
     0
  0
SCALE
  5
106ABA2
102
{ACAD_REACTORS
330
106AB9A
102
}
330
106AB9A
100
AcDbScale
 70
     0
300
1:20
140
1.0
141
20.0
290
     0
  0
SCALE
  5
106ABA3
102
{ACAD_REACTORS
330
106AB9A
102
}
330
106AB9A
100
AcDbScale
 70
     0
300
1:30
140
1.0
141
30.0
290
     0
  0
SCALE
  5
106ABA4
102
{ACAD_REACTORS
330
106AB9A
102
}
330
106AB9A
100
AcDbScale
 70
     0
300
1:40
140
1.0
141
40.0
290
     0
  0
SCALE
  5
106ABA5
102
{ACAD_REACTORS
330
106AB9A
102
}
330
106AB9A
100
AcDbScale
 70
     0
300
1:50
140
1.0
141
50.0
290
     0
  0
SCALE
  5
106ABA6
102
{ACAD_REACTORS
330
106AB9A
102
}
330
106AB9A
100
AcDbScale
 70
     0
300
1:100
140
1.0
141
100.0
290
     0
  0
SCALE
  5
106ABA7
102
{ACAD_REACTORS
330
106AB9A
102
}
330
106AB9A
100
AcDbScale
 70
     0
300
2:1
140
2.0
141
1.0
290
     0
  0
SCALE
  5
106ABA8
102
{ACAD_REACTORS
330
106AB9A
102
}
330
106AB9A
100
AcDbScale
 70
     0
300
4:1
140
4.0
141
1.0
290
     0
  0
SCALE
  5
106ABA9
102
{ACAD_REACTORS
330
106AB9A
102
}
330
106AB9A
100
AcDbScale
 70
     0
300
8:1
140
8.0
141
1.0
290
     0
  0
SCALE
  5
106ABAA
102
{ACAD_REACTORS
330
106AB9A
102
}
330
106AB9A
100
AcDbScale
 70
     0
300
10:1
140
10.0
141
1.0
290
     0
  0
SCALE
  5
106ABAB
102
{ACAD_REACTORS
330
106AB9A
102
}
330
106AB9A
100
AcDbScale
 70
     0
300
100:1
140
100.0
141
1.0
290
     0
  0
SCALE
  5
106ABAC
102
{ACAD_REACTORS
330
106AB9A
102
}
330
106AB9A
100
AcDbScale
 70
     0
300
1/128" = 1'-0"
140
0.0078125
141
12.0
290
     0
  0
SCALE
  5
106ABAD
102
{ACAD_REACTORS
330
106AB9A
102
}
330
106AB9A
100
AcDbScale
 70
     0
300
1/64" = 1'-0"
140
0.015625
141
12.0
290
     0
  0
SCALE
  5
106ABAE
102
{ACAD_REACTORS
330
106AB9A
102
}
330
106AB9A
100
AcDbScale
 70
     0
300
1/32" = 1'-0"
140
0.03125
141
12.0
290
     0
  0
SCALE
  5
106ABAF
102
{ACAD_REACTORS
330
106AB9A
102
}
330
106AB9A
100
AcDbScale
 70
     0
300
1/16" = 1'-0"
140
0.0625
141
12.0
290
     0
  0
SCALE
  5
106ABB0
102
{ACAD_REACTORS
330
106AB9A
102
}
330
106AB9A
100
AcDbScale
 70
     0
300
3/32" = 1'-0"
140
0.09375
141
12.0
290
     0
  0
SCALE
  5
106ABB1
102
{ACAD_REACTORS
330
106AB9A
102
}
330
106AB9A
100
AcDbScale
 70
     0
300
1/8" = 1'-0"
140
0.125
141
12.0
290
     0
  0
SCALE
  5
106ABB2
102
{ACAD_REACTORS
330
106AB9A
102
}
330
106AB9A
100
AcDbScale
 70
     0
300
3/16" = 1'-0"
140
0.1875
141
12.0
290
     0
  0
SCALE
  5
106ABB3
102
{ACAD_REACTORS
330
106AB9A
102
}
330
106AB9A
100
AcDbScale
 70
     0
300
1/4" = 1'-0"
140
0.25
141
12.0
290
     0
  0
SCALE
  5
106ABB4
102
{ACAD_REACTORS
330
106AB9A
102
}
330
106AB9A
100
AcDbScale
 70
     0
300
3/8" = 1'-0"
140
0.375
141
12.0
290
     0
  0
SCALE
  5
106ABB5
102
{ACAD_REACTORS
330
106AB9A
102
}
330
106AB9A
100
AcDbScale
 70
     0
300
1/2" = 1'-0"
140
0.5
141
12.0
290
     0
  0
SCALE
  5
106ABB6
102
{ACAD_REACTORS
330
106AB9A
102
}
330
106AB9A
100
AcDbScale
 70
     0
300
3/4" = 1'-0"
140
0.75
141
12.0
290
     0
  0
SCALE
  5
106ABB7
102
{ACAD_REACTORS
330
106AB9A
102
}
330
106AB9A
100
AcDbScale
 70
     0
300
1" = 1'-0"
140
1.0
141
12.0
290
     0
  0
SCALE
  5
106ABB8
102
{ACAD_REACTORS
330
106AB9A
102
}
330
106AB9A
100
AcDbScale
 70
     0
300
1-1/2" = 1'-0"
140
1.5
141
12.0
290
     0
  0
SCALE
  5
106ABB9
102
{ACAD_REACTORS
330
106AB9A
102
}
330
106AB9A
100
AcDbScale
 70
     0
300
3" = 1'-0"
140
3.0
141
12.0
290
     0
  0
SCALE
  5
106ABBA
102
{ACAD_REACTORS
330
106AB9A
102
}
330
106AB9A
100
AcDbScale
 70
     0
300
6" = 1'-0"
140
6.0
141
12.0
290
     0
  0
SCALE
  5
106ABBB
102
{ACAD_REACTORS
330
106AB9A
102
}
330
106AB9A
100
AcDbScale
 70
     0
300
1'-0" = 1'-0"
140
12.0
141
12.0
290
     0
  0
TABLESTYLE
  5
106ABDA
102
{ACAD_REACTORS
330
106ABD9
102
}
330
106ABD9
100
AcDbTableStyle
  3
Standard
 70
     0
 71
     0
 40
0.06
 41
0.06
280
     0
281
     0
  7
Monospac821 BT
140
0.18
170
     2
 62
     0
 63
   257
283
     0
274
    -2
284
     1
 64
     0
275
    -2
285
     1
 65
     0
276
    -2
286
     1
 66
     0
277
    -2
287
     1
 67
     0
278
    -2
288
     1
 68
     0
279
    -2
289
     1
 69
     0
  7
Monospac821 BT
140
0.25
170
     5
 62
     0
 63
   257
283
     0
274
    -2
284
     1
 64
     0
275
    -2
285
     1
 65
     0
276
    -2
286
     1
 66
     0
277
    -2
287
     1
 67
     0
278
    -2
288
     1
 68
     0
279
    -2
289
     1
 69
     0
  7
Monospac821 BT
140
0.18
170
     5
 62
     0
 63
   257
283
     0
274
    -2
284
     1
 64
     0
275
    -2
285
     1
 65
     0
276
    -2
286
     1
 66
     0
277
    -2
287
     1
 67
     0
278
    -2
288
     1
 68
     0
279
    -2
289
     1
 69
     0
  0
VISUALSTYLE
  5
106ABC5
102
{ACAD_REACTORS
330
106ABC0
102
}
102
{ACAD_XDICTIONARY
360
106ACF9
102
}
330
106ABC0
100
AcDbVisualStyle
  2
2dWireframe
 70
     4
 71
     0
 72
     2
 73
     0
 90
        0
 40
0.6
 41
30.0
 62
     5
 63
     7
 74
     1
 91
        4
 64
     7
 65
   257
 75
     1
175
     1
 42
1.0
 92
        0
 66
   257
 43
1.0
 76
     1
 77
     6
 78
     2
 67
     7
 79
     5
170
     0
171
     0
290
     0
174
     0
 93
        1
 44
0.0
173
     0
291
     0
 45
0.0
1001
ACAD
1000
AcDbSavedByObjectVersion
1070
     0
  0
VISUALSTYLE
  5
106ABC8
102
{ACAD_REACTORS
330
106ABC0
102
}
102
{ACAD_XDICTIONARY
360
106ACFB
102
}
330
106ABC0
100
AcDbVisualStyle
  2
Basic
 70
     7
 71
     1
 72
     0
 73
     1
 90
        0
 40
0.6
 41
30.0
 62
     5
 63
     7
 74
     0
 91
        4
 64
     7
 65
   257
 75
     1
175
     1
 42
1.0
 92
        8
 66
     7
 43
1.0
 76
     1
 77
     6
 78
     2
 67
     7
 79
     5
170
     0
171
     0
290
     0
174
     0
 93
        1
 44
0.0
173
     0
291
     1
 45
0.0
1001
ACAD
1000
AcDbSavedByObjectVersion
1070
     0
  0
VISUALSTYLE
  5
106ABCC
102
{ACAD_REACTORS
330
106ABC0
102
}
102
{ACAD_XDICTIONARY
360
106ACFD
102
}
330
106ABC0
100
AcDbVisualStyle
  2
Brighten
 70
    12
 71
     2
 72
     2
 73
     0
 90
        0
 40
0.6
 41
30.0
 62
     5
 63
     7
 74
     1
 91
        4
 64
     7
 65
   257
 75
     1
175
     1
 42
1.0
 92
        8
 66
     7
 43
1.0
 76
     1
 77
     6
 78
     2
 67
     7
 79
     5
170
     0
171
     0
290
     0
174
     0
 93
        1
 44
50.0
173
     0
291
     1
 45
0.0
1001
ACAD
1000
AcDbSavedByObjectVersion
1070
     0
  0
VISUALSTYLE
  5
106ABD0
102
{ACAD_REACTORS
330
106ABC0
102
}
102
{ACAD_XDICTIONARY
360
106ACFF
102
}
330
106ABC0
100
AcDbVisualStyle
  2
ColorChange
 70
    16
 71
     2
 72
     2
 73
     3
 90
        0
 40
0.6
 41
30.0
 62
     5
 63
     8
 74
     1
 91
        4
 64
     7
 65
   257
 75
     1
175
     1
 42
1.0
 92
        8
 66
     8
 43
1.0
 76
     1
 77
     6
 78
     2
 67
     7
 79
     5
170
     0
171
     0
290
     0
174
     0
 93
        1
 44
0.0
173
     0
291
     1
 45
0.0
1001
ACAD
1000
AcDbSavedByObjectVersion
1070
     0
  0
VISUALSTYLE
  5
106ABCA
102
{ACAD_REACTORS
330
106ABC0
102
}
102
{ACAD_XDICTIONARY
360
106AD01
102
}
330
106ABC0
100
AcDbVisualStyle
  2
Conceptual
 70
     9
 71
     3
 72
     2
 73
     0
 90
        0
 40
0.6
 41
30.0
 62
     5
 63
     7
 74
     2
 91
        2
 64
     7
 65
   257
 75
     1
175
     1
 42
179.0
 92
        8
 66
     7
 43
1.0
 76
     1
 77
     6
 78
     2
 67
     7
 79
     3
170
     0
171
     0
290
     0
174
     0
 93
        1
 44
0.0
173
     0
291
     0
 45
0.0
1001
ACAD
1000
AcDbSavedByObjectVersion
1070
     0
  0
VISUALSTYLE
  5
106ABCB
102
{ACAD_REACTORS
330
106ABC0
102
}
102
{ACAD_XDICTIONARY
360
106AD03
102
}
330
106ABC0
100
AcDbVisualStyle
  2
Dim
 70
    11
 71
     2
 72
     2
 73
     0
 90
        0
 40
0.6
 41
30.0
 62
     5
 63
     7
 74
     1
 91
        4
 64
     7
 65
   257
 75
     1
175
     1
 42
1.0
 92
        8
 66
     7
 43
1.0
 76
     1
 77
     6
 78
     2
 67
     7
 79
     5
170
     0
171
     0
290
     0
174
     0
 93
        1
 44
-50.0
173
     0
291
     1
 45
0.0
1001
ACAD
1000
AcDbSavedByObjectVersion
1070
     0
  0
VISUALSTYLE
  5
106ABD3
102
{ACAD_REACTORS
330
106ABC0
102
}
102
{ACAD_XDICTIONARY
360
106AD05
102
}
330
106ABC0
100
AcDbVisualStyle
  2
EdgeColorOff
 70
    22
 71
     2
 72
     2
 73
     0
 90
        0
 40
0.6
 41
30.0
 62
     5
 63
     7
 74
     1
 91
        4
 64
     7
 65
   257
 75
     1
175
     1
 42
1.0
 92
        8
 66
     7
 43
1.0
 76
     1
 77
     6
 78
     2
 67
     7
 79
     5
170
     0
171
     0
290
     0
174
     0
 93
        1
 44
0.0
173
     0
291
     1
 45
0.0
1001
ACAD
1000
AcDbSavedByObjectVersion
1070
     0
  0
VISUALSTYLE
  5
106ABCF
102
{ACAD_REACTORS
330
106ABC0
102
}
102
{ACAD_XDICTIONARY
360
106AD07
102
}
330
106ABC0
100
AcDbVisualStyle
  2
Facepattern
 70
    15
 71
     2
 72
     2
 73
     0
 90
        0
 40
0.6
 41
30.0
 62
     5
 63
     7
 74
     1
 91
        4
 64
     7
 65
   257
 75
     1
175
     1
 42
1.0
 92
        8
 66
     7
 43
1.0
 76
     1
 77
     6
 78
     2
 67
     7
 79
     5
170
     0
171
     0
290
     0
174
     0
 93
        1
 44
0.0
173
     0
291
     1
 45
0.0
1001
ACAD
1000
AcDbSavedByObjectVersion
1070
     0
  0
VISUALSTYLE
  5
106ABC1
102
{ACAD_REACTORS
330
106ABC0
102
}
102
{ACAD_XDICTIONARY
360
106AD09
102
}
330
106ABC0
100
AcDbVisualStyle
  2
Flat
 70
     0
 71
     2
 72
     1
 73
     1
 90
        2
 40
0.6
 41
30.0
 62
     5
 63
     7
 74
     0
 91
        0
 64
     7
 65
   257
 75
     1
175
     1
 42
1.0
 92
        8
 66
     7
 43
1.0
 76
     1
 77
     6
 78
     2
 67
     7
 79
     5
170
     0
171
     0
290
     0
174
     0
 93
       13
 44
0.0
173
     0
291
     1
 45
0.0
1001
ACAD
1000
AcDbSavedByObjectVersion
1070
     0
  0
VISUALSTYLE
  5
106ABC2
102
{ACAD_REACTORS
330
106ABC0
102
}
102
{ACAD_XDICTIONARY
360
106AD0B
102
}
330
106ABC0
100
AcDbVisualStyle
  2
FlatWithEdges
 70
     1
 71
     2
 72
     1
 73
     1
 90
        2
 40
0.6
 41
30.0
 62
     5
 63
     7
 74
     1
 91
        0
 64
     7
 65
   257
 75
     1
175
     1
 42
1.0
 92
        0
 66
   257
 43
1.0
 76
     1
 77
     6
 78
     2
 67
     7
 79
     5
170
     0
171
     0
290
     0
174
     0
 93
       13
 44
0.0
173
     0
291
     1
 45
0.0
1001
ACAD
1000
AcDbSavedByObjectVersion
1070
     0
  0
VISUALSTYLE
  5
106ABC3
102
{ACAD_REACTORS
330
106ABC0
102
}
102
{ACAD_XDICTIONARY
360
106AD0D
102
}
330
106ABC0
100
AcDbVisualStyle
  2
Gouraud
 70
     2
 71
     2
 72
     2
 73
     1
 90
        2
 40
0.6
 41
30.0
 62
     5
 63
     7
 74
     0
 91
        0
 64
     7
 65
   257
 75
     1
175
     1
 42
1.0
 92
        0
 66
     7
 43
1.0
 76
     1
 77
     6
 78
     2
 67
     7
 79
     5
170
     0
171
     0
290
     0
174
     0
 93
       13
 44
0.0
173
     0
291
     1
 45
0.0
1001
ACAD
1000
AcDbSavedByObjectVersion
1070
     0
  0
VISUALSTYLE
  5
106ABC4
102
{ACAD_REACTORS
330
106ABC0
102
}
102
{ACAD_XDICTIONARY
360
106AD0F
102
}
330
106ABC0
100
AcDbVisualStyle
  2
GouraudWithEdges
 70
     3
 71
     2
 72
     2
 73
     1
 90
        2
 40
0.6
 41
30.0
 62
     5
 63
     7
 74
     1
 91
        0
 64
     7
 65
   257
 75
     1
175
     1
 42
1.0
 92
        0
 66
   257
 43
1.0
 76
     1
 77
     6
 78
     2
 67
     7
 79
     5
170
     0
171
     0
290
     0
174
     0
 93
       13
 44
0.0
173
     0
291
     1
 45
0.0
1001
ACAD
1000
AcDbSavedByObjectVersion
1070
     0
  0
VISUALSTYLE
  5
106ABC7
102
{ACAD_REACTORS
330
106ABC0
102
}
102
{ACAD_XDICTIONARY
360
106AD11
102
}
330
106ABC0
100
AcDbVisualStyle
  2
Hidden
 70
     6
 71
     1
 72
     2
 73
     2
 90
        0
 40
0.6
 41
30.0
 62
     5
 63
     7
 74
     2
 91
        2
 64
     7
 65
   257
 75
     2
175
     1
 42
40.0
 92
        0
 66
   257
 43
1.0
 76
     1
 77
     6
 78
     2
 67
     7
 79
     3
170
     0
171
     0
290
     0
174
     0
 93
        1
 44
0.0
173
     0
291
     0
 45
0.0
1001
ACAD
1000
AcDbSavedByObjectVersion
1070
     0
  0
VISUALSTYLE
  5
106ABD1
102
{ACAD_REACTORS
330
106ABC0
102
}
102
{ACAD_XDICTIONARY
360
106AD13
102
}
330
106ABC0
100
AcDbVisualStyle
  2
JitterOff
 70
    20
 71
     2
 72
     2
 73
     0
 90
        0
 40
0.6
 41
30.0
 62
     5
 63
     7
 74
     1
 91
        4
 64
     7
 65
   257
 75
     1
175
     1
 42
1.0
 92
       10
 66
     7
 43
1.0
 76
     1
 77
     6
 78
     2
 67
     7
 79
     5
170
     0
171
     0
290
     0
174
     0
 93
        1
 44
0.0
173
     0
291
     1
 45
0.0
1001
ACAD
1000
AcDbSavedByObjectVersion
1070
     0
  0
VISUALSTYLE
  5
106ABCE
102
{ACAD_REACTORS
330
106ABC0
102
}
102
{ACAD_XDICTIONARY
360
106AD15
102
}
330
106ABC0
100
AcDbVisualStyle
  2
Linepattern
 70
    14
 71
     2
 72
     2
 73
     0
 90
        0
 40
0.6
 41
30.0
 62
     5
 63
     7
 74
     1
 91
        4
 64
     7
 65
   257
 75
     7
175
     7
 42
1.0
 92
        8
 66
     7
 43
1.0
 76
     1
 77
     6
 78
     2
 67
     7
 79
     5
170
     0
171
     0
290
     0
174
     0
 93
        1
 44
0.0
173
     0
291
     1
 45
0.0
1001
ACAD
1000
AcDbSavedByObjectVersion
1070
     0
  0
VISUALSTYLE
  5
106ABD2
102
{ACAD_REACTORS
330
106ABC0
102
}
102
{ACAD_XDICTIONARY
360
106AD17
102
}
330
106ABC0
100
AcDbVisualStyle
  2
OverhangOff
 70
    21
 71
     2
 72
     2
 73
     0
 90
        0
 40
0.6
 41
30.0
 62
     5
 63
     7
 74
     1
 91
        4
 64
     7
 65
   257
 75
     1
175
     1
 42
1.0
 92
        9
 66
     7
 43
1.0
 76
     1
 77
     6
 78
     2
 67
     7
 79
     5
170
     0
171
     0
290
     0
174
     0
 93
        1
 44
0.0
173
     0
291
     1
 45
0.0
1001
ACAD
1000
AcDbSavedByObjectVersion
1070
     0
  0
VISUALSTYLE
  5
106ABC9
102
{ACAD_REACTORS
330
106ABC0
102
}
102
{ACAD_XDICTIONARY
360
106AD19
102
}
330
106ABC0
100
AcDbVisualStyle
  2
Realistic
 70
     8
 71
     2
 72
     3
 73
     0
 90
        2
 40
0.6
 41
30.0
 62
     5
 63
     7
 74
     0
 91
        0
 64
     7
 65
   257
 75
     1
175
     1
 42
1.0
 92
        8
 66
   257
 43
1.0
 76
     1
 77
     6
 78
     2
 67
     7
 79
     3
170
     0
171
     0
290
     0
174
     0
 93
       13
 44
0.0
173
     0
291
     0
 45
0.0
1001
ACAD
1000
AcDbSavedByObjectVersion
1070
     0
  0
VISUALSTYLE
  5
106ABD8
102
{ACAD_REACTORS
330
106ABC0
102
}
102
{ACAD_XDICTIONARY
360
106AD1B
102
}
330
106ABC0
100
AcDbVisualStyle
  2
Shaded
 70
    27
 71
     2
 72
     2
 73
     1
 90
        2
 40
0.6
 41
30.0
 62
     5
 63
     7
 74
     0
 91
        4
 64
     7
 65
   257
 75
     1
175
     1
 42
1.0
 92
        8
 66
   257
 43
1.0
 76
     1
 77
     6
 78
     2
 67
     8
 79
     3
170
     0
171
     0
290
     0
174
     0
 93
        5
 44
0.0
173
     0
291
     0
 45
0.0
1001
ACAD
1000
AcDbSavedByObjectVersion
1070
     0
  0
VISUALSTYLE
  5
106ABD7
102
{ACAD_REACTORS
330
106ABC0
102
}
102
{ACAD_XDICTIONARY
360
106AD1D
102
}
330
106ABC0
100
AcDbVisualStyle
  2
Shaded with edges
 70
    26
 71
     2
 72
     2
 73
     1
 90
        2
 40
0.6
 41
30.0
 62
     5
 63
     7
 74
     1
 91
       10
 64
     7
 65
   257
 75
     2
175
     1
 42
1.0
 92
        8
 66
   257
 43
1.0
 76
     1
 77
     6
 78
     2
 67
     7
 79
     3
170
     0
171
     0
290
     0
174
     0
 93
        5
 44
0.0
173
     0
291
     0
 45
0.0
1001
ACAD
1000
AcDbSavedByObjectVersion
1070
     0
  0
VISUALSTYLE
  5
106ABD4
102
{ACAD_REACTORS
330
106ABC0
102
}
102
{ACAD_XDICTIONARY
360
106AD1F
102
}
330
106ABC0
100
AcDbVisualStyle
  2
Shades of Gray
 70
    23
 71
     2
 72
     2
 73
     3
 90
        0
 40
0.6
 41
30.0
 62
     5
 63
     7
 74
     2
 91
        2
 64
     7
 65
     7
 75
     1
175
     1
 42
40.0
 92
        8
 66
     7
 43
1.0
 76
     1
 77
     6
 78
     2
 67
     7
 79
     3
170
     0
171
     0
290
     0
174
     0
 93
        1
 44
0.0
173
     0
291
     0
 45
0.0
1001
ACAD
1000
AcDbSavedByObjectVersion
1070
     0
  0
VISUALSTYLE
  5
106ABD5
102
{ACAD_REACTORS
330
106ABC0
102
}
102
{ACAD_XDICTIONARY
360
106AD21
102
}
330
106ABC0
100
AcDbVisualStyle
  2
Sketchy
 70
    24
 71
     1
 72
     2
 73
     2
 90
        0
 40
0.6
 41
30.0
 62
     5
 63
     7
 74
     2
 91
        2
 64
     7
 65
     7
 75
     1
175
     1
 42
40.0
 92
       11
 66
     7
 43
1.0
 76
     1
 77
     6
 78
     2
 67
     7
 79
     6
170
     0
171
     0
290
     0
174
     0
 93
        1
 44
0.0
173
     0
291
     0
 45
0.0
1001
ACAD
1000
AcDbSavedByObjectVersion
1070
     0
  0
VISUALSTYLE
  5
106ABCD
102
{ACAD_REACTORS
330
106ABC0
102
}
102
{ACAD_XDICTIONARY
360
106AD23
102
}
330
106ABC0
100
AcDbVisualStyle
  2
Thicken
 70
    13
 71
     2
 72
     2
 73
     0
 90
        0
 40
0.6
 41
30.0
 62
     5
 63
     7
 74
     1
 91
        4
 64
     7
 65
   257
 75
     1
175
     1
 42
1.0
 92
       12
 66
     7
 43
1.0
 76
     1
 77
     6
 78
     2
 67
     7
 79
     5
170
     0
171
     0
290
     0
174
     0
 93
        1
 44
0.0
173
     0
291
     1
 45
0.0
1001
ACAD
1000
AcDbSavedByObjectVersion
1070
     0
  0
VISUALSTYLE
  5
106ABC6
102
{ACAD_REACTORS
330
106ABC0
102
}
102
{ACAD_XDICTIONARY
360
106AD25
102
}
330
106ABC0
100
AcDbVisualStyle
  2
Wireframe
 70
     5
 71
     0
 72
     2
 73
     0
 90
        0
 40
0.6
 41
30.0
 62
     5
 63
     7
 74
     1
 91
        4
 64
     7
 65
   257
 75
     1
175
     1
 42
1.0
 92
        0
 66
   257
 43
1.0
 76
     1
 77
     6
 78
     2
 67
     7
 79
     3
170
     0
171
     0
290
     0
174
     0
 93
        1
 44
0.0
173
     0
291
     0
 45
0.0
1001
ACAD
1000
AcDbSavedByObjectVersion
1070
     0
  0
VISUALSTYLE
  5
106ABD6
102
{ACAD_REACTORS
330
106ABC0
102
}
102
{ACAD_XDICTIONARY
360
106AD27
102
}
330
106ABC0
100
AcDbVisualStyle
  2
X-Ray
 70
    25
 71
     2
 72
     2
 73
     1
 90
        1
 40
0.5
 41
30.0
 62
     5
 63
     7
 74
     1
 91
        0
 64
     7
 65
   257
 75
     1
175
     1
 42
1.0
 92
        8
 66
     7
 43
1.0
 76
     1
 77
     6
 78
     2
 67
     7
 79
     3
170
     0
171
     0
290
     0
174
     0
 93
       13
 44
0.0
173
     0
291
     0
 45
0.0
1001
ACAD
1000
AcDbSavedByObjectVersion
1070
     0
  0
DICTIONARYVAR
  5
106ACF0
102
{ACAD_REACTORS
330
106ACA5
102
}
330
106ACA5
100
DictionaryVariables
280
     0
  1
1:1
  0
DICTIONARYVAR
  5
106ACA7
102
{ACAD_REACTORS
330
106ACA5
102
}
330
106ACA5
100
DictionaryVariables
280
     0
  1
Standard
  0
DICTIONARYVAR
  5
106ACA6
102
{ACAD_REACTORS
330
106ACA5
102
}
330
106ACA5
100
DictionaryVariables
280
     0
  1
Standard
  0
DICTIONARYVAR
  5
106ACAA
102
{ACAD_REACTORS
330
106ACA5
102
}
330
106ACA5
100
DictionaryVariables
280
     0
  1
2
  0
DICTIONARYVAR
  5
106ACAB
102
{ACAD_REACTORS
330
106ACA5
102
}
330
106ACA5
100
DictionaryVariables
280
     0
  1
1
  0
DICTIONARYVAR
  5
106ACB0
102
{ACAD_REACTORS
330
106ACA5
102
}
330
106ACA5
100
DictionaryVariables
280
     0
  1
1
  0
DICTIONARY
  5
106ACF1
330
106ABBE
100
AcDbDictionary
280
     1
281
     1
  3
ACAD_XREC_ROUNDTRIP
360
106ACF2
  0
DICTIONARY
  5
106ACF3
330
106ABBD
100
AcDbDictionary
280
     1
281
     1
  3
ACAD_XREC_ROUNDTRIP
360
106ACF4
  0
DICTIONARY
  5
106ACF5
330
106ABBF
100
AcDbDictionary
280
     1
281
     1
  3
ACAD_XREC_ROUNDTRIP
360
106ACF6
  0
DICTIONARY
  5
106ACF7
330
106ABDC
100
AcDbDictionary
280
     1
281
     1
  3
ACAD_XREC_ROUNDTRIP
360
106ACF8
  0
DICTIONARY
  5
106ACF9
330
106ABC5
100
AcDbDictionary
280
     1
281
     1
  3
ACAD_XREC_ROUNDTRIP
360
106ACFA
  0
DICTIONARY
  5
106ACFB
330
106ABC8
100
AcDbDictionary
280
     1
281
     1
  3
ACAD_XREC_ROUNDTRIP
360
106ACFC
  0
DICTIONARY
  5
106ACFD
330
106ABCC
100
AcDbDictionary
280
     1
281
     1
  3
ACAD_XREC_ROUNDTRIP
360
106ACFE
  0
DICTIONARY
  5
106ACFF
330
106ABD0
100
AcDbDictionary
280
     1
281
     1
  3
ACAD_XREC_ROUNDTRIP
360
106AD00
  0
DICTIONARY
  5
106AD01
330
106ABCA
100
AcDbDictionary
280
     1
281
     1
  3
ACAD_XREC_ROUNDTRIP
360
106AD02
  0
DICTIONARY
  5
106AD03
330
106ABCB
100
AcDbDictionary
280
     1
281
     1
  3
ACAD_XREC_ROUNDTRIP
360
106AD04
  0
DICTIONARY
  5
106AD05
330
106ABD3
100
AcDbDictionary
280
     1
281
     1
  3
ACAD_XREC_ROUNDTRIP
360
106AD06
  0
DICTIONARY
  5
106AD07
330
106ABCF
100
AcDbDictionary
280
     1
281
     1
  3
ACAD_XREC_ROUNDTRIP
360
106AD08
  0
DICTIONARY
  5
106AD09
330
106ABC1
100
AcDbDictionary
280
     1
281
     1
  3
ACAD_XREC_ROUNDTRIP
360
106AD0A
  0
DICTIONARY
  5
106AD0B
330
106ABC2
100
AcDbDictionary
280
     1
281
     1
  3
ACAD_XREC_ROUNDTRIP
360
106AD0C
  0
DICTIONARY
  5
106AD0D
330
106ABC3
100
AcDbDictionary
280
     1
281
     1
  3
ACAD_XREC_ROUNDTRIP
360
106AD0E
  0
DICTIONARY
  5
106AD0F
330
106ABC4
100
AcDbDictionary
280
     1
281
     1
  3
ACAD_XREC_ROUNDTRIP
360
106AD10
  0
DICTIONARY
  5
106AD11
330
106ABC7
100
AcDbDictionary
280
     1
281
     1
  3
ACAD_XREC_ROUNDTRIP
360
106AD12
  0
DICTIONARY
  5
106AD13
330
106ABD1
100
AcDbDictionary
280
     1
281
     1
  3
ACAD_XREC_ROUNDTRIP
360
106AD14
  0
DICTIONARY
  5
106AD15
330
106ABCE
100
AcDbDictionary
280
     1
281
     1
  3
ACAD_XREC_ROUNDTRIP
360
106AD16
  0
DICTIONARY
  5
106AD17
330
106ABD2
100
AcDbDictionary
280
     1
281
     1
  3
ACAD_XREC_ROUNDTRIP
360
106AD18
  0
DICTIONARY
  5
106AD19
330
106ABC9
100
AcDbDictionary
280
     1
281
     1
  3
ACAD_XREC_ROUNDTRIP
360
106AD1A
  0
DICTIONARY
  5
106AD1B
330
106ABD8
100
AcDbDictionary
280
     1
281
     1
  3
ACAD_XREC_ROUNDTRIP
360
106AD1C
  0
DICTIONARY
  5
106AD1D
330
106ABD7
100
AcDbDictionary
280
     1
281
     1
  3
ACAD_XREC_ROUNDTRIP
360
106AD1E
  0
DICTIONARY
  5
106AD1F
330
106ABD4
100
AcDbDictionary
280
     1
281
     1
  3
ACAD_XREC_ROUNDTRIP
360
106AD20
  0
DICTIONARY
  5
106AD21
330
106ABD5
100
AcDbDictionary
280
     1
281
     1
  3
ACAD_XREC_ROUNDTRIP
360
106AD22
  0
DICTIONARY
  5
106AD23
330
106ABCD
100
AcDbDictionary
280
     1
281
     1
  3
ACAD_XREC_ROUNDTRIP
360
106AD24
  0
DICTIONARY
  5
106AD25
330
106ABC6
100
AcDbDictionary
280
     1
281
     1
  3
ACAD_XREC_ROUNDTRIP
360
106AD26
  0
DICTIONARY
  5
106AD27
330
106ABD6
100
AcDbDictionary
280
     1
281
     1
  3
ACAD_XREC_ROUNDTRIP
360
106AD28
  0
XRECORD
  5
106ACF2
102
{ACAD_REACTORS
330
106ACF1
102
}
330
106ACF1
100
AcDbXrecord
280
     1
102
MATERIAL
148
0.0
149
0.0
149
0.0
 93
        0
 94
      127
282
     0
 72
     1
 77
     1
171
     1
175
     1
179
     1
273
     0
  0
XRECORD
  5
106ACF4
102
{ACAD_REACTORS
330
106ACF3
102
}
330
106ACF3
100
AcDbXrecord
280
     1
102
MATERIAL
148
0.0
149
0.0
149
0.0
 93
        0
 94
      127
282
     0
 72
     1
 77
     1
171
     1
175
     1
179
     1
273
     0
  0
XRECORD
  5
106ACF6
102
{ACAD_REACTORS
330
106ACF5
102
}
330
106ACF5
100
AcDbXrecord
280
     1
102
MATERIAL
148
0.0
149
0.0
149
0.0
 93
        0
 94
      127
282
     0
 72
     1
 77
     1
171
     1
175
     1
179
     1
273
     0
  0
XRECORD
  5
106ACF8
102
{ACAD_REACTORS
330
106ACF7
102
}
330
106ACF7
100
AcDbXrecord
280
     1
102
ACAD_ROUNDTRIP_2010_MLEADER_STYLE
  0
XRECORD
  5
106ACFA
102
{ACAD_REACTORS
330
106ACF9
102
}
330
106ACF9
100
AcDbXrecord
280
     1
102
RTVSPropertyOp0
 70
     1
102
RTVSPropertyOp1
 70
     1
102
RTVSPropertyOp2
 70
     1
102
RTVSPropertyOp3
 70
     1
102
RTVSPropertyOp4
 70
     1
102
RTVSPropertyOp5
 70
     1
102
RTVSPropertyOp6
 70
     1
102
RTVSPropertyOp7
 70
     1
102
RTVSPropertyOp8
 70
     1
102
RTVSPropertyOp9
 70
     1
102
RTVSPropertyOp10
 70
     1
102
RTVSPropertyOp11
 70
     1
102
RTVSPropertyOp12
 70
     1
102
RTVSPropertyOp13
 70
     1
102
RTVSPropertyOp14
 70
     1
102
RTVSPropertyOp15
 70
     1
102
RTVSPropertyOp16
 70
     1
102
RTVSPropertyOp17
 70
     1
102
RTVSPropertyOp18
 70
     1
102
RTVSPropertyOp19
 70
     1
102
RTVSPropertyOp20
 70
     1
102
RTVSPropertyOp21
 70
     1
102
RTVSPropertyOp22
 70
     1
102
RTVSPropertyOp23
 70
     1
102
RTVSPropertyOp24
 70
     1
102
RTVSPropertyOp25
 70
     1
102
RTVSPropertyOp26
 70
     1
102
RTVSPropertyOp27
 70
     1
102
RTVSPropertyOp28
 70
     1
102
RTVSPropertyOp29
 70
     1
102
RTVSPropertyOp30
 70
     1
102
RTVSPropertyOp31
 70
     1
102
RTVSPropertyOp32
 70
     1
102
RTVSPropertyOp33
 70
     1
102
RTVSPropertyOp34
 70
     1
102
RTVSPropertyOp35
 70
     1
102
RTVSPropertyOp36
 70
     1
102
RTVSPropertyOp37
 70
     1
102
RTVSPropertyOp38
 70
     1
102
RTVSPropertyOp39
 70
     1
102
RTVSPropertyOp40
 70
     1
102
RTVSPropertyOp41
 70
     1
102
RTVSPropertyOp42
 70
     1
102
RTVSPropertyOp43
 70
     1
102
RTVSPropertyOp44
 70
     1
102
RTVSPropertyOp45
 70
     1
102
RTVSPropertyOp46
 70
     1
102
RTVSPropertyOp47
 70
     1
102
RTVSPropertyOp48
 70
     1
102
RTVSPropertyOp49
 70
     1
102
RTVSPropertyOp50
 70
     1
102
RTVSPropertyOp51
 70
     0
102
RTVSPropertyOp52
 70
     0
102
RTVSPropertyOp53
 70
     1
102
RTVSPropertyOp54
 70
     1
102
RTVSPropertyOp55
 70
     1
102
RTVSPropertyOp56
 70
     1
102
RTVSPropertyOp57
 70
     1
102
RTVSPost2010Prop28
280
     1
102
RTVSPost2010PropOp28
 70
     1
102
RTVSPost2010Prop29
280
     1
102
RTVSPost2010PropOp29
 70
     1
102
RTVSPost2010Prop30
280
     0
102
RTVSPost2010PropOp30
 70
     1
102
RTVSPost2010Prop31
280
     0
102
RTVSPost2010PropOp31
 70
     1
102
RTVSPost2010Prop32
280
     0
102
RTVSPost2010PropOp32
 70
     1
102
RTVSPost2010Prop33
280
     0
102
RTVSPost2010PropOp33
 70
     1
102
RTVSPost2010Prop34
280
     0
102
RTVSPost2010PropOp34
 70
     1
102
RTVSPost2010Prop35
280
     0
102
RTVSPost2010PropOp35
 70
     1
102
RTVSPost2010Prop36
280
     0
102
RTVSPost2010PropOp36
 70
     1
102
RTVSPost2010Prop37
 90
       50
102
RTVSPost2010PropOp37
 70
     1
102
RTVSPost2010Prop38
140
0.0
102
RTVSPost2010PropOp38
 70
     1
102
RTVSPost2010Prop39
140
1.0
102
RTVSPost2010PropOp39
 70
     1
102
RTVSPost2010Prop40
 90
        0
102
RTVSPost2010PropOp40
 70
     1
102
RTVSPost2010Prop41ColorIndex
 90
       18
102
RTVSPost2010Prop41ColorRGB
 90
        0
102
RTVSPost2010PropOp41
 70
     1
102
RTVSPost2010Prop42
 90
       50
102
RTVSPost2010PropOp42
 70
     1
102
RTVSPost2010Prop43
 90
        3
102
RTVSPost2010PropOp43
 70
     1
102
RTVSPost2010Prop44ColorIndex
 90
        5
102
RTVSPost2010Prop44ColorRGB
 90
      255
102
RTVSPost2010PropOp44
 70
     1
102
RTVSPost2010Prop45
280
     0
102
RTVSPost2010PropOp45
 70
     1
102
RTVSPost2010Prop46
 90
       50
102
RTVSPost2010PropOp46
 70
     1
102
RTVSPost2010Prop47
 90
       50
102
RTVSPost2010PropOp47
 70
     1
102
RTVSPost2010Prop48
 90
       50
102
RTVSPost2010PropOp48
 70
     1
102
RTVSPost2010Prop49
280
     0
102
RTVSPost2010PropOp49
 70
     1
102
RTVSPost2010Prop50
 90
       50
102
RTVSPost2010PropOp50
 70
     1
102
RTVSPost2010Prop51ColorIndex
 90
      256
102
RTVSPost2010Prop51ColorRGB
 90
-16777216
102
RTVSPost2010PropOp51
 70
     0
102
RTVSPost2010Prop52
140
1.0
102
RTVSPost2010PropOp52
 70
     0
102
RTVSPost2010Prop53
 90
        2
102
RTVSPost2010PropOp53
 70
     1
102
RTVSPost2010Prop54
  1
strokes_ogs.tif
102
RTVSPost2010PropOp54
 70
     1
102
RTVSPost2010Prop55
280
     0
102
RTVSPost2010PropOp55
 70
     1
102
RTVSPost2010Prop56
140
1.0
102
RTVSPost2010PropOp56
 70
     1
102
RTVSPost2010Prop57
140
1.0
102
RTVSPost2010PropOp57
 70
     1
  0
XRECORD
  5
106ACFC
102
{ACAD_REACTORS
330
106ACFB
102
}
330
106ACFB
100
AcDbXrecord
280
     1
102
RTVSPropertyOp0
 70
     1
102
RTVSPropertyOp1
 70
     1
102
RTVSPropertyOp2
 70
     1
102
RTVSPropertyOp3
 70
     1
102
RTVSPropertyOp4
 70
     1
102
RTVSPropertyOp5
 70
     1
102
RTVSPropertyOp6
 70
     1
102
RTVSPropertyOp7
 70
     1
102
RTVSPropertyOp8
 70
     1
102
RTVSPropertyOp9
 70
     1
102
RTVSPropertyOp10
 70
     1
102
RTVSPropertyOp11
 70
     1
102
RTVSPropertyOp12
 70
     1
102
RTVSPropertyOp13
 70
     1
102
RTVSPropertyOp14
 70
     1
102
RTVSPropertyOp15
 70
     1
102
RTVSPropertyOp16
 70
     1
102
RTVSPropertyOp17
 70
     1
102
RTVSPropertyOp18
 70
     1
102
RTVSPropertyOp19
 70
     1
102
RTVSPropertyOp20
 70
     1
102
RTVSPropertyOp21
 70
     1
102
RTVSPropertyOp22
 70
     1
102
RTVSPropertyOp23
 70
     1
102
RTVSPropertyOp24
 70
     1
102
RTVSPropertyOp25
 70
     1
102
RTVSPropertyOp26
 70
     1
102
RTVSPropertyOp27
 70
     1
102
RTVSPropertyOp28
 70
     1
102
RTVSPropertyOp29
 70
     1
102
RTVSPropertyOp30
 70
     1
102
RTVSPropertyOp31
 70
     1
102
RTVSPropertyOp32
 70
     1
102
RTVSPropertyOp33
 70
     1
102
RTVSPropertyOp34
 70
     1
102
RTVSPropertyOp35
 70
     1
102
RTVSPropertyOp36
 70
     1
102
RTVSPropertyOp37
 70
     1
102
RTVSPropertyOp38
 70
     1
102
RTVSPropertyOp39
 70
     1
102
RTVSPropertyOp40
 70
     1
102
RTVSPropertyOp41
 70
     1
102
RTVSPropertyOp42
 70
     1
102
RTVSPropertyOp43
 70
     1
102
RTVSPropertyOp44
 70
     1
102
RTVSPropertyOp45
 70
     1
102
RTVSPropertyOp46
 70
     1
102
RTVSPropertyOp47
 70
     1
102
RTVSPropertyOp48
 70
     1
102
RTVSPropertyOp49
 70
     1
102
RTVSPropertyOp50
 70
     1
102
RTVSPropertyOp51
 70
     0
102
RTVSPropertyOp52
 70
     0
102
RTVSPropertyOp53
 70
     1
102
RTVSPropertyOp54
 70
     1
102
RTVSPropertyOp55
 70
     1
102
RTVSPropertyOp56
 70
     1
102
RTVSPropertyOp57
 70
     1
102
RTVSPost2010Prop28
280
     0
102
RTVSPost2010PropOp28
 70
     1
102
RTVSPost2010Prop29
280
     1
102
RTVSPost2010PropOp29
 70
     1
102
RTVSPost2010Prop30
280
     1
102
RTVSPost2010PropOp30
 70
     1
102
RTVSPost2010Prop31
280
     0
102
RTVSPost2010PropOp31
 70
     1
102
RTVSPost2010Prop32
280
     0
102
RTVSPost2010PropOp32
 70
     1
102
RTVSPost2010Prop33
280
     0
102
RTVSPost2010PropOp33
 70
     1
102
RTVSPost2010Prop34
280
     0
102
RTVSPost2010PropOp34
 70
     1
102
RTVSPost2010Prop35
280
     0
102
RTVSPost2010PropOp35
 70
     1
102
RTVSPost2010Prop36
280
     0
102
RTVSPost2010PropOp36
 70
     1
102
RTVSPost2010Prop37
 90
       50
102
RTVSPost2010PropOp37
 70
     1
102
RTVSPost2010Prop38
140
0.0
102
RTVSPost2010PropOp38
 70
     1
102
RTVSPost2010Prop39
140
1.0
102
RTVSPost2010PropOp39
 70
     1
102
RTVSPost2010Prop40
 90
        0
102
RTVSPost2010PropOp40
 70
     1
102
RTVSPost2010Prop41ColorIndex
 90
       18
102
RTVSPost2010Prop41ColorRGB
 90
        0
102
RTVSPost2010PropOp41
 70
     1
102
RTVSPost2010Prop42
 90
       50
102
RTVSPost2010PropOp42
 70
     1
102
RTVSPost2010Prop43
 90
        3
102
RTVSPost2010PropOp43
 70
     1
102
RTVSPost2010Prop44ColorIndex
 90
        5
102
RTVSPost2010Prop44ColorRGB
 90
      255
102
RTVSPost2010PropOp44
 70
     1
102
RTVSPost2010Prop45
280
     0
102
RTVSPost2010PropOp45
 70
     1
102
RTVSPost2010Prop46
 90
       50
102
RTVSPost2010PropOp46
 70
     1
102
RTVSPost2010Prop47
 90
       50
102
RTVSPost2010PropOp47
 70
     1
102
RTVSPost2010Prop48
 90
       50
102
RTVSPost2010PropOp48
 70
     1
102
RTVSPost2010Prop49
280
     0
102
RTVSPost2010PropOp49
 70
     1
102
RTVSPost2010Prop50
 90
       50
102
RTVSPost2010PropOp50
 70
     1
102
RTVSPost2010Prop51ColorIndex
 90
      256
102
RTVSPost2010Prop51ColorRGB
 90
-16777216
102
RTVSPost2010PropOp51
 70
     0
102
RTVSPost2010Prop52
140
1.0
102
RTVSPost2010PropOp52
 70
     0
102
RTVSPost2010Prop53
 90
        2
102
RTVSPost2010PropOp53
 70
     1
102
RTVSPost2010Prop54
  1
strokes_ogs.tif
102
RTVSPost2010PropOp54
 70
     1
102
RTVSPost2010Prop55
280
     0
102
RTVSPost2010PropOp55
 70
     1
102
RTVSPost2010Prop56
140
1.0
102
RTVSPost2010PropOp56
 70
     1
102
RTVSPost2010Prop57
140
1.0
102
RTVSPost2010PropOp57
 70
     1
  0
XRECORD
  5
106ACFE
102
{ACAD_REACTORS
330
106ACFD
102
}
330
106ACFD
100
AcDbXrecord
280
     1
102
RTVSPropertyOp0
 70
     1
102
RTVSPropertyOp1
 70
     1
102
RTVSPropertyOp2
 70
     1
102
RTVSPropertyOp3
 70
     1
102
RTVSPropertyOp4
 70
     1
102
RTVSPropertyOp5
 70
     1
102
RTVSPropertyOp6
 70
     1
102
RTVSPropertyOp7
 70
     1
102
RTVSPropertyOp8
 70
     1
102
RTVSPropertyOp9
 70
     1
102
RTVSPropertyOp10
 70
     1
102
RTVSPropertyOp11
 70
     1
102
RTVSPropertyOp12
 70
     1
102
RTVSPropertyOp13
 70
     1
102
RTVSPropertyOp14
 70
     1
102
RTVSPropertyOp15
 70
     1
102
RTVSPropertyOp16
 70
     1
102
RTVSPropertyOp17
 70
     1
102
RTVSPropertyOp18
 70
     1
102
RTVSPropertyOp19
 70
     1
102
RTVSPropertyOp20
 70
     1
102
RTVSPropertyOp21
 70
     1
102
RTVSPropertyOp22
 70
     1
102
RTVSPropertyOp23
 70
     1
102
RTVSPropertyOp24
 70
     1
102
RTVSPropertyOp25
 70
     1
102
RTVSPropertyOp26
 70
     1
102
RTVSPropertyOp27
 70
     1
102
RTVSPropertyOp28
 70
     1
102
RTVSPropertyOp29
 70
     1
102
RTVSPropertyOp30
 70
     1
102
RTVSPropertyOp31
 70
     1
102
RTVSPropertyOp32
 70
     1
102
RTVSPropertyOp33
 70
     1
102
RTVSPropertyOp34
 70
     1
102
RTVSPropertyOp35
 70
     1
102
RTVSPropertyOp36
 70
     1
102
RTVSPropertyOp37
 70
     1
102
RTVSPropertyOp38
 70
     1
102
RTVSPropertyOp39
 70
     1
102
RTVSPropertyOp40
 70
     1
102
RTVSPropertyOp41
 70
     1
102
RTVSPropertyOp42
 70
     1
102
RTVSPropertyOp43
 70
     1
102
RTVSPropertyOp44
 70
     1
102
RTVSPropertyOp45
 70
     1
102
RTVSPropertyOp46
 70
     1
102
RTVSPropertyOp47
 70
     1
102
RTVSPropertyOp48
 70
     1
102
RTVSPropertyOp49
 70
     1
102
RTVSPropertyOp50
 70
     1
102
RTVSPropertyOp51
 70
     0
102
RTVSPropertyOp52
 70
     0
102
RTVSPropertyOp53
 70
     1
102
RTVSPropertyOp54
 70
     1
102
RTVSPropertyOp55
 70
     1
102
RTVSPropertyOp56
 70
     1
102
RTVSPropertyOp57
 70
     1
102
RTVSPost2010Prop28
280
     0
102
RTVSPost2010PropOp28
 70
     1
102
RTVSPost2010Prop29
280
     1
102
RTVSPost2010PropOp29
 70
     1
102
RTVSPost2010Prop30
280
     1
102
RTVSPost2010PropOp30
 70
     1
102
RTVSPost2010Prop31
280
     0
102
RTVSPost2010PropOp31
 70
     1
102
RTVSPost2010Prop32
280
     0
102
RTVSPost2010PropOp32
 70
     1
102
RTVSPost2010Prop33
280
     0
102
RTVSPost2010PropOp33
 70
     1
102
RTVSPost2010Prop34
280
     0
102
RTVSPost2010PropOp34
 70
     1
102
RTVSPost2010Prop35
280
     0
102
RTVSPost2010PropOp35
 70
     1
102
RTVSPost2010Prop36
280
     0
102
RTVSPost2010PropOp36
 70
     1
102
RTVSPost2010Prop37
 90
       50
102
RTVSPost2010PropOp37
 70
     1
102
RTVSPost2010Prop38
140
0.0
102
RTVSPost2010PropOp38
 70
     1
102
RTVSPost2010Prop39
140
1.0
102
RTVSPost2010PropOp39
 70
     1
102
RTVSPost2010Prop40
 90
        0
102
RTVSPost2010PropOp40
 70
     1
102
RTVSPost2010Prop41ColorIndex
 90
       18
102
RTVSPost2010Prop41ColorRGB
 90
        0
102
RTVSPost2010PropOp41
 70
     1
102
RTVSPost2010Prop42
 90
       50
102
RTVSPost2010PropOp42
 70
     1
102
RTVSPost2010Prop43
 90
        3
102
RTVSPost2010PropOp43
 70
     1
102
RTVSPost2010Prop44ColorIndex
 90
        5
102
RTVSPost2010Prop44ColorRGB
 90
      255
102
RTVSPost2010PropOp44
 70
     1
102
RTVSPost2010Prop45
280
     0
102
RTVSPost2010PropOp45
 70
     1
102
RTVSPost2010Prop46
 90
       50
102
RTVSPost2010PropOp46
 70
     1
102
RTVSPost2010Prop47
 90
       50
102
RTVSPost2010PropOp47
 70
     1
102
RTVSPost2010Prop48
 90
       50
102
RTVSPost2010PropOp48
 70
     1
102
RTVSPost2010Prop49
280
     0
102
RTVSPost2010PropOp49
 70
     1
102
RTVSPost2010Prop50
 90
       50
102
RTVSPost2010PropOp50
 70
     1
102
RTVSPost2010Prop51ColorIndex
 90
      256
102
RTVSPost2010Prop51ColorRGB
 90
-16777216
102
RTVSPost2010PropOp51
 70
     0
102
RTVSPost2010Prop52
140
1.0
102
RTVSPost2010PropOp52
 70
     0
102
RTVSPost2010Prop53
 90
        2
102
RTVSPost2010PropOp53
 70
     1
102
RTVSPost2010Prop54
  1
strokes_ogs.tif
102
RTVSPost2010PropOp54
 70
     1
102
RTVSPost2010Prop55
280
     0
102
RTVSPost2010PropOp55
 70
     1
102
RTVSPost2010Prop56
140
1.0
102
RTVSPost2010PropOp56
 70
     1
102
RTVSPost2010Prop57
140
1.0
102
RTVSPost2010PropOp57
 70
     1
  0
XRECORD
  5
106AD00
102
{ACAD_REACTORS
330
106ACFF
102
}
330
106ACFF
100
AcDbXrecord
280
     1
102
RTVSPropertyOp0
 70
     1
102
RTVSPropertyOp1
 70
     1
102
RTVSPropertyOp2
 70
     1
102
RTVSPropertyOp3
 70
     1
102
RTVSPropertyOp4
 70
     1
102
RTVSPropertyOp5
 70
     1
102
RTVSPropertyOp6
 70
     1
102
RTVSPropertyOp7
 70
     1
102
RTVSPropertyOp8
 70
     1
102
RTVSPropertyOp9
 70
     1
102
RTVSPropertyOp10
 70
     1
102
RTVSPropertyOp11
 70
     1
102
RTVSPropertyOp12
 70
     1
102
RTVSPropertyOp13
 70
     1
102
RTVSPropertyOp14
 70
     1
102
RTVSPropertyOp15
 70
     1
102
RTVSPropertyOp16
 70
     1
102
RTVSPropertyOp17
 70
     1
102
RTVSPropertyOp18
 70
     1
102
RTVSPropertyOp19
 70
     1
102
RTVSPropertyOp20
 70
     1
102
RTVSPropertyOp21
 70
     1
102
RTVSPropertyOp22
 70
     1
102
RTVSPropertyOp23
 70
     1
102
RTVSPropertyOp24
 70
     1
102
RTVSPropertyOp25
 70
     1
102
RTVSPropertyOp26
 70
     1
102
RTVSPropertyOp27
 70
     1
102
RTVSPropertyOp28
 70
     1
102
RTVSPropertyOp29
 70
     1
102
RTVSPropertyOp30
 70
     1
102
RTVSPropertyOp31
 70
     1
102
RTVSPropertyOp32
 70
     1
102
RTVSPropertyOp33
 70
     1
102
RTVSPropertyOp34
 70
     1
102
RTVSPropertyOp35
 70
     1
102
RTVSPropertyOp36
 70
     1
102
RTVSPropertyOp37
 70
     1
102
RTVSPropertyOp38
 70
     1
102
RTVSPropertyOp39
 70
     1
102
RTVSPropertyOp40
 70
     1
102
RTVSPropertyOp41
 70
     1
102
RTVSPropertyOp42
 70
     1
102
RTVSPropertyOp43
 70
     1
102
RTVSPropertyOp44
 70
     1
102
RTVSPropertyOp45
 70
     1
102
RTVSPropertyOp46
 70
     1
102
RTVSPropertyOp47
 70
     1
102
RTVSPropertyOp48
 70
     1
102
RTVSPropertyOp49
 70
     1
102
RTVSPropertyOp50
 70
     1
102
RTVSPropertyOp51
 70
     0
102
RTVSPropertyOp52
 70
     0
102
RTVSPropertyOp53
 70
     1
102
RTVSPropertyOp54
 70
     1
102
RTVSPropertyOp55
 70
     1
102
RTVSPropertyOp56
 70
     1
102
RTVSPropertyOp57
 70
     1
102
RTVSPost2010Prop28
280
     0
102
RTVSPost2010PropOp28
 70
     1
102
RTVSPost2010Prop29
280
     1
102
RTVSPost2010PropOp29
 70
     1
102
RTVSPost2010Prop30
280
     1
102
RTVSPost2010PropOp30
 70
     1
102
RTVSPost2010Prop31
280
     0
102
RTVSPost2010PropOp31
 70
     1
102
RTVSPost2010Prop32
280
     0
102
RTVSPost2010PropOp32
 70
     1
102
RTVSPost2010Prop33
280
     0
102
RTVSPost2010PropOp33
 70
     1
102
RTVSPost2010Prop34
280
     0
102
RTVSPost2010PropOp34
 70
     1
102
RTVSPost2010Prop35
280
     0
102
RTVSPost2010PropOp35
 70
     1
102
RTVSPost2010Prop36
280
     0
102
RTVSPost2010PropOp36
 70
     1
102
RTVSPost2010Prop37
 90
       50
102
RTVSPost2010PropOp37
 70
     1
102
RTVSPost2010Prop38
140
0.0
102
RTVSPost2010PropOp38
 70
     1
102
RTVSPost2010Prop39
140
1.0
102
RTVSPost2010PropOp39
 70
     1
102
RTVSPost2010Prop40
 90
        0
102
RTVSPost2010PropOp40
 70
     1
102
RTVSPost2010Prop41ColorIndex
 90
       18
102
RTVSPost2010Prop41ColorRGB
 90
        0
102
RTVSPost2010PropOp41
 70
     1
102
RTVSPost2010Prop42
 90
       50
102
RTVSPost2010PropOp42
 70
     1
102
RTVSPost2010Prop43
 90
        3
102
RTVSPost2010PropOp43
 70
     1
102
RTVSPost2010Prop44ColorIndex
 90
        5
102
RTVSPost2010Prop44ColorRGB
 90
      255
102
RTVSPost2010PropOp44
 70
     1
102
RTVSPost2010Prop45
280
     0
102
RTVSPost2010PropOp45
 70
     1
102
RTVSPost2010Prop46
 90
       50
102
RTVSPost2010PropOp46
 70
     1
102
RTVSPost2010Prop47
 90
       50
102
RTVSPost2010PropOp47
 70
     1
102
RTVSPost2010Prop48
 90
       50
102
RTVSPost2010PropOp48
 70
     1
102
RTVSPost2010Prop49
280
     0
102
RTVSPost2010PropOp49
 70
     1
102
RTVSPost2010Prop50
 90
       50
102
RTVSPost2010PropOp50
 70
     1
102
RTVSPost2010Prop51ColorIndex
 90
      256
102
RTVSPost2010Prop51ColorRGB
 90
-16777216
102
RTVSPost2010PropOp51
 70
     0
102
RTVSPost2010Prop52
140
1.0
102
RTVSPost2010PropOp52
 70
     0
102
RTVSPost2010Prop53
 90
        2
102
RTVSPost2010PropOp53
 70
     1
102
RTVSPost2010Prop54
  1
strokes_ogs.tif
102
RTVSPost2010PropOp54
 70
     1
102
RTVSPost2010Prop55
280
     0
102
RTVSPost2010PropOp55
 70
     1
102
RTVSPost2010Prop56
140
1.0
102
RTVSPost2010PropOp56
 70
     1
102
RTVSPost2010Prop57
140
1.0
102
RTVSPost2010PropOp57
 70
     1
  0
XRECORD
  5
106AD02
102
{ACAD_REACTORS
330
106AD01
102
}
330
106AD01
100
AcDbXrecord
280
     1
102
RTVSPropertyOp0
 70
     1
102
RTVSPropertyOp1
 70
     1
102
RTVSPropertyOp2
 70
     1
102
RTVSPropertyOp3
 70
     1
102
RTVSPropertyOp4
 70
     1
102
RTVSPropertyOp5
 70
     1
102
RTVSPropertyOp6
 70
     1
102
RTVSPropertyOp7
 70
     1
102
RTVSPropertyOp8
 70
     1
102
RTVSPropertyOp9
 70
     1
102
RTVSPropertyOp10
 70
     1
102
RTVSPropertyOp11
 70
     1
102
RTVSPropertyOp12
 70
     1
102
RTVSPropertyOp13
 70
     1
102
RTVSPropertyOp14
 70
     1
102
RTVSPropertyOp15
 70
     1
102
RTVSPropertyOp16
 70
     1
102
RTVSPropertyOp17
 70
     1
102
RTVSPropertyOp18
 70
     1
102
RTVSPropertyOp19
 70
     1
102
RTVSPropertyOp20
 70
     1
102
RTVSPropertyOp21
 70
     1
102
RTVSPropertyOp22
 70
     1
102
RTVSPropertyOp23
 70
     1
102
RTVSPropertyOp24
 70
     1
102
RTVSPropertyOp25
 70
     1
102
RTVSPropertyOp26
 70
     1
102
RTVSPropertyOp27
 70
     1
102
RTVSPropertyOp28
 70
     1
102
RTVSPropertyOp29
 70
     1
102
RTVSPropertyOp30
 70
     1
102
RTVSPropertyOp31
 70
     1
102
RTVSPropertyOp32
 70
     1
102
RTVSPropertyOp33
 70
     1
102
RTVSPropertyOp34
 70
     1
102
RTVSPropertyOp35
 70
     1
102
RTVSPropertyOp36
 70
     1
102
RTVSPropertyOp37
 70
     1
102
RTVSPropertyOp38
 70
     1
102
RTVSPropertyOp39
 70
     1
102
RTVSPropertyOp40
 70
     1
102
RTVSPropertyOp41
 70
     1
102
RTVSPropertyOp42
 70
     1
102
RTVSPropertyOp43
 70
     1
102
RTVSPropertyOp44
 70
     1
102
RTVSPropertyOp45
 70
     1
102
RTVSPropertyOp46
 70
     1
102
RTVSPropertyOp47
 70
     1
102
RTVSPropertyOp48
 70
     1
102
RTVSPropertyOp49
 70
     1
102
RTVSPropertyOp50
 70
     1
102
RTVSPropertyOp51
 70
     0
102
RTVSPropertyOp52
 70
     0
102
RTVSPropertyOp53
 70
     1
102
RTVSPropertyOp54
 70
     1
102
RTVSPropertyOp55
 70
     1
102
RTVSPropertyOp56
 70
     1
102
RTVSPropertyOp57
 70
     1
102
RTVSPost2010Prop28
280
     0
102
RTVSPost2010PropOp28
 70
     1
102
RTVSPost2010Prop29
280
     1
102
RTVSPost2010PropOp29
 70
     1
102
RTVSPost2010Prop30
280
     1
102
RTVSPost2010PropOp30
 70
     1
102
RTVSPost2010Prop31
280
     0
102
RTVSPost2010PropOp31
 70
     1
102
RTVSPost2010Prop32
280
     0
102
RTVSPost2010PropOp32
 70
     1
102
RTVSPost2010Prop33
280
     0
102
RTVSPost2010PropOp33
 70
     1
102
RTVSPost2010Prop34
280
     0
102
RTVSPost2010PropOp34
 70
     1
102
RTVSPost2010Prop35
280
     0
102
RTVSPost2010PropOp35
 70
     1
102
RTVSPost2010Prop36
280
     0
102
RTVSPost2010PropOp36
 70
     1
102
RTVSPost2010Prop37
 90
       50
102
RTVSPost2010PropOp37
 70
     1
102
RTVSPost2010Prop38
140
0.0
102
RTVSPost2010PropOp38
 70
     1
102
RTVSPost2010Prop39
140
1.0
102
RTVSPost2010PropOp39
 70
     1
102
RTVSPost2010Prop40
 90
        0
102
RTVSPost2010PropOp40
 70
     1
102
RTVSPost2010Prop41ColorIndex
 90
       18
102
RTVSPost2010Prop41ColorRGB
 90
        0
102
RTVSPost2010PropOp41
 70
     1
102
RTVSPost2010Prop42
 90
       50
102
RTVSPost2010PropOp42
 70
     1
102
RTVSPost2010Prop43
 90
        3
102
RTVSPost2010PropOp43
 70
     1
102
RTVSPost2010Prop44ColorIndex
 90
        5
102
RTVSPost2010Prop44ColorRGB
 90
      255
102
RTVSPost2010PropOp44
 70
     1
102
RTVSPost2010Prop45
280
     0
102
RTVSPost2010PropOp45
 70
     1
102
RTVSPost2010Prop46
 90
       50
102
RTVSPost2010PropOp46
 70
     1
102
RTVSPost2010Prop47
 90
       50
102
RTVSPost2010PropOp47
 70
     1
102
RTVSPost2010Prop48
 90
       50
102
RTVSPost2010PropOp48
 70
     1
102
RTVSPost2010Prop49
280
     0
102
RTVSPost2010PropOp49
 70
     1
102
RTVSPost2010Prop50
 90
       50
102
RTVSPost2010PropOp50
 70
     1
102
RTVSPost2010Prop51ColorIndex
 90
      256
102
RTVSPost2010Prop51ColorRGB
 90
-16777216
102
RTVSPost2010PropOp51
 70
     0
102
RTVSPost2010Prop52
140
1.0
102
RTVSPost2010PropOp52
 70
     0
102
RTVSPost2010Prop53
 90
        2
102
RTVSPost2010PropOp53
 70
     1
102
RTVSPost2010Prop54
  1
strokes_ogs.tif
102
RTVSPost2010PropOp54
 70
     1
102
RTVSPost2010Prop55
280
     0
102
RTVSPost2010PropOp55
 70
     1
102
RTVSPost2010Prop56
140
1.0
102
RTVSPost2010PropOp56
 70
     1
102
RTVSPost2010Prop57
140
1.0
102
RTVSPost2010PropOp57
 70
     1
  0
XRECORD
  5
106AD04
102
{ACAD_REACTORS
330
106AD03
102
}
330
106AD03
100
AcDbXrecord
280
     1
102
RTVSPropertyOp0
 70
     1
102
RTVSPropertyOp1
 70
     1
102
RTVSPropertyOp2
 70
     1
102
RTVSPropertyOp3
 70
     1
102
RTVSPropertyOp4
 70
     1
102
RTVSPropertyOp5
 70
     1
102
RTVSPropertyOp6
 70
     1
102
RTVSPropertyOp7
 70
     1
102
RTVSPropertyOp8
 70
     1
102
RTVSPropertyOp9
 70
     1
102
RTVSPropertyOp10
 70
     1
102
RTVSPropertyOp11
 70
     1
102
RTVSPropertyOp12
 70
     1
102
RTVSPropertyOp13
 70
     1
102
RTVSPropertyOp14
 70
     1
102
RTVSPropertyOp15
 70
     1
102
RTVSPropertyOp16
 70
     1
102
RTVSPropertyOp17
 70
     1
102
RTVSPropertyOp18
 70
     1
102
RTVSPropertyOp19
 70
     1
102
RTVSPropertyOp20
 70
     1
102
RTVSPropertyOp21
 70
     1
102
RTVSPropertyOp22
 70
     1
102
RTVSPropertyOp23
 70
     1
102
RTVSPropertyOp24
 70
     1
102
RTVSPropertyOp25
 70
     1
102
RTVSPropertyOp26
 70
     1
102
RTVSPropertyOp27
 70
     1
102
RTVSPropertyOp28
 70
     1
102
RTVSPropertyOp29
 70
     1
102
RTVSPropertyOp30
 70
     1
102
RTVSPropertyOp31
 70
     1
102
RTVSPropertyOp32
 70
     1
102
RTVSPropertyOp33
 70
     1
102
RTVSPropertyOp34
 70
     1
102
RTVSPropertyOp35
 70
     1
102
RTVSPropertyOp36
 70
     1
102
RTVSPropertyOp37
 70
     1
102
RTVSPropertyOp38
 70
     1
102
RTVSPropertyOp39
 70
     1
102
RTVSPropertyOp40
 70
     1
102
RTVSPropertyOp41
 70
     1
102
RTVSPropertyOp42
 70
     1
102
RTVSPropertyOp43
 70
     1
102
RTVSPropertyOp44
 70
     1
102
RTVSPropertyOp45
 70
     1
102
RTVSPropertyOp46
 70
     1
102
RTVSPropertyOp47
 70
     1
102
RTVSPropertyOp48
 70
     1
102
RTVSPropertyOp49
 70
     1
102
RTVSPropertyOp50
 70
     1
102
RTVSPropertyOp51
 70
     0
102
RTVSPropertyOp52
 70
     0
102
RTVSPropertyOp53
 70
     1
102
RTVSPropertyOp54
 70
     1
102
RTVSPropertyOp55
 70
     1
102
RTVSPropertyOp56
 70
     1
102
RTVSPropertyOp57
 70
     1
102
RTVSPost2010Prop28
280
     0
102
RTVSPost2010PropOp28
 70
     1
102
RTVSPost2010Prop29
280
     1
102
RTVSPost2010PropOp29
 70
     1
102
RTVSPost2010Prop30
280
     1
102
RTVSPost2010PropOp30
 70
     1
102
RTVSPost2010Prop31
280
     0
102
RTVSPost2010PropOp31
 70
     1
102
RTVSPost2010Prop32
280
     0
102
RTVSPost2010PropOp32
 70
     1
102
RTVSPost2010Prop33
280
     0
102
RTVSPost2010PropOp33
 70
     1
102
RTVSPost2010Prop34
280
     0
102
RTVSPost2010PropOp34
 70
     1
102
RTVSPost2010Prop35
280
     0
102
RTVSPost2010PropOp35
 70
     1
102
RTVSPost2010Prop36
280
     0
102
RTVSPost2010PropOp36
 70
     1
102
RTVSPost2010Prop37
 90
       50
102
RTVSPost2010PropOp37
 70
     1
102
RTVSPost2010Prop38
140
0.0
102
RTVSPost2010PropOp38
 70
     1
102
RTVSPost2010Prop39
140
1.0
102
RTVSPost2010PropOp39
 70
     1
102
RTVSPost2010Prop40
 90
        0
102
RTVSPost2010PropOp40
 70
     1
102
RTVSPost2010Prop41ColorIndex
 90
       18
102
RTVSPost2010Prop41ColorRGB
 90
        0
102
RTVSPost2010PropOp41
 70
     1
102
RTVSPost2010Prop42
 90
       50
102
RTVSPost2010PropOp42
 70
     1
102
RTVSPost2010Prop43
 90
        3
102
RTVSPost2010PropOp43
 70
     1
102
RTVSPost2010Prop44ColorIndex
 90
        5
102
RTVSPost2010Prop44ColorRGB
 90
      255
102
RTVSPost2010PropOp44
 70
     1
102
RTVSPost2010Prop45
280
     0
102
RTVSPost2010PropOp45
 70
     1
102
RTVSPost2010Prop46
 90
       50
102
RTVSPost2010PropOp46
 70
     1
102
RTVSPost2010Prop47
 90
       50
102
RTVSPost2010PropOp47
 70
     1
102
RTVSPost2010Prop48
 90
       50
102
RTVSPost2010PropOp48
 70
     1
102
RTVSPost2010Prop49
280
     0
102
RTVSPost2010PropOp49
 70
     1
102
RTVSPost2010Prop50
 90
       50
102
RTVSPost2010PropOp50
 70
     1
102
RTVSPost2010Prop51ColorIndex
 90
      256
102
RTVSPost2010Prop51ColorRGB
 90
-16777216
102
RTVSPost2010PropOp51
 70
     0
102
RTVSPost2010Prop52
140
1.0
102
RTVSPost2010PropOp52
 70
     0
102
RTVSPost2010Prop53
 90
        2
102
RTVSPost2010PropOp53
 70
     1
102
RTVSPost2010Prop54
  1
strokes_ogs.tif
102
RTVSPost2010PropOp54
 70
     1
102
RTVSPost2010Prop55
280
     0
102
RTVSPost2010PropOp55
 70
     1
102
RTVSPost2010Prop56
140
1.0
102
RTVSPost2010PropOp56
 70
     1
102
RTVSPost2010Prop57
140
1.0
102
RTVSPost2010PropOp57
 70
     1
  0
XRECORD
  5
106AD06
102
{ACAD_REACTORS
330
106AD05
102
}
330
106AD05
100
AcDbXrecord
280
     1
102
RTVSPropertyOp0
 70
     0
102
RTVSPropertyOp1
 70
     0
102
RTVSPropertyOp2
 70
     0
102
RTVSPropertyOp3
 70
     0
102
RTVSPropertyOp4
 70
     0
102
RTVSPropertyOp5
 70
     0
102
RTVSPropertyOp6
 70
     0
102
RTVSPropertyOp7
 70
     0
102
RTVSPropertyOp8
 70
     0
102
RTVSPropertyOp9
 70
     0
102
RTVSPropertyOp10
 70
     0
102
RTVSPropertyOp11
 70
     0
102
RTVSPropertyOp12
 70
     0
102
RTVSPropertyOp13
 70
     0
102
RTVSPropertyOp14
 70
     2
102
RTVSPropertyOp15
 70
     0
102
RTVSPropertyOp16
 70
     0
102
RTVSPropertyOp17
 70
     0
102
RTVSPropertyOp18
 70
     0
102
RTVSPropertyOp19
 70
     0
102
RTVSPropertyOp20
 70
     0
102
RTVSPropertyOp21
 70
     0
102
RTVSPropertyOp22
 70
     0
102
RTVSPropertyOp23
 70
     0
102
RTVSPropertyOp24
 70
     0
102
RTVSPropertyOp25
 70
     0
102
RTVSPropertyOp26
 70
     0
102
RTVSPropertyOp27
 70
     0
102
RTVSPropertyOp28
 70
     0
102
RTVSPropertyOp29
 70
     0
102
RTVSPropertyOp30
 70
     0
102
RTVSPropertyOp31
 70
     0
102
RTVSPropertyOp32
 70
     0
102
RTVSPropertyOp33
 70
     0
102
RTVSPropertyOp34
 70
     0
102
RTVSPropertyOp35
 70
     0
102
RTVSPropertyOp36
 70
     0
102
RTVSPropertyOp37
 70
     0
102
RTVSPropertyOp38
 70
     0
102
RTVSPropertyOp39
 70
     0
102
RTVSPropertyOp40
 70
     0
102
RTVSPropertyOp41
 70
     0
102
RTVSPropertyOp42
 70
     0
102
RTVSPropertyOp43
 70
     0
102
RTVSPropertyOp44
 70
     0
102
RTVSPropertyOp45
 70
     0
102
RTVSPropertyOp46
 70
     0
102
RTVSPropertyOp47
 70
     0
102
RTVSPropertyOp48
 70
     0
102
RTVSPropertyOp49
 70
     0
102
RTVSPropertyOp50
 70
     0
102
RTVSPropertyOp51
 70
     0
102
RTVSPropertyOp52
 70
     0
102
RTVSPropertyOp53
 70
     0
102
RTVSPropertyOp54
 70
     0
102
RTVSPropertyOp55
 70
     0
102
RTVSPropertyOp56
 70
     0
102
RTVSPropertyOp57
 70
     0
102
RTVSPost2010Prop28
280
     0
102
RTVSPost2010PropOp28
 70
     0
102
RTVSPost2010Prop29
280
     1
102
RTVSPost2010PropOp29
 70
     0
102
RTVSPost2010Prop30
280
     1
102
RTVSPost2010PropOp30
 70
     0
102
RTVSPost2010Prop31
280
     0
102
RTVSPost2010PropOp31
 70
     0
102
RTVSPost2010Prop32
280
     0
102
RTVSPost2010PropOp32
 70
     0
102
RTVSPost2010Prop33
280
     0
102
RTVSPost2010PropOp33
 70
     0
102
RTVSPost2010Prop34
280
     0
102
RTVSPost2010PropOp34
 70
     0
102
RTVSPost2010Prop35
280
     0
102
RTVSPost2010PropOp35
 70
     0
102
RTVSPost2010Prop36
280
     0
102
RTVSPost2010PropOp36
 70
     0
102
RTVSPost2010Prop37
 90
       50
102
RTVSPost2010PropOp37
 70
     0
102
RTVSPost2010Prop38
140
0.0
102
RTVSPost2010PropOp38
 70
     0
102
RTVSPost2010Prop39
140
1.0
102
RTVSPost2010PropOp39
 70
     0
102
RTVSPost2010Prop40
 90
        0
102
RTVSPost2010PropOp40
 70
     0
102
RTVSPost2010Prop41ColorIndex
 90
       18
102
RTVSPost2010Prop41ColorRGB
 90
        0
102
RTVSPost2010PropOp41
 70
     0
102
RTVSPost2010Prop42
 90
       50
102
RTVSPost2010PropOp42
 70
     0
102
RTVSPost2010Prop43
 90
        3
102
RTVSPost2010PropOp43
 70
     0
102
RTVSPost2010Prop44ColorIndex
 90
        5
102
RTVSPost2010Prop44ColorRGB
 90
      255
102
RTVSPost2010PropOp44
 70
     0
102
RTVSPost2010Prop45
280
     0
102
RTVSPost2010PropOp45
 70
     0
102
RTVSPost2010Prop46
 90
       50
102
RTVSPost2010PropOp46
 70
     0
102
RTVSPost2010Prop47
 90
       50
102
RTVSPost2010PropOp47
 70
     0
102
RTVSPost2010Prop48
 90
       50
102
RTVSPost2010PropOp48
 70
     0
102
RTVSPost2010Prop49
280
     0
102
RTVSPost2010PropOp49
 70
     0
102
RTVSPost2010Prop50
 90
       50
102
RTVSPost2010PropOp50
 70
     0
102
RTVSPost2010Prop51ColorIndex
 90
      256
102
RTVSPost2010Prop51ColorRGB
 90
-16777216
102
RTVSPost2010PropOp51
 70
     0
102
RTVSPost2010Prop52
140
1.0
102
RTVSPost2010PropOp52
 70
     0
102
RTVSPost2010Prop53
 90
        2
102
RTVSPost2010PropOp53
 70
     0
102
RTVSPost2010Prop54
  1
strokes_ogs.tif
102
RTVSPost2010PropOp54
 70
     0
102
RTVSPost2010Prop55
280
     0
102
RTVSPost2010PropOp55
 70
     0
102
RTVSPost2010Prop56
140
1.0
102
RTVSPost2010PropOp56
 70
     0
102
RTVSPost2010Prop57
140
1.0
102
RTVSPost2010PropOp57
 70
     0
  0
XRECORD
  5
106AD08
102
{ACAD_REACTORS
330
106AD07
102
}
330
106AD07
100
AcDbXrecord
280
     1
102
RTVSPropertyOp0
 70
     1
102
RTVSPropertyOp1
 70
     1
102
RTVSPropertyOp2
 70
     1
102
RTVSPropertyOp3
 70
     1
102
RTVSPropertyOp4
 70
     1
102
RTVSPropertyOp5
 70
     1
102
RTVSPropertyOp6
 70
     1
102
RTVSPropertyOp7
 70
     1
102
RTVSPropertyOp8
 70
     1
102
RTVSPropertyOp9
 70
     1
102
RTVSPropertyOp10
 70
     1
102
RTVSPropertyOp11
 70
     1
102
RTVSPropertyOp12
 70
     1
102
RTVSPropertyOp13
 70
     1
102
RTVSPropertyOp14
 70
     1
102
RTVSPropertyOp15
 70
     1
102
RTVSPropertyOp16
 70
     1
102
RTVSPropertyOp17
 70
     1
102
RTVSPropertyOp18
 70
     1
102
RTVSPropertyOp19
 70
     1
102
RTVSPropertyOp20
 70
     1
102
RTVSPropertyOp21
 70
     1
102
RTVSPropertyOp22
 70
     1
102
RTVSPropertyOp23
 70
     1
102
RTVSPropertyOp24
 70
     1
102
RTVSPropertyOp25
 70
     1
102
RTVSPropertyOp26
 70
     1
102
RTVSPropertyOp27
 70
     1
102
RTVSPropertyOp28
 70
     1
102
RTVSPropertyOp29
 70
     1
102
RTVSPropertyOp30
 70
     1
102
RTVSPropertyOp31
 70
     1
102
RTVSPropertyOp32
 70
     1
102
RTVSPropertyOp33
 70
     1
102
RTVSPropertyOp34
 70
     1
102
RTVSPropertyOp35
 70
     1
102
RTVSPropertyOp36
 70
     1
102
RTVSPropertyOp37
 70
     1
102
RTVSPropertyOp38
 70
     1
102
RTVSPropertyOp39
 70
     1
102
RTVSPropertyOp40
 70
     1
102
RTVSPropertyOp41
 70
     1
102
RTVSPropertyOp42
 70
     1
102
RTVSPropertyOp43
 70
     1
102
RTVSPropertyOp44
 70
     1
102
RTVSPropertyOp45
 70
     1
102
RTVSPropertyOp46
 70
     1
102
RTVSPropertyOp47
 70
     1
102
RTVSPropertyOp48
 70
     1
102
RTVSPropertyOp49
 70
     1
102
RTVSPropertyOp50
 70
     1
102
RTVSPropertyOp51
 70
     0
102
RTVSPropertyOp52
 70
     0
102
RTVSPropertyOp53
 70
     1
102
RTVSPropertyOp54
 70
     1
102
RTVSPropertyOp55
 70
     1
102
RTVSPropertyOp56
 70
     1
102
RTVSPropertyOp57
 70
     1
102
RTVSPost2010Prop28
280
     0
102
RTVSPost2010PropOp28
 70
     1
102
RTVSPost2010Prop29
280
     1
102
RTVSPost2010PropOp29
 70
     1
102
RTVSPost2010Prop30
280
     1
102
RTVSPost2010PropOp30
 70
     1
102
RTVSPost2010Prop31
280
     0
102
RTVSPost2010PropOp31
 70
     1
102
RTVSPost2010Prop32
280
     0
102
RTVSPost2010PropOp32
 70
     1
102
RTVSPost2010Prop33
280
     0
102
RTVSPost2010PropOp33
 70
     1
102
RTVSPost2010Prop34
280
     0
102
RTVSPost2010PropOp34
 70
     1
102
RTVSPost2010Prop35
280
     0
102
RTVSPost2010PropOp35
 70
     1
102
RTVSPost2010Prop36
280
     0
102
RTVSPost2010PropOp36
 70
     1
102
RTVSPost2010Prop37
 90
       50
102
RTVSPost2010PropOp37
 70
     1
102
RTVSPost2010Prop38
140
0.0
102
RTVSPost2010PropOp38
 70
     1
102
RTVSPost2010Prop39
140
1.0
102
RTVSPost2010PropOp39
 70
     1
102
RTVSPost2010Prop40
 90
        0
102
RTVSPost2010PropOp40
 70
     1
102
RTVSPost2010Prop41ColorIndex
 90
       18
102
RTVSPost2010Prop41ColorRGB
 90
        0
102
RTVSPost2010PropOp41
 70
     1
102
RTVSPost2010Prop42
 90
       50
102
RTVSPost2010PropOp42
 70
     1
102
RTVSPost2010Prop43
 90
        3
102
RTVSPost2010PropOp43
 70
     1
102
RTVSPost2010Prop44ColorIndex
 90
        5
102
RTVSPost2010Prop44ColorRGB
 90
      255
102
RTVSPost2010PropOp44
 70
     1
102
RTVSPost2010Prop45
280
     0
102
RTVSPost2010PropOp45
 70
     1
102
RTVSPost2010Prop46
 90
       50
102
RTVSPost2010PropOp46
 70
     1
102
RTVSPost2010Prop47
 90
       50
102
RTVSPost2010PropOp47
 70
     1
102
RTVSPost2010Prop48
 90
       50
102
RTVSPost2010PropOp48
 70
     1
102
RTVSPost2010Prop49
280
     0
102
RTVSPost2010PropOp49
 70
     1
102
RTVSPost2010Prop50
 90
       50
102
RTVSPost2010PropOp50
 70
     1
102
RTVSPost2010Prop51ColorIndex
 90
      256
102
RTVSPost2010Prop51ColorRGB
 90
-16777216
102
RTVSPost2010PropOp51
 70
     0
102
RTVSPost2010Prop52
140
1.0
102
RTVSPost2010PropOp52
 70
     0
102
RTVSPost2010Prop53
 90
        2
102
RTVSPost2010PropOp53
 70
     1
102
RTVSPost2010Prop54
  1
strokes_ogs.tif
102
RTVSPost2010PropOp54
 70
     1
102
RTVSPost2010Prop55
280
     0
102
RTVSPost2010PropOp55
 70
     1
102
RTVSPost2010Prop56
140
1.0
102
RTVSPost2010PropOp56
 70
     1
102
RTVSPost2010Prop57
140
1.0
102
RTVSPost2010PropOp57
 70
     1
  0
XRECORD
  5
106AD0A
102
{ACAD_REACTORS
330
106AD09
102
}
330
106AD09
100
AcDbXrecord
280
     1
102
RTVSPropertyOp0
 70
     1
102
RTVSPropertyOp1
 70
     1
102
RTVSPropertyOp2
 70
     1
102
RTVSPropertyOp3
 70
     1
102
RTVSPropertyOp4
 70
     1
102
RTVSPropertyOp5
 70
     1
102
RTVSPropertyOp6
 70
     1
102
RTVSPropertyOp7
 70
     1
102
RTVSPropertyOp8
 70
     1
102
RTVSPropertyOp9
 70
     1
102
RTVSPropertyOp10
 70
     1
102
RTVSPropertyOp11
 70
     1
102
RTVSPropertyOp12
 70
     1
102
RTVSPropertyOp13
 70
     1
102
RTVSPropertyOp14
 70
     1
102
RTVSPropertyOp15
 70
     1
102
RTVSPropertyOp16
 70
     1
102
RTVSPropertyOp17
 70
     1
102
RTVSPropertyOp18
 70
     1
102
RTVSPropertyOp19
 70
     1
102
RTVSPropertyOp20
 70
     1
102
RTVSPropertyOp21
 70
     1
102
RTVSPropertyOp22
 70
     1
102
RTVSPropertyOp23
 70
     1
102
RTVSPropertyOp24
 70
     1
102
RTVSPropertyOp25
 70
     1
102
RTVSPropertyOp26
 70
     1
102
RTVSPropertyOp27
 70
     1
102
RTVSPropertyOp28
 70
     1
102
RTVSPropertyOp29
 70
     1
102
RTVSPropertyOp30
 70
     1
102
RTVSPropertyOp31
 70
     1
102
RTVSPropertyOp32
 70
     1
102
RTVSPropertyOp33
 70
     1
102
RTVSPropertyOp34
 70
     1
102
RTVSPropertyOp35
 70
     1
102
RTVSPropertyOp36
 70
     1
102
RTVSPropertyOp37
 70
     1
102
RTVSPropertyOp38
 70
     1
102
RTVSPropertyOp39
 70
     1
102
RTVSPropertyOp40
 70
     1
102
RTVSPropertyOp41
 70
     1
102
RTVSPropertyOp42
 70
     1
102
RTVSPropertyOp43
 70
     1
102
RTVSPropertyOp44
 70
     1
102
RTVSPropertyOp45
 70
     1
102
RTVSPropertyOp46
 70
     1
102
RTVSPropertyOp47
 70
     1
102
RTVSPropertyOp48
 70
     1
102
RTVSPropertyOp49
 70
     1
102
RTVSPropertyOp50
 70
     1
102
RTVSPropertyOp51
 70
     0
102
RTVSPropertyOp52
 70
     0
102
RTVSPropertyOp53
 70
     1
102
RTVSPropertyOp54
 70
     1
102
RTVSPropertyOp55
 70
     1
102
RTVSPropertyOp56
 70
     1
102
RTVSPropertyOp57
 70
     1
102
RTVSPost2010Prop28
280
     0
102
RTVSPost2010PropOp28
 70
     1
102
RTVSPost2010Prop29
280
     1
102
RTVSPost2010PropOp29
 70
     1
102
RTVSPost2010Prop30
280
     1
102
RTVSPost2010PropOp30
 70
     1
102
RTVSPost2010Prop31
280
     0
102
RTVSPost2010PropOp31
 70
     1
102
RTVSPost2010Prop32
280
     0
102
RTVSPost2010PropOp32
 70
     1
102
RTVSPost2010Prop33
280
     0
102
RTVSPost2010PropOp33
 70
     1
102
RTVSPost2010Prop34
280
     0
102
RTVSPost2010PropOp34
 70
     1
102
RTVSPost2010Prop35
280
     0
102
RTVSPost2010PropOp35
 70
     1
102
RTVSPost2010Prop36
280
     0
102
RTVSPost2010PropOp36
 70
     1
102
RTVSPost2010Prop37
 90
       50
102
RTVSPost2010PropOp37
 70
     1
102
RTVSPost2010Prop38
140
0.0
102
RTVSPost2010PropOp38
 70
     1
102
RTVSPost2010Prop39
140
1.0
102
RTVSPost2010PropOp39
 70
     1
102
RTVSPost2010Prop40
 90
        0
102
RTVSPost2010PropOp40
 70
     1
102
RTVSPost2010Prop41ColorIndex
 90
       18
102
RTVSPost2010Prop41ColorRGB
 90
        0
102
RTVSPost2010PropOp41
 70
     1
102
RTVSPost2010Prop42
 90
       50
102
RTVSPost2010PropOp42
 70
     1
102
RTVSPost2010Prop43
 90
        3
102
RTVSPost2010PropOp43
 70
     1
102
RTVSPost2010Prop44ColorIndex
 90
        5
102
RTVSPost2010Prop44ColorRGB
 90
      255
102
RTVSPost2010PropOp44
 70
     1
102
RTVSPost2010Prop45
280
     0
102
RTVSPost2010PropOp45
 70
     1
102
RTVSPost2010Prop46
 90
       50
102
RTVSPost2010PropOp46
 70
     1
102
RTVSPost2010Prop47
 90
       50
102
RTVSPost2010PropOp47
 70
     1
102
RTVSPost2010Prop48
 90
       50
102
RTVSPost2010PropOp48
 70
     1
102
RTVSPost2010Prop49
280
     0
102
RTVSPost2010PropOp49
 70
     1
102
RTVSPost2010Prop50
 90
       50
102
RTVSPost2010PropOp50
 70
     1
102
RTVSPost2010Prop51ColorIndex
 90
      256
102
RTVSPost2010Prop51ColorRGB
 90
-16777216
102
RTVSPost2010PropOp51
 70
     0
102
RTVSPost2010Prop52
140
1.0
102
RTVSPost2010PropOp52
 70
     0
102
RTVSPost2010Prop53
 90
        2
102
RTVSPost2010PropOp53
 70
     1
102
RTVSPost2010Prop54
  1
strokes_ogs.tif
102
RTVSPost2010PropOp54
 70
     1
102
RTVSPost2010Prop55
280
     0
102
RTVSPost2010PropOp55
 70
     1
102
RTVSPost2010Prop56
140
1.0
102
RTVSPost2010PropOp56
 70
     1
102
RTVSPost2010Prop57
140
1.0
102
RTVSPost2010PropOp57
 70
     1
  0
XRECORD
  5
106AD0C
102
{ACAD_REACTORS
330
106AD0B
102
}
330
106AD0B
100
AcDbXrecord
280
     1
102
RTVSPropertyOp0
 70
     1
102
RTVSPropertyOp1
 70
     1
102
RTVSPropertyOp2
 70
     1
102
RTVSPropertyOp3
 70
     1
102
RTVSPropertyOp4
 70
     1
102
RTVSPropertyOp5
 70
     1
102
RTVSPropertyOp6
 70
     1
102
RTVSPropertyOp7
 70
     1
102
RTVSPropertyOp8
 70
     1
102
RTVSPropertyOp9
 70
     1
102
RTVSPropertyOp10
 70
     1
102
RTVSPropertyOp11
 70
     1
102
RTVSPropertyOp12
 70
     1
102
RTVSPropertyOp13
 70
     1
102
RTVSPropertyOp14
 70
     1
102
RTVSPropertyOp15
 70
     1
102
RTVSPropertyOp16
 70
     1
102
RTVSPropertyOp17
 70
     1
102
RTVSPropertyOp18
 70
     1
102
RTVSPropertyOp19
 70
     1
102
RTVSPropertyOp20
 70
     1
102
RTVSPropertyOp21
 70
     1
102
RTVSPropertyOp22
 70
     1
102
RTVSPropertyOp23
 70
     1
102
RTVSPropertyOp24
 70
     1
102
RTVSPropertyOp25
 70
     1
102
RTVSPropertyOp26
 70
     1
102
RTVSPropertyOp27
 70
     1
102
RTVSPropertyOp28
 70
     1
102
RTVSPropertyOp29
 70
     1
102
RTVSPropertyOp30
 70
     1
102
RTVSPropertyOp31
 70
     1
102
RTVSPropertyOp32
 70
     1
102
RTVSPropertyOp33
 70
     1
102
RTVSPropertyOp34
 70
     1
102
RTVSPropertyOp35
 70
     1
102
RTVSPropertyOp36
 70
     1
102
RTVSPropertyOp37
 70
     1
102
RTVSPropertyOp38
 70
     1
102
RTVSPropertyOp39
 70
     1
102
RTVSPropertyOp40
 70
     1
102
RTVSPropertyOp41
 70
     1
102
RTVSPropertyOp42
 70
     1
102
RTVSPropertyOp43
 70
     1
102
RTVSPropertyOp44
 70
     1
102
RTVSPropertyOp45
 70
     1
102
RTVSPropertyOp46
 70
     1
102
RTVSPropertyOp47
 70
     1
102
RTVSPropertyOp48
 70
     1
102
RTVSPropertyOp49
 70
     1
102
RTVSPropertyOp50
 70
     1
102
RTVSPropertyOp51
 70
     0
102
RTVSPropertyOp52
 70
     0
102
RTVSPropertyOp53
 70
     1
102
RTVSPropertyOp54
 70
     1
102
RTVSPropertyOp55
 70
     1
102
RTVSPropertyOp56
 70
     1
102
RTVSPropertyOp57
 70
     1
102
RTVSPost2010Prop28
280
     0
102
RTVSPost2010PropOp28
 70
     1
102
RTVSPost2010Prop29
280
     1
102
RTVSPost2010PropOp29
 70
     1
102
RTVSPost2010Prop30
280
     1
102
RTVSPost2010PropOp30
 70
     1
102
RTVSPost2010Prop31
280
     0
102
RTVSPost2010PropOp31
 70
     1
102
RTVSPost2010Prop32
280
     0
102
RTVSPost2010PropOp32
 70
     1
102
RTVSPost2010Prop33
280
     0
102
RTVSPost2010PropOp33
 70
     1
102
RTVSPost2010Prop34
280
     0
102
RTVSPost2010PropOp34
 70
     1
102
RTVSPost2010Prop35
280
     0
102
RTVSPost2010PropOp35
 70
     1
102
RTVSPost2010Prop36
280
     0
102
RTVSPost2010PropOp36
 70
     1
102
RTVSPost2010Prop37
 90
       50
102
RTVSPost2010PropOp37
 70
     1
102
RTVSPost2010Prop38
140
0.0
102
RTVSPost2010PropOp38
 70
     1
102
RTVSPost2010Prop39
140
1.0
102
RTVSPost2010PropOp39
 70
     1
102
RTVSPost2010Prop40
 90
        0
102
RTVSPost2010PropOp40
 70
     1
102
RTVSPost2010Prop41ColorIndex
 90
       18
102
RTVSPost2010Prop41ColorRGB
 90
        0
102
RTVSPost2010PropOp41
 70
     1
102
RTVSPost2010Prop42
 90
       50
102
RTVSPost2010PropOp42
 70
     1
102
RTVSPost2010Prop43
 90
        3
102
RTVSPost2010PropOp43
 70
     1
102
RTVSPost2010Prop44ColorIndex
 90
        5
102
RTVSPost2010Prop44ColorRGB
 90
      255
102
RTVSPost2010PropOp44
 70
     1
102
RTVSPost2010Prop45
280
     0
102
RTVSPost2010PropOp45
 70
     1
102
RTVSPost2010Prop46
 90
       50
102
RTVSPost2010PropOp46
 70
     1
102
RTVSPost2010Prop47
 90
       50
102
RTVSPost2010PropOp47
 70
     1
102
RTVSPost2010Prop48
 90
       50
102
RTVSPost2010PropOp48
 70
     1
102
RTVSPost2010Prop49
280
     0
102
RTVSPost2010PropOp49
 70
     1
102
RTVSPost2010Prop50
 90
       50
102
RTVSPost2010PropOp50
 70
     1
102
RTVSPost2010Prop51ColorIndex
 90
      256
102
RTVSPost2010Prop51ColorRGB
 90
-16777216
102
RTVSPost2010PropOp51
 70
     0
102
RTVSPost2010Prop52
140
1.0
102
RTVSPost2010PropOp52
 70
     0
102
RTVSPost2010Prop53
 90
        2
102
RTVSPost2010PropOp53
 70
     1
102
RTVSPost2010Prop54
  1
strokes_ogs.tif
102
RTVSPost2010PropOp54
 70
     1
102
RTVSPost2010Prop55
280
     0
102
RTVSPost2010PropOp55
 70
     1
102
RTVSPost2010Prop56
140
1.0
102
RTVSPost2010PropOp56
 70
     1
102
RTVSPost2010Prop57
140
1.0
102
RTVSPost2010PropOp57
 70
     1
  0
XRECORD
  5
106AD0E
102
{ACAD_REACTORS
330
106AD0D
102
}
330
106AD0D
100
AcDbXrecord
280
     1
102
RTVSPropertyOp0
 70
     1
102
RTVSPropertyOp1
 70
     1
102
RTVSPropertyOp2
 70
     1
102
RTVSPropertyOp3
 70
     1
102
RTVSPropertyOp4
 70
     1
102
RTVSPropertyOp5
 70
     1
102
RTVSPropertyOp6
 70
     1
102
RTVSPropertyOp7
 70
     1
102
RTVSPropertyOp8
 70
     1
102
RTVSPropertyOp9
 70
     1
102
RTVSPropertyOp10
 70
     1
102
RTVSPropertyOp11
 70
     1
102
RTVSPropertyOp12
 70
     1
102
RTVSPropertyOp13
 70
     1
102
RTVSPropertyOp14
 70
     1
102
RTVSPropertyOp15
 70
     1
102
RTVSPropertyOp16
 70
     1
102
RTVSPropertyOp17
 70
     1
102
RTVSPropertyOp18
 70
     1
102
RTVSPropertyOp19
 70
     1
102
RTVSPropertyOp20
 70
     1
102
RTVSPropertyOp21
 70
     1
102
RTVSPropertyOp22
 70
     1
102
RTVSPropertyOp23
 70
     1
102
RTVSPropertyOp24
 70
     1
102
RTVSPropertyOp25
 70
     1
102
RTVSPropertyOp26
 70
     1
102
RTVSPropertyOp27
 70
     1
102
RTVSPropertyOp28
 70
     1
102
RTVSPropertyOp29
 70
     1
102
RTVSPropertyOp30
 70
     1
102
RTVSPropertyOp31
 70
     1
102
RTVSPropertyOp32
 70
     1
102
RTVSPropertyOp33
 70
     1
102
RTVSPropertyOp34
 70
     1
102
RTVSPropertyOp35
 70
     1
102
RTVSPropertyOp36
 70
     1
102
RTVSPropertyOp37
 70
     1
102
RTVSPropertyOp38
 70
     1
102
RTVSPropertyOp39
 70
     1
102
RTVSPropertyOp40
 70
     1
102
RTVSPropertyOp41
 70
     1
102
RTVSPropertyOp42
 70
     1
102
RTVSPropertyOp43
 70
     1
102
RTVSPropertyOp44
 70
     1
102
RTVSPropertyOp45
 70
     1
102
RTVSPropertyOp46
 70
     1
102
RTVSPropertyOp47
 70
     1
102
RTVSPropertyOp48
 70
     1
102
RTVSPropertyOp49
 70
     1
102
RTVSPropertyOp50
 70
     1
102
RTVSPropertyOp51
 70
     0
102
RTVSPropertyOp52
 70
     0
102
RTVSPropertyOp53
 70
     1
102
RTVSPropertyOp54
 70
     1
102
RTVSPropertyOp55
 70
     1
102
RTVSPropertyOp56
 70
     1
102
RTVSPropertyOp57
 70
     1
102
RTVSPost2010Prop28
280
     0
102
RTVSPost2010PropOp28
 70
     1
102
RTVSPost2010Prop29
280
     1
102
RTVSPost2010PropOp29
 70
     1
102
RTVSPost2010Prop30
280
     1
102
RTVSPost2010PropOp30
 70
     1
102
RTVSPost2010Prop31
280
     0
102
RTVSPost2010PropOp31
 70
     1
102
RTVSPost2010Prop32
280
     0
102
RTVSPost2010PropOp32
 70
     1
102
RTVSPost2010Prop33
280
     0
102
RTVSPost2010PropOp33
 70
     1
102
RTVSPost2010Prop34
280
     0
102
RTVSPost2010PropOp34
 70
     1
102
RTVSPost2010Prop35
280
     0
102
RTVSPost2010PropOp35
 70
     1
102
RTVSPost2010Prop36
280
     0
102
RTVSPost2010PropOp36
 70
     1
102
RTVSPost2010Prop37
 90
       50
102
RTVSPost2010PropOp37
 70
     1
102
RTVSPost2010Prop38
140
0.0
102
RTVSPost2010PropOp38
 70
     1
102
RTVSPost2010Prop39
140
1.0
102
RTVSPost2010PropOp39
 70
     1
102
RTVSPost2010Prop40
 90
        0
102
RTVSPost2010PropOp40
 70
     1
102
RTVSPost2010Prop41ColorIndex
 90
       18
102
RTVSPost2010Prop41ColorRGB
 90
        0
102
RTVSPost2010PropOp41
 70
     1
102
RTVSPost2010Prop42
 90
       50
102
RTVSPost2010PropOp42
 70
     1
102
RTVSPost2010Prop43
 90
        3
102
RTVSPost2010PropOp43
 70
     1
102
RTVSPost2010Prop44ColorIndex
 90
        5
102
RTVSPost2010Prop44ColorRGB
 90
      255
102
RTVSPost2010PropOp44
 70
     1
102
RTVSPost2010Prop45
280
     0
102
RTVSPost2010PropOp45
 70
     1
102
RTVSPost2010Prop46
 90
       50
102
RTVSPost2010PropOp46
 70
     1
102
RTVSPost2010Prop47
 90
       50
102
RTVSPost2010PropOp47
 70
     1
102
RTVSPost2010Prop48
 90
       50
102
RTVSPost2010PropOp48
 70
     1
102
RTVSPost2010Prop49
280
     0
102
RTVSPost2010PropOp49
 70
     1
102
RTVSPost2010Prop50
 90
       50
102
RTVSPost2010PropOp50
 70
     1
102
RTVSPost2010Prop51ColorIndex
 90
      256
102
RTVSPost2010Prop51ColorRGB
 90
-16777216
102
RTVSPost2010PropOp51
 70
     0
102
RTVSPost2010Prop52
140
1.0
102
RTVSPost2010PropOp52
 70
     0
102
RTVSPost2010Prop53
 90
        2
102
RTVSPost2010PropOp53
 70
     1
102
RTVSPost2010Prop54
  1
strokes_ogs.tif
102
RTVSPost2010PropOp54
 70
     1
102
RTVSPost2010Prop55
280
     0
102
RTVSPost2010PropOp55
 70
     1
102
RTVSPost2010Prop56
140
1.0
102
RTVSPost2010PropOp56
 70
     1
102
RTVSPost2010Prop57
140
1.0
102
RTVSPost2010PropOp57
 70
     1
  0
XRECORD
  5
106AD10
102
{ACAD_REACTORS
330
106AD0F
102
}
330
106AD0F
100
AcDbXrecord
280
     1
102
RTVSPropertyOp0
 70
     1
102
RTVSPropertyOp1
 70
     1
102
RTVSPropertyOp2
 70
     1
102
RTVSPropertyOp3
 70
     1
102
RTVSPropertyOp4
 70
     1
102
RTVSPropertyOp5
 70
     1
102
RTVSPropertyOp6
 70
     1
102
RTVSPropertyOp7
 70
     1
102
RTVSPropertyOp8
 70
     1
102
RTVSPropertyOp9
 70
     1
102
RTVSPropertyOp10
 70
     1
102
RTVSPropertyOp11
 70
     1
102
RTVSPropertyOp12
 70
     1
102
RTVSPropertyOp13
 70
     1
102
RTVSPropertyOp14
 70
     1
102
RTVSPropertyOp15
 70
     1
102
RTVSPropertyOp16
 70
     1
102
RTVSPropertyOp17
 70
     1
102
RTVSPropertyOp18
 70
     1
102
RTVSPropertyOp19
 70
     1
102
RTVSPropertyOp20
 70
     1
102
RTVSPropertyOp21
 70
     1
102
RTVSPropertyOp22
 70
     1
102
RTVSPropertyOp23
 70
     1
102
RTVSPropertyOp24
 70
     1
102
RTVSPropertyOp25
 70
     1
102
RTVSPropertyOp26
 70
     1
102
RTVSPropertyOp27
 70
     1
102
RTVSPropertyOp28
 70
     1
102
RTVSPropertyOp29
 70
     1
102
RTVSPropertyOp30
 70
     1
102
RTVSPropertyOp31
 70
     1
102
RTVSPropertyOp32
 70
     1
102
RTVSPropertyOp33
 70
     1
102
RTVSPropertyOp34
 70
     1
102
RTVSPropertyOp35
 70
     1
102
RTVSPropertyOp36
 70
     1
102
RTVSPropertyOp37
 70
     1
102
RTVSPropertyOp38
 70
     1
102
RTVSPropertyOp39
 70
     1
102
RTVSPropertyOp40
 70
     1
102
RTVSPropertyOp41
 70
     1
102
RTVSPropertyOp42
 70
     1
102
RTVSPropertyOp43
 70
     1
102
RTVSPropertyOp44
 70
     1
102
RTVSPropertyOp45
 70
     1
102
RTVSPropertyOp46
 70
     1
102
RTVSPropertyOp47
 70
     1
102
RTVSPropertyOp48
 70
     1
102
RTVSPropertyOp49
 70
     1
102
RTVSPropertyOp50
 70
     1
102
RTVSPropertyOp51
 70
     0
102
RTVSPropertyOp52
 70
     0
102
RTVSPropertyOp53
 70
     1
102
RTVSPropertyOp54
 70
     1
102
RTVSPropertyOp55
 70
     1
102
RTVSPropertyOp56
 70
     1
102
RTVSPropertyOp57
 70
     1
102
RTVSPost2010Prop28
280
     0
102
RTVSPost2010PropOp28
 70
     1
102
RTVSPost2010Prop29
280
     1
102
RTVSPost2010PropOp29
 70
     1
102
RTVSPost2010Prop30
280
     1
102
RTVSPost2010PropOp30
 70
     1
102
RTVSPost2010Prop31
280
     0
102
RTVSPost2010PropOp31
 70
     1
102
RTVSPost2010Prop32
280
     0
102
RTVSPost2010PropOp32
 70
     1
102
RTVSPost2010Prop33
280
     0
102
RTVSPost2010PropOp33
 70
     1
102
RTVSPost2010Prop34
280
     0
102
RTVSPost2010PropOp34
 70
     1
102
RTVSPost2010Prop35
280
     0
102
RTVSPost2010PropOp35
 70
     1
102
RTVSPost2010Prop36
280
     0
102
RTVSPost2010PropOp36
 70
     1
102
RTVSPost2010Prop37
 90
       50
102
RTVSPost2010PropOp37
 70
     1
102
RTVSPost2010Prop38
140
0.0
102
RTVSPost2010PropOp38
 70
     1
102
RTVSPost2010Prop39
140
1.0
102
RTVSPost2010PropOp39
 70
     1
102
RTVSPost2010Prop40
 90
        0
102
RTVSPost2010PropOp40
 70
     1
102
RTVSPost2010Prop41ColorIndex
 90
       18
102
RTVSPost2010Prop41ColorRGB
 90
        0
102
RTVSPost2010PropOp41
 70
     1
102
RTVSPost2010Prop42
 90
       50
102
RTVSPost2010PropOp42
 70
     1
102
RTVSPost2010Prop43
 90
        3
102
RTVSPost2010PropOp43
 70
     1
102
RTVSPost2010Prop44ColorIndex
 90
        5
102
RTVSPost2010Prop44ColorRGB
 90
      255
102
RTVSPost2010PropOp44
 70
     1
102
RTVSPost2010Prop45
280
     0
102
RTVSPost2010PropOp45
 70
     1
102
RTVSPost2010Prop46
 90
       50
102
RTVSPost2010PropOp46
 70
     1
102
RTVSPost2010Prop47
 90
       50
102
RTVSPost2010PropOp47
 70
     1
102
RTVSPost2010Prop48
 90
       50
102
RTVSPost2010PropOp48
 70
     1
102
RTVSPost2010Prop49
280
     0
102
RTVSPost2010PropOp49
 70
     1
102
RTVSPost2010Prop50
 90
       50
102
RTVSPost2010PropOp50
 70
     1
102
RTVSPost2010Prop51ColorIndex
 90
      256
102
RTVSPost2010Prop51ColorRGB
 90
-16777216
102
RTVSPost2010PropOp51
 70
     0
102
RTVSPost2010Prop52
140
1.0
102
RTVSPost2010PropOp52
 70
     0
102
RTVSPost2010Prop53
 90
        2
102
RTVSPost2010PropOp53
 70
     1
102
RTVSPost2010Prop54
  1
strokes_ogs.tif
102
RTVSPost2010PropOp54
 70
     1
102
RTVSPost2010Prop55
280
     0
102
RTVSPost2010PropOp55
 70
     1
102
RTVSPost2010Prop56
140
1.0
102
RTVSPost2010PropOp56
 70
     1
102
RTVSPost2010Prop57
140
1.0
102
RTVSPost2010PropOp57
 70
     1
  0
XRECORD
  5
106AD12
102
{ACAD_REACTORS
330
106AD11
102
}
330
106AD11
100
AcDbXrecord
280
     1
102
RTVSPropertyOp0
 70
     1
102
RTVSPropertyOp1
 70
     1
102
RTVSPropertyOp2
 70
     1
102
RTVSPropertyOp3
 70
     1
102
RTVSPropertyOp4
 70
     1
102
RTVSPropertyOp5
 70
     1
102
RTVSPropertyOp6
 70
     1
102
RTVSPropertyOp7
 70
     1
102
RTVSPropertyOp8
 70
     1
102
RTVSPropertyOp9
 70
     1
102
RTVSPropertyOp10
 70
     1
102
RTVSPropertyOp11
 70
     1
102
RTVSPropertyOp12
 70
     1
102
RTVSPropertyOp13
 70
     1
102
RTVSPropertyOp14
 70
     1
102
RTVSPropertyOp15
 70
     1
102
RTVSPropertyOp16
 70
     1
102
RTVSPropertyOp17
 70
     1
102
RTVSPropertyOp18
 70
     1
102
RTVSPropertyOp19
 70
     1
102
RTVSPropertyOp20
 70
     1
102
RTVSPropertyOp21
 70
     1
102
RTVSPropertyOp22
 70
     1
102
RTVSPropertyOp23
 70
     1
102
RTVSPropertyOp24
 70
     1
102
RTVSPropertyOp25
 70
     1
102
RTVSPropertyOp26
 70
     1
102
RTVSPropertyOp27
 70
     1
102
RTVSPropertyOp28
 70
     1
102
RTVSPropertyOp29
 70
     1
102
RTVSPropertyOp30
 70
     1
102
RTVSPropertyOp31
 70
     1
102
RTVSPropertyOp32
 70
     1
102
RTVSPropertyOp33
 70
     1
102
RTVSPropertyOp34
 70
     1
102
RTVSPropertyOp35
 70
     1
102
RTVSPropertyOp36
 70
     1
102
RTVSPropertyOp37
 70
     1
102
RTVSPropertyOp38
 70
     1
102
RTVSPropertyOp39
 70
     1
102
RTVSPropertyOp40
 70
     1
102
RTVSPropertyOp41
 70
     1
102
RTVSPropertyOp42
 70
     1
102
RTVSPropertyOp43
 70
     1
102
RTVSPropertyOp44
 70
     1
102
RTVSPropertyOp45
 70
     1
102
RTVSPropertyOp46
 70
     1
102
RTVSPropertyOp47
 70
     1
102
RTVSPropertyOp48
 70
     1
102
RTVSPropertyOp49
 70
     1
102
RTVSPropertyOp50
 70
     1
102
RTVSPropertyOp51
 70
     0
102
RTVSPropertyOp52
 70
     0
102
RTVSPropertyOp53
 70
     1
102
RTVSPropertyOp54
 70
     1
102
RTVSPropertyOp55
 70
     1
102
RTVSPropertyOp56
 70
     1
102
RTVSPropertyOp57
 70
     1
102
RTVSPost2010Prop28
280
     0
102
RTVSPost2010PropOp28
 70
     1
102
RTVSPost2010Prop29
280
     1
102
RTVSPost2010PropOp29
 70
     1
102
RTVSPost2010Prop30
280
     1
102
RTVSPost2010PropOp30
 70
     1
102
RTVSPost2010Prop31
280
     0
102
RTVSPost2010PropOp31
 70
     1
102
RTVSPost2010Prop32
280
     0
102
RTVSPost2010PropOp32
 70
     1
102
RTVSPost2010Prop33
280
     0
102
RTVSPost2010PropOp33
 70
     1
102
RTVSPost2010Prop34
280
     0
102
RTVSPost2010PropOp34
 70
     1
102
RTVSPost2010Prop35
280
     0
102
RTVSPost2010PropOp35
 70
     1
102
RTVSPost2010Prop36
280
     0
102
RTVSPost2010PropOp36
 70
     1
102
RTVSPost2010Prop37
 90
       50
102
RTVSPost2010PropOp37
 70
     1
102
RTVSPost2010Prop38
140
0.0
102
RTVSPost2010PropOp38
 70
     1
102
RTVSPost2010Prop39
140
1.0
102
RTVSPost2010PropOp39
 70
     1
102
RTVSPost2010Prop40
 90
        0
102
RTVSPost2010PropOp40
 70
     1
102
RTVSPost2010Prop41ColorIndex
 90
       18
102
RTVSPost2010Prop41ColorRGB
 90
        0
102
RTVSPost2010PropOp41
 70
     1
102
RTVSPost2010Prop42
 90
       50
102
RTVSPost2010PropOp42
 70
     1
102
RTVSPost2010Prop43
 90
        3
102
RTVSPost2010PropOp43
 70
     1
102
RTVSPost2010Prop44ColorIndex
 90
        5
102
RTVSPost2010Prop44ColorRGB
 90
      255
102
RTVSPost2010PropOp44
 70
     1
102
RTVSPost2010Prop45
280
     0
102
RTVSPost2010PropOp45
 70
     1
102
RTVSPost2010Prop46
 90
       50
102
RTVSPost2010PropOp46
 70
     1
102
RTVSPost2010Prop47
 90
       50
102
RTVSPost2010PropOp47
 70
     1
102
RTVSPost2010Prop48
 90
       50
102
RTVSPost2010PropOp48
 70
     1
102
RTVSPost2010Prop49
280
     0
102
RTVSPost2010PropOp49
 70
     1
102
RTVSPost2010Prop50
 90
       50
102
RTVSPost2010PropOp50
 70
     1
102
RTVSPost2010Prop51ColorIndex
 90
      256
102
RTVSPost2010Prop51ColorRGB
 90
-16777216
102
RTVSPost2010PropOp51
 70
     0
102
RTVSPost2010Prop52
140
1.0
102
RTVSPost2010PropOp52
 70
     0
102
RTVSPost2010Prop53
 90
        2
102
RTVSPost2010PropOp53
 70
     1
102
RTVSPost2010Prop54
  1
strokes_ogs.tif
102
RTVSPost2010PropOp54
 70
     1
102
RTVSPost2010Prop55
280
     0
102
RTVSPost2010PropOp55
 70
     1
102
RTVSPost2010Prop56
140
1.0
102
RTVSPost2010PropOp56
 70
     1
102
RTVSPost2010Prop57
140
1.0
102
RTVSPost2010PropOp57
 70
     1
  0
XRECORD
  5
106AD14
102
{ACAD_REACTORS
330
106AD13
102
}
330
106AD13
100
AcDbXrecord
280
     1
102
RTVSPropertyOp0
 70
     0
102
RTVSPropertyOp1
 70
     0
102
RTVSPropertyOp2
 70
     0
102
RTVSPropertyOp3
 70
     0
102
RTVSPropertyOp4
 70
     0
102
RTVSPropertyOp5
 70
     0
102
RTVSPropertyOp6
 70
     0
102
RTVSPropertyOp7
 70
     0
102
RTVSPropertyOp8
 70
     0
102
RTVSPropertyOp9
 70
     0
102
RTVSPropertyOp10
 70
     0
102
RTVSPropertyOp11
 70
     0
102
RTVSPropertyOp12
 70
     0
102
RTVSPropertyOp13
 70
     0
102
RTVSPropertyOp14
 70
     2
102
RTVSPropertyOp15
 70
     0
102
RTVSPropertyOp16
 70
     0
102
RTVSPropertyOp17
 70
     0
102
RTVSPropertyOp18
 70
     0
102
RTVSPropertyOp19
 70
     0
102
RTVSPropertyOp20
 70
     0
102
RTVSPropertyOp21
 70
     0
102
RTVSPropertyOp22
 70
     0
102
RTVSPropertyOp23
 70
     0
102
RTVSPropertyOp24
 70
     0
102
RTVSPropertyOp25
 70
     0
102
RTVSPropertyOp26
 70
     0
102
RTVSPropertyOp27
 70
     0
102
RTVSPropertyOp28
 70
     0
102
RTVSPropertyOp29
 70
     0
102
RTVSPropertyOp30
 70
     0
102
RTVSPropertyOp31
 70
     0
102
RTVSPropertyOp32
 70
     0
102
RTVSPropertyOp33
 70
     0
102
RTVSPropertyOp34
 70
     0
102
RTVSPropertyOp35
 70
     0
102
RTVSPropertyOp36
 70
     0
102
RTVSPropertyOp37
 70
     0
102
RTVSPropertyOp38
 70
     0
102
RTVSPropertyOp39
 70
     0
102
RTVSPropertyOp40
 70
     0
102
RTVSPropertyOp41
 70
     0
102
RTVSPropertyOp42
 70
     0
102
RTVSPropertyOp43
 70
     0
102
RTVSPropertyOp44
 70
     0
102
RTVSPropertyOp45
 70
     0
102
RTVSPropertyOp46
 70
     0
102
RTVSPropertyOp47
 70
     0
102
RTVSPropertyOp48
 70
     0
102
RTVSPropertyOp49
 70
     0
102
RTVSPropertyOp50
 70
     0
102
RTVSPropertyOp51
 70
     0
102
RTVSPropertyOp52
 70
     0
102
RTVSPropertyOp53
 70
     0
102
RTVSPropertyOp54
 70
     0
102
RTVSPropertyOp55
 70
     0
102
RTVSPropertyOp56
 70
     0
102
RTVSPropertyOp57
 70
     0
102
RTVSPost2010Prop28
280
     0
102
RTVSPost2010PropOp28
 70
     0
102
RTVSPost2010Prop29
280
     1
102
RTVSPost2010PropOp29
 70
     0
102
RTVSPost2010Prop30
280
     1
102
RTVSPost2010PropOp30
 70
     0
102
RTVSPost2010Prop31
280
     0
102
RTVSPost2010PropOp31
 70
     0
102
RTVSPost2010Prop32
280
     0
102
RTVSPost2010PropOp32
 70
     0
102
RTVSPost2010Prop33
280
     0
102
RTVSPost2010PropOp33
 70
     0
102
RTVSPost2010Prop34
280
     0
102
RTVSPost2010PropOp34
 70
     0
102
RTVSPost2010Prop35
280
     0
102
RTVSPost2010PropOp35
 70
     0
102
RTVSPost2010Prop36
280
     0
102
RTVSPost2010PropOp36
 70
     0
102
RTVSPost2010Prop37
 90
       50
102
RTVSPost2010PropOp37
 70
     0
102
RTVSPost2010Prop38
140
0.0
102
RTVSPost2010PropOp38
 70
     0
102
RTVSPost2010Prop39
140
1.0
102
RTVSPost2010PropOp39
 70
     0
102
RTVSPost2010Prop40
 90
        0
102
RTVSPost2010PropOp40
 70
     0
102
RTVSPost2010Prop41ColorIndex
 90
       18
102
RTVSPost2010Prop41ColorRGB
 90
        0
102
RTVSPost2010PropOp41
 70
     0
102
RTVSPost2010Prop42
 90
       50
102
RTVSPost2010PropOp42
 70
     0
102
RTVSPost2010Prop43
 90
        3
102
RTVSPost2010PropOp43
 70
     0
102
RTVSPost2010Prop44ColorIndex
 90
        5
102
RTVSPost2010Prop44ColorRGB
 90
      255
102
RTVSPost2010PropOp44
 70
     0
102
RTVSPost2010Prop45
280
     0
102
RTVSPost2010PropOp45
 70
     0
102
RTVSPost2010Prop46
 90
       50
102
RTVSPost2010PropOp46
 70
     0
102
RTVSPost2010Prop47
 90
       50
102
RTVSPost2010PropOp47
 70
     0
102
RTVSPost2010Prop48
 90
       50
102
RTVSPost2010PropOp48
 70
     0
102
RTVSPost2010Prop49
280
     0
102
RTVSPost2010PropOp49
 70
     0
102
RTVSPost2010Prop50
 90
       50
102
RTVSPost2010PropOp50
 70
     0
102
RTVSPost2010Prop51ColorIndex
 90
      256
102
RTVSPost2010Prop51ColorRGB
 90
-16777216
102
RTVSPost2010PropOp51
 70
     0
102
RTVSPost2010Prop52
140
1.0
102
RTVSPost2010PropOp52
 70
     0
102
RTVSPost2010Prop53
 90
        2
102
RTVSPost2010PropOp53
 70
     0
102
RTVSPost2010Prop54
  1
strokes_ogs.tif
102
RTVSPost2010PropOp54
 70
     0
102
RTVSPost2010Prop55
280
     0
102
RTVSPost2010PropOp55
 70
     0
102
RTVSPost2010Prop56
140
1.0
102
RTVSPost2010PropOp56
 70
     0
102
RTVSPost2010Prop57
140
1.0
102
RTVSPost2010PropOp57
 70
     0
  0
XRECORD
  5
106AD16
102
{ACAD_REACTORS
330
106AD15
102
}
330
106AD15
100
AcDbXrecord
280
     1
102
RTVSPropertyOp0
 70
     1
102
RTVSPropertyOp1
 70
     1
102
RTVSPropertyOp2
 70
     1
102
RTVSPropertyOp3
 70
     1
102
RTVSPropertyOp4
 70
     1
102
RTVSPropertyOp5
 70
     1
102
RTVSPropertyOp6
 70
     1
102
RTVSPropertyOp7
 70
     1
102
RTVSPropertyOp8
 70
     1
102
RTVSPropertyOp9
 70
     1
102
RTVSPropertyOp10
 70
     1
102
RTVSPropertyOp11
 70
     1
102
RTVSPropertyOp12
 70
     1
102
RTVSPropertyOp13
 70
     1
102
RTVSPropertyOp14
 70
     1
102
RTVSPropertyOp15
 70
     1
102
RTVSPropertyOp16
 70
     1
102
RTVSPropertyOp17
 70
     1
102
RTVSPropertyOp18
 70
     1
102
RTVSPropertyOp19
 70
     1
102
RTVSPropertyOp20
 70
     1
102
RTVSPropertyOp21
 70
     1
102
RTVSPropertyOp22
 70
     1
102
RTVSPropertyOp23
 70
     1
102
RTVSPropertyOp24
 70
     1
102
RTVSPropertyOp25
 70
     1
102
RTVSPropertyOp26
 70
     1
102
RTVSPropertyOp27
 70
     1
102
RTVSPropertyOp28
 70
     1
102
RTVSPropertyOp29
 70
     1
102
RTVSPropertyOp30
 70
     1
102
RTVSPropertyOp31
 70
     1
102
RTVSPropertyOp32
 70
     1
102
RTVSPropertyOp33
 70
     1
102
RTVSPropertyOp34
 70
     1
102
RTVSPropertyOp35
 70
     1
102
RTVSPropertyOp36
 70
     1
102
RTVSPropertyOp37
 70
     1
102
RTVSPropertyOp38
 70
     1
102
RTVSPropertyOp39
 70
     1
102
RTVSPropertyOp40
 70
     1
102
RTVSPropertyOp41
 70
     1
102
RTVSPropertyOp42
 70
     1
102
RTVSPropertyOp43
 70
     1
102
RTVSPropertyOp44
 70
     1
102
RTVSPropertyOp45
 70
     1
102
RTVSPropertyOp46
 70
     1
102
RTVSPropertyOp47
 70
     1
102
RTVSPropertyOp48
 70
     1
102
RTVSPropertyOp49
 70
     1
102
RTVSPropertyOp50
 70
     1
102
RTVSPropertyOp51
 70
     0
102
RTVSPropertyOp52
 70
     0
102
RTVSPropertyOp53
 70
     1
102
RTVSPropertyOp54
 70
     1
102
RTVSPropertyOp55
 70
     1
102
RTVSPropertyOp56
 70
     1
102
RTVSPropertyOp57
 70
     1
102
RTVSPost2010Prop28
280
     0
102
RTVSPost2010PropOp28
 70
     1
102
RTVSPost2010Prop29
280
     1
102
RTVSPost2010PropOp29
 70
     1
102
RTVSPost2010Prop30
280
     1
102
RTVSPost2010PropOp30
 70
     1
102
RTVSPost2010Prop31
280
     0
102
RTVSPost2010PropOp31
 70
     1
102
RTVSPost2010Prop32
280
     0
102
RTVSPost2010PropOp32
 70
     1
102
RTVSPost2010Prop33
280
     0
102
RTVSPost2010PropOp33
 70
     1
102
RTVSPost2010Prop34
280
     0
102
RTVSPost2010PropOp34
 70
     1
102
RTVSPost2010Prop35
280
     0
102
RTVSPost2010PropOp35
 70
     1
102
RTVSPost2010Prop36
280
     0
102
RTVSPost2010PropOp36
 70
     1
102
RTVSPost2010Prop37
 90
       50
102
RTVSPost2010PropOp37
 70
     1
102
RTVSPost2010Prop38
140
0.0
102
RTVSPost2010PropOp38
 70
     1
102
RTVSPost2010Prop39
140
1.0
102
RTVSPost2010PropOp39
 70
     1
102
RTVSPost2010Prop40
 90
        0
102
RTVSPost2010PropOp40
 70
     1
102
RTVSPost2010Prop41ColorIndex
 90
       18
102
RTVSPost2010Prop41ColorRGB
 90
        0
102
RTVSPost2010PropOp41
 70
     1
102
RTVSPost2010Prop42
 90
       50
102
RTVSPost2010PropOp42
 70
     1
102
RTVSPost2010Prop43
 90
        3
102
RTVSPost2010PropOp43
 70
     1
102
RTVSPost2010Prop44ColorIndex
 90
        5
102
RTVSPost2010Prop44ColorRGB
 90
      255
102
RTVSPost2010PropOp44
 70
     1
102
RTVSPost2010Prop45
280
     0
102
RTVSPost2010PropOp45
 70
     1
102
RTVSPost2010Prop46
 90
       50
102
RTVSPost2010PropOp46
 70
     1
102
RTVSPost2010Prop47
 90
       50
102
RTVSPost2010PropOp47
 70
     1
102
RTVSPost2010Prop48
 90
       50
102
RTVSPost2010PropOp48
 70
     1
102
RTVSPost2010Prop49
280
     0
102
RTVSPost2010PropOp49
 70
     1
102
RTVSPost2010Prop50
 90
       50
102
RTVSPost2010PropOp50
 70
     1
102
RTVSPost2010Prop51ColorIndex
 90
      256
102
RTVSPost2010Prop51ColorRGB
 90
-16777216
102
RTVSPost2010PropOp51
 70
     0
102
RTVSPost2010Prop52
140
1.0
102
RTVSPost2010PropOp52
 70
     0
102
RTVSPost2010Prop53
 90
        2
102
RTVSPost2010PropOp53
 70
     1
102
RTVSPost2010Prop54
  1
strokes_ogs.tif
102
RTVSPost2010PropOp54
 70
     1
102
RTVSPost2010Prop55
280
     0
102
RTVSPost2010PropOp55
 70
     1
102
RTVSPost2010Prop56
140
1.0
102
RTVSPost2010PropOp56
 70
     1
102
RTVSPost2010Prop57
140
1.0
102
RTVSPost2010PropOp57
 70
     1
  0
XRECORD
  5
106AD18
102
{ACAD_REACTORS
330
106AD17
102
}
330
106AD17
100
AcDbXrecord
280
     1
102
RTVSPropertyOp0
 70
     0
102
RTVSPropertyOp1
 70
     0
102
RTVSPropertyOp2
 70
     0
102
RTVSPropertyOp3
 70
     0
102
RTVSPropertyOp4
 70
     0
102
RTVSPropertyOp5
 70
     0
102
RTVSPropertyOp6
 70
     0
102
RTVSPropertyOp7
 70
     0
102
RTVSPropertyOp8
 70
     0
102
RTVSPropertyOp9
 70
     0
102
RTVSPropertyOp10
 70
     0
102
RTVSPropertyOp11
 70
     0
102
RTVSPropertyOp12
 70
     0
102
RTVSPropertyOp13
 70
     0
102
RTVSPropertyOp14
 70
     2
102
RTVSPropertyOp15
 70
     0
102
RTVSPropertyOp16
 70
     0
102
RTVSPropertyOp17
 70
     0
102
RTVSPropertyOp18
 70
     0
102
RTVSPropertyOp19
 70
     0
102
RTVSPropertyOp20
 70
     0
102
RTVSPropertyOp21
 70
     0
102
RTVSPropertyOp22
 70
     0
102
RTVSPropertyOp23
 70
     0
102
RTVSPropertyOp24
 70
     0
102
RTVSPropertyOp25
 70
     0
102
RTVSPropertyOp26
 70
     0
102
RTVSPropertyOp27
 70
     0
102
RTVSPropertyOp28
 70
     0
102
RTVSPropertyOp29
 70
     0
102
RTVSPropertyOp30
 70
     0
102
RTVSPropertyOp31
 70
     0
102
RTVSPropertyOp32
 70
     0
102
RTVSPropertyOp33
 70
     0
102
RTVSPropertyOp34
 70
     0
102
RTVSPropertyOp35
 70
     0
102
RTVSPropertyOp36
 70
     0
102
RTVSPropertyOp37
 70
     0
102
RTVSPropertyOp38
 70
     0
102
RTVSPropertyOp39
 70
     0
102
RTVSPropertyOp40
 70
     0
102
RTVSPropertyOp41
 70
     0
102
RTVSPropertyOp42
 70
     0
102
RTVSPropertyOp43
 70
     0
102
RTVSPropertyOp44
 70
     0
102
RTVSPropertyOp45
 70
     0
102
RTVSPropertyOp46
 70
     0
102
RTVSPropertyOp47
 70
     0
102
RTVSPropertyOp48
 70
     0
102
RTVSPropertyOp49
 70
     0
102
RTVSPropertyOp50
 70
     0
102
RTVSPropertyOp51
 70
     0
102
RTVSPropertyOp52
 70
     0
102
RTVSPropertyOp53
 70
     0
102
RTVSPropertyOp54
 70
     0
102
RTVSPropertyOp55
 70
     0
102
RTVSPropertyOp56
 70
     0
102
RTVSPropertyOp57
 70
     0
102
RTVSPost2010Prop28
280
     0
102
RTVSPost2010PropOp28
 70
     0
102
RTVSPost2010Prop29
280
     1
102
RTVSPost2010PropOp29
 70
     0
102
RTVSPost2010Prop30
280
     1
102
RTVSPost2010PropOp30
 70
     0
102
RTVSPost2010Prop31
280
     0
102
RTVSPost2010PropOp31
 70
     0
102
RTVSPost2010Prop32
280
     0
102
RTVSPost2010PropOp32
 70
     0
102
RTVSPost2010Prop33
280
     0
102
RTVSPost2010PropOp33
 70
     0
102
RTVSPost2010Prop34
280
     0
102
RTVSPost2010PropOp34
 70
     0
102
RTVSPost2010Prop35
280
     0
102
RTVSPost2010PropOp35
 70
     0
102
RTVSPost2010Prop36
280
     0
102
RTVSPost2010PropOp36
 70
     0
102
RTVSPost2010Prop37
 90
       50
102
RTVSPost2010PropOp37
 70
     0
102
RTVSPost2010Prop38
140
0.0
102
RTVSPost2010PropOp38
 70
     0
102
RTVSPost2010Prop39
140
1.0
102
RTVSPost2010PropOp39
 70
     0
102
RTVSPost2010Prop40
 90
        0
102
RTVSPost2010PropOp40
 70
     0
102
RTVSPost2010Prop41ColorIndex
 90
       18
102
RTVSPost2010Prop41ColorRGB
 90
        0
102
RTVSPost2010PropOp41
 70
     0
102
RTVSPost2010Prop42
 90
       50
102
RTVSPost2010PropOp42
 70
     0
102
RTVSPost2010Prop43
 90
        3
102
RTVSPost2010PropOp43
 70
     0
102
RTVSPost2010Prop44ColorIndex
 90
        5
102
RTVSPost2010Prop44ColorRGB
 90
      255
102
RTVSPost2010PropOp44
 70
     0
102
RTVSPost2010Prop45
280
     0
102
RTVSPost2010PropOp45
 70
     0
102
RTVSPost2010Prop46
 90
       50
102
RTVSPost2010PropOp46
 70
     0
102
RTVSPost2010Prop47
 90
       50
102
RTVSPost2010PropOp47
 70
     0
102
RTVSPost2010Prop48
 90
       50
102
RTVSPost2010PropOp48
 70
     0
102
RTVSPost2010Prop49
280
     0
102
RTVSPost2010PropOp49
 70
     0
102
RTVSPost2010Prop50
 90
       50
102
RTVSPost2010PropOp50
 70
     0
102
RTVSPost2010Prop51ColorIndex
 90
      256
102
RTVSPost2010Prop51ColorRGB
 90
-16777216
102
RTVSPost2010PropOp51
 70
     0
102
RTVSPost2010Prop52
140
1.0
102
RTVSPost2010PropOp52
 70
     0
102
RTVSPost2010Prop53
 90
        2
102
RTVSPost2010PropOp53
 70
     0
102
RTVSPost2010Prop54
  1
strokes_ogs.tif
102
RTVSPost2010PropOp54
 70
     0
102
RTVSPost2010Prop55
280
     0
102
RTVSPost2010PropOp55
 70
     0
102
RTVSPost2010Prop56
140
1.0
102
RTVSPost2010PropOp56
 70
     0
102
RTVSPost2010Prop57
140
1.0
102
RTVSPost2010PropOp57
 70
     0
  0
XRECORD
  5
106AD1A
102
{ACAD_REACTORS
330
106AD19
102
}
330
106AD19
100
AcDbXrecord
280
     1
102
RTVSPropertyOp0
 70
     1
102
RTVSPropertyOp1
 70
     1
102
RTVSPropertyOp2
 70
     1
102
RTVSPropertyOp3
 70
     1
102
RTVSPropertyOp4
 70
     1
102
RTVSPropertyOp5
 70
     1
102
RTVSPropertyOp6
 70
     1
102
RTVSPropertyOp7
 70
     1
102
RTVSPropertyOp8
 70
     1
102
RTVSPropertyOp9
 70
     1
102
RTVSPropertyOp10
 70
     1
102
RTVSPropertyOp11
 70
     1
102
RTVSPropertyOp12
 70
     1
102
RTVSPropertyOp13
 70
     1
102
RTVSPropertyOp14
 70
     1
102
RTVSPropertyOp15
 70
     1
102
RTVSPropertyOp16
 70
     1
102
RTVSPropertyOp17
 70
     1
102
RTVSPropertyOp18
 70
     1
102
RTVSPropertyOp19
 70
     1
102
RTVSPropertyOp20
 70
     1
102
RTVSPropertyOp21
 70
     1
102
RTVSPropertyOp22
 70
     1
102
RTVSPropertyOp23
 70
     1
102
RTVSPropertyOp24
 70
     1
102
RTVSPropertyOp25
 70
     1
102
RTVSPropertyOp26
 70
     1
102
RTVSPropertyOp27
 70
     1
102
RTVSPropertyOp28
 70
     1
102
RTVSPropertyOp29
 70
     1
102
RTVSPropertyOp30
 70
     1
102
RTVSPropertyOp31
 70
     1
102
RTVSPropertyOp32
 70
     1
102
RTVSPropertyOp33
 70
     1
102
RTVSPropertyOp34
 70
     1
102
RTVSPropertyOp35
 70
     1
102
RTVSPropertyOp36
 70
     1
102
RTVSPropertyOp37
 70
     1
102
RTVSPropertyOp38
 70
     1
102
RTVSPropertyOp39
 70
     1
102
RTVSPropertyOp40
 70
     1
102
RTVSPropertyOp41
 70
     1
102
RTVSPropertyOp42
 70
     1
102
RTVSPropertyOp43
 70
     1
102
RTVSPropertyOp44
 70
     1
102
RTVSPropertyOp45
 70
     1
102
RTVSPropertyOp46
 70
     1
102
RTVSPropertyOp47
 70
     1
102
RTVSPropertyOp48
 70
     1
102
RTVSPropertyOp49
 70
     1
102
RTVSPropertyOp50
 70
     1
102
RTVSPropertyOp51
 70
     0
102
RTVSPropertyOp52
 70
     0
102
RTVSPropertyOp53
 70
     1
102
RTVSPropertyOp54
 70
     1
102
RTVSPropertyOp55
 70
     1
102
RTVSPropertyOp56
 70
     1
102
RTVSPropertyOp57
 70
     1
102
RTVSPost2010Prop28
280
     0
102
RTVSPost2010PropOp28
 70
     1
102
RTVSPost2010Prop29
280
     1
102
RTVSPost2010PropOp29
 70
     1
102
RTVSPost2010Prop30
280
     1
102
RTVSPost2010PropOp30
 70
     1
102
RTVSPost2010Prop31
280
     0
102
RTVSPost2010PropOp31
 70
     1
102
RTVSPost2010Prop32
280
     0
102
RTVSPost2010PropOp32
 70
     1
102
RTVSPost2010Prop33
280
     0
102
RTVSPost2010PropOp33
 70
     1
102
RTVSPost2010Prop34
280
     0
102
RTVSPost2010PropOp34
 70
     1
102
RTVSPost2010Prop35
280
     0
102
RTVSPost2010PropOp35
 70
     1
102
RTVSPost2010Prop36
280
     0
102
RTVSPost2010PropOp36
 70
     1
102
RTVSPost2010Prop37
 90
       50
102
RTVSPost2010PropOp37
 70
     1
102
RTVSPost2010Prop38
140
0.0
102
RTVSPost2010PropOp38
 70
     1
102
RTVSPost2010Prop39
140
1.0
102
RTVSPost2010PropOp39
 70
     1
102
RTVSPost2010Prop40
 90
        0
102
RTVSPost2010PropOp40
 70
     1
102
RTVSPost2010Prop41ColorIndex
 90
       18
102
RTVSPost2010Prop41ColorRGB
 90
        0
102
RTVSPost2010PropOp41
 70
     1
102
RTVSPost2010Prop42
 90
       50
102
RTVSPost2010PropOp42
 70
     1
102
RTVSPost2010Prop43
 90
        3
102
RTVSPost2010PropOp43
 70
     1
102
RTVSPost2010Prop44ColorIndex
 90
        5
102
RTVSPost2010Prop44ColorRGB
 90
      255
102
RTVSPost2010PropOp44
 70
     1
102
RTVSPost2010Prop45
280
     0
102
RTVSPost2010PropOp45
 70
     1
102
RTVSPost2010Prop46
 90
       50
102
RTVSPost2010PropOp46
 70
     1
102
RTVSPost2010Prop47
 90
       50
102
RTVSPost2010PropOp47
 70
     1
102
RTVSPost2010Prop48
 90
       50
102
RTVSPost2010PropOp48
 70
     1
102
RTVSPost2010Prop49
280
     0
102
RTVSPost2010PropOp49
 70
     1
102
RTVSPost2010Prop50
 90
       50
102
RTVSPost2010PropOp50
 70
     1
102
RTVSPost2010Prop51ColorIndex
 90
      256
102
RTVSPost2010Prop51ColorRGB
 90
-16777216
102
RTVSPost2010PropOp51
 70
     0
102
RTVSPost2010Prop52
140
1.0
102
RTVSPost2010PropOp52
 70
     0
102
RTVSPost2010Prop53
 90
        2
102
RTVSPost2010PropOp53
 70
     1
102
RTVSPost2010Prop54
  1
strokes_ogs.tif
102
RTVSPost2010PropOp54
 70
     1
102
RTVSPost2010Prop55
280
     0
102
RTVSPost2010PropOp55
 70
     1
102
RTVSPost2010Prop56
140
1.0
102
RTVSPost2010PropOp56
 70
     1
102
RTVSPost2010Prop57
140
1.0
102
RTVSPost2010PropOp57
 70
     1
  0
XRECORD
  5
106AD1C
102
{ACAD_REACTORS
330
106AD1B
102
}
330
106AD1B
100
AcDbXrecord
280
     1
102
RTVSPropertyOp0
 70
     1
102
RTVSPropertyOp1
 70
     1
102
RTVSPropertyOp2
 70
     1
102
RTVSPropertyOp3
 70
     1
102
RTVSPropertyOp4
 70
     1
102
RTVSPropertyOp5
 70
     1
102
RTVSPropertyOp6
 70
     1
102
RTVSPropertyOp7
 70
     1
102
RTVSPropertyOp8
 70
     1
102
RTVSPropertyOp9
 70
     1
102
RTVSPropertyOp10
 70
     1
102
RTVSPropertyOp11
 70
     1
102
RTVSPropertyOp12
 70
     1
102
RTVSPropertyOp13
 70
     1
102
RTVSPropertyOp14
 70
     1
102
RTVSPropertyOp15
 70
     1
102
RTVSPropertyOp16
 70
     1
102
RTVSPropertyOp17
 70
     1
102
RTVSPropertyOp18
 70
     1
102
RTVSPropertyOp19
 70
     1
102
RTVSPropertyOp20
 70
     1
102
RTVSPropertyOp21
 70
     1
102
RTVSPropertyOp22
 70
     1
102
RTVSPropertyOp23
 70
     1
102
RTVSPropertyOp24
 70
     1
102
RTVSPropertyOp25
 70
     1
102
RTVSPropertyOp26
 70
     1
102
RTVSPropertyOp27
 70
     1
102
RTVSPropertyOp28
 70
     1
102
RTVSPropertyOp29
 70
     1
102
RTVSPropertyOp30
 70
     1
102
RTVSPropertyOp31
 70
     1
102
RTVSPropertyOp32
 70
     1
102
RTVSPropertyOp33
 70
     1
102
RTVSPropertyOp34
 70
     1
102
RTVSPropertyOp35
 70
     1
102
RTVSPropertyOp36
 70
     1
102
RTVSPropertyOp37
 70
     1
102
RTVSPropertyOp38
 70
     1
102
RTVSPropertyOp39
 70
     1
102
RTVSPropertyOp40
 70
     1
102
RTVSPropertyOp41
 70
     1
102
RTVSPropertyOp42
 70
     1
102
RTVSPropertyOp43
 70
     1
102
RTVSPropertyOp44
 70
     1
102
RTVSPropertyOp45
 70
     1
102
RTVSPropertyOp46
 70
     1
102
RTVSPropertyOp47
 70
     1
102
RTVSPropertyOp48
 70
     1
102
RTVSPropertyOp49
 70
     1
102
RTVSPropertyOp50
 70
     1
102
RTVSPropertyOp51
 70
     0
102
RTVSPropertyOp52
 70
     0
102
RTVSPropertyOp53
 70
     1
102
RTVSPropertyOp54
 70
     1
102
RTVSPropertyOp55
 70
     1
102
RTVSPropertyOp56
 70
     1
102
RTVSPropertyOp57
 70
     1
102
RTVSPost2010Prop28
280
     0
102
RTVSPost2010PropOp28
 70
     1
102
RTVSPost2010Prop29
280
     1
102
RTVSPost2010PropOp29
 70
     1
102
RTVSPost2010Prop30
280
     1
102
RTVSPost2010PropOp30
 70
     1
102
RTVSPost2010Prop31
280
     0
102
RTVSPost2010PropOp31
 70
     1
102
RTVSPost2010Prop32
280
     0
102
RTVSPost2010PropOp32
 70
     1
102
RTVSPost2010Prop33
280
     0
102
RTVSPost2010PropOp33
 70
     1
102
RTVSPost2010Prop34
280
     0
102
RTVSPost2010PropOp34
 70
     1
102
RTVSPost2010Prop35
280
     0
102
RTVSPost2010PropOp35
 70
     1
102
RTVSPost2010Prop36
280
     0
102
RTVSPost2010PropOp36
 70
     1
102
RTVSPost2010Prop37
 90
       50
102
RTVSPost2010PropOp37
 70
     1
102
RTVSPost2010Prop38
140
0.0
102
RTVSPost2010PropOp38
 70
     1
102
RTVSPost2010Prop39
140
1.0
102
RTVSPost2010PropOp39
 70
     1
102
RTVSPost2010Prop40
 90
        0
102
RTVSPost2010PropOp40
 70
     1
102
RTVSPost2010Prop41ColorIndex
 90
       18
102
RTVSPost2010Prop41ColorRGB
 90
        0
102
RTVSPost2010PropOp41
 70
     1
102
RTVSPost2010Prop42
 90
       50
102
RTVSPost2010PropOp42
 70
     1
102
RTVSPost2010Prop43
 90
        3
102
RTVSPost2010PropOp43
 70
     1
102
RTVSPost2010Prop44ColorIndex
 90
        5
102
RTVSPost2010Prop44ColorRGB
 90
      255
102
RTVSPost2010PropOp44
 70
     1
102
RTVSPost2010Prop45
280
     0
102
RTVSPost2010PropOp45
 70
     1
102
RTVSPost2010Prop46
 90
       50
102
RTVSPost2010PropOp46
 70
     1
102
RTVSPost2010Prop47
 90
       50
102
RTVSPost2010PropOp47
 70
     1
102
RTVSPost2010Prop48
 90
       50
102
RTVSPost2010PropOp48
 70
     1
102
RTVSPost2010Prop49
280
     0
102
RTVSPost2010PropOp49
 70
     1
102
RTVSPost2010Prop50
 90
       50
102
RTVSPost2010PropOp50
 70
     1
102
RTVSPost2010Prop51ColorIndex
 90
      256
102
RTVSPost2010Prop51ColorRGB
 90
-16777216
102
RTVSPost2010PropOp51
 70
     0
102
RTVSPost2010Prop52
140
1.0
102
RTVSPost2010PropOp52
 70
     0
102
RTVSPost2010Prop53
 90
        2
102
RTVSPost2010PropOp53
 70
     1
102
RTVSPost2010Prop54
  1
strokes_ogs.tif
102
RTVSPost2010PropOp54
 70
     1
102
RTVSPost2010Prop55
280
     0
102
RTVSPost2010PropOp55
 70
     1
102
RTVSPost2010Prop56
140
1.0
102
RTVSPost2010PropOp56
 70
     1
102
RTVSPost2010Prop57
140
1.0
102
RTVSPost2010PropOp57
 70
     1
  0
XRECORD
  5
106AD1E
102
{ACAD_REACTORS
330
106AD1D
102
}
330
106AD1D
100
AcDbXrecord
280
     1
102
RTVSPropertyOp0
 70
     1
102
RTVSPropertyOp1
 70
     1
102
RTVSPropertyOp2
 70
     1
102
RTVSPropertyOp3
 70
     1
102
RTVSPropertyOp4
 70
     1
102
RTVSPropertyOp5
 70
     1
102
RTVSPropertyOp6
 70
     1
102
RTVSPropertyOp7
 70
     1
102
RTVSPropertyOp8
 70
     1
102
RTVSPropertyOp9
 70
     1
102
RTVSPropertyOp10
 70
     1
102
RTVSPropertyOp11
 70
     1
102
RTVSPropertyOp12
 70
     1
102
RTVSPropertyOp13
 70
     1
102
RTVSPropertyOp14
 70
     1
102
RTVSPropertyOp15
 70
     1
102
RTVSPropertyOp16
 70
     1
102
RTVSPropertyOp17
 70
     1
102
RTVSPropertyOp18
 70
     1
102
RTVSPropertyOp19
 70
     1
102
RTVSPropertyOp20
 70
     1
102
RTVSPropertyOp21
 70
     1
102
RTVSPropertyOp22
 70
     1
102
RTVSPropertyOp23
 70
     1
102
RTVSPropertyOp24
 70
     1
102
RTVSPropertyOp25
 70
     1
102
RTVSPropertyOp26
 70
     1
102
RTVSPropertyOp27
 70
     1
102
RTVSPropertyOp28
 70
     1
102
RTVSPropertyOp29
 70
     1
102
RTVSPropertyOp30
 70
     1
102
RTVSPropertyOp31
 70
     1
102
RTVSPropertyOp32
 70
     1
102
RTVSPropertyOp33
 70
     1
102
RTVSPropertyOp34
 70
     1
102
RTVSPropertyOp35
 70
     1
102
RTVSPropertyOp36
 70
     1
102
RTVSPropertyOp37
 70
     1
102
RTVSPropertyOp38
 70
     1
102
RTVSPropertyOp39
 70
     1
102
RTVSPropertyOp40
 70
     1
102
RTVSPropertyOp41
 70
     1
102
RTVSPropertyOp42
 70
     1
102
RTVSPropertyOp43
 70
     1
102
RTVSPropertyOp44
 70
     1
102
RTVSPropertyOp45
 70
     1
102
RTVSPropertyOp46
 70
     1
102
RTVSPropertyOp47
 70
     1
102
RTVSPropertyOp48
 70
     1
102
RTVSPropertyOp49
 70
     1
102
RTVSPropertyOp50
 70
     1
102
RTVSPropertyOp51
 70
     0
102
RTVSPropertyOp52
 70
     0
102
RTVSPropertyOp53
 70
     1
102
RTVSPropertyOp54
 70
     1
102
RTVSPropertyOp55
 70
     1
102
RTVSPropertyOp56
 70
     1
102
RTVSPropertyOp57
 70
     1
102
RTVSPost2010Prop28
280
     0
102
RTVSPost2010PropOp28
 70
     1
102
RTVSPost2010Prop29
280
     1
102
RTVSPost2010PropOp29
 70
     1
102
RTVSPost2010Prop30
280
     1
102
RTVSPost2010PropOp30
 70
     1
102
RTVSPost2010Prop31
280
     0
102
RTVSPost2010PropOp31
 70
     1
102
RTVSPost2010Prop32
280
     0
102
RTVSPost2010PropOp32
 70
     1
102
RTVSPost2010Prop33
280
     0
102
RTVSPost2010PropOp33
 70
     1
102
RTVSPost2010Prop34
280
     0
102
RTVSPost2010PropOp34
 70
     1
102
RTVSPost2010Prop35
280
     0
102
RTVSPost2010PropOp35
 70
     1
102
RTVSPost2010Prop36
280
     0
102
RTVSPost2010PropOp36
 70
     1
102
RTVSPost2010Prop37
 90
       50
102
RTVSPost2010PropOp37
 70
     1
102
RTVSPost2010Prop38
140
0.0
102
RTVSPost2010PropOp38
 70
     1
102
RTVSPost2010Prop39
140
1.0
102
RTVSPost2010PropOp39
 70
     1
102
RTVSPost2010Prop40
 90
        0
102
RTVSPost2010PropOp40
 70
     1
102
RTVSPost2010Prop41ColorIndex
 90
       18
102
RTVSPost2010Prop41ColorRGB
 90
        0
102
RTVSPost2010PropOp41
 70
     1
102
RTVSPost2010Prop42
 90
       50
102
RTVSPost2010PropOp42
 70
     1
102
RTVSPost2010Prop43
 90
        3
102
RTVSPost2010PropOp43
 70
     1
102
RTVSPost2010Prop44ColorIndex
 90
        5
102
RTVSPost2010Prop44ColorRGB
 90
      255
102
RTVSPost2010PropOp44
 70
     1
102
RTVSPost2010Prop45
280
     0
102
RTVSPost2010PropOp45
 70
     1
102
RTVSPost2010Prop46
 90
       50
102
RTVSPost2010PropOp46
 70
     1
102
RTVSPost2010Prop47
 90
       50
102
RTVSPost2010PropOp47
 70
     1
102
RTVSPost2010Prop48
 90
       50
102
RTVSPost2010PropOp48
 70
     1
102
RTVSPost2010Prop49
280
     0
102
RTVSPost2010PropOp49
 70
     1
102
RTVSPost2010Prop50
 90
       50
102
RTVSPost2010PropOp50
 70
     1
102
RTVSPost2010Prop51ColorIndex
 90
      256
102
RTVSPost2010Prop51ColorRGB
 90
-16777216
102
RTVSPost2010PropOp51
 70
     0
102
RTVSPost2010Prop52
140
1.0
102
RTVSPost2010PropOp52
 70
     0
102
RTVSPost2010Prop53
 90
        2
102
RTVSPost2010PropOp53
 70
     1
102
RTVSPost2010Prop54
  1
strokes_ogs.tif
102
RTVSPost2010PropOp54
 70
     1
102
RTVSPost2010Prop55
280
     0
102
RTVSPost2010PropOp55
 70
     1
102
RTVSPost2010Prop56
140
1.0
102
RTVSPost2010PropOp56
 70
     1
102
RTVSPost2010Prop57
140
1.0
102
RTVSPost2010PropOp57
 70
     1
  0
XRECORD
  5
106AD20
102
{ACAD_REACTORS
330
106AD1F
102
}
330
106AD1F
100
AcDbXrecord
280
     1
102
RTVSPropertyOp0
 70
     1
102
RTVSPropertyOp1
 70
     1
102
RTVSPropertyOp2
 70
     1
102
RTVSPropertyOp3
 70
     1
102
RTVSPropertyOp4
 70
     1
102
RTVSPropertyOp5
 70
     1
102
RTVSPropertyOp6
 70
     1
102
RTVSPropertyOp7
 70
     1
102
RTVSPropertyOp8
 70
     1
102
RTVSPropertyOp9
 70
     1
102
RTVSPropertyOp10
 70
     1
102
RTVSPropertyOp11
 70
     1
102
RTVSPropertyOp12
 70
     1
102
RTVSPropertyOp13
 70
     1
102
RTVSPropertyOp14
 70
     1
102
RTVSPropertyOp15
 70
     1
102
RTVSPropertyOp16
 70
     1
102
RTVSPropertyOp17
 70
     1
102
RTVSPropertyOp18
 70
     1
102
RTVSPropertyOp19
 70
     1
102
RTVSPropertyOp20
 70
     1
102
RTVSPropertyOp21
 70
     1
102
RTVSPropertyOp22
 70
     1
102
RTVSPropertyOp23
 70
     1
102
RTVSPropertyOp24
 70
     1
102
RTVSPropertyOp25
 70
     1
102
RTVSPropertyOp26
 70
     1
102
RTVSPropertyOp27
 70
     1
102
RTVSPropertyOp28
 70
     1
102
RTVSPropertyOp29
 70
     1
102
RTVSPropertyOp30
 70
     1
102
RTVSPropertyOp31
 70
     1
102
RTVSPropertyOp32
 70
     1
102
RTVSPropertyOp33
 70
     1
102
RTVSPropertyOp34
 70
     1
102
RTVSPropertyOp35
 70
     1
102
RTVSPropertyOp36
 70
     1
102
RTVSPropertyOp37
 70
     1
102
RTVSPropertyOp38
 70
     1
102
RTVSPropertyOp39
 70
     1
102
RTVSPropertyOp40
 70
     1
102
RTVSPropertyOp41
 70
     1
102
RTVSPropertyOp42
 70
     1
102
RTVSPropertyOp43
 70
     1
102
RTVSPropertyOp44
 70
     1
102
RTVSPropertyOp45
 70
     1
102
RTVSPropertyOp46
 70
     1
102
RTVSPropertyOp47
 70
     1
102
RTVSPropertyOp48
 70
     1
102
RTVSPropertyOp49
 70
     1
102
RTVSPropertyOp50
 70
     1
102
RTVSPropertyOp51
 70
     0
102
RTVSPropertyOp52
 70
     0
102
RTVSPropertyOp53
 70
     1
102
RTVSPropertyOp54
 70
     1
102
RTVSPropertyOp55
 70
     1
102
RTVSPropertyOp56
 70
     1
102
RTVSPropertyOp57
 70
     1
102
RTVSPost2010Prop28
280
     0
102
RTVSPost2010PropOp28
 70
     1
102
RTVSPost2010Prop29
280
     1
102
RTVSPost2010PropOp29
 70
     1
102
RTVSPost2010Prop30
280
     1
102
RTVSPost2010PropOp30
 70
     1
102
RTVSPost2010Prop31
280
     0
102
RTVSPost2010PropOp31
 70
     1
102
RTVSPost2010Prop32
280
     0
102
RTVSPost2010PropOp32
 70
     1
102
RTVSPost2010Prop33
280
     0
102
RTVSPost2010PropOp33
 70
     1
102
RTVSPost2010Prop34
280
     0
102
RTVSPost2010PropOp34
 70
     1
102
RTVSPost2010Prop35
280
     0
102
RTVSPost2010PropOp35
 70
     1
102
RTVSPost2010Prop36
280
     0
102
RTVSPost2010PropOp36
 70
     1
102
RTVSPost2010Prop37
 90
       50
102
RTVSPost2010PropOp37
 70
     1
102
RTVSPost2010Prop38
140
0.0
102
RTVSPost2010PropOp38
 70
     1
102
RTVSPost2010Prop39
140
1.0
102
RTVSPost2010PropOp39
 70
     1
102
RTVSPost2010Prop40
 90
        0
102
RTVSPost2010PropOp40
 70
     1
102
RTVSPost2010Prop41ColorIndex
 90
       18
102
RTVSPost2010Prop41ColorRGB
 90
        0
102
RTVSPost2010PropOp41
 70
     1
102
RTVSPost2010Prop42
 90
       50
102
RTVSPost2010PropOp42
 70
     1
102
RTVSPost2010Prop43
 90
        3
102
RTVSPost2010PropOp43
 70
     1
102
RTVSPost2010Prop44ColorIndex
 90
        5
102
RTVSPost2010Prop44ColorRGB
 90
      255
102
RTVSPost2010PropOp44
 70
     1
102
RTVSPost2010Prop45
280
     0
102
RTVSPost2010PropOp45
 70
     1
102
RTVSPost2010Prop46
 90
       50
102
RTVSPost2010PropOp46
 70
     1
102
RTVSPost2010Prop47
 90
       50
102
RTVSPost2010PropOp47
 70
     1
102
RTVSPost2010Prop48
 90
       50
102
RTVSPost2010PropOp48
 70
     1
102
RTVSPost2010Prop49
280
     0
102
RTVSPost2010PropOp49
 70
     1
102
RTVSPost2010Prop50
 90
       50
102
RTVSPost2010PropOp50
 70
     1
102
RTVSPost2010Prop51ColorIndex
 90
      256
102
RTVSPost2010Prop51ColorRGB
 90
-16777216
102
RTVSPost2010PropOp51
 70
     0
102
RTVSPost2010Prop52
140
1.0
102
RTVSPost2010PropOp52
 70
     0
102
RTVSPost2010Prop53
 90
        2
102
RTVSPost2010PropOp53
 70
     1
102
RTVSPost2010Prop54
  1
strokes_ogs.tif
102
RTVSPost2010PropOp54
 70
     1
102
RTVSPost2010Prop55
280
     0
102
RTVSPost2010PropOp55
 70
     1
102
RTVSPost2010Prop56
140
1.0
102
RTVSPost2010PropOp56
 70
     1
102
RTVSPost2010Prop57
140
1.0
102
RTVSPost2010PropOp57
 70
     1
  0
XRECORD
  5
106AD22
102
{ACAD_REACTORS
330
106AD21
102
}
330
106AD21
100
AcDbXrecord
280
     1
102
RTVSPropertyOp0
 70
     1
102
RTVSPropertyOp1
 70
     1
102
RTVSPropertyOp2
 70
     1
102
RTVSPropertyOp3
 70
     1
102
RTVSPropertyOp4
 70
     1
102
RTVSPropertyOp5
 70
     1
102
RTVSPropertyOp6
 70
     1
102
RTVSPropertyOp7
 70
     1
102
RTVSPropertyOp8
 70
     1
102
RTVSPropertyOp9
 70
     1
102
RTVSPropertyOp10
 70
     1
102
RTVSPropertyOp11
 70
     1
102
RTVSPropertyOp12
 70
     1
102
RTVSPropertyOp13
 70
     1
102
RTVSPropertyOp14
 70
     1
102
RTVSPropertyOp15
 70
     1
102
RTVSPropertyOp16
 70
     1
102
RTVSPropertyOp17
 70
     1
102
RTVSPropertyOp18
 70
     1
102
RTVSPropertyOp19
 70
     1
102
RTVSPropertyOp20
 70
     1
102
RTVSPropertyOp21
 70
     1
102
RTVSPropertyOp22
 70
     1
102
RTVSPropertyOp23
 70
     1
102
RTVSPropertyOp24
 70
     1
102
RTVSPropertyOp25
 70
     1
102
RTVSPropertyOp26
 70
     1
102
RTVSPropertyOp27
 70
     1
102
RTVSPropertyOp28
 70
     1
102
RTVSPropertyOp29
 70
     1
102
RTVSPropertyOp30
 70
     1
102
RTVSPropertyOp31
 70
     1
102
RTVSPropertyOp32
 70
     1
102
RTVSPropertyOp33
 70
     1
102
RTVSPropertyOp34
 70
     1
102
RTVSPropertyOp35
 70
     1
102
RTVSPropertyOp36
 70
     1
102
RTVSPropertyOp37
 70
     1
102
RTVSPropertyOp38
 70
     1
102
RTVSPropertyOp39
 70
     1
102
RTVSPropertyOp40
 70
     1
102
RTVSPropertyOp41
 70
     1
102
RTVSPropertyOp42
 70
     1
102
RTVSPropertyOp43
 70
     1
102
RTVSPropertyOp44
 70
     1
102
RTVSPropertyOp45
 70
     1
102
RTVSPropertyOp46
 70
     1
102
RTVSPropertyOp47
 70
     1
102
RTVSPropertyOp48
 70
     1
102
RTVSPropertyOp49
 70
     1
102
RTVSPropertyOp50
 70
     1
102
RTVSPropertyOp51
 70
     0
102
RTVSPropertyOp52
 70
     0
102
RTVSPropertyOp53
 70
     1
102
RTVSPropertyOp54
 70
     1
102
RTVSPropertyOp55
 70
     1
102
RTVSPropertyOp56
 70
     1
102
RTVSPropertyOp57
 70
     1
102
RTVSPost2010Prop28
280
     0
102
RTVSPost2010PropOp28
 70
     1
102
RTVSPost2010Prop29
280
     1
102
RTVSPost2010PropOp29
 70
     1
102
RTVSPost2010Prop30
280
     1
102
RTVSPost2010PropOp30
 70
     1
102
RTVSPost2010Prop31
280
     0
102
RTVSPost2010PropOp31
 70
     1
102
RTVSPost2010Prop32
280
     0
102
RTVSPost2010PropOp32
 70
     1
102
RTVSPost2010Prop33
280
     0
102
RTVSPost2010PropOp33
 70
     1
102
RTVSPost2010Prop34
280
     0
102
RTVSPost2010PropOp34
 70
     1
102
RTVSPost2010Prop35
280
     0
102
RTVSPost2010PropOp35
 70
     1
102
RTVSPost2010Prop36
280
     0
102
RTVSPost2010PropOp36
 70
     1
102
RTVSPost2010Prop37
 90
       50
102
RTVSPost2010PropOp37
 70
     1
102
RTVSPost2010Prop38
140
0.0
102
RTVSPost2010PropOp38
 70
     1
102
RTVSPost2010Prop39
140
1.0
102
RTVSPost2010PropOp39
 70
     1
102
RTVSPost2010Prop40
 90
        0
102
RTVSPost2010PropOp40
 70
     1
102
RTVSPost2010Prop41ColorIndex
 90
       18
102
RTVSPost2010Prop41ColorRGB
 90
        0
102
RTVSPost2010PropOp41
 70
     1
102
RTVSPost2010Prop42
 90
       50
102
RTVSPost2010PropOp42
 70
     1
102
RTVSPost2010Prop43
 90
        3
102
RTVSPost2010PropOp43
 70
     1
102
RTVSPost2010Prop44ColorIndex
 90
        5
102
RTVSPost2010Prop44ColorRGB
 90
      255
102
RTVSPost2010PropOp44
 70
     1
102
RTVSPost2010Prop45
280
     0
102
RTVSPost2010PropOp45
 70
     1
102
RTVSPost2010Prop46
 90
       50
102
RTVSPost2010PropOp46
 70
     1
102
RTVSPost2010Prop47
 90
       50
102
RTVSPost2010PropOp47
 70
     1
102
RTVSPost2010Prop48
 90
       50
102
RTVSPost2010PropOp48
 70
     1
102
RTVSPost2010Prop49
280
     0
102
RTVSPost2010PropOp49
 70
     1
102
RTVSPost2010Prop50
 90
       50
102
RTVSPost2010PropOp50
 70
     1
102
RTVSPost2010Prop51ColorIndex
 90
      256
102
RTVSPost2010Prop51ColorRGB
 90
-16777216
102
RTVSPost2010PropOp51
 70
     0
102
RTVSPost2010Prop52
140
1.0
102
RTVSPost2010PropOp52
 70
     0
102
RTVSPost2010Prop53
 90
        2
102
RTVSPost2010PropOp53
 70
     1
102
RTVSPost2010Prop54
  1
strokes_ogs.tif
102
RTVSPost2010PropOp54
 70
     1
102
RTVSPost2010Prop55
280
     0
102
RTVSPost2010PropOp55
 70
     1
102
RTVSPost2010Prop56
140
1.0
102
RTVSPost2010PropOp56
 70
     1
102
RTVSPost2010Prop57
140
1.0
102
RTVSPost2010PropOp57
 70
     1
  0
XRECORD
  5
106AD24
102
{ACAD_REACTORS
330
106AD23
102
}
330
106AD23
100
AcDbXrecord
280
     1
102
RTVSPropertyOp0
 70
     1
102
RTVSPropertyOp1
 70
     1
102
RTVSPropertyOp2
 70
     1
102
RTVSPropertyOp3
 70
     1
102
RTVSPropertyOp4
 70
     1
102
RTVSPropertyOp5
 70
     1
102
RTVSPropertyOp6
 70
     1
102
RTVSPropertyOp7
 70
     1
102
RTVSPropertyOp8
 70
     1
102
RTVSPropertyOp9
 70
     1
102
RTVSPropertyOp10
 70
     1
102
RTVSPropertyOp11
 70
     1
102
RTVSPropertyOp12
 70
     1
102
RTVSPropertyOp13
 70
     1
102
RTVSPropertyOp14
 70
     1
102
RTVSPropertyOp15
 70
     1
102
RTVSPropertyOp16
 70
     1
102
RTVSPropertyOp17
 70
     1
102
RTVSPropertyOp18
 70
     1
102
RTVSPropertyOp19
 70
     1
102
RTVSPropertyOp20
 70
     1
102
RTVSPropertyOp21
 70
     1
102
RTVSPropertyOp22
 70
     1
102
RTVSPropertyOp23
 70
     1
102
RTVSPropertyOp24
 70
     1
102
RTVSPropertyOp25
 70
     1
102
RTVSPropertyOp26
 70
     1
102
RTVSPropertyOp27
 70
     1
102
RTVSPropertyOp28
 70
     1
102
RTVSPropertyOp29
 70
     1
102
RTVSPropertyOp30
 70
     1
102
RTVSPropertyOp31
 70
     1
102
RTVSPropertyOp32
 70
     1
102
RTVSPropertyOp33
 70
     1
102
RTVSPropertyOp34
 70
     1
102
RTVSPropertyOp35
 70
     1
102
RTVSPropertyOp36
 70
     1
102
RTVSPropertyOp37
 70
     1
102
RTVSPropertyOp38
 70
     1
102
RTVSPropertyOp39
 70
     1
102
RTVSPropertyOp40
 70
     1
102
RTVSPropertyOp41
 70
     1
102
RTVSPropertyOp42
 70
     1
102
RTVSPropertyOp43
 70
     1
102
RTVSPropertyOp44
 70
     1
102
RTVSPropertyOp45
 70
     1
102
RTVSPropertyOp46
 70
     1
102
RTVSPropertyOp47
 70
     1
102
RTVSPropertyOp48
 70
     1
102
RTVSPropertyOp49
 70
     1
102
RTVSPropertyOp50
 70
     1
102
RTVSPropertyOp51
 70
     0
102
RTVSPropertyOp52
 70
     0
102
RTVSPropertyOp53
 70
     1
102
RTVSPropertyOp54
 70
     1
102
RTVSPropertyOp55
 70
     1
102
RTVSPropertyOp56
 70
     1
102
RTVSPropertyOp57
 70
     1
102
RTVSPost2010Prop28
280
     0
102
RTVSPost2010PropOp28
 70
     1
102
RTVSPost2010Prop29
280
     1
102
RTVSPost2010PropOp29
 70
     1
102
RTVSPost2010Prop30
280
     1
102
RTVSPost2010PropOp30
 70
     1
102
RTVSPost2010Prop31
280
     0
102
RTVSPost2010PropOp31
 70
     1
102
RTVSPost2010Prop32
280
     0
102
RTVSPost2010PropOp32
 70
     1
102
RTVSPost2010Prop33
280
     0
102
RTVSPost2010PropOp33
 70
     1
102
RTVSPost2010Prop34
280
     0
102
RTVSPost2010PropOp34
 70
     1
102
RTVSPost2010Prop35
280
     0
102
RTVSPost2010PropOp35
 70
     1
102
RTVSPost2010Prop36
280
     0
102
RTVSPost2010PropOp36
 70
     1
102
RTVSPost2010Prop37
 90
       50
102
RTVSPost2010PropOp37
 70
     1
102
RTVSPost2010Prop38
140
0.0
102
RTVSPost2010PropOp38
 70
     1
102
RTVSPost2010Prop39
140
1.0
102
RTVSPost2010PropOp39
 70
     1
102
RTVSPost2010Prop40
 90
        0
102
RTVSPost2010PropOp40
 70
     1
102
RTVSPost2010Prop41ColorIndex
 90
       18
102
RTVSPost2010Prop41ColorRGB
 90
        0
102
RTVSPost2010PropOp41
 70
     1
102
RTVSPost2010Prop42
 90
       50
102
RTVSPost2010PropOp42
 70
     1
102
RTVSPost2010Prop43
 90
        3
102
RTVSPost2010PropOp43
 70
     1
102
RTVSPost2010Prop44ColorIndex
 90
        5
102
RTVSPost2010Prop44ColorRGB
 90
      255
102
RTVSPost2010PropOp44
 70
     1
102
RTVSPost2010Prop45
280
     0
102
RTVSPost2010PropOp45
 70
     1
102
RTVSPost2010Prop46
 90
       50
102
RTVSPost2010PropOp46
 70
     1
102
RTVSPost2010Prop47
 90
       50
102
RTVSPost2010PropOp47
 70
     1
102
RTVSPost2010Prop48
 90
       50
102
RTVSPost2010PropOp48
 70
     1
102
RTVSPost2010Prop49
280
     0
102
RTVSPost2010PropOp49
 70
     1
102
RTVSPost2010Prop50
 90
       50
102
RTVSPost2010PropOp50
 70
     1
102
RTVSPost2010Prop51ColorIndex
 90
      256
102
RTVSPost2010Prop51ColorRGB
 90
-16777216
102
RTVSPost2010PropOp51
 70
     0
102
RTVSPost2010Prop52
140
1.0
102
RTVSPost2010PropOp52
 70
     0
102
RTVSPost2010Prop53
 90
        2
102
RTVSPost2010PropOp53
 70
     1
102
RTVSPost2010Prop54
  1
strokes_ogs.tif
102
RTVSPost2010PropOp54
 70
     1
102
RTVSPost2010Prop55
280
     0
102
RTVSPost2010PropOp55
 70
     1
102
RTVSPost2010Prop56
140
1.0
102
RTVSPost2010PropOp56
 70
     1
102
RTVSPost2010Prop57
140
1.0
102
RTVSPost2010PropOp57
 70
     1
  0
XRECORD
  5
106AD26
102
{ACAD_REACTORS
330
106AD25
102
}
330
106AD25
100
AcDbXrecord
280
     1
102
RTVSPropertyOp0
 70
     1
102
RTVSPropertyOp1
 70
     1
102
RTVSPropertyOp2
 70
     1
102
RTVSPropertyOp3
 70
     1
102
RTVSPropertyOp4
 70
     1
102
RTVSPropertyOp5
 70
     1
102
RTVSPropertyOp6
 70
     1
102
RTVSPropertyOp7
 70
     1
102
RTVSPropertyOp8
 70
     1
102
RTVSPropertyOp9
 70
     1
102
RTVSPropertyOp10
 70
     1
102
RTVSPropertyOp11
 70
     1
102
RTVSPropertyOp12
 70
     1
102
RTVSPropertyOp13
 70
     1
102
RTVSPropertyOp14
 70
     1
102
RTVSPropertyOp15
 70
     1
102
RTVSPropertyOp16
 70
     1
102
RTVSPropertyOp17
 70
     1
102
RTVSPropertyOp18
 70
     1
102
RTVSPropertyOp19
 70
     1
102
RTVSPropertyOp20
 70
     1
102
RTVSPropertyOp21
 70
     1
102
RTVSPropertyOp22
 70
     1
102
RTVSPropertyOp23
 70
     1
102
RTVSPropertyOp24
 70
     1
102
RTVSPropertyOp25
 70
     1
102
RTVSPropertyOp26
 70
     1
102
RTVSPropertyOp27
 70
     1
102
RTVSPropertyOp28
 70
     1
102
RTVSPropertyOp29
 70
     1
102
RTVSPropertyOp30
 70
     1
102
RTVSPropertyOp31
 70
     1
102
RTVSPropertyOp32
 70
     1
102
RTVSPropertyOp33
 70
     1
102
RTVSPropertyOp34
 70
     1
102
RTVSPropertyOp35
 70
     1
102
RTVSPropertyOp36
 70
     1
102
RTVSPropertyOp37
 70
     1
102
RTVSPropertyOp38
 70
     1
102
RTVSPropertyOp39
 70
     1
102
RTVSPropertyOp40
 70
     1
102
RTVSPropertyOp41
 70
     1
102
RTVSPropertyOp42
 70
     1
102
RTVSPropertyOp43
 70
     1
102
RTVSPropertyOp44
 70
     1
102
RTVSPropertyOp45
 70
     1
102
RTVSPropertyOp46
 70
     1
102
RTVSPropertyOp47
 70
     1
102
RTVSPropertyOp48
 70
     1
102
RTVSPropertyOp49
 70
     1
102
RTVSPropertyOp50
 70
     1
102
RTVSPropertyOp51
 70
     0
102
RTVSPropertyOp52
 70
     0
102
RTVSPropertyOp53
 70
     1
102
RTVSPropertyOp54
 70
     1
102
RTVSPropertyOp55
 70
     1
102
RTVSPropertyOp56
 70
     1
102
RTVSPropertyOp57
 70
     1
102
RTVSPost2010Prop28
280
     0
102
RTVSPost2010PropOp28
 70
     1
102
RTVSPost2010Prop29
280
     1
102
RTVSPost2010PropOp29
 70
     1
102
RTVSPost2010Prop30
280
     1
102
RTVSPost2010PropOp30
 70
     1
102
RTVSPost2010Prop31
280
     0
102
RTVSPost2010PropOp31
 70
     1
102
RTVSPost2010Prop32
280
     0
102
RTVSPost2010PropOp32
 70
     1
102
RTVSPost2010Prop33
280
     0
102
RTVSPost2010PropOp33
 70
     1
102
RTVSPost2010Prop34
280
     0
102
RTVSPost2010PropOp34
 70
     1
102
RTVSPost2010Prop35
280
     0
102
RTVSPost2010PropOp35
 70
     1
102
RTVSPost2010Prop36
280
     0
102
RTVSPost2010PropOp36
 70
     1
102
RTVSPost2010Prop37
 90
       50
102
RTVSPost2010PropOp37
 70
     1
102
RTVSPost2010Prop38
140
0.0
102
RTVSPost2010PropOp38
 70
     1
102
RTVSPost2010Prop39
140
1.0
102
RTVSPost2010PropOp39
 70
     1
102
RTVSPost2010Prop40
 90
        0
102
RTVSPost2010PropOp40
 70
     1
102
RTVSPost2010Prop41ColorIndex
 90
       18
102
RTVSPost2010Prop41ColorRGB
 90
        0
102
RTVSPost2010PropOp41
 70
     1
102
RTVSPost2010Prop42
 90
       50
102
RTVSPost2010PropOp42
 70
     1
102
RTVSPost2010Prop43
 90
        3
102
RTVSPost2010PropOp43
 70
     1
102
RTVSPost2010Prop44ColorIndex
 90
        5
102
RTVSPost2010Prop44ColorRGB
 90
      255
102
RTVSPost2010PropOp44
 70
     1
102
RTVSPost2010Prop45
280
     0
102
RTVSPost2010PropOp45
 70
     1
102
RTVSPost2010Prop46
 90
       50
102
RTVSPost2010PropOp46
 70
     1
102
RTVSPost2010Prop47
 90
       50
102
RTVSPost2010PropOp47
 70
     1
102
RTVSPost2010Prop48
 90
       50
102
RTVSPost2010PropOp48
 70
     1
102
RTVSPost2010Prop49
280
     0
102
RTVSPost2010PropOp49
 70
     1
102
RTVSPost2010Prop50
 90
       50
102
RTVSPost2010PropOp50
 70
     1
102
RTVSPost2010Prop51ColorIndex
 90
      256
102
RTVSPost2010Prop51ColorRGB
 90
-16777216
102
RTVSPost2010PropOp51
 70
     0
102
RTVSPost2010Prop52
140
1.0
102
RTVSPost2010PropOp52
 70
     0
102
RTVSPost2010Prop53
 90
        2
102
RTVSPost2010PropOp53
 70
     1
102
RTVSPost2010Prop54
  1
strokes_ogs.tif
102
RTVSPost2010PropOp54
 70
     1
102
RTVSPost2010Prop55
280
     0
102
RTVSPost2010PropOp55
 70
     1
102
RTVSPost2010Prop56
140
1.0
102
RTVSPost2010PropOp56
 70
     1
102
RTVSPost2010Prop57
140
1.0
102
RTVSPost2010PropOp57
 70
     1
  0
XRECORD
  5
106AD28
102
{ACAD_REACTORS
330
106AD27
102
}
330
106AD27
100
AcDbXrecord
280
     1
102
RTVSPropertyOp0
 70
     1
102
RTVSPropertyOp1
 70
     1
102
RTVSPropertyOp2
 70
     1
102
RTVSPropertyOp3
 70
     1
102
RTVSPropertyOp4
 70
     1
102
RTVSPropertyOp5
 70
     1
102
RTVSPropertyOp6
 70
     1
102
RTVSPropertyOp7
 70
     1
102
RTVSPropertyOp8
 70
     1
102
RTVSPropertyOp9
 70
     1
102
RTVSPropertyOp10
 70
     1
102
RTVSPropertyOp11
 70
     1
102
RTVSPropertyOp12
 70
     1
102
RTVSPropertyOp13
 70
     1
102
RTVSPropertyOp14
 70
     1
102
RTVSPropertyOp15
 70
     1
102
RTVSPropertyOp16
 70
     1
102
RTVSPropertyOp17
 70
     1
102
RTVSPropertyOp18
 70
     1
102
RTVSPropertyOp19
 70
     1
102
RTVSPropertyOp20
 70
     1
102
RTVSPropertyOp21
 70
     1
102
RTVSPropertyOp22
 70
     1
102
RTVSPropertyOp23
 70
     1
102
RTVSPropertyOp24
 70
     1
102
RTVSPropertyOp25
 70
     1
102
RTVSPropertyOp26
 70
     1
102
RTVSPropertyOp27
 70
     1
102
RTVSPropertyOp28
 70
     1
102
RTVSPropertyOp29
 70
     1
102
RTVSPropertyOp30
 70
     1
102
RTVSPropertyOp31
 70
     1
102
RTVSPropertyOp32
 70
     1
102
RTVSPropertyOp33
 70
     1
102
RTVSPropertyOp34
 70
     1
102
RTVSPropertyOp35
 70
     1
102
RTVSPropertyOp36
 70
     1
102
RTVSPropertyOp37
 70
     1
102
RTVSPropertyOp38
 70
     1
102
RTVSPropertyOp39
 70
     1
102
RTVSPropertyOp40
 70
     1
102
RTVSPropertyOp41
 70
     1
102
RTVSPropertyOp42
 70
     1
102
RTVSPropertyOp43
 70
     1
102
RTVSPropertyOp44
 70
     1
102
RTVSPropertyOp45
 70
     1
102
RTVSPropertyOp46
 70
     1
102
RTVSPropertyOp47
 70
     1
102
RTVSPropertyOp48
 70
     1
102
RTVSPropertyOp49
 70
     1
102
RTVSPropertyOp50
 70
     1
102
RTVSPropertyOp51
 70
     0
102
RTVSPropertyOp52
 70
     0
102
RTVSPropertyOp53
 70
     1
102
RTVSPropertyOp54
 70
     1
102
RTVSPropertyOp55
 70
     1
102
RTVSPropertyOp56
 70
     1
102
RTVSPropertyOp57
 70
     1
102
RTVSPost2010Prop28
280
     0
102
RTVSPost2010PropOp28
 70
     1
102
RTVSPost2010Prop29
280
     1
102
RTVSPost2010PropOp29
 70
     1
102
RTVSPost2010Prop30
280
     1
102
RTVSPost2010PropOp30
 70
     1
102
RTVSPost2010Prop31
280
     0
102
RTVSPost2010PropOp31
 70
     1
102
RTVSPost2010Prop32
280
     0
102
RTVSPost2010PropOp32
 70
     1
102
RTVSPost2010Prop33
280
     0
102
RTVSPost2010PropOp33
 70
     1
102
RTVSPost2010Prop34
280
     0
102
RTVSPost2010PropOp34
 70
     1
102
RTVSPost2010Prop35
280
     0
102
RTVSPost2010PropOp35
 70
     1
102
RTVSPost2010Prop36
280
     0
102
RTVSPost2010PropOp36
 70
     1
102
RTVSPost2010Prop37
 90
       50
102
RTVSPost2010PropOp37
 70
     1
102
RTVSPost2010Prop38
140
0.0
102
RTVSPost2010PropOp38
 70
     1
102
RTVSPost2010Prop39
140
1.0
102
RTVSPost2010PropOp39
 70
     1
102
RTVSPost2010Prop40
 90
        0
102
RTVSPost2010PropOp40
 70
     1
102
RTVSPost2010Prop41ColorIndex
 90
       18
102
RTVSPost2010Prop41ColorRGB
 90
        0
102
RTVSPost2010PropOp41
 70
     1
102
RTVSPost2010Prop42
 90
       50
102
RTVSPost2010PropOp42
 70
     1
102
RTVSPost2010Prop43
 90
        3
102
RTVSPost2010PropOp43
 70
     1
102
RTVSPost2010Prop44ColorIndex
 90
        5
102
RTVSPost2010Prop44ColorRGB
 90
      255
102
RTVSPost2010PropOp44
 70
     1
102
RTVSPost2010Prop45
280
     0
102
RTVSPost2010PropOp45
 70
     1
102
RTVSPost2010Prop46
 90
       50
102
RTVSPost2010PropOp46
 70
     1
102
RTVSPost2010Prop47
 90
       50
102
RTVSPost2010PropOp47
 70
     1
102
RTVSPost2010Prop48
 90
       50
102
RTVSPost2010PropOp48
 70
     1
102
RTVSPost2010Prop49
280
     0
102
RTVSPost2010PropOp49
 70
     1
102
RTVSPost2010Prop50
 90
       50
102
RTVSPost2010PropOp50
 70
     1
102
RTVSPost2010Prop51ColorIndex
 90
      256
102
RTVSPost2010Prop51ColorRGB
 90
-16777216
102
RTVSPost2010PropOp51
 70
     0
102
RTVSPost2010Prop52
140
1.0
102
RTVSPost2010PropOp52
 70
     0
102
RTVSPost2010Prop53
 90
        2
102
RTVSPost2010PropOp53
 70
     1
102
RTVSPost2010Prop54
  1
strokes_ogs.tif
102
RTVSPost2010PropOp54
 70
     1
102
RTVSPost2010Prop55
280
     0
102
RTVSPost2010PropOp55
 70
     1
102
RTVSPost2010Prop56
140
1.0
102
RTVSPost2010PropOp56
 70
     1
102
RTVSPost2010Prop57
140
1.0
102
RTVSPost2010PropOp57
 70
     1
  0
ENDSEC
  0
EOF
