  0
SECTION
  2
HEADER
  9
$ACADVER
  1
AC1015
  9
$ACADMAINTVER
 70
     6
  9
$DWGCODEPAGE
  3
ANSI_932
  9
$INSBASE
 10
0.0
 20
0.0
 30
0.0
  9
$EXTMIN
 10
-15.0
 20
-45.0
 30
0.0
  9
$EXTMAX
 10
120.0
 20
45.0
 30
0.0
  9
$LIMMIN
 10
0.0
 20
0.0
  9
$LIMMAX
 10
12.0
 20
9.0
  9
$ORTHOMODE
 70
     0
  9
$REGENMODE
 70
     1
  9
$FILLMODE
 70
     1
  9
$QTEXTMODE
 70
     0
  9
$MIRRTEXT
 70
     1
  9
$LTSCALE
 40
1.0
  9
$ATTMODE
 70
     1
  9
$TEXTSIZE
 40
0.2
  9
$TRACEWID
 40
0.05
  9
$TEXTSTYLE
  7
Standard
  9
$CLAYER
  8
0
  9
$CELTYPE
  6
ByBlock
  9
$CECOLOR
 62
   256
  9
$CELTSCALE
 40
1.0
  9
$DISPSILH
 70
     0
  9
$DIMSCALE
 40
1.0
  9
$DIMASZ
 40
0.18
  9
$DIMEXO
 40
0.0625
  9
$DIMDLI
 40
0.38
  9
$DIMRND
 40
0.0
  9
$DIMDLE
 40
0.0
  9
$DIMEXE
 40
0.18
  9
$DIMTP
 40
0.0
  9
$DIMTM
 40
0.0
  9
$DIMTXT
 40
0.18
  9
$DIMCEN
 40
0.09
  9
$DIMTSZ
 40
0.0
  9
$DIMTOL
 70
     0
  9
$DIMLIM
 70
     0
  9
$DIMTIH
 70
     1
  9
$DIMTOH
 70
     1
  9
$DIMSE1
 70
     0
  9
$DIMSE2
 70
     0
  9
$DIMTAD
 70
     0
  9
$DIMZIN
 70
     0
  9
$DIMBLK
  1

  9
$DIMASO
 70
     1
  9
$DIMSHO
 70
     1
  9
$DIMPOST
  1

  9
$DIMAPOST
  1

  9
$DIMALT
 70
     0
  9
$DIMALTD
 70
     2
  9
$DIMALTF
 40
25.4
  9
$DIMLFAC
 40
1.0
  9
$DIMTOFL
 70
     0
  9
$DIMTVP
 40
0.0
  9
$DIMTIX
 70
     0
  9
$DIMSOXD
 70
     0
  9
$DIMSAH
 70
     0
  9
$DIMBLK1
  1

  9
$DIMBLK2
  1

  9
$DIMSTYLE
  2
STANDARD
  9
$DIMCLRD
 70
     0
  9
$DIMCLRE
 70
     0
  9
$DIMCLRT
 70
     0
  9
$DIMTFAC
 40
1.0
  9
$DIMGAP
 40
0.09
  9
$DIMJUST
 70
     0
  9
$DIMSD1
 70
     0
  9
$DIMSD2
 70
     0
  9
$DIMTOLJ
 70
     1
  9
$DIMTZIN
 70
     0
  9
$DIMALTZ
 70
     0
  9
$DIMALTTZ
 70
     0
  9
$DIMUPT
 70
     0
  9
$DIMDEC
 70
     4
  9
$DIMTDEC
 70
     4
  9
$DIMALTU
 70
     2
  9
$DIMALTTD
 70
     2
  9
$DIMTXSTY
  7
Standard
  9
$DIMAUNIT
 70
     0
  9
$DIMADEC
 70
     0
  9
$DIMALTRND
 40
0.0
  9
$DIMAZIN
 70
     0
  9
$DIMDSEP
 70
    46
  9
$DIMATFIT
 70
     3
  9
$DIMFRAC
 70
     0
  9
$DIMLDRBLK
  1

  9
$DIMLUNIT
 70
     2
  9
$DIMLWD
 70
    -2
  9
$DIMLWE
 70
    -2
  9
$DIMTMOVE
 70
     0
  9
$LUNITS
 70
     2
  9
$LUPREC
 70
     4
  9
$SKETCHINC
 40
0.1
  9
$FILLETRAD
 40
0.5
  9
$AUNITS
 70
     0
  9
$AUPREC
 70
     0
  9
$MENU
  1
.
  9
$ELEVATION
 40
0.0
  9
$PELEVATION
 40
0.0
  9
$THICKNESS
 40
0.0
  9
$LIMCHECK
 70
     0
  9
$CHAMFERA
 40
0.0
  9
$CHAMFERB
 40
0.0
  9
$CHAMFERC
 40
0.0
  9
$CHAMFERD
 40
0.0
  9
$SKPOLY
 70
     0
  9
$TDCREATE
 40
2447893.375
  9
$TDUCREATE
 40
0.0
  9
$TDUPDATE
 40
2460864.638495718
  9
$TDUUPDATE
 40
2460864.263495718
  9
$TDINDWG
 40
0.0014177431
  9
$TDUSRTIMER
 40
0.0014177431
  9
$USRTIMER
 70
     1
  9
$ANGBASE
 50
0.0
  9
$ANGDIR
 70
     0
  9
$PDMODE
 70
     0
  9
$PDSIZE
 40
0.0
  9
$PLINEWID
 40
0.0
  9
$SPLFRAME
 70
     0
  9
$SPLINETYPE
 70
     6
  9
$SPLINESEGS
 70
     8
  9
$HANDSEED
  5
106ACE1
  9
$SURFTAB1
 70
     6
  9
$SURFTAB2
 70
     6
  9
$SURFTYPE
 70
     6
  9
$SURFU
 70
     6
  9
$SURFV
 70
     6
  9
$UCSBASE
  2

  9
$UCSNAME
  2

  9
$UCSORG
 10
0.0
 20
0.0
 30
0.0
  9
$UCSXDIR
 10
1.0
 20
0.0
 30
0.0
  9
$UCSYDIR
 10
0.0
 20
1.0
 30
0.0
  9
$UCSORTHOREF
  2

  9
$UCSORTHOVIEW
 70
     0
  9
$UCSORGTOP
 10
0.0
 20
0.0
 30
0.0
  9
$UCSORGBOTTOM
 10
0.0
 20
0.0
 30
0.0
  9
$UCSORGLEFT
 10
0.0
 20
0.0
 30
0.0
  9
$UCSORGRIGHT
 10
0.0
 20
0.0
 30
0.0
  9
$UCSORGFRONT
 10
0.0
 20
0.0
 30
0.0
  9
$UCSORGBACK
 10
0.0
 20
0.0
 30
0.0
  9
$PUCSBASE
  2

  9
$PUCSNAME
  2

  9
$PUCSORG
 10
0.0
 20
0.0
 30
0.0
  9
$PUCSXDIR
 10
1.0
 20
0.0
 30
0.0
  9
$PUCSYDIR
 10
0.0
 20
1.0
 30
0.0
  9
$PUCSORTHOREF
  2

  9
$PUCSORTHOVIEW
 70
     0
  9
$PUCSORGTOP
 10
0.0
 20
0.0
 30
0.0
  9
$PUCSORGBOTTOM
 10
0.0
 20
0.0
 30
0.0
  9
$PUCSORGLEFT
 10
0.0
 20
0.0
 30
0.0
  9
$PUCSORGRIGHT
 10
0.0
 20
0.0
 30
0.0
  9
$PUCSORGFRONT
 10
0.0
 20
0.0
 30
0.0
  9
$PUCSORGBACK
 10
0.0
 20
0.0
 30
0.0
  9
$USERI1
 70
     0
  9
$USERI2
 70
     0
  9
$USERI3
 70
     0
  9
$USERI4
 70
     0
  9
$USERI5
 70
     0
  9
$USERR1
 40
0.0
  9
$USERR2
 40
0.0
  9
$USERR3
 40
0.0
  9
$USERR4
 40
0.0
  9
$USERR5
 40
0.0
  9
$WORLDVIEW
 70
     1
  9
$SHADEDGE
 70
     3
  9
$SHADEDIF
 70
    70
  9
$TILEMODE
 70
     1
  9
$MAXACTVP
 70
    64
  9
$PINSBASE
 10
0.0
 20
0.0
 30
0.0
  9
$PLIMCHECK
 70
     0
  9
$PEXTMIN
 10
1.000000000000000E+20
 20
1.000000000000000E+20
 30
1.000000000000000E+20
  9
$PEXTMAX
 10
-1.000000000000000E+20
 20
-1.000000000000000E+20
 30
-1.000000000000000E+20
  9
$PLIMMIN
 10
0.0
 20
0.0
  9
$PLIMMAX
 10
0.0
 20
0.0
  9
$UNITMODE
 70
     0
  9
$VISRETAIN
 70
     1
  9
$PLINEGEN
 70
     0
  9
$PSLTSCALE
 70
     1
  9
$TREEDEPTH
 70
  3020
  9
$CMLSTYLE
  2
Standard
  9
$CMLJUST
 70
     0
  9
$CMLSCALE
 40
1.0
  9
$PROXYGRAPHICS
 70
     1
  9
$MEASUREMENT
 70
     0
  9
$CELWEIGHT
370
    -1
  9
$ENDCAPS
280
     0
  9
$JOINSTYLE
280
     0
  9
$LWDISPLAY
290
     0
  9
$INSUNITS
 70
     0
  9
$HYPERLINKBASE
  1

  9
$STYLESHEET
  1

  9
$XEDIT
290
     1
  9
$CEPSNTYPE
380
     0
  9
$PSTYLEMODE
290
     1
  9
$FINGERPRINTGUID
  2
{1c5df278-4519-47a5-b1f2-8a893b431f3e}
  9
$VERSIONGUID
  2
{FAEB1C32-E019-11D5-929B-00C0DF256EC4}
  9
$EXTNAMES
290
     1
  9
$PSVPSCALE
 40
0.0
  9
$OLESTARTUP
290
     0
  0
ENDSEC
  0
SECTION
  2
CLASSES
  0
CLASS
  1
IMAGEDEF
  2
AcDbRasterImageDef
  3
ISM
 90
        0
280
     0
281
     0
  0
CLASS
  1
IMAGE
  2
AcDbRasterImage
  3
ISM
 90
      127
280
     0
281
     1
  0
CLASS
  1
IMAGEDEF_REACTOR
  2
AcDbRasterImageDefReactor
  3
ISM
 90
        1
280
     0
281
     0
  0
CLASS
  1
ACDBDICTIONARYWDFLT
  2
AcDbDictionaryWithDefault
  3
ObjectDBX Classes
 90
        0
280
     0
281
     0
  0
CLASS
  1
SCALE
  2
AcDbScale
  3
ObjectDBX Classes
 90
     1153
280
     0
281
     0
  0
CLASS
  1
MATERIAL
  2
AcDbMaterial
  3
ObjectDBX Classes
 90
     1153
280
     0
281
     0
  0
CLASS
  1
VISUALSTYLE
  2
AcDbVisualStyle
  3
ObjectDBX Classes
 90
     4095
280
     0
281
     0
  0
CLASS
  1
TABLESTYLE
  2
AcDbTableStyle
  3
ObjectDBX Classes
 90
     4095
280
     0
281
     0
  0
CLASS
  1
MLEADERSTYLE
  2
AcDbMLeaderStyle
  3
ACDB_MLEADERSTYLE_CLASS
 90
     4095
280
     0
281
     0
  0
CLASS
  1
SUN
  2
AcDbSun
  3
SCENEOE
 90
     1153
280
     0
281
     0
  0
CLASS
  1
RASTERVARIABLES
  2
AcDbRasterVariables
  3
ISM
 90
        0
280
     0
281
     0
  0
CLASS
  1
DICTIONARYVAR
  2
AcDbDictionaryVar
  3
ObjectDBX Classes
 90
        0
280
     0
281
     0
  0
CLASS
  1
ACDBPLACEHOLDER
  2
AcDbPlaceHolder
  3
ObjectDBX Classes
 90
        0
280
     0
281
     0
  0
CLASS
  1
LAYOUT
  2
AcDbLayout
  3
ObjectDBX Classes
 90
        0
280
     0
281
     0
  0
ENDSEC
  0
SECTION
  2
TABLES
  0
TABLE
  2
VPORT
  5
2
102
{ACAD_XDICTIONARY
360
106ACA4
102
}
330
0
100
AcDbSymbolTable
 70
     1
  0
VPORT
  5
106AB91
330
2
100
AcDbSymbolTableRecord
100
AcDbViewportTableRecord
  2
*Active
 70
     0
 10
0.0
 20
0.0
 11
1.0
 21
1.0
 12
52.5
 22
0.0
 13
0.0
 23
0.0
 14
0.5
 24
0.5
 15
0.5
 25
0.5
 16
0.0
 26
0.0
 36
1.0
 17
0.0
 27
0.0
 37
0.0
 40
91.8
 41
2.05750350631136
 42
50.0
 43
0.0
 44
0.0
 50
0.0
 51
0.0
 71
    16
 72
   100
 73
     1
 74
     3
 75
     0
 76
     0
 77
     0
 78
     0
281
     0
 65
     1
110
0.0
120
0.0
130
0.0
111
1.0
121
0.0
131
0.0
112
0.0
122
1.0
132
0.0
 79
     0
146
0.0
  0
ENDTAB
  0
TABLE
  2
LTYPE
  5
3
330
0
100
AcDbSymbolTable
 70
     3
  0
LTYPE
  5
4
330
3
100
AcDbSymbolTableRecord
100
AcDbLinetypeTableRecord
  2
ByBlock
 70
     0
  3

 72
    65
 73
     0
 40
0.0
  0
LTYPE
  5
5
330
3
100
AcDbSymbolTableRecord
100
AcDbLinetypeTableRecord
  2
ByLayer
 70
     0
  3

 72
    65
 73
     0
 40
0.0
  0
LTYPE
  5
6
330
3
100
AcDbSymbolTableRecord
100
AcDbLinetypeTableRecord
  2
CONTINUOUS
 70
     0
  3
Solid Line
 72
    65
 73
     0
 40
0.0
  0
LTYPE
  5
7
330
3
100
AcDbSymbolTableRecord
100
AcDbLinetypeTableRecord
  2
DASH
 70
     0
  3
Hidden
 72
    65
 73
     2
 40
2.5
 49
1.5
 74
     0
 49
-1.0
 74
     0
  0
LTYPE
  5
8
330
3
100
AcDbSymbolTableRecord
100
AcDbLinetypeTableRecord
  2
LONGDASHDASH
 70
     0
  3
__ . __
 72
    65
 73
     4
 40
7.0
 49
4.0
 74
     0
 49
-1.0
 74
     0
 49
1.0
 74
     0
 49
-1.0
 74
     0
  0
ENDTAB
  0
TABLE
  2
LAYER
  5
9
330
0
100
AcDbSymbolTable
 70
    11
  0
LAYER
  5
A
330
9
100
AcDbSymbolTableRecord
100
AcDbLayerTableRecord
  2
0
 70
     0
 62
     7
  6
CONTINUOUS
370
    -3
390
106AB96
  0
LAYER
  5
C
330
9
100
AcDbSymbolTableRecord
100
AcDbLayerTableRecord
  2
1
 70
     0
 62
     4
  6
CONTINUOUS
370
    50
390
106AB96
  0
LAYER
  5
D
330
9
100
AcDbSymbolTableRecord
100
AcDbLayerTableRecord
  2
2
 70
     0
 62
     7
  6
CONTINUOUS
370
    25
390
106AB96
  0
LAYER
  5
F
330
9
100
AcDbSymbolTableRecord
100
AcDbLayerTableRecord
  2
4
 70
     0
 62
     2
  6
LONGDASHDASH
370
    25
390
106AB96
  0
LAYER
  5
13
330
9
100
AcDbSymbolTableRecord
100
AcDbLayerTableRecord
  2
SK1
 70
     0
 62
     4
  6
CONTINUOUS
370
    50
390
106AB96
  0
LAYER
  5
14
330
9
100
AcDbSymbolTableRecord
100
AcDbLayerTableRecord
  2
SK2
 70
     0
 62
     7
  6
CONTINUOUS
370
    25
390
106AB96
  0
LAYER
  5
16
330
9
100
AcDbSymbolTableRecord
100
AcDbLayerTableRecord
  2
SK4
 70
     0
 62
     2
  6
LONGDASHDASH
370
    25
390
106AB96
  0
LAYER
  5
21
330
9
100
AcDbSymbolTableRecord
100
AcDbLayerTableRecord
  2
NOCUT
 70
     0
 62
     7
  6
CONTINUOUS
370
    25
390
106AB96
  0
LAYER
  5
22
330
9
100
AcDbSymbolTableRecord
100
AcDbLayerTableRecord
  2
CUT
 70
     0
 62
     1
  6
CONTINUOUS
370
    25
390
106AB96
  0
LAYER
  5
26
330
9
100
AcDbSymbolTableRecord
100
AcDbLayerTableRecord
  2
INFTOTAL
 70
     0
 62
     9
  6
CONTINUOUS
370
    18
390
106AB96
  0
LAYER
  5
106ABE1
330
9
100
AcDbSymbolTableRecord
100
AcDbLayerTableRecord
  2
Defpoints
 70
     0
 62
     7
  6
CONTINUOUS
290
     0
370
    -3
390
106AB96
  0
ENDTAB
  0
TABLE
  2
STYLE
  5
27
330
0
100
AcDbSymbolTable
 70
     2
  0
STYLE
  5
28
330
27
100
AcDbSymbolTableRecord
100
AcDbTextStyleTableRecord
  2
Monospac821 BT
 70
     0
 40
3.5
 41
1.0
 50
0.0
 71
     0
 42
3.0
  3

  4

1001
ACAD
1000
Monospac821 BT
1071
      256
  0
STYLE
  5
106AB90
330
27
100
AcDbSymbolTableRecord
100
AcDbTextStyleTableRecord
  2
Standard
 70
     0
 40
0.0
 41
1.0
 50
0.0
 71
     0
 42
0.2
  3
txt
  4

  0
ENDTAB
  0
TABLE
  2
VIEW
  5
29
330
0
100
AcDbSymbolTable
 70
     0
  0
ENDTAB
  0
TABLE
  2
UCS
  5
2A
330
0
100
AcDbSymbolTable
 70
     0
  0
ENDTAB
  0
TABLE
  2
APPID
  5
2B
330
0
100
AcDbSymbolTable
 70
     2
  0
APPID
  5
2C
330
2B
100
AcDbSymbolTableRecord
100
AcDbRegAppTableRecord
  2
ACAD
 70
     0
  0
APPID
  5
106ACDE
330
2B
100
AcDbSymbolTableRecord
100
AcDbRegAppTableRecord
  2
ACAD_MLEADERVER
 70
     0
  0
ENDTAB
  0
TABLE
  2
DIMSTYLE
  5
2D
330
0
100
AcDbSymbolTable
 70
     1
100
AcDbDimStyleTable
  0
DIMSTYLE
105
2E
102
{ACAD_REACTORS
330
106ABF6
330
106AC06
330
106AC21
330
106AC34
330
106AC4F
330
106AC62
330
106AC7D
330
106AC8D
102
}
330
2D
100
AcDbSymbolTableRecord
100
AcDbDimStyleTableRecord
  2
STANDARD
 70
     0
 41
3.0
 42
0.5
 44
1.0
 73
     0
 77
     1
 78
     1
140
3.5
141
2.5
143
0.03937007874
147
0.8
172
     1
174
     1
178
     0
179
     1
271
     2
279
     1
284
     1
340
28
  0
ENDTAB
  0
TABLE
  2
BLOCK_RECORD
  5
2F
330
0
100
AcDbSymbolTable
 70
    15
  0
BLOCK_RECORD
  5
30
102
{ACAD_XDICTIONARY
360
106AC9A
102
}
330
2F
100
AcDbSymbolTableRecord
100
AcDbBlockTableRecord
  2
*Model_Space
340
106AB98
  0
BLOCK_RECORD
  5
31
330
2F
100
AcDbSymbolTableRecord
100
AcDbBlockTableRecord
  2
*Paper_Space
340
106AB99
  0
BLOCK_RECORD
  5
379
330
2F
100
AcDbSymbolTableRecord
100
AcDbBlockTableRecord
  2
*D0
340
0
  0
BLOCK_RECORD
  5
387
330
2F
100
AcDbSymbolTableRecord
100
AcDbBlockTableRecord
  2
*D1
340
0
  0
BLOCK_RECORD
  5
395
330
2F
100
AcDbSymbolTableRecord
100
AcDbBlockTableRecord
  2
*D2
340
0
  0
BLOCK_RECORD
  5
3A3
330
2F
100
AcDbSymbolTableRecord
100
AcDbBlockTableRecord
  2
*D3
340
0
  0
BLOCK_RECORD
  5
3B1
330
2F
100
AcDbSymbolTableRecord
100
AcDbBlockTableRecord
  2
*D4
340
0
  0
BLOCK_RECORD
  5
3BF
330
2F
100
AcDbSymbolTableRecord
100
AcDbBlockTableRecord
  2
*D5
340
0
  0
BLOCK_RECORD
  5
3CD
330
2F
100
AcDbSymbolTableRecord
100
AcDbBlockTableRecord
  2
*D6
340
0
  0
BLOCK_RECORD
  5
106ABF7
330
2F
100
AcDbSymbolTableRecord
100
AcDbBlockTableRecord
  2
*D8
340
0
  0
BLOCK_RECORD
  5
106AC07
330
2F
100
AcDbSymbolTableRecord
100
AcDbBlockTableRecord
  2
*D9
340
0
  0
BLOCK_RECORD
  5
106AC22
330
2F
100
AcDbSymbolTableRecord
100
AcDbBlockTableRecord
  2
*D11
340
0
  0
BLOCK_RECORD
  5
106AC35
330
2F
100
AcDbSymbolTableRecord
100
AcDbBlockTableRecord
  2
*D12
340
0
  0
BLOCK_RECORD
  5
106AC50
330
2F
100
AcDbSymbolTableRecord
100
AcDbBlockTableRecord
  2
*D14
340
0
  0
BLOCK_RECORD
  5
106AC63
330
2F
100
AcDbSymbolTableRecord
100
AcDbBlockTableRecord
  2
*D15
340
0
  0
BLOCK_RECORD
  5
106AC7E
330
2F
100
AcDbSymbolTableRecord
100
AcDbBlockTableRecord
  2
*D17
340
0
  0
BLOCK_RECORD
  5
106AC8E
330
2F
100
AcDbSymbolTableRecord
100
AcDbBlockTableRecord
  2
*D18
340
0
  0
ENDTAB
  0
ENDSEC
  0
SECTION
  2
BLOCKS
  0
BLOCK
  5
32
330
30
100
AcDbEntity
  8
0
100
AcDbBlockBegin
  2
*Model_Space
 70
     0
 10
0.0
 20
0.0
 30
0.0
  3
*Model_Space
  1

  0
ENDBLK
  5
33
330
30
100
AcDbEntity
  8
0
100
AcDbBlockEnd
  0
BLOCK
  5
34
330
31
100
AcDbEntity
 67
     1
  8
0
100
AcDbBlockBegin
  2
*Paper_Space
 70
     0
 10
0.0
 20
0.0
 30
0.0
  3
*Paper_Space
  1

  0
ENDBLK
  5
35
330
31
100
AcDbEntity
 67
     1
  8
0
100
AcDbBlockEnd
  0
BLOCK
  5
377
330
379
100
AcDbEntity
  8
SK2
100
AcDbBlockBegin
  2
*D0
 70
     1
 10
0.0
 20
0.0
 30
0.0
  3
*D0
  1

  0
LINE
  5
37A
330
379
100
AcDbEntity
  8
SK2
 62
     0
370
    -2
100
AcDbLine
 10
72.688984146635
 20
-2.3
 30
0.0
 11
72.688984146635
 21
-41.0
 31
0.0
  0
LINE
  5
37B
330
379
100
AcDbEntity
  8
SK2
 62
     0
370
    -2
100
AcDbLine
 10
2.688984146635
 20
-2.964
 30
0.0
 11
2.688984146635001
 21
-41.0
 31
0.0
  0
LINE
  5
37C
330
379
100
AcDbEntity
  8
SK2
 62
     0
370
    -2
100
AcDbLine
 10
69.688984146635
 20
-40.0
 30
0.0
 11
5.688984146635001
 21
-40.0
 31
0.0
  0
SOLID
  5
37D
330
379
100
AcDbEntity
  8
SK2
 62
     0
100
AcDbTrace
 10
69.688984146635
 20
-40.5
 30
0.0
 11
69.688984146635
 21
-39.5
 31
0.0
 12
72.688984146635
 22
-40.0
 32
0.0
 13
72.688984146635
 23
-40.0
 33
0.0
  0
SOLID
  5
37E
330
379
100
AcDbEntity
  8
SK2
 62
     0
100
AcDbTrace
 10
5.688984146635001
 20
-39.5
 30
0.0
 11
5.688984146635001
 21
-40.5
 31
0.0
 12
2.688984146635001
 22
-40.0
 32
0.0
 13
2.688984146635001
 23
-40.0
 33
0.0
  0
MTEXT
  5
37F
330
379
100
AcDbEntity
  8
SK2
  6
ByBlock
 62
     0
100
AcDbMText
 10
37.688984146635
 20
-37.38875
 30
0.0
 40
3.5
 41
0.0
 71
     5
 72
     1
  1
\A1;70
 73
     1
 44
1.0
  0
POINT
  5
380
330
379
100
AcDbEntity
  8
Defpoints
 62
     0
100
AcDbPoint
 10
72.688984146635
 20
-1.8
 30
0.0
  0
POINT
  5
381
330
379
100
AcDbEntity
  8
Defpoints
 62
     0
100
AcDbPoint
 10
2.688984146635
 20
-2.464
 30
0.0
  0
POINT
  5
382
330
379
100
AcDbEntity
  8
Defpoints
 62
     0
100
AcDbPoint
 10
2.688984146635
 20
-40.0
 30
0.0
  0
ENDBLK
  5
383
330
379
100
AcDbEntity
  8
SK2
100
AcDbBlockEnd
  0
BLOCK
  5
385
330
387
100
AcDbEntity
  8
SK2
100
AcDbBlockBegin
  2
*D1
 70
     1
 10
0.0
 20
0.0
 30
0.0
  3
*D1
  1

  0
LINE
  5
388
330
387
100
AcDbEntity
  8
SK2
 62
     0
370
    -2
100
AcDbLine
 10
18.889
 20
2.464000000000002
 30
0.0
 11
18.889
 21
27.80550000000001
 31
0.0
  0
LINE
  5
389
330
387
100
AcDbEntity
  8
SK2
 62
     0
370
    -2
100
AcDbLine
 10
18.889
 20
-2.463999999999999
 30
0.0
 11
18.889
 21
2.464000000000002
 31
0.0
  0
LINE
  5
38A
330
387
100
AcDbEntity
  8
SK2
 62
     0
370
    -2
100
AcDbLine
 10
18.889
 20
-5.463999999999999
 30
0.0
 11
18.889
 21
-8.463999999999999
 31
0.0
  0
LINE
  5
38B
330
387
100
AcDbEntity
  8
SK2
 62
     0
370
    -2
100
AcDbLine
 10
18.889
 20
5.464000000000002
 30
0.0
 11
18.889
 21
8.464000000000002
 31
0.0
  0
SOLID
  5
38C
330
387
100
AcDbEntity
  8
SK2
 62
     0
100
AcDbTrace
 10
19.389
 20
-5.463999999999999
 30
0.0
 11
18.389
 21
-5.463999999999999
 31
0.0
 12
18.889
 22
-2.463999999999999
 32
0.0
 13
18.889
 23
-2.463999999999999
 33
0.0
  0
SOLID
  5
38D
330
387
100
AcDbEntity
  8
SK2
 62
     0
100
AcDbTrace
 10
18.389
 20
5.464000000000002
 30
0.0
 11
19.389
 21
5.464000000000002
 31
0.0
 12
18.889
 22
2.464000000000002
 32
0.0
 13
18.889
 23
2.464000000000002
 33
0.0
  0
MTEXT
  5
38E
330
387
100
AcDbEntity
  8
SK2
  6
ByBlock
 62
     0
100
AcDbMText
 10
16.227
 20
18.13475
 30
0.0
 40
3.5
 41
0.0
 71
     5
 72
     1
  1
\A1;%%c4.928
 11
0.0
 21
1.0
 31
0.0
 73
     1
 44
1.0
  0
POINT
  5
38F
330
387
100
AcDbEntity
  8
Defpoints
 62
     0
100
AcDbPoint
 10
2.688984146635001
 20
-2.464
 30
0.0
  0
POINT
  5
390
330
387
100
AcDbEntity
  8
Defpoints
 62
     0
100
AcDbPoint
 10
2.688984146635001
 20
2.464
 30
0.0
  0
POINT
  5
106ABE2
330
387
100
AcDbEntity
  8
Defpoints
 62
     0
100
AcDbPoint
 10
18.889
 20
2.464000000000001
 30
0.0
  0
ENDBLK
  5
391
330
387
100
AcDbEntity
  8
SK2
100
AcDbBlockEnd
  0
BLOCK
  5
393
330
395
100
AcDbEntity
  8
SK2
100
AcDbBlockBegin
  2
*D2
 70
     1
 10
0.0
 20
0.0
 30
0.0
  3
*D2
  1

  0
LINE
  5
396
330
395
100
AcDbEntity
  8
SK2
 62
     0
370
    -2
100
AcDbLine
 10
9.088984146635
 20
-2.964
 30
0.0
 11
9.088984146634997
 21
-17.0
 31
0.0
  0
LINE
  5
397
330
395
100
AcDbEntity
  8
SK2
 62
     0
370
    -2
100
AcDbLine
 10
2.688984146635
 20
-2.964
 30
0.0
 11
2.688984146635001
 21
-17.0
 31
0.0
  0
LINE
  5
398
330
395
100
AcDbEntity
  8
SK2
 62
     0
370
    -2
100
AcDbLine
 10
2.688984146635001
 20
-16.0
 30
0.0
 11
-13.419515853365
 21
-16.0
 31
0.0
  0
LINE
  5
399
330
395
100
AcDbEntity
  8
SK2
 62
     0
370
    -2
100
AcDbLine
 10
9.088984146634997
 20
-16.0
 30
0.0
 11
2.688984146635001
 21
-16.0
 31
0.0
  0
LINE
  5
39A
330
395
100
AcDbEntity
  8
SK2
 62
     0
370
    -2
100
AcDbLine
 10
12.088984146635
 20
-16.0
 30
0.0
 11
15.088984146635
 21
-16.0
 31
0.0
  0
LINE
  5
39B
330
395
100
AcDbEntity
  8
SK2
 62
     0
370
    -2
100
AcDbLine
 10
-0.3110158533649994
 20
-16.0
 30
0.0
 11
-3.311015853364999
 21
-16.0
 31
0.0
  0
SOLID
  5
39C
330
395
100
AcDbEntity
  8
SK2
 62
     0
100
AcDbTrace
 10
12.088984146635
 20
-15.5
 30
0.0
 11
12.088984146635
 21
-16.5
 31
0.0
 12
9.088984146634997
 22
-16.0
 32
0.0
 13
9.088984146634997
 23
-16.0
 33
0.0
  0
SOLID
  5
39D
330
395
100
AcDbEntity
  8
SK2
 62
     0
100
AcDbTrace
 10
-0.3110158533649994
 20
-16.5
 30
0.0
 11
-0.3110158533649994
 21
-15.5
 31
0.0
 12
2.688984146635001
 22
-16.0
 32
0.0
 13
2.688984146635001
 23
-16.0
 33
0.0
  0
MTEXT
  5
39E
330
395
100
AcDbEntity
  8
SK2
  6
ByBlock
 62
     0
100
AcDbMText
 10
-8.365265853364999
 20
-13.38875
 30
0.0
 40
3.5
 41
0.0
 71
     5
 72
     1
  1
\A1;6.4
 73
     1
 44
1.0
  0
POINT
  5
106ABE4
330
395
100
AcDbEntity
  8
Defpoints
 62
     0
100
AcDbPoint
 10
9.088984146635
 20
-2.464
 30
0.0
  0
POINT
  5
106ABE5
330
395
100
AcDbEntity
  8
Defpoints
 62
     0
100
AcDbPoint
 10
2.688984146635
 20
-2.464
 30
0.0
  0
POINT
  5
106ABEA
330
395
100
AcDbEntity
  8
Defpoints
 62
     0
100
AcDbPoint
 10
2.688984146635
 20
-16.0
 30
0.0
  0
ENDBLK
  5
39F
330
395
100
AcDbEntity
  8
SK2
100
AcDbBlockEnd
  0
BLOCK
  5
3A1
330
3A3
100
AcDbEntity
  8
2
100
AcDbBlockBegin
  2
*D3
 70
     1
 10
0.0
 20
0.0
 30
0.0
  3
*D3
  1

  0
LINE
  5
3A4
330
3A3
100
AcDbEntity
  8
2
 62
     0
370
    -2
100
AcDbLine
 10
72.688984146635
 20
-2.3
 30
0.0
 11
72.688984146635
 21
-25.0
 31
0.0
  0
LINE
  5
3A5
330
3A3
100
AcDbEntity
  8
2
 62
     0
370
    -2
100
AcDbLine
 10
63.688984146635
 20
-2.75
 30
0.0
 11
63.688984146635
 21
-25.0
 31
0.0
  0
LINE
  5
3A6
330
3A3
100
AcDbEntity
  8
2
 62
     0
370
    -2
100
AcDbLine
 10
69.688984146635
 20
-24.0
 30
0.0
 11
66.688984146635
 21
-24.0
 31
0.0
  0
SOLID
  5
3A7
330
3A3
100
AcDbEntity
  8
2
 62
     0
100
AcDbTrace
 10
69.688984146635
 20
-24.5
 30
0.0
 11
69.688984146635
 21
-23.5
 31
0.0
 12
72.688984146635
 22
-24.0
 32
0.0
 13
72.688984146635
 23
-24.0
 33
0.0
  0
SOLID
  5
3A8
330
3A3
100
AcDbEntity
  8
2
 62
     0
100
AcDbTrace
 10
66.688984146635
 20
-23.5
 30
0.0
 11
66.688984146635
 21
-24.5
 31
0.0
 12
63.688984146635
 22
-24.0
 32
0.0
 13
63.688984146635
 23
-24.0
 33
0.0
  0
MTEXT
  5
3A9
330
3A3
100
AcDbEntity
  8
2
  6
ByBlock
 62
     0
100
AcDbMText
 10
68.188984146635
 20
-21.38875
 30
0.0
 40
3.5
 41
0.0
 71
     5
 72
     1
  1
\A1;9
 73
     1
 44
1.0
  0
POINT
  5
3AA
330
3A3
100
AcDbEntity
  8
Defpoints
 62
     0
100
AcDbPoint
 10
72.688984146635
 20
-1.8
 30
0.0
  0
POINT
  5
3AB
330
3A3
100
AcDbEntity
  8
Defpoints
 62
     0
100
AcDbPoint
 10
63.688984146635
 20
-2.25
 30
0.0
  0
POINT
  5
3AC
330
3A3
100
AcDbEntity
  8
Defpoints
 62
     0
100
AcDbPoint
 10
63.688984146635
 20
-24.0
 30
0.0
  0
ENDBLK
  5
3AD
330
3A3
100
AcDbEntity
  8
2
100
AcDbBlockEnd
  0
BLOCK
  5
3AF
330
3B1
100
AcDbEntity
  8
2
100
AcDbBlockBegin
  2
*D4
 70
     1
 10
0.0
 20
0.0
 30
0.0
  3
*D4
  1

  0
LINE
  5
3B2
330
3B1
100
AcDbEntity
  8
2
 62
     0
370
    -2
100
AcDbLine
 10
72.688984146635
 20
-2.3
 30
0.0
 11
72.688984146635
 21
-33.0
 31
0.0
  0
LINE
  5
3B3
330
3B1
100
AcDbEntity
  8
2
 62
     0
370
    -2
100
AcDbLine
 10
47.688984146635
 20
-2.25
 30
0.0
 11
47.688984146635
 21
-33.0
 31
0.0
  0
LINE
  5
3B4
330
3B1
100
AcDbEntity
  8
2
 62
     0
370
    -2
100
AcDbLine
 10
69.688984146635
 20
-32.0
 30
0.0
 11
50.688984146635
 21
-32.0
 31
0.0
  0
SOLID
  5
3B5
330
3B1
100
AcDbEntity
  8
2
 62
     0
100
AcDbTrace
 10
69.688984146635
 20
-32.5
 30
0.0
 11
69.688984146635
 21
-31.5
 31
0.0
 12
72.688984146635
 22
-32.0
 32
0.0
 13
72.688984146635
 23
-32.0
 33
0.0
  0
SOLID
  5
3B6
330
3B1
100
AcDbEntity
  8
2
 62
     0
100
AcDbTrace
 10
50.688984146635
 20
-31.5
 30
0.0
 11
50.688984146635
 21
-32.5
 31
0.0
 12
47.688984146635
 22
-32.0
 32
0.0
 13
47.688984146635
 23
-32.0
 33
0.0
  0
MTEXT
  5
3B7
330
3B1
100
AcDbEntity
  8
2
  6
ByBlock
 62
     0
100
AcDbMText
 10
60.188984146635
 20
-29.38875
 30
0.0
 40
3.5
 41
0.0
 71
     5
 72
     1
  1
\A1;25
 73
     1
 44
1.0
  0
POINT
  5
3B8
330
3B1
100
AcDbEntity
  8
Defpoints
 62
     0
100
AcDbPoint
 10
72.688984146635
 20
-1.8
 30
0.0
  0
POINT
  5
3B9
330
3B1
100
AcDbEntity
  8
Defpoints
 62
     0
100
AcDbPoint
 10
47.688984146635
 20
-1.75
 30
0.0
  0
POINT
  5
3BA
330
3B1
100
AcDbEntity
  8
Defpoints
 62
     0
100
AcDbPoint
 10
47.688984146635
 20
-32.0
 30
0.0
  0
ENDBLK
  5
3BB
330
3B1
100
AcDbEntity
  8
2
100
AcDbBlockEnd
  0
BLOCK
  5
3BD
330
3BF
100
AcDbEntity
  8
2
100
AcDbBlockBegin
  2
*D5
 70
     1
 10
0.0
 20
0.0
 30
0.0
  3
*D5
  1

  0
LINE
  5
3C0
330
3BF
100
AcDbEntity
  8
2
 62
     0
370
    -2
100
AcDbLine
 10
55.255971444742
 20
1.75
 30
0.0
 11
55.255971444742
 21
21.0155
 31
0.0
  0
LINE
  5
3C1
330
3BF
100
AcDbEntity
  8
2
 62
     0
370
    -2
100
AcDbLine
 10
55.255971444742
 20
-1.75
 30
0.0
 11
55.255971444742
 21
1.75
 31
0.0
  0
LINE
  5
3C2
330
3BF
100
AcDbEntity
  8
2
 62
     0
370
    -2
100
AcDbLine
 10
55.255971444742
 20
-4.75
 30
0.0
 11
55.255971444742
 21
-7.75
 31
0.0
  0
LINE
  5
3C3
330
3BF
100
AcDbEntity
  8
2
 62
     0
370
    -2
100
AcDbLine
 10
55.255971444742
 20
4.75
 30
0.0
 11
55.255971444742
 21
7.75
 31
0.0
  0
SOLID
  5
3C4
330
3BF
100
AcDbEntity
  8
2
 62
     0
100
AcDbTrace
 10
55.755971444742
 20
-4.75
 30
0.0
 11
54.755971444742
 21
-4.75
 31
0.0
 12
55.255971444742
 22
-1.75
 32
0.0
 13
55.255971444742
 23
-1.75
 33
0.0
  0
SOLID
  5
3C5
330
3BF
100
AcDbEntity
  8
2
 62
     0
100
AcDbTrace
 10
54.755971444742
 20
4.75
 30
0.0
 11
55.755971444742
 21
4.75
 31
0.0
 12
55.255971444742
 22
1.75
 32
0.0
 13
55.255971444742
 23
1.75
 33
0.0
  0
MTEXT
  5
3C6
330
3BF
100
AcDbEntity
  8
2
  6
ByBlock
 62
     0
100
AcDbMText
 10
52.593971444742
 20
14.38275
 30
0.0
 40
3.5
 41
0.0
 71
     5
 72
     1
  1
\A1;%%c3.5
 11
0.0
 21
1.0
 31
0.0
 73
     1
 44
1.0
  0
POINT
  5
3C7
330
3BF
100
AcDbEntity
  8
Defpoints
 62
     0
100
AcDbPoint
 10
47.688984146635
 20
-1.75
 30
0.0
  0
POINT
  5
3C8
330
3BF
100
AcDbEntity
  8
Defpoints
 62
     0
100
AcDbPoint
 10
47.688984146635
 20
1.75
 30
0.0
  0
POINT
  5
106ABE6
330
3BF
100
AcDbEntity
  8
Defpoints
 62
     0
100
AcDbPoint
 10
55.255971444742
 20
1.75
 30
0.0
  0
ENDBLK
  5
3C9
330
3BF
100
AcDbEntity
  8
2
100
AcDbBlockEnd
  0
BLOCK
  5
3CB
330
3CD
100
AcDbEntity
  8
2
100
AcDbBlockBegin
  2
*D6
 70
     1
 10
0.0
 20
0.0
 30
0.0
  3
*D6
  1

  0
LINE
  5
3CE
330
3CD
100
AcDbEntity
  8
2
 62
     0
370
    -2
100
AcDbLine
 10
74.653339448559
 20
0.5
 30
0.0
 11
74.653339448559
 21
36.0
 31
0.0
  0
LINE
  5
3CF
330
3CD
100
AcDbEntity
  8
2
 62
     0
370
    -2
100
AcDbLine
 10
28.253339448559
 20
2.964
 30
0.0
 11
28.253339448559
 21
36.0
 31
0.0
  0
LINE
  5
3D0
330
3CD
100
AcDbEntity
  8
2
 62
     0
370
    -2
100
AcDbLine
 10
71.653339448559
 20
35.0
 30
0.0
 11
31.253339448559
 21
35.0
 31
0.0
  0
SOLID
  5
3D1
330
3CD
100
AcDbEntity
  8
2
 62
     0
100
AcDbTrace
 10
71.653339448559
 20
34.5
 30
0.0
 11
71.653339448559
 21
35.5
 31
0.0
 12
74.653339448559
 22
35.0
 32
0.0
 13
74.653339448559
 23
35.0
 33
0.0
  0
SOLID
  5
3D2
330
3CD
100
AcDbEntity
  8
2
 62
     0
100
AcDbTrace
 10
31.253339448559
 20
35.5
 30
0.0
 11
31.253339448559
 21
34.5
 31
0.0
 12
28.253339448559
 22
35.0
 32
0.0
 13
28.253339448559
 23
35.0
 33
0.0
  0
MTEXT
  5
3D3
330
3CD
100
AcDbEntity
  8
2
  6
ByBlock
 62
     0
100
AcDbMText
 10
51.453339448559
 20
37.61125
 30
0.0
 40
3.5
 41
0.0
 71
     5
 72
     1
  1
\A1;46.4
 73
     1
 44
1.0
  0
POINT
  5
3D4
330
3CD
100
AcDbEntity
  8
Defpoints
 62
     0
100
AcDbPoint
 10
74.653339448559
 20
0.0
 30
0.0
  0
POINT
  5
3D5
330
3CD
100
AcDbEntity
  8
Defpoints
 62
     0
100
AcDbPoint
 10
28.253339448559
 20
2.464
 30
0.0
  0
POINT
  5
3D6
330
3CD
100
AcDbEntity
  8
Defpoints
 62
     0
100
AcDbPoint
 10
28.253339448559
 20
35.0
 30
0.0
  0
ENDBLK
  5
3D7
330
3CD
100
AcDbEntity
  8
2
100
AcDbBlockEnd
  0
BLOCK
  5
106ABF8
330
106ABF7
100
AcDbEntity
  8
2
100
AcDbBlockBegin
  2
*D8
 70
     1
 10
0.0
 20
0.0
 30
0.0
  3
*D8
  1

  0
LINE
  5
106ABF9
330
106ABF7
100
AcDbEntity
  8
2
 62
     0
370
    -2
100
AcDbLine
 10
9.0
 20
13.164
 30
0.0
 11
9.0
 21
-0.0000000000000018
 31
0.0
  0
LINE
  5
106ABFA
330
106ABF7
100
AcDbEntity
  8
2
 62
     0
370
    -2
100
AcDbLine
 10
0.0000000000000071
 20
12.714
 30
0.0
 11
0.0000000000000071
 21
-0.0000000000000018
 31
0.0
  0
LINE
  5
106ABFB
330
106ABF7
100
AcDbEntity
  8
2
 62
     0
370
    -2
100
AcDbLine
 10
6.0
 20
0.9999999999999982
 30
0.0
 11
3.000000000000007
 21
0.9999999999999982
 31
0.0
  0
SOLID
  5
106ABFC
330
106ABF7
100
AcDbEntity
  8
2
 62
     0
100
AcDbTrace
 10
6.0
 20
0.4999999999999982
 30
0.0
 11
6.0
 21
1.499999999999998
 31
0.0
 12
9.0
 22
0.9999999999999982
 32
0.0
 13
9.0
 23
0.9999999999999982
 33
0.0
  0
SOLID
  5
106ABFD
330
106ABF7
100
AcDbEntity
  8
2
 62
     0
100
AcDbTrace
 10
3.000000000000007
 20
1.499999999999998
 30
0.0
 11
3.000000000000007
 21
0.4999999999999982
 31
0.0
 12
0.0000000000000071
 22
0.9999999999999982
 32
0.0
 13
0.0000000000000071
 23
0.9999999999999982
 33
0.0
  0
MTEXT
  5
106ABFE
330
106ABF7
100
AcDbEntity
  8
2
  6
ByBlock
 62
     0
100
AcDbMText
 10
4.5
 20
3.611249999999998
 30
0.0
 40
3.5
 41
0.0
 71
     5
 72
     1
  1
\A1;9
 73
     1
 44
1.0
  0
POINT
  5
106ABFF
330
106ABF7
100
AcDbEntity
  8
Defpoints
 62
     0
100
AcDbPoint
 10
9.0
 20
13.664
 30
0.0
  0
POINT
  5
106AC00
330
106ABF7
100
AcDbEntity
  8
Defpoints
 62
     0
100
AcDbPoint
 10
0.0000000000000071
 20
13.214
 30
0.0
  0
POINT
  5
106AC01
330
106ABF7
100
AcDbEntity
  8
Defpoints
 62
     0
100
AcDbPoint
 10
0.0000000000000071
 20
0.9999999999999982
 30
0.0
  0
ENDBLK
  5
106AC02
330
106ABF7
100
AcDbEntity
  8
2
100
AcDbBlockEnd
  0
BLOCK
  5
106AC08
330
106AC07
100
AcDbEntity
  8
0
100
AcDbBlockBegin
  2
*D9
 70
     1
 10
0.0
 20
0.0
 30
0.0
  3
*D9
  1

  0
LINE
  5
106AC0A
330
106AC07
100
AcDbEntity
  8
2
 62
     0
370
    -2
100
AcDbLine
 10
72.688984146635
 20
-2.3
 30
0.0
 11
72.688984146635
 21
-17.0
 31
0.0
  0
LINE
  5
106AC0B
330
106AC07
100
AcDbEntity
  8
2
 62
     0
370
    -2
100
AcDbLine
 10
69.688984146635
 20
-2.75
 30
0.0
 11
69.688984146635
 21
-17.0
 31
0.0
  0
LINE
  5
106AC0C
330
106AC07
100
AcDbEntity
  8
2
 62
     0
370
    -2
100
AcDbLine
 10
72.688984146635
 20
-16.0
 30
0.0
 11
82.731984146635
 21
-16.0
 31
0.0
  0
LINE
  5
106AC0D
330
106AC07
100
AcDbEntity
  8
2
 62
     0
370
    -2
100
AcDbLine
 10
72.688984146635
 20
-16.0
 30
0.0
 11
69.688984146635
 21
-16.0
 31
0.0
  0
LINE
  5
106AC0E
330
106AC07
100
AcDbEntity
  8
2
 62
     0
370
    -2
100
AcDbLine
 10
75.688984146635
 20
-16.0
 30
0.0
 11
78.688984146635
 21
-16.0
 31
0.0
  0
LINE
  5
106AC0F
330
106AC07
100
AcDbEntity
  8
2
 62
     0
370
    -2
100
AcDbLine
 10
66.688984146635
 20
-16.0
 30
0.0
 11
63.68898414663499
 21
-16.0
 31
0.0
  0
SOLID
  5
106AC10
330
106AC07
100
AcDbEntity
  8
2
 62
     0
100
AcDbTrace
 10
75.688984146635
 20
-15.5
 30
0.0
 11
75.688984146635
 21
-16.5
 31
0.0
 12
72.688984146635
 22
-16.0
 32
0.0
 13
72.688984146635
 23
-16.0
 33
0.0
  0
SOLID
  5
106AC11
330
106AC07
100
AcDbEntity
  8
2
 62
     0
100
AcDbTrace
 10
66.688984146635
 20
-16.5
 30
0.0
 11
66.688984146635
 21
-15.5
 31
0.0
 12
69.688984146635
 22
-16.0
 32
0.0
 13
69.688984146635
 23
-16.0
 33
0.0
  0
MTEXT
  5
106AC12
330
106AC07
100
AcDbEntity
  8
2
  6
ByBlock
 62
     0
100
AcDbMText
 10
80.710484146635
 20
-13.38875
 30
0.0
 40
3.5
 41
0.0
 71
     5
 72
     1
  1
\A1;3
 73
     1
 44
1.0
  0
POINT
  5
106AC13
330
106AC07
100
AcDbEntity
  8
Defpoints
 62
     0
100
AcDbPoint
 10
72.688984146635
 20
-1.8
 30
0.0
  0
POINT
  5
106AC14
330
106AC07
100
AcDbEntity
  8
Defpoints
 62
     0
100
AcDbPoint
 10
69.688984146635
 20
-2.25
 30
0.0
  0
POINT
  5
106AC15
330
106AC07
100
AcDbEntity
  8
Defpoints
 62
     0
100
AcDbPoint
 10
69.688984146635
 20
-16.0
 30
0.0
  0
ENDBLK
  5
106AC09
330
106AC07
100
AcDbEntity
  8
0
100
AcDbBlockEnd
  0
BLOCK
  5
106AC23
330
106AC22
100
AcDbEntity
  8
2
100
AcDbBlockBegin
  2
*D11
 70
     1
 10
0.0
 20
0.0
 30
0.0
  3
*D11
  1

  0
LINE
  5
106AC24
330
106AC22
100
AcDbEntity
  8
2
 62
     0
370
    -2
100
AcDbLine
 10
3.08175
 20
6.0
 30
0.0
 11
5.58175
 21
6.0
 31
0.0
  0
LINE
  5
106AC25
330
106AC22
100
AcDbEntity
  8
2
 62
     0
370
    -2
100
AcDbLine
 10
3.08175
 20
9.5
 30
0.0
 11
5.58175
 21
9.5
 31
0.0
  0
LINE
  5
106AC26
330
106AC22
100
AcDbEntity
  8
2
 62
     0
370
    -2
100
AcDbLine
 10
4.58175
 20
9.5
 30
0.0
 11
4.58175
 21
30.28975
 31
0.0
  0
LINE
  5
106AC27
330
106AC22
100
AcDbEntity
  8
2
 62
     0
370
    -2
100
AcDbLine
 10
4.58175
 20
6.0
 30
0.0
 11
4.58175
 21
9.5
 31
0.0
  0
LINE
  5
106AC28
330
106AC22
100
AcDbEntity
  8
2
 62
     0
370
    -2
100
AcDbLine
 10
4.58175
 20
3.0
 30
0.0
 11
4.58175
 21
0.0
 31
0.0
  0
LINE
  5
106AC29
330
106AC22
100
AcDbEntity
  8
2
 62
     0
370
    -2
100
AcDbLine
 10
4.58175
 20
12.5
 30
0.0
 11
4.58175
 21
15.5
 31
0.0
  0
SOLID
  5
106AC2A
330
106AC22
100
AcDbEntity
  8
2
 62
     0
100
AcDbTrace
 10
5.08175
 20
3.0
 30
0.0
 11
4.08175
 21
3.0
 31
0.0
 12
4.58175
 22
6.0
 32
0.0
 13
4.58175
 23
6.0
 33
0.0
  0
SOLID
  5
106AC2B
330
106AC22
100
AcDbEntity
  8
2
 62
     0
100
AcDbTrace
 10
4.08175
 20
12.5
 30
0.0
 11
5.08175
 21
12.5
 31
0.0
 12
4.58175
 22
9.5
 32
0.0
 13
4.58175
 23
9.5
 33
0.0
  0
MTEXT
  5
106AC2C
330
106AC22
100
AcDbEntity
  8
2
  6
ByBlock
 62
     0
100
AcDbMText
 10
1.919750000000001
 20
23.657
 30
0.0
 40
3.5
 41
0.0
 71
     5
 72
     1
  1
\A1;%%c3.5
 11
0.0
 21
1.0
 31
0.0
 73
     1
 44
1.0
  0
POINT
  5
106AC2D
330
106AC22
100
AcDbEntity
  8
Defpoints
 62
     0
100
AcDbPoint
 10
2.58175
 20
6.0
 30
0.0
  0
POINT
  5
106AC2E
330
106AC22
100
AcDbEntity
  8
Defpoints
 62
     0
100
AcDbPoint
 10
2.58175
 20
9.5
 30
0.0
  0
POINT
  5
106AC2F
330
106AC22
100
AcDbEntity
  8
Defpoints
 62
     0
100
AcDbPoint
 10
4.58175
 20
9.5
 30
0.0
  0
ENDBLK
  5
106AC30
330
106AC22
100
AcDbEntity
  8
2
100
AcDbBlockEnd
  0
BLOCK
  5
106AC36
330
106AC35
100
AcDbEntity
  8
0
100
AcDbBlockBegin
  2
*D12
 70
     1
 10
0.0
 20
0.0
 30
0.0
  3
*D12
  1

  0
LINE
  5
106AC38
330
106AC35
100
AcDbEntity
  8
2
 62
     0
370
    -2
100
AcDbLine
 10
73.188984146635
 20
-1.8
 30
0.0
 11
101.0
 21
-1.799999999999999
 31
0.0
  0
LINE
  5
106AC39
330
106AC35
100
AcDbEntity
  8
2
 62
     0
370
    -2
100
AcDbLine
 10
73.188984146635
 20
1.8
 30
0.0
 11
101.0
 21
1.800000000000002
 31
0.0
  0
LINE
  5
106AC3A
330
106AC35
100
AcDbEntity
  8
2
 62
     0
370
    -2
100
AcDbLine
 10
100.0
 20
1.800000000000002
 30
0.0
 11
100.0
 21
21.11449999999999
 31
0.0
  0
LINE
  5
106AC3B
330
106AC35
100
AcDbEntity
  8
2
 62
     0
370
    -2
100
AcDbLine
 10
100.0
 20
-1.799999999999999
 30
0.0
 11
100.0
 21
1.800000000000002
 31
0.0
  0
LINE
  5
106AC3C
330
106AC35
100
AcDbEntity
  8
2
 62
     0
370
    -2
100
AcDbLine
 10
100.0
 20
-4.799999999999999
 30
0.0
 11
100.0
 21
-7.799999999999999
 31
0.0
  0
LINE
  5
106AC3D
330
106AC35
100
AcDbEntity
  8
2
 62
     0
370
    -2
100
AcDbLine
 10
100.0
 20
4.800000000000002
 30
0.0
 11
100.0
 21
7.800000000000002
 31
0.0
  0
SOLID
  5
106AC3E
330
106AC35
100
AcDbEntity
  8
2
 62
     0
100
AcDbTrace
 10
100.5
 20
-4.799999999999999
 30
0.0
 11
99.5
 21
-4.799999999999999
 31
0.0
 12
100.0
 22
-1.799999999999999
 32
0.0
 13
100.0
 23
-1.799999999999999
 33
0.0
  0
SOLID
  5
106AC3F
330
106AC35
100
AcDbEntity
  8
2
 62
     0
100
AcDbTrace
 10
99.5
 20
4.800000000000002
 30
0.0
 11
100.5
 21
4.800000000000002
 31
0.0
 12
100.0
 22
1.800000000000002
 32
0.0
 13
100.0
 23
1.800000000000002
 33
0.0
  0
MTEXT
  5
106AC40
330
106AC35
100
AcDbEntity
  8
2
  6
ByBlock
 62
     0
100
AcDbMText
 10
97.338
 20
14.45724999999999
 30
0.0
 40
3.5
 41
0.0
 71
     5
 72
     1
  1
\A1;%%c3.6
 11
0.0
 21
1.0
 31
0.0
 73
     1
 44
1.0
  0
POINT
  5
106AC41
330
106AC35
100
AcDbEntity
  8
Defpoints
 62
     0
100
AcDbPoint
 10
72.688984146635
 20
-1.8
 30
0.0
  0
POINT
  5
106AC42
330
106AC35
100
AcDbEntity
  8
Defpoints
 62
     0
100
AcDbPoint
 10
72.688984146635
 20
1.8
 30
0.0
  0
POINT
  5
106AC43
330
106AC35
100
AcDbEntity
  8
Defpoints
 62
     0
100
AcDbPoint
 10
100.0
 20
1.800000000000002
 30
0.0
  0
ENDBLK
  5
106AC37
330
106AC35
100
AcDbEntity
  8
0
100
AcDbBlockEnd
  0
BLOCK
  5
106AC51
330
106AC50
100
AcDbEntity
  8
0
100
AcDbBlockBegin
  2
*D14
 70
     1
 10
0.0
 20
0.0
 30
0.0
  3
*D14
  1

  0
LINE
  5
106AC52
330
106AC50
100
AcDbEntity
  8
2
 62
     0
370
    -2
100
AcDbLine
 10
0.5
 20
5.999999999999999
 30
0.0
 11
28.31101585336501
 21
6.0
 31
0.0
  0
LINE
  5
106AC53
330
106AC50
100
AcDbEntity
  8
2
 62
     0
370
    -2
100
AcDbLine
 10
0.5
 20
9.6
 30
0.0
 11
28.31101585336501
 21
9.600000000000001
 31
0.0
  0
LINE
  5
106AC54
330
106AC50
100
AcDbEntity
  8
2
 62
     0
370
    -2
100
AcDbLine
 10
27.31101585336501
 20
9.600000000000001
 30
0.0
 11
27.31101585336501
 21
28.9145
 31
0.0
  0
LINE
  5
106AC55
330
106AC50
100
AcDbEntity
  8
2
 62
     0
370
    -2
100
AcDbLine
 10
27.31101585336501
 20
6.0
 30
0.0
 11
27.31101585336501
 21
9.600000000000001
 31
0.0
  0
LINE
  5
106AC56
330
106AC50
100
AcDbEntity
  8
2
 62
     0
370
    -2
100
AcDbLine
 10
27.31101585336501
 20
3.0
 30
0.0
 11
27.31101585336501
 21
0.0
 31
0.0
  0
LINE
  5
106AC57
330
106AC50
100
AcDbEntity
  8
2
 62
     0
370
    -2
100
AcDbLine
 10
27.31101585336501
 20
12.6
 30
0.0
 11
27.31101585336501
 21
15.6
 31
0.0
  0
SOLID
  5
106AC58
330
106AC50
100
AcDbEntity
  8
2
 62
     0
100
AcDbTrace
 10
27.81101585336501
 20
3.0
 30
0.0
 11
26.81101585336501
 21
3.0
 31
0.0
 12
27.31101585336501
 22
6.0
 32
0.0
 13
27.31101585336501
 23
6.0
 33
0.0
  0
SOLID
  5
106AC59
330
106AC50
100
AcDbEntity
  8
2
 62
     0
100
AcDbTrace
 10
26.81101585336501
 20
12.6
 30
0.0
 11
27.81101585336501
 21
12.6
 31
0.0
 12
27.31101585336501
 22
9.600000000000001
 32
0.0
 13
27.31101585336501
 23
9.600000000000001
 33
0.0
  0
MTEXT
  5
106AC5A
330
106AC50
100
AcDbEntity
  8
2
  6
ByBlock
 62
     0
100
AcDbMText
 10
24.64901585336501
 20
22.25725
 30
0.0
 40
3.5
 41
0.0
 71
     5
 72
     1
  1
\A1;%%c3.6
 11
0.0
 21
1.0
 31
0.0
 73
     1
 44
1.0
  0
POINT
  5
106AC5B
330
106AC50
100
AcDbEntity
  8
Defpoints
 62
     0
100
AcDbPoint
 10
0.0
 20
5.999999999999999
 30
0.0
  0
POINT
  5
106AC5C
330
106AC50
100
AcDbEntity
  8
Defpoints
 62
     0
100
AcDbPoint
 10
0.0
 20
9.6
 30
0.0
  0
POINT
  5
106AC5D
330
106AC50
100
AcDbEntity
  8
Defpoints
 62
     0
100
AcDbPoint
 10
27.31101585336501
 20
9.600000000000001
 30
0.0
  0
ENDBLK
  5
106AC5E
330
106AC50
100
AcDbEntity
  8
0
100
AcDbBlockEnd
  0
BLOCK
  5
106AC64
330
106AC63
100
AcDbEntity
  8
0
100
AcDbBlockBegin
  2
*D15
 70
     1
 10
0.0
 20
0.0
 30
0.0
  3
*D15
  1

  0
LINE
  5
106AC66
330
106AC63
100
AcDbEntity
  8
2
 62
     0
370
    -2
100
AcDbLine
 10
70.188984146635
 20
-2.25
 30
0.0
 11
109.0
 21
-2.249999999999996
 31
0.0
  0
LINE
  5
106AC67
330
106AC63
100
AcDbEntity
  8
2
 62
     0
370
    -2
100
AcDbLine
 10
70.188984146635
 20
2.25
 30
0.0
 11
109.0
 21
2.250000000000004
 31
0.0
  0
LINE
  5
106AC68
330
106AC63
100
AcDbEntity
  8
2
 62
     0
370
    -2
100
AcDbLine
 10
108.0
 20
2.250000000000004
 30
0.0
 11
108.0
 21
36.548
 31
0.0
  0
LINE
  5
106AC69
330
106AC63
100
AcDbEntity
  8
2
 62
     0
370
    -2
100
AcDbLine
 10
108.0
 20
-2.249999999999996
 30
0.0
 11
108.0
 21
2.250000000000004
 31
0.0
  0
LINE
  5
106AC6A
330
106AC63
100
AcDbEntity
  8
2
 62
     0
370
    -2
100
AcDbLine
 10
108.0
 20
-5.249999999999996
 30
0.0
 11
108.0
 21
-8.249999999999996
 31
0.0
  0
LINE
  5
106AC6B
330
106AC63
100
AcDbEntity
  8
2
 62
     0
370
    -2
100
AcDbLine
 10
108.0
 20
5.250000000000004
 30
0.0
 11
108.0
 21
8.250000000000004
 31
0.0
  0
SOLID
  5
106AC6C
330
106AC63
100
AcDbEntity
  8
2
 62
     0
100
AcDbTrace
 10
108.5
 20
-5.249999999999996
 30
0.0
 11
107.5
 21
-5.249999999999996
 31
0.0
 12
108.0
 22
-2.249999999999996
 32
0.0
 13
108.0
 23
-2.249999999999996
 33
0.0
  0
SOLID
  5
106AC6D
330
106AC63
100
AcDbEntity
  8
2
 62
     0
100
AcDbTrace
 10
107.5
 20
5.250000000000004
 30
0.0
 11
108.5
 21
5.250000000000004
 31
0.0
 12
108.0
 22
2.250000000000004
 32
0.0
 13
108.0
 23
2.250000000000004
 33
0.0
  0
MTEXT
  5
106AC6E
330
106AC63
100
AcDbEntity
  8
2
  6
ByBlock
 62
     0
100
AcDbMText
 10
105.38875
 20
22.399
 30
0.0
 40
3.5
 41
0.0
 71
     5
 72
     1
  1
\A1;M4.5X0.75
 11
0.0
 21
1.0
 31
0.0
 73
     1
 44
1.0
  0
POINT
  5
106AC6F
330
106AC63
100
AcDbEntity
  8
Defpoints
 62
     0
100
AcDbPoint
 10
69.688984146635
 20
-2.25
 30
0.0
  0
POINT
  5
106AC70
330
106AC63
100
AcDbEntity
  8
Defpoints
 62
     0
100
AcDbPoint
 10
69.688984146635
 20
2.25
 30
0.0
  0
POINT
  5
106AC71
330
106AC63
100
AcDbEntity
  8
Defpoints
 62
     0
100
AcDbPoint
 10
108.0
 20
2.250000000000002
 30
0.0
  0
ENDBLK
  5
106AC65
330
106AC63
100
AcDbEntity
  8
0
100
AcDbBlockEnd
  0
BLOCK
  5
106AC7F
330
106AC7E
100
AcDbEntity
  8
2
100
AcDbBlockBegin
  2
*D17
 70
     1
 10
0.0
 20
0.0
 30
0.0
  3
*D17
  1

  0
LINE
  5
106AC80
330
106AC7E
100
AcDbEntity
  8
2
 62
     0
370
    -2
100
AcDbLine
 10
46.4
 20
0.5
 30
0.0
 11
46.39999999999999
 21
36.0
 31
0.0
  0
LINE
  5
106AC81
330
106AC7E
100
AcDbEntity
  8
2
 62
     0
370
    -2
100
AcDbLine
 10
0.0000000000000034
 20
2.964
 30
0.0
 11
-0.0000000000000038
 21
36.0
 31
0.0
  0
LINE
  5
106AC82
330
106AC7E
100
AcDbEntity
  8
2
 62
     0
370
    -2
100
AcDbLine
 10
43.39999999999999
 20
35.0
 30
0.0
 11
2.999999999999996
 21
35.0
 31
0.0
  0
SOLID
  5
106AC83
330
106AC7E
100
AcDbEntity
  8
2
 62
     0
100
AcDbTrace
 10
43.39999999999999
 20
34.5
 30
0.0
 11
43.39999999999999
 21
35.5
 31
0.0
 12
46.39999999999999
 22
35.0
 32
0.0
 13
46.39999999999999
 23
35.0
 33
0.0
  0
SOLID
  5
106AC84
330
106AC7E
100
AcDbEntity
  8
2
 62
     0
100
AcDbTrace
 10
2.999999999999996
 20
35.5
 30
0.0
 11
2.999999999999996
 21
34.5
 31
0.0
 12
-0.0000000000000036
 22
35.0
 32
0.0
 13
-0.0000000000000036
 23
35.0
 33
0.0
  0
MTEXT
  5
106AC85
330
106AC7E
100
AcDbEntity
  8
2
  6
ByBlock
 62
     0
100
AcDbMText
 10
23.2
 20
37.61125
 30
0.0
 40
3.5
 41
0.0
 71
     5
 72
     1
  1
\A1;46.4
 73
     1
 44
1.0
  0
POINT
  5
106AC86
330
106AC7E
100
AcDbEntity
  8
Defpoints
 62
     0
100
AcDbPoint
 10
46.4
 20
0.0
 30
0.0
  0
POINT
  5
106AC87
330
106AC7E
100
AcDbEntity
  8
Defpoints
 62
     0
100
AcDbPoint
 10
0.0000000000000036
 20
2.464
 30
0.0
  0
POINT
  5
106AC88
330
106AC7E
100
AcDbEntity
  8
Defpoints
 62
     0
100
AcDbPoint
 10
0.0000000000000036
 20
35.0
 30
0.0
  0
ENDBLK
  5
106AC89
330
106AC7E
100
AcDbEntity
  8
2
100
AcDbBlockEnd
  0
BLOCK
  5
106AC8F
330
106AC8E
100
AcDbEntity
  8
0
100
AcDbBlockBegin
  2
*D18
 70
     1
 10
0.0
 20
0.0
 30
0.0
  3
*D18
  1

  0
LINE
  5
106AC91
330
106AC8E
100
AcDbEntity
  8
SK2
 62
     0
370
    -2
100
AcDbLine
 10
28.253339448559
 20
2.964
 30
0.0
 11
28.253339448559
 21
36.0
 31
0.0
  0
LINE
  5
106AC92
330
106AC8E
100
AcDbEntity
  8
SK2
 62
     0
370
    -2
100
AcDbLine
 10
2.688984146635
 20
2.964
 30
0.0
 11
2.688984146635001
 21
36.0
 31
0.0
  0
LINE
  5
106AC93
330
106AC8E
100
AcDbEntity
  8
SK2
 62
     0
370
    -2
100
AcDbLine
 10
25.253339448559
 20
35.0
 30
0.0
 11
5.688984146635001
 21
35.0
 31
0.0
  0
SOLID
  5
106AC94
330
106AC8E
100
AcDbEntity
  8
SK2
 62
     0
100
AcDbTrace
 10
25.253339448559
 20
34.5
 30
0.0
 11
25.253339448559
 21
35.5
 31
0.0
 12
28.253339448559
 22
35.0
 32
0.0
 13
28.253339448559
 23
35.0
 33
0.0
  0
SOLID
  5
106AC95
330
106AC8E
100
AcDbEntity
  8
SK2
 62
     0
100
AcDbTrace
 10
5.688984146635001
 20
35.5
 30
0.0
 11
5.688984146635001
 21
34.5
 31
0.0
 12
2.688984146635001
 22
35.0
 32
0.0
 13
2.688984146635001
 23
35.0
 33
0.0
  0
MTEXT
  5
106AC96
330
106AC8E
100
AcDbEntity
  8
SK2
  6
ByBlock
 62
     0
100
AcDbMText
 10
15.471161797597
 20
37.61125
 30
0.0
 40
3.5
 41
0.0
 71
     5
 72
     1
  1
\A1;25.6
 73
     1
 44
1.0
  0
POINT
  5
106AC97
330
106AC8E
100
AcDbEntity
  8
Defpoints
 62
     0
100
AcDbPoint
 10
28.253339448559
 20
2.464
 30
0.0
  0
POINT
  5
106AC98
330
106AC8E
100
AcDbEntity
  8
Defpoints
 62
     0
100
AcDbPoint
 10
2.688984146635
 20
2.464
 30
0.0
  0
POINT
  5
106AC99
330
106AC8E
100
AcDbEntity
  8
Defpoints
 62
     0
100
AcDbPoint
 10
2.688984146635
 20
35.0
 30
0.0
  0
ENDBLK
  5
106AC90
330
106AC8E
100
AcDbEntity
  8
0
100
AcDbBlockEnd
  0
ENDSEC
  0
SECTION
  2
ENTITIES
  0
DIMENSION
  5
384
330
30
100
AcDbEntity
  8
SK2
100
AcDbDimension
  2
*D0
 10
2.688984146635001
 20
-40.0
 30
0.0
 11
37.688984146635
 21
-40.0
 31
0.0
 70
   160
  1
<>
 71
     5
 42
70.0
  3
STANDARD
100
AcDbAlignedDimension
 13
72.688984146635
 23
-1.8
 33
0.0
 14
2.688984146635
 24
-2.464
 34
0.0
100
AcDbRotatedDimension
1001
ACAD
1000
DSTYLE
1002
{
1070
   271
1070
     0
1070
   279
1070
     0
1070
    74
1070
     0
1002
}
  0
DIMENSION
  5
392
330
30
100
AcDbEntity
  8
SK2
100
AcDbDimension
  2
*D1
 10
18.889
 20
2.464000000000002
 30
0.0
 11
18.889
 21
18.13475
 31
0.0
 70
   160
  1
%%c<>
 71
     5
 42
4.928
  3
STANDARD
100
AcDbAlignedDimension
 13
2.688984146635001
 23
-2.464
 33
0.0
 14
2.688984146635001
 24
2.464
 34
0.0
 50
-90.0
100
AcDbRotatedDimension
1001
ACAD
1000
DSTYLE
1002
{
1070
    76
1070
     1
1070
    75
1070
     1
1070
   271
1070
     3
1070
   279
1070
     0
1070
    74
1070
     0
1002
}
  0
DIMENSION
  5
3A0
330
30
100
AcDbEntity
  8
SK2
100
AcDbDimension
  2
*D2
 10
2.688984146635001
 20
-16.0
 30
0.0
 11
-8.365265853364999
 21
-16.0
 31
0.0
 70
   160
  1
<>
 71
     5
 42
6.399999999999999
  3
STANDARD
100
AcDbAlignedDimension
 13
9.088984146635
 23
-2.464
 33
0.0
 14
2.688984146635
 24
-2.464
 34
0.0
100
AcDbRotatedDimension
1001
ACAD
1000
DSTYLE
1002
{
1070
   271
1070
     1
1070
   279
1070
     0
1070
    74
1070
     0
1002
}
  0
DIMENSION
  5
3AE
330
30
100
AcDbEntity
  8
2
100
AcDbDimension
  2
*D3
 10
63.688984146635
 20
-24.0
 30
0.0
 11
68.188984146635
 21
-24.0
 31
0.0
 70
   160
  1
<>
 71
     5
 42
8.999999999999993
  3
STANDARD
100
AcDbAlignedDimension
 13
72.688984146635
 23
-1.8
 33
0.0
 14
63.688984146635
 24
-2.25
 34
0.0
100
AcDbRotatedDimension
1001
ACAD
1000
DSTYLE
1002
{
1070
   271
1070
     0
1070
   279
1070
     0
1070
    74
1070
     0
1002
}
  0
DIMENSION
  5
3BC
330
30
100
AcDbEntity
  8
2
100
AcDbDimension
  2
*D4
 10
47.688984146635
 20
-32.0
 30
0.0
 11
60.188984146635
 21
-32.0
 31
0.0
 70
   160
  1
<>
 71
     5
 42
24.99999999999999
  3
STANDARD
100
AcDbAlignedDimension
 13
72.688984146635
 23
-1.8
 33
0.0
 14
47.688984146635
 24
-1.75
 34
0.0
100
AcDbRotatedDimension
1001
ACAD
1000
DSTYLE
1002
{
1070
   271
1070
     0
1070
   279
1070
     0
1070
    74
1070
     0
1002
}
  0
DIMENSION
  5
3CA
330
30
100
AcDbEntity
  8
2
100
AcDbDimension
  2
*D5
 10
55.255971444742
 20
1.75
 30
0.0
 11
55.255971444742
 21
14.38275
 31
0.0
 70
   160
  1
%%c<>
 71
     5
 42
3.5
  3
STANDARD
100
AcDbAlignedDimension
 13
47.688984146635
 23
-1.75
 33
0.0
 14
47.688984146635
 24
1.75
 34
0.0
 50
-90.0
100
AcDbRotatedDimension
1001
ACAD
1000
DSTYLE
1002
{
1070
    76
1070
     1
1070
    75
1070
     1
1070
   271
1070
     1
1070
   279
1070
     0
1070
    74
1070
     0
1002
}
  0
DIMENSION
  5
3D8
330
30
100
AcDbEntity
  8
2
100
AcDbDimension
  2
*D6
 10
28.253339448559
 20
35.0
 30
0.0
 11
51.453339448559
 21
35.0
 31
0.0
 70
   160
  1
<>
 71
     5
 42
46.39999999999999
  3
STANDARD
100
AcDbAlignedDimension
 13
74.653339448559
 23
0.0
 33
0.0
 14
28.253339448559
 24
2.464
 34
0.0
100
AcDbRotatedDimension
1001
ACAD
1000
DSTYLE
1002
{
1070
   271
1070
     1
1070
   279
1070
     0
1070
    74
1070
     0
1002
}
  0
LINE
  5
36
330
30
100
AcDbEntity
  8
1
100
AcDbLine
 10
74.653339448559
 20
0.0
 30
0.0
 11
72.688984146635
 21
1.8
 31
0.0
  0
LINE
  5
37
330
30
100
AcDbEntity
  8
1
100
AcDbLine
 10
72.688984146635
 20
1.8
 30
0.0
 11
69.688984146635
 21
2.25
 31
0.0
  0
LINE
  5
38
330
30
100
AcDbEntity
  8
1
100
AcDbLine
 10
69.688984146635
 20
2.25
 30
0.0
 11
63.688984146635
 21
2.25
 31
0.0
  0
LINE
  5
39
330
30
100
AcDbEntity
  8
1
100
AcDbLine
 10
63.688984146635
 20
2.25
 30
0.0
 11
62.82295874285
 21
1.75
 31
0.0
  0
LINE
  5
3A
330
30
100
AcDbEntity
  8
1
100
AcDbLine
 10
62.82295874285
 20
1.75
 30
0.0
 11
47.688984146635
 21
1.75
 31
0.0
  0
LINE
  5
3B
330
30
100
AcDbEntity
  8
1
100
AcDbLine
 10
47.688984146635
 20
1.75
 30
0.0
 11
42.689050390976
 21
2.464
 31
0.0
  0
LINE
  5
3C
330
30
100
AcDbEntity
  8
1
100
AcDbLine
 10
42.689050390976
 20
2.464
 30
0.0
 11
28.253339448559
 21
2.464
 31
0.0
  0
LINE
  5
3D
330
30
100
AcDbEntity
  8
1
100
AcDbLine
 10
28.253339448559
 20
2.464
 30
0.0
 11
28.253339448559
 21
-2.464
 31
0.0
  0
LINE
  5
3E
330
30
100
AcDbEntity
  8
1
100
AcDbLine
 10
28.253339448559
 20
-2.464
 30
0.0
 11
42.689050390976
 21
-2.464
 31
0.0
  0
LINE
  5
3F
330
30
100
AcDbEntity
  8
1
100
AcDbLine
 10
42.689050390976
 20
-2.464
 30
0.0
 11
47.688984146635
 21
-1.75
 31
0.0
  0
LINE
  5
40
330
30
100
AcDbEntity
  8
1
100
AcDbLine
 10
47.688984146635
 20
-1.75
 30
0.0
 11
62.82295874285
 21
-1.75
 31
0.0
  0
LINE
  5
41
330
30
100
AcDbEntity
  8
1
100
AcDbLine
 10
62.82295874285
 20
-1.75
 30
0.0
 11
63.688984146635
 21
-2.25
 31
0.0
  0
LINE
  5
42
330
30
100
AcDbEntity
  8
1
100
AcDbLine
 10
63.688984146635
 20
-2.25
 30
0.0
 11
69.688984146635
 21
-2.25
 31
0.0
  0
LINE
  5
43
330
30
100
AcDbEntity
  8
1
100
AcDbLine
 10
69.688984146635
 20
-2.25
 30
0.0
 11
72.688984146635
 21
-1.8
 31
0.0
  0
LINE
  5
44
330
30
100
AcDbEntity
  8
1
100
AcDbLine
 10
72.688984146635
 20
-1.8
 30
0.0
 11
74.653339448559
 21
0.0
 31
0.0
  0
LINE
  5
45
330
30
100
AcDbEntity
  8
1
100
AcDbLine
 10
74.093339448559
 20
0.13103426342
 30
0.0
 11
74.093339448559
 21
-0.139030902815
 31
0.0
  0
LINE
  5
46
330
30
100
AcDbEntity
  8
1
100
AcDbLine
 10
72.688984146635
 20
-1.8
 30
0.0
 11
72.688984146635
 21
1.8
 31
0.0
  0
LINE
  5
47
330
30
100
AcDbEntity
  8
1
100
AcDbLine
 10
63.693339448559
 20
2.25
 30
0.0
 11
63.773339448559
 21
2.25
 31
0.0
  0
LINE
  5
48
330
30
100
AcDbEntity
  8
1
100
AcDbLine
 10
63.773339448559
 20
2.25
 30
0.0
 11
63.853339448559
 21
2.25
 31
0.0
  0
LINE
  5
49
330
30
100
AcDbEntity
  8
1
100
AcDbLine
 10
63.853339448559
 20
2.25
 30
0.0
 11
63.933339448559
 21
2.25
 31
0.0
  0
LINE
  5
4A
330
30
100
AcDbEntity
  8
1
100
AcDbLine
 10
63.933339448559
 20
2.25
 30
0.0
 11
64.013339448559
 21
2.25
 31
0.0
  0
LINE
  5
4B
330
30
100
AcDbEntity
  8
1
100
AcDbLine
 10
64.013339448559
 20
2.25
 30
0.0
 11
64.093339448559
 21
2.25
 31
0.0
  0
LINE
  5
4C
330
30
100
AcDbEntity
  8
1
100
AcDbLine
 10
64.093339448559
 20
2.25
 30
0.0
 11
64.173339448559
 21
2.25
 31
0.0
  0
LINE
  5
4D
330
30
100
AcDbEntity
  8
1
100
AcDbLine
 10
64.173339448559
 20
2.25
 30
0.0
 11
64.253339448559
 21
2.25
 31
0.0
  0
LINE
  5
4E
330
30
100
AcDbEntity
  8
1
100
AcDbLine
 10
64.253339448559
 20
2.25
 30
0.0
 11
64.333339448559
 21
2.25
 31
0.0
  0
LINE
  5
4F
330
30
100
AcDbEntity
  8
1
100
AcDbLine
 10
64.333339448559
 20
2.25
 30
0.0
 11
64.413339448559
 21
2.25
 31
0.0
  0
LINE
  5
50
330
30
100
AcDbEntity
  8
1
100
AcDbLine
 10
64.413339448559
 20
2.25
 30
0.0
 11
64.493339448559
 21
2.25
 31
0.0
  0
LINE
  5
51
330
30
100
AcDbEntity
  8
1
100
AcDbLine
 10
64.493339448559
 20
2.25
 30
0.0
 11
64.573339448559
 21
2.25
 31
0.0
  0
LINE
  5
52
330
30
100
AcDbEntity
  8
1
100
AcDbLine
 10
64.573339448559
 20
2.25
 30
0.0
 11
64.653339448559
 21
2.25
 31
0.0
  0
LINE
  5
53
330
30
100
AcDbEntity
  8
1
100
AcDbLine
 10
64.653339448559
 20
2.25
 30
0.0
 11
64.733339448559
 21
2.25
 31
0.0
  0
LINE
  5
54
330
30
100
AcDbEntity
  8
1
100
AcDbLine
 10
64.733339448559
 20
2.25
 30
0.0
 11
64.813339448559
 21
2.25
 31
0.0
  0
LINE
  5
55
330
30
100
AcDbEntity
  8
1
100
AcDbLine
 10
64.813339448559
 20
2.25
 30
0.0
 11
64.893339448559
 21
2.25
 31
0.0
  0
LINE
  5
56
330
30
100
AcDbEntity
  8
1
100
AcDbLine
 10
64.893339448559
 20
2.25
 30
0.0
 11
64.973339448559
 21
2.25
 31
0.0
  0
LINE
  5
57
330
30
100
AcDbEntity
  8
1
100
AcDbLine
 10
64.973339448559
 20
2.25
 30
0.0
 11
65.053339448559
 21
2.25
 31
0.0
  0
LINE
  5
58
330
30
100
AcDbEntity
  8
1
100
AcDbLine
 10
65.053339448559
 20
2.25
 30
0.0
 11
65.133339448559
 21
2.25
 31
0.0
  0
LINE
  5
59
330
30
100
AcDbEntity
  8
1
100
AcDbLine
 10
65.133339448559
 20
2.25
 30
0.0
 11
65.213339448559
 21
2.25
 31
0.0
  0
LINE
  5
5A
330
30
100
AcDbEntity
  8
1
100
AcDbLine
 10
65.213339448559
 20
2.25
 30
0.0
 11
65.293339448559
 21
2.25
 31
0.0
  0
LINE
  5
5B
330
30
100
AcDbEntity
  8
1
100
AcDbLine
 10
65.293339448559
 20
2.25
 30
0.0
 11
65.373339448559
 21
2.25
 31
0.0
  0
LINE
  5
5C
330
30
100
AcDbEntity
  8
1
100
AcDbLine
 10
65.373339448559
 20
2.25
 30
0.0
 11
65.453339448559
 21
2.25
 31
0.0
  0
LINE
  5
5D
330
30
100
AcDbEntity
  8
1
100
AcDbLine
 10
65.453339448559
 20
2.25
 30
0.0
 11
65.533339448559
 21
2.25
 31
0.0
  0
LINE
  5
5E
330
30
100
AcDbEntity
  8
1
100
AcDbLine
 10
65.533339448559
 20
2.25
 30
0.0
 11
65.613339448559
 21
2.25
 31
0.0
  0
LINE
  5
5F
330
30
100
AcDbEntity
  8
1
100
AcDbLine
 10
65.613339448559
 20
2.25
 30
0.0
 11
65.693339448559
 21
2.25
 31
0.0
  0
LINE
  5
60
330
30
100
AcDbEntity
  8
1
100
AcDbLine
 10
65.693339448559
 20
2.25
 30
0.0
 11
65.773339448559
 21
2.25
 31
0.0
  0
LINE
  5
61
330
30
100
AcDbEntity
  8
1
100
AcDbLine
 10
65.773339448559
 20
2.25
 30
0.0
 11
65.853339448559
 21
2.25
 31
0.0
  0
LINE
  5
62
330
30
100
AcDbEntity
  8
1
100
AcDbLine
 10
65.853339448559
 20
2.25
 30
0.0
 11
65.933339448559
 21
2.25
 31
0.0
  0
LINE
  5
63
330
30
100
AcDbEntity
  8
1
100
AcDbLine
 10
65.933339448559
 20
2.25
 30
0.0
 11
66.013339448559
 21
2.25
 31
0.0
  0
LINE
  5
64
330
30
100
AcDbEntity
  8
1
100
AcDbLine
 10
66.013339448559
 20
2.25
 30
0.0
 11
66.093339448559
 21
2.25
 31
0.0
  0
LINE
  5
65
330
30
100
AcDbEntity
  8
1
100
AcDbLine
 10
66.093339448559
 20
2.25
 30
0.0
 11
66.173339448559
 21
2.25
 31
0.0
  0
LINE
  5
66
330
30
100
AcDbEntity
  8
1
100
AcDbLine
 10
66.173339448559
 20
2.25
 30
0.0
 11
66.253339448559
 21
2.25
 31
0.0
  0
LINE
  5
67
330
30
100
AcDbEntity
  8
1
100
AcDbLine
 10
66.253339448559
 20
2.25
 30
0.0
 11
66.333339448559
 21
2.25
 31
0.0
  0
LINE
  5
68
330
30
100
AcDbEntity
  8
1
100
AcDbLine
 10
66.333339448559
 20
2.25
 30
0.0
 11
66.413339448559
 21
2.25
 31
0.0
  0
LINE
  5
69
330
30
100
AcDbEntity
  8
1
100
AcDbLine
 10
66.413339448559
 20
2.25
 30
0.0
 11
66.493339448559
 21
2.25
 31
0.0
  0
LINE
  5
6A
330
30
100
AcDbEntity
  8
1
100
AcDbLine
 10
66.493339448559
 20
2.25
 30
0.0
 11
66.573339448559
 21
2.25
 31
0.0
  0
LINE
  5
6B
330
30
100
AcDbEntity
  8
1
100
AcDbLine
 10
66.573339448559
 20
2.25
 30
0.0
 11
66.653339448559
 21
2.25
 31
0.0
  0
LINE
  5
6C
330
30
100
AcDbEntity
  8
1
100
AcDbLine
 10
66.653339448559
 20
2.25
 30
0.0
 11
66.733339448559
 21
2.25
 31
0.0
  0
LINE
  5
6D
330
30
100
AcDbEntity
  8
1
100
AcDbLine
 10
66.733339448559
 20
2.25
 30
0.0
 11
66.813339448559
 21
2.25
 31
0.0
  0
LINE
  5
6E
330
30
100
AcDbEntity
  8
1
100
AcDbLine
 10
66.813339448559
 20
2.25
 30
0.0
 11
66.893339448559
 21
2.25
 31
0.0
  0
LINE
  5
6F
330
30
100
AcDbEntity
  8
1
100
AcDbLine
 10
66.893339448559
 20
2.25
 30
0.0
 11
66.973339448559
 21
2.25
 31
0.0
  0
LINE
  5
70
330
30
100
AcDbEntity
  8
1
100
AcDbLine
 10
66.973339448559
 20
2.25
 30
0.0
 11
67.053339448559
 21
2.25
 31
0.0
  0
LINE
  5
71
330
30
100
AcDbEntity
  8
1
100
AcDbLine
 10
67.053339448559
 20
2.25
 30
0.0
 11
67.133339448559
 21
2.25
 31
0.0
  0
LINE
  5
72
330
30
100
AcDbEntity
  8
1
100
AcDbLine
 10
67.133339448559
 20
2.25
 30
0.0
 11
67.213339448559
 21
2.25
 31
0.0
  0
LINE
  5
73
330
30
100
AcDbEntity
  8
1
100
AcDbLine
 10
67.213339448559
 20
2.25
 30
0.0
 11
67.293339448559
 21
2.25
 31
0.0
  0
LINE
  5
74
330
30
100
AcDbEntity
  8
1
100
AcDbLine
 10
67.293339448559
 20
2.25
 30
0.0
 11
67.373339448559
 21
2.25
 31
0.0
  0
LINE
  5
75
330
30
100
AcDbEntity
  8
1
100
AcDbLine
 10
67.373339448559
 20
2.25
 30
0.0
 11
67.453339448559
 21
2.25
 31
0.0
  0
LINE
  5
76
330
30
100
AcDbEntity
  8
1
100
AcDbLine
 10
67.453339448559
 20
2.25
 30
0.0
 11
67.533339448559
 21
2.25
 31
0.0
  0
LINE
  5
77
330
30
100
AcDbEntity
  8
1
100
AcDbLine
 10
67.533339448559
 20
2.25
 30
0.0
 11
67.613339448559
 21
2.25
 31
0.0
  0
LINE
  5
78
330
30
100
AcDbEntity
  8
1
100
AcDbLine
 10
67.613339448559
 20
2.25
 30
0.0
 11
67.693339448559
 21
2.25
 31
0.0
  0
LINE
  5
79
330
30
100
AcDbEntity
  8
1
100
AcDbLine
 10
67.693339448559
 20
2.25
 30
0.0
 11
67.773339448559
 21
2.25
 31
0.0
  0
LINE
  5
7A
330
30
100
AcDbEntity
  8
1
100
AcDbLine
 10
67.773339448559
 20
2.25
 30
0.0
 11
67.853339448559
 21
2.25
 31
0.0
  0
LINE
  5
7B
330
30
100
AcDbEntity
  8
1
100
AcDbLine
 10
67.853339448559
 20
2.25
 30
0.0
 11
67.933339448559
 21
2.25
 31
0.0
  0
LINE
  5
7C
330
30
100
AcDbEntity
  8
1
100
AcDbLine
 10
67.933339448559
 20
2.25
 30
0.0
 11
68.013339448559
 21
2.25
 31
0.0
  0
LINE
  5
7D
330
30
100
AcDbEntity
  8
1
100
AcDbLine
 10
68.013339448559
 20
2.25
 30
0.0
 11
68.093339448559
 21
2.25
 31
0.0
  0
LINE
  5
7E
330
30
100
AcDbEntity
  8
1
100
AcDbLine
 10
68.093339448559
 20
2.25
 30
0.0
 11
68.173339448559
 21
2.25
 31
0.0
  0
LINE
  5
7F
330
30
100
AcDbEntity
  8
1
100
AcDbLine
 10
68.173339448559
 20
2.25
 30
0.0
 11
68.253339448559
 21
2.25
 31
0.0
  0
LINE
  5
80
330
30
100
AcDbEntity
  8
1
100
AcDbLine
 10
68.253339448559
 20
2.25
 30
0.0
 11
68.333339448559
 21
2.25
 31
0.0
  0
LINE
  5
81
330
30
100
AcDbEntity
  8
1
100
AcDbLine
 10
68.333339448559
 20
2.25
 30
0.0
 11
68.413339448559
 21
2.25
 31
0.0
  0
LINE
  5
82
330
30
100
AcDbEntity
  8
1
100
AcDbLine
 10
68.413339448559
 20
2.25
 30
0.0
 11
68.493339448559
 21
2.25
 31
0.0
  0
LINE
  5
83
330
30
100
AcDbEntity
  8
1
100
AcDbLine
 10
68.493339448559
 20
2.25
 30
0.0
 11
68.573339448559
 21
2.25
 31
0.0
  0
LINE
  5
84
330
30
100
AcDbEntity
  8
1
100
AcDbLine
 10
68.573339448559
 20
2.25
 30
0.0
 11
68.653339448559
 21
2.25
 31
0.0
  0
LINE
  5
85
330
30
100
AcDbEntity
  8
1
100
AcDbLine
 10
68.653339448559
 20
2.25
 30
0.0
 11
68.733339448559
 21
2.25
 31
0.0
  0
LINE
  5
86
330
30
100
AcDbEntity
  8
1
100
AcDbLine
 10
68.733339448559
 20
2.25
 30
0.0
 11
68.813339448559
 21
2.25
 31
0.0
  0
LINE
  5
87
330
30
100
AcDbEntity
  8
1
100
AcDbLine
 10
68.813339448559
 20
2.25
 30
0.0
 11
68.893339448559
 21
2.25
 31
0.0
  0
LINE
  5
88
330
30
100
AcDbEntity
  8
1
100
AcDbLine
 10
68.893339448559
 20
2.25
 30
0.0
 11
68.973339448559
 21
2.25
 31
0.0
  0
LINE
  5
89
330
30
100
AcDbEntity
  8
1
100
AcDbLine
 10
68.973339448559
 20
2.25
 30
0.0
 11
69.053339448559
 21
2.25
 31
0.0
  0
LINE
  5
8A
330
30
100
AcDbEntity
  8
1
100
AcDbLine
 10
69.053339448559
 20
2.25
 30
0.0
 11
69.133339448559
 21
2.25
 31
0.0
  0
LINE
  5
8B
330
30
100
AcDbEntity
  8
1
100
AcDbLine
 10
69.133339448559
 20
2.25
 30
0.0
 11
69.213339448559
 21
2.25
 31
0.0
  0
LINE
  5
8C
330
30
100
AcDbEntity
  8
1
100
AcDbLine
 10
69.213339448559
 20
2.25
 30
0.0
 11
69.293339448559
 21
2.25
 31
0.0
  0
LINE
  5
8D
330
30
100
AcDbEntity
  8
1
100
AcDbLine
 10
69.293339448559
 20
2.25
 30
0.0
 11
69.373339448559
 21
2.25
 31
0.0
  0
LINE
  5
8E
330
30
100
AcDbEntity
  8
1
100
AcDbLine
 10
69.373339448559
 20
2.25
 30
0.0
 11
69.453339448559
 21
2.25
 31
0.0
  0
LINE
  5
8F
330
30
100
AcDbEntity
  8
1
100
AcDbLine
 10
69.453339448559
 20
2.25
 30
0.0
 11
69.533339448559
 21
2.25
 31
0.0
  0
LINE
  5
90
330
30
100
AcDbEntity
  8
1
100
AcDbLine
 10
69.533339448559
 20
2.25
 30
0.0
 11
69.613339448559
 21
2.25
 31
0.0
  0
LINE
  5
91
330
30
100
AcDbEntity
  8
1
100
AcDbLine
 10
69.688984146635
 20
2.25
 30
0.0
 11
69.688984146635
 21
-2.25
 31
0.0
  0
LINE
  5
92
330
30
100
AcDbEntity
  8
1
100
AcDbLine
 10
69.613339448559
 20
-2.25
 30
0.0
 11
69.533339448559
 21
-2.25
 31
0.0
  0
LINE
  5
93
330
30
100
AcDbEntity
  8
1
100
AcDbLine
 10
69.533339448559
 20
-2.25
 30
0.0
 11
69.453339448559
 21
-2.25
 31
0.0
  0
LINE
  5
94
330
30
100
AcDbEntity
  8
1
100
AcDbLine
 10
69.453339448559
 20
-2.25
 30
0.0
 11
69.373339448559
 21
-2.25
 31
0.0
  0
LINE
  5
95
330
30
100
AcDbEntity
  8
1
100
AcDbLine
 10
69.373339448559
 20
-2.25
 30
0.0
 11
69.293339448559
 21
-2.25
 31
0.0
  0
LINE
  5
96
330
30
100
AcDbEntity
  8
1
100
AcDbLine
 10
69.293339448559
 20
-2.25
 30
0.0
 11
69.213339448559
 21
-2.25
 31
0.0
  0
LINE
  5
97
330
30
100
AcDbEntity
  8
1
100
AcDbLine
 10
69.213339448559
 20
-2.25
 30
0.0
 11
69.133339448559
 21
-2.25
 31
0.0
  0
LINE
  5
98
330
30
100
AcDbEntity
  8
1
100
AcDbLine
 10
69.133339448559
 20
-2.25
 30
0.0
 11
69.053339448559
 21
-2.25
 31
0.0
  0
LINE
  5
99
330
30
100
AcDbEntity
  8
1
100
AcDbLine
 10
69.053339448559
 20
-2.25
 30
0.0
 11
68.973339448559
 21
-2.25
 31
0.0
  0
LINE
  5
9A
330
30
100
AcDbEntity
  8
1
100
AcDbLine
 10
68.973339448559
 20
-2.25
 30
0.0
 11
68.893339448559
 21
-2.25
 31
0.0
  0
LINE
  5
9B
330
30
100
AcDbEntity
  8
1
100
AcDbLine
 10
68.893339448559
 20
-2.25
 30
0.0
 11
68.813339448559
 21
-2.25
 31
0.0
  0
LINE
  5
9C
330
30
100
AcDbEntity
  8
1
100
AcDbLine
 10
68.813339448559
 20
-2.25
 30
0.0
 11
68.733339448559
 21
-2.25
 31
0.0
  0
LINE
  5
9D
330
30
100
AcDbEntity
  8
1
100
AcDbLine
 10
68.733339448559
 20
-2.25
 30
0.0
 11
68.653339448559
 21
-2.25
 31
0.0
  0
LINE
  5
9E
330
30
100
AcDbEntity
  8
1
100
AcDbLine
 10
68.653339448559
 20
-2.25
 30
0.0
 11
68.573339448559
 21
-2.25
 31
0.0
  0
LINE
  5
9F
330
30
100
AcDbEntity
  8
1
100
AcDbLine
 10
68.573339448559
 20
-2.25
 30
0.0
 11
68.493339448559
 21
-2.25
 31
0.0
  0
LINE
  5
A0
330
30
100
AcDbEntity
  8
1
100
AcDbLine
 10
68.493339448559
 20
-2.25
 30
0.0
 11
68.413339448559
 21
-2.25
 31
0.0
  0
LINE
  5
A1
330
30
100
AcDbEntity
  8
1
100
AcDbLine
 10
68.413339448559
 20
-2.25
 30
0.0
 11
68.333339448559
 21
-2.25
 31
0.0
  0
LINE
  5
A2
330
30
100
AcDbEntity
  8
1
100
AcDbLine
 10
68.333339448559
 20
-2.25
 30
0.0
 11
68.253339448559
 21
-2.25
 31
0.0
  0
LINE
  5
A3
330
30
100
AcDbEntity
  8
1
100
AcDbLine
 10
68.253339448559
 20
-2.25
 30
0.0
 11
68.173339448559
 21
-2.25
 31
0.0
  0
LINE
  5
A4
330
30
100
AcDbEntity
  8
1
100
AcDbLine
 10
68.173339448559
 20
-2.25
 30
0.0
 11
68.093339448559
 21
-2.25
 31
0.0
  0
LINE
  5
A5
330
30
100
AcDbEntity
  8
1
100
AcDbLine
 10
68.093339448559
 20
-2.25
 30
0.0
 11
68.013339448559
 21
-2.25
 31
0.0
  0
LINE
  5
A6
330
30
100
AcDbEntity
  8
1
100
AcDbLine
 10
68.013339448559
 20
-2.25
 30
0.0
 11
67.933339448559
 21
-2.25
 31
0.0
  0
LINE
  5
A7
330
30
100
AcDbEntity
  8
1
100
AcDbLine
 10
67.933339448559
 20
-2.25
 30
0.0
 11
67.853339448559
 21
-2.25
 31
0.0
  0
LINE
  5
A8
330
30
100
AcDbEntity
  8
1
100
AcDbLine
 10
67.853339448559
 20
-2.25
 30
0.0
 11
67.773339448559
 21
-2.25
 31
0.0
  0
LINE
  5
A9
330
30
100
AcDbEntity
  8
1
100
AcDbLine
 10
67.773339448559
 20
-2.25
 30
0.0
 11
67.693339448559
 21
-2.25
 31
0.0
  0
LINE
  5
AA
330
30
100
AcDbEntity
  8
1
100
AcDbLine
 10
67.693339448559
 20
-2.25
 30
0.0
 11
67.613339448559
 21
-2.25
 31
0.0
  0
LINE
  5
AB
330
30
100
AcDbEntity
  8
1
100
AcDbLine
 10
67.613339448559
 20
-2.25
 30
0.0
 11
67.533339448559
 21
-2.25
 31
0.0
  0
LINE
  5
AC
330
30
100
AcDbEntity
  8
1
100
AcDbLine
 10
67.533339448559
 20
-2.25
 30
0.0
 11
67.453339448559
 21
-2.25
 31
0.0
  0
LINE
  5
AD
330
30
100
AcDbEntity
  8
1
100
AcDbLine
 10
67.453339448559
 20
-2.25
 30
0.0
 11
67.373339448559
 21
-2.25
 31
0.0
  0
LINE
  5
AE
330
30
100
AcDbEntity
  8
1
100
AcDbLine
 10
67.373339448559
 20
-2.25
 30
0.0
 11
67.293339448559
 21
-2.25
 31
0.0
  0
LINE
  5
AF
330
30
100
AcDbEntity
  8
1
100
AcDbLine
 10
67.293339448559
 20
-2.25
 30
0.0
 11
67.213339448559
 21
-2.25
 31
0.0
  0
LINE
  5
B0
330
30
100
AcDbEntity
  8
1
100
AcDbLine
 10
67.213339448559
 20
-2.25
 30
0.0
 11
67.133339448559
 21
-2.25
 31
0.0
  0
LINE
  5
B1
330
30
100
AcDbEntity
  8
1
100
AcDbLine
 10
67.133339448559
 20
-2.25
 30
0.0
 11
67.053339448559
 21
-2.25
 31
0.0
  0
LINE
  5
B2
330
30
100
AcDbEntity
  8
1
100
AcDbLine
 10
67.053339448559
 20
-2.25
 30
0.0
 11
66.973339448559
 21
-2.25
 31
0.0
  0
LINE
  5
B3
330
30
100
AcDbEntity
  8
1
100
AcDbLine
 10
66.973339448559
 20
-2.25
 30
0.0
 11
66.893339448559
 21
-2.25
 31
0.0
  0
LINE
  5
B4
330
30
100
AcDbEntity
  8
1
100
AcDbLine
 10
66.893339448559
 20
-2.25
 30
0.0
 11
66.813339448559
 21
-2.25
 31
0.0
  0
LINE
  5
B5
330
30
100
AcDbEntity
  8
1
100
AcDbLine
 10
66.813339448559
 20
-2.25
 30
0.0
 11
66.733339448559
 21
-2.25
 31
0.0
  0
LINE
  5
B6
330
30
100
AcDbEntity
  8
1
100
AcDbLine
 10
66.733339448559
 20
-2.25
 30
0.0
 11
66.653339448559
 21
-2.25
 31
0.0
  0
LINE
  5
B7
330
30
100
AcDbEntity
  8
1
100
AcDbLine
 10
66.653339448559
 20
-2.25
 30
0.0
 11
66.573339448559
 21
-2.25
 31
0.0
  0
LINE
  5
B8
330
30
100
AcDbEntity
  8
1
100
AcDbLine
 10
66.573339448559
 20
-2.25
 30
0.0
 11
66.493339448559
 21
-2.25
 31
0.0
  0
LINE
  5
B9
330
30
100
AcDbEntity
  8
1
100
AcDbLine
 10
66.493339448559
 20
-2.25
 30
0.0
 11
66.413339448559
 21
-2.25
 31
0.0
  0
LINE
  5
BA
330
30
100
AcDbEntity
  8
1
100
AcDbLine
 10
66.413339448559
 20
-2.25
 30
0.0
 11
66.333339448559
 21
-2.25
 31
0.0
  0
LINE
  5
BB
330
30
100
AcDbEntity
  8
1
100
AcDbLine
 10
66.333339448559
 20
-2.25
 30
0.0
 11
66.253339448559
 21
-2.25
 31
0.0
  0
LINE
  5
BC
330
30
100
AcDbEntity
  8
1
100
AcDbLine
 10
66.253339448559
 20
-2.25
 30
0.0
 11
66.173339448559
 21
-2.25
 31
0.0
  0
LINE
  5
BD
330
30
100
AcDbEntity
  8
1
100
AcDbLine
 10
66.173339448559
 20
-2.25
 30
0.0
 11
66.093339448559
 21
-2.25
 31
0.0
  0
LINE
  5
BE
330
30
100
AcDbEntity
  8
1
100
AcDbLine
 10
66.093339448559
 20
-2.25
 30
0.0
 11
66.013339448559
 21
-2.25
 31
0.0
  0
LINE
  5
BF
330
30
100
AcDbEntity
  8
1
100
AcDbLine
 10
66.013339448559
 20
-2.25
 30
0.0
 11
65.933339448559
 21
-2.25
 31
0.0
  0
LINE
  5
C0
330
30
100
AcDbEntity
  8
1
100
AcDbLine
 10
65.933339448559
 20
-2.25
 30
0.0
 11
65.853339448559
 21
-2.25
 31
0.0
  0
LINE
  5
C1
330
30
100
AcDbEntity
  8
1
100
AcDbLine
 10
65.853339448559
 20
-2.25
 30
0.0
 11
65.773339448559
 21
-2.25
 31
0.0
  0
LINE
  5
C2
330
30
100
AcDbEntity
  8
1
100
AcDbLine
 10
65.773339448559
 20
-2.25
 30
0.0
 11
65.693339448559
 21
-2.25
 31
0.0
  0
LINE
  5
C3
330
30
100
AcDbEntity
  8
1
100
AcDbLine
 10
65.693339448559
 20
-2.25
 30
0.0
 11
65.613339448559
 21
-2.25
 31
0.0
  0
LINE
  5
C4
330
30
100
AcDbEntity
  8
1
100
AcDbLine
 10
65.613339448559
 20
-2.25
 30
0.0
 11
65.533339448559
 21
-2.25
 31
0.0
  0
LINE
  5
C5
330
30
100
AcDbEntity
  8
1
100
AcDbLine
 10
65.533339448559
 20
-2.25
 30
0.0
 11
65.453339448559
 21
-2.25
 31
0.0
  0
LINE
  5
C6
330
30
100
AcDbEntity
  8
1
100
AcDbLine
 10
65.453339448559
 20
-2.25
 30
0.0
 11
65.373339448559
 21
-2.25
 31
0.0
  0
LINE
  5
C7
330
30
100
AcDbEntity
  8
1
100
AcDbLine
 10
65.373339448559
 20
-2.25
 30
0.0
 11
65.293339448559
 21
-2.25
 31
0.0
  0
LINE
  5
C8
330
30
100
AcDbEntity
  8
1
100
AcDbLine
 10
65.293339448559
 20
-2.25
 30
0.0
 11
65.213339448559
 21
-2.25
 31
0.0
  0
LINE
  5
C9
330
30
100
AcDbEntity
  8
1
100
AcDbLine
 10
65.213339448559
 20
-2.25
 30
0.0
 11
65.133339448559
 21
-2.25
 31
0.0
  0
LINE
  5
CA
330
30
100
AcDbEntity
  8
1
100
AcDbLine
 10
65.133339448559
 20
-2.25
 30
0.0
 11
65.053339448559
 21
-2.25
 31
0.0
  0
LINE
  5
CB
330
30
100
AcDbEntity
  8
1
100
AcDbLine
 10
65.053339448559
 20
-2.25
 30
0.0
 11
64.973339448559
 21
-2.25
 31
0.0
  0
LINE
  5
CC
330
30
100
AcDbEntity
  8
1
100
AcDbLine
 10
64.973339448559
 20
-2.25
 30
0.0
 11
64.893339448559
 21
-2.25
 31
0.0
  0
LINE
  5
CD
330
30
100
AcDbEntity
  8
1
100
AcDbLine
 10
64.893339448559
 20
-2.25
 30
0.0
 11
64.813339448559
 21
-2.25
 31
0.0
  0
LINE
  5
CE
330
30
100
AcDbEntity
  8
1
100
AcDbLine
 10
64.813339448559
 20
-2.25
 30
0.0
 11
64.733339448559
 21
-2.25
 31
0.0
  0
LINE
  5
CF
330
30
100
AcDbEntity
  8
1
100
AcDbLine
 10
64.733339448559
 20
-2.25
 30
0.0
 11
64.653339448559
 21
-2.25
 31
0.0
  0
LINE
  5
D0
330
30
100
AcDbEntity
  8
1
100
AcDbLine
 10
64.653339448559
 20
-2.25
 30
0.0
 11
64.573339448559
 21
-2.25
 31
0.0
  0
LINE
  5
D1
330
30
100
AcDbEntity
  8
1
100
AcDbLine
 10
64.573339448559
 20
-2.25
 30
0.0
 11
64.493339448559
 21
-2.25
 31
0.0
  0
LINE
  5
D2
330
30
100
AcDbEntity
  8
1
100
AcDbLine
 10
64.493339448559
 20
-2.25
 30
0.0
 11
64.413339448559
 21
-2.25
 31
0.0
  0
LINE
  5
D3
330
30
100
AcDbEntity
  8
1
100
AcDbLine
 10
64.413339448559
 20
-2.25
 30
0.0
 11
64.333339448559
 21
-2.25
 31
0.0
  0
LINE
  5
D4
330
30
100
AcDbEntity
  8
1
100
AcDbLine
 10
64.333339448559
 20
-2.25
 30
0.0
 11
64.253339448559
 21
-2.25
 31
0.0
  0
LINE
  5
D5
330
30
100
AcDbEntity
  8
1
100
AcDbLine
 10
64.253339448559
 20
-2.25
 30
0.0
 11
64.173339448559
 21
-2.25
 31
0.0
  0
LINE
  5
D6
330
30
100
AcDbEntity
  8
1
100
AcDbLine
 10
64.173339448559
 20
-2.25
 30
0.0
 11
64.093339448559
 21
-2.25
 31
0.0
  0
LINE
  5
D7
330
30
100
AcDbEntity
  8
1
100
AcDbLine
 10
64.093339448559
 20
-2.25
 30
0.0
 11
64.013339448559
 21
-2.25
 31
0.0
  0
LINE
  5
D8
330
30
100
AcDbEntity
  8
1
100
AcDbLine
 10
64.013339448559
 20
-2.25
 30
0.0
 11
63.933339448559
 21
-2.25
 31
0.0
  0
LINE
  5
D9
330
30
100
AcDbEntity
  8
1
100
AcDbLine
 10
63.933339448559
 20
-2.25
 30
0.0
 11
63.853339448559
 21
-2.25
 31
0.0
  0
LINE
  5
DA
330
30
100
AcDbEntity
  8
1
100
AcDbLine
 10
63.853339448559
 20
-2.25
 30
0.0
 11
63.773339448559
 21
-2.25
 31
0.0
  0
LINE
  5
DB
330
30
100
AcDbEntity
  8
1
100
AcDbLine
 10
63.773339448559
 20
-2.25
 30
0.0
 11
63.693339448559
 21
-2.25
 31
0.0
  0
LINE
  5
DC
330
30
100
AcDbEntity
  8
1
100
AcDbLine
 10
63.688984146635
 20
-2.25
 30
0.0
 11
63.688984146635
 21
2.25
 31
0.0
  0
LINE
  5
DD
330
30
100
AcDbEntity
  8
1
100
AcDbLine
 10
63.688984146635
 20
2.25
 30
0.0
 11
63.688984146635
 21
-2.25
 31
0.0
  0
LINE
  5
DE
330
30
100
AcDbEntity
  8
1
100
AcDbLine
 10
62.82295874285
 20
-1.75
 30
0.0
 11
62.82295874285
 21
1.75
 31
0.0
  0
LINE
  5
DF
330
30
100
AcDbEntity
  8
1
100
AcDbLine
 10
50.653339448559
 20
0.844524723206
 30
0.0
 11
50.73333944856
 21
0.844524723206
 31
0.0
  0
LINE
  5
E0
330
30
100
AcDbEntity
  8
1
100
AcDbLine
 10
50.73333944856
 20
0.844524723206
 30
0.0
 11
50.81333944856
 21
0.844524723206
 31
0.0
  0
LINE
  5
E1
330
30
100
AcDbEntity
  8
1
100
AcDbLine
 10
50.81333944856
 20
0.844524723206
 30
0.0
 11
50.89333944856
 21
0.844524723206
 31
0.0
  0
LINE
  5
E2
330
30
100
AcDbEntity
  8
1
100
AcDbLine
 10
50.89333944856
 20
0.844524723206
 30
0.0
 11
50.97333944856
 21
0.844524723206
 31
0.0
  0
LINE
  5
E3
330
30
100
AcDbEntity
  8
1
100
AcDbLine
 10
50.97333944856
 20
0.844524723206
 30
0.0
 11
51.05333944856
 21
0.844524723206
 31
0.0
  0
LINE
  5
E4
330
30
100
AcDbEntity
  8
1
100
AcDbLine
 10
51.05333944856
 20
0.844524723206
 30
0.0
 11
51.13333944856
 21
0.844524723206
 31
0.0
  0
LINE
  5
E5
330
30
100
AcDbEntity
  8
1
100
AcDbLine
 10
51.13333944856
 20
0.844524723206
 30
0.0
 11
51.21333944856
 21
0.844524723206
 31
0.0
  0
LINE
  5
E6
330
30
100
AcDbEntity
  8
1
100
AcDbLine
 10
51.21333944856
 20
0.844524723206
 30
0.0
 11
51.29333944856
 21
0.844524723206
 31
0.0
  0
LINE
  5
E7
330
30
100
AcDbEntity
  8
1
100
AcDbLine
 10
51.29333944856
 20
0.844524723206
 30
0.0
 11
51.37333944856
 21
0.844524723206
 31
0.0
  0
LINE
  5
E8
330
30
100
AcDbEntity
  8
1
100
AcDbLine
 10
51.37333944856
 20
0.844524723206
 30
0.0
 11
51.45333944856
 21
0.844524723206
 31
0.0
  0
LINE
  5
E9
330
30
100
AcDbEntity
  8
1
100
AcDbLine
 10
51.45333944856
 20
0.844524723206
 30
0.0
 11
51.53333944856
 21
0.844524723206
 31
0.0
  0
LINE
  5
EA
330
30
100
AcDbEntity
  8
1
100
AcDbLine
 10
51.53333944856
 20
0.844524723206
 30
0.0
 11
51.61333944856
 21
0.844524723206
 31
0.0
  0
LINE
  5
EB
330
30
100
AcDbEntity
  8
1
100
AcDbLine
 10
51.61333944856
 20
0.844524723206
 30
0.0
 11
51.693339448559
 21
0.844524723206
 31
0.0
  0
LINE
  5
EC
330
30
100
AcDbEntity
  8
1
100
AcDbLine
 10
51.693339448559
 20
0.844524723206
 30
0.0
 11
51.773339448559
 21
0.844524723206
 31
0.0
  0
LINE
  5
ED
330
30
100
AcDbEntity
  8
1
100
AcDbLine
 10
51.773339448559
 20
0.844524723206
 30
0.0
 11
51.853339448559
 21
0.844524723206
 31
0.0
  0
LINE
  5
EE
330
30
100
AcDbEntity
  8
1
100
AcDbLine
 10
51.853339448559
 20
0.844524723206
 30
0.0
 11
51.933339448559
 21
0.844524723206
 31
0.0
  0
LINE
  5
EF
330
30
100
AcDbEntity
  8
1
100
AcDbLine
 10
51.933339448559
 20
0.844524723206
 30
0.0
 11
52.013339448559
 21
0.844524723206
 31
0.0
  0
LINE
  5
F0
330
30
100
AcDbEntity
  8
1
100
AcDbLine
 10
52.013339448559
 20
0.844524723206
 30
0.0
 11
52.093339448559
 21
0.844524723206
 31
0.0
  0
LINE
  5
F1
330
30
100
AcDbEntity
  8
1
100
AcDbLine
 10
52.093339448559
 20
0.844524723206
 30
0.0
 11
52.173339448559
 21
0.844524723206
 31
0.0
  0
LINE
  5
F2
330
30
100
AcDbEntity
  8
1
100
AcDbLine
 10
52.173339448559
 20
0.844524723206
 30
0.0
 11
52.253339448559
 21
0.844524723206
 31
0.0
  0
LINE
  5
F3
330
30
100
AcDbEntity
  8
1
100
AcDbLine
 10
52.253339448559
 20
0.844524723206
 30
0.0
 11
52.333339448559
 21
0.844524723206
 31
0.0
  0
LINE
  5
F4
330
30
100
AcDbEntity
  8
1
100
AcDbLine
 10
52.333339448559
 20
0.844524723206
 30
0.0
 11
52.413339448559
 21
0.844524723206
 31
0.0
  0
LINE
  5
F5
330
30
100
AcDbEntity
  8
1
100
AcDbLine
 10
52.413339448559
 20
0.844524723206
 30
0.0
 11
52.493339448559
 21
0.844524723206
 31
0.0
  0
LINE
  5
F6
330
30
100
AcDbEntity
  8
1
100
AcDbLine
 10
52.493339448559
 20
0.844524723206
 30
0.0
 11
52.573339448559
 21
0.844524723206
 31
0.0
  0
LINE
  5
F7
330
30
100
AcDbEntity
  8
1
100
AcDbLine
 10
52.573339448559
 20
0.844524723206
 30
0.0
 11
52.653339448559
 21
0.844524723206
 31
0.0
  0
LINE
  5
F8
330
30
100
AcDbEntity
  8
1
100
AcDbLine
 10
52.653339448559
 20
0.844524723206
 30
0.0
 11
52.733339448559
 21
0.844524723206
 31
0.0
  0
LINE
  5
F9
330
30
100
AcDbEntity
  8
1
100
AcDbLine
 10
52.733339448559
 20
0.844524723206
 30
0.0
 11
52.813339448559
 21
0.844524723206
 31
0.0
  0
LINE
  5
FA
330
30
100
AcDbEntity
  8
1
100
AcDbLine
 10
52.813339448559
 20
0.844524723206
 30
0.0
 11
52.893339448559
 21
0.844524723206
 31
0.0
  0
LINE
  5
FB
330
30
100
AcDbEntity
  8
1
100
AcDbLine
 10
52.893339448559
 20
0.844524723206
 30
0.0
 11
52.973339448559
 21
0.844524723206
 31
0.0
  0
LINE
  5
FC
330
30
100
AcDbEntity
  8
1
100
AcDbLine
 10
52.973339448559
 20
0.844524723206
 30
0.0
 11
53.053339448559
 21
0.844524723206
 31
0.0
  0
LINE
  5
FD
330
30
100
AcDbEntity
  8
1
100
AcDbLine
 10
53.053339448559
 20
0.844524723206
 30
0.0
 11
53.133339448559
 21
0.844524723206
 31
0.0
  0
LINE
  5
FE
330
30
100
AcDbEntity
  8
1
100
AcDbLine
 10
53.133339448559
 20
0.844524723206
 30
0.0
 11
53.213339448559
 21
0.844524723206
 31
0.0
  0
LINE
  5
FF
330
30
100
AcDbEntity
  8
1
100
AcDbLine
 10
53.213339448559
 20
0.844524723206
 30
0.0
 11
53.293339448559
 21
0.844524723206
 31
0.0
  0
LINE
  5
100
330
30
100
AcDbEntity
  8
1
100
AcDbLine
 10
53.293339448559
 20
0.844524723206
 30
0.0
 11
53.373339448559
 21
0.844524723206
 31
0.0
  0
LINE
  5
101
330
30
100
AcDbEntity
  8
1
100
AcDbLine
 10
53.373339448559
 20
0.844524723206
 30
0.0
 11
53.453339448559
 21
0.844524723206
 31
0.0
  0
LINE
  5
102
330
30
100
AcDbEntity
  8
1
100
AcDbLine
 10
53.453339448559
 20
0.844524723206
 30
0.0
 11
53.533339448559
 21
0.844524723206
 31
0.0
  0
LINE
  5
103
330
30
100
AcDbEntity
  8
1
100
AcDbLine
 10
53.533339448559
 20
0.844524723206
 30
0.0
 11
53.613339448559
 21
0.844524723206
 31
0.0
  0
LINE
  5
104
330
30
100
AcDbEntity
  8
1
100
AcDbLine
 10
53.613339448559
 20
0.844524723206
 30
0.0
 11
53.693339448559
 21
0.844524723206
 31
0.0
  0
LINE
  5
105
330
30
100
AcDbEntity
  8
1
100
AcDbLine
 10
53.693339448559
 20
0.844524723206
 30
0.0
 11
53.773339448559
 21
0.844524723206
 31
0.0
  0
LINE
  5
106
330
30
100
AcDbEntity
  8
1
100
AcDbLine
 10
53.773339448559
 20
0.844524723206
 30
0.0
 11
53.853339448559
 21
0.844524723206
 31
0.0
  0
LINE
  5
107
330
30
100
AcDbEntity
  8
1
100
AcDbLine
 10
53.853339448559
 20
0.844524723206
 30
0.0
 11
53.933339448559
 21
0.844524723206
 31
0.0
  0
LINE
  5
108
330
30
100
AcDbEntity
  8
1
100
AcDbLine
 10
53.933339448559
 20
0.844524723206
 30
0.0
 11
54.013339448559
 21
0.844524723206
 31
0.0
  0
LINE
  5
109
330
30
100
AcDbEntity
  8
1
100
AcDbLine
 10
54.013339448559
 20
0.844524723206
 30
0.0
 11
54.093339448559
 21
0.844524723206
 31
0.0
  0
LINE
  5
10A
330
30
100
AcDbEntity
  8
1
100
AcDbLine
 10
54.093339448559
 20
0.844524723206
 30
0.0
 11
54.173339448559
 21
0.844524723206
 31
0.0
  0
LINE
  5
10B
330
30
100
AcDbEntity
  8
1
100
AcDbLine
 10
54.173339448559
 20
0.844524723206
 30
0.0
 11
54.253339448559
 21
0.844524723206
 31
0.0
  0
LINE
  5
10C
330
30
100
AcDbEntity
  8
1
100
AcDbLine
 10
54.253339448559
 20
0.844524723206
 30
0.0
 11
54.333339448559
 21
0.844524723206
 31
0.0
  0
LINE
  5
10D
330
30
100
AcDbEntity
  8
1
100
AcDbLine
 10
54.333339448559
 20
0.844524723206
 30
0.0
 11
54.413339448559
 21
0.844524723206
 31
0.0
  0
LINE
  5
10E
330
30
100
AcDbEntity
  8
1
100
AcDbLine
 10
54.413339448559
 20
0.844524723206
 30
0.0
 11
54.493339448559
 21
0.844524723206
 31
0.0
  0
LINE
  5
10F
330
30
100
AcDbEntity
  8
1
100
AcDbLine
 10
54.493339448559
 20
0.844524723206
 30
0.0
 11
54.573339448559
 21
0.844524723206
 31
0.0
  0
LINE
  5
110
330
30
100
AcDbEntity
  8
1
100
AcDbLine
 10
54.573339448559
 20
0.844524723206
 30
0.0
 11
54.653339448559
 21
0.844524723206
 31
0.0
  0
LINE
  5
111
330
30
100
AcDbEntity
  8
1
100
AcDbLine
 10
54.653339448559
 20
0.844524723206
 30
0.0
 11
54.733339448559
 21
0.844524723206
 31
0.0
  0
LINE
  5
112
330
30
100
AcDbEntity
  8
1
100
AcDbLine
 10
54.733339448559
 20
0.844524723206
 30
0.0
 11
54.813339448559
 21
0.844524723206
 31
0.0
  0
LINE
  5
113
330
30
100
AcDbEntity
  8
1
100
AcDbLine
 10
54.813339448559
 20
0.844524723206
 30
0.0
 11
54.893339448559
 21
0.844524723206
 31
0.0
  0
LINE
  5
114
330
30
100
AcDbEntity
  8
1
100
AcDbLine
 10
54.893339448559
 20
0.844524723206
 30
0.0
 11
54.973339448559
 21
0.844524723206
 31
0.0
  0
LINE
  5
115
330
30
100
AcDbEntity
  8
1
100
AcDbLine
 10
54.973339448559
 20
0.844524723206
 30
0.0
 11
55.053339448559
 21
0.844524723206
 31
0.0
  0
LINE
  5
116
330
30
100
AcDbEntity
  8
1
100
AcDbLine
 10
55.053339448559
 20
0.844524723206
 30
0.0
 11
55.133339448559
 21
0.844524723206
 31
0.0
  0
LINE
  5
117
330
30
100
AcDbEntity
  8
1
100
AcDbLine
 10
55.133339448559
 20
0.844524723206
 30
0.0
 11
55.213339448559
 21
0.844524723206
 31
0.0
  0
LINE
  5
118
330
30
100
AcDbEntity
  8
1
100
AcDbLine
 10
55.213339448559
 20
0.844524723206
 30
0.0
 11
55.293339448559
 21
0.844524723206
 31
0.0
  0
LINE
  5
119
330
30
100
AcDbEntity
  8
1
100
AcDbLine
 10
55.293339448559
 20
0.844524723206
 30
0.0
 11
55.373339448559
 21
0.844524723206
 31
0.0
  0
LINE
  5
11A
330
30
100
AcDbEntity
  8
1
100
AcDbLine
 10
55.373339448559
 20
0.844524723206
 30
0.0
 11
55.453339448559
 21
0.844524723206
 31
0.0
  0
LINE
  5
11B
330
30
100
AcDbEntity
  8
1
100
AcDbLine
 10
55.453339448559
 20
0.844524723206
 30
0.0
 11
55.533339448559
 21
0.844524723206
 31
0.0
  0
LINE
  5
11C
330
30
100
AcDbEntity
  8
1
100
AcDbLine
 10
55.533339448559
 20
0.844524723206
 30
0.0
 11
55.613339448559
 21
0.844524723206
 31
0.0
  0
LINE
  5
11D
330
30
100
AcDbEntity
  8
1
100
AcDbLine
 10
55.613339448559
 20
0.844524723206
 30
0.0
 11
55.693339448559
 21
0.844524723206
 31
0.0
  0
LINE
  5
11E
330
30
100
AcDbEntity
  8
1
100
AcDbLine
 10
55.693339448559
 20
0.844524723206
 30
0.0
 11
55.773339448559
 21
0.844524723206
 31
0.0
  0
LINE
  5
11F
330
30
100
AcDbEntity
  8
1
100
AcDbLine
 10
55.773339448559
 20
0.844524723206
 30
0.0
 11
55.853339448559
 21
0.844524723206
 31
0.0
  0
LINE
  5
120
330
30
100
AcDbEntity
  8
1
100
AcDbLine
 10
55.853339448559
 20
0.844524723206
 30
0.0
 11
55.933339448559
 21
0.844524723206
 31
0.0
  0
LINE
  5
121
330
30
100
AcDbEntity
  8
1
100
AcDbLine
 10
55.933339448559
 20
0.844524723206
 30
0.0
 11
56.013339448559
 21
0.844524723206
 31
0.0
  0
LINE
  5
122
330
30
100
AcDbEntity
  8
1
100
AcDbLine
 10
56.013339448559
 20
0.844524723206
 30
0.0
 11
56.093339448559
 21
0.844524723206
 31
0.0
  0
LINE
  5
123
330
30
100
AcDbEntity
  8
1
100
AcDbLine
 10
56.093339448559
 20
0.844524723206
 30
0.0
 11
56.173339448559
 21
0.844524723206
 31
0.0
  0
LINE
  5
124
330
30
100
AcDbEntity
  8
1
100
AcDbLine
 10
56.173339448559
 20
0.844524723206
 30
0.0
 11
56.253339448559
 21
0.844524723206
 31
0.0
  0
LINE
  5
125
330
30
100
AcDbEntity
  8
1
100
AcDbLine
 10
56.253339448559
 20
0.844524723206
 30
0.0
 11
56.333339448559
 21
0.844524723206
 31
0.0
  0
LINE
  5
126
330
30
100
AcDbEntity
  8
1
100
AcDbLine
 10
56.333339448559
 20
0.844524723206
 30
0.0
 11
56.413339448559
 21
0.844524723206
 31
0.0
  0
LINE
  5
127
330
30
100
AcDbEntity
  8
1
100
AcDbLine
 10
56.413339448559
 20
0.844524723206
 30
0.0
 11
56.493339448559
 21
0.844524723206
 31
0.0
  0
LINE
  5
128
330
30
100
AcDbEntity
  8
1
100
AcDbLine
 10
56.493339448559
 20
0.844524723206
 30
0.0
 11
56.573339448559
 21
0.844524723206
 31
0.0
  0
LINE
  5
129
330
30
100
AcDbEntity
  8
1
100
AcDbLine
 10
56.573339448559
 20
0.844524723206
 30
0.0
 11
56.653339448559
 21
0.844524723206
 31
0.0
  0
LINE
  5
12A
330
30
100
AcDbEntity
  8
1
100
AcDbLine
 10
56.653339448559
 20
0.844524723206
 30
0.0
 11
56.733339448559
 21
0.844524723206
 31
0.0
  0
LINE
  5
12B
330
30
100
AcDbEntity
  8
1
100
AcDbLine
 10
56.733339448559
 20
0.844524723206
 30
0.0
 11
56.813339448559
 21
0.844524723206
 31
0.0
  0
LINE
  5
12C
330
30
100
AcDbEntity
  8
1
100
AcDbLine
 10
56.813339448559
 20
0.844524723206
 30
0.0
 11
56.893339448559
 21
0.844524723206
 31
0.0
  0
LINE
  5
12D
330
30
100
AcDbEntity
  8
1
100
AcDbLine
 10
56.893339448559
 20
0.844524723206
 30
0.0
 11
56.973339448559
 21
0.844524723206
 31
0.0
  0
LINE
  5
12E
330
30
100
AcDbEntity
  8
1
100
AcDbLine
 10
56.973339448559
 20
0.844524723206
 30
0.0
 11
57.053339448559
 21
0.844524723206
 31
0.0
  0
LINE
  5
12F
330
30
100
AcDbEntity
  8
1
100
AcDbLine
 10
57.053339448559
 20
0.844524723206
 30
0.0
 11
57.133339448559
 21
0.844524723206
 31
0.0
  0
LINE
  5
130
330
30
100
AcDbEntity
  8
1
100
AcDbLine
 10
57.133339448559
 20
0.844524723206
 30
0.0
 11
57.213339448559
 21
0.844524723206
 31
0.0
  0
LINE
  5
131
330
30
100
AcDbEntity
  8
1
100
AcDbLine
 10
57.213339448559
 20
0.844524723206
 30
0.0
 11
57.293339448559
 21
0.844524723206
 31
0.0
  0
LINE
  5
132
330
30
100
AcDbEntity
  8
1
100
AcDbLine
 10
57.293339448559
 20
0.844524723206
 30
0.0
 11
57.373339448559
 21
0.844524723206
 31
0.0
  0
LINE
  5
133
330
30
100
AcDbEntity
  8
1
100
AcDbLine
 10
57.373339448559
 20
0.844524723206
 30
0.0
 11
57.453339448559
 21
0.844524723206
 31
0.0
  0
LINE
  5
134
330
30
100
AcDbEntity
  8
1
100
AcDbLine
 10
57.453339448559
 20
0.844524723206
 30
0.0
 11
57.533339448559
 21
0.844524723206
 31
0.0
  0
LINE
  5
135
330
30
100
AcDbEntity
  8
1
100
AcDbLine
 10
57.533339448559
 20
0.844524723206
 30
0.0
 11
57.613339448559
 21
0.844524723206
 31
0.0
  0
LINE
  5
136
330
30
100
AcDbEntity
  8
1
100
AcDbLine
 10
57.613339448559
 20
0.844524723206
 30
0.0
 11
57.693339448559
 21
0.844524723206
 31
0.0
  0
LINE
  5
137
330
30
100
AcDbEntity
  8
1
100
AcDbLine
 10
57.693339448559
 20
0.844524723206
 30
0.0
 11
57.773339448559
 21
0.844524723206
 31
0.0
  0
LINE
  5
138
330
30
100
AcDbEntity
  8
1
100
AcDbLine
 10
57.773339448559
 20
0.844524723206
 30
0.0
 11
57.853339448559
 21
0.844524723206
 31
0.0
  0
LINE
  5
139
330
30
100
AcDbEntity
  8
1
100
AcDbLine
 10
57.853339448559
 20
0.844524723206
 30
0.0
 11
57.933339448559
 21
0.844524723206
 31
0.0
  0
LINE
  5
13A
330
30
100
AcDbEntity
  8
1
100
AcDbLine
 10
57.933339448559
 20
0.844524723206
 30
0.0
 11
58.013339448559
 21
0.844524723206
 31
0.0
  0
LINE
  5
13B
330
30
100
AcDbEntity
  8
1
100
AcDbLine
 10
58.013339448559
 20
0.844524723206
 30
0.0
 11
58.093339448559
 21
0.844524723206
 31
0.0
  0
LINE
  5
13C
330
30
100
AcDbEntity
  8
1
100
AcDbLine
 10
58.093339448559
 20
0.844524723206
 30
0.0
 11
58.173339448559
 21
0.844524723206
 31
0.0
  0
LINE
  5
13D
330
30
100
AcDbEntity
  8
1
100
AcDbLine
 10
58.173339448559
 20
0.844524723206
 30
0.0
 11
58.253339448559
 21
0.844524723206
 31
0.0
  0
LINE
  5
13E
330
30
100
AcDbEntity
  8
1
100
AcDbLine
 10
58.253339448559
 20
0.844524723206
 30
0.0
 11
58.333339448559
 21
0.844524723206
 31
0.0
  0
LINE
  5
13F
330
30
100
AcDbEntity
  8
1
100
AcDbLine
 10
58.333339448559
 20
0.844524723206
 30
0.0
 11
58.413339448559
 21
0.844524723206
 31
0.0
  0
LINE
  5
140
330
30
100
AcDbEntity
  8
1
100
AcDbLine
 10
58.413339448559
 20
0.844524723206
 30
0.0
 11
58.493339448559
 21
0.844524723206
 31
0.0
  0
LINE
  5
141
330
30
100
AcDbEntity
  8
1
100
AcDbLine
 10
58.493339448559
 20
0.844524723206
 30
0.0
 11
58.573339448559
 21
0.844524723206
 31
0.0
  0
LINE
  5
142
330
30
100
AcDbEntity
  8
1
100
AcDbLine
 10
58.573339448559
 20
0.844524723206
 30
0.0
 11
58.653339448559
 21
0.844524723206
 31
0.0
  0
LINE
  5
143
330
30
100
AcDbEntity
  8
1
100
AcDbLine
 10
58.653339448559
 20
0.844524723206
 30
0.0
 11
58.733339448559
 21
0.844524723206
 31
0.0
  0
LINE
  5
144
330
30
100
AcDbEntity
  8
1
100
AcDbLine
 10
58.733339448559
 20
0.844524723206
 30
0.0
 11
58.813339448559
 21
0.844524723206
 31
0.0
  0
LINE
  5
145
330
30
100
AcDbEntity
  8
1
100
AcDbLine
 10
58.813339448559
 20
0.844524723206
 30
0.0
 11
58.893339448559
 21
0.844524723206
 31
0.0
  0
LINE
  5
146
330
30
100
AcDbEntity
  8
1
100
AcDbLine
 10
58.893339448559
 20
0.844524723206
 30
0.0
 11
58.973339448559
 21
0.844524723206
 31
0.0
  0
LINE
  5
147
330
30
100
AcDbEntity
  8
1
100
AcDbLine
 10
58.973339448559
 20
0.844524723206
 30
0.0
 11
59.053339448559
 21
0.844524723206
 31
0.0
  0
LINE
  5
148
330
30
100
AcDbEntity
  8
1
100
AcDbLine
 10
59.053339448559
 20
0.844524723206
 30
0.0
 11
59.133339448559
 21
0.844524723206
 31
0.0
  0
LINE
  5
149
330
30
100
AcDbEntity
  8
1
100
AcDbLine
 10
59.133339448559
 20
0.844524723206
 30
0.0
 11
59.213339448559
 21
0.844524723206
 31
0.0
  0
LINE
  5
14A
330
30
100
AcDbEntity
  8
1
100
AcDbLine
 10
59.213339448559
 20
0.844524723206
 30
0.0
 11
59.293339448559
 21
0.844524723206
 31
0.0
  0
LINE
  5
14B
330
30
100
AcDbEntity
  8
1
100
AcDbLine
 10
59.293339448559
 20
0.844524723206
 30
0.0
 11
59.373339448559
 21
0.844524723206
 31
0.0
  0
LINE
  5
14C
330
30
100
AcDbEntity
  8
1
100
AcDbLine
 10
59.373339448559
 20
0.844524723206
 30
0.0
 11
59.453339448559
 21
0.844524723206
 31
0.0
  0
LINE
  5
14D
330
30
100
AcDbEntity
  8
1
100
AcDbLine
 10
59.453339448559
 20
0.844524723206
 30
0.0
 11
59.533339448559
 21
0.844524723206
 31
0.0
  0
LINE
  5
14E
330
30
100
AcDbEntity
  8
1
100
AcDbLine
 10
59.533339448559
 20
0.844524723206
 30
0.0
 11
59.613339448559
 21
0.844524723206
 31
0.0
  0
LINE
  5
14F
330
30
100
AcDbEntity
  8
1
100
AcDbLine
 10
59.613339448559
 20
0.844524723206
 30
0.0
 11
59.693339448559
 21
0.844524723206
 31
0.0
  0
LINE
  5
150
330
30
100
AcDbEntity
  8
1
100
AcDbLine
 10
59.693339448559
 20
0.844524723206
 30
0.0
 11
59.773339448559
 21
0.844524723206
 31
0.0
  0
LINE
  5
151
330
30
100
AcDbEntity
  8
1
100
AcDbLine
 10
59.773339448559
 20
0.844524723206
 30
0.0
 11
59.853339448559
 21
0.844524723206
 31
0.0
  0
LINE
  5
152
330
30
100
AcDbEntity
  8
1
100
AcDbLine
 10
59.853339448559
 20
0.844524723206
 30
0.0
 11
59.933339448559
 21
0.844524723206
 31
0.0
  0
LINE
  5
153
330
30
100
AcDbEntity
  8
1
100
AcDbLine
 10
59.933339448559
 20
0.844524723206
 30
0.0
 11
60.013339448559
 21
0.844524723206
 31
0.0
  0
LINE
  5
154
330
30
100
AcDbEntity
  8
1
100
AcDbLine
 10
60.013339448559
 20
0.844524723206
 30
0.0
 11
60.093339448559
 21
0.844524723206
 31
0.0
  0
LINE
  5
155
330
30
100
AcDbEntity
  8
1
100
AcDbLine
 10
60.093339448559
 20
0.844524723206
 30
0.0
 11
60.173339448559
 21
0.844524723206
 31
0.0
  0
LINE
  5
156
330
30
100
AcDbEntity
  8
1
100
AcDbLine
 10
60.173339448559
 20
0.844524723206
 30
0.0
 11
60.253339448559
 21
0.844524723206
 31
0.0
  0
LINE
  5
157
330
30
100
AcDbEntity
  8
1
100
AcDbLine
 10
60.253339448559
 20
0.844524723206
 30
0.0
 11
60.333339448559
 21
0.844524723206
 31
0.0
  0
LINE
  5
158
330
30
100
AcDbEntity
  8
1
100
AcDbLine
 10
60.333339448559
 20
0.844524723206
 30
0.0
 11
60.413339448559
 21
0.844524723206
 31
0.0
  0
LINE
  5
159
330
30
100
AcDbEntity
  8
1
100
AcDbLine
 10
60.413339448559
 20
0.844524723206
 30
0.0
 11
60.493339448559
 21
0.844524723206
 31
0.0
  0
LINE
  5
15A
330
30
100
AcDbEntity
  8
1
100
AcDbLine
 10
60.493339448559
 20
0.844524723206
 30
0.0
 11
60.573339448559
 21
0.844524723206
 31
0.0
  0
LINE
  5
15B
330
30
100
AcDbEntity
  8
1
100
AcDbLine
 10
60.573339448559
 20
0.844524723206
 30
0.0
 11
60.653339448559
 21
0.844524723206
 31
0.0
  0
LINE
  5
15C
330
30
100
AcDbEntity
  8
1
100
AcDbLine
 10
60.653339448559
 20
0.844524723206
 30
0.0
 11
60.733339448559
 21
0.844524723206
 31
0.0
  0
LINE
  5
15D
330
30
100
AcDbEntity
  8
1
100
AcDbLine
 10
60.733339448559
 20
0.844524723206
 30
0.0
 11
60.813339448559
 21
0.844524723206
 31
0.0
  0
LINE
  5
15E
330
30
100
AcDbEntity
  8
1
100
AcDbLine
 10
60.813339448559
 20
0.844524723206
 30
0.0
 11
60.893339448559
 21
0.844524723206
 31
0.0
  0
LINE
  5
15F
330
30
100
AcDbEntity
  8
1
100
AcDbLine
 10
60.893339448559
 20
0.844524723206
 30
0.0
 11
60.973339448559
 21
0.844524723206
 31
0.0
  0
LINE
  5
160
330
30
100
AcDbEntity
  8
1
100
AcDbLine
 10
60.973339448559
 20
0.844524723206
 30
0.0
 11
61.053339448559
 21
0.844524723206
 31
0.0
  0
LINE
  5
161
330
30
100
AcDbEntity
  8
1
100
AcDbLine
 10
61.053339448559
 20
0.844524723206
 30
0.0
 11
61.133339448559
 21
0.844524723206
 31
0.0
  0
LINE
  5
162
330
30
100
AcDbEntity
  8
1
100
AcDbLine
 10
61.133339448559
 20
0.844524723206
 30
0.0
 11
61.213339448559
 21
0.844524723206
 31
0.0
  0
LINE
  5
163
330
30
100
AcDbEntity
  8
1
100
AcDbLine
 10
61.213339448559
 20
0.844524723206
 30
0.0
 11
61.293339448559
 21
0.844524723206
 31
0.0
  0
LINE
  5
164
330
30
100
AcDbEntity
  8
1
100
AcDbLine
 10
61.293339448559
 20
0.844524723206
 30
0.0
 11
61.373339448559
 21
0.844524723206
 31
0.0
  0
LINE
  5
165
330
30
100
AcDbEntity
  8
1
100
AcDbLine
 10
61.373339448559
 20
0.844524723206
 30
0.0
 11
61.453339448559
 21
0.844524723206
 31
0.0
  0
LINE
  5
166
330
30
100
AcDbEntity
  8
1
100
AcDbLine
 10
61.453339448559
 20
0.844524723206
 30
0.0
 11
61.533339448559
 21
0.844524723206
 31
0.0
  0
LINE
  5
167
330
30
100
AcDbEntity
  8
1
100
AcDbLine
 10
61.533339448559
 20
0.844524723206
 30
0.0
 11
61.613339448559
 21
0.844524723206
 31
0.0
  0
LINE
  5
168
330
30
100
AcDbEntity
  8
1
100
AcDbLine
 10
61.613339448559
 20
0.844524723206
 30
0.0
 11
61.693339448559
 21
0.844524723206
 31
0.0
  0
LINE
  5
169
330
30
100
AcDbEntity
  8
1
100
AcDbLine
 10
61.693339448559
 20
0.844524723206
 30
0.0
 11
61.773339448559
 21
0.844524723206
 31
0.0
  0
LINE
  5
16A
330
30
100
AcDbEntity
  8
1
100
AcDbLine
 10
61.773339448559
 20
0.844524723206
 30
0.0
 11
61.853339448559
 21
0.844524723206
 31
0.0
  0
LINE
  5
16B
330
30
100
AcDbEntity
  8
1
100
AcDbLine
 10
61.853339448559
 20
0.844524723206
 30
0.0
 11
61.933339448559
 21
0.844524723206
 31
0.0
  0
LINE
  5
16C
330
30
100
AcDbEntity
  8
1
100
AcDbLine
 10
61.933339448559
 20
0.844524723206
 30
0.0
 11
62.013339448559
 21
0.844524723206
 31
0.0
  0
LINE
  5
16D
330
30
100
AcDbEntity
  8
1
100
AcDbLine
 10
62.013339448559
 20
0.844524723206
 30
0.0
 11
62.093339448559
 21
0.844524723206
 31
0.0
  0
LINE
  5
16E
330
30
100
AcDbEntity
  8
1
100
AcDbLine
 10
62.093339448559
 20
0.844524723206
 30
0.0
 11
62.173339448559
 21
0.844524723206
 31
0.0
  0
LINE
  5
16F
330
30
100
AcDbEntity
  8
1
100
AcDbLine
 10
62.173339448559
 20
0.844524723206
 30
0.0
 11
62.253339448559
 21
0.844524723206
 31
0.0
  0
LINE
  5
170
330
30
100
AcDbEntity
  8
1
100
AcDbLine
 10
62.253339448559
 20
0.844524723206
 30
0.0
 11
62.333339448559
 21
0.844524723206
 31
0.0
  0
LINE
  5
171
330
30
100
AcDbEntity
  8
1
100
AcDbLine
 10
62.333339448559
 20
0.844524723206
 30
0.0
 11
62.413339448559
 21
0.844524723206
 31
0.0
  0
LINE
  5
172
330
30
100
AcDbEntity
  8
1
100
AcDbLine
 10
62.413339448559
 20
0.844524723206
 30
0.0
 11
62.493339448559
 21
0.844524723206
 31
0.0
  0
LINE
  5
173
330
30
100
AcDbEntity
  8
1
100
AcDbLine
 10
62.493339448559
 20
0.844524723206
 30
0.0
 11
62.573339448559
 21
0.844524723206
 31
0.0
  0
LINE
  5
174
330
30
100
AcDbEntity
  8
1
100
AcDbLine
 10
62.573339448559
 20
0.844524723206
 30
0.0
 11
62.653339448559
 21
0.844524723206
 31
0.0
  0
LINE
  5
175
330
30
100
AcDbEntity
  8
1
100
AcDbLine
 10
62.653339448559
 20
0.844524723206
 30
0.0
 11
62.733339448559
 21
0.844524723206
 31
0.0
  0
LINE
  5
176
330
30
100
AcDbEntity
  8
1
100
AcDbLine
 10
62.733339448559
 20
0.844524723206
 30
0.0
 11
62.813339448559
 21
0.844524723206
 31
0.0
  0
LINE
  5
177
330
30
100
AcDbEntity
  8
1
100
AcDbLine
 10
62.813339448559
 20
0.844524723206
 30
0.0
 11
62.893339448559
 21
0.867336989204
 31
0.0
  0
LINE
  5
178
330
30
100
AcDbEntity
  8
1
100
AcDbLine
 10
62.893339448559
 20
0.867336989204
 30
0.0
 11
62.973339448559
 21
0.893262270965
 31
0.0
  0
LINE
  5
179
330
30
100
AcDbEntity
  8
1
100
AcDbLine
 10
62.973339448559
 20
0.893262270965
 30
0.0
 11
63.053339448559
 21
0.919182755324
 31
0.0
  0
LINE
  5
17A
330
30
100
AcDbEntity
  8
1
100
AcDbLine
 10
63.053339448559
 20
0.919182755324
 30
0.0
 11
63.133339448559
 21
0.945098789237
 31
0.0
  0
LINE
  5
17B
330
30
100
AcDbEntity
  8
1
100
AcDbLine
 10
63.133339448559
 20
0.945098789237
 30
0.0
 11
63.213339448559
 21
0.97101068694
 31
0.0
  0
LINE
  5
17C
330
30
100
AcDbEntity
  8
1
100
AcDbLine
 10
63.213339448559
 20
0.97101068694
 30
0.0
 11
63.293339448559
 21
0.996918733721
 31
0.0
  0
LINE
  5
17D
330
30
100
AcDbEntity
  8
1
100
AcDbLine
 10
63.293339448559
 20
0.996918733721
 30
0.0
 11
63.373339448559
 21
1.022823189185
 31
0.0
  0
LINE
  5
17E
330
30
100
AcDbEntity
  8
1
100
AcDbLine
 10
63.373339448559
 20
1.022823189185
 30
0.0
 11
63.453339448559
 21
1.048724290085
 31
0.0
  0
LINE
  5
17F
330
30
100
AcDbEntity
  8
1
100
AcDbLine
 10
63.453339448559
 20
1.048724290085
 30
0.0
 11
63.533339448559
 21
1.074622252781
 31
0.0
  0
LINE
  5
180
330
30
100
AcDbEntity
  8
1
100
AcDbLine
 10
63.533339448559
 20
1.074622252781
 30
0.0
 11
63.613339448559
 21
1.1005172754
 31
0.0
  0
LINE
  5
181
330
30
100
AcDbEntity
  8
1
100
AcDbLine
 10
63.613339448559
 20
1.1005172754
 30
0.0
 11
63.693339448559
 21
1.125
 31
0.0
  0
LINE
  5
182
330
30
100
AcDbEntity
  8
1
100
AcDbLine
 10
63.693339448559
 20
1.125
 30
0.0
 11
63.773339448559
 21
1.125
 31
0.0
  0
LINE
  5
183
330
30
100
AcDbEntity
  8
1
100
AcDbLine
 10
63.773339448559
 20
1.125
 30
0.0
 11
63.853339448559
 21
1.125
 31
0.0
  0
LINE
  5
184
330
30
100
AcDbEntity
  8
1
100
AcDbLine
 10
63.853339448559
 20
1.125
 30
0.0
 11
63.933339448559
 21
1.125
 31
0.0
  0
LINE
  5
185
330
30
100
AcDbEntity
  8
1
100
AcDbLine
 10
63.933339448559
 20
1.125
 30
0.0
 11
64.013339448559
 21
1.125
 31
0.0
  0
LINE
  5
186
330
30
100
AcDbEntity
  8
1
100
AcDbLine
 10
64.013339448559
 20
1.125
 30
0.0
 11
64.093339448559
 21
1.125
 31
0.0
  0
LINE
  5
187
330
30
100
AcDbEntity
  8
1
100
AcDbLine
 10
64.093339448559
 20
1.125
 30
0.0
 11
64.173339448559
 21
1.125
 31
0.0
  0
LINE
  5
188
330
30
100
AcDbEntity
  8
1
100
AcDbLine
 10
64.173339448559
 20
1.125
 30
0.0
 11
64.253339448559
 21
1.125
 31
0.0
  0
LINE
  5
189
330
30
100
AcDbEntity
  8
1
100
AcDbLine
 10
64.253339448559
 20
1.125
 30
0.0
 11
64.333339448559
 21
1.125
 31
0.0
  0
LINE
  5
18A
330
30
100
AcDbEntity
  8
1
100
AcDbLine
 10
64.333339448559
 20
1.125
 30
0.0
 11
64.413339448559
 21
1.125
 31
0.0
  0
LINE
  5
18B
330
30
100
AcDbEntity
  8
1
100
AcDbLine
 10
64.413339448559
 20
1.125
 30
0.0
 11
64.493339448559
 21
1.125
 31
0.0
  0
LINE
  5
18C
330
30
100
AcDbEntity
  8
1
100
AcDbLine
 10
64.493339448559
 20
1.125
 30
0.0
 11
64.573339448559
 21
1.125
 31
0.0
  0
LINE
  5
18D
330
30
100
AcDbEntity
  8
1
100
AcDbLine
 10
64.573339448559
 20
1.125
 30
0.0
 11
64.653339448559
 21
1.125
 31
0.0
  0
LINE
  5
18E
330
30
100
AcDbEntity
  8
1
100
AcDbLine
 10
64.653339448559
 20
1.125
 30
0.0
 11
64.733339448559
 21
1.125
 31
0.0
  0
LINE
  5
18F
330
30
100
AcDbEntity
  8
1
100
AcDbLine
 10
64.733339448559
 20
1.125
 30
0.0
 11
64.813339448559
 21
1.125
 31
0.0
  0
LINE
  5
190
330
30
100
AcDbEntity
  8
1
100
AcDbLine
 10
64.813339448559
 20
1.125
 30
0.0
 11
64.893339448559
 21
1.125
 31
0.0
  0
LINE
  5
191
330
30
100
AcDbEntity
  8
1
100
AcDbLine
 10
64.893339448559
 20
1.125
 30
0.0
 11
64.973339448559
 21
1.125
 31
0.0
  0
LINE
  5
192
330
30
100
AcDbEntity
  8
1
100
AcDbLine
 10
64.973339448559
 20
1.125
 30
0.0
 11
65.053339448559
 21
1.125
 31
0.0
  0
LINE
  5
193
330
30
100
AcDbEntity
  8
1
100
AcDbLine
 10
65.053339448559
 20
1.125
 30
0.0
 11
65.133339448559
 21
1.125
 31
0.0
  0
LINE
  5
194
330
30
100
AcDbEntity
  8
1
100
AcDbLine
 10
65.133339448559
 20
1.125
 30
0.0
 11
65.213339448559
 21
1.125
 31
0.0
  0
LINE
  5
195
330
30
100
AcDbEntity
  8
1
100
AcDbLine
 10
65.213339448559
 20
1.125
 30
0.0
 11
65.293339448559
 21
1.125
 31
0.0
  0
LINE
  5
196
330
30
100
AcDbEntity
  8
1
100
AcDbLine
 10
65.293339448559
 20
1.125
 30
0.0
 11
65.373339448559
 21
1.125
 31
0.0
  0
LINE
  5
197
330
30
100
AcDbEntity
  8
1
100
AcDbLine
 10
65.373339448559
 20
1.125
 30
0.0
 11
65.453339448559
 21
1.125
 31
0.0
  0
LINE
  5
198
330
30
100
AcDbEntity
  8
1
100
AcDbLine
 10
65.453339448559
 20
1.125
 30
0.0
 11
65.533339448559
 21
1.125
 31
0.0
  0
LINE
  5
199
330
30
100
AcDbEntity
  8
1
100
AcDbLine
 10
65.533339448559
 20
1.125
 30
0.0
 11
65.613339448559
 21
1.125
 31
0.0
  0
LINE
  5
19A
330
30
100
AcDbEntity
  8
1
100
AcDbLine
 10
65.613339448559
 20
1.125
 30
0.0
 11
65.693339448559
 21
1.125
 31
0.0
  0
LINE
  5
19B
330
30
100
AcDbEntity
  8
1
100
AcDbLine
 10
65.693339448559
 20
1.125
 30
0.0
 11
65.773339448559
 21
1.125
 31
0.0
  0
LINE
  5
19C
330
30
100
AcDbEntity
  8
1
100
AcDbLine
 10
65.773339448559
 20
1.125
 30
0.0
 11
65.853339448559
 21
1.125
 31
0.0
  0
LINE
  5
19D
330
30
100
AcDbEntity
  8
1
100
AcDbLine
 10
65.853339448559
 20
1.125
 30
0.0
 11
65.933339448559
 21
1.125
 31
0.0
  0
LINE
  5
19E
330
30
100
AcDbEntity
  8
1
100
AcDbLine
 10
65.933339448559
 20
1.125
 30
0.0
 11
66.013339448559
 21
1.125
 31
0.0
  0
LINE
  5
19F
330
30
100
AcDbEntity
  8
1
100
AcDbLine
 10
66.013339448559
 20
1.125
 30
0.0
 11
66.093339448559
 21
1.125
 31
0.0
  0
LINE
  5
1A0
330
30
100
AcDbEntity
  8
1
100
AcDbLine
 10
66.093339448559
 20
1.125
 30
0.0
 11
66.173339448559
 21
1.125
 31
0.0
  0
LINE
  5
1A1
330
30
100
AcDbEntity
  8
1
100
AcDbLine
 10
66.173339448559
 20
1.125
 30
0.0
 11
66.253339448559
 21
1.125
 31
0.0
  0
LINE
  5
1A2
330
30
100
AcDbEntity
  8
1
100
AcDbLine
 10
66.253339448559
 20
1.125
 30
0.0
 11
66.333339448559
 21
1.125
 31
0.0
  0
LINE
  5
1A3
330
30
100
AcDbEntity
  8
1
100
AcDbLine
 10
66.333339448559
 20
1.125
 30
0.0
 11
66.413339448559
 21
1.125
 31
0.0
  0
LINE
  5
1A4
330
30
100
AcDbEntity
  8
1
100
AcDbLine
 10
66.413339448559
 20
1.125
 30
0.0
 11
66.493339448559
 21
1.125
 31
0.0
  0
LINE
  5
1A5
330
30
100
AcDbEntity
  8
1
100
AcDbLine
 10
66.493339448559
 20
1.125
 30
0.0
 11
66.573339448559
 21
1.125
 31
0.0
  0
LINE
  5
1A6
330
30
100
AcDbEntity
  8
1
100
AcDbLine
 10
66.573339448559
 20
1.125
 30
0.0
 11
66.653339448559
 21
1.125
 31
0.0
  0
LINE
  5
1A7
330
30
100
AcDbEntity
  8
1
100
AcDbLine
 10
66.653339448559
 20
1.125
 30
0.0
 11
66.733339448559
 21
1.125
 31
0.0
  0
LINE
  5
1A8
330
30
100
AcDbEntity
  8
1
100
AcDbLine
 10
66.733339448559
 20
1.125
 30
0.0
 11
66.813339448559
 21
1.125
 31
0.0
  0
LINE
  5
1A9
330
30
100
AcDbEntity
  8
1
100
AcDbLine
 10
66.813339448559
 20
1.125
 30
0.0
 11
66.893339448559
 21
1.125
 31
0.0
  0
LINE
  5
1AA
330
30
100
AcDbEntity
  8
1
100
AcDbLine
 10
66.893339448559
 20
1.125
 30
0.0
 11
66.973339448559
 21
1.125
 31
0.0
  0
LINE
  5
1AB
330
30
100
AcDbEntity
  8
1
100
AcDbLine
 10
66.973339448559
 20
1.125
 30
0.0
 11
67.053339448559
 21
1.125
 31
0.0
  0
LINE
  5
1AC
330
30
100
AcDbEntity
  8
1
100
AcDbLine
 10
67.053339448559
 20
1.125
 30
0.0
 11
67.133339448559
 21
1.125
 31
0.0
  0
LINE
  5
1AD
330
30
100
AcDbEntity
  8
1
100
AcDbLine
 10
67.133339448559
 20
1.125
 30
0.0
 11
67.213339448559
 21
1.125
 31
0.0
  0
LINE
  5
1AE
330
30
100
AcDbEntity
  8
1
100
AcDbLine
 10
67.213339448559
 20
1.125
 30
0.0
 11
67.293339448559
 21
1.125
 31
0.0
  0
LINE
  5
1AF
330
30
100
AcDbEntity
  8
1
100
AcDbLine
 10
67.293339448559
 20
1.125
 30
0.0
 11
67.373339448559
 21
1.125
 31
0.0
  0
LINE
  5
1B0
330
30
100
AcDbEntity
  8
1
100
AcDbLine
 10
67.373339448559
 20
1.125
 30
0.0
 11
67.453339448559
 21
1.125
 31
0.0
  0
LINE
  5
1B1
330
30
100
AcDbEntity
  8
1
100
AcDbLine
 10
67.453339448559
 20
1.125
 30
0.0
 11
67.533339448559
 21
1.125
 31
0.0
  0
LINE
  5
1B2
330
30
100
AcDbEntity
  8
1
100
AcDbLine
 10
67.533339448559
 20
1.125
 30
0.0
 11
67.613339448559
 21
1.125
 31
0.0
  0
LINE
  5
1B3
330
30
100
AcDbEntity
  8
1
100
AcDbLine
 10
67.613339448559
 20
1.125
 30
0.0
 11
67.693339448559
 21
1.125
 31
0.0
  0
LINE
  5
1B4
330
30
100
AcDbEntity
  8
1
100
AcDbLine
 10
67.693339448559
 20
1.125
 30
0.0
 11
67.773339448559
 21
1.125
 31
0.0
  0
LINE
  5
1B5
330
30
100
AcDbEntity
  8
1
100
AcDbLine
 10
67.773339448559
 20
1.125
 30
0.0
 11
67.853339448559
 21
1.125
 31
0.0
  0
LINE
  5
1B6
330
30
100
AcDbEntity
  8
1
100
AcDbLine
 10
67.853339448559
 20
1.125
 30
0.0
 11
67.933339448559
 21
1.125
 31
0.0
  0
LINE
  5
1B7
330
30
100
AcDbEntity
  8
1
100
AcDbLine
 10
67.933339448559
 20
1.125
 30
0.0
 11
68.013339448559
 21
1.125
 31
0.0
  0
LINE
  5
1B8
330
30
100
AcDbEntity
  8
1
100
AcDbLine
 10
68.013339448559
 20
1.125
 30
0.0
 11
68.093339448559
 21
1.125
 31
0.0
  0
LINE
  5
1B9
330
30
100
AcDbEntity
  8
1
100
AcDbLine
 10
68.093339448559
 20
1.125
 30
0.0
 11
68.173339448559
 21
1.125
 31
0.0
  0
LINE
  5
1BA
330
30
100
AcDbEntity
  8
1
100
AcDbLine
 10
68.173339448559
 20
1.125
 30
0.0
 11
68.253339448559
 21
1.125
 31
0.0
  0
LINE
  5
1BB
330
30
100
AcDbEntity
  8
1
100
AcDbLine
 10
68.253339448559
 20
1.125
 30
0.0
 11
68.333339448559
 21
1.125
 31
0.0
  0
LINE
  5
1BC
330
30
100
AcDbEntity
  8
1
100
AcDbLine
 10
68.333339448559
 20
1.125
 30
0.0
 11
68.413339448559
 21
1.125
 31
0.0
  0
LINE
  5
1BD
330
30
100
AcDbEntity
  8
1
100
AcDbLine
 10
68.413339448559
 20
1.125
 30
0.0
 11
68.493339448559
 21
1.125
 31
0.0
  0
LINE
  5
1BE
330
30
100
AcDbEntity
  8
1
100
AcDbLine
 10
68.493339448559
 20
1.125
 30
0.0
 11
68.573339448559
 21
1.125
 31
0.0
  0
LINE
  5
1BF
330
30
100
AcDbEntity
  8
1
100
AcDbLine
 10
68.573339448559
 20
1.125
 30
0.0
 11
68.653339448559
 21
1.125
 31
0.0
  0
LINE
  5
1C0
330
30
100
AcDbEntity
  8
1
100
AcDbLine
 10
68.653339448559
 20
1.125
 30
0.0
 11
68.733339448559
 21
1.125
 31
0.0
  0
LINE
  5
1C1
330
30
100
AcDbEntity
  8
1
100
AcDbLine
 10
68.733339448559
 20
1.125
 30
0.0
 11
68.813339448559
 21
1.125
 31
0.0
  0
LINE
  5
1C2
330
30
100
AcDbEntity
  8
1
100
AcDbLine
 10
68.813339448559
 20
1.125
 30
0.0
 11
68.893339448559
 21
1.125
 31
0.0
  0
LINE
  5
1C3
330
30
100
AcDbEntity
  8
1
100
AcDbLine
 10
68.893339448559
 20
1.125
 30
0.0
 11
68.973339448559
 21
1.125
 31
0.0
  0
LINE
  5
1C4
330
30
100
AcDbEntity
  8
1
100
AcDbLine
 10
68.973339448559
 20
1.125
 30
0.0
 11
69.053339448559
 21
1.125
 31
0.0
  0
LINE
  5
1C5
330
30
100
AcDbEntity
  8
1
100
AcDbLine
 10
69.053339448559
 20
1.125
 30
0.0
 11
69.133339448559
 21
1.125
 31
0.0
  0
LINE
  5
1C6
330
30
100
AcDbEntity
  8
1
100
AcDbLine
 10
69.133339448559
 20
1.125
 30
0.0
 11
69.213339448559
 21
1.125
 31
0.0
  0
LINE
  5
1C7
330
30
100
AcDbEntity
  8
1
100
AcDbLine
 10
69.213339448559
 20
1.125
 30
0.0
 11
69.293339448559
 21
1.125
 31
0.0
  0
LINE
  5
1C8
330
30
100
AcDbEntity
  8
1
100
AcDbLine
 10
69.293339448559
 20
1.125
 30
0.0
 11
69.373339448559
 21
1.125
 31
0.0
  0
LINE
  5
1C9
330
30
100
AcDbEntity
  8
1
100
AcDbLine
 10
69.373339448559
 20
1.125
 30
0.0
 11
69.453339448559
 21
1.125
 31
0.0
  0
LINE
  5
1CA
330
30
100
AcDbEntity
  8
1
100
AcDbLine
 10
69.453339448559
 20
1.125
 30
0.0
 11
69.533339448559
 21
1.125
 31
0.0
  0
LINE
  5
1CB
330
30
100
AcDbEntity
  8
1
100
AcDbLine
 10
69.533339448559
 20
1.125
 30
0.0
 11
69.613339448559
 21
1.125
 31
0.0
  0
LINE
  5
1CC
330
30
100
AcDbEntity
  8
1
100
AcDbLine
 10
69.613339448559
 20
1.125
 30
0.0
 11
69.693339448559
 21
1.124633789581
 31
0.0
  0
LINE
  5
1CD
330
30
100
AcDbEntity
  8
1
100
AcDbLine
 10
69.693339448559
 20
1.124633789581
 30
0.0
 11
69.773339448559
 21
1.117906991018
 31
0.0
  0
LINE
  5
1CE
330
30
100
AcDbEntity
  8
1
100
AcDbLine
 10
69.773339448559
 20
1.117906991018
 30
0.0
 11
69.853339448559
 21
1.111180014018
 31
0.0
  0
LINE
  5
1CF
330
30
100
AcDbEntity
  8
1
100
AcDbLine
 10
69.853339448559
 20
1.111180014018
 30
0.0
 11
69.933339448559
 21
1.104452855665
 31
0.0
  0
LINE
  5
1D0
330
30
100
AcDbEntity
  8
1
100
AcDbLine
 10
69.933339448559
 20
1.104452855665
 30
0.0
 11
70.013339448559
 21
1.097725512977
 31
0.0
  0
LINE
  5
1D1
330
30
100
AcDbEntity
  8
1
100
AcDbLine
 10
70.013339448559
 20
1.097725512977
 30
0.0
 11
70.093339448559
 21
1.090997982907
 31
0.0
  0
LINE
  5
1D2
330
30
100
AcDbEntity
  8
1
100
AcDbLine
 10
70.093339448559
 20
1.090997982907
 30
0.0
 11
70.173339448559
 21
1.084270262343
 31
0.0
  0
LINE
  5
1D3
330
30
100
AcDbEntity
  8
1
100
AcDbLine
 10
70.173339448559
 20
1.084270262343
 30
0.0
 11
70.253339448559
 21
1.077542348099
 31
0.0
  0
LINE
  5
1D4
330
30
100
AcDbEntity
  8
1
100
AcDbLine
 10
70.253339448559
 20
1.077542348099
 30
0.0
 11
70.333339448559
 21
1.070814236921
 31
0.0
  0
LINE
  5
1D5
330
30
100
AcDbEntity
  8
1
100
AcDbLine
 10
70.333339448559
 20
1.070814236921
 30
0.0
 11
70.413339448559
 21
1.064085925481
 31
0.0
  0
LINE
  5
1D6
330
30
100
AcDbEntity
  8
1
100
AcDbLine
 10
70.413339448559
 20
1.064085925481
 30
0.0
 11
70.493339448559
 21
1.057357410373
 31
0.0
  0
LINE
  5
1D7
330
30
100
AcDbEntity
  8
1
100
AcDbLine
 10
70.493339448559
 20
1.057357410373
 30
0.0
 11
70.573339448559
 21
1.050628688117
 31
0.0
  0
LINE
  5
1D8
330
30
100
AcDbEntity
  8
1
100
AcDbLine
 10
70.573339448559
 20
1.050628688117
 30
0.0
 11
70.653339448559
 21
1.043899755151
 31
0.0
  0
LINE
  5
1D9
330
30
100
AcDbEntity
  8
1
100
AcDbLine
 10
70.653339448559
 20
1.043899755151
 30
0.0
 11
70.733339448559
 21
1.037170607831
 31
0.0
  0
LINE
  5
1DA
330
30
100
AcDbEntity
  8
1
100
AcDbLine
 10
70.733339448559
 20
1.037170607831
 30
0.0
 11
70.813339448559
 21
1.030441242427
 31
0.0
  0
LINE
  5
1DB
330
30
100
AcDbEntity
  8
1
100
AcDbLine
 10
70.813339448559
 20
1.030441242427
 30
0.0
 11
70.893339448559
 21
1.023711655125
 31
0.0
  0
LINE
  5
1DC
330
30
100
AcDbEntity
  8
1
100
AcDbLine
 10
70.893339448559
 20
1.023711655125
 30
0.0
 11
70.973339448559
 21
1.016981842019
 31
0.0
  0
LINE
  5
1DD
330
30
100
AcDbEntity
  8
1
100
AcDbLine
 10
70.973339448559
 20
1.016981842019
 30
0.0
 11
71.053339448559
 21
1.010251799112
 31
0.0
  0
LINE
  5
1DE
330
30
100
AcDbEntity
  8
1
100
AcDbLine
 10
71.053339448559
 20
1.010251799112
 30
0.0
 11
71.133339448559
 21
1.003521522309
 31
0.0
  0
LINE
  5
1DF
330
30
100
AcDbEntity
  8
1
100
AcDbLine
 10
71.133339448559
 20
1.003521522309
 30
0.0
 11
71.213339448559
 21
0.996791007422
 31
0.0
  0
LINE
  5
1E0
330
30
100
AcDbEntity
  8
1
100
AcDbLine
 10
71.213339448559
 20
0.996791007422
 30
0.0
 11
71.293339448559
 21
0.990060250158
 31
0.0
  0
LINE
  5
1E1
330
30
100
AcDbEntity
  8
1
100
AcDbLine
 10
71.293339448559
 20
0.990060250158
 30
0.0
 11
71.373339448559
 21
0.983329246122
 31
0.0
  0
LINE
  5
1E2
330
30
100
AcDbEntity
  8
1
100
AcDbLine
 10
71.373339448559
 20
0.983329246122
 30
0.0
 11
71.453339448559
 21
0.976597990812
 31
0.0
  0
LINE
  5
1E3
330
30
100
AcDbEntity
  8
1
100
AcDbLine
 10
71.453339448559
 20
0.976597990812
 30
0.0
 11
71.533339448559
 21
0.969866479614
 31
0.0
  0
LINE
  5
1E4
330
30
100
AcDbEntity
  8
1
100
AcDbLine
 10
71.533339448559
 20
0.969866479614
 30
0.0
 11
71.613339448559
 21
0.963134707801
 31
0.0
  0
LINE
  5
1E5
330
30
100
AcDbEntity
  8
1
100
AcDbLine
 10
71.613339448559
 20
0.963134707801
 30
0.0
 11
71.693339448559
 21
0.95640267053
 31
0.0
  0
LINE
  5
1E6
330
30
100
AcDbEntity
  8
1
100
AcDbLine
 10
71.693339448559
 20
0.95640267053
 30
0.0
 11
71.773339448559
 21
0.949670362835
 31
0.0
  0
LINE
  5
1E7
330
30
100
AcDbEntity
  8
1
100
AcDbLine
 10
71.773339448559
 20
0.949670362835
 30
0.0
 11
71.853339448559
 21
0.942937779627
 31
0.0
  0
LINE
  5
1E8
330
30
100
AcDbEntity
  8
1
100
AcDbLine
 10
71.853339448559
 20
0.942937779627
 30
0.0
 11
71.933339448559
 21
0.936204915686
 31
0.0
  0
LINE
  5
1E9
330
30
100
AcDbEntity
  8
1
100
AcDbLine
 10
71.933339448559
 20
0.936204915686
 30
0.0
 11
72.013339448559
 21
0.929471765663
 31
0.0
  0
LINE
  5
1EA
330
30
100
AcDbEntity
  8
1
100
AcDbLine
 10
72.013339448559
 20
0.929471765663
 30
0.0
 11
72.093339448559
 21
0.922738324067
 31
0.0
  0
LINE
  5
1EB
330
30
100
AcDbEntity
  8
1
100
AcDbLine
 10
72.093339448559
 20
0.922738324067
 30
0.0
 11
72.173339448559
 21
0.916004585269
 31
0.0
  0
LINE
  5
1EC
330
30
100
AcDbEntity
  8
1
100
AcDbLine
 10
72.173339448559
 20
0.916004585269
 30
0.0
 11
72.253339448559
 21
0.909270543492
 31
0.0
  0
LINE
  5
1ED
330
30
100
AcDbEntity
  8
1
100
AcDbLine
 10
72.253339448559
 20
0.909270543492
 30
0.0
 11
72.333339448559
 21
0.902536192809
 31
0.0
  0
LINE
  5
1EE
330
30
100
AcDbEntity
  8
1
100
AcDbLine
 10
72.333339448559
 20
0.902536192809
 30
0.0
 11
72.413339448559
 21
0.895801527137
 31
0.0
  0
LINE
  5
1EF
330
30
100
AcDbEntity
  8
1
100
AcDbLine
 10
72.413339448559
 20
0.895801527137
 30
0.0
 11
72.493339448559
 21
0.889066540232
 31
0.0
  0
LINE
  5
1F0
330
30
100
AcDbEntity
  8
1
100
AcDbLine
 10
72.493339448559
 20
0.889066540232
 30
0.0
 11
72.573339448559
 21
0.882331225683
 31
0.0
  0
LINE
  5
1F1
330
30
100
AcDbEntity
  8
1
100
AcDbLine
 10
72.573339448559
 20
0.882331225683
 30
0.0
 11
72.653339448559
 21
0.875595576907
 31
0.0
  0
LINE
  5
1F2
330
30
100
AcDbEntity
  8
1
100
AcDbLine
 10
72.653339448559
 20
0.875595576907
 30
0.0
 11
72.733339448559
 21
0.849777506299
 31
0.0
  0
LINE
  5
1F3
330
30
100
AcDbEntity
  8
1
100
AcDbLine
 10
72.733339448559
 20
0.849777506299
 30
0.0
 11
72.813339448559
 21
0.808613757296
 31
0.0
  0
LINE
  5
1F4
330
30
100
AcDbEntity
  8
1
100
AcDbLine
 10
72.813339448559
 20
0.808613757296
 30
0.0
 11
72.893339448559
 21
0.767434330769
 31
0.0
  0
LINE
  5
1F5
330
30
100
AcDbEntity
  8
1
100
AcDbLine
 10
72.893339448559
 20
0.767434330769
 30
0.0
 11
72.973339448559
 21
0.726236965076
 31
0.0
  0
LINE
  5
1F6
330
30
100
AcDbEntity
  8
1
100
AcDbLine
 10
72.973339448559
 20
0.726236965076
 30
0.0
 11
73.053339448559
 21
0.685018940266
 31
0.0
  0
LINE
  5
1F7
330
30
100
AcDbEntity
  8
1
100
AcDbLine
 10
73.053339448559
 20
0.685018940266
 30
0.0
 11
73.133339448559
 21
0.643776955407
 31
0.0
  0
LINE
  5
1F8
330
30
100
AcDbEntity
  8
1
100
AcDbLine
 10
73.133339448559
 20
0.643776955407
 30
0.0
 11
73.213339448559
 21
0.602506964136
 31
0.0
  0
LINE
  5
1F9
330
30
100
AcDbEntity
  8
1
100
AcDbLine
 10
73.213339448559
 20
0.602506964136
 30
0.0
 11
73.293339448559
 21
0.561203950764
 31
0.0
  0
LINE
  5
1FA
330
30
100
AcDbEntity
  8
1
100
AcDbLine
 10
73.293339448559
 20
0.561203950764
 30
0.0
 11
73.373339448559
 21
0.519861620157
 31
0.0
  0
LINE
  5
1FB
330
30
100
AcDbEntity
  8
1
100
AcDbLine
 10
73.373339448559
 20
0.519861620157
 30
0.0
 11
73.453339448559
 21
0.478471959766
 31
0.0
  0
LINE
  5
1FC
330
30
100
AcDbEntity
  8
1
100
AcDbLine
 10
73.453339448559
 20
0.478471959766
 30
0.0
 11
73.533339448559
 21
0.437024607425
 31
0.0
  0
LINE
  5
1FD
330
30
100
AcDbEntity
  8
1
100
AcDbLine
 10
73.533339448559
 20
0.437024607425
 30
0.0
 11
73.613339448559
 21
0.395505915682
 31
0.0
  0
LINE
  5
1FE
330
30
100
AcDbEntity
  8
1
100
AcDbLine
 10
73.613339448559
 20
0.395505915682
 30
0.0
 11
73.693339448559
 21
0.35389752652
 31
0.0
  0
LINE
  5
1FF
330
30
100
AcDbEntity
  8
1
100
AcDbLine
 10
73.693339448559
 20
0.35389752652
 30
0.0
 11
73.773339448559
 21
0.312174126023
 31
0.0
  0
LINE
  5
200
330
30
100
AcDbEntity
  8
1
100
AcDbLine
 10
73.773339448559
 20
0.312174126023
 30
0.0
 11
73.853339448559
 21
0.270299763477
 31
0.0
  0
LINE
  5
201
330
30
100
AcDbEntity
  8
1
100
AcDbLine
 10
73.853339448559
 20
0.270299763477
 30
0.0
 11
73.933339448559
 21
0.228221520195
 31
0.0
  0
LINE
  5
202
330
30
100
AcDbEntity
  8
1
100
AcDbLine
 10
73.933339448559
 20
0.228221520195
 30
0.0
 11
74.013339448559
 21
0.18585795511
 31
0.0
  0
LINE
  5
203
330
30
100
AcDbEntity
  8
1
100
AcDbLine
 10
74.013339448559
 20
0.18585795511
 30
0.0
 11
74.093339448559
 21
0.13103426342
 31
0.0
  0
LINE
  5
204
330
30
100
AcDbEntity
  8
1
100
AcDbLine
 10
74.093339448559
 20
0.13103426342
 30
0.0
 11
74.093339448559
 21
-0.139030902815
 31
0.0
  0
LINE
  5
205
330
30
100
AcDbEntity
  8
1
100
AcDbLine
 10
74.093339448559
 20
-0.139030902815
 30
0.0
 11
74.013339448559
 21
-0.194669729979
 31
0.0
  0
LINE
  5
206
330
30
100
AcDbEntity
  8
1
100
AcDbLine
 10
74.013339448559
 20
-0.194669729979
 30
0.0
 11
73.933339448559
 21
-0.236486454016
 31
0.0
  0
LINE
  5
207
330
30
100
AcDbEntity
  8
1
100
AcDbLine
 10
73.933339448559
 20
-0.236486454016
 30
0.0
 11
73.853339448559
 21
-0.2780651295
 31
0.0
  0
LINE
  5
208
330
30
100
AcDbEntity
  8
1
100
AcDbLine
 10
73.853339448559
 20
-0.2780651295
 30
0.0
 11
73.773339448559
 21
-0.319473239691
 31
0.0
  0
LINE
  5
209
330
30
100
AcDbEntity
  8
1
100
AcDbLine
 10
73.773339448559
 20
-0.319473239691
 30
0.0
 11
73.693339448559
 21
-0.360754807584
 31
0.0
  0
LINE
  5
20A
330
30
100
AcDbEntity
  8
1
100
AcDbLine
 10
73.693339448559
 20
-0.360754807584
 30
0.0
 11
73.613339448559
 21
-0.401939826993
 31
0.0
  0
LINE
  5
20B
330
30
100
AcDbEntity
  8
1
100
AcDbLine
 10
73.613339448559
 20
-0.401939826993
 30
0.0
 11
73.533339448559
 21
-0.443049463425
 31
0.0
  0
LINE
  5
20C
330
30
100
AcDbEntity
  8
1
100
AcDbLine
 10
73.533339448559
 20
-0.443049463425
 30
0.0
 11
73.453339448559
 21
-0.484099092282
 31
0.0
  0
LINE
  5
20D
330
30
100
AcDbEntity
  8
1
100
AcDbLine
 10
73.453339448559
 20
-0.484099092282
 30
0.0
 11
73.373339448559
 21
-0.52510015894
 31
0.0
  0
LINE
  5
20E
330
30
100
AcDbEntity
  8
1
100
AcDbLine
 10
73.373339448559
 20
-0.52510015894
 30
0.0
 11
73.293339448559
 21
-0.566061362901
 31
0.0
  0
LINE
  5
20F
330
30
100
AcDbEntity
  8
1
100
AcDbLine
 10
73.293339448559
 20
-0.566061362901
 30
0.0
 11
73.213339448559
 21
-0.606989436946
 31
0.0
  0
LINE
  5
210
330
30
100
AcDbEntity
  8
1
100
AcDbLine
 10
73.213339448559
 20
-0.606989436946
 30
0.0
 11
73.133339448559
 21
-0.647889674585
 31
0.0
  0
LINE
  5
211
330
30
100
AcDbEntity
  8
1
100
AcDbLine
 10
73.133339448559
 20
-0.647889674585
 30
0.0
 11
73.053339448559
 21
-0.688766296015
 31
0.0
  0
LINE
  5
212
330
30
100
AcDbEntity
  8
1
100
AcDbLine
 10
73.053339448559
 20
-0.688766296015
 30
0.0
 11
72.973339448559
 21
-0.729622707594
 31
0.0
  0
LINE
  5
213
330
30
100
AcDbEntity
  8
1
100
AcDbLine
 10
72.973339448559
 20
-0.729622707594
 30
0.0
 11
72.893339448559
 21
-0.770461689371
 31
0.0
  0
LINE
  5
214
330
30
100
AcDbEntity
  8
1
100
AcDbLine
 10
72.893339448559
 20
-0.770461689371
 30
0.0
 11
72.813339448559
 21
-0.811285532957
 31
0.0
  0
LINE
  5
215
330
30
100
AcDbEntity
  8
1
100
AcDbLine
 10
72.813339448559
 20
-0.811285532957
 30
0.0
 11
72.733339448559
 21
-0.852096144453
 31
0.0
  0
LINE
  5
216
330
30
100
AcDbEntity
  8
1
100
AcDbLine
 10
72.733339448559
 20
-0.852096144453
 30
0.0
 11
72.653339448559
 21
-0.877693777765
 31
0.0
  0
LINE
  5
217
330
30
100
AcDbEntity
  8
1
100
AcDbLine
 10
72.653339448559
 20
-0.877693777765
 30
0.0
 11
72.573339448559
 21
-0.884372040575
 31
0.0
  0
LINE
  5
218
330
30
100
AcDbEntity
  8
1
100
AcDbLine
 10
72.573339448559
 20
-0.884372040575
 30
0.0
 11
72.493339448559
 21
-0.891050021214
 31
0.0
  0
LINE
  5
219
330
30
100
AcDbEntity
  8
1
100
AcDbLine
 10
72.493339448559
 20
-0.891050021214
 30
0.0
 11
72.413339448559
 21
-0.897727725234
 31
0.0
  0
LINE
  5
21A
330
30
100
AcDbEntity
  8
1
100
AcDbLine
 10
72.413339448559
 20
-0.897727725234
 30
0.0
 11
72.333339448559
 21
-0.904405158041
 31
0.0
  0
LINE
  5
21B
330
30
100
AcDbEntity
  8
1
100
AcDbLine
 10
72.333339448559
 20
-0.904405158041
 30
0.0
 11
72.253339448559
 21
-0.911082324901
 31
0.0
  0
LINE
  5
21C
330
30
100
AcDbEntity
  8
1
100
AcDbLine
 10
72.253339448559
 20
-0.911082324901
 30
0.0
 11
72.173339448559
 21
-0.917759230945
 31
0.0
  0
LINE
  5
21D
330
30
100
AcDbEntity
  8
1
100
AcDbLine
 10
72.173339448559
 20
-0.917759230945
 30
0.0
 11
72.093339448559
 21
-0.924435881173
 31
0.0
  0
LINE
  5
21E
330
30
100
AcDbEntity
  8
1
100
AcDbLine
 10
72.093339448559
 20
-0.924435881173
 30
0.0
 11
72.013339448559
 21
-0.931112280456
 31
0.0
  0
LINE
  5
21F
330
30
100
AcDbEntity
  8
1
100
AcDbLine
 10
72.013339448559
 20
-0.931112280456
 30
0.0
 11
71.933339448559
 21
-0.937788433544
 31
0.0
  0
LINE
  5
220
330
30
100
AcDbEntity
  8
1
100
AcDbLine
 10
71.933339448559
 20
-0.937788433544
 30
0.0
 11
71.853339448559
 21
-0.944464345066
 31
0.0
  0
LINE
  5
221
330
30
100
AcDbEntity
  8
1
100
AcDbLine
 10
71.853339448559
 20
-0.944464345066
 30
0.0
 11
71.773339448559
 21
-0.951140019536
 31
0.0
  0
LINE
  5
222
330
30
100
AcDbEntity
  8
1
100
AcDbLine
 10
71.773339448559
 20
-0.951140019536
 30
0.0
 11
71.693339448559
 21
-0.957815461358
 31
0.0
  0
LINE
  5
223
330
30
100
AcDbEntity
  8
1
100
AcDbLine
 10
71.693339448559
 20
-0.957815461358
 30
0.0
 11
71.613339448559
 21
-0.964490674825
 31
0.0
  0
LINE
  5
224
330
30
100
AcDbEntity
  8
1
100
AcDbLine
 10
71.613339448559
 20
-0.964490674825
 30
0.0
 11
71.533339448559
 21
-0.971165664125
 31
0.0
  0
LINE
  5
225
330
30
100
AcDbEntity
  8
1
100
AcDbLine
 10
71.533339448559
 20
-0.971165664125
 30
0.0
 11
71.453339448559
 21
-0.977840433346
 31
0.0
  0
LINE
  5
226
330
30
100
AcDbEntity
  8
1
100
AcDbLine
 10
71.453339448559
 20
-0.977840433346
 30
0.0
 11
71.373339448559
 21
-0.984514986475
 31
0.0
  0
LINE
  5
227
330
30
100
AcDbEntity
  8
1
100
AcDbLine
 10
71.373339448559
 20
-0.984514986475
 30
0.0
 11
71.293339448559
 21
-0.991189327404
 31
0.0
  0
LINE
  5
228
330
30
100
AcDbEntity
  8
1
100
AcDbLine
 10
71.293339448559
 20
-0.991189327404
 30
0.0
 11
71.213339448559
 21
-0.997863459933
 31
0.0
  0
LINE
  5
229
330
30
100
AcDbEntity
  8
1
100
AcDbLine
 10
71.213339448559
 20
-0.997863459933
 30
0.0
 11
71.133339448559
 21
-1.004537387769
 31
0.0
  0
LINE
  5
22A
330
30
100
AcDbEntity
  8
1
100
AcDbLine
 10
71.133339448559
 20
-1.004537387769
 30
0.0
 11
71.053339448559
 21
-1.011211114534
 31
0.0
  0
LINE
  5
22B
330
30
100
AcDbEntity
  8
1
100
AcDbLine
 10
71.053339448559
 20
-1.011211114534
 30
0.0
 11
70.973339448559
 21
-1.017884643765
 31
0.0
  0
LINE
  5
22C
330
30
100
AcDbEntity
  8
1
100
AcDbLine
 10
70.973339448559
 20
-1.017884643765
 30
0.0
 11
70.893339448559
 21
-1.024557978914
 31
0.0
  0
LINE
  5
22D
330
30
100
AcDbEntity
  8
1
100
AcDbLine
 10
70.893339448559
 20
-1.024557978914
 30
0.0
 11
70.813339448559
 21
-1.031231123355
 31
0.0
  0
LINE
  5
22E
330
30
100
AcDbEntity
  8
1
100
AcDbLine
 10
70.813339448559
 20
-1.031231123355
 30
0.0
 11
70.733339448559
 21
-1.037904080384
 31
0.0
  0
LINE
  5
22F
330
30
100
AcDbEntity
  8
1
100
AcDbLine
 10
70.733339448559
 20
-1.037904080384
 30
0.0
 11
70.653339448559
 21
-1.044576853221
 31
0.0
  0
LINE
  5
230
330
30
100
AcDbEntity
  8
1
100
AcDbLine
 10
70.653339448559
 20
-1.044576853221
 30
0.0
 11
70.573339448559
 21
-1.051249445012
 31
0.0
  0
LINE
  5
231
330
30
100
AcDbEntity
  8
1
100
AcDbLine
 10
70.573339448559
 20
-1.051249445012
 30
0.0
 11
70.493339448559
 21
-1.057921858832
 31
0.0
  0
LINE
  5
232
330
30
100
AcDbEntity
  8
1
100
AcDbLine
 10
70.493339448559
 20
-1.057921858832
 30
0.0
 11
70.413339448559
 21
-1.064594097688
 31
0.0
  0
LINE
  5
233
330
30
100
AcDbEntity
  8
1
100
AcDbLine
 10
70.413339448559
 20
-1.064594097688
 30
0.0
 11
70.333339448559
 21
-1.071266164518
 31
0.0
  0
LINE
  5
234
330
30
100
AcDbEntity
  8
1
100
AcDbLine
 10
70.333339448559
 20
-1.071266164518
 30
0.0
 11
70.253339448559
 21
-1.077938062194
 31
0.0
  0
LINE
  5
235
330
30
100
AcDbEntity
  8
1
100
AcDbLine
 10
70.253339448559
 20
-1.077938062194
 30
0.0
 11
70.173339448559
 21
-1.084609793527
 31
0.0
  0
LINE
  5
236
330
30
100
AcDbEntity
  8
1
100
AcDbLine
 10
70.173339448559
 20
-1.084609793527
 30
0.0
 11
70.093339448559
 21
-1.091281361263
 31
0.0
  0
LINE
  5
237
330
30
100
AcDbEntity
  8
1
100
AcDbLine
 10
70.093339448559
 20
-1.091281361263
 30
0.0
 11
70.013339448559
 21
-1.097952768091
 31
0.0
  0
LINE
  5
238
330
30
100
AcDbEntity
  8
1
100
AcDbLine
 10
70.013339448559
 20
-1.097952768091
 30
0.0
 11
69.933339448559
 21
-1.104624016637
 31
0.0
  0
LINE
  5
239
330
30
100
AcDbEntity
  8
1
100
AcDbLine
 10
69.933339448559
 20
-1.104624016637
 30
0.0
 11
69.853339448559
 21
-1.111295109474
 31
0.0
  0
LINE
  5
23A
330
30
100
AcDbEntity
  8
1
100
AcDbLine
 10
69.853339448559
 20
-1.111295109474
 30
0.0
 11
69.773339448559
 21
-1.117966049118
 31
0.0
  0
LINE
  5
23B
330
30
100
AcDbEntity
  8
1
100
AcDbLine
 10
69.773339448559
 20
-1.117966049118
 30
0.0
 11
69.693339448559
 21
-1.124636838031
 31
0.0
  0
LINE
  5
23C
330
30
100
AcDbEntity
  8
1
100
AcDbLine
 10
69.693339448559
 20
-1.124636838031
 30
0.0
 11
69.613339448559
 21
-1.125
 31
0.0
  0
LINE
  5
23D
330
30
100
AcDbEntity
  8
1
100
AcDbLine
 10
69.613339448559
 20
-1.125
 30
0.0
 11
69.533339448559
 21
-1.125
 31
0.0
  0
LINE
  5
23E
330
30
100
AcDbEntity
  8
1
100
AcDbLine
 10
69.533339448559
 20
-1.125
 30
0.0
 11
69.453339448559
 21
-1.125
 31
0.0
  0
LINE
  5
23F
330
30
100
AcDbEntity
  8
1
100
AcDbLine
 10
69.453339448559
 20
-1.125
 30
0.0
 11
69.373339448559
 21
-1.125
 31
0.0
  0
LINE
  5
240
330
30
100
AcDbEntity
  8
1
100
AcDbLine
 10
69.373339448559
 20
-1.125
 30
0.0
 11
69.293339448559
 21
-1.125
 31
0.0
  0
LINE
  5
241
330
30
100
AcDbEntity
  8
1
100
AcDbLine
 10
69.293339448559
 20
-1.125
 30
0.0
 11
69.213339448559
 21
-1.125
 31
0.0
  0
LINE
  5
242
330
30
100
AcDbEntity
  8
1
100
AcDbLine
 10
69.213339448559
 20
-1.125
 30
0.0
 11
69.133339448559
 21
-1.125
 31
0.0
  0
LINE
  5
243
330
30
100
AcDbEntity
  8
1
100
AcDbLine
 10
69.133339448559
 20
-1.125
 30
0.0
 11
69.053339448559
 21
-1.125
 31
0.0
  0
LINE
  5
244
330
30
100
AcDbEntity
  8
1
100
AcDbLine
 10
69.053339448559
 20
-1.125
 30
0.0
 11
68.973339448559
 21
-1.125
 31
0.0
  0
LINE
  5
245
330
30
100
AcDbEntity
  8
1
100
AcDbLine
 10
68.973339448559
 20
-1.125
 30
0.0
 11
68.893339448559
 21
-1.125
 31
0.0
  0
LINE
  5
246
330
30
100
AcDbEntity
  8
1
100
AcDbLine
 10
68.893339448559
 20
-1.125
 30
0.0
 11
68.813339448559
 21
-1.125
 31
0.0
  0
LINE
  5
247
330
30
100
AcDbEntity
  8
1
100
AcDbLine
 10
68.813339448559
 20
-1.125
 30
0.0
 11
68.733339448559
 21
-1.125
 31
0.0
  0
LINE
  5
248
330
30
100
AcDbEntity
  8
1
100
AcDbLine
 10
68.733339448559
 20
-1.125
 30
0.0
 11
68.653339448559
 21
-1.125
 31
0.0
  0
LINE
  5
249
330
30
100
AcDbEntity
  8
1
100
AcDbLine
 10
68.653339448559
 20
-1.125
 30
0.0
 11
68.573339448559
 21
-1.125
 31
0.0
  0
LINE
  5
24A
330
30
100
AcDbEntity
  8
1
100
AcDbLine
 10
68.573339448559
 20
-1.125
 30
0.0
 11
68.493339448559
 21
-1.125
 31
0.0
  0
LINE
  5
24B
330
30
100
AcDbEntity
  8
1
100
AcDbLine
 10
68.493339448559
 20
-1.125
 30
0.0
 11
68.413339448559
 21
-1.125
 31
0.0
  0
LINE
  5
24C
330
30
100
AcDbEntity
  8
1
100
AcDbLine
 10
68.413339448559
 20
-1.125
 30
0.0
 11
68.333339448559
 21
-1.125
 31
0.0
  0
LINE
  5
24D
330
30
100
AcDbEntity
  8
1
100
AcDbLine
 10
68.333339448559
 20
-1.125
 30
0.0
 11
68.253339448559
 21
-1.125
 31
0.0
  0
LINE
  5
24E
330
30
100
AcDbEntity
  8
1
100
AcDbLine
 10
68.253339448559
 20
-1.125
 30
0.0
 11
68.173339448559
 21
-1.125
 31
0.0
  0
LINE
  5
24F
330
30
100
AcDbEntity
  8
1
100
AcDbLine
 10
68.173339448559
 20
-1.125
 30
0.0
 11
68.093339448559
 21
-1.125
 31
0.0
  0
LINE
  5
250
330
30
100
AcDbEntity
  8
1
100
AcDbLine
 10
68.093339448559
 20
-1.125
 30
0.0
 11
68.013339448559
 21
-1.125
 31
0.0
  0
LINE
  5
251
330
30
100
AcDbEntity
  8
1
100
AcDbLine
 10
68.013339448559
 20
-1.125
 30
0.0
 11
67.933339448559
 21
-1.125
 31
0.0
  0
LINE
  5
252
330
30
100
AcDbEntity
  8
1
100
AcDbLine
 10
67.933339448559
 20
-1.125
 30
0.0
 11
67.853339448559
 21
-1.125
 31
0.0
  0
LINE
  5
253
330
30
100
AcDbEntity
  8
1
100
AcDbLine
 10
67.853339448559
 20
-1.125
 30
0.0
 11
67.773339448559
 21
-1.125
 31
0.0
  0
LINE
  5
254
330
30
100
AcDbEntity
  8
1
100
AcDbLine
 10
67.773339448559
 20
-1.125
 30
0.0
 11
67.693339448559
 21
-1.125
 31
0.0
  0
LINE
  5
255
330
30
100
AcDbEntity
  8
1
100
AcDbLine
 10
67.693339448559
 20
-1.125
 30
0.0
 11
67.613339448559
 21
-1.125
 31
0.0
  0
LINE
  5
256
330
30
100
AcDbEntity
  8
1
100
AcDbLine
 10
67.613339448559
 20
-1.125
 30
0.0
 11
67.533339448559
 21
-1.125
 31
0.0
  0
LINE
  5
257
330
30
100
AcDbEntity
  8
1
100
AcDbLine
 10
67.533339448559
 20
-1.125
 30
0.0
 11
67.453339448559
 21
-1.125
 31
0.0
  0
LINE
  5
258
330
30
100
AcDbEntity
  8
1
100
AcDbLine
 10
67.453339448559
 20
-1.125
 30
0.0
 11
67.373339448559
 21
-1.125
 31
0.0
  0
LINE
  5
259
330
30
100
AcDbEntity
  8
1
100
AcDbLine
 10
67.373339448559
 20
-1.125
 30
0.0
 11
67.293339448559
 21
-1.125
 31
0.0
  0
LINE
  5
25A
330
30
100
AcDbEntity
  8
1
100
AcDbLine
 10
67.293339448559
 20
-1.125
 30
0.0
 11
67.213339448559
 21
-1.125
 31
0.0
  0
LINE
  5
25B
330
30
100
AcDbEntity
  8
1
100
AcDbLine
 10
67.213339448559
 20
-1.125
 30
0.0
 11
67.133339448559
 21
-1.125
 31
0.0
  0
LINE
  5
25C
330
30
100
AcDbEntity
  8
1
100
AcDbLine
 10
67.133339448559
 20
-1.125
 30
0.0
 11
67.053339448559
 21
-1.125
 31
0.0
  0
LINE
  5
25D
330
30
100
AcDbEntity
  8
1
100
AcDbLine
 10
67.053339448559
 20
-1.125
 30
0.0
 11
66.973339448559
 21
-1.125
 31
0.0
  0
LINE
  5
25E
330
30
100
AcDbEntity
  8
1
100
AcDbLine
 10
66.973339448559
 20
-1.125
 30
0.0
 11
66.893339448559
 21
-1.125
 31
0.0
  0
LINE
  5
25F
330
30
100
AcDbEntity
  8
1
100
AcDbLine
 10
66.893339448559
 20
-1.125
 30
0.0
 11
66.813339448559
 21
-1.125
 31
0.0
  0
LINE
  5
260
330
30
100
AcDbEntity
  8
1
100
AcDbLine
 10
66.813339448559
 20
-1.125
 30
0.0
 11
66.733339448559
 21
-1.125
 31
0.0
  0
LINE
  5
261
330
30
100
AcDbEntity
  8
1
100
AcDbLine
 10
66.733339448559
 20
-1.125
 30
0.0
 11
66.653339448559
 21
-1.125
 31
0.0
  0
LINE
  5
262
330
30
100
AcDbEntity
  8
1
100
AcDbLine
 10
66.653339448559
 20
-1.125
 30
0.0
 11
66.573339448559
 21
-1.125
 31
0.0
  0
LINE
  5
263
330
30
100
AcDbEntity
  8
1
100
AcDbLine
 10
66.573339448559
 20
-1.125
 30
0.0
 11
66.493339448559
 21
-1.125
 31
0.0
  0
LINE
  5
264
330
30
100
AcDbEntity
  8
1
100
AcDbLine
 10
66.493339448559
 20
-1.125
 30
0.0
 11
66.413339448559
 21
-1.125
 31
0.0
  0
LINE
  5
265
330
30
100
AcDbEntity
  8
1
100
AcDbLine
 10
66.413339448559
 20
-1.125
 30
0.0
 11
66.333339448559
 21
-1.125
 31
0.0
  0
LINE
  5
266
330
30
100
AcDbEntity
  8
1
100
AcDbLine
 10
66.333339448559
 20
-1.125
 30
0.0
 11
66.253339448559
 21
-1.125
 31
0.0
  0
LINE
  5
267
330
30
100
AcDbEntity
  8
1
100
AcDbLine
 10
66.253339448559
 20
-1.125
 30
0.0
 11
66.173339448559
 21
-1.125
 31
0.0
  0
LINE
  5
268
330
30
100
AcDbEntity
  8
1
100
AcDbLine
 10
66.173339448559
 20
-1.125
 30
0.0
 11
66.093339448559
 21
-1.125
 31
0.0
  0
LINE
  5
269
330
30
100
AcDbEntity
  8
1
100
AcDbLine
 10
66.093339448559
 20
-1.125
 30
0.0
 11
66.013339448559
 21
-1.125
 31
0.0
  0
LINE
  5
26A
330
30
100
AcDbEntity
  8
1
100
AcDbLine
 10
66.013339448559
 20
-1.125
 30
0.0
 11
65.933339448559
 21
-1.125
 31
0.0
  0
LINE
  5
26B
330
30
100
AcDbEntity
  8
1
100
AcDbLine
 10
65.933339448559
 20
-1.125
 30
0.0
 11
65.853339448559
 21
-1.125
 31
0.0
  0
LINE
  5
26C
330
30
100
AcDbEntity
  8
1
100
AcDbLine
 10
65.853339448559
 20
-1.125
 30
0.0
 11
65.773339448559
 21
-1.125
 31
0.0
  0
LINE
  5
26D
330
30
100
AcDbEntity
  8
1
100
AcDbLine
 10
65.773339448559
 20
-1.125
 30
0.0
 11
65.693339448559
 21
-1.125
 31
0.0
  0
LINE
  5
26E
330
30
100
AcDbEntity
  8
1
100
AcDbLine
 10
65.693339448559
 20
-1.125
 30
0.0
 11
65.613339448559
 21
-1.125
 31
0.0
  0
LINE
  5
26F
330
30
100
AcDbEntity
  8
1
100
AcDbLine
 10
65.613339448559
 20
-1.125
 30
0.0
 11
65.533339448559
 21
-1.125
 31
0.0
  0
LINE
  5
270
330
30
100
AcDbEntity
  8
1
100
AcDbLine
 10
65.533339448559
 20
-1.125
 30
0.0
 11
65.453339448559
 21
-1.125
 31
0.0
  0
LINE
  5
271
330
30
100
AcDbEntity
  8
1
100
AcDbLine
 10
65.453339448559
 20
-1.125
 30
0.0
 11
65.373339448559
 21
-1.125
 31
0.0
  0
LINE
  5
272
330
30
100
AcDbEntity
  8
1
100
AcDbLine
 10
65.373339448559
 20
-1.125
 30
0.0
 11
65.293339448559
 21
-1.125
 31
0.0
  0
LINE
  5
273
330
30
100
AcDbEntity
  8
1
100
AcDbLine
 10
65.293339448559
 20
-1.125
 30
0.0
 11
65.213339448559
 21
-1.125
 31
0.0
  0
LINE
  5
274
330
30
100
AcDbEntity
  8
1
100
AcDbLine
 10
65.213339448559
 20
-1.125
 30
0.0
 11
65.133339448559
 21
-1.125
 31
0.0
  0
LINE
  5
275
330
30
100
AcDbEntity
  8
1
100
AcDbLine
 10
65.133339448559
 20
-1.125
 30
0.0
 11
65.053339448559
 21
-1.125
 31
0.0
  0
LINE
  5
276
330
30
100
AcDbEntity
  8
1
100
AcDbLine
 10
65.053339448559
 20
-1.125
 30
0.0
 11
64.973339448559
 21
-1.125
 31
0.0
  0
LINE
  5
277
330
30
100
AcDbEntity
  8
1
100
AcDbLine
 10
64.973339448559
 20
-1.125
 30
0.0
 11
64.893339448559
 21
-1.125
 31
0.0
  0
LINE
  5
278
330
30
100
AcDbEntity
  8
1
100
AcDbLine
 10
64.893339448559
 20
-1.125
 30
0.0
 11
64.813339448559
 21
-1.125
 31
0.0
  0
LINE
  5
279
330
30
100
AcDbEntity
  8
1
100
AcDbLine
 10
64.813339448559
 20
-1.125
 30
0.0
 11
64.733339448559
 21
-1.125
 31
0.0
  0
LINE
  5
27A
330
30
100
AcDbEntity
  8
1
100
AcDbLine
 10
64.733339448559
 20
-1.125
 30
0.0
 11
64.653339448559
 21
-1.125
 31
0.0
  0
LINE
  5
27B
330
30
100
AcDbEntity
  8
1
100
AcDbLine
 10
64.653339448559
 20
-1.125
 30
0.0
 11
64.573339448559
 21
-1.125
 31
0.0
  0
LINE
  5
27C
330
30
100
AcDbEntity
  8
1
100
AcDbLine
 10
64.573339448559
 20
-1.125
 30
0.0
 11
64.493339448559
 21
-1.125
 31
0.0
  0
LINE
  5
27D
330
30
100
AcDbEntity
  8
1
100
AcDbLine
 10
64.493339448559
 20
-1.125
 30
0.0
 11
64.413339448559
 21
-1.125
 31
0.0
  0
LINE
  5
27E
330
30
100
AcDbEntity
  8
1
100
AcDbLine
 10
64.413339448559
 20
-1.125
 30
0.0
 11
64.333339448559
 21
-1.125
 31
0.0
  0
LINE
  5
27F
330
30
100
AcDbEntity
  8
1
100
AcDbLine
 10
64.333339448559
 20
-1.125
 30
0.0
 11
64.253339448559
 21
-1.125
 31
0.0
  0
LINE
  5
280
330
30
100
AcDbEntity
  8
1
100
AcDbLine
 10
64.253339448559
 20
-1.125
 30
0.0
 11
64.173339448559
 21
-1.125
 31
0.0
  0
LINE
  5
281
330
30
100
AcDbEntity
  8
1
100
AcDbLine
 10
64.173339448559
 20
-1.125
 30
0.0
 11
64.093339448559
 21
-1.125
 31
0.0
  0
LINE
  5
282
330
30
100
AcDbEntity
  8
1
100
AcDbLine
 10
64.093339448559
 20
-1.125
 30
0.0
 11
64.013339448559
 21
-1.125
 31
0.0
  0
LINE
  5
283
330
30
100
AcDbEntity
  8
1
100
AcDbLine
 10
64.013339448559
 20
-1.125
 30
0.0
 11
63.933339448559
 21
-1.125
 31
0.0
  0
LINE
  5
284
330
30
100
AcDbEntity
  8
1
100
AcDbLine
 10
63.933339448559
 20
-1.125
 30
0.0
 11
63.853339448559
 21
-1.125
 31
0.0
  0
LINE
  5
285
330
30
100
AcDbEntity
  8
1
100
AcDbLine
 10
63.853339448559
 20
-1.125
 30
0.0
 11
63.773339448559
 21
-1.125
 31
0.0
  0
LINE
  5
286
330
30
100
AcDbEntity
  8
1
100
AcDbLine
 10
63.773339448559
 20
-1.125
 30
0.0
 11
63.693339448559
 21
-1.125
 31
0.0
  0
LINE
  5
287
330
30
100
AcDbEntity
  8
1
100
AcDbLine
 10
63.693339448559
 20
-1.125
 30
0.0
 11
63.613339448559
 21
-1.100721248836
 31
0.0
  0
LINE
  5
288
330
30
100
AcDbEntity
  8
1
100
AcDbLine
 10
63.613339448559
 20
-1.100721248836
 30
0.0
 11
63.533339448559
 21
-1.075042360747
 31
0.0
  0
LINE
  5
289
330
30
100
AcDbEntity
  8
1
100
AcDbLine
 10
63.533339448559
 20
-1.075042360747
 30
0.0
 11
63.453339448559
 21
-1.049360989287
 31
0.0
  0
LINE
  5
28A
330
30
100
AcDbEntity
  8
1
100
AcDbLine
 10
63.453339448559
 20
-1.049360989287
 30
0.0
 11
63.373339448559
 21
-1.023676967246
 31
0.0
  0
LINE
  5
28B
330
30
100
AcDbEntity
  8
1
100
AcDbLine
 10
63.373339448559
 20
-1.023676967246
 30
0.0
 11
63.293339448559
 21
-0.997990112038
 31
0.0
  0
LINE
  5
28C
330
30
100
AcDbEntity
  8
1
100
AcDbLine
 10
63.293339448559
 20
-0.997990112038
 30
0.0
 11
63.213339448559
 21
-0.972300223891
 31
0.0
  0
LINE
  5
28D
330
30
100
AcDbEntity
  8
1
100
AcDbLine
 10
63.213339448559
 20
-0.972300223891
 30
0.0
 11
63.133339448559
 21
-0.946607083772
 31
0.0
  0
LINE
  5
28E
330
30
100
AcDbEntity
  8
1
100
AcDbLine
 10
63.133339448559
 20
-0.946607083772
 30
0.0
 11
63.053339448559
 21
-0.920910451003
 31
0.0
  0
LINE
  5
28F
330
30
100
AcDbEntity
  8
1
100
AcDbLine
 10
63.053339448559
 20
-0.920910451003
 30
0.0
 11
62.973339448559
 21
-0.895210060518
 31
0.0
  0
LINE
  5
290
330
30
100
AcDbEntity
  8
1
100
AcDbLine
 10
62.973339448559
 20
-0.895210060518
 30
0.0
 11
62.893339448559
 21
-0.86950561969
 31
0.0
  0
LINE
  5
291
330
30
100
AcDbEntity
  8
1
100
AcDbLine
 10
62.893339448559
 20
-0.86950561969
 30
0.0
 11
62.813339448559
 21
-0.846888305781
 31
0.0
  0
LINE
  5
292
330
30
100
AcDbEntity
  8
1
100
AcDbLine
 10
62.813339448559
 20
-0.846888305781
 30
0.0
 11
62.733339448559
 21
-0.846888305781
 31
0.0
  0
LINE
  5
293
330
30
100
AcDbEntity
  8
1
100
AcDbLine
 10
62.733339448559
 20
-0.846888305781
 30
0.0
 11
62.653339448559
 21
-0.846888305781
 31
0.0
  0
LINE
  5
294
330
30
100
AcDbEntity
  8
1
100
AcDbLine
 10
62.653339448559
 20
-0.846888305781
 30
0.0
 11
62.573339448559
 21
-0.846888305781
 31
0.0
  0
LINE
  5
295
330
30
100
AcDbEntity
  8
1
100
AcDbLine
 10
62.573339448559
 20
-0.846888305781
 30
0.0
 11
62.493339448559
 21
-0.846888305781
 31
0.0
  0
LINE
  5
296
330
30
100
AcDbEntity
  8
1
100
AcDbLine
 10
62.493339448559
 20
-0.846888305781
 30
0.0
 11
62.413339448559
 21
-0.846888305781
 31
0.0
  0
LINE
  5
297
330
30
100
AcDbEntity
  8
1
100
AcDbLine
 10
62.413339448559
 20
-0.846888305781
 30
0.0
 11
62.333339448559
 21
-0.846888305781
 31
0.0
  0
LINE
  5
298
330
30
100
AcDbEntity
  8
1
100
AcDbLine
 10
62.333339448559
 20
-0.846888305781
 30
0.0
 11
62.253339448559
 21
-0.846888305781
 31
0.0
  0
LINE
  5
299
330
30
100
AcDbEntity
  8
1
100
AcDbLine
 10
62.253339448559
 20
-0.846888305781
 30
0.0
 11
62.173339448559
 21
-0.846888305781
 31
0.0
  0
LINE
  5
29A
330
30
100
AcDbEntity
  8
1
100
AcDbLine
 10
62.173339448559
 20
-0.846888305781
 30
0.0
 11
62.093339448559
 21
-0.846888305781
 31
0.0
  0
LINE
  5
29B
330
30
100
AcDbEntity
  8
1
100
AcDbLine
 10
62.093339448559
 20
-0.846888305781
 30
0.0
 11
62.013339448559
 21
-0.846888305781
 31
0.0
  0
LINE
  5
29C
330
30
100
AcDbEntity
  8
1
100
AcDbLine
 10
62.013339448559
 20
-0.846888305781
 30
0.0
 11
61.933339448559
 21
-0.846888305781
 31
0.0
  0
LINE
  5
29D
330
30
100
AcDbEntity
  8
1
100
AcDbLine
 10
61.933339448559
 20
-0.846888305781
 30
0.0
 11
61.853339448559
 21
-0.846888305781
 31
0.0
  0
LINE
  5
29E
330
30
100
AcDbEntity
  8
1
100
AcDbLine
 10
61.853339448559
 20
-0.846888305781
 30
0.0
 11
61.773339448559
 21
-0.846888305781
 31
0.0
  0
LINE
  5
29F
330
30
100
AcDbEntity
  8
1
100
AcDbLine
 10
61.773339448559
 20
-0.846888305781
 30
0.0
 11
61.693339448559
 21
-0.846888305781
 31
0.0
  0
LINE
  5
2A0
330
30
100
AcDbEntity
  8
1
100
AcDbLine
 10
61.693339448559
 20
-0.846888305781
 30
0.0
 11
61.613339448559
 21
-0.846888305781
 31
0.0
  0
LINE
  5
2A1
330
30
100
AcDbEntity
  8
1
100
AcDbLine
 10
61.613339448559
 20
-0.846888305781
 30
0.0
 11
61.533339448559
 21
-0.846888305781
 31
0.0
  0
LINE
  5
2A2
330
30
100
AcDbEntity
  8
1
100
AcDbLine
 10
61.533339448559
 20
-0.846888305781
 30
0.0
 11
61.453339448559
 21
-0.846888305781
 31
0.0
  0
LINE
  5
2A3
330
30
100
AcDbEntity
  8
1
100
AcDbLine
 10
61.453339448559
 20
-0.846888305781
 30
0.0
 11
61.373339448559
 21
-0.846888305781
 31
0.0
  0
LINE
  5
2A4
330
30
100
AcDbEntity
  8
1
100
AcDbLine
 10
61.373339448559
 20
-0.846888305781
 30
0.0
 11
61.293339448559
 21
-0.846888305781
 31
0.0
  0
LINE
  5
2A5
330
30
100
AcDbEntity
  8
1
100
AcDbLine
 10
61.293339448559
 20
-0.846888305781
 30
0.0
 11
61.213339448559
 21
-0.846888305781
 31
0.0
  0
LINE
  5
2A6
330
30
100
AcDbEntity
  8
1
100
AcDbLine
 10
61.213339448559
 20
-0.846888305781
 30
0.0
 11
61.133339448559
 21
-0.846888305781
 31
0.0
  0
LINE
  5
2A7
330
30
100
AcDbEntity
  8
1
100
AcDbLine
 10
61.133339448559
 20
-0.846888305781
 30
0.0
 11
61.053339448559
 21
-0.846888305781
 31
0.0
  0
LINE
  5
2A8
330
30
100
AcDbEntity
  8
1
100
AcDbLine
 10
61.053339448559
 20
-0.846888305781
 30
0.0
 11
60.973339448559
 21
-0.846888305781
 31
0.0
  0
LINE
  5
2A9
330
30
100
AcDbEntity
  8
1
100
AcDbLine
 10
60.973339448559
 20
-0.846888305781
 30
0.0
 11
60.893339448559
 21
-0.846888305781
 31
0.0
  0
LINE
  5
2AA
330
30
100
AcDbEntity
  8
1
100
AcDbLine
 10
60.893339448559
 20
-0.846888305781
 30
0.0
 11
60.813339448559
 21
-0.846888305781
 31
0.0
  0
LINE
  5
2AB
330
30
100
AcDbEntity
  8
1
100
AcDbLine
 10
60.813339448559
 20
-0.846888305781
 30
0.0
 11
60.733339448559
 21
-0.846888305781
 31
0.0
  0
LINE
  5
2AC
330
30
100
AcDbEntity
  8
1
100
AcDbLine
 10
60.733339448559
 20
-0.846888305781
 30
0.0
 11
60.653339448559
 21
-0.846888305781
 31
0.0
  0
LINE
  5
2AD
330
30
100
AcDbEntity
  8
1
100
AcDbLine
 10
60.653339448559
 20
-0.846888305781
 30
0.0
 11
60.573339448559
 21
-0.846888305781
 31
0.0
  0
LINE
  5
2AE
330
30
100
AcDbEntity
  8
1
100
AcDbLine
 10
60.573339448559
 20
-0.846888305781
 30
0.0
 11
60.493339448559
 21
-0.846888305781
 31
0.0
  0
LINE
  5
2AF
330
30
100
AcDbEntity
  8
1
100
AcDbLine
 10
60.493339448559
 20
-0.846888305781
 30
0.0
 11
60.413339448559
 21
-0.846888305781
 31
0.0
  0
LINE
  5
2B0
330
30
100
AcDbEntity
  8
1
100
AcDbLine
 10
60.413339448559
 20
-0.846888305781
 30
0.0
 11
60.333339448559
 21
-0.846888305781
 31
0.0
  0
LINE
  5
2B1
330
30
100
AcDbEntity
  8
1
100
AcDbLine
 10
60.333339448559
 20
-0.846888305781
 30
0.0
 11
60.253339448559
 21
-0.846888305781
 31
0.0
  0
LINE
  5
2B2
330
30
100
AcDbEntity
  8
1
100
AcDbLine
 10
60.253339448559
 20
-0.846888305781
 30
0.0
 11
60.173339448559
 21
-0.846888305781
 31
0.0
  0
LINE
  5
2B3
330
30
100
AcDbEntity
  8
1
100
AcDbLine
 10
60.173339448559
 20
-0.846888305781
 30
0.0
 11
60.093339448559
 21
-0.846888305781
 31
0.0
  0
LINE
  5
2B4
330
30
100
AcDbEntity
  8
1
100
AcDbLine
 10
60.093339448559
 20
-0.846888305781
 30
0.0
 11
60.013339448559
 21
-0.846888305781
 31
0.0
  0
LINE
  5
2B5
330
30
100
AcDbEntity
  8
1
100
AcDbLine
 10
60.013339448559
 20
-0.846888305781
 30
0.0
 11
59.933339448559
 21
-0.846888305781
 31
0.0
  0
LINE
  5
2B6
330
30
100
AcDbEntity
  8
1
100
AcDbLine
 10
59.933339448559
 20
-0.846888305781
 30
0.0
 11
59.853339448559
 21
-0.846888305781
 31
0.0
  0
LINE
  5
2B7
330
30
100
AcDbEntity
  8
1
100
AcDbLine
 10
59.853339448559
 20
-0.846888305781
 30
0.0
 11
59.773339448559
 21
-0.846888305781
 31
0.0
  0
LINE
  5
2B8
330
30
100
AcDbEntity
  8
1
100
AcDbLine
 10
59.773339448559
 20
-0.846888305781
 30
0.0
 11
59.693339448559
 21
-0.846888305781
 31
0.0
  0
LINE
  5
2B9
330
30
100
AcDbEntity
  8
1
100
AcDbLine
 10
59.693339448559
 20
-0.846888305781
 30
0.0
 11
59.613339448559
 21
-0.846888305781
 31
0.0
  0
LINE
  5
2BA
330
30
100
AcDbEntity
  8
1
100
AcDbLine
 10
59.613339448559
 20
-0.846888305781
 30
0.0
 11
59.533339448559
 21
-0.846888305781
 31
0.0
  0
LINE
  5
2BB
330
30
100
AcDbEntity
  8
1
100
AcDbLine
 10
59.533339448559
 20
-0.846888305781
 30
0.0
 11
59.453339448559
 21
-0.846888305781
 31
0.0
  0
LINE
  5
2BC
330
30
100
AcDbEntity
  8
1
100
AcDbLine
 10
59.453339448559
 20
-0.846888305781
 30
0.0
 11
59.373339448559
 21
-0.846888305781
 31
0.0
  0
LINE
  5
2BD
330
30
100
AcDbEntity
  8
1
100
AcDbLine
 10
59.373339448559
 20
-0.846888305781
 30
0.0
 11
59.293339448559
 21
-0.846888305781
 31
0.0
  0
LINE
  5
2BE
330
30
100
AcDbEntity
  8
1
100
AcDbLine
 10
59.293339448559
 20
-0.846888305781
 30
0.0
 11
59.213339448559
 21
-0.846888305781
 31
0.0
  0
LINE
  5
2BF
330
30
100
AcDbEntity
  8
1
100
AcDbLine
 10
59.213339448559
 20
-0.846888305781
 30
0.0
 11
59.133339448559
 21
-0.846888305781
 31
0.0
  0
LINE
  5
2C0
330
30
100
AcDbEntity
  8
1
100
AcDbLine
 10
59.133339448559
 20
-0.846888305781
 30
0.0
 11
59.053339448559
 21
-0.846888305781
 31
0.0
  0
LINE
  5
2C1
330
30
100
AcDbEntity
  8
1
100
AcDbLine
 10
59.053339448559
 20
-0.846888305781
 30
0.0
 11
58.973339448559
 21
-0.846888305781
 31
0.0
  0
LINE
  5
2C2
330
30
100
AcDbEntity
  8
1
100
AcDbLine
 10
58.973339448559
 20
-0.846888305781
 30
0.0
 11
58.893339448559
 21
-0.846888305781
 31
0.0
  0
LINE
  5
2C3
330
30
100
AcDbEntity
  8
1
100
AcDbLine
 10
58.893339448559
 20
-0.846888305781
 30
0.0
 11
58.813339448559
 21
-0.846888305781
 31
0.0
  0
LINE
  5
2C4
330
30
100
AcDbEntity
  8
1
100
AcDbLine
 10
58.813339448559
 20
-0.846888305781
 30
0.0
 11
58.733339448559
 21
-0.846888305781
 31
0.0
  0
LINE
  5
2C5
330
30
100
AcDbEntity
  8
1
100
AcDbLine
 10
58.733339448559
 20
-0.846888305781
 30
0.0
 11
58.653339448559
 21
-0.846888305781
 31
0.0
  0
LINE
  5
2C6
330
30
100
AcDbEntity
  8
1
100
AcDbLine
 10
58.653339448559
 20
-0.846888305781
 30
0.0
 11
58.573339448559
 21
-0.846888305781
 31
0.0
  0
LINE
  5
2C7
330
30
100
AcDbEntity
  8
1
100
AcDbLine
 10
58.573339448559
 20
-0.846888305781
 30
0.0
 11
58.493339448559
 21
-0.846888305781
 31
0.0
  0
LINE
  5
2C8
330
30
100
AcDbEntity
  8
1
100
AcDbLine
 10
58.493339448559
 20
-0.846888305781
 30
0.0
 11
58.413339448559
 21
-0.846888305781
 31
0.0
  0
LINE
  5
2C9
330
30
100
AcDbEntity
  8
1
100
AcDbLine
 10
58.413339448559
 20
-0.846888305781
 30
0.0
 11
58.333339448559
 21
-0.846888305781
 31
0.0
  0
LINE
  5
2CA
330
30
100
AcDbEntity
  8
1
100
AcDbLine
 10
58.333339448559
 20
-0.846888305781
 30
0.0
 11
58.253339448559
 21
-0.846888305781
 31
0.0
  0
LINE
  5
2CB
330
30
100
AcDbEntity
  8
1
100
AcDbLine
 10
58.253339448559
 20
-0.846888305781
 30
0.0
 11
58.173339448559
 21
-0.846888305781
 31
0.0
  0
LINE
  5
2CC
330
30
100
AcDbEntity
  8
1
100
AcDbLine
 10
58.173339448559
 20
-0.846888305781
 30
0.0
 11
58.093339448559
 21
-0.846888305781
 31
0.0
  0
LINE
  5
2CD
330
30
100
AcDbEntity
  8
1
100
AcDbLine
 10
58.093339448559
 20
-0.846888305781
 30
0.0
 11
58.013339448559
 21
-0.846888305781
 31
0.0
  0
LINE
  5
2CE
330
30
100
AcDbEntity
  8
1
100
AcDbLine
 10
58.013339448559
 20
-0.846888305781
 30
0.0
 11
57.933339448559
 21
-0.846888305781
 31
0.0
  0
LINE
  5
2CF
330
30
100
AcDbEntity
  8
1
100
AcDbLine
 10
57.933339448559
 20
-0.846888305781
 30
0.0
 11
57.853339448559
 21
-0.846888305781
 31
0.0
  0
LINE
  5
2D0
330
30
100
AcDbEntity
  8
1
100
AcDbLine
 10
57.853339448559
 20
-0.846888305781
 30
0.0
 11
57.773339448559
 21
-0.846888305781
 31
0.0
  0
LINE
  5
2D1
330
30
100
AcDbEntity
  8
1
100
AcDbLine
 10
57.773339448559
 20
-0.846888305781
 30
0.0
 11
57.693339448559
 21
-0.846888305781
 31
0.0
  0
LINE
  5
2D2
330
30
100
AcDbEntity
  8
1
100
AcDbLine
 10
57.693339448559
 20
-0.846888305781
 30
0.0
 11
57.613339448559
 21
-0.846888305781
 31
0.0
  0
LINE
  5
2D3
330
30
100
AcDbEntity
  8
1
100
AcDbLine
 10
57.613339448559
 20
-0.846888305781
 30
0.0
 11
57.533339448559
 21
-0.846888305781
 31
0.0
  0
LINE
  5
2D4
330
30
100
AcDbEntity
  8
1
100
AcDbLine
 10
57.533339448559
 20
-0.846888305781
 30
0.0
 11
57.453339448559
 21
-0.846888305781
 31
0.0
  0
LINE
  5
2D5
330
30
100
AcDbEntity
  8
1
100
AcDbLine
 10
57.453339448559
 20
-0.846888305781
 30
0.0
 11
57.373339448559
 21
-0.846888305781
 31
0.0
  0
LINE
  5
2D6
330
30
100
AcDbEntity
  8
1
100
AcDbLine
 10
57.373339448559
 20
-0.846888305781
 30
0.0
 11
57.293339448559
 21
-0.846888305781
 31
0.0
  0
LINE
  5
2D7
330
30
100
AcDbEntity
  8
1
100
AcDbLine
 10
57.293339448559
 20
-0.846888305781
 30
0.0
 11
57.213339448559
 21
-0.846888305781
 31
0.0
  0
LINE
  5
2D8
330
30
100
AcDbEntity
  8
1
100
AcDbLine
 10
57.213339448559
 20
-0.846888305781
 30
0.0
 11
57.133339448559
 21
-0.846888305781
 31
0.0
  0
LINE
  5
2D9
330
30
100
AcDbEntity
  8
1
100
AcDbLine
 10
57.133339448559
 20
-0.846888305781
 30
0.0
 11
57.053339448559
 21
-0.846888305781
 31
0.0
  0
LINE
  5
2DA
330
30
100
AcDbEntity
  8
1
100
AcDbLine
 10
57.053339448559
 20
-0.846888305781
 30
0.0
 11
56.973339448559
 21
-0.846888305781
 31
0.0
  0
LINE
  5
2DB
330
30
100
AcDbEntity
  8
1
100
AcDbLine
 10
56.973339448559
 20
-0.846888305781
 30
0.0
 11
56.893339448559
 21
-0.846888305781
 31
0.0
  0
LINE
  5
2DC
330
30
100
AcDbEntity
  8
1
100
AcDbLine
 10
56.893339448559
 20
-0.846888305781
 30
0.0
 11
56.813339448559
 21
-0.846888305781
 31
0.0
  0
LINE
  5
2DD
330
30
100
AcDbEntity
  8
1
100
AcDbLine
 10
56.813339448559
 20
-0.846888305781
 30
0.0
 11
56.733339448559
 21
-0.846888305781
 31
0.0
  0
LINE
  5
2DE
330
30
100
AcDbEntity
  8
1
100
AcDbLine
 10
56.733339448559
 20
-0.846888305781
 30
0.0
 11
56.653339448559
 21
-0.846888305781
 31
0.0
  0
LINE
  5
2DF
330
30
100
AcDbEntity
  8
1
100
AcDbLine
 10
56.653339448559
 20
-0.846888305781
 30
0.0
 11
56.573339448559
 21
-0.846888305781
 31
0.0
  0
LINE
  5
2E0
330
30
100
AcDbEntity
  8
1
100
AcDbLine
 10
56.573339448559
 20
-0.846888305781
 30
0.0
 11
56.493339448559
 21
-0.846888305781
 31
0.0
  0
LINE
  5
2E1
330
30
100
AcDbEntity
  8
1
100
AcDbLine
 10
56.493339448559
 20
-0.846888305781
 30
0.0
 11
56.413339448559
 21
-0.846888305781
 31
0.0
  0
LINE
  5
2E2
330
30
100
AcDbEntity
  8
1
100
AcDbLine
 10
56.413339448559
 20
-0.846888305781
 30
0.0
 11
56.333339448559
 21
-0.846888305781
 31
0.0
  0
LINE
  5
2E3
330
30
100
AcDbEntity
  8
1
100
AcDbLine
 10
56.333339448559
 20
-0.846888305781
 30
0.0
 11
56.253339448559
 21
-0.846888305781
 31
0.0
  0
LINE
  5
2E4
330
30
100
AcDbEntity
  8
1
100
AcDbLine
 10
56.253339448559
 20
-0.846888305781
 30
0.0
 11
56.173339448559
 21
-0.846888305781
 31
0.0
  0
LINE
  5
2E5
330
30
100
AcDbEntity
  8
1
100
AcDbLine
 10
56.173339448559
 20
-0.846888305781
 30
0.0
 11
56.093339448559
 21
-0.846888305781
 31
0.0
  0
LINE
  5
2E6
330
30
100
AcDbEntity
  8
1
100
AcDbLine
 10
56.093339448559
 20
-0.846888305781
 30
0.0
 11
56.013339448559
 21
-0.846888305781
 31
0.0
  0
LINE
  5
2E7
330
30
100
AcDbEntity
  8
1
100
AcDbLine
 10
56.013339448559
 20
-0.846888305781
 30
0.0
 11
55.933339448559
 21
-0.846888305781
 31
0.0
  0
LINE
  5
2E8
330
30
100
AcDbEntity
  8
1
100
AcDbLine
 10
55.933339448559
 20
-0.846888305781
 30
0.0
 11
55.853339448559
 21
-0.846888305781
 31
0.0
  0
LINE
  5
2E9
330
30
100
AcDbEntity
  8
1
100
AcDbLine
 10
55.853339448559
 20
-0.846888305781
 30
0.0
 11
55.773339448559
 21
-0.846888305781
 31
0.0
  0
LINE
  5
2EA
330
30
100
AcDbEntity
  8
1
100
AcDbLine
 10
55.773339448559
 20
-0.846888305781
 30
0.0
 11
55.693339448559
 21
-0.846888305781
 31
0.0
  0
LINE
  5
2EB
330
30
100
AcDbEntity
  8
1
100
AcDbLine
 10
55.693339448559
 20
-0.846888305781
 30
0.0
 11
55.613339448559
 21
-0.846888305781
 31
0.0
  0
LINE
  5
2EC
330
30
100
AcDbEntity
  8
1
100
AcDbLine
 10
55.613339448559
 20
-0.846888305781
 30
0.0
 11
55.533339448559
 21
-0.846888305781
 31
0.0
  0
LINE
  5
2ED
330
30
100
AcDbEntity
  8
1
100
AcDbLine
 10
55.533339448559
 20
-0.846888305781
 30
0.0
 11
55.453339448559
 21
-0.846888305781
 31
0.0
  0
LINE
  5
2EE
330
30
100
AcDbEntity
  8
1
100
AcDbLine
 10
55.453339448559
 20
-0.846888305781
 30
0.0
 11
55.373339448559
 21
-0.846888305781
 31
0.0
  0
LINE
  5
2EF
330
30
100
AcDbEntity
  8
1
100
AcDbLine
 10
55.373339448559
 20
-0.846888305781
 30
0.0
 11
55.293339448559
 21
-0.846888305781
 31
0.0
  0
LINE
  5
2F0
330
30
100
AcDbEntity
  8
1
100
AcDbLine
 10
55.293339448559
 20
-0.846888305781
 30
0.0
 11
55.213339448559
 21
-0.846888305781
 31
0.0
  0
LINE
  5
2F1
330
30
100
AcDbEntity
  8
1
100
AcDbLine
 10
55.213339448559
 20
-0.846888305781
 30
0.0
 11
55.133339448559
 21
-0.846888305781
 31
0.0
  0
LINE
  5
2F2
330
30
100
AcDbEntity
  8
1
100
AcDbLine
 10
55.133339448559
 20
-0.846888305781
 30
0.0
 11
55.053339448559
 21
-0.846888305781
 31
0.0
  0
LINE
  5
2F3
330
30
100
AcDbEntity
  8
1
100
AcDbLine
 10
55.053339448559
 20
-0.846888305781
 30
0.0
 11
54.973339448559
 21
-0.846888305781
 31
0.0
  0
LINE
  5
2F4
330
30
100
AcDbEntity
  8
1
100
AcDbLine
 10
54.973339448559
 20
-0.846888305781
 30
0.0
 11
54.893339448559
 21
-0.846888305781
 31
0.0
  0
LINE
  5
2F5
330
30
100
AcDbEntity
  8
1
100
AcDbLine
 10
54.893339448559
 20
-0.846888305781
 30
0.0
 11
54.813339448559
 21
-0.846888305781
 31
0.0
  0
LINE
  5
2F6
330
30
100
AcDbEntity
  8
1
100
AcDbLine
 10
54.813339448559
 20
-0.846888305781
 30
0.0
 11
54.733339448559
 21
-0.846888305781
 31
0.0
  0
LINE
  5
2F7
330
30
100
AcDbEntity
  8
1
100
AcDbLine
 10
54.733339448559
 20
-0.846888305781
 30
0.0
 11
54.653339448559
 21
-0.846888305781
 31
0.0
  0
LINE
  5
2F8
330
30
100
AcDbEntity
  8
1
100
AcDbLine
 10
54.653339448559
 20
-0.846888305781
 30
0.0
 11
54.573339448559
 21
-0.846888305781
 31
0.0
  0
LINE
  5
2F9
330
30
100
AcDbEntity
  8
1
100
AcDbLine
 10
54.573339448559
 20
-0.846888305781
 30
0.0
 11
54.493339448559
 21
-0.846888305781
 31
0.0
  0
LINE
  5
2FA
330
30
100
AcDbEntity
  8
1
100
AcDbLine
 10
54.493339448559
 20
-0.846888305781
 30
0.0
 11
54.413339448559
 21
-0.846888305781
 31
0.0
  0
LINE
  5
2FB
330
30
100
AcDbEntity
  8
1
100
AcDbLine
 10
54.413339448559
 20
-0.846888305781
 30
0.0
 11
54.333339448559
 21
-0.846888305781
 31
0.0
  0
LINE
  5
2FC
330
30
100
AcDbEntity
  8
1
100
AcDbLine
 10
54.333339448559
 20
-0.846888305781
 30
0.0
 11
54.253339448559
 21
-0.846888305781
 31
0.0
  0
LINE
  5
2FD
330
30
100
AcDbEntity
  8
1
100
AcDbLine
 10
54.253339448559
 20
-0.846888305781
 30
0.0
 11
54.173339448559
 21
-0.846888305781
 31
0.0
  0
LINE
  5
2FE
330
30
100
AcDbEntity
  8
1
100
AcDbLine
 10
54.173339448559
 20
-0.846888305781
 30
0.0
 11
54.093339448559
 21
-0.846888305781
 31
0.0
  0
LINE
  5
2FF
330
30
100
AcDbEntity
  8
1
100
AcDbLine
 10
54.093339448559
 20
-0.846888305781
 30
0.0
 11
54.013339448559
 21
-0.846888305781
 31
0.0
  0
LINE
  5
300
330
30
100
AcDbEntity
  8
1
100
AcDbLine
 10
54.013339448559
 20
-0.846888305781
 30
0.0
 11
53.933339448559
 21
-0.846888305781
 31
0.0
  0
LINE
  5
301
330
30
100
AcDbEntity
  8
1
100
AcDbLine
 10
53.933339448559
 20
-0.846888305781
 30
0.0
 11
53.853339448559
 21
-0.846888305781
 31
0.0
  0
LINE
  5
302
330
30
100
AcDbEntity
  8
1
100
AcDbLine
 10
53.853339448559
 20
-0.846888305781
 30
0.0
 11
53.773339448559
 21
-0.846888305781
 31
0.0
  0
LINE
  5
303
330
30
100
AcDbEntity
  8
1
100
AcDbLine
 10
53.773339448559
 20
-0.846888305781
 30
0.0
 11
53.693339448559
 21
-0.846888305781
 31
0.0
  0
LINE
  5
304
330
30
100
AcDbEntity
  8
1
100
AcDbLine
 10
53.693339448559
 20
-0.846888305781
 30
0.0
 11
53.613339448559
 21
-0.846587610131
 31
0.0
  0
LINE
  5
305
330
30
100
AcDbEntity
  8
1
100
AcDbLine
 10
53.613339448559
 20
-0.846587610131
 30
0.0
 11
53.533339448559
 21
-0.844182044934
 31
0.0
  0
LINE
  5
306
330
30
100
AcDbEntity
  8
1
100
AcDbLine
 10
53.533339448559
 20
-0.844182044934
 30
0.0
 11
53.453339448559
 21
-0.839370914541
 31
0.0
  0
LINE
  5
307
330
30
100
AcDbEntity
  8
1
100
AcDbLine
 10
53.453339448559
 20
-0.839370914541
 30
0.0
 11
53.373339448559
 21
-0.832154218951
 31
0.0
  0
LINE
  5
308
330
30
100
AcDbEntity
  8
1
100
AcDbLine
 10
53.373339448559
 20
-0.832154218951
 30
0.0
 11
53.293339448559
 21
-0.822531958163
 31
0.0
  0
LINE
  5
309
330
30
100
AcDbEntity
  8
1
100
AcDbLine
 10
53.293339448559
 20
-0.822531958163
 30
0.0
 11
53.213339448559
 21
-0.81050413218
 31
0.0
  0
LINE
  5
30A
330
30
100
AcDbEntity
  8
1
100
AcDbLine
 10
53.213339448559
 20
-0.81050413218
 30
0.0
 11
53.133339448559
 21
-0.796070740999
 31
0.0
  0
LINE
  5
30B
330
30
100
AcDbEntity
  8
1
100
AcDbLine
 10
53.133339448559
 20
-0.796070740999
 30
0.0
 11
53.053339448559
 21
-0.779231784621
 31
0.0
  0
LINE
  5
30C
330
30
100
AcDbEntity
  8
1
100
AcDbLine
 10
53.053339448559
 20
-0.779231784621
 30
0.0
 11
52.973339448559
 21
-0.759987263047
 31
0.0
  0
LINE
  5
30D
330
30
100
AcDbEntity
  8
1
100
AcDbLine
 10
52.973339448559
 20
-0.759987263047
 30
0.0
 11
52.893339448559
 21
-0.738337176276
 31
0.0
  0
LINE
  5
30E
330
30
100
AcDbEntity
  8
1
100
AcDbLine
 10
52.893339448559
 20
-0.738337176276
 30
0.0
 11
52.813339448559
 21
-0.714281524308
 31
0.0
  0
LINE
  5
30F
330
30
100
AcDbEntity
  8
1
100
AcDbLine
 10
52.813339448559
 20
-0.714281524308
 30
0.0
 11
52.733339448559
 21
-0.687820307144
 31
0.0
  0
LINE
  5
310
330
30
100
AcDbEntity
  8
1
100
AcDbLine
 10
52.733339448559
 20
-0.687820307144
 30
0.0
 11
52.653339448559
 21
-0.658953524782
 31
0.0
  0
LINE
  5
311
330
30
100
AcDbEntity
  8
1
100
AcDbLine
 10
52.653339448559
 20
-0.658953524782
 30
0.0
 11
52.573339448559
 21
-0.627681177224
 31
0.0
  0
LINE
  5
312
330
30
100
AcDbEntity
  8
1
100
AcDbLine
 10
52.573339448559
 20
-0.627681177224
 30
0.0
 11
52.493339448559
 21
-0.594003264469
 31
0.0
  0
LINE
  5
313
330
30
100
AcDbEntity
  8
1
100
AcDbLine
 10
52.493339448559
 20
-0.594003264469
 30
0.0
 11
52.413339448559
 21
-0.557919786518
 31
0.0
  0
LINE
  5
314
330
30
100
AcDbEntity
  8
1
100
AcDbLine
 10
52.413339448559
 20
-0.557919786518
 30
0.0
 11
52.333339448559
 21
-0.519430743369
 31
0.0
  0
LINE
  5
315
330
30
100
AcDbEntity
  8
1
100
AcDbLine
 10
52.333339448559
 20
-0.519430743369
 30
0.0
 11
52.253339448559
 21
-0.478536135024
 31
0.0
  0
LINE
  5
316
330
30
100
AcDbEntity
  8
1
100
AcDbLine
 10
52.253339448559
 20
-0.478536135024
 30
0.0
 11
52.173339448559
 21
-0.435235961482
 31
0.0
  0
LINE
  5
317
330
30
100
AcDbEntity
  8
1
100
AcDbLine
 10
52.173339448559
 20
-0.435235961482
 30
0.0
 11
52.093339448559
 21
-0.389530222743
 31
0.0
  0
LINE
  5
318
330
30
100
AcDbEntity
  8
1
100
AcDbLine
 10
52.093339448559
 20
-0.389530222743
 30
0.0
 11
52.013339448559
 21
-0.341418918807
 31
0.0
  0
LINE
  5
319
330
30
100
AcDbEntity
  8
1
100
AcDbLine
 10
52.013339448559
 20
-0.341418918807
 30
0.0
 11
51.933339448559
 21
-0.290902049675
 31
0.0
  0
LINE
  5
31A
330
30
100
AcDbEntity
  8
1
100
AcDbLine
 10
51.933339448559
 20
-0.290902049675
 30
0.0
 11
51.853339448559
 21
-0.237979615346
 31
0.0
  0
LINE
  5
31B
330
30
100
AcDbEntity
  8
1
100
AcDbLine
 10
51.853339448559
 20
-0.237979615346
 30
0.0
 11
51.773339448559
 21
-0.18265161582
 31
0.0
  0
LINE
  5
31C
330
30
100
AcDbEntity
  8
1
100
AcDbLine
 10
51.773339448559
 20
-0.18265161582
 30
0.0
 11
51.693339448559
 21
-0.124918051097
 31
0.0
  0
LINE
  5
31D
330
30
100
AcDbEntity
  8
1
100
AcDbLine
 10
51.693339448559
 20
-0.124918051097
 30
0.0
 11
51.61333944856
 21
-0.064778921178
 31
0.0
  0
LINE
  5
31E
330
30
100
AcDbEntity
  8
1
100
AcDbLine
 10
51.61333944856
 20
-0.064778921178
 30
0.0
 11
51.53333944856
 21
-0.002234226061
 31
0.0
  0
LINE
  5
31F
330
30
100
AcDbEntity
  8
1
100
AcDbLine
 10
51.53333944856
 20
-0.002234226061
 30
0.0
 11
51.45333944856
 21
0.062716034252
 31
0.0
  0
LINE
  5
320
330
30
100
AcDbEntity
  8
1
100
AcDbLine
 10
51.45333944856
 20
0.062716034252
 30
0.0
 11
51.37333944856
 21
0.130071859762
 31
0.0
  0
LINE
  5
321
330
30
100
AcDbEntity
  8
1
100
AcDbLine
 10
51.37333944856
 20
0.130071859762
 30
0.0
 11
51.29333944856
 21
0.199833250468
 31
0.0
  0
LINE
  5
322
330
30
100
AcDbEntity
  8
1
100
AcDbLine
 10
51.29333944856
 20
0.199833250468
 30
0.0
 11
51.21333944856
 21
0.272000206372
 31
0.0
  0
LINE
  5
323
330
30
100
AcDbEntity
  8
1
100
AcDbLine
 10
51.21333944856
 20
0.272000206372
 30
0.0
 11
51.13333944856
 21
0.346572727472
 31
0.0
  0
LINE
  5
324
330
30
100
AcDbEntity
  8
1
100
AcDbLine
 10
51.13333944856
 20
0.346572727472
 30
0.0
 11
51.05333944856
 21
0.423550813769
 31
0.0
  0
LINE
  5
325
330
30
100
AcDbEntity
  8
1
100
AcDbLine
 10
51.05333944856
 20
0.423550813769
 30
0.0
 11
50.97333944856
 21
0.502934465263
 31
0.0
  0
LINE
  5
326
330
30
100
AcDbEntity
  8
1
100
AcDbLine
 10
50.97333944856
 20
0.502934465263
 30
0.0
 11
50.89333944856
 21
0.584723681953
 31
0.0
  0
LINE
  5
327
330
30
100
AcDbEntity
  8
1
100
AcDbLine
 10
50.89333944856
 20
0.584723681953
 30
0.0
 11
50.81333944856
 21
0.66891846384
 31
0.0
  0
LINE
  5
328
330
30
100
AcDbEntity
  8
1
100
AcDbLine
 10
50.81333944856
 20
0.66891846384
 30
0.0
 11
50.73333944856
 21
0.755518810924
 31
0.0
  0
LINE
  5
329
330
30
100
AcDbEntity
  8
1
100
AcDbLine
 10
50.73333944856
 20
0.755518810924
 30
0.0
 11
50.653339448559
 21
0.844524723206
 31
0.0
  0
LINE
  5
32A
330
30
100
AcDbEntity
  8
1
100
AcDbLine
 10
47.688984146635
 20
1.75
 30
0.0
 11
47.688984146635
 21
-1.75
 31
0.0
  0
LINE
  5
32B
330
30
100
AcDbEntity
  8
1
100
AcDbLine
 10
42.689050390976
 20
2.464
 30
0.0
 11
42.689050390976
 21
-2.464
 31
0.0
  0
LINE
  5
32C
330
30
100
AcDbEntity
  8
1
100
AcDbLine
 10
42.689050390976
 20
-2.464
 30
0.0
 11
42.689050390976
 21
2.464
 31
0.0
  0
LINE
  5
32D
330
30
100
AcDbEntity
  8
SK1
100
AcDbLine
 10
28.253339448559
 20
2.464
 30
0.0
 11
2.688984146635
 21
2.464
 31
0.0
  0
LINE
  5
32E
330
30
100
AcDbEntity
  8
SK1
100
AcDbLine
 10
2.688984146635
 20
2.464
 30
0.0
 11
0.0
 21
0.0
 31
0.0
  0
LINE
  5
32F
330
30
100
AcDbEntity
  8
SK1
100
AcDbLine
 10
28.253339448559
 20
-2.464
 30
0.0
 11
2.688984146635
 21
-2.464
 31
0.0
  0
LINE
  5
330
330
30
100
AcDbEntity
  8
SK1
100
AcDbLine
 10
2.688984146635
 20
-2.464
 30
0.0
 11
0.0
 21
0.0
 31
0.0
  0
LINE
  5
331
330
30
100
AcDbEntity
  8
SK1
100
AcDbLine
 10
2.688984146635
 20
2.464
 30
0.0
 11
2.688984146635
 21
-2.464
 31
0.0
  0
LINE
  5
332
330
30
100
AcDbEntity
  8
SK1
100
AcDbLine
 10
2.688984146635
 20
2.464
 30
0.0
 11
2.688984146635
 21
-2.464
 31
0.0
  0
LINE
  5
333
330
30
100
AcDbEntity
  8
SK1
100
AcDbLine
 10
29.293439448559
 20
1.40688
 30
0.0
 11
29.660239448559
 21
1.0401
 31
0.0
  0
LINE
  5
334
330
30
100
AcDbEntity
  8
SK1
100
AcDbLine
 10
28.786139448559
 20
1.66666
 30
0.0
 11
29.920039448559
 21
0.532833
 31
0.0
  0
LINE
  5
335
330
30
100
AcDbEntity
  8
SK1
100
AcDbLine
 10
28.468739448559
 20
1.73657
 30
0.0
 11
29.989939448559
 21
0.215434
 31
0.0
  0
LINE
  5
336
330
30
100
AcDbEntity
  8
SK1
100
AcDbLine
 10
28.253339448559
 20
1.70452
 30
0.0
 11
29.957839448559
 21
0.0
 31
0.0
  0
LINE
  5
337
330
30
100
AcDbEntity
  8
SK1
100
AcDbLine
 10
28.253339448559
 20
1.45703
 30
0.0
 11
29.710339448559
 21
0.0
 31
0.0
  0
LINE
  5
338
330
30
100
AcDbEntity
  8
SK1
100
AcDbLine
 10
28.253339448559
 20
1.20954
 30
0.0
 11
29.462839448559
 21
0.0
 31
0.0
  0
LINE
  5
339
330
30
100
AcDbEntity
  8
SK1
100
AcDbLine
 10
28.253339448559
 20
0.962054
 30
0.0
 11
29.215439448559
 21
0.0
 31
0.0
  0
LINE
  5
33A
330
30
100
AcDbEntity
  8
SK1
100
AcDbLine
 10
28.253339448559
 20
0.714566
 30
0.0
 11
28.967939448559
 21
0.0
 31
0.0
  0
LINE
  5
33B
330
30
100
AcDbEntity
  8
SK1
100
AcDbLine
 10
28.253339448559
 20
0.467079
 30
0.0
 11
28.720439448559
 21
0.0
 31
0.0
  0
LINE
  5
33C
330
30
100
AcDbEntity
  8
SK1
100
AcDbLine
 10
28.253339448559
 20
0.219592
 30
0.0
 11
28.472939448559
 21
0.0
 31
0.0
  0
LINE
  5
33D
330
30
100
AcDbEntity
  8
SK1
100
AcDbLine
 10
28.253339448559
 20
1.70452
 30
0.0
 11
28.297439448559
 21
1.74861
 31
0.0
  0
LINE
  5
33E
330
30
100
AcDbEntity
  8
SK1
100
AcDbLine
 10
28.253339448559
 20
1.45703
 30
0.0
 11
28.524339448559
 21
1.72802
 31
0.0
  0
LINE
  5
33F
330
30
100
AcDbEntity
  8
SK1
100
AcDbLine
 10
28.253339448559
 20
1.20954
 30
0.0
 11
28.727539448559
 21
1.6837
 31
0.0
  0
LINE
  5
340
330
30
100
AcDbEntity
  8
SK1
100
AcDbLine
 10
28.253339448559
 20
0.962054
 30
0.0
 11
28.912139448559
 21
1.62082
 31
0.0
  0
LINE
  5
341
330
30
100
AcDbEntity
  8
SK1
100
AcDbLine
 10
28.253339448559
 20
0.714566
 30
0.0
 11
29.080439448559
 21
1.54167
 31
0.0
  0
LINE
  5
342
330
30
100
AcDbEntity
  8
SK1
100
AcDbLine
 10
28.253339448559
 20
0.467079
 30
0.0
 11
29.234339448559
 21
1.44812
 31
0.0
  0
LINE
  5
343
330
30
100
AcDbEntity
  8
SK1
100
AcDbLine
 10
28.253339448559
 20
0.219592
 30
0.0
 11
29.375939448559
 21
1.34216
 31
0.0
  0
LINE
  5
344
330
30
100
AcDbEntity
  8
SK1
100
AcDbLine
 10
28.281239448559
 20
0.0
 30
0.0
 11
29.504139448559
 21
1.22288
 31
0.0
  0
LINE
  5
345
330
30
100
AcDbEntity
  8
SK1
100
AcDbLine
 10
28.528739448559
 20
0.0
 30
0.0
 11
29.620339448559
 21
1.09157
 31
0.0
  0
LINE
  5
346
330
30
100
AcDbEntity
  8
SK1
100
AcDbLine
 10
28.776239448559
 20
0.0
 30
0.0
 11
29.724039448559
 21
0.947822
 31
0.0
  0
LINE
  5
347
330
30
100
AcDbEntity
  8
SK1
100
AcDbLine
 10
29.023739448559
 20
0.0
 30
0.0
 11
29.813839448559
 21
0.790145
 31
0.0
  0
LINE
  5
348
330
30
100
AcDbEntity
  8
SK1
100
AcDbLine
 10
29.271139448559
 20
0.0
 30
0.0
 11
29.889739448559
 21
0.618517
 31
0.0
  0
LINE
  5
349
330
30
100
AcDbEntity
  8
SK1
100
AcDbLine
 10
29.518639448559
 20
0.0
 30
0.0
 11
29.949339448559
 21
0.430696
 31
0.0
  0
LINE
  5
34A
330
30
100
AcDbEntity
  8
SK1
100
AcDbLine
 10
29.766139448559
 20
0.0
 30
0.0
 11
29.988939448559
 21
0.222827
 31
0.0
  0
LINE
  5
34B
330
30
100
AcDbEntity
  8
SK1
100
AcDbLine
 10
28.253339448559
 20
0.0
 30
0.0
 11
28.253339448559
 21
1.75
 31
0.0
  0
LINE
  5
34C
330
30
100
AcDbEntity
  8
SK1
100
AcDbLine
 10
28.253339448559
 20
0.0
 30
0.0
 11
30.003339448559
 21
0.0
 31
0.0
  0
ARC
  5
34D
330
30
100
AcDbEntity
  8
SK1
100
AcDbCircle
 10
28.253339448559
 20
0.0
 30
0.0
 40
1.75
100
AcDbArc
 50
0.0
 51
90.0
  0
ARC
  5
34E
330
30
100
AcDbEntity
  8
SK1
100
AcDbCircle
 10
28.253339448559
 20
0.0
 30
0.0
 40
1.75
100
AcDbArc
 50
90.0
 51
180.0
  0
LINE
  5
34F
330
30
100
AcDbEntity
  8
SK1
100
AcDbLine
 10
28.225439448559
 20
0.0
 30
0.0
 11
28.253339448559
 21
-0.0278958
 31
0.0
  0
LINE
  5
350
330
30
100
AcDbEntity
  8
SK1
100
AcDbLine
 10
27.977939448559
 20
0.0
 30
0.0
 11
28.253339448559
 21
-0.275383
 31
0.0
  0
LINE
  5
351
330
30
100
AcDbEntity
  8
SK1
100
AcDbLine
 10
27.730439448559
 20
0.0
 30
0.0
 11
28.253339448559
 21
-0.522871
 31
0.0
  0
LINE
  5
352
330
30
100
AcDbEntity
  8
SK1
100
AcDbLine
 10
27.482939448559
 20
0.0
 30
0.0
 11
28.253339448559
 21
-0.770358
 31
0.0
  0
LINE
  5
353
330
30
100
AcDbEntity
  8
SK1
100
AcDbLine
 10
27.235539448559
 20
0.0
 30
0.0
 11
28.253339448559
 21
-1.01785
 31
0.0
  0
LINE
  5
354
330
30
100
AcDbEntity
  8
SK1
100
AcDbLine
 10
26.988039448559
 20
0.0
 30
0.0
 11
28.253339448559
 21
-1.26533
 31
0.0
  0
LINE
  5
355
330
30
100
AcDbEntity
  8
SK1
100
AcDbLine
 10
26.740539448559
 20
0.0
 30
0.0
 11
28.253339448559
 21
-1.51282
 31
0.0
  0
LINE
  5
356
330
30
100
AcDbEntity
  8
SK1
100
AcDbLine
 10
26.503639448559
 20
-0.0106419
 30
0.0
 11
28.242739448559
 21
-1.74967
 31
0.0
  0
LINE
  5
357
330
30
100
AcDbEntity
  8
SK1
100
AcDbLine
 10
26.526939448559
 20
-0.281429
 30
0.0
 11
27.971939448559
 21
-1.72637
 31
0.0
  0
LINE
  5
358
330
30
100
AcDbEntity
  8
SK1
100
AcDbLine
 10
26.617239448559
 20
-0.619147
 30
0.0
 11
27.634239448559
 21
-1.63613
 31
0.0
  0
LINE
  5
359
330
30
100
AcDbEntity
  8
SK1
100
AcDbLine
 10
26.504739448559
 20
-0.0440984
 30
0.0
 11
26.548839448559
 21
0.0
 31
0.0
  0
LINE
  5
35A
330
30
100
AcDbEntity
  8
SK1
100
AcDbLine
 10
26.525339448559
 20
-0.270991
 30
0.0
 11
26.796339448559
 21
0.0
 31
0.0
  0
LINE
  5
35B
330
30
100
AcDbEntity
  8
SK1
100
AcDbLine
 10
26.569639448559
 20
-0.474162
 30
0.0
 11
27.043839448559
 21
0.0
 31
0.0
  0
LINE
  5
35C
330
30
100
AcDbEntity
  8
SK1
100
AcDbLine
 10
26.632539448559
 20
-0.658762
 30
0.0
 11
27.291239448559
 21
0.0
 31
0.0
  0
LINE
  5
35D
330
30
100
AcDbEntity
  8
SK1
100
AcDbLine
 10
26.711639448559
 20
-0.827105
 30
0.0
 11
27.538739448559
 21
0.0
 31
0.0
  0
LINE
  5
35E
330
30
100
AcDbEntity
  8
SK1
100
AcDbLine
 10
26.805239448559
 20
-0.981039
 30
0.0
 11
27.786239448559
 21
0.0
 31
0.0
  0
LINE
  5
35F
330
30
100
AcDbEntity
  8
SK1
100
AcDbLine
 10
26.911139448559
 20
-1.12257
 30
0.0
 11
28.033739448559
 21
0.0
 31
0.0
  0
LINE
  5
360
330
30
100
AcDbEntity
  8
SK1
100
AcDbLine
 10
27.030439448559
 20
-1.25077
 30
0.0
 11
28.253339448559
 21
-0.0278958
 31
0.0
  0
LINE
  5
361
330
30
100
AcDbEntity
  8
SK1
100
AcDbLine
 10
27.161739448559
 20
-1.36695
 30
0.0
 11
28.253339448559
 21
-0.275383
 31
0.0
  0
LINE
  5
362
330
30
100
AcDbEntity
  8
SK1
100
AcDbLine
 10
27.305539448559
 20
-1.47069
 30
0.0
 11
28.253339448559
 21
-0.522871
 31
0.0
  0
LINE
  5
363
330
30
100
AcDbEntity
  8
SK1
100
AcDbLine
 10
27.463239448559
 20
-1.5605
 30
0.0
 11
28.253339448559
 21
-0.770358
 31
0.0
  0
LINE
  5
364
330
30
100
AcDbEntity
  8
SK1
100
AcDbLine
 10
27.634839448559
 20
-1.63636
 30
0.0
 11
28.253339448559
 21
-1.01785
 31
0.0
  0
LINE
  5
365
330
30
100
AcDbEntity
  8
SK1
100
AcDbLine
 10
27.822639448559
 20
-1.69603
 30
0.0
 11
28.253339448559
 21
-1.26533
 31
0.0
  0
LINE
  5
366
330
30
100
AcDbEntity
  8
SK1
100
AcDbLine
 10
28.030539448559
 20
-1.73565
 30
0.0
 11
28.253339448559
 21
-1.51282
 31
0.0
  0
LINE
  5
367
330
30
100
AcDbEntity
  8
SK1
100
AcDbLine
 10
28.253339448559
 20
0.0
 30
0.0
 11
26.503339448559
 21
0.0
 31
0.0
  0
LINE
  5
368
330
30
100
AcDbEntity
  8
SK1
100
AcDbLine
 10
28.253339448559
 20
-1.75
 30
0.0
 11
28.253339448559
 21
0.0
 31
0.0
  0
ARC
  5
369
330
30
100
AcDbEntity
  8
SK1
100
AcDbCircle
 10
28.253339448559
 20
0.0
 30
0.0
 40
1.75
100
AcDbArc
 50
180.0
 51
270.0
  0
ARC
  5
36A
330
30
100
AcDbEntity
  8
SK1
100
AcDbCircle
 10
28.253339448559
 20
0.0
 30
0.0
 40
1.75
100
AcDbArc
 50
270.0
 51
0.0
  0
LINE
  5
3D9
330
30
100
AcDbEntity
  8
NOCUT
100
AcDbLine
 10
63.688984146635
 20
0.0
 30
0.0
 11
63.688984146635
 21
2.25
 31
0.0
  0
LINE
  5
3DA
330
30
100
AcDbEntity
  8
NOCUT
100
AcDbLine
 10
63.688984146635
 20
2.25
 30
0.0
 11
62.82295874285
 21
1.75
 31
0.0
  0
LINE
  5
3DB
330
30
100
AcDbEntity
  8
NOCUT
100
AcDbLine
 10
62.82295874285
 20
1.75
 30
0.0
 11
47.688984146635
 21
1.75
 31
0.0
  0
LINE
  5
3DC
330
30
100
AcDbEntity
  8
NOCUT
100
AcDbLine
 10
47.688984146635
 20
1.75
 30
0.0
 11
42.689050390976
 21
2.464
 31
0.0
  0
LINE
  5
3DD
330
30
100
AcDbEntity
  8
NOCUT
100
AcDbLine
 10
42.689050390976
 20
2.464
 30
0.0
 11
28.253339448559
 21
2.464
 31
0.0
  0
LINE
  5
3DE
330
30
100
AcDbEntity
  8
NOCUT
100
AcDbLine
 10
28.253339448559
 20
2.464
 30
0.0
 11
28.253339448559
 21
0.0
 31
0.0
  0
LINE
  5
3DF
330
30
100
AcDbEntity
  8
NOCUT
100
AcDbLine
 10
28.253339448559
 20
0.0
 30
0.0
 11
63.688984146635
 21
0.0
 31
0.0
  0
LINE
  5
3E0
330
30
100
AcDbEntity
  8
CUT
100
AcDbLine
 10
74.653339448559
 20
0.0
 30
0.0
 11
72.688984146635
 21
1.8
 31
0.0
  0
LINE
  5
3E1
330
30
100
AcDbEntity
  8
CUT
100
AcDbLine
 10
72.688984146635
 20
1.8
 30
0.0
 11
69.688984146635
 21
2.25
 31
0.0
  0
LINE
  5
3E2
330
30
100
AcDbEntity
  8
CUT
100
AcDbLine
 10
69.688984146635
 20
2.25
 30
0.0
 11
63.688984146635
 21
2.25
 31
0.0
  0
LINE
  5
3E3
330
30
100
AcDbEntity
  8
CUT
100
AcDbLine
 10
63.688984146635
 20
2.25
 30
0.0
 11
63.688984146635
 21
0.0
 31
0.0
  0
LINE
  5
3E4
330
30
100
AcDbEntity
  8
CUT
100
AcDbLine
 10
63.688984146635
 20
0.0
 30
0.0
 11
74.653339448559
 21
0.0
 31
0.0
  0
LINE
  5
3E5
330
30
100
AcDbEntity
  8
4
100
AcDbLine
 10
28.253339448559
 20
0.0
 30
0.0
 11
74.653339448559
 21
0.0
 31
0.0
  0
LINE
  5
3E6
330
30
100
AcDbEntity
  8
SK4
100
AcDbLine
 10
-1.0
 20
0.0
 30
0.0
 11
75.653339448559
 21
0.0
 31
0.0
  0
LINE
  5
3E7
330
30
100
AcDbEntity
  8
1
100
AcDbLine
 10
72.395650813301
 20
1.844
 30
0.0
 11
63.688984146635
 21
1.844
 31
0.0
  0
LINE
  5
3E8
330
30
100
AcDbEntity
  8
1
100
AcDbLine
 10
72.054825361952
 20
1.895123817702
 30
0.0
 11
72.02530901204
 21
1.844
 31
0.0
  0
LINE
  5
3E9
330
30
100
AcDbEntity
  8
1
100
AcDbLine
 10
72.02530901204
 20
1.844
 30
0.0
 11
71.982146579337
 21
1.844
 31
0.0
  0
LINE
  5
3EA
330
30
100
AcDbEntity
  8
1
100
AcDbLine
 10
71.982146579337
 20
1.844
 30
0.0
 11
71.938984146635
 21
1.844
 31
0.0
  0
LINE
  5
3EB
330
30
100
AcDbEntity
  8
1
100
AcDbLine
 10
71.938984146635
 20
1.844
 30
0.0
 11
71.895685916469
 21
1.918994734525
 31
0.0
  0
LINE
  5
3EC
330
30
100
AcDbEntity
  8
1
100
AcDbLine
 10
71.364600581382
 20
1.998657534788
 30
0.0
 11
71.27530901204
 21
1.844
 31
0.0
  0
LINE
  5
3ED
330
30
100
AcDbEntity
  8
1
100
AcDbLine
 10
71.27530901204
 20
1.844
 30
0.0
 11
71.232146579337
 21
1.844
 31
0.0
  0
LINE
  5
3EE
330
30
100
AcDbEntity
  8
1
100
AcDbLine
 10
71.232146579337
 20
1.844
 30
0.0
 11
71.188984146635
 21
1.844
 31
0.0
  0
LINE
  5
3EF
330
30
100
AcDbEntity
  8
1
100
AcDbLine
 10
71.188984146635
 20
1.844
 30
0.0
 11
71.074575684445
 21
2.042161269328
 31
0.0
  0
LINE
  5
3F0
330
30
100
AcDbEntity
  8
1
100
AcDbLine
 10
70.674375800811
 20
2.102191251873
 30
0.0
 11
70.52530901204
 21
1.844
 31
0.0
  0
LINE
  5
3F1
330
30
100
AcDbEntity
  8
1
100
AcDbLine
 10
70.52530901204
 20
1.844
 30
0.0
 11
70.482146579337
 21
1.844
 31
0.0
  0
LINE
  5
3F2
330
30
100
AcDbEntity
  8
1
100
AcDbLine
 10
70.482146579337
 20
1.844
 30
0.0
 11
70.438984146635
 21
1.844
 31
0.0
  0
LINE
  5
3F3
330
30
100
AcDbEntity
  8
1
100
AcDbLine
 10
70.438984146635
 20
1.844
 30
0.0
 11
70.253465452421
 21
2.165327804132
 31
0.0
  0
LINE
  5
3F4
330
30
100
AcDbEntity
  8
1
100
AcDbLine
 10
69.984151020241
 20
2.205724968959
 30
0.0
 11
69.77530901204
 21
1.844
 31
0.0
  0
LINE
  5
3F5
330
30
100
AcDbEntity
  8
1
100
AcDbLine
 10
69.77530901204
 20
1.844
 30
0.0
 11
69.732146579337
 21
1.844
 31
0.0
  0
LINE
  5
3F6
330
30
100
AcDbEntity
  8
1
100
AcDbLine
 10
69.732146579337
 20
1.844
 30
0.0
 11
69.688984146635
 21
1.844
 31
0.0
  0
LINE
  5
3F7
330
30
100
AcDbEntity
  8
1
100
AcDbLine
 10
69.688984146635
 20
1.844
 30
0.0
 11
69.454579937344
 21
2.25
 31
0.0
  0
LINE
  5
3F8
330
30
100
AcDbEntity
  8
1
100
AcDbLine
 10
69.454579937344
 20
2.25
 30
0.0
 11
69.357146579337
 21
2.25
 31
0.0
  0
LINE
  5
3F9
330
30
100
AcDbEntity
  8
1
100
AcDbLine
 10
69.357146579337
 20
2.25
 30
0.0
 11
69.259713221331
 21
2.25
 31
0.0
  0
LINE
  5
3FA
330
30
100
AcDbEntity
  8
1
100
AcDbLine
 10
69.259713221331
 20
2.25
 30
0.0
 11
69.02530901204
 21
1.844
 31
0.0
  0
LINE
  5
3FB
330
30
100
AcDbEntity
  8
1
100
AcDbLine
 10
69.02530901204
 20
1.844
 30
0.0
 11
68.982146579337
 21
1.844
 31
0.0
  0
LINE
  5
3FC
330
30
100
AcDbEntity
  8
1
100
AcDbLine
 10
68.982146579337
 20
1.844
 30
0.0
 11
68.938984146635
 21
1.844
 31
0.0
  0
LINE
  5
3FD
330
30
100
AcDbEntity
  8
1
100
AcDbLine
 10
68.938984146635
 20
1.844
 30
0.0
 11
68.704579937344
 21
2.25
 31
0.0
  0
LINE
  5
3FE
330
30
100
AcDbEntity
  8
1
100
AcDbLine
 10
68.704579937344
 20
2.25
 30
0.0
 11
68.607146579337
 21
2.25
 31
0.0
  0
LINE
  5
3FF
330
30
100
AcDbEntity
  8
1
100
AcDbLine
 10
68.607146579337
 20
2.25
 30
0.0
 11
68.509713221331
 21
2.25
 31
0.0
  0
LINE
  5
400
330
30
100
AcDbEntity
  8
1
100
AcDbLine
 10
68.509713221331
 20
2.25
 30
0.0
 11
68.27530901204
 21
1.844
 31
0.0
  0
LINE
  5
401
330
30
100
AcDbEntity
  8
1
100
AcDbLine
 10
68.27530901204
 20
1.844
 30
0.0
 11
68.232146579337
 21
1.844
 31
0.0
  0
LINE
  5
402
330
30
100
AcDbEntity
  8
1
100
AcDbLine
 10
68.232146579337
 20
1.844
 30
0.0
 11
68.188984146635
 21
1.844
 31
0.0
  0
LINE
  5
403
330
30
100
AcDbEntity
  8
1
100
AcDbLine
 10
68.188984146635
 20
1.844
 30
0.0
 11
67.954579937344
 21
2.25
 31
0.0
  0
LINE
  5
404
330
30
100
AcDbEntity
  8
1
100
AcDbLine
 10
67.954579937344
 20
2.25
 30
0.0
 11
67.857146579337
 21
2.25
 31
0.0
  0
LINE
  5
405
330
30
100
AcDbEntity
  8
1
100
AcDbLine
 10
67.857146579337
 20
2.25
 30
0.0
 11
67.759713221331
 21
2.25
 31
0.0
  0
LINE
  5
406
330
30
100
AcDbEntity
  8
1
100
AcDbLine
 10
67.759713221331
 20
2.25
 30
0.0
 11
67.52530901204
 21
1.844
 31
0.0
  0
LINE
  5
407
330
30
100
AcDbEntity
  8
1
100
AcDbLine
 10
67.52530901204
 20
1.844
 30
0.0
 11
67.482146579337
 21
1.844
 31
0.0
  0
LINE
  5
408
330
30
100
AcDbEntity
  8
1
100
AcDbLine
 10
67.482146579337
 20
1.844
 30
0.0
 11
67.438984146635
 21
1.844
 31
0.0
  0
LINE
  5
409
330
30
100
AcDbEntity
  8
1
100
AcDbLine
 10
67.438984146635
 20
1.844
 30
0.0
 11
67.204579937344
 21
2.25
 31
0.0
  0
LINE
  5
40A
330
30
100
AcDbEntity
  8
1
100
AcDbLine
 10
67.204579937344
 20
2.25
 30
0.0
 11
67.107146579337
 21
2.25
 31
0.0
  0
LINE
  5
40B
330
30
100
AcDbEntity
  8
1
100
AcDbLine
 10
67.107146579337
 20
2.25
 30
0.0
 11
67.009713221331
 21
2.25
 31
0.0
  0
LINE
  5
40C
330
30
100
AcDbEntity
  8
1
100
AcDbLine
 10
67.009713221331
 20
2.25
 30
0.0
 11
66.77530901204
 21
1.844
 31
0.0
  0
LINE
  5
40D
330
30
100
AcDbEntity
  8
1
100
AcDbLine
 10
66.77530901204
 20
1.844
 30
0.0
 11
66.732146579337
 21
1.844
 31
0.0
  0
LINE
  5
40E
330
30
100
AcDbEntity
  8
1
100
AcDbLine
 10
66.732146579337
 20
1.844
 30
0.0
 11
66.688984146635
 21
1.844
 31
0.0
  0
LINE
  5
40F
330
30
100
AcDbEntity
  8
1
100
AcDbLine
 10
66.688984146635
 20
1.844
 30
0.0
 11
66.454579937344
 21
2.25
 31
0.0
  0
LINE
  5
410
330
30
100
AcDbEntity
  8
1
100
AcDbLine
 10
66.454579937344
 20
2.25
 30
0.0
 11
66.357146579337
 21
2.25
 31
0.0
  0
LINE
  5
411
330
30
100
AcDbEntity
  8
1
100
AcDbLine
 10
66.357146579337
 20
2.25
 30
0.0
 11
66.259713221331
 21
2.25
 31
0.0
  0
LINE
  5
412
330
30
100
AcDbEntity
  8
1
100
AcDbLine
 10
66.259713221331
 20
2.25
 30
0.0
 11
66.02530901204
 21
1.844
 31
0.0
  0
LINE
  5
413
330
30
100
AcDbEntity
  8
1
100
AcDbLine
 10
66.02530901204
 20
1.844
 30
0.0
 11
65.982146579337
 21
1.844
 31
0.0
  0
LINE
  5
414
330
30
100
AcDbEntity
  8
1
100
AcDbLine
 10
65.982146579337
 20
1.844
 30
0.0
 11
65.938984146635
 21
1.844
 31
0.0
  0
LINE
  5
415
330
30
100
AcDbEntity
  8
1
100
AcDbLine
 10
65.938984146635
 20
1.844
 30
0.0
 11
65.704579937344
 21
2.25
 31
0.0
  0
LINE
  5
416
330
30
100
AcDbEntity
  8
1
100
AcDbLine
 10
65.704579937344
 20
2.25
 30
0.0
 11
65.607146579337
 21
2.25
 31
0.0
  0
LINE
  5
417
330
30
100
AcDbEntity
  8
1
100
AcDbLine
 10
65.607146579337
 20
2.25
 30
0.0
 11
65.509713221331
 21
2.25
 31
0.0
  0
LINE
  5
418
330
30
100
AcDbEntity
  8
1
100
AcDbLine
 10
65.509713221331
 20
2.25
 30
0.0
 11
65.27530901204
 21
1.844
 31
0.0
  0
LINE
  5
419
330
30
100
AcDbEntity
  8
1
100
AcDbLine
 10
65.27530901204
 20
1.844
 30
0.0
 11
65.232146579337
 21
1.844
 31
0.0
  0
LINE
  5
41A
330
30
100
AcDbEntity
  8
1
100
AcDbLine
 10
65.232146579337
 20
1.844
 30
0.0
 11
65.188984146635
 21
1.844
 31
0.0
  0
LINE
  5
41B
330
30
100
AcDbEntity
  8
1
100
AcDbLine
 10
65.188984146635
 20
1.844
 30
0.0
 11
64.954579937344
 21
2.25
 31
0.0
  0
LINE
  5
41C
330
30
100
AcDbEntity
  8
1
100
AcDbLine
 10
64.954579937344
 20
2.25
 30
0.0
 11
64.857146579337
 21
2.25
 31
0.0
  0
LINE
  5
41D
330
30
100
AcDbEntity
  8
1
100
AcDbLine
 10
64.857146579337
 20
2.25
 30
0.0
 11
64.759713221331
 21
2.25
 31
0.0
  0
LINE
  5
41E
330
30
100
AcDbEntity
  8
1
100
AcDbLine
 10
64.759713221331
 20
2.25
 30
0.0
 11
64.52530901204
 21
1.844
 31
0.0
  0
LINE
  5
41F
330
30
100
AcDbEntity
  8
1
100
AcDbLine
 10
64.52530901204
 20
1.844
 30
0.0
 11
64.482146579337
 21
1.844
 31
0.0
  0
LINE
  5
420
330
30
100
AcDbEntity
  8
1
100
AcDbLine
 10
64.482146579337
 20
1.844
 30
0.0
 11
64.438984146635
 21
1.844
 31
0.0
  0
LINE
  5
421
330
30
100
AcDbEntity
  8
1
100
AcDbLine
 10
64.438984146635
 20
1.844
 30
0.0
 11
64.204579937344
 21
2.25
 31
0.0
  0
LINE
  5
422
330
30
100
AcDbEntity
  8
1
100
AcDbLine
 10
64.204579937344
 20
2.25
 30
0.0
 11
64.107146579337
 21
2.25
 31
0.0
  0
LINE
  5
423
330
30
100
AcDbEntity
  8
1
100
AcDbLine
 10
64.107146579337
 20
2.25
 30
0.0
 11
64.009713221331
 21
2.25
 31
0.0
  0
LINE
  5
424
330
30
100
AcDbEntity
  8
1
100
AcDbLine
 10
64.009713221331
 20
2.25
 30
0.0
 11
63.77530901204
 21
1.844
 31
0.0
  0
LINE
  5
425
330
30
100
AcDbEntity
  8
1
100
AcDbLine
 10
63.77530901204
 20
1.844
 30
0.0
 11
63.732146579337
 21
1.844
 31
0.0
  0
LINE
  5
426
330
30
100
AcDbEntity
  8
1
100
AcDbLine
 10
63.732146579337
 20
1.844
 30
0.0
 11
63.688984146635
 21
1.844
 31
0.0
  0
LINE
  5
427
330
30
100
AcDbEntity
  8
1
100
AcDbLine
 10
72.395650813301
 20
-1.844
 30
0.0
 11
63.688984146635
 21
-1.844
 31
0.0
  0
LINE
  5
428
330
30
100
AcDbEntity
  8
1
100
AcDbLine
 10
72.054825361952
 20
-1.895123817702
 30
0.0
 11
72.02530901204
 21
-1.844
 31
0.0
  0
LINE
  5
429
330
30
100
AcDbEntity
  8
1
100
AcDbLine
 10
72.02530901204
 20
-1.844
 30
0.0
 11
71.982146579337
 21
-1.844
 31
0.0
  0
LINE
  5
42A
330
30
100
AcDbEntity
  8
1
100
AcDbLine
 10
71.982146579337
 20
-1.844
 30
0.0
 11
71.938984146635
 21
-1.844
 31
0.0
  0
LINE
  5
42B
330
30
100
AcDbEntity
  8
1
100
AcDbLine
 10
71.938984146635
 20
-1.844
 30
0.0
 11
71.895685916469
 21
-1.918994734525
 31
0.0
  0
LINE
  5
42C
330
30
100
AcDbEntity
  8
1
100
AcDbLine
 10
71.364600581382
 20
-1.998657534788
 30
0.0
 11
71.27530901204
 21
-1.844
 31
0.0
  0
LINE
  5
42D
330
30
100
AcDbEntity
  8
1
100
AcDbLine
 10
71.27530901204
 20
-1.844
 30
0.0
 11
71.232146579337
 21
-1.844
 31
0.0
  0
LINE
  5
42E
330
30
100
AcDbEntity
  8
1
100
AcDbLine
 10
71.232146579337
 20
-1.844
 30
0.0
 11
71.188984146635
 21
-1.844
 31
0.0
  0
LINE
  5
42F
330
30
100
AcDbEntity
  8
1
100
AcDbLine
 10
71.188984146635
 20
-1.844
 30
0.0
 11
71.074575684445
 21
-2.042161269328
 31
0.0
  0
LINE
  5
430
330
30
100
AcDbEntity
  8
1
100
AcDbLine
 10
70.674375800811
 20
-2.102191251873
 30
0.0
 11
70.52530901204
 21
-1.844
 31
0.0
  0
LINE
  5
431
330
30
100
AcDbEntity
  8
1
100
AcDbLine
 10
70.52530901204
 20
-1.844
 30
0.0
 11
70.482146579337
 21
-1.844
 31
0.0
  0
LINE
  5
432
330
30
100
AcDbEntity
  8
1
100
AcDbLine
 10
70.482146579337
 20
-1.844
 30
0.0
 11
70.438984146635
 21
-1.844
 31
0.0
  0
LINE
  5
433
330
30
100
AcDbEntity
  8
1
100
AcDbLine
 10
70.438984146635
 20
-1.844
 30
0.0
 11
70.253465452421
 21
-2.165327804132
 31
0.0
  0
LINE
  5
434
330
30
100
AcDbEntity
  8
1
100
AcDbLine
 10
69.984151020241
 20
-2.205724968959
 30
0.0
 11
69.77530901204
 21
-1.844
 31
0.0
  0
LINE
  5
435
330
30
100
AcDbEntity
  8
1
100
AcDbLine
 10
69.77530901204
 20
-1.844
 30
0.0
 11
69.732146579337
 21
-1.844
 31
0.0
  0
LINE
  5
436
330
30
100
AcDbEntity
  8
1
100
AcDbLine
 10
69.732146579337
 20
-1.844
 30
0.0
 11
69.688984146635
 21
-1.844
 31
0.0
  0
LINE
  5
437
330
30
100
AcDbEntity
  8
1
100
AcDbLine
 10
69.688984146635
 20
-1.844
 30
0.0
 11
69.454579937344
 21
-2.25
 31
0.0
  0
LINE
  5
438
330
30
100
AcDbEntity
  8
1
100
AcDbLine
 10
69.454579937344
 20
-2.25
 30
0.0
 11
69.357146579337
 21
-2.25
 31
0.0
  0
LINE
  5
439
330
30
100
AcDbEntity
  8
1
100
AcDbLine
 10
69.357146579337
 20
-2.25
 30
0.0
 11
69.259713221331
 21
-2.25
 31
0.0
  0
LINE
  5
43A
330
30
100
AcDbEntity
  8
1
100
AcDbLine
 10
69.259713221331
 20
-2.25
 30
0.0
 11
69.02530901204
 21
-1.844
 31
0.0
  0
LINE
  5
43B
330
30
100
AcDbEntity
  8
1
100
AcDbLine
 10
69.02530901204
 20
-1.844
 30
0.0
 11
68.982146579337
 21
-1.844
 31
0.0
  0
LINE
  5
43C
330
30
100
AcDbEntity
  8
1
100
AcDbLine
 10
68.982146579337
 20
-1.844
 30
0.0
 11
68.938984146635
 21
-1.844
 31
0.0
  0
LINE
  5
43D
330
30
100
AcDbEntity
  8
1
100
AcDbLine
 10
68.938984146635
 20
-1.844
 30
0.0
 11
68.704579937344
 21
-2.25
 31
0.0
  0
LINE
  5
43E
330
30
100
AcDbEntity
  8
1
100
AcDbLine
 10
68.704579937344
 20
-2.25
 30
0.0
 11
68.607146579337
 21
-2.25
 31
0.0
  0
LINE
  5
43F
330
30
100
AcDbEntity
  8
1
100
AcDbLine
 10
68.607146579337
 20
-2.25
 30
0.0
 11
68.509713221331
 21
-2.25
 31
0.0
  0
LINE
  5
440
330
30
100
AcDbEntity
  8
1
100
AcDbLine
 10
68.509713221331
 20
-2.25
 30
0.0
 11
68.27530901204
 21
-1.844
 31
0.0
  0
LINE
  5
441
330
30
100
AcDbEntity
  8
1
100
AcDbLine
 10
68.27530901204
 20
-1.844
 30
0.0
 11
68.232146579337
 21
-1.844
 31
0.0
  0
LINE
  5
442
330
30
100
AcDbEntity
  8
1
100
AcDbLine
 10
68.232146579337
 20
-1.844
 30
0.0
 11
68.188984146635
 21
-1.844
 31
0.0
  0
LINE
  5
443
330
30
100
AcDbEntity
  8
1
100
AcDbLine
 10
68.188984146635
 20
-1.844
 30
0.0
 11
67.954579937344
 21
-2.25
 31
0.0
  0
LINE
  5
444
330
30
100
AcDbEntity
  8
1
100
AcDbLine
 10
67.954579937344
 20
-2.25
 30
0.0
 11
67.857146579337
 21
-2.25
 31
0.0
  0
LINE
  5
445
330
30
100
AcDbEntity
  8
1
100
AcDbLine
 10
67.857146579337
 20
-2.25
 30
0.0
 11
67.759713221331
 21
-2.25
 31
0.0
  0
LINE
  5
446
330
30
100
AcDbEntity
  8
1
100
AcDbLine
 10
67.759713221331
 20
-2.25
 30
0.0
 11
67.52530901204
 21
-1.844
 31
0.0
  0
LINE
  5
447
330
30
100
AcDbEntity
  8
1
100
AcDbLine
 10
67.52530901204
 20
-1.844
 30
0.0
 11
67.482146579337
 21
-1.844
 31
0.0
  0
LINE
  5
448
330
30
100
AcDbEntity
  8
1
100
AcDbLine
 10
67.482146579337
 20
-1.844
 30
0.0
 11
67.438984146635
 21
-1.844
 31
0.0
  0
LINE
  5
449
330
30
100
AcDbEntity
  8
1
100
AcDbLine
 10
67.438984146635
 20
-1.844
 30
0.0
 11
67.204579937344
 21
-2.25
 31
0.0
  0
LINE
  5
44A
330
30
100
AcDbEntity
  8
1
100
AcDbLine
 10
67.204579937344
 20
-2.25
 30
0.0
 11
67.107146579337
 21
-2.25
 31
0.0
  0
LINE
  5
44B
330
30
100
AcDbEntity
  8
1
100
AcDbLine
 10
67.107146579337
 20
-2.25
 30
0.0
 11
67.009713221331
 21
-2.25
 31
0.0
  0
LINE
  5
44C
330
30
100
AcDbEntity
  8
1
100
AcDbLine
 10
67.009713221331
 20
-2.25
 30
0.0
 11
66.77530901204
 21
-1.844
 31
0.0
  0
LINE
  5
44D
330
30
100
AcDbEntity
  8
1
100
AcDbLine
 10
66.77530901204
 20
-1.844
 30
0.0
 11
66.732146579337
 21
-1.844
 31
0.0
  0
LINE
  5
44E
330
30
100
AcDbEntity
  8
1
100
AcDbLine
 10
66.732146579337
 20
-1.844
 30
0.0
 11
66.688984146635
 21
-1.844
 31
0.0
  0
LINE
  5
44F
330
30
100
AcDbEntity
  8
1
100
AcDbLine
 10
66.688984146635
 20
-1.844
 30
0.0
 11
66.454579937344
 21
-2.25
 31
0.0
  0
LINE
  5
450
330
30
100
AcDbEntity
  8
1
100
AcDbLine
 10
66.454579937344
 20
-2.25
 30
0.0
 11
66.357146579337
 21
-2.25
 31
0.0
  0
LINE
  5
451
330
30
100
AcDbEntity
  8
1
100
AcDbLine
 10
66.357146579337
 20
-2.25
 30
0.0
 11
66.259713221331
 21
-2.25
 31
0.0
  0
LINE
  5
452
330
30
100
AcDbEntity
  8
1
100
AcDbLine
 10
66.259713221331
 20
-2.25
 30
0.0
 11
66.02530901204
 21
-1.844
 31
0.0
  0
LINE
  5
453
330
30
100
AcDbEntity
  8
1
100
AcDbLine
 10
66.02530901204
 20
-1.844
 30
0.0
 11
65.982146579337
 21
-1.844
 31
0.0
  0
LINE
  5
454
330
30
100
AcDbEntity
  8
1
100
AcDbLine
 10
65.982146579337
 20
-1.844
 30
0.0
 11
65.938984146635
 21
-1.844
 31
0.0
  0
LINE
  5
455
330
30
100
AcDbEntity
  8
1
100
AcDbLine
 10
65.938984146635
 20
-1.844
 30
0.0
 11
65.704579937344
 21
-2.25
 31
0.0
  0
LINE
  5
456
330
30
100
AcDbEntity
  8
1
100
AcDbLine
 10
65.704579937344
 20
-2.25
 30
0.0
 11
65.607146579337
 21
-2.25
 31
0.0
  0
LINE
  5
457
330
30
100
AcDbEntity
  8
1
100
AcDbLine
 10
65.607146579337
 20
-2.25
 30
0.0
 11
65.509713221331
 21
-2.25
 31
0.0
  0
LINE
  5
458
330
30
100
AcDbEntity
  8
1
100
AcDbLine
 10
65.509713221331
 20
-2.25
 30
0.0
 11
65.27530901204
 21
-1.844
 31
0.0
  0
LINE
  5
459
330
30
100
AcDbEntity
  8
1
100
AcDbLine
 10
65.27530901204
 20
-1.844
 30
0.0
 11
65.232146579337
 21
-1.844
 31
0.0
  0
LINE
  5
45A
330
30
100
AcDbEntity
  8
1
100
AcDbLine
 10
65.232146579337
 20
-1.844
 30
0.0
 11
65.188984146635
 21
-1.844
 31
0.0
  0
LINE
  5
45B
330
30
100
AcDbEntity
  8
1
100
AcDbLine
 10
65.188984146635
 20
-1.844
 30
0.0
 11
64.954579937344
 21
-2.25
 31
0.0
  0
LINE
  5
45C
330
30
100
AcDbEntity
  8
1
100
AcDbLine
 10
64.954579937344
 20
-2.25
 30
0.0
 11
64.857146579337
 21
-2.25
 31
0.0
  0
LINE
  5
45D
330
30
100
AcDbEntity
  8
1
100
AcDbLine
 10
64.857146579337
 20
-2.25
 30
0.0
 11
64.759713221331
 21
-2.25
 31
0.0
  0
LINE
  5
45E
330
30
100
AcDbEntity
  8
1
100
AcDbLine
 10
64.759713221331
 20
-2.25
 30
0.0
 11
64.52530901204
 21
-1.844
 31
0.0
  0
LINE
  5
45F
330
30
100
AcDbEntity
  8
1
100
AcDbLine
 10
64.52530901204
 20
-1.844
 30
0.0
 11
64.482146579337
 21
-1.844
 31
0.0
  0
LINE
  5
460
330
30
100
AcDbEntity
  8
1
100
AcDbLine
 10
64.482146579337
 20
-1.844
 30
0.0
 11
64.438984146635
 21
-1.844
 31
0.0
  0
LINE
  5
461
330
30
100
AcDbEntity
  8
1
100
AcDbLine
 10
64.438984146635
 20
-1.844
 30
0.0
 11
64.204579937344
 21
-2.25
 31
0.0
  0
LINE
  5
462
330
30
100
AcDbEntity
  8
1
100
AcDbLine
 10
64.204579937344
 20
-2.25
 30
0.0
 11
64.107146579337
 21
-2.25
 31
0.0
  0
LINE
  5
463
330
30
100
AcDbEntity
  8
1
100
AcDbLine
 10
64.107146579337
 20
-2.25
 30
0.0
 11
64.009713221331
 21
-2.25
 31
0.0
  0
LINE
  5
464
330
30
100
AcDbEntity
  8
1
100
AcDbLine
 10
64.009713221331
 20
-2.25
 30
0.0
 11
63.77530901204
 21
-1.844
 31
0.0
  0
LINE
  5
465
330
30
100
AcDbEntity
  8
1
100
AcDbLine
 10
63.77530901204
 20
-1.844
 30
0.0
 11
63.732146579337
 21
-1.844
 31
0.0
  0
LINE
  5
466
330
30
100
AcDbEntity
  8
1
100
AcDbLine
 10
63.732146579337
 20
-1.844
 30
0.0
 11
63.688984146635
 21
-1.844
 31
0.0
  0
LINE
  5
467
330
30
100
AcDbEntity
  8
SK1
100
AcDbLine
 10
9.088984146635
 20
1.09928391231
 30
0.0
 11
9.088984146635
 21
2.464
 31
0.0
  0
LINE
  5
468
330
30
100
AcDbEntity
  8
SK1
100
AcDbLine
 10
9.088984146635
 20
2.464
 30
0.0
 11
2.688984146635
 21
2.464
 31
0.0
  0
LINE
  5
469
330
30
100
AcDbEntity
  8
SK1
100
AcDbLine
 10
2.688984146635
 20
2.464
 30
0.0
 11
2.688984146635
 21
1.09928391231
 31
0.0
  0
LINE
  5
46A
330
30
100
AcDbEntity
  8
SK1
100
AcDbLine
 10
2.688984146635
 20
1.09928391231
 30
0.0
 11
9.088984146635
 21
1.09928391231
 31
0.0
  0
LINE
  5
46B
330
30
100
AcDbEntity
  8
SK1
100
AcDbLine
 10
9.088984146635
 20
1.09928391231
 30
0.0
 11
2.688984146635
 21
2.464
 31
0.0
  0
LINE
  5
46C
330
30
100
AcDbEntity
  8
SK1
100
AcDbLine
 10
9.088984146635
 20
2.464
 30
0.0
 11
2.688984146635
 21
1.09928391231
 31
0.0
  0
LINE
  5
46D
330
30
100
AcDbEntity
  8
SK1
100
AcDbLine
 10
9.088984146635
 20
-1.09928391231
 30
0.0
 11
9.088984146635
 21
-2.464
 31
0.0
  0
LINE
  5
46E
330
30
100
AcDbEntity
  8
SK1
100
AcDbLine
 10
9.088984146635
 20
-2.464
 30
0.0
 11
2.688984146635
 21
-2.464
 31
0.0
  0
LINE
  5
46F
330
30
100
AcDbEntity
  8
SK1
100
AcDbLine
 10
2.688984146635
 20
-2.464
 30
0.0
 11
2.688984146635
 21
-1.09928391231
 31
0.0
  0
LINE
  5
470
330
30
100
AcDbEntity
  8
SK1
100
AcDbLine
 10
2.688984146635
 20
-1.09928391231
 30
0.0
 11
9.088984146635
 21
-1.09928391231
 31
0.0
  0
LINE
  5
471
330
30
100
AcDbEntity
  8
SK1
100
AcDbLine
 10
9.088984146635
 20
-1.09928391231
 30
0.0
 11
2.688984146635
 21
-2.464
 31
0.0
  0
LINE
  5
472
330
30
100
AcDbEntity
  8
SK1
100
AcDbLine
 10
9.088984146635
 20
-2.464
 30
0.0
 11
2.688984146635
 21
-1.09928391231
 31
0.0
  0
LINE
  5
473
330
30
100
AcDbEntity
  8
INFTOTAL
100
AcDbLine
 10
-15.0
 20
45.0
 30
0.0
 11
120.0
 21
45.0
 31
0.0
  0
LINE
  5
474
330
30
100
AcDbEntity
  8
INFTOTAL
100
AcDbLine
 10
120.0
 20
45.0
 30
0.0
 11
120.0
 21
-45.0
 31
0.0
  0
LINE
  5
475
330
30
100
AcDbEntity
  8
INFTOTAL
100
AcDbLine
 10
120.0
 20
-45.0
 30
0.0
 11
-15.0
 21
-45.0
 31
0.0
  0
LINE
  5
476
330
30
100
AcDbEntity
  8
INFTOTAL
100
AcDbLine
 10
-15.0
 20
-45.0
 30
0.0
 11
-15.0
 21
45.0
 31
0.0
  0
DIMENSION
  5
106AC06
330
30
100
AcDbEntity
  8
2
100
AcDbDimension
  2
*D9
 10
69.688984146635
 20
-16.0
 30
0.0
 11
80.710484146635
 21
-16.0
 31
0.0
 70
   160
  1
<>
 71
     5
 42
3.0
  3
STANDARD
100
AcDbAlignedDimension
 13
72.688984146635
 23
-1.8
 33
0.0
 14
69.688984146635
 24
-2.25
 34
0.0
100
AcDbRotatedDimension
1001
ACAD
1000
DSTYLE
1002
{
1070
   271
1070
     0
1070
   279
1070
     0
1070
    74
1070
     0
1002
}
  0
DIMENSION
  5
106AC34
330
30
100
AcDbEntity
  8
2
100
AcDbDimension
  2
*D12
 10
100.0
 20
1.800000000000002
 30
0.0
 11
100.0
 21
14.45724999999999
 31
0.0
 70
   160
  1
%%c<>
 71
     5
 42
3.6
  3
STANDARD
100
AcDbAlignedDimension
 13
72.688984146635
 23
-1.8
 33
0.0
 14
72.688984146635
 24
1.8
 34
0.0
 50
-90.0
100
AcDbRotatedDimension
1001
ACAD
1000
DSTYLE
1002
{
1070
   271
1070
     1
1070
   279
1070
     0
1070
    74
1070
     0
1002
}
  0
DIMENSION
  5
106AC62
330
30
100
AcDbEntity
  8
2
100
AcDbDimension
  2
*D15
 10
108.0
 20
2.250000000000004
 30
0.0
 11
108.0
 21
22.399
 31
0.0
 70
   160
  1
M4.5X0.75
 71
     5
 42
4.5
  3
STANDARD
100
AcDbAlignedDimension
 13
69.688984146635
 23
-2.25
 33
0.0
 14
69.688984146635
 24
2.25
 34
0.0
 50
-90.0
100
AcDbRotatedDimension
1001
ACAD
1000
DSTYLE
1002
{
1070
   271
1070
     1
1070
   279
1070
     0
1070
    74
1070
     0
1002
}
  0
DIMENSION
  5
106AC8D
330
30
100
AcDbEntity
  8
SK2
100
AcDbDimension
  2
*D18
 10
2.688984146635001
 20
35.0
 30
0.0
 11
15.471161797597
 21
35.0
 31
0.0
 70
   160
  1
<>
 71
     5
 42
25.564355301924
  3
STANDARD
100
AcDbAlignedDimension
 13
28.253339448559
 23
2.464
 33
0.0
 14
2.688984146635
 24
2.464
 34
0.0
100
AcDbRotatedDimension
1001
ACAD
1000
DSTYLE
1002
{
1070
   271
1070
     1
1070
   279
1070
     0
1070
    74
1070
     0
1002
}
  0
ENDSEC
  0
SECTION
  2
OBJECTS
  0
DICTIONARY
  5
477
330
0
100
AcDbDictionary
281
     1
  3
ACAD_GROUP
350
478
  3
ACAD_IMAGE_VARS
350
106ABDF
  3
ACAD_LAYOUT
350
106AB97
  3
ACAD_MATERIAL
350
106ABBC
  3
ACAD_MLEADERSTYLE
350
106ABDB
  3
ACAD_MLINESTYLE
350
106AB92
  3
ACAD_PLOTSETTINGS
350
106AB94
  3
ACAD_PLOTSTYLENAME
350
106AB95
  3
ACAD_SCALELIST
350
106AB9A
  3
ACAD_TABLESTYLE
350
106ABD9
  3
ACAD_VISUALSTYLE
350
106ABC0
  3
AcDbVariableDictionary
350
106AC9C
  3
APPDATA
350
106ABDD
  3
DWGPROPS
350
106ACA3
  3
PRINTCONFIG
350
106ABE0
  0
DICTIONARY
  5
106ACA4
330
2
100
AcDbDictionary
280
     1
281
     1
  3
ACAD_XREC_ROUNDTRIP
360
106ACA5
  0
DICTIONARY
  5
106AC9A
330
30
100
AcDbDictionary
280
     1
281
     1
  3
DIM_BOUNDING_BOXES_V1
360
106AC9B
  0
DICTIONARY
  5
478
102
{ACAD_REACTORS
330
477
102
}
330
477
100
AcDbDictionary
281
     1
  0
RASTERVARIABLES
  5
106ABDF
102
{ACAD_REACTORS
330
477
102
}
330
477
100
AcDbRasterVariables
 90
        0
 70
     1
 71
     1
 72
     0
  0
DICTIONARY
  5
106AB97
102
{ACAD_REACTORS
330
477
102
}
330
477
100
AcDbDictionary
281
     1
  3
Model
350
106AB98
  3
シート 1
350
106AB99
  0
DICTIONARY
  5
106ABBC
102
{ACAD_REACTORS
330
477
102
}
330
477
100
AcDbDictionary
281
     1
  3
ByBlock
350
106ABBE
  3
ByLayer
350
106ABBD
  3
Global
350
106ABBF
  0
DICTIONARY
  5
106ABDB
102
{ACAD_REACTORS
330
477
102
}
330
477
100
AcDbDictionary
281
     1
  3
Standard
350
106ABDC
  0
DICTIONARY
  5
106AB92
102
{ACAD_REACTORS
330
477
102
}
330
477
100
AcDbDictionary
281
     1
  3
Standard
350
106AB93
  0
DICTIONARY
  5
106AB94
102
{ACAD_REACTORS
330
477
102
}
330
477
100
AcDbDictionary
281
     1
  0
ACDBDICTIONARYWDFLT
  5
106AB95
102
{ACAD_REACTORS
330
477
102
}
330
477
100
AcDbDictionary
281
     1
  3
Normal
350
106AB96
100
AcDbDictionaryWithDefault
340
106AB96
  0
DICTIONARY
  5
106AB9A
102
{ACAD_REACTORS
330
477
102
}
330
477
100
AcDbDictionary
281
     1
  3
A0
350
106AB9B
  3
A1
350
106AB9C
  3
A2
350
106AB9D
  3
A3
350
106AB9E
  3
A4
350
106AB9F
  3
A5
350
106ABA0
  3
A6
350
106ABA1
  3
A7
350
106ABA2
  3
A8
350
106ABA3
  3
A9
350
106ABA4
  3
B0
350
106ABA5
  3
B1
350
106ABA6
  3
B2
350
106ABA7
  3
B3
350
106ABA8
  3
B4
350
106ABA9
  3
B5
350
106ABAA
  3
B6
350
106ABAB
  3
B7
350
106ABAC
  3
B8
350
106ABAD
  3
B9
350
106ABAE
  3
C0
350
106ABAF
  3
C1
350
106ABB0
  3
C2
350
106ABB1
  3
C3
350
106ABB2
  3
C4
350
106ABB3
  3
C5
350
106ABB4
  3
C6
350
106ABB5
  3
C7
350
106ABB6
  3
C8
350
106ABB7
  3
C9
350
106ABB8
  3
D0
350
106ABB9
  3
D1
350
106ABBA
  3
D2
350
106ABBB
  0
DICTIONARY
  5
106ABD9
102
{ACAD_REACTORS
330
477
102
}
330
477
100
AcDbDictionary
281
     1
  3
Standard
350
106ABDA
  0
DICTIONARY
  5
106ABC0
102
{ACAD_REACTORS
330
477
102
}
330
477
100
AcDbDictionary
281
     1
  3
2dWireframe
350
106ABC5
  3
Basic
350
106ABC8
  3
Brighten
350
106ABCC
  3
ColorChange
350
106ABD0
  3
Conceptual
350
106ABCA
  3
Dim
350
106ABCB
  3
EdgeColorOff
350
106ABD3
  3
Facepattern
350
106ABCF
  3
Flat
350
106ABC1
  3
FlatWithEdges
350
106ABC2
  3
Gouraud
350
106ABC3
  3
GouraudWithEdges
350
106ABC4
  3
Hidden
350
106ABC7
  3
JitterOff
350
106ABD1
  3
Linepattern
350
106ABCE
  3
OverhangOff
350
106ABD2
  3
Realistic
350
106ABC9
  3
Shaded
350
106ABD8
  3
Shaded with edges
350
106ABD7
  3
Shades of Gray
350
106ABD4
  3
Sketchy
350
106ABD5
  3
Thicken
350
106ABCD
  3
Wireframe
350
106ABC6
  3
X-Ray
350
106ABD6
  0
DICTIONARY
  5
106AC9C
102
{ACAD_REACTORS
330
477
102
}
330
477
100
AcDbDictionary
281
     1
  3
CANNOSCALE
350
106ACA6
  3
CMLEADERSTYLE
350
106AC9E
  3
CTABLESTYLE
350
106AC9D
  3
DIMASSOC
350
106ACA1
  3
HIDETEXT
350
106ACA2
  3
MSLTSCALE
350
106ACA7
  0
DICTIONARY
  5
106ABDD
102
{ACAD_REACTORS
330
477
102
}
330
477
100
AcDbDictionary
281
     1
  0
XRECORD
  5
106ACA3
102
{ACAD_REACTORS
330
477
102
}
330
477
100
AcDbXrecord
280
     1
  1
DWGPROPS COOKIE
  2

  3

  4

  6

  7

  8
usr2460
  9

300
=
301
=
302
=
303
=
304
=
305
=
306
=
307
=
308
=
309
=
 40
0.0
 41
0.0
 42
2460864.263495718
  1

 90
        0
  0
DICTIONARYVAR
  5
106ABE0
102
{ACAD_REACTORS
330
477
102
}
330
477
100
DictionaryVariables
280
     0
  1
0
  0
XRECORD
  5
106ACA5
102
{ACAD_REACTORS
330
106ACA4
102
}
330
106ACA4
100
AcDbXrecord
280
     1
102
VTR_0.000_0.000_1.000_1.000_GRIDDISPLAY
 70
     3
102
VTR_0.000_0.000_1.000_1.000_GRIDMAJOR
 70
     5
102
VTR_0.000_0.000_1.000_1.000_DEFAULTLIGHTING
280
     1
102
VTR_0.000_0.000_1.000_1.000_DEFAULTLIGHTINGTYPE
 70
     1
102
VTR_0.000_0.000_1.000_1.000_BRIGHTNESS
141
0.0
102
VTR_0.000_0.000_1.000_1.000_CONTRAST
142
0.0
  0
DICTIONARY
  5
106AC9B
102
{ACAD_REACTORS
330
106AC9A
102
}
330
106AC9A
100
AcDbDictionary
281
     1
  0
LAYOUT
  5
106AB98
102
{ACAD_REACTORS
330
106AB97
102
}
330
106AB97
100
AcDbPlotSettings
  1

  2
none_device
  4
Letter_(8.50_x_11.00_Inches)
  6

 40
6.35
 41
6.35
 42
6.35
 43
6.35
 44
215.9
 45
279.4
 46
0.0
 47
0.0
 48
0.0
 49
0.0
140
0.0
141
0.0
142
1.0
143
2.21959459445662
 70
  1712
 72
     0
 73
     0
 74
     0
  7

 75
     0
147
0.4505327245333333
148
-39.40881537143161
149
0.0
100
AcDbLayout
  1
Model
 70
     1
 71
     0
 10
0.0
 20
0.0
 11
12.0
 21
9.0
 12
0.0
 22
0.0
 32
0.0
 14
-15.0
 24
-45.0
 34
0.0
 15
120.0
 25
45.0
 35
0.0
146
0.0
 13
0.0
 23
0.0
 33
0.0
 16
1.0
 26
0.0
 36
0.0
 17
0.0
 27
1.0
 37
0.0
 76
     0
330
30
331
106AB91
  0
LAYOUT
  5
106AB99
102
{ACAD_REACTORS
330
106AB97
102
}
330
106AB97
100
AcDbPlotSettings
  1

  2
none_device
  4

  6

 40
0.0
 41
0.0
 42
0.0
 43
0.0
 44
0.0
 45
0.0
 46
0.0
 47
0.0
 48
0.0
 49
0.0
140
0.0
141
0.0
142
1.0
143
1.0
 70
   688
 72
     0
 73
     0
 74
     5
  7

 75
    16
147
1.0
148
0.0
149
0.0
100
AcDbLayout
  1
シート 1
 70
     1
 71
     1
 10
0.0
 20
0.0
 11
0.0
 21
0.0
 12
0.0
 22
0.0
 32
0.0
 14
1.000000000000000E+20
 24
1.000000000000000E+20
 34
1.000000000000000E+20
 15
-1.000000000000000E+20
 25
-1.000000000000000E+20
 35
-1.000000000000000E+20
146
0.0
 13
0.0
 23
0.0
 33
0.0
 16
1.0
 26
0.0
 36
0.0
 17
0.0
 27
1.0
 37
0.0
 76
     0
330
31
  0
MATERIAL
  5
106ABBE
102
{ACAD_REACTORS
330
106ABBC
102
}
102
{ACAD_XDICTIONARY
360
106ACAA
102
}
330
106ABBC
100
AcDbMaterial
  1
ByBlock
  0
MATERIAL
  5
106ABBD
102
{ACAD_REACTORS
330
106ABBC
102
}
102
{ACAD_XDICTIONARY
360
106ACA8
102
}
330
106ABBC
100
AcDbMaterial
  1
ByLayer
  0
MATERIAL
  5
106ABBF
102
{ACAD_REACTORS
330
106ABBC
102
}
102
{ACAD_XDICTIONARY
360
106ACAC
102
}
330
106ABBC
100
AcDbMaterial
  1
Global
  0
MLEADERSTYLE
  5
106ABDC
102
{ACAD_REACTORS
330
106ABDB
102
}
102
{ACAD_XDICTIONARY
360
106ACDF
102
}
330
106ABDB
100
AcDbMLeaderStyle
170
     2
171
     1
172
     0
 90
        2
 40
0.0
 41
0.0
173
     1
 91
-1056964608
340
4
 92
       -2
290
     1
 42
0.09
291
     1
 43
0.36
  3
Standard
341
0
 44
0.18
300

342
28
174
     1
178
     1
175
     1
176
     0
 93
-1056964608
 45
0.18
292
     0
297
     0
 46
0.18
343
0
 94
-1056964608
 47
1.0
 49
1.0
140
1.0
293
     1
141
0.0
294
     1
177
     0
142
1.0
295
     0
296
     0
143
0.125
1001
ACAD_MLEADERVER
1070
     2
  0
MLINESTYLE
  5
106AB93
102
{ACAD_REACTORS
330
106AB92
102
}
330
106AB92
100
AcDbMlineStyle
  2
Standard
 70
     0
  3

 62
   256
 51
90.0
 52
90.0
 71
     2
 49
0.5
 62
   256
  6
BYLAYER
 49
-0.5
 62
   256
  6
BYLAYER
  0
ACDBPLACEHOLDER
  5
106AB96
102
{ACAD_REACTORS
330
106AB95
102
}
330
106AB95
  0
SCALE
  5
106AB9B
102
{ACAD_REACTORS
330
106AB9A
102
}
330
106AB9A
100
AcDbScale
 70
     0
300
1:1
140
1.0
141
1.0
290
     1
  0
SCALE
  5
106AB9C
102
{ACAD_REACTORS
330
106AB9A
102
}
330
106AB9A
100
AcDbScale
 70
     0
300
1:2
140
1.0
141
2.0
290
     0
  0
SCALE
  5
106AB9D
102
{ACAD_REACTORS
330
106AB9A
102
}
330
106AB9A
100
AcDbScale
 70
     0
300
1:4
140
1.0
141
4.0
290
     0
  0
SCALE
  5
106AB9E
102
{ACAD_REACTORS
330
106AB9A
102
}
330
106AB9A
100
AcDbScale
 70
     0
300
1:5
140
1.0
141
5.0
290
     0
  0
SCALE
  5
106AB9F
102
{ACAD_REACTORS
330
106AB9A
102
}
330
106AB9A
100
AcDbScale
 70
     0
300
1:8
140
1.0
141
8.0
290
     0
  0
SCALE
  5
106ABA0
102
{ACAD_REACTORS
330
106AB9A
102
}
330
106AB9A
100
AcDbScale
 70
     0
300
1:10
140
1.0
141
10.0
290
     0
  0
SCALE
  5
106ABA1
102
{ACAD_REACTORS
330
106AB9A
102
}
330
106AB9A
100
AcDbScale
 70
     0
300
1:16
140
1.0
141
16.0
290
     0
  0
SCALE
  5
106ABA2
102
{ACAD_REACTORS
330
106AB9A
102
}
330
106AB9A
100
AcDbScale
 70
     0
300
1:20
140
1.0
141
20.0
290
     0
  0
SCALE
  5
106ABA3
102
{ACAD_REACTORS
330
106AB9A
102
}
330
106AB9A
100
AcDbScale
 70
     0
300
1:30
140
1.0
141
30.0
290
     0
  0
SCALE
  5
106ABA4
102
{ACAD_REACTORS
330
106AB9A
102
}
330
106AB9A
100
AcDbScale
 70
     0
300
1:40
140
1.0
141
40.0
290
     0
  0
SCALE
  5
106ABA5
102
{ACAD_REACTORS
330
106AB9A
102
}
330
106AB9A
100
AcDbScale
 70
     0
300
1:50
140
1.0
141
50.0
290
     0
  0
SCALE
  5
106ABA6
102
{ACAD_REACTORS
330
106AB9A
102
}
330
106AB9A
100
AcDbScale
 70
     0
300
1:100
140
1.0
141
100.0
290
     0
  0
SCALE
  5
106ABA7
102
{ACAD_REACTORS
330
106AB9A
102
}
330
106AB9A
100
AcDbScale
 70
     0
300
2:1
140
2.0
141
1.0
290
     0
  0
SCALE
  5
106ABA8
102
{ACAD_REACTORS
330
106AB9A
102
}
330
106AB9A
100
AcDbScale
 70
     0
300
4:1
140
4.0
141
1.0
290
     0
  0
SCALE
  5
106ABA9
102
{ACAD_REACTORS
330
106AB9A
102
}
330
106AB9A
100
AcDbScale
 70
     0
300
8:1
140
8.0
141
1.0
290
     0
  0
SCALE
  5
106ABAA
102
{ACAD_REACTORS
330
106AB9A
102
}
330
106AB9A
100
AcDbScale
 70
     0
300
10:1
140
10.0
141
1.0
290
     0
  0
SCALE
  5
106ABAB
102
{ACAD_REACTORS
330
106AB9A
102
}
330
106AB9A
100
AcDbScale
 70
     0
300
100:1
140
100.0
141
1.0
290
     0
  0
SCALE
  5
106ABAC
102
{ACAD_REACTORS
330
106AB9A
102
}
330
106AB9A
100
AcDbScale
 70
     0
300
1/128" = 1'-0"
140
0.0078125
141
12.0
290
     0
  0
SCALE
  5
106ABAD
102
{ACAD_REACTORS
330
106AB9A
102
}
330
106AB9A
100
AcDbScale
 70
     0
300
1/64" = 1'-0"
140
0.015625
141
12.0
290
     0
  0
SCALE
  5
106ABAE
102
{ACAD_REACTORS
330
106AB9A
102
}
330
106AB9A
100
AcDbScale
 70
     0
300
1/32" = 1'-0"
140
0.03125
141
12.0
290
     0
  0
SCALE
  5
106ABAF
102
{ACAD_REACTORS
330
106AB9A
102
}
330
106AB9A
100
AcDbScale
 70
     0
300
1/16" = 1'-0"
140
0.0625
141
12.0
290
     0
  0
SCALE
  5
106ABB0
102
{ACAD_REACTORS
330
106AB9A
102
}
330
106AB9A
100
AcDbScale
 70
     0
300
3/32" = 1'-0"
140
0.09375
141
12.0
290
     0
  0
SCALE
  5
106ABB1
102
{ACAD_REACTORS
330
106AB9A
102
}
330
106AB9A
100
AcDbScale
 70
     0
300
1/8" = 1'-0"
140
0.125
141
12.0
290
     0
  0
SCALE
  5
106ABB2
102
{ACAD_REACTORS
330
106AB9A
102
}
330
106AB9A
100
AcDbScale
 70
     0
300
3/16" = 1'-0"
140
0.1875
141
12.0
290
     0
  0
SCALE
  5
106ABB3
102
{ACAD_REACTORS
330
106AB9A
102
}
330
106AB9A
100
AcDbScale
 70
     0
300
1/4" = 1'-0"
140
0.25
141
12.0
290
     0
  0
SCALE
  5
106ABB4
102
{ACAD_REACTORS
330
106AB9A
102
}
330
106AB9A
100
AcDbScale
 70
     0
300
3/8" = 1'-0"
140
0.375
141
12.0
290
     0
  0
SCALE
  5
106ABB5
102
{ACAD_REACTORS
330
106AB9A
102
}
330
106AB9A
100
AcDbScale
 70
     0
300
1/2" = 1'-0"
140
0.5
141
12.0
290
     0
  0
SCALE
  5
106ABB6
102
{ACAD_REACTORS
330
106AB9A
102
}
330
106AB9A
100
AcDbScale
 70
     0
300
3/4" = 1'-0"
140
0.75
141
12.0
290
     0
  0
SCALE
  5
106ABB7
102
{ACAD_REACTORS
330
106AB9A
102
}
330
106AB9A
100
AcDbScale
 70
     0
300
1" = 1'-0"
140
1.0
141
12.0
290
     0
  0
SCALE
  5
106ABB8
102
{ACAD_REACTORS
330
106AB9A
102
}
330
106AB9A
100
AcDbScale
 70
     0
300
1-1/2" = 1'-0"
140
1.5
141
12.0
290
     0
  0
SCALE
  5
106ABB9
102
{ACAD_REACTORS
330
106AB9A
102
}
330
106AB9A
100
AcDbScale
 70
     0
300
3" = 1'-0"
140
3.0
141
12.0
290
     0
  0
SCALE
  5
106ABBA
102
{ACAD_REACTORS
330
106AB9A
102
}
330
106AB9A
100
AcDbScale
 70
     0
300
6" = 1'-0"
140
6.0
141
12.0
290
     0
  0
SCALE
  5
106ABBB
102
{ACAD_REACTORS
330
106AB9A
102
}
330
106AB9A
100
AcDbScale
 70
     0
300
1'-0" = 1'-0"
140
12.0
141
12.0
290
     0
  0
TABLESTYLE
  5
106ABDA
102
{ACAD_REACTORS
330
106ABD9
102
}
330
106ABD9
100
AcDbTableStyle
  3
Standard
 70
     0
 71
     0
 40
0.06
 41
0.06
280
     0
281
     0
  7
Monospac821 BT
140
0.18
170
     2
 62
     0
 63
   257
283
     0
274
    -2
284
     1
 64
     0
275
    -2
285
     1
 65
     0
276
    -2
286
     1
 66
     0
277
    -2
287
     1
 67
     0
278
    -2
288
     1
 68
     0
279
    -2
289
     1
 69
     0
  7
Monospac821 BT
140
0.25
170
     5
 62
     0
 63
   257
283
     0
274
    -2
284
     1
 64
     0
275
    -2
285
     1
 65
     0
276
    -2
286
     1
 66
     0
277
    -2
287
     1
 67
     0
278
    -2
288
     1
 68
     0
279
    -2
289
     1
 69
     0
  7
Monospac821 BT
140
0.18
170
     5
 62
     0
 63
   257
283
     0
274
    -2
284
     1
 64
     0
275
    -2
285
     1
 65
     0
276
    -2
286
     1
 66
     0
277
    -2
287
     1
 67
     0
278
    -2
288
     1
 68
     0
279
    -2
289
     1
 69
     0
  0
VISUALSTYLE
  5
106ABC5
102
{ACAD_REACTORS
330
106ABC0
102
}
102
{ACAD_XDICTIONARY
360
106ACB6
102
}
330
106ABC0
100
AcDbVisualStyle
  2
2dWireframe
 70
     4
 71
     0
 72
     2
 73
     0
 90
        0
 40
0.6
 41
30.0
 62
     5
 63
     7
 74
     1
 91
        4
 64
     7
 65
   257
 75
     1
175
     1
 42
1.0
 92
        0
 66
   257
 43
1.0
 76
     1
 77
     6
 78
     2
 67
     7
 79
     5
170
     0
171
     0
290
     0
174
     0
 93
        1
 44
0.0
173
     0
291
     0
 45
0.0
1001
ACAD
1000
AcDbSavedByObjectVersion
1070
     0
  0
VISUALSTYLE
  5
106ABC8
102
{ACAD_REACTORS
330
106ABC0
102
}
102
{ACAD_XDICTIONARY
360
106ACBC
102
}
330
106ABC0
100
AcDbVisualStyle
  2
Basic
 70
     7
 71
     1
 72
     0
 73
     1
 90
        0
 40
0.6
 41
30.0
 62
     5
 63
     7
 74
     0
 91
        4
 64
     7
 65
   257
 75
     1
175
     1
 42
1.0
 92
        8
 66
     7
 43
1.0
 76
     1
 77
     6
 78
     2
 67
     7
 79
     5
170
     0
171
     0
290
     0
174
     0
 93
        1
 44
0.0
173
     0
291
     1
 45
0.0
1001
ACAD
1000
AcDbSavedByObjectVersion
1070
     0
  0
VISUALSTYLE
  5
106ABCC
102
{ACAD_REACTORS
330
106ABC0
102
}
102
{ACAD_XDICTIONARY
360
106ACC4
102
}
330
106ABC0
100
AcDbVisualStyle
  2
Brighten
 70
    12
 71
     2
 72
     2
 73
     0
 90
        0
 40
0.6
 41
30.0
 62
     5
 63
     7
 74
     1
 91
        4
 64
     7
 65
   257
 75
     1
175
     1
 42
1.0
 92
        8
 66
     7
 43
1.0
 76
     1
 77
     6
 78
     2
 67
     7
 79
     5
170
     0
171
     0
290
     0
174
     0
 93
        1
 44
50.0
173
     0
291
     1
 45
0.0
1001
ACAD
1000
AcDbSavedByObjectVersion
1070
     0
  0
VISUALSTYLE
  5
106ABD0
102
{ACAD_REACTORS
330
106ABC0
102
}
102
{ACAD_XDICTIONARY
360
106ACCC
102
}
330
106ABC0
100
AcDbVisualStyle
  2
ColorChange
 70
    16
 71
     2
 72
     2
 73
     3
 90
        0
 40
0.6
 41
30.0
 62
     5
 63
     8
 74
     1
 91
        4
 64
     7
 65
   257
 75
     1
175
     1
 42
1.0
 92
        8
 66
     8
 43
1.0
 76
     1
 77
     6
 78
     2
 67
     7
 79
     5
170
     0
171
     0
290
     0
174
     0
 93
        1
 44
0.0
173
     0
291
     1
 45
0.0
1001
ACAD
1000
AcDbSavedByObjectVersion
1070
     0
  0
VISUALSTYLE
  5
106ABCA
102
{ACAD_REACTORS
330
106ABC0
102
}
102
{ACAD_XDICTIONARY
360
106ACC0
102
}
330
106ABC0
100
AcDbVisualStyle
  2
Conceptual
 70
     9
 71
     3
 72
     2
 73
     0
 90
        0
 40
0.6
 41
30.0
 62
     5
 63
     7
 74
     2
 91
        2
 64
     7
 65
   257
 75
     1
175
     1
 42
179.0
 92
        8
 66
     7
 43
1.0
 76
     1
 77
     6
 78
     2
 67
     7
 79
     3
170
     0
171
     0
290
     0
174
     0
 93
        1
 44
0.0
173
     0
291
     0
 45
0.0
1001
ACAD
1000
AcDbSavedByObjectVersion
1070
     0
  0
VISUALSTYLE
  5
106ABCB
102
{ACAD_REACTORS
330
106ABC0
102
}
102
{ACAD_XDICTIONARY
360
106ACC2
102
}
330
106ABC0
100
AcDbVisualStyle
  2
Dim
 70
    11
 71
     2
 72
     2
 73
     0
 90
        0
 40
0.6
 41
30.0
 62
     5
 63
     7
 74
     1
 91
        4
 64
     7
 65
   257
 75
     1
175
     1
 42
1.0
 92
        8
 66
     7
 43
1.0
 76
     1
 77
     6
 78
     2
 67
     7
 79
     5
170
     0
171
     0
290
     0
174
     0
 93
        1
 44
-50.0
173
     0
291
     1
 45
0.0
1001
ACAD
1000
AcDbSavedByObjectVersion
1070
     0
  0
VISUALSTYLE
  5
106ABD3
102
{ACAD_REACTORS
330
106ABC0
102
}
102
{ACAD_XDICTIONARY
360
106ACD2
102
}
330
106ABC0
100
AcDbVisualStyle
  2
EdgeColorOff
 70
    22
 71
     2
 72
     2
 73
     0
 90
        0
 40
0.6
 41
30.0
 62
     5
 63
     7
 74
     1
 91
        4
 64
     7
 65
   257
 75
     1
175
     1
 42
1.0
 92
        8
 66
     7
 43
1.0
 76
     1
 77
     6
 78
     2
 67
     7
 79
     5
170
     0
171
     0
290
     0
174
     0
 93
        1
 44
0.0
173
     0
291
     1
 45
0.0
1001
ACAD
1000
AcDbSavedByObjectVersion
1070
     0
  0
VISUALSTYLE
  5
106ABCF
102
{ACAD_REACTORS
330
106ABC0
102
}
102
{ACAD_XDICTIONARY
360
106ACCA
102
}
330
106ABC0
100
AcDbVisualStyle
  2
Facepattern
 70
    15
 71
     2
 72
     2
 73
     0
 90
        0
 40
0.6
 41
30.0
 62
     5
 63
     7
 74
     1
 91
        4
 64
     7
 65
   257
 75
     1
175
     1
 42
1.0
 92
        8
 66
     7
 43
1.0
 76
     1
 77
     6
 78
     2
 67
     7
 79
     5
170
     0
171
     0
290
     0
174
     0
 93
        1
 44
0.0
173
     0
291
     1
 45
0.0
1001
ACAD
1000
AcDbSavedByObjectVersion
1070
     0
  0
VISUALSTYLE
  5
106ABC1
102
{ACAD_REACTORS
330
106ABC0
102
}
102
{ACAD_XDICTIONARY
360
106ACAE
102
}
330
106ABC0
100
AcDbVisualStyle
  2
Flat
 70
     0
 71
     2
 72
     1
 73
     1
 90
        2
 40
0.6
 41
30.0
 62
     5
 63
     7
 74
     0
 91
        0
 64
     7
 65
   257
 75
     1
175
     1
 42
1.0
 92
        8
 66
     7
 43
1.0
 76
     1
 77
     6
 78
     2
 67
     7
 79
     5
170
     0
171
     0
290
     0
174
     0
 93
       13
 44
0.0
173
     0
291
     1
 45
0.0
1001
ACAD
1000
AcDbSavedByObjectVersion
1070
     0
  0
VISUALSTYLE
  5
106ABC2
102
{ACAD_REACTORS
330
106ABC0
102
}
102
{ACAD_XDICTIONARY
360
106ACB0
102
}
330
106ABC0
100
AcDbVisualStyle
  2
FlatWithEdges
 70
     1
 71
     2
 72
     1
 73
     1
 90
        2
 40
0.6
 41
30.0
 62
     5
 63
     7
 74
     1
 91
        0
 64
     7
 65
   257
 75
     1
175
     1
 42
1.0
 92
        0
 66
   257
 43
1.0
 76
     1
 77
     6
 78
     2
 67
     7
 79
     5
170
     0
171
     0
290
     0
174
     0
 93
       13
 44
0.0
173
     0
291
     1
 45
0.0
1001
ACAD
1000
AcDbSavedByObjectVersion
1070
     0
  0
VISUALSTYLE
  5
106ABC3
102
{ACAD_REACTORS
330
106ABC0
102
}
102
{ACAD_XDICTIONARY
360
106ACB2
102
}
330
106ABC0
100
AcDbVisualStyle
  2
Gouraud
 70
     2
 71
     2
 72
     2
 73
     1
 90
        2
 40
0.6
 41
30.0
 62
     5
 63
     7
 74
     0
 91
        0
 64
     7
 65
   257
 75
     1
175
     1
 42
1.0
 92
        0
 66
     7
 43
1.0
 76
     1
 77
     6
 78
     2
 67
     7
 79
     5
170
     0
171
     0
290
     0
174
     0
 93
       13
 44
0.0
173
     0
291
     1
 45
0.0
1001
ACAD
1000
AcDbSavedByObjectVersion
1070
     0
  0
VISUALSTYLE
  5
106ABC4
102
{ACAD_REACTORS
330
106ABC0
102
}
102
{ACAD_XDICTIONARY
360
106ACB4
102
}
330
106ABC0
100
AcDbVisualStyle
  2
GouraudWithEdges
 70
     3
 71
     2
 72
     2
 73
     1
 90
        2
 40
0.6
 41
30.0
 62
     5
 63
     7
 74
     1
 91
        0
 64
     7
 65
   257
 75
     1
175
     1
 42
1.0
 92
        0
 66
   257
 43
1.0
 76
     1
 77
     6
 78
     2
 67
     7
 79
     5
170
     0
171
     0
290
     0
174
     0
 93
       13
 44
0.0
173
     0
291
     1
 45
0.0
1001
ACAD
1000
AcDbSavedByObjectVersion
1070
     0
  0
VISUALSTYLE
  5
106ABC7
102
{ACAD_REACTORS
330
106ABC0
102
}
102
{ACAD_XDICTIONARY
360
106ACBA
102
}
330
106ABC0
100
AcDbVisualStyle
  2
Hidden
 70
     6
 71
     1
 72
     2
 73
     2
 90
        0
 40
0.6
 41
30.0
 62
     5
 63
     7
 74
     2
 91
        2
 64
     7
 65
   257
 75
     2
175
     1
 42
40.0
 92
        0
 66
   257
 43
1.0
 76
     1
 77
     6
 78
     2
 67
     7
 79
     3
170
     0
171
     0
290
     0
174
     0
 93
        1
 44
0.0
173
     0
291
     0
 45
0.0
1001
ACAD
1000
AcDbSavedByObjectVersion
1070
     0
  0
VISUALSTYLE
  5
106ABD1
102
{ACAD_REACTORS
330
106ABC0
102
}
102
{ACAD_XDICTIONARY
360
106ACCE
102
}
330
106ABC0
100
AcDbVisualStyle
  2
JitterOff
 70
    20
 71
     2
 72
     2
 73
     0
 90
        0
 40
0.6
 41
30.0
 62
     5
 63
     7
 74
     1
 91
        4
 64
     7
 65
   257
 75
     1
175
     1
 42
1.0
 92
       10
 66
     7
 43
1.0
 76
     1
 77
     6
 78
     2
 67
     7
 79
     5
170
     0
171
     0
290
     0
174
     0
 93
        1
 44
0.0
173
     0
291
     1
 45
0.0
1001
ACAD
1000
AcDbSavedByObjectVersion
1070
     0
  0
VISUALSTYLE
  5
106ABCE
102
{ACAD_REACTORS
330
106ABC0
102
}
102
{ACAD_XDICTIONARY
360
106ACC8
102
}
330
106ABC0
100
AcDbVisualStyle
  2
Linepattern
 70
    14
 71
     2
 72
     2
 73
     0
 90
        0
 40
0.6
 41
30.0
 62
     5
 63
     7
 74
     1
 91
        4
 64
     7
 65
   257
 75
     7
175
     7
 42
1.0
 92
        8
 66
     7
 43
1.0
 76
     1
 77
     6
 78
     2
 67
     7
 79
     5
170
     0
171
     0
290
     0
174
     0
 93
        1
 44
0.0
173
     0
291
     1
 45
0.0
1001
ACAD
1000
AcDbSavedByObjectVersion
1070
     0
  0
VISUALSTYLE
  5
106ABD2
102
{ACAD_REACTORS
330
106ABC0
102
}
102
{ACAD_XDICTIONARY
360
106ACD0
102
}
330
106ABC0
100
AcDbVisualStyle
  2
OverhangOff
 70
    21
 71
     2
 72
     2
 73
     0
 90
        0
 40
0.6
 41
30.0
 62
     5
 63
     7
 74
     1
 91
        4
 64
     7
 65
   257
 75
     1
175
     1
 42
1.0
 92
        9
 66
     7
 43
1.0
 76
     1
 77
     6
 78
     2
 67
     7
 79
     5
170
     0
171
     0
290
     0
174
     0
 93
        1
 44
0.0
173
     0
291
     1
 45
0.0
1001
ACAD
1000
AcDbSavedByObjectVersion
1070
     0
  0
VISUALSTYLE
  5
106ABC9
102
{ACAD_REACTORS
330
106ABC0
102
}
102
{ACAD_XDICTIONARY
360
106ACBE
102
}
330
106ABC0
100
AcDbVisualStyle
  2
Realistic
 70
     8
 71
     2
 72
     3
 73
     0
 90
        2
 40
0.6
 41
30.0
 62
     5
 63
     7
 74
     0
 91
        0
 64
     7
 65
   257
 75
     1
175
     1
 42
1.0
 92
        8
 66
   257
 43
1.0
 76
     1
 77
     6
 78
     2
 67
     7
 79
     3
170
     0
171
     0
290
     0
174
     0
 93
       13
 44
0.0
173
     0
291
     0
 45
0.0
1001
ACAD
1000
AcDbSavedByObjectVersion
1070
     0
  0
VISUALSTYLE
  5
106ABD8
102
{ACAD_REACTORS
330
106ABC0
102
}
102
{ACAD_XDICTIONARY
360
106ACDC
102
}
330
106ABC0
100
AcDbVisualStyle
  2
Shaded
 70
    27
 71
     2
 72
     2
 73
     1
 90
        2
 40
0.6
 41
30.0
 62
     5
 63
     7
 74
     0
 91
        4
 64
     7
 65
   257
 75
     1
175
     1
 42
1.0
 92
        8
 66
   257
 43
1.0
 76
     1
 77
     6
 78
     2
 67
     8
 79
     3
170
     0
171
     0
290
     0
174
     0
 93
        5
 44
0.0
173
     0
291
     0
 45
0.0
1001
ACAD
1000
AcDbSavedByObjectVersion
1070
     0
  0
VISUALSTYLE
  5
106ABD7
102
{ACAD_REACTORS
330
106ABC0
102
}
102
{ACAD_XDICTIONARY
360
106ACDA
102
}
330
106ABC0
100
AcDbVisualStyle
  2
Shaded with edges
 70
    26
 71
     2
 72
     2
 73
     1
 90
        2
 40
0.6
 41
30.0
 62
     5
 63
     7
 74
     1
 91
       10
 64
     7
 65
   257
 75
     2
175
     1
 42
1.0
 92
        8
 66
   257
 43
1.0
 76
     1
 77
     6
 78
     2
 67
     7
 79
     3
170
     0
171
     0
290
     0
174
     0
 93
        5
 44
0.0
173
     0
291
     0
 45
0.0
1001
ACAD
1000
AcDbSavedByObjectVersion
1070
     0
  0
VISUALSTYLE
  5
106ABD4
102
{ACAD_REACTORS
330
106ABC0
102
}
102
{ACAD_XDICTIONARY
360
106ACD4
102
}
330
106ABC0
100
AcDbVisualStyle
  2
Shades of Gray
 70
    23
 71
     2
 72
     2
 73
     3
 90
        0
 40
0.6
 41
30.0
 62
     5
 63
     7
 74
     2
 91
        2
 64
     7
 65
     7
 75
     1
175
     1
 42
40.0
 92
        8
 66
     7
 43
1.0
 76
     1
 77
     6
 78
     2
 67
     7
 79
     3
170
     0
171
     0
290
     0
174
     0
 93
        1
 44
0.0
173
     0
291
     0
 45
0.0
1001
ACAD
1000
AcDbSavedByObjectVersion
1070
     0
  0
VISUALSTYLE
  5
106ABD5
102
{ACAD_REACTORS
330
106ABC0
102
}
102
{ACAD_XDICTIONARY
360
106ACD6
102
}
330
106ABC0
100
AcDbVisualStyle
  2
Sketchy
 70
    24
 71
     1
 72
     2
 73
     2
 90
        0
 40
0.6
 41
30.0
 62
     5
 63
     7
 74
     2
 91
        2
 64
     7
 65
     7
 75
     1
175
     1
 42
40.0
 92
       11
 66
     7
 43
1.0
 76
     1
 77
     6
 78
     2
 67
     7
 79
     6
170
     0
171
     0
290
     0
174
     0
 93
        1
 44
0.0
173
     0
291
     0
 45
0.0
1001
ACAD
1000
AcDbSavedByObjectVersion
1070
     0
  0
VISUALSTYLE
  5
106ABCD
102
{ACAD_REACTORS
330
106ABC0
102
}
102
{ACAD_XDICTIONARY
360
106ACC6
102
}
330
106ABC0
100
AcDbVisualStyle
  2
Thicken
 70
    13
 71
     2
 72
     2
 73
     0
 90
        0
 40
0.6
 41
30.0
 62
     5
 63
     7
 74
     1
 91
        4
 64
     7
 65
   257
 75
     1
175
     1
 42
1.0
 92
       12
 66
     7
 43
1.0
 76
     1
 77
     6
 78
     2
 67
     7
 79
     5
170
     0
171
     0
290
     0
174
     0
 93
        1
 44
0.0
173
     0
291
     1
 45
0.0
1001
ACAD
1000
AcDbSavedByObjectVersion
1070
     0
  0
VISUALSTYLE
  5
106ABC6
102
{ACAD_REACTORS
330
106ABC0
102
}
102
{ACAD_XDICTIONARY
360
106ACB8
102
}
330
106ABC0
100
AcDbVisualStyle
  2
Wireframe
 70
     5
 71
     0
 72
     2
 73
     0
 90
        0
 40
0.6
 41
30.0
 62
     5
 63
     7
 74
     1
 91
        4
 64
     7
 65
   257
 75
     1
175
     1
 42
1.0
 92
        0
 66
   257
 43
1.0
 76
     1
 77
     6
 78
     2
 67
     7
 79
     3
170
     0
171
     0
290
     0
174
     0
 93
        1
 44
0.0
173
     0
291
     0
 45
0.0
1001
ACAD
1000
AcDbSavedByObjectVersion
1070
     0
  0
VISUALSTYLE
  5
106ABD6
102
{ACAD_REACTORS
330
106ABC0
102
}
102
{ACAD_XDICTIONARY
360
106ACD8
102
}
330
106ABC0
100
AcDbVisualStyle
  2
X-Ray
 70
    25
 71
     2
 72
     2
 73
     1
 90
        1
 40
0.5
 41
30.0
 62
     5
 63
     7
 74
     1
 91
        0
 64
     7
 65
   257
 75
     1
175
     1
 42
1.0
 92
        8
 66
     7
 43
1.0
 76
     1
 77
     6
 78
     2
 67
     7
 79
     3
170
     0
171
     0
290
     0
174
     0
 93
       13
 44
0.0
173
     0
291
     0
 45
0.0
1001
ACAD
1000
AcDbSavedByObjectVersion
1070
     0
  0
DICTIONARYVAR
  5
106ACA6
102
{ACAD_REACTORS
330
106AC9C
102
}
330
106AC9C
100
DictionaryVariables
280
     0
  1
1:1
  0
DICTIONARYVAR
  5
106AC9E
102
{ACAD_REACTORS
330
106AC9C
102
}
330
106AC9C
100
DictionaryVariables
280
     0
  1
Standard
  0
DICTIONARYVAR
  5
106AC9D
102
{ACAD_REACTORS
330
106AC9C
102
}
330
106AC9C
100
DictionaryVariables
280
     0
  1
Standard
  0
DICTIONARYVAR
  5
106ACA1
102
{ACAD_REACTORS
330
106AC9C
102
}
330
106AC9C
100
DictionaryVariables
280
     0
  1
2
  0
DICTIONARYVAR
  5
106ACA2
102
{ACAD_REACTORS
330
106AC9C
102
}
330
106AC9C
100
DictionaryVariables
280
     0
  1
1
  0
DICTIONARYVAR
  5
106ACA7
102
{ACAD_REACTORS
330
106AC9C
102
}
330
106AC9C
100
DictionaryVariables
280
     0
  1
1
  0
DICTIONARY
  5
106ACAA
330
106ABBE
100
AcDbDictionary
280
     1
281
     1
  3
ACAD_XREC_ROUNDTRIP
360
106ACAB
  0
DICTIONARY
  5
106ACA8
330
106ABBD
100
AcDbDictionary
280
     1
281
     1
  3
ACAD_XREC_ROUNDTRIP
360
106ACA9
  0
DICTIONARY
  5
106ACAC
330
106ABBF
100
AcDbDictionary
280
     1
281
     1
  3
ACAD_XREC_ROUNDTRIP
360
106ACAD
  0
DICTIONARY
  5
106ACDF
330
106ABDC
100
AcDbDictionary
280
     1
281
     1
  3
ACAD_XREC_ROUNDTRIP
360
106ACE0
  0
DICTIONARY
  5
106ACB6
330
106ABC5
100
AcDbDictionary
280
     1
281
     1
  3
ACAD_XREC_ROUNDTRIP
360
106ACB7
  0
DICTIONARY
  5
106ACBC
330
106ABC8
100
AcDbDictionary
280
     1
281
     1
  3
ACAD_XREC_ROUNDTRIP
360
106ACBD
  0
DICTIONARY
  5
106ACC4
330
106ABCC
100
AcDbDictionary
280
     1
281
     1
  3
ACAD_XREC_ROUNDTRIP
360
106ACC5
  0
DICTIONARY
  5
106ACCC
330
106ABD0
100
AcDbDictionary
280
     1
281
     1
  3
ACAD_XREC_ROUNDTRIP
360
106ACCD
  0
DICTIONARY
  5
106ACC0
330
106ABCA
100
AcDbDictionary
280
     1
281
     1
  3
ACAD_XREC_ROUNDTRIP
360
106ACC1
  0
DICTIONARY
  5
106ACC2
330
106ABCB
100
AcDbDictionary
280
     1
281
     1
  3
ACAD_XREC_ROUNDTRIP
360
106ACC3
  0
DICTIONARY
  5
106ACD2
330
106ABD3
100
AcDbDictionary
280
     1
281
     1
  3
ACAD_XREC_ROUNDTRIP
360
106ACD3
  0
DICTIONARY
  5
106ACCA
330
106ABCF
100
AcDbDictionary
280
     1
281
     1
  3
ACAD_XREC_ROUNDTRIP
360
106ACCB
  0
DICTIONARY
  5
106ACAE
330
106ABC1
100
AcDbDictionary
280
     1
281
     1
  3
ACAD_XREC_ROUNDTRIP
360
106ACAF
  0
DICTIONARY
  5
106ACB0
330
106ABC2
100
AcDbDictionary
280
     1
281
     1
  3
ACAD_XREC_ROUNDTRIP
360
106ACB1
  0
DICTIONARY
  5
106ACB2
330
106ABC3
100
AcDbDictionary
280
     1
281
     1
  3
ACAD_XREC_ROUNDTRIP
360
106ACB3
  0
DICTIONARY
  5
106ACB4
330
106ABC4
100
AcDbDictionary
280
     1
281
     1
  3
ACAD_XREC_ROUNDTRIP
360
106ACB5
  0
DICTIONARY
  5
106ACBA
330
106ABC7
100
AcDbDictionary
280
     1
281
     1
  3
ACAD_XREC_ROUNDTRIP
360
106ACBB
  0
DICTIONARY
  5
106ACCE
330
106ABD1
100
AcDbDictionary
280
     1
281
     1
  3
ACAD_XREC_ROUNDTRIP
360
106ACCF
  0
DICTIONARY
  5
106ACC8
330
106ABCE
100
AcDbDictionary
280
     1
281
     1
  3
ACAD_XREC_ROUNDTRIP
360
106ACC9
  0
DICTIONARY
  5
106ACD0
330
106ABD2
100
AcDbDictionary
280
     1
281
     1
  3
ACAD_XREC_ROUNDTRIP
360
106ACD1
  0
DICTIONARY
  5
106ACBE
330
106ABC9
100
AcDbDictionary
280
     1
281
     1
  3
ACAD_XREC_ROUNDTRIP
360
106ACBF
  0
DICTIONARY
  5
106ACDC
330
106ABD8
100
AcDbDictionary
280
     1
281
     1
  3
ACAD_XREC_ROUNDTRIP
360
106ACDD
  0
DICTIONARY
  5
106ACDA
330
106ABD7
100
AcDbDictionary
280
     1
281
     1
  3
ACAD_XREC_ROUNDTRIP
360
106ACDB
  0
DICTIONARY
  5
106ACD4
330
106ABD4
100
AcDbDictionary
280
     1
281
     1
  3
ACAD_XREC_ROUNDTRIP
360
106ACD5
  0
DICTIONARY
  5
106ACD6
330
106ABD5
100
AcDbDictionary
280
     1
281
     1
  3
ACAD_XREC_ROUNDTRIP
360
106ACD7
  0
DICTIONARY
  5
106ACC6
330
106ABCD
100
AcDbDictionary
280
     1
281
     1
  3
ACAD_XREC_ROUNDTRIP
360
106ACC7
  0
DICTIONARY
  5
106ACB8
330
106ABC6
100
AcDbDictionary
280
     1
281
     1
  3
ACAD_XREC_ROUNDTRIP
360
106ACB9
  0
DICTIONARY
  5
106ACD8
330
106ABD6
100
AcDbDictionary
280
     1
281
     1
  3
ACAD_XREC_ROUNDTRIP
360
106ACD9
  0
XRECORD
  5
106ACAB
102
{ACAD_REACTORS
330
106ACAA
102
}
330
106ACAA
100
AcDbXrecord
280
     1
102
MATERIAL
148
0.0
149
0.0
149
0.0
 93
        0
 94
      127
282
     0
 72
     1
 77
     1
171
     1
175
     1
179
     1
273
     0
  0
XRECORD
  5
106ACA9
102
{ACAD_REACTORS
330
106ACA8
102
}
330
106ACA8
100
AcDbXrecord
280
     1
102
MATERIAL
148
0.0
149
0.0
149
0.0
 93
        0
 94
      127
282
     0
 72
     1
 77
     1
171
     1
175
     1
179
     1
273
     0
  0
XRECORD
  5
106ACAD
102
{ACAD_REACTORS
330
106ACAC
102
}
330
106ACAC
100
AcDbXrecord
280
     1
102
MATERIAL
148
0.0
149
0.0
149
0.0
 93
        0
 94
      127
282
     0
 72
     1
 77
     1
171
     1
175
     1
179
     1
273
     0
  0
XRECORD
  5
106ACE0
102
{ACAD_REACTORS
330
106ACDF
102
}
330
106ACDF
100
AcDbXrecord
280
     1
102
ACAD_ROUNDTRIP_2010_MLEADER_STYLE
  0
XRECORD
  5
106ACB7
102
{ACAD_REACTORS
330
106ACB6
102
}
330
106ACB6
100
AcDbXrecord
280
     1
102
RTVSPropertyOp0
 70
     1
102
RTVSPropertyOp1
 70
     1
102
RTVSPropertyOp2
 70
     1
102
RTVSPropertyOp3
 70
     1
102
RTVSPropertyOp4
 70
     1
102
RTVSPropertyOp5
 70
     1
102
RTVSPropertyOp6
 70
     1
102
RTVSPropertyOp7
 70
     1
102
RTVSPropertyOp8
 70
     1
102
RTVSPropertyOp9
 70
     1
102
RTVSPropertyOp10
 70
     1
102
RTVSPropertyOp11
 70
     1
102
RTVSPropertyOp12
 70
     1
102
RTVSPropertyOp13
 70
     1
102
RTVSPropertyOp14
 70
     1
102
RTVSPropertyOp15
 70
     1
102
RTVSPropertyOp16
 70
     1
102
RTVSPropertyOp17
 70
     1
102
RTVSPropertyOp18
 70
     1
102
RTVSPropertyOp19
 70
     1
102
RTVSPropertyOp20
 70
     1
102
RTVSPropertyOp21
 70
     1
102
RTVSPropertyOp22
 70
     1
102
RTVSPropertyOp23
 70
     1
102
RTVSPropertyOp24
 70
     1
102
RTVSPropertyOp25
 70
     1
102
RTVSPropertyOp26
 70
     1
102
RTVSPropertyOp27
 70
     1
102
RTVSPropertyOp28
 70
     1
102
RTVSPropertyOp29
 70
     1
102
RTVSPropertyOp30
 70
     1
102
RTVSPropertyOp31
 70
     1
102
RTVSPropertyOp32
 70
     1
102
RTVSPropertyOp33
 70
     1
102
RTVSPropertyOp34
 70
     1
102
RTVSPropertyOp35
 70
     1
102
RTVSPropertyOp36
 70
     1
102
RTVSPropertyOp37
 70
     1
102
RTVSPropertyOp38
 70
     1
102
RTVSPropertyOp39
 70
     1
102
RTVSPropertyOp40
 70
     1
102
RTVSPropertyOp41
 70
     1
102
RTVSPropertyOp42
 70
     1
102
RTVSPropertyOp43
 70
     1
102
RTVSPropertyOp44
 70
     1
102
RTVSPropertyOp45
 70
     1
102
RTVSPropertyOp46
 70
     1
102
RTVSPropertyOp47
 70
     1
102
RTVSPropertyOp48
 70
     1
102
RTVSPropertyOp49
 70
     1
102
RTVSPropertyOp50
 70
     1
102
RTVSPropertyOp51
 70
     0
102
RTVSPropertyOp52
 70
     0
102
RTVSPropertyOp53
 70
     1
102
RTVSPropertyOp54
 70
     1
102
RTVSPropertyOp55
 70
     1
102
RTVSPropertyOp56
 70
     1
102
RTVSPropertyOp57
 70
     1
102
RTVSPost2010Prop28
280
     1
102
RTVSPost2010PropOp28
 70
     1
102
RTVSPost2010Prop29
280
     1
102
RTVSPost2010PropOp29
 70
     1
102
RTVSPost2010Prop30
280
     0
102
RTVSPost2010PropOp30
 70
     1
102
RTVSPost2010Prop31
280
     0
102
RTVSPost2010PropOp31
 70
     1
102
RTVSPost2010Prop32
280
     0
102
RTVSPost2010PropOp32
 70
     1
102
RTVSPost2010Prop33
280
     0
102
RTVSPost2010PropOp33
 70
     1
102
RTVSPost2010Prop34
280
     0
102
RTVSPost2010PropOp34
 70
     1
102
RTVSPost2010Prop35
280
     0
102
RTVSPost2010PropOp35
 70
     1
102
RTVSPost2010Prop36
280
     0
102
RTVSPost2010PropOp36
 70
     1
102
RTVSPost2010Prop37
 90
       50
102
RTVSPost2010PropOp37
 70
     1
102
RTVSPost2010Prop38
140
0.0
102
RTVSPost2010PropOp38
 70
     1
102
RTVSPost2010Prop39
140
1.0
102
RTVSPost2010PropOp39
 70
     1
102
RTVSPost2010Prop40
 90
        0
102
RTVSPost2010PropOp40
 70
     1
102
RTVSPost2010Prop41ColorIndex
 90
       18
102
RTVSPost2010Prop41ColorRGB
 90
        0
102
RTVSPost2010PropOp41
 70
     1
102
RTVSPost2010Prop42
 90
       50
102
RTVSPost2010PropOp42
 70
     1
102
RTVSPost2010Prop43
 90
        3
102
RTVSPost2010PropOp43
 70
     1
102
RTVSPost2010Prop44ColorIndex
 90
        5
102
RTVSPost2010Prop44ColorRGB
 90
      255
102
RTVSPost2010PropOp44
 70
     1
102
RTVSPost2010Prop45
280
     0
102
RTVSPost2010PropOp45
 70
     1
102
RTVSPost2010Prop46
 90
       50
102
RTVSPost2010PropOp46
 70
     1
102
RTVSPost2010Prop47
 90
       50
102
RTVSPost2010PropOp47
 70
     1
102
RTVSPost2010Prop48
 90
       50
102
RTVSPost2010PropOp48
 70
     1
102
RTVSPost2010Prop49
280
     0
102
RTVSPost2010PropOp49
 70
     1
102
RTVSPost2010Prop50
 90
       50
102
RTVSPost2010PropOp50
 70
     1
102
RTVSPost2010Prop51ColorIndex
 90
      256
102
RTVSPost2010Prop51ColorRGB
 90
-16777216
102
RTVSPost2010PropOp51
 70
     0
102
RTVSPost2010Prop52
140
1.0
102
RTVSPost2010PropOp52
 70
     0
102
RTVSPost2010Prop53
 90
        2
102
RTVSPost2010PropOp53
 70
     1
102
RTVSPost2010Prop54
  1
strokes_ogs.tif
102
RTVSPost2010PropOp54
 70
     1
102
RTVSPost2010Prop55
280
     0
102
RTVSPost2010PropOp55
 70
     1
102
RTVSPost2010Prop56
140
1.0
102
RTVSPost2010PropOp56
 70
     1
102
RTVSPost2010Prop57
140
1.0
102
RTVSPost2010PropOp57
 70
     1
  0
XRECORD
  5
106ACBD
102
{ACAD_REACTORS
330
106ACBC
102
}
330
106ACBC
100
AcDbXrecord
280
     1
102
RTVSPropertyOp0
 70
     1
102
RTVSPropertyOp1
 70
     1
102
RTVSPropertyOp2
 70
     1
102
RTVSPropertyOp3
 70
     1
102
RTVSPropertyOp4
 70
     1
102
RTVSPropertyOp5
 70
     1
102
RTVSPropertyOp6
 70
     1
102
RTVSPropertyOp7
 70
     1
102
RTVSPropertyOp8
 70
     1
102
RTVSPropertyOp9
 70
     1
102
RTVSPropertyOp10
 70
     1
102
RTVSPropertyOp11
 70
     1
102
RTVSPropertyOp12
 70
     1
102
RTVSPropertyOp13
 70
     1
102
RTVSPropertyOp14
 70
     1
102
RTVSPropertyOp15
 70
     1
102
RTVSPropertyOp16
 70
     1
102
RTVSPropertyOp17
 70
     1
102
RTVSPropertyOp18
 70
     1
102
RTVSPropertyOp19
 70
     1
102
RTVSPropertyOp20
 70
     1
102
RTVSPropertyOp21
 70
     1
102
RTVSPropertyOp22
 70
     1
102
RTVSPropertyOp23
 70
     1
102
RTVSPropertyOp24
 70
     1
102
RTVSPropertyOp25
 70
     1
102
RTVSPropertyOp26
 70
     1
102
RTVSPropertyOp27
 70
     1
102
RTVSPropertyOp28
 70
     1
102
RTVSPropertyOp29
 70
     1
102
RTVSPropertyOp30
 70
     1
102
RTVSPropertyOp31
 70
     1
102
RTVSPropertyOp32
 70
     1
102
RTVSPropertyOp33
 70
     1
102
RTVSPropertyOp34
 70
     1
102
RTVSPropertyOp35
 70
     1
102
RTVSPropertyOp36
 70
     1
102
RTVSPropertyOp37
 70
     1
102
RTVSPropertyOp38
 70
     1
102
RTVSPropertyOp39
 70
     1
102
RTVSPropertyOp40
 70
     1
102
RTVSPropertyOp41
 70
     1
102
RTVSPropertyOp42
 70
     1
102
RTVSPropertyOp43
 70
     1
102
RTVSPropertyOp44
 70
     1
102
RTVSPropertyOp45
 70
     1
102
RTVSPropertyOp46
 70
     1
102
RTVSPropertyOp47
 70
     1
102
RTVSPropertyOp48
 70
     1
102
RTVSPropertyOp49
 70
     1
102
RTVSPropertyOp50
 70
     1
102
RTVSPropertyOp51
 70
     0
102
RTVSPropertyOp52
 70
     0
102
RTVSPropertyOp53
 70
     1
102
RTVSPropertyOp54
 70
     1
102
RTVSPropertyOp55
 70
     1
102
RTVSPropertyOp56
 70
     1
102
RTVSPropertyOp57
 70
     1
102
RTVSPost2010Prop28
280
     0
102
RTVSPost2010PropOp28
 70
     1
102
RTVSPost2010Prop29
280
     1
102
RTVSPost2010PropOp29
 70
     1
102
RTVSPost2010Prop30
280
     1
102
RTVSPost2010PropOp30
 70
     1
102
RTVSPost2010Prop31
280
     0
102
RTVSPost2010PropOp31
 70
     1
102
RTVSPost2010Prop32
280
     0
102
RTVSPost2010PropOp32
 70
     1
102
RTVSPost2010Prop33
280
     0
102
RTVSPost2010PropOp33
 70
     1
102
RTVSPost2010Prop34
280
     0
102
RTVSPost2010PropOp34
 70
     1
102
RTVSPost2010Prop35
280
     0
102
RTVSPost2010PropOp35
 70
     1
102
RTVSPost2010Prop36
280
     0
102
RTVSPost2010PropOp36
 70
     1
102
RTVSPost2010Prop37
 90
       50
102
RTVSPost2010PropOp37
 70
     1
102
RTVSPost2010Prop38
140
0.0
102
RTVSPost2010PropOp38
 70
     1
102
RTVSPost2010Prop39
140
1.0
102
RTVSPost2010PropOp39
 70
     1
102
RTVSPost2010Prop40
 90
        0
102
RTVSPost2010PropOp40
 70
     1
102
RTVSPost2010Prop41ColorIndex
 90
       18
102
RTVSPost2010Prop41ColorRGB
 90
        0
102
RTVSPost2010PropOp41
 70
     1
102
RTVSPost2010Prop42
 90
       50
102
RTVSPost2010PropOp42
 70
     1
102
RTVSPost2010Prop43
 90
        3
102
RTVSPost2010PropOp43
 70
     1
102
RTVSPost2010Prop44ColorIndex
 90
        5
102
RTVSPost2010Prop44ColorRGB
 90
      255
102
RTVSPost2010PropOp44
 70
     1
102
RTVSPost2010Prop45
280
     0
102
RTVSPost2010PropOp45
 70
     1
102
RTVSPost2010Prop46
 90
       50
102
RTVSPost2010PropOp46
 70
     1
102
RTVSPost2010Prop47
 90
       50
102
RTVSPost2010PropOp47
 70
     1
102
RTVSPost2010Prop48
 90
       50
102
RTVSPost2010PropOp48
 70
     1
102
RTVSPost2010Prop49
280
     0
102
RTVSPost2010PropOp49
 70
     1
102
RTVSPost2010Prop50
 90
       50
102
RTVSPost2010PropOp50
 70
     1
102
RTVSPost2010Prop51ColorIndex
 90
      256
102
RTVSPost2010Prop51ColorRGB
 90
-16777216
102
RTVSPost2010PropOp51
 70
     0
102
RTVSPost2010Prop52
140
1.0
102
RTVSPost2010PropOp52
 70
     0
102
RTVSPost2010Prop53
 90
        2
102
RTVSPost2010PropOp53
 70
     1
102
RTVSPost2010Prop54
  1
strokes_ogs.tif
102
RTVSPost2010PropOp54
 70
     1
102
RTVSPost2010Prop55
280
     0
102
RTVSPost2010PropOp55
 70
     1
102
RTVSPost2010Prop56
140
1.0
102
RTVSPost2010PropOp56
 70
     1
102
RTVSPost2010Prop57
140
1.0
102
RTVSPost2010PropOp57
 70
     1
  0
XRECORD
  5
106ACC5
102
{ACAD_REACTORS
330
106ACC4
102
}
330
106ACC4
100
AcDbXrecord
280
     1
102
RTVSPropertyOp0
 70
     1
102
RTVSPropertyOp1
 70
     1
102
RTVSPropertyOp2
 70
     1
102
RTVSPropertyOp3
 70
     1
102
RTVSPropertyOp4
 70
     1
102
RTVSPropertyOp5
 70
     1
102
RTVSPropertyOp6
 70
     1
102
RTVSPropertyOp7
 70
     1
102
RTVSPropertyOp8
 70
     1
102
RTVSPropertyOp9
 70
     1
102
RTVSPropertyOp10
 70
     1
102
RTVSPropertyOp11
 70
     1
102
RTVSPropertyOp12
 70
     1
102
RTVSPropertyOp13
 70
     1
102
RTVSPropertyOp14
 70
     1
102
RTVSPropertyOp15
 70
     1
102
RTVSPropertyOp16
 70
     1
102
RTVSPropertyOp17
 70
     1
102
RTVSPropertyOp18
 70
     1
102
RTVSPropertyOp19
 70
     1
102
RTVSPropertyOp20
 70
     1
102
RTVSPropertyOp21
 70
     1
102
RTVSPropertyOp22
 70
     1
102
RTVSPropertyOp23
 70
     1
102
RTVSPropertyOp24
 70
     1
102
RTVSPropertyOp25
 70
     1
102
RTVSPropertyOp26
 70
     1
102
RTVSPropertyOp27
 70
     1
102
RTVSPropertyOp28
 70
     1
102
RTVSPropertyOp29
 70
     1
102
RTVSPropertyOp30
 70
     1
102
RTVSPropertyOp31
 70
     1
102
RTVSPropertyOp32
 70
     1
102
RTVSPropertyOp33
 70
     1
102
RTVSPropertyOp34
 70
     1
102
RTVSPropertyOp35
 70
     1
102
RTVSPropertyOp36
 70
     1
102
RTVSPropertyOp37
 70
     1
102
RTVSPropertyOp38
 70
     1
102
RTVSPropertyOp39
 70
     1
102
RTVSPropertyOp40
 70
     1
102
RTVSPropertyOp41
 70
     1
102
RTVSPropertyOp42
 70
     1
102
RTVSPropertyOp43
 70
     1
102
RTVSPropertyOp44
 70
     1
102
RTVSPropertyOp45
 70
     1
102
RTVSPropertyOp46
 70
     1
102
RTVSPropertyOp47
 70
     1
102
RTVSPropertyOp48
 70
     1
102
RTVSPropertyOp49
 70
     1
102
RTVSPropertyOp50
 70
     1
102
RTVSPropertyOp51
 70
     0
102
RTVSPropertyOp52
 70
     0
102
RTVSPropertyOp53
 70
     1
102
RTVSPropertyOp54
 70
     1
102
RTVSPropertyOp55
 70
     1
102
RTVSPropertyOp56
 70
     1
102
RTVSPropertyOp57
 70
     1
102
RTVSPost2010Prop28
280
     0
102
RTVSPost2010PropOp28
 70
     1
102
RTVSPost2010Prop29
280
     1
102
RTVSPost2010PropOp29
 70
     1
102
RTVSPost2010Prop30
280
     1
102
RTVSPost2010PropOp30
 70
     1
102
RTVSPost2010Prop31
280
     0
102
RTVSPost2010PropOp31
 70
     1
102
RTVSPost2010Prop32
280
     0
102
RTVSPost2010PropOp32
 70
     1
102
RTVSPost2010Prop33
280
     0
102
RTVSPost2010PropOp33
 70
     1
102
RTVSPost2010Prop34
280
     0
102
RTVSPost2010PropOp34
 70
     1
102
RTVSPost2010Prop35
280
     0
102
RTVSPost2010PropOp35
 70
     1
102
RTVSPost2010Prop36
280
     0
102
RTVSPost2010PropOp36
 70
     1
102
RTVSPost2010Prop37
 90
       50
102
RTVSPost2010PropOp37
 70
     1
102
RTVSPost2010Prop38
140
0.0
102
RTVSPost2010PropOp38
 70
     1
102
RTVSPost2010Prop39
140
1.0
102
RTVSPost2010PropOp39
 70
     1
102
RTVSPost2010Prop40
 90
        0
102
RTVSPost2010PropOp40
 70
     1
102
RTVSPost2010Prop41ColorIndex
 90
       18
102
RTVSPost2010Prop41ColorRGB
 90
        0
102
RTVSPost2010PropOp41
 70
     1
102
RTVSPost2010Prop42
 90
       50
102
RTVSPost2010PropOp42
 70
     1
102
RTVSPost2010Prop43
 90
        3
102
RTVSPost2010PropOp43
 70
     1
102
RTVSPost2010Prop44ColorIndex
 90
        5
102
RTVSPost2010Prop44ColorRGB
 90
      255
102
RTVSPost2010PropOp44
 70
     1
102
RTVSPost2010Prop45
280
     0
102
RTVSPost2010PropOp45
 70
     1
102
RTVSPost2010Prop46
 90
       50
102
RTVSPost2010PropOp46
 70
     1
102
RTVSPost2010Prop47
 90
       50
102
RTVSPost2010PropOp47
 70
     1
102
RTVSPost2010Prop48
 90
       50
102
RTVSPost2010PropOp48
 70
     1
102
RTVSPost2010Prop49
280
     0
102
RTVSPost2010PropOp49
 70
     1
102
RTVSPost2010Prop50
 90
       50
102
RTVSPost2010PropOp50
 70
     1
102
RTVSPost2010Prop51ColorIndex
 90
      256
102
RTVSPost2010Prop51ColorRGB
 90
-16777216
102
RTVSPost2010PropOp51
 70
     0
102
RTVSPost2010Prop52
140
1.0
102
RTVSPost2010PropOp52
 70
     0
102
RTVSPost2010Prop53
 90
        2
102
RTVSPost2010PropOp53
 70
     1
102
RTVSPost2010Prop54
  1
strokes_ogs.tif
102
RTVSPost2010PropOp54
 70
     1
102
RTVSPost2010Prop55
280
     0
102
RTVSPost2010PropOp55
 70
     1
102
RTVSPost2010Prop56
140
1.0
102
RTVSPost2010PropOp56
 70
     1
102
RTVSPost2010Prop57
140
1.0
102
RTVSPost2010PropOp57
 70
     1
  0
XRECORD
  5
106ACCD
102
{ACAD_REACTORS
330
106ACCC
102
}
330
106ACCC
100
AcDbXrecord
280
     1
102
RTVSPropertyOp0
 70
     1
102
RTVSPropertyOp1
 70
     1
102
RTVSPropertyOp2
 70
     1
102
RTVSPropertyOp3
 70
     1
102
RTVSPropertyOp4
 70
     1
102
RTVSPropertyOp5
 70
     1
102
RTVSPropertyOp6
 70
     1
102
RTVSPropertyOp7
 70
     1
102
RTVSPropertyOp8
 70
     1
102
RTVSPropertyOp9
 70
     1
102
RTVSPropertyOp10
 70
     1
102
RTVSPropertyOp11
 70
     1
102
RTVSPropertyOp12
 70
     1
102
RTVSPropertyOp13
 70
     1
102
RTVSPropertyOp14
 70
     1
102
RTVSPropertyOp15
 70
     1
102
RTVSPropertyOp16
 70
     1
102
RTVSPropertyOp17
 70
     1
102
RTVSPropertyOp18
 70
     1
102
RTVSPropertyOp19
 70
     1
102
RTVSPropertyOp20
 70
     1
102
RTVSPropertyOp21
 70
     1
102
RTVSPropertyOp22
 70
     1
102
RTVSPropertyOp23
 70
     1
102
RTVSPropertyOp24
 70
     1
102
RTVSPropertyOp25
 70
     1
102
RTVSPropertyOp26
 70
     1
102
RTVSPropertyOp27
 70
     1
102
RTVSPropertyOp28
 70
     1
102
RTVSPropertyOp29
 70
     1
102
RTVSPropertyOp30
 70
     1
102
RTVSPropertyOp31
 70
     1
102
RTVSPropertyOp32
 70
     1
102
RTVSPropertyOp33
 70
     1
102
RTVSPropertyOp34
 70
     1
102
RTVSPropertyOp35
 70
     1
102
RTVSPropertyOp36
 70
     1
102
RTVSPropertyOp37
 70
     1
102
RTVSPropertyOp38
 70
     1
102
RTVSPropertyOp39
 70
     1
102
RTVSPropertyOp40
 70
     1
102
RTVSPropertyOp41
 70
     1
102
RTVSPropertyOp42
 70
     1
102
RTVSPropertyOp43
 70
     1
102
RTVSPropertyOp44
 70
     1
102
RTVSPropertyOp45
 70
     1
102
RTVSPropertyOp46
 70
     1
102
RTVSPropertyOp47
 70
     1
102
RTVSPropertyOp48
 70
     1
102
RTVSPropertyOp49
 70
     1
102
RTVSPropertyOp50
 70
     1
102
RTVSPropertyOp51
 70
     0
102
RTVSPropertyOp52
 70
     0
102
RTVSPropertyOp53
 70
     1
102
RTVSPropertyOp54
 70
     1
102
RTVSPropertyOp55
 70
     1
102
RTVSPropertyOp56
 70
     1
102
RTVSPropertyOp57
 70
     1
102
RTVSPost2010Prop28
280
     0
102
RTVSPost2010PropOp28
 70
     1
102
RTVSPost2010Prop29
280
     1
102
RTVSPost2010PropOp29
 70
     1
102
RTVSPost2010Prop30
280
     1
102
RTVSPost2010PropOp30
 70
     1
102
RTVSPost2010Prop31
280
     0
102
RTVSPost2010PropOp31
 70
     1
102
RTVSPost2010Prop32
280
     0
102
RTVSPost2010PropOp32
 70
     1
102
RTVSPost2010Prop33
280
     0
102
RTVSPost2010PropOp33
 70
     1
102
RTVSPost2010Prop34
280
     0
102
RTVSPost2010PropOp34
 70
     1
102
RTVSPost2010Prop35
280
     0
102
RTVSPost2010PropOp35
 70
     1
102
RTVSPost2010Prop36
280
     0
102
RTVSPost2010PropOp36
 70
     1
102
RTVSPost2010Prop37
 90
       50
102
RTVSPost2010PropOp37
 70
     1
102
RTVSPost2010Prop38
140
0.0
102
RTVSPost2010PropOp38
 70
     1
102
RTVSPost2010Prop39
140
1.0
102
RTVSPost2010PropOp39
 70
     1
102
RTVSPost2010Prop40
 90
        0
102
RTVSPost2010PropOp40
 70
     1
102
RTVSPost2010Prop41ColorIndex
 90
       18
102
RTVSPost2010Prop41ColorRGB
 90
        0
102
RTVSPost2010PropOp41
 70
     1
102
RTVSPost2010Prop42
 90
       50
102
RTVSPost2010PropOp42
 70
     1
102
RTVSPost2010Prop43
 90
        3
102
RTVSPost2010PropOp43
 70
     1
102
RTVSPost2010Prop44ColorIndex
 90
        5
102
RTVSPost2010Prop44ColorRGB
 90
      255
102
RTVSPost2010PropOp44
 70
     1
102
RTVSPost2010Prop45
280
     0
102
RTVSPost2010PropOp45
 70
     1
102
RTVSPost2010Prop46
 90
       50
102
RTVSPost2010PropOp46
 70
     1
102
RTVSPost2010Prop47
 90
       50
102
RTVSPost2010PropOp47
 70
     1
102
RTVSPost2010Prop48
 90
       50
102
RTVSPost2010PropOp48
 70
     1
102
RTVSPost2010Prop49
280
     0
102
RTVSPost2010PropOp49
 70
     1
102
RTVSPost2010Prop50
 90
       50
102
RTVSPost2010PropOp50
 70
     1
102
RTVSPost2010Prop51ColorIndex
 90
      256
102
RTVSPost2010Prop51ColorRGB
 90
-16777216
102
RTVSPost2010PropOp51
 70
     0
102
RTVSPost2010Prop52
140
1.0
102
RTVSPost2010PropOp52
 70
     0
102
RTVSPost2010Prop53
 90
        2
102
RTVSPost2010PropOp53
 70
     1
102
RTVSPost2010Prop54
  1
strokes_ogs.tif
102
RTVSPost2010PropOp54
 70
     1
102
RTVSPost2010Prop55
280
     0
102
RTVSPost2010PropOp55
 70
     1
102
RTVSPost2010Prop56
140
1.0
102
RTVSPost2010PropOp56
 70
     1
102
RTVSPost2010Prop57
140
1.0
102
RTVSPost2010PropOp57
 70
     1
  0
XRECORD
  5
106ACC1
102
{ACAD_REACTORS
330
106ACC0
102
}
330
106ACC0
100
AcDbXrecord
280
     1
102
RTVSPropertyOp0
 70
     1
102
RTVSPropertyOp1
 70
     1
102
RTVSPropertyOp2
 70
     1
102
RTVSPropertyOp3
 70
     1
102
RTVSPropertyOp4
 70
     1
102
RTVSPropertyOp5
 70
     1
102
RTVSPropertyOp6
 70
     1
102
RTVSPropertyOp7
 70
     1
102
RTVSPropertyOp8
 70
     1
102
RTVSPropertyOp9
 70
     1
102
RTVSPropertyOp10
 70
     1
102
RTVSPropertyOp11
 70
     1
102
RTVSPropertyOp12
 70
     1
102
RTVSPropertyOp13
 70
     1
102
RTVSPropertyOp14
 70
     1
102
RTVSPropertyOp15
 70
     1
102
RTVSPropertyOp16
 70
     1
102
RTVSPropertyOp17
 70
     1
102
RTVSPropertyOp18
 70
     1
102
RTVSPropertyOp19
 70
     1
102
RTVSPropertyOp20
 70
     1
102
RTVSPropertyOp21
 70
     1
102
RTVSPropertyOp22
 70
     1
102
RTVSPropertyOp23
 70
     1
102
RTVSPropertyOp24
 70
     1
102
RTVSPropertyOp25
 70
     1
102
RTVSPropertyOp26
 70
     1
102
RTVSPropertyOp27
 70
     1
102
RTVSPropertyOp28
 70
     1
102
RTVSPropertyOp29
 70
     1
102
RTVSPropertyOp30
 70
     1
102
RTVSPropertyOp31
 70
     1
102
RTVSPropertyOp32
 70
     1
102
RTVSPropertyOp33
 70
     1
102
RTVSPropertyOp34
 70
     1
102
RTVSPropertyOp35
 70
     1
102
RTVSPropertyOp36
 70
     1
102
RTVSPropertyOp37
 70
     1
102
RTVSPropertyOp38
 70
     1
102
RTVSPropertyOp39
 70
     1
102
RTVSPropertyOp40
 70
     1
102
RTVSPropertyOp41
 70
     1
102
RTVSPropertyOp42
 70
     1
102
RTVSPropertyOp43
 70
     1
102
RTVSPropertyOp44
 70
     1
102
RTVSPropertyOp45
 70
     1
102
RTVSPropertyOp46
 70
     1
102
RTVSPropertyOp47
 70
     1
102
RTVSPropertyOp48
 70
     1
102
RTVSPropertyOp49
 70
     1
102
RTVSPropertyOp50
 70
     1
102
RTVSPropertyOp51
 70
     0
102
RTVSPropertyOp52
 70
     0
102
RTVSPropertyOp53
 70
     1
102
RTVSPropertyOp54
 70
     1
102
RTVSPropertyOp55
 70
     1
102
RTVSPropertyOp56
 70
     1
102
RTVSPropertyOp57
 70
     1
102
RTVSPost2010Prop28
280
     0
102
RTVSPost2010PropOp28
 70
     1
102
RTVSPost2010Prop29
280
     1
102
RTVSPost2010PropOp29
 70
     1
102
RTVSPost2010Prop30
280
     1
102
RTVSPost2010PropOp30
 70
     1
102
RTVSPost2010Prop31
280
     0
102
RTVSPost2010PropOp31
 70
     1
102
RTVSPost2010Prop32
280
     0
102
RTVSPost2010PropOp32
 70
     1
102
RTVSPost2010Prop33
280
     0
102
RTVSPost2010PropOp33
 70
     1
102
RTVSPost2010Prop34
280
     0
102
RTVSPost2010PropOp34
 70
     1
102
RTVSPost2010Prop35
280
     0
102
RTVSPost2010PropOp35
 70
     1
102
RTVSPost2010Prop36
280
     0
102
RTVSPost2010PropOp36
 70
     1
102
RTVSPost2010Prop37
 90
       50
102
RTVSPost2010PropOp37
 70
     1
102
RTVSPost2010Prop38
140
0.0
102
RTVSPost2010PropOp38
 70
     1
102
RTVSPost2010Prop39
140
1.0
102
RTVSPost2010PropOp39
 70
     1
102
RTVSPost2010Prop40
 90
        0
102
RTVSPost2010PropOp40
 70
     1
102
RTVSPost2010Prop41ColorIndex
 90
       18
102
RTVSPost2010Prop41ColorRGB
 90
        0
102
RTVSPost2010PropOp41
 70
     1
102
RTVSPost2010Prop42
 90
       50
102
RTVSPost2010PropOp42
 70
     1
102
RTVSPost2010Prop43
 90
        3
102
RTVSPost2010PropOp43
 70
     1
102
RTVSPost2010Prop44ColorIndex
 90
        5
102
RTVSPost2010Prop44ColorRGB
 90
      255
102
RTVSPost2010PropOp44
 70
     1
102
RTVSPost2010Prop45
280
     0
102
RTVSPost2010PropOp45
 70
     1
102
RTVSPost2010Prop46
 90
       50
102
RTVSPost2010PropOp46
 70
     1
102
RTVSPost2010Prop47
 90
       50
102
RTVSPost2010PropOp47
 70
     1
102
RTVSPost2010Prop48
 90
       50
102
RTVSPost2010PropOp48
 70
     1
102
RTVSPost2010Prop49
280
     0
102
RTVSPost2010PropOp49
 70
     1
102
RTVSPost2010Prop50
 90
       50
102
RTVSPost2010PropOp50
 70
     1
102
RTVSPost2010Prop51ColorIndex
 90
      256
102
RTVSPost2010Prop51ColorRGB
 90
-16777216
102
RTVSPost2010PropOp51
 70
     0
102
RTVSPost2010Prop52
140
1.0
102
RTVSPost2010PropOp52
 70
     0
102
RTVSPost2010Prop53
 90
        2
102
RTVSPost2010PropOp53
 70
     1
102
RTVSPost2010Prop54
  1
strokes_ogs.tif
102
RTVSPost2010PropOp54
 70
     1
102
RTVSPost2010Prop55
280
     0
102
RTVSPost2010PropOp55
 70
     1
102
RTVSPost2010Prop56
140
1.0
102
RTVSPost2010PropOp56
 70
     1
102
RTVSPost2010Prop57
140
1.0
102
RTVSPost2010PropOp57
 70
     1
  0
XRECORD
  5
106ACC3
102
{ACAD_REACTORS
330
106ACC2
102
}
330
106ACC2
100
AcDbXrecord
280
     1
102
RTVSPropertyOp0
 70
     1
102
RTVSPropertyOp1
 70
     1
102
RTVSPropertyOp2
 70
     1
102
RTVSPropertyOp3
 70
     1
102
RTVSPropertyOp4
 70
     1
102
RTVSPropertyOp5
 70
     1
102
RTVSPropertyOp6
 70
     1
102
RTVSPropertyOp7
 70
     1
102
RTVSPropertyOp8
 70
     1
102
RTVSPropertyOp9
 70
     1
102
RTVSPropertyOp10
 70
     1
102
RTVSPropertyOp11
 70
     1
102
RTVSPropertyOp12
 70
     1
102
RTVSPropertyOp13
 70
     1
102
RTVSPropertyOp14
 70
     1
102
RTVSPropertyOp15
 70
     1
102
RTVSPropertyOp16
 70
     1
102
RTVSPropertyOp17
 70
     1
102
RTVSPropertyOp18
 70
     1
102
RTVSPropertyOp19
 70
     1
102
RTVSPropertyOp20
 70
     1
102
RTVSPropertyOp21
 70
     1
102
RTVSPropertyOp22
 70
     1
102
RTVSPropertyOp23
 70
     1
102
RTVSPropertyOp24
 70
     1
102
RTVSPropertyOp25
 70
     1
102
RTVSPropertyOp26
 70
     1
102
RTVSPropertyOp27
 70
     1
102
RTVSPropertyOp28
 70
     1
102
RTVSPropertyOp29
 70
     1
102
RTVSPropertyOp30
 70
     1
102
RTVSPropertyOp31
 70
     1
102
RTVSPropertyOp32
 70
     1
102
RTVSPropertyOp33
 70
     1
102
RTVSPropertyOp34
 70
     1
102
RTVSPropertyOp35
 70
     1
102
RTVSPropertyOp36
 70
     1
102
RTVSPropertyOp37
 70
     1
102
RTVSPropertyOp38
 70
     1
102
RTVSPropertyOp39
 70
     1
102
RTVSPropertyOp40
 70
     1
102
RTVSPropertyOp41
 70
     1
102
RTVSPropertyOp42
 70
     1
102
RTVSPropertyOp43
 70
     1
102
RTVSPropertyOp44
 70
     1
102
RTVSPropertyOp45
 70
     1
102
RTVSPropertyOp46
 70
     1
102
RTVSPropertyOp47
 70
     1
102
RTVSPropertyOp48
 70
     1
102
RTVSPropertyOp49
 70
     1
102
RTVSPropertyOp50
 70
     1
102
RTVSPropertyOp51
 70
     0
102
RTVSPropertyOp52
 70
     0
102
RTVSPropertyOp53
 70
     1
102
RTVSPropertyOp54
 70
     1
102
RTVSPropertyOp55
 70
     1
102
RTVSPropertyOp56
 70
     1
102
RTVSPropertyOp57
 70
     1
102
RTVSPost2010Prop28
280
     0
102
RTVSPost2010PropOp28
 70
     1
102
RTVSPost2010Prop29
280
     1
102
RTVSPost2010PropOp29
 70
     1
102
RTVSPost2010Prop30
280
     1
102
RTVSPost2010PropOp30
 70
     1
102
RTVSPost2010Prop31
280
     0
102
RTVSPost2010PropOp31
 70
     1
102
RTVSPost2010Prop32
280
     0
102
RTVSPost2010PropOp32
 70
     1
102
RTVSPost2010Prop33
280
     0
102
RTVSPost2010PropOp33
 70
     1
102
RTVSPost2010Prop34
280
     0
102
RTVSPost2010PropOp34
 70
     1
102
RTVSPost2010Prop35
280
     0
102
RTVSPost2010PropOp35
 70
     1
102
RTVSPost2010Prop36
280
     0
102
RTVSPost2010PropOp36
 70
     1
102
RTVSPost2010Prop37
 90
       50
102
RTVSPost2010PropOp37
 70
     1
102
RTVSPost2010Prop38
140
0.0
102
RTVSPost2010PropOp38
 70
     1
102
RTVSPost2010Prop39
140
1.0
102
RTVSPost2010PropOp39
 70
     1
102
RTVSPost2010Prop40
 90
        0
102
RTVSPost2010PropOp40
 70
     1
102
RTVSPost2010Prop41ColorIndex
 90
       18
102
RTVSPost2010Prop41ColorRGB
 90
        0
102
RTVSPost2010PropOp41
 70
     1
102
RTVSPost2010Prop42
 90
       50
102
RTVSPost2010PropOp42
 70
     1
102
RTVSPost2010Prop43
 90
        3
102
RTVSPost2010PropOp43
 70
     1
102
RTVSPost2010Prop44ColorIndex
 90
        5
102
RTVSPost2010Prop44ColorRGB
 90
      255
102
RTVSPost2010PropOp44
 70
     1
102
RTVSPost2010Prop45
280
     0
102
RTVSPost2010PropOp45
 70
     1
102
RTVSPost2010Prop46
 90
       50
102
RTVSPost2010PropOp46
 70
     1
102
RTVSPost2010Prop47
 90
       50
102
RTVSPost2010PropOp47
 70
     1
102
RTVSPost2010Prop48
 90
       50
102
RTVSPost2010PropOp48
 70
     1
102
RTVSPost2010Prop49
280
     0
102
RTVSPost2010PropOp49
 70
     1
102
RTVSPost2010Prop50
 90
       50
102
RTVSPost2010PropOp50
 70
     1
102
RTVSPost2010Prop51ColorIndex
 90
      256
102
RTVSPost2010Prop51ColorRGB
 90
-16777216
102
RTVSPost2010PropOp51
 70
     0
102
RTVSPost2010Prop52
140
1.0
102
RTVSPost2010PropOp52
 70
     0
102
RTVSPost2010Prop53
 90
        2
102
RTVSPost2010PropOp53
 70
     1
102
RTVSPost2010Prop54
  1
strokes_ogs.tif
102
RTVSPost2010PropOp54
 70
     1
102
RTVSPost2010Prop55
280
     0
102
RTVSPost2010PropOp55
 70
     1
102
RTVSPost2010Prop56
140
1.0
102
RTVSPost2010PropOp56
 70
     1
102
RTVSPost2010Prop57
140
1.0
102
RTVSPost2010PropOp57
 70
     1
  0
XRECORD
  5
106ACD3
102
{ACAD_REACTORS
330
106ACD2
102
}
330
106ACD2
100
AcDbXrecord
280
     1
102
RTVSPropertyOp0
 70
     0
102
RTVSPropertyOp1
 70
     0
102
RTVSPropertyOp2
 70
     0
102
RTVSPropertyOp3
 70
     0
102
RTVSPropertyOp4
 70
     0
102
RTVSPropertyOp5
 70
     0
102
RTVSPropertyOp6
 70
     0
102
RTVSPropertyOp7
 70
     0
102
RTVSPropertyOp8
 70
     0
102
RTVSPropertyOp9
 70
     0
102
RTVSPropertyOp10
 70
     0
102
RTVSPropertyOp11
 70
     0
102
RTVSPropertyOp12
 70
     0
102
RTVSPropertyOp13
 70
     0
102
RTVSPropertyOp14
 70
     2
102
RTVSPropertyOp15
 70
     0
102
RTVSPropertyOp16
 70
     0
102
RTVSPropertyOp17
 70
     0
102
RTVSPropertyOp18
 70
     0
102
RTVSPropertyOp19
 70
     0
102
RTVSPropertyOp20
 70
     0
102
RTVSPropertyOp21
 70
     0
102
RTVSPropertyOp22
 70
     0
102
RTVSPropertyOp23
 70
     0
102
RTVSPropertyOp24
 70
     0
102
RTVSPropertyOp25
 70
     0
102
RTVSPropertyOp26
 70
     0
102
RTVSPropertyOp27
 70
     0
102
RTVSPropertyOp28
 70
     0
102
RTVSPropertyOp29
 70
     0
102
RTVSPropertyOp30
 70
     0
102
RTVSPropertyOp31
 70
     0
102
RTVSPropertyOp32
 70
     0
102
RTVSPropertyOp33
 70
     0
102
RTVSPropertyOp34
 70
     0
102
RTVSPropertyOp35
 70
     0
102
RTVSPropertyOp36
 70
     0
102
RTVSPropertyOp37
 70
     0
102
RTVSPropertyOp38
 70
     0
102
RTVSPropertyOp39
 70
     0
102
RTVSPropertyOp40
 70
     0
102
RTVSPropertyOp41
 70
     0
102
RTVSPropertyOp42
 70
     0
102
RTVSPropertyOp43
 70
     0
102
RTVSPropertyOp44
 70
     0
102
RTVSPropertyOp45
 70
     0
102
RTVSPropertyOp46
 70
     0
102
RTVSPropertyOp47
 70
     0
102
RTVSPropertyOp48
 70
     0
102
RTVSPropertyOp49
 70
     0
102
RTVSPropertyOp50
 70
     0
102
RTVSPropertyOp51
 70
     0
102
RTVSPropertyOp52
 70
     0
102
RTVSPropertyOp53
 70
     0
102
RTVSPropertyOp54
 70
     0
102
RTVSPropertyOp55
 70
     0
102
RTVSPropertyOp56
 70
     0
102
RTVSPropertyOp57
 70
     0
102
RTVSPost2010Prop28
280
     0
102
RTVSPost2010PropOp28
 70
     0
102
RTVSPost2010Prop29
280
     1
102
RTVSPost2010PropOp29
 70
     0
102
RTVSPost2010Prop30
280
     1
102
RTVSPost2010PropOp30
 70
     0
102
RTVSPost2010Prop31
280
     0
102
RTVSPost2010PropOp31
 70
     0
102
RTVSPost2010Prop32
280
     0
102
RTVSPost2010PropOp32
 70
     0
102
RTVSPost2010Prop33
280
     0
102
RTVSPost2010PropOp33
 70
     0
102
RTVSPost2010Prop34
280
     0
102
RTVSPost2010PropOp34
 70
     0
102
RTVSPost2010Prop35
280
     0
102
RTVSPost2010PropOp35
 70
     0
102
RTVSPost2010Prop36
280
     0
102
RTVSPost2010PropOp36
 70
     0
102
RTVSPost2010Prop37
 90
       50
102
RTVSPost2010PropOp37
 70
     0
102
RTVSPost2010Prop38
140
0.0
102
RTVSPost2010PropOp38
 70
     0
102
RTVSPost2010Prop39
140
1.0
102
RTVSPost2010PropOp39
 70
     0
102
RTVSPost2010Prop40
 90
        0
102
RTVSPost2010PropOp40
 70
     0
102
RTVSPost2010Prop41ColorIndex
 90
       18
102
RTVSPost2010Prop41ColorRGB
 90
        0
102
RTVSPost2010PropOp41
 70
     0
102
RTVSPost2010Prop42
 90
       50
102
RTVSPost2010PropOp42
 70
     0
102
RTVSPost2010Prop43
 90
        3
102
RTVSPost2010PropOp43
 70
     0
102
RTVSPost2010Prop44ColorIndex
 90
        5
102
RTVSPost2010Prop44ColorRGB
 90
      255
102
RTVSPost2010PropOp44
 70
     0
102
RTVSPost2010Prop45
280
     0
102
RTVSPost2010PropOp45
 70
     0
102
RTVSPost2010Prop46
 90
       50
102
RTVSPost2010PropOp46
 70
     0
102
RTVSPost2010Prop47
 90
       50
102
RTVSPost2010PropOp47
 70
     0
102
RTVSPost2010Prop48
 90
       50
102
RTVSPost2010PropOp48
 70
     0
102
RTVSPost2010Prop49
280
     0
102
RTVSPost2010PropOp49
 70
     0
102
RTVSPost2010Prop50
 90
       50
102
RTVSPost2010PropOp50
 70
     0
102
RTVSPost2010Prop51ColorIndex
 90
      256
102
RTVSPost2010Prop51ColorRGB
 90
-16777216
102
RTVSPost2010PropOp51
 70
     0
102
RTVSPost2010Prop52
140
1.0
102
RTVSPost2010PropOp52
 70
     0
102
RTVSPost2010Prop53
 90
        2
102
RTVSPost2010PropOp53
 70
     0
102
RTVSPost2010Prop54
  1
strokes_ogs.tif
102
RTVSPost2010PropOp54
 70
     0
102
RTVSPost2010Prop55
280
     0
102
RTVSPost2010PropOp55
 70
     0
102
RTVSPost2010Prop56
140
1.0
102
RTVSPost2010PropOp56
 70
     0
102
RTVSPost2010Prop57
140
1.0
102
RTVSPost2010PropOp57
 70
     0
  0
XRECORD
  5
106ACCB
102
{ACAD_REACTORS
330
106ACCA
102
}
330
106ACCA
100
AcDbXrecord
280
     1
102
RTVSPropertyOp0
 70
     1
102
RTVSPropertyOp1
 70
     1
102
RTVSPropertyOp2
 70
     1
102
RTVSPropertyOp3
 70
     1
102
RTVSPropertyOp4
 70
     1
102
RTVSPropertyOp5
 70
     1
102
RTVSPropertyOp6
 70
     1
102
RTVSPropertyOp7
 70
     1
102
RTVSPropertyOp8
 70
     1
102
RTVSPropertyOp9
 70
     1
102
RTVSPropertyOp10
 70
     1
102
RTVSPropertyOp11
 70
     1
102
RTVSPropertyOp12
 70
     1
102
RTVSPropertyOp13
 70
     1
102
RTVSPropertyOp14
 70
     1
102
RTVSPropertyOp15
 70
     1
102
RTVSPropertyOp16
 70
     1
102
RTVSPropertyOp17
 70
     1
102
RTVSPropertyOp18
 70
     1
102
RTVSPropertyOp19
 70
     1
102
RTVSPropertyOp20
 70
     1
102
RTVSPropertyOp21
 70
     1
102
RTVSPropertyOp22
 70
     1
102
RTVSPropertyOp23
 70
     1
102
RTVSPropertyOp24
 70
     1
102
RTVSPropertyOp25
 70
     1
102
RTVSPropertyOp26
 70
     1
102
RTVSPropertyOp27
 70
     1
102
RTVSPropertyOp28
 70
     1
102
RTVSPropertyOp29
 70
     1
102
RTVSPropertyOp30
 70
     1
102
RTVSPropertyOp31
 70
     1
102
RTVSPropertyOp32
 70
     1
102
RTVSPropertyOp33
 70
     1
102
RTVSPropertyOp34
 70
     1
102
RTVSPropertyOp35
 70
     1
102
RTVSPropertyOp36
 70
     1
102
RTVSPropertyOp37
 70
     1
102
RTVSPropertyOp38
 70
     1
102
RTVSPropertyOp39
 70
     1
102
RTVSPropertyOp40
 70
     1
102
RTVSPropertyOp41
 70
     1
102
RTVSPropertyOp42
 70
     1
102
RTVSPropertyOp43
 70
     1
102
RTVSPropertyOp44
 70
     1
102
RTVSPropertyOp45
 70
     1
102
RTVSPropertyOp46
 70
     1
102
RTVSPropertyOp47
 70
     1
102
RTVSPropertyOp48
 70
     1
102
RTVSPropertyOp49
 70
     1
102
RTVSPropertyOp50
 70
     1
102
RTVSPropertyOp51
 70
     0
102
RTVSPropertyOp52
 70
     0
102
RTVSPropertyOp53
 70
     1
102
RTVSPropertyOp54
 70
     1
102
RTVSPropertyOp55
 70
     1
102
RTVSPropertyOp56
 70
     1
102
RTVSPropertyOp57
 70
     1
102
RTVSPost2010Prop28
280
     0
102
RTVSPost2010PropOp28
 70
     1
102
RTVSPost2010Prop29
280
     1
102
RTVSPost2010PropOp29
 70
     1
102
RTVSPost2010Prop30
280
     1
102
RTVSPost2010PropOp30
 70
     1
102
RTVSPost2010Prop31
280
     0
102
RTVSPost2010PropOp31
 70
     1
102
RTVSPost2010Prop32
280
     0
102
RTVSPost2010PropOp32
 70
     1
102
RTVSPost2010Prop33
280
     0
102
RTVSPost2010PropOp33
 70
     1
102
RTVSPost2010Prop34
280
     0
102
RTVSPost2010PropOp34
 70
     1
102
RTVSPost2010Prop35
280
     0
102
RTVSPost2010PropOp35
 70
     1
102
RTVSPost2010Prop36
280
     0
102
RTVSPost2010PropOp36
 70
     1
102
RTVSPost2010Prop37
 90
       50
102
RTVSPost2010PropOp37
 70
     1
102
RTVSPost2010Prop38
140
0.0
102
RTVSPost2010PropOp38
 70
     1
102
RTVSPost2010Prop39
140
1.0
102
RTVSPost2010PropOp39
 70
     1
102
RTVSPost2010Prop40
 90
        0
102
RTVSPost2010PropOp40
 70
     1
102
RTVSPost2010Prop41ColorIndex
 90
       18
102
RTVSPost2010Prop41ColorRGB
 90
        0
102
RTVSPost2010PropOp41
 70
     1
102
RTVSPost2010Prop42
 90
       50
102
RTVSPost2010PropOp42
 70
     1
102
RTVSPost2010Prop43
 90
        3
102
RTVSPost2010PropOp43
 70
     1
102
RTVSPost2010Prop44ColorIndex
 90
        5
102
RTVSPost2010Prop44ColorRGB
 90
      255
102
RTVSPost2010PropOp44
 70
     1
102
RTVSPost2010Prop45
280
     0
102
RTVSPost2010PropOp45
 70
     1
102
RTVSPost2010Prop46
 90
       50
102
RTVSPost2010PropOp46
 70
     1
102
RTVSPost2010Prop47
 90
       50
102
RTVSPost2010PropOp47
 70
     1
102
RTVSPost2010Prop48
 90
       50
102
RTVSPost2010PropOp48
 70
     1
102
RTVSPost2010Prop49
280
     0
102
RTVSPost2010PropOp49
 70
     1
102
RTVSPost2010Prop50
 90
       50
102
RTVSPost2010PropOp50
 70
     1
102
RTVSPost2010Prop51ColorIndex
 90
      256
102
RTVSPost2010Prop51ColorRGB
 90
-16777216
102
RTVSPost2010PropOp51
 70
     0
102
RTVSPost2010Prop52
140
1.0
102
RTVSPost2010PropOp52
 70
     0
102
RTVSPost2010Prop53
 90
        2
102
RTVSPost2010PropOp53
 70
     1
102
RTVSPost2010Prop54
  1
strokes_ogs.tif
102
RTVSPost2010PropOp54
 70
     1
102
RTVSPost2010Prop55
280
     0
102
RTVSPost2010PropOp55
 70
     1
102
RTVSPost2010Prop56
140
1.0
102
RTVSPost2010PropOp56
 70
     1
102
RTVSPost2010Prop57
140
1.0
102
RTVSPost2010PropOp57
 70
     1
  0
XRECORD
  5
106ACAF
102
{ACAD_REACTORS
330
106ACAE
102
}
330
106ACAE
100
AcDbXrecord
280
     1
102
RTVSPropertyOp0
 70
     1
102
RTVSPropertyOp1
 70
     1
102
RTVSPropertyOp2
 70
     1
102
RTVSPropertyOp3
 70
     1
102
RTVSPropertyOp4
 70
     1
102
RTVSPropertyOp5
 70
     1
102
RTVSPropertyOp6
 70
     1
102
RTVSPropertyOp7
 70
     1
102
RTVSPropertyOp8
 70
     1
102
RTVSPropertyOp9
 70
     1
102
RTVSPropertyOp10
 70
     1
102
RTVSPropertyOp11
 70
     1
102
RTVSPropertyOp12
 70
     1
102
RTVSPropertyOp13
 70
     1
102
RTVSPropertyOp14
 70
     1
102
RTVSPropertyOp15
 70
     1
102
RTVSPropertyOp16
 70
     1
102
RTVSPropertyOp17
 70
     1
102
RTVSPropertyOp18
 70
     1
102
RTVSPropertyOp19
 70
     1
102
RTVSPropertyOp20
 70
     1
102
RTVSPropertyOp21
 70
     1
102
RTVSPropertyOp22
 70
     1
102
RTVSPropertyOp23
 70
     1
102
RTVSPropertyOp24
 70
     1
102
RTVSPropertyOp25
 70
     1
102
RTVSPropertyOp26
 70
     1
102
RTVSPropertyOp27
 70
     1
102
RTVSPropertyOp28
 70
     1
102
RTVSPropertyOp29
 70
     1
102
RTVSPropertyOp30
 70
     1
102
RTVSPropertyOp31
 70
     1
102
RTVSPropertyOp32
 70
     1
102
RTVSPropertyOp33
 70
     1
102
RTVSPropertyOp34
 70
     1
102
RTVSPropertyOp35
 70
     1
102
RTVSPropertyOp36
 70
     1
102
RTVSPropertyOp37
 70
     1
102
RTVSPropertyOp38
 70
     1
102
RTVSPropertyOp39
 70
     1
102
RTVSPropertyOp40
 70
     1
102
RTVSPropertyOp41
 70
     1
102
RTVSPropertyOp42
 70
     1
102
RTVSPropertyOp43
 70
     1
102
RTVSPropertyOp44
 70
     1
102
RTVSPropertyOp45
 70
     1
102
RTVSPropertyOp46
 70
     1
102
RTVSPropertyOp47
 70
     1
102
RTVSPropertyOp48
 70
     1
102
RTVSPropertyOp49
 70
     1
102
RTVSPropertyOp50
 70
     1
102
RTVSPropertyOp51
 70
     0
102
RTVSPropertyOp52
 70
     0
102
RTVSPropertyOp53
 70
     1
102
RTVSPropertyOp54
 70
     1
102
RTVSPropertyOp55
 70
     1
102
RTVSPropertyOp56
 70
     1
102
RTVSPropertyOp57
 70
     1
102
RTVSPost2010Prop28
280
     0
102
RTVSPost2010PropOp28
 70
     1
102
RTVSPost2010Prop29
280
     1
102
RTVSPost2010PropOp29
 70
     1
102
RTVSPost2010Prop30
280
     1
102
RTVSPost2010PropOp30
 70
     1
102
RTVSPost2010Prop31
280
     0
102
RTVSPost2010PropOp31
 70
     1
102
RTVSPost2010Prop32
280
     0
102
RTVSPost2010PropOp32
 70
     1
102
RTVSPost2010Prop33
280
     0
102
RTVSPost2010PropOp33
 70
     1
102
RTVSPost2010Prop34
280
     0
102
RTVSPost2010PropOp34
 70
     1
102
RTVSPost2010Prop35
280
     0
102
RTVSPost2010PropOp35
 70
     1
102
RTVSPost2010Prop36
280
     0
102
RTVSPost2010PropOp36
 70
     1
102
RTVSPost2010Prop37
 90
       50
102
RTVSPost2010PropOp37
 70
     1
102
RTVSPost2010Prop38
140
0.0
102
RTVSPost2010PropOp38
 70
     1
102
RTVSPost2010Prop39
140
1.0
102
RTVSPost2010PropOp39
 70
     1
102
RTVSPost2010Prop40
 90
        0
102
RTVSPost2010PropOp40
 70
     1
102
RTVSPost2010Prop41ColorIndex
 90
       18
102
RTVSPost2010Prop41ColorRGB
 90
        0
102
RTVSPost2010PropOp41
 70
     1
102
RTVSPost2010Prop42
 90
       50
102
RTVSPost2010PropOp42
 70
     1
102
RTVSPost2010Prop43
 90
        3
102
RTVSPost2010PropOp43
 70
     1
102
RTVSPost2010Prop44ColorIndex
 90
        5
102
RTVSPost2010Prop44ColorRGB
 90
      255
102
RTVSPost2010PropOp44
 70
     1
102
RTVSPost2010Prop45
280
     0
102
RTVSPost2010PropOp45
 70
     1
102
RTVSPost2010Prop46
 90
       50
102
RTVSPost2010PropOp46
 70
     1
102
RTVSPost2010Prop47
 90
       50
102
RTVSPost2010PropOp47
 70
     1
102
RTVSPost2010Prop48
 90
       50
102
RTVSPost2010PropOp48
 70
     1
102
RTVSPost2010Prop49
280
     0
102
RTVSPost2010PropOp49
 70
     1
102
RTVSPost2010Prop50
 90
       50
102
RTVSPost2010PropOp50
 70
     1
102
RTVSPost2010Prop51ColorIndex
 90
      256
102
RTVSPost2010Prop51ColorRGB
 90
-16777216
102
RTVSPost2010PropOp51
 70
     0
102
RTVSPost2010Prop52
140
1.0
102
RTVSPost2010PropOp52
 70
     0
102
RTVSPost2010Prop53
 90
        2
102
RTVSPost2010PropOp53
 70
     1
102
RTVSPost2010Prop54
  1
strokes_ogs.tif
102
RTVSPost2010PropOp54
 70
     1
102
RTVSPost2010Prop55
280
     0
102
RTVSPost2010PropOp55
 70
     1
102
RTVSPost2010Prop56
140
1.0
102
RTVSPost2010PropOp56
 70
     1
102
RTVSPost2010Prop57
140
1.0
102
RTVSPost2010PropOp57
 70
     1
  0
XRECORD
  5
106ACB1
102
{ACAD_REACTORS
330
106ACB0
102
}
330
106ACB0
100
AcDbXrecord
280
     1
102
RTVSPropertyOp0
 70
     1
102
RTVSPropertyOp1
 70
     1
102
RTVSPropertyOp2
 70
     1
102
RTVSPropertyOp3
 70
     1
102
RTVSPropertyOp4
 70
     1
102
RTVSPropertyOp5
 70
     1
102
RTVSPropertyOp6
 70
     1
102
RTVSPropertyOp7
 70
     1
102
RTVSPropertyOp8
 70
     1
102
RTVSPropertyOp9
 70
     1
102
RTVSPropertyOp10
 70
     1
102
RTVSPropertyOp11
 70
     1
102
RTVSPropertyOp12
 70
     1
102
RTVSPropertyOp13
 70
     1
102
RTVSPropertyOp14
 70
     1
102
RTVSPropertyOp15
 70
     1
102
RTVSPropertyOp16
 70
     1
102
RTVSPropertyOp17
 70
     1
102
RTVSPropertyOp18
 70
     1
102
RTVSPropertyOp19
 70
     1
102
RTVSPropertyOp20
 70
     1
102
RTVSPropertyOp21
 70
     1
102
RTVSPropertyOp22
 70
     1
102
RTVSPropertyOp23
 70
     1
102
RTVSPropertyOp24
 70
     1
102
RTVSPropertyOp25
 70
     1
102
RTVSPropertyOp26
 70
     1
102
RTVSPropertyOp27
 70
     1
102
RTVSPropertyOp28
 70
     1
102
RTVSPropertyOp29
 70
     1
102
RTVSPropertyOp30
 70
     1
102
RTVSPropertyOp31
 70
     1
102
RTVSPropertyOp32
 70
     1
102
RTVSPropertyOp33
 70
     1
102
RTVSPropertyOp34
 70
     1
102
RTVSPropertyOp35
 70
     1
102
RTVSPropertyOp36
 70
     1
102
RTVSPropertyOp37
 70
     1
102
RTVSPropertyOp38
 70
     1
102
RTVSPropertyOp39
 70
     1
102
RTVSPropertyOp40
 70
     1
102
RTVSPropertyOp41
 70
     1
102
RTVSPropertyOp42
 70
     1
102
RTVSPropertyOp43
 70
     1
102
RTVSPropertyOp44
 70
     1
102
RTVSPropertyOp45
 70
     1
102
RTVSPropertyOp46
 70
     1
102
RTVSPropertyOp47
 70
     1
102
RTVSPropertyOp48
 70
     1
102
RTVSPropertyOp49
 70
     1
102
RTVSPropertyOp50
 70
     1
102
RTVSPropertyOp51
 70
     0
102
RTVSPropertyOp52
 70
     0
102
RTVSPropertyOp53
 70
     1
102
RTVSPropertyOp54
 70
     1
102
RTVSPropertyOp55
 70
     1
102
RTVSPropertyOp56
 70
     1
102
RTVSPropertyOp57
 70
     1
102
RTVSPost2010Prop28
280
     0
102
RTVSPost2010PropOp28
 70
     1
102
RTVSPost2010Prop29
280
     1
102
RTVSPost2010PropOp29
 70
     1
102
RTVSPost2010Prop30
280
     1
102
RTVSPost2010PropOp30
 70
     1
102
RTVSPost2010Prop31
280
     0
102
RTVSPost2010PropOp31
 70
     1
102
RTVSPost2010Prop32
280
     0
102
RTVSPost2010PropOp32
 70
     1
102
RTVSPost2010Prop33
280
     0
102
RTVSPost2010PropOp33
 70
     1
102
RTVSPost2010Prop34
280
     0
102
RTVSPost2010PropOp34
 70
     1
102
RTVSPost2010Prop35
280
     0
102
RTVSPost2010PropOp35
 70
     1
102
RTVSPost2010Prop36
280
     0
102
RTVSPost2010PropOp36
 70
     1
102
RTVSPost2010Prop37
 90
       50
102
RTVSPost2010PropOp37
 70
     1
102
RTVSPost2010Prop38
140
0.0
102
RTVSPost2010PropOp38
 70
     1
102
RTVSPost2010Prop39
140
1.0
102
RTVSPost2010PropOp39
 70
     1
102
RTVSPost2010Prop40
 90
        0
102
RTVSPost2010PropOp40
 70
     1
102
RTVSPost2010Prop41ColorIndex
 90
       18
102
RTVSPost2010Prop41ColorRGB
 90
        0
102
RTVSPost2010PropOp41
 70
     1
102
RTVSPost2010Prop42
 90
       50
102
RTVSPost2010PropOp42
 70
     1
102
RTVSPost2010Prop43
 90
        3
102
RTVSPost2010PropOp43
 70
     1
102
RTVSPost2010Prop44ColorIndex
 90
        5
102
RTVSPost2010Prop44ColorRGB
 90
      255
102
RTVSPost2010PropOp44
 70
     1
102
RTVSPost2010Prop45
280
     0
102
RTVSPost2010PropOp45
 70
     1
102
RTVSPost2010Prop46
 90
       50
102
RTVSPost2010PropOp46
 70
     1
102
RTVSPost2010Prop47
 90
       50
102
RTVSPost2010PropOp47
 70
     1
102
RTVSPost2010Prop48
 90
       50
102
RTVSPost2010PropOp48
 70
     1
102
RTVSPost2010Prop49
280
     0
102
RTVSPost2010PropOp49
 70
     1
102
RTVSPost2010Prop50
 90
       50
102
RTVSPost2010PropOp50
 70
     1
102
RTVSPost2010Prop51ColorIndex
 90
      256
102
RTVSPost2010Prop51ColorRGB
 90
-16777216
102
RTVSPost2010PropOp51
 70
     0
102
RTVSPost2010Prop52
140
1.0
102
RTVSPost2010PropOp52
 70
     0
102
RTVSPost2010Prop53
 90
        2
102
RTVSPost2010PropOp53
 70
     1
102
RTVSPost2010Prop54
  1
strokes_ogs.tif
102
RTVSPost2010PropOp54
 70
     1
102
RTVSPost2010Prop55
280
     0
102
RTVSPost2010PropOp55
 70
     1
102
RTVSPost2010Prop56
140
1.0
102
RTVSPost2010PropOp56
 70
     1
102
RTVSPost2010Prop57
140
1.0
102
RTVSPost2010PropOp57
 70
     1
  0
XRECORD
  5
106ACB3
102
{ACAD_REACTORS
330
106ACB2
102
}
330
106ACB2
100
AcDbXrecord
280
     1
102
RTVSPropertyOp0
 70
     1
102
RTVSPropertyOp1
 70
     1
102
RTVSPropertyOp2
 70
     1
102
RTVSPropertyOp3
 70
     1
102
RTVSPropertyOp4
 70
     1
102
RTVSPropertyOp5
 70
     1
102
RTVSPropertyOp6
 70
     1
102
RTVSPropertyOp7
 70
     1
102
RTVSPropertyOp8
 70
     1
102
RTVSPropertyOp9
 70
     1
102
RTVSPropertyOp10
 70
     1
102
RTVSPropertyOp11
 70
     1
102
RTVSPropertyOp12
 70
     1
102
RTVSPropertyOp13
 70
     1
102
RTVSPropertyOp14
 70
     1
102
RTVSPropertyOp15
 70
     1
102
RTVSPropertyOp16
 70
     1
102
RTVSPropertyOp17
 70
     1
102
RTVSPropertyOp18
 70
     1
102
RTVSPropertyOp19
 70
     1
102
RTVSPropertyOp20
 70
     1
102
RTVSPropertyOp21
 70
     1
102
RTVSPropertyOp22
 70
     1
102
RTVSPropertyOp23
 70
     1
102
RTVSPropertyOp24
 70
     1
102
RTVSPropertyOp25
 70
     1
102
RTVSPropertyOp26
 70
     1
102
RTVSPropertyOp27
 70
     1
102
RTVSPropertyOp28
 70
     1
102
RTVSPropertyOp29
 70
     1
102
RTVSPropertyOp30
 70
     1
102
RTVSPropertyOp31
 70
     1
102
RTVSPropertyOp32
 70
     1
102
RTVSPropertyOp33
 70
     1
102
RTVSPropertyOp34
 70
     1
102
RTVSPropertyOp35
 70
     1
102
RTVSPropertyOp36
 70
     1
102
RTVSPropertyOp37
 70
     1
102
RTVSPropertyOp38
 70
     1
102
RTVSPropertyOp39
 70
     1
102
RTVSPropertyOp40
 70
     1
102
RTVSPropertyOp41
 70
     1
102
RTVSPropertyOp42
 70
     1
102
RTVSPropertyOp43
 70
     1
102
RTVSPropertyOp44
 70
     1
102
RTVSPropertyOp45
 70
     1
102
RTVSPropertyOp46
 70
     1
102
RTVSPropertyOp47
 70
     1
102
RTVSPropertyOp48
 70
     1
102
RTVSPropertyOp49
 70
     1
102
RTVSPropertyOp50
 70
     1
102
RTVSPropertyOp51
 70
     0
102
RTVSPropertyOp52
 70
     0
102
RTVSPropertyOp53
 70
     1
102
RTVSPropertyOp54
 70
     1
102
RTVSPropertyOp55
 70
     1
102
RTVSPropertyOp56
 70
     1
102
RTVSPropertyOp57
 70
     1
102
RTVSPost2010Prop28
280
     0
102
RTVSPost2010PropOp28
 70
     1
102
RTVSPost2010Prop29
280
     1
102
RTVSPost2010PropOp29
 70
     1
102
RTVSPost2010Prop30
280
     1
102
RTVSPost2010PropOp30
 70
     1
102
RTVSPost2010Prop31
280
     0
102
RTVSPost2010PropOp31
 70
     1
102
RTVSPost2010Prop32
280
     0
102
RTVSPost2010PropOp32
 70
     1
102
RTVSPost2010Prop33
280
     0
102
RTVSPost2010PropOp33
 70
     1
102
RTVSPost2010Prop34
280
     0
102
RTVSPost2010PropOp34
 70
     1
102
RTVSPost2010Prop35
280
     0
102
RTVSPost2010PropOp35
 70
     1
102
RTVSPost2010Prop36
280
     0
102
RTVSPost2010PropOp36
 70
     1
102
RTVSPost2010Prop37
 90
       50
102
RTVSPost2010PropOp37
 70
     1
102
RTVSPost2010Prop38
140
0.0
102
RTVSPost2010PropOp38
 70
     1
102
RTVSPost2010Prop39
140
1.0
102
RTVSPost2010PropOp39
 70
     1
102
RTVSPost2010Prop40
 90
        0
102
RTVSPost2010PropOp40
 70
     1
102
RTVSPost2010Prop41ColorIndex
 90
       18
102
RTVSPost2010Prop41ColorRGB
 90
        0
102
RTVSPost2010PropOp41
 70
     1
102
RTVSPost2010Prop42
 90
       50
102
RTVSPost2010PropOp42
 70
     1
102
RTVSPost2010Prop43
 90
        3
102
RTVSPost2010PropOp43
 70
     1
102
RTVSPost2010Prop44ColorIndex
 90
        5
102
RTVSPost2010Prop44ColorRGB
 90
      255
102
RTVSPost2010PropOp44
 70
     1
102
RTVSPost2010Prop45
280
     0
102
RTVSPost2010PropOp45
 70
     1
102
RTVSPost2010Prop46
 90
       50
102
RTVSPost2010PropOp46
 70
     1
102
RTVSPost2010Prop47
 90
       50
102
RTVSPost2010PropOp47
 70
     1
102
RTVSPost2010Prop48
 90
       50
102
RTVSPost2010PropOp48
 70
     1
102
RTVSPost2010Prop49
280
     0
102
RTVSPost2010PropOp49
 70
     1
102
RTVSPost2010Prop50
 90
       50
102
RTVSPost2010PropOp50
 70
     1
102
RTVSPost2010Prop51ColorIndex
 90
      256
102
RTVSPost2010Prop51ColorRGB
 90
-16777216
102
RTVSPost2010PropOp51
 70
     0
102
RTVSPost2010Prop52
140
1.0
102
RTVSPost2010PropOp52
 70
     0
102
RTVSPost2010Prop53
 90
        2
102
RTVSPost2010PropOp53
 70
     1
102
RTVSPost2010Prop54
  1
strokes_ogs.tif
102
RTVSPost2010PropOp54
 70
     1
102
RTVSPost2010Prop55
280
     0
102
RTVSPost2010PropOp55
 70
     1
102
RTVSPost2010Prop56
140
1.0
102
RTVSPost2010PropOp56
 70
     1
102
RTVSPost2010Prop57
140
1.0
102
RTVSPost2010PropOp57
 70
     1
  0
XRECORD
  5
106ACB5
102
{ACAD_REACTORS
330
106ACB4
102
}
330
106ACB4
100
AcDbXrecord
280
     1
102
RTVSPropertyOp0
 70
     1
102
RTVSPropertyOp1
 70
     1
102
RTVSPropertyOp2
 70
     1
102
RTVSPropertyOp3
 70
     1
102
RTVSPropertyOp4
 70
     1
102
RTVSPropertyOp5
 70
     1
102
RTVSPropertyOp6
 70
     1
102
RTVSPropertyOp7
 70
     1
102
RTVSPropertyOp8
 70
     1
102
RTVSPropertyOp9
 70
     1
102
RTVSPropertyOp10
 70
     1
102
RTVSPropertyOp11
 70
     1
102
RTVSPropertyOp12
 70
     1
102
RTVSPropertyOp13
 70
     1
102
RTVSPropertyOp14
 70
     1
102
RTVSPropertyOp15
 70
     1
102
RTVSPropertyOp16
 70
     1
102
RTVSPropertyOp17
 70
     1
102
RTVSPropertyOp18
 70
     1
102
RTVSPropertyOp19
 70
     1
102
RTVSPropertyOp20
 70
     1
102
RTVSPropertyOp21
 70
     1
102
RTVSPropertyOp22
 70
     1
102
RTVSPropertyOp23
 70
     1
102
RTVSPropertyOp24
 70
     1
102
RTVSPropertyOp25
 70
     1
102
RTVSPropertyOp26
 70
     1
102
RTVSPropertyOp27
 70
     1
102
RTVSPropertyOp28
 70
     1
102
RTVSPropertyOp29
 70
     1
102
RTVSPropertyOp30
 70
     1
102
RTVSPropertyOp31
 70
     1
102
RTVSPropertyOp32
 70
     1
102
RTVSPropertyOp33
 70
     1
102
RTVSPropertyOp34
 70
     1
102
RTVSPropertyOp35
 70
     1
102
RTVSPropertyOp36
 70
     1
102
RTVSPropertyOp37
 70
     1
102
RTVSPropertyOp38
 70
     1
102
RTVSPropertyOp39
 70
     1
102
RTVSPropertyOp40
 70
     1
102
RTVSPropertyOp41
 70
     1
102
RTVSPropertyOp42
 70
     1
102
RTVSPropertyOp43
 70
     1
102
RTVSPropertyOp44
 70
     1
102
RTVSPropertyOp45
 70
     1
102
RTVSPropertyOp46
 70
     1
102
RTVSPropertyOp47
 70
     1
102
RTVSPropertyOp48
 70
     1
102
RTVSPropertyOp49
 70
     1
102
RTVSPropertyOp50
 70
     1
102
RTVSPropertyOp51
 70
     0
102
RTVSPropertyOp52
 70
     0
102
RTVSPropertyOp53
 70
     1
102
RTVSPropertyOp54
 70
     1
102
RTVSPropertyOp55
 70
     1
102
RTVSPropertyOp56
 70
     1
102
RTVSPropertyOp57
 70
     1
102
RTVSPost2010Prop28
280
     0
102
RTVSPost2010PropOp28
 70
     1
102
RTVSPost2010Prop29
280
     1
102
RTVSPost2010PropOp29
 70
     1
102
RTVSPost2010Prop30
280
     1
102
RTVSPost2010PropOp30
 70
     1
102
RTVSPost2010Prop31
280
     0
102
RTVSPost2010PropOp31
 70
     1
102
RTVSPost2010Prop32
280
     0
102
RTVSPost2010PropOp32
 70
     1
102
RTVSPost2010Prop33
280
     0
102
RTVSPost2010PropOp33
 70
     1
102
RTVSPost2010Prop34
280
     0
102
RTVSPost2010PropOp34
 70
     1
102
RTVSPost2010Prop35
280
     0
102
RTVSPost2010PropOp35
 70
     1
102
RTVSPost2010Prop36
280
     0
102
RTVSPost2010PropOp36
 70
     1
102
RTVSPost2010Prop37
 90
       50
102
RTVSPost2010PropOp37
 70
     1
102
RTVSPost2010Prop38
140
0.0
102
RTVSPost2010PropOp38
 70
     1
102
RTVSPost2010Prop39
140
1.0
102
RTVSPost2010PropOp39
 70
     1
102
RTVSPost2010Prop40
 90
        0
102
RTVSPost2010PropOp40
 70
     1
102
RTVSPost2010Prop41ColorIndex
 90
       18
102
RTVSPost2010Prop41ColorRGB
 90
        0
102
RTVSPost2010PropOp41
 70
     1
102
RTVSPost2010Prop42
 90
       50
102
RTVSPost2010PropOp42
 70
     1
102
RTVSPost2010Prop43
 90
        3
102
RTVSPost2010PropOp43
 70
     1
102
RTVSPost2010Prop44ColorIndex
 90
        5
102
RTVSPost2010Prop44ColorRGB
 90
      255
102
RTVSPost2010PropOp44
 70
     1
102
RTVSPost2010Prop45
280
     0
102
RTVSPost2010PropOp45
 70
     1
102
RTVSPost2010Prop46
 90
       50
102
RTVSPost2010PropOp46
 70
     1
102
RTVSPost2010Prop47
 90
       50
102
RTVSPost2010PropOp47
 70
     1
102
RTVSPost2010Prop48
 90
       50
102
RTVSPost2010PropOp48
 70
     1
102
RTVSPost2010Prop49
280
     0
102
RTVSPost2010PropOp49
 70
     1
102
RTVSPost2010Prop50
 90
       50
102
RTVSPost2010PropOp50
 70
     1
102
RTVSPost2010Prop51ColorIndex
 90
      256
102
RTVSPost2010Prop51ColorRGB
 90
-16777216
102
RTVSPost2010PropOp51
 70
     0
102
RTVSPost2010Prop52
140
1.0
102
RTVSPost2010PropOp52
 70
     0
102
RTVSPost2010Prop53
 90
        2
102
RTVSPost2010PropOp53
 70
     1
102
RTVSPost2010Prop54
  1
strokes_ogs.tif
102
RTVSPost2010PropOp54
 70
     1
102
RTVSPost2010Prop55
280
     0
102
RTVSPost2010PropOp55
 70
     1
102
RTVSPost2010Prop56
140
1.0
102
RTVSPost2010PropOp56
 70
     1
102
RTVSPost2010Prop57
140
1.0
102
RTVSPost2010PropOp57
 70
     1
  0
XRECORD
  5
106ACBB
102
{ACAD_REACTORS
330
106ACBA
102
}
330
106ACBA
100
AcDbXrecord
280
     1
102
RTVSPropertyOp0
 70
     1
102
RTVSPropertyOp1
 70
     1
102
RTVSPropertyOp2
 70
     1
102
RTVSPropertyOp3
 70
     1
102
RTVSPropertyOp4
 70
     1
102
RTVSPropertyOp5
 70
     1
102
RTVSPropertyOp6
 70
     1
102
RTVSPropertyOp7
 70
     1
102
RTVSPropertyOp8
 70
     1
102
RTVSPropertyOp9
 70
     1
102
RTVSPropertyOp10
 70
     1
102
RTVSPropertyOp11
 70
     1
102
RTVSPropertyOp12
 70
     1
102
RTVSPropertyOp13
 70
     1
102
RTVSPropertyOp14
 70
     1
102
RTVSPropertyOp15
 70
     1
102
RTVSPropertyOp16
 70
     1
102
RTVSPropertyOp17
 70
     1
102
RTVSPropertyOp18
 70
     1
102
RTVSPropertyOp19
 70
     1
102
RTVSPropertyOp20
 70
     1
102
RTVSPropertyOp21
 70
     1
102
RTVSPropertyOp22
 70
     1
102
RTVSPropertyOp23
 70
     1
102
RTVSPropertyOp24
 70
     1
102
RTVSPropertyOp25
 70
     1
102
RTVSPropertyOp26
 70
     1
102
RTVSPropertyOp27
 70
     1
102
RTVSPropertyOp28
 70
     1
102
RTVSPropertyOp29
 70
     1
102
RTVSPropertyOp30
 70
     1
102
RTVSPropertyOp31
 70
     1
102
RTVSPropertyOp32
 70
     1
102
RTVSPropertyOp33
 70
     1
102
RTVSPropertyOp34
 70
     1
102
RTVSPropertyOp35
 70
     1
102
RTVSPropertyOp36
 70
     1
102
RTVSPropertyOp37
 70
     1
102
RTVSPropertyOp38
 70
     1
102
RTVSPropertyOp39
 70
     1
102
RTVSPropertyOp40
 70
     1
102
RTVSPropertyOp41
 70
     1
102
RTVSPropertyOp42
 70
     1
102
RTVSPropertyOp43
 70
     1
102
RTVSPropertyOp44
 70
     1
102
RTVSPropertyOp45
 70
     1
102
RTVSPropertyOp46
 70
     1
102
RTVSPropertyOp47
 70
     1
102
RTVSPropertyOp48
 70
     1
102
RTVSPropertyOp49
 70
     1
102
RTVSPropertyOp50
 70
     1
102
RTVSPropertyOp51
 70
     0
102
RTVSPropertyOp52
 70
     0
102
RTVSPropertyOp53
 70
     1
102
RTVSPropertyOp54
 70
     1
102
RTVSPropertyOp55
 70
     1
102
RTVSPropertyOp56
 70
     1
102
RTVSPropertyOp57
 70
     1
102
RTVSPost2010Prop28
280
     0
102
RTVSPost2010PropOp28
 70
     1
102
RTVSPost2010Prop29
280
     1
102
RTVSPost2010PropOp29
 70
     1
102
RTVSPost2010Prop30
280
     1
102
RTVSPost2010PropOp30
 70
     1
102
RTVSPost2010Prop31
280
     0
102
RTVSPost2010PropOp31
 70
     1
102
RTVSPost2010Prop32
280
     0
102
RTVSPost2010PropOp32
 70
     1
102
RTVSPost2010Prop33
280
     0
102
RTVSPost2010PropOp33
 70
     1
102
RTVSPost2010Prop34
280
     0
102
RTVSPost2010PropOp34
 70
     1
102
RTVSPost2010Prop35
280
     0
102
RTVSPost2010PropOp35
 70
     1
102
RTVSPost2010Prop36
280
     0
102
RTVSPost2010PropOp36
 70
     1
102
RTVSPost2010Prop37
 90
       50
102
RTVSPost2010PropOp37
 70
     1
102
RTVSPost2010Prop38
140
0.0
102
RTVSPost2010PropOp38
 70
     1
102
RTVSPost2010Prop39
140
1.0
102
RTVSPost2010PropOp39
 70
     1
102
RTVSPost2010Prop40
 90
        0
102
RTVSPost2010PropOp40
 70
     1
102
RTVSPost2010Prop41ColorIndex
 90
       18
102
RTVSPost2010Prop41ColorRGB
 90
        0
102
RTVSPost2010PropOp41
 70
     1
102
RTVSPost2010Prop42
 90
       50
102
RTVSPost2010PropOp42
 70
     1
102
RTVSPost2010Prop43
 90
        3
102
RTVSPost2010PropOp43
 70
     1
102
RTVSPost2010Prop44ColorIndex
 90
        5
102
RTVSPost2010Prop44ColorRGB
 90
      255
102
RTVSPost2010PropOp44
 70
     1
102
RTVSPost2010Prop45
280
     0
102
RTVSPost2010PropOp45
 70
     1
102
RTVSPost2010Prop46
 90
       50
102
RTVSPost2010PropOp46
 70
     1
102
RTVSPost2010Prop47
 90
       50
102
RTVSPost2010PropOp47
 70
     1
102
RTVSPost2010Prop48
 90
       50
102
RTVSPost2010PropOp48
 70
     1
102
RTVSPost2010Prop49
280
     0
102
RTVSPost2010PropOp49
 70
     1
102
RTVSPost2010Prop50
 90
       50
102
RTVSPost2010PropOp50
 70
     1
102
RTVSPost2010Prop51ColorIndex
 90
      256
102
RTVSPost2010Prop51ColorRGB
 90
-16777216
102
RTVSPost2010PropOp51
 70
     0
102
RTVSPost2010Prop52
140
1.0
102
RTVSPost2010PropOp52
 70
     0
102
RTVSPost2010Prop53
 90
        2
102
RTVSPost2010PropOp53
 70
     1
102
RTVSPost2010Prop54
  1
strokes_ogs.tif
102
RTVSPost2010PropOp54
 70
     1
102
RTVSPost2010Prop55
280
     0
102
RTVSPost2010PropOp55
 70
     1
102
RTVSPost2010Prop56
140
1.0
102
RTVSPost2010PropOp56
 70
     1
102
RTVSPost2010Prop57
140
1.0
102
RTVSPost2010PropOp57
 70
     1
  0
XRECORD
  5
106ACCF
102
{ACAD_REACTORS
330
106ACCE
102
}
330
106ACCE
100
AcDbXrecord
280
     1
102
RTVSPropertyOp0
 70
     0
102
RTVSPropertyOp1
 70
     0
102
RTVSPropertyOp2
 70
     0
102
RTVSPropertyOp3
 70
     0
102
RTVSPropertyOp4
 70
     0
102
RTVSPropertyOp5
 70
     0
102
RTVSPropertyOp6
 70
     0
102
RTVSPropertyOp7
 70
     0
102
RTVSPropertyOp8
 70
     0
102
RTVSPropertyOp9
 70
     0
102
RTVSPropertyOp10
 70
     0
102
RTVSPropertyOp11
 70
     0
102
RTVSPropertyOp12
 70
     0
102
RTVSPropertyOp13
 70
     0
102
RTVSPropertyOp14
 70
     2
102
RTVSPropertyOp15
 70
     0
102
RTVSPropertyOp16
 70
     0
102
RTVSPropertyOp17
 70
     0
102
RTVSPropertyOp18
 70
     0
102
RTVSPropertyOp19
 70
     0
102
RTVSPropertyOp20
 70
     0
102
RTVSPropertyOp21
 70
     0
102
RTVSPropertyOp22
 70
     0
102
RTVSPropertyOp23
 70
     0
102
RTVSPropertyOp24
 70
     0
102
RTVSPropertyOp25
 70
     0
102
RTVSPropertyOp26
 70
     0
102
RTVSPropertyOp27
 70
     0
102
RTVSPropertyOp28
 70
     0
102
RTVSPropertyOp29
 70
     0
102
RTVSPropertyOp30
 70
     0
102
RTVSPropertyOp31
 70
     0
102
RTVSPropertyOp32
 70
     0
102
RTVSPropertyOp33
 70
     0
102
RTVSPropertyOp34
 70
     0
102
RTVSPropertyOp35
 70
     0
102
RTVSPropertyOp36
 70
     0
102
RTVSPropertyOp37
 70
     0
102
RTVSPropertyOp38
 70
     0
102
RTVSPropertyOp39
 70
     0
102
RTVSPropertyOp40
 70
     0
102
RTVSPropertyOp41
 70
     0
102
RTVSPropertyOp42
 70
     0
102
RTVSPropertyOp43
 70
     0
102
RTVSPropertyOp44
 70
     0
102
RTVSPropertyOp45
 70
     0
102
RTVSPropertyOp46
 70
     0
102
RTVSPropertyOp47
 70
     0
102
RTVSPropertyOp48
 70
     0
102
RTVSPropertyOp49
 70
     0
102
RTVSPropertyOp50
 70
     0
102
RTVSPropertyOp51
 70
     0
102
RTVSPropertyOp52
 70
     0
102
RTVSPropertyOp53
 70
     0
102
RTVSPropertyOp54
 70
     0
102
RTVSPropertyOp55
 70
     0
102
RTVSPropertyOp56
 70
     0
102
RTVSPropertyOp57
 70
     0
102
RTVSPost2010Prop28
280
     0
102
RTVSPost2010PropOp28
 70
     0
102
RTVSPost2010Prop29
280
     1
102
RTVSPost2010PropOp29
 70
     0
102
RTVSPost2010Prop30
280
     1
102
RTVSPost2010PropOp30
 70
     0
102
RTVSPost2010Prop31
280
     0
102
RTVSPost2010PropOp31
 70
     0
102
RTVSPost2010Prop32
280
     0
102
RTVSPost2010PropOp32
 70
     0
102
RTVSPost2010Prop33
280
     0
102
RTVSPost2010PropOp33
 70
     0
102
RTVSPost2010Prop34
280
     0
102
RTVSPost2010PropOp34
 70
     0
102
RTVSPost2010Prop35
280
     0
102
RTVSPost2010PropOp35
 70
     0
102
RTVSPost2010Prop36
280
     0
102
RTVSPost2010PropOp36
 70
     0
102
RTVSPost2010Prop37
 90
       50
102
RTVSPost2010PropOp37
 70
     0
102
RTVSPost2010Prop38
140
0.0
102
RTVSPost2010PropOp38
 70
     0
102
RTVSPost2010Prop39
140
1.0
102
RTVSPost2010PropOp39
 70
     0
102
RTVSPost2010Prop40
 90
        0
102
RTVSPost2010PropOp40
 70
     0
102
RTVSPost2010Prop41ColorIndex
 90
       18
102
RTVSPost2010Prop41ColorRGB
 90
        0
102
RTVSPost2010PropOp41
 70
     0
102
RTVSPost2010Prop42
 90
       50
102
RTVSPost2010PropOp42
 70
     0
102
RTVSPost2010Prop43
 90
        3
102
RTVSPost2010PropOp43
 70
     0
102
RTVSPost2010Prop44ColorIndex
 90
        5
102
RTVSPost2010Prop44ColorRGB
 90
      255
102
RTVSPost2010PropOp44
 70
     0
102
RTVSPost2010Prop45
280
     0
102
RTVSPost2010PropOp45
 70
     0
102
RTVSPost2010Prop46
 90
       50
102
RTVSPost2010PropOp46
 70
     0
102
RTVSPost2010Prop47
 90
       50
102
RTVSPost2010PropOp47
 70
     0
102
RTVSPost2010Prop48
 90
       50
102
RTVSPost2010PropOp48
 70
     0
102
RTVSPost2010Prop49
280
     0
102
RTVSPost2010PropOp49
 70
     0
102
RTVSPost2010Prop50
 90
       50
102
RTVSPost2010PropOp50
 70
     0
102
RTVSPost2010Prop51ColorIndex
 90
      256
102
RTVSPost2010Prop51ColorRGB
 90
-16777216
102
RTVSPost2010PropOp51
 70
     0
102
RTVSPost2010Prop52
140
1.0
102
RTVSPost2010PropOp52
 70
     0
102
RTVSPost2010Prop53
 90
        2
102
RTVSPost2010PropOp53
 70
     0
102
RTVSPost2010Prop54
  1
strokes_ogs.tif
102
RTVSPost2010PropOp54
 70
     0
102
RTVSPost2010Prop55
280
     0
102
RTVSPost2010PropOp55
 70
     0
102
RTVSPost2010Prop56
140
1.0
102
RTVSPost2010PropOp56
 70
     0
102
RTVSPost2010Prop57
140
1.0
102
RTVSPost2010PropOp57
 70
     0
  0
XRECORD
  5
106ACC9
102
{ACAD_REACTORS
330
106ACC8
102
}
330
106ACC8
100
AcDbXrecord
280
     1
102
RTVSPropertyOp0
 70
     1
102
RTVSPropertyOp1
 70
     1
102
RTVSPropertyOp2
 70
     1
102
RTVSPropertyOp3
 70
     1
102
RTVSPropertyOp4
 70
     1
102
RTVSPropertyOp5
 70
     1
102
RTVSPropertyOp6
 70
     1
102
RTVSPropertyOp7
 70
     1
102
RTVSPropertyOp8
 70
     1
102
RTVSPropertyOp9
 70
     1
102
RTVSPropertyOp10
 70
     1
102
RTVSPropertyOp11
 70
     1
102
RTVSPropertyOp12
 70
     1
102
RTVSPropertyOp13
 70
     1
102
RTVSPropertyOp14
 70
     1
102
RTVSPropertyOp15
 70
     1
102
RTVSPropertyOp16
 70
     1
102
RTVSPropertyOp17
 70
     1
102
RTVSPropertyOp18
 70
     1
102
RTVSPropertyOp19
 70
     1
102
RTVSPropertyOp20
 70
     1
102
RTVSPropertyOp21
 70
     1
102
RTVSPropertyOp22
 70
     1
102
RTVSPropertyOp23
 70
     1
102
RTVSPropertyOp24
 70
     1
102
RTVSPropertyOp25
 70
     1
102
RTVSPropertyOp26
 70
     1
102
RTVSPropertyOp27
 70
     1
102
RTVSPropertyOp28
 70
     1
102
RTVSPropertyOp29
 70
     1
102
RTVSPropertyOp30
 70
     1
102
RTVSPropertyOp31
 70
     1
102
RTVSPropertyOp32
 70
     1
102
RTVSPropertyOp33
 70
     1
102
RTVSPropertyOp34
 70
     1
102
RTVSPropertyOp35
 70
     1
102
RTVSPropertyOp36
 70
     1
102
RTVSPropertyOp37
 70
     1
102
RTVSPropertyOp38
 70
     1
102
RTVSPropertyOp39
 70
     1
102
RTVSPropertyOp40
 70
     1
102
RTVSPropertyOp41
 70
     1
102
RTVSPropertyOp42
 70
     1
102
RTVSPropertyOp43
 70
     1
102
RTVSPropertyOp44
 70
     1
102
RTVSPropertyOp45
 70
     1
102
RTVSPropertyOp46
 70
     1
102
RTVSPropertyOp47
 70
     1
102
RTVSPropertyOp48
 70
     1
102
RTVSPropertyOp49
 70
     1
102
RTVSPropertyOp50
 70
     1
102
RTVSPropertyOp51
 70
     0
102
RTVSPropertyOp52
 70
     0
102
RTVSPropertyOp53
 70
     1
102
RTVSPropertyOp54
 70
     1
102
RTVSPropertyOp55
 70
     1
102
RTVSPropertyOp56
 70
     1
102
RTVSPropertyOp57
 70
     1
102
RTVSPost2010Prop28
280
     0
102
RTVSPost2010PropOp28
 70
     1
102
RTVSPost2010Prop29
280
     1
102
RTVSPost2010PropOp29
 70
     1
102
RTVSPost2010Prop30
280
     1
102
RTVSPost2010PropOp30
 70
     1
102
RTVSPost2010Prop31
280
     0
102
RTVSPost2010PropOp31
 70
     1
102
RTVSPost2010Prop32
280
     0
102
RTVSPost2010PropOp32
 70
     1
102
RTVSPost2010Prop33
280
     0
102
RTVSPost2010PropOp33
 70
     1
102
RTVSPost2010Prop34
280
     0
102
RTVSPost2010PropOp34
 70
     1
102
RTVSPost2010Prop35
280
     0
102
RTVSPost2010PropOp35
 70
     1
102
RTVSPost2010Prop36
280
     0
102
RTVSPost2010PropOp36
 70
     1
102
RTVSPost2010Prop37
 90
       50
102
RTVSPost2010PropOp37
 70
     1
102
RTVSPost2010Prop38
140
0.0
102
RTVSPost2010PropOp38
 70
     1
102
RTVSPost2010Prop39
140
1.0
102
RTVSPost2010PropOp39
 70
     1
102
RTVSPost2010Prop40
 90
        0
102
RTVSPost2010PropOp40
 70
     1
102
RTVSPost2010Prop41ColorIndex
 90
       18
102
RTVSPost2010Prop41ColorRGB
 90
        0
102
RTVSPost2010PropOp41
 70
     1
102
RTVSPost2010Prop42
 90
       50
102
RTVSPost2010PropOp42
 70
     1
102
RTVSPost2010Prop43
 90
        3
102
RTVSPost2010PropOp43
 70
     1
102
RTVSPost2010Prop44ColorIndex
 90
        5
102
RTVSPost2010Prop44ColorRGB
 90
      255
102
RTVSPost2010PropOp44
 70
     1
102
RTVSPost2010Prop45
280
     0
102
RTVSPost2010PropOp45
 70
     1
102
RTVSPost2010Prop46
 90
       50
102
RTVSPost2010PropOp46
 70
     1
102
RTVSPost2010Prop47
 90
       50
102
RTVSPost2010PropOp47
 70
     1
102
RTVSPost2010Prop48
 90
       50
102
RTVSPost2010PropOp48
 70
     1
102
RTVSPost2010Prop49
280
     0
102
RTVSPost2010PropOp49
 70
     1
102
RTVSPost2010Prop50
 90
       50
102
RTVSPost2010PropOp50
 70
     1
102
RTVSPost2010Prop51ColorIndex
 90
      256
102
RTVSPost2010Prop51ColorRGB
 90
-16777216
102
RTVSPost2010PropOp51
 70
     0
102
RTVSPost2010Prop52
140
1.0
102
RTVSPost2010PropOp52
 70
     0
102
RTVSPost2010Prop53
 90
        2
102
RTVSPost2010PropOp53
 70
     1
102
RTVSPost2010Prop54
  1
strokes_ogs.tif
102
RTVSPost2010PropOp54
 70
     1
102
RTVSPost2010Prop55
280
     0
102
RTVSPost2010PropOp55
 70
     1
102
RTVSPost2010Prop56
140
1.0
102
RTVSPost2010PropOp56
 70
     1
102
RTVSPost2010Prop57
140
1.0
102
RTVSPost2010PropOp57
 70
     1
  0
XRECORD
  5
106ACD1
102
{ACAD_REACTORS
330
106ACD0
102
}
330
106ACD0
100
AcDbXrecord
280
     1
102
RTVSPropertyOp0
 70
     0
102
RTVSPropertyOp1
 70
     0
102
RTVSPropertyOp2
 70
     0
102
RTVSPropertyOp3
 70
     0
102
RTVSPropertyOp4
 70
     0
102
RTVSPropertyOp5
 70
     0
102
RTVSPropertyOp6
 70
     0
102
RTVSPropertyOp7
 70
     0
102
RTVSPropertyOp8
 70
     0
102
RTVSPropertyOp9
 70
     0
102
RTVSPropertyOp10
 70
     0
102
RTVSPropertyOp11
 70
     0
102
RTVSPropertyOp12
 70
     0
102
RTVSPropertyOp13
 70
     0
102
RTVSPropertyOp14
 70
     2
102
RTVSPropertyOp15
 70
     0
102
RTVSPropertyOp16
 70
     0
102
RTVSPropertyOp17
 70
     0
102
RTVSPropertyOp18
 70
     0
102
RTVSPropertyOp19
 70
     0
102
RTVSPropertyOp20
 70
     0
102
RTVSPropertyOp21
 70
     0
102
RTVSPropertyOp22
 70
     0
102
RTVSPropertyOp23
 70
     0
102
RTVSPropertyOp24
 70
     0
102
RTVSPropertyOp25
 70
     0
102
RTVSPropertyOp26
 70
     0
102
RTVSPropertyOp27
 70
     0
102
RTVSPropertyOp28
 70
     0
102
RTVSPropertyOp29
 70
     0
102
RTVSPropertyOp30
 70
     0
102
RTVSPropertyOp31
 70
     0
102
RTVSPropertyOp32
 70
     0
102
RTVSPropertyOp33
 70
     0
102
RTVSPropertyOp34
 70
     0
102
RTVSPropertyOp35
 70
     0
102
RTVSPropertyOp36
 70
     0
102
RTVSPropertyOp37
 70
     0
102
RTVSPropertyOp38
 70
     0
102
RTVSPropertyOp39
 70
     0
102
RTVSPropertyOp40
 70
     0
102
RTVSPropertyOp41
 70
     0
102
RTVSPropertyOp42
 70
     0
102
RTVSPropertyOp43
 70
     0
102
RTVSPropertyOp44
 70
     0
102
RTVSPropertyOp45
 70
     0
102
RTVSPropertyOp46
 70
     0
102
RTVSPropertyOp47
 70
     0
102
RTVSPropertyOp48
 70
     0
102
RTVSPropertyOp49
 70
     0
102
RTVSPropertyOp50
 70
     0
102
RTVSPropertyOp51
 70
     0
102
RTVSPropertyOp52
 70
     0
102
RTVSPropertyOp53
 70
     0
102
RTVSPropertyOp54
 70
     0
102
RTVSPropertyOp55
 70
     0
102
RTVSPropertyOp56
 70
     0
102
RTVSPropertyOp57
 70
     0
102
RTVSPost2010Prop28
280
     0
102
RTVSPost2010PropOp28
 70
     0
102
RTVSPost2010Prop29
280
     1
102
RTVSPost2010PropOp29
 70
     0
102
RTVSPost2010Prop30
280
     1
102
RTVSPost2010PropOp30
 70
     0
102
RTVSPost2010Prop31
280
     0
102
RTVSPost2010PropOp31
 70
     0
102
RTVSPost2010Prop32
280
     0
102
RTVSPost2010PropOp32
 70
     0
102
RTVSPost2010Prop33
280
     0
102
RTVSPost2010PropOp33
 70
     0
102
RTVSPost2010Prop34
280
     0
102
RTVSPost2010PropOp34
 70
     0
102
RTVSPost2010Prop35
280
     0
102
RTVSPost2010PropOp35
 70
     0
102
RTVSPost2010Prop36
280
     0
102
RTVSPost2010PropOp36
 70
     0
102
RTVSPost2010Prop37
 90
       50
102
RTVSPost2010PropOp37
 70
     0
102
RTVSPost2010Prop38
140
0.0
102
RTVSPost2010PropOp38
 70
     0
102
RTVSPost2010Prop39
140
1.0
102
RTVSPost2010PropOp39
 70
     0
102
RTVSPost2010Prop40
 90
        0
102
RTVSPost2010PropOp40
 70
     0
102
RTVSPost2010Prop41ColorIndex
 90
       18
102
RTVSPost2010Prop41ColorRGB
 90
        0
102
RTVSPost2010PropOp41
 70
     0
102
RTVSPost2010Prop42
 90
       50
102
RTVSPost2010PropOp42
 70
     0
102
RTVSPost2010Prop43
 90
        3
102
RTVSPost2010PropOp43
 70
     0
102
RTVSPost2010Prop44ColorIndex
 90
        5
102
RTVSPost2010Prop44ColorRGB
 90
      255
102
RTVSPost2010PropOp44
 70
     0
102
RTVSPost2010Prop45
280
     0
102
RTVSPost2010PropOp45
 70
     0
102
RTVSPost2010Prop46
 90
       50
102
RTVSPost2010PropOp46
 70
     0
102
RTVSPost2010Prop47
 90
       50
102
RTVSPost2010PropOp47
 70
     0
102
RTVSPost2010Prop48
 90
       50
102
RTVSPost2010PropOp48
 70
     0
102
RTVSPost2010Prop49
280
     0
102
RTVSPost2010PropOp49
 70
     0
102
RTVSPost2010Prop50
 90
       50
102
RTVSPost2010PropOp50
 70
     0
102
RTVSPost2010Prop51ColorIndex
 90
      256
102
RTVSPost2010Prop51ColorRGB
 90
-16777216
102
RTVSPost2010PropOp51
 70
     0
102
RTVSPost2010Prop52
140
1.0
102
RTVSPost2010PropOp52
 70
     0
102
RTVSPost2010Prop53
 90
        2
102
RTVSPost2010PropOp53
 70
     0
102
RTVSPost2010Prop54
  1
strokes_ogs.tif
102
RTVSPost2010PropOp54
 70
     0
102
RTVSPost2010Prop55
280
     0
102
RTVSPost2010PropOp55
 70
     0
102
RTVSPost2010Prop56
140
1.0
102
RTVSPost2010PropOp56
 70
     0
102
RTVSPost2010Prop57
140
1.0
102
RTVSPost2010PropOp57
 70
     0
  0
XRECORD
  5
106ACBF
102
{ACAD_REACTORS
330
106ACBE
102
}
330
106ACBE
100
AcDbXrecord
280
     1
102
RTVSPropertyOp0
 70
     1
102
RTVSPropertyOp1
 70
     1
102
RTVSPropertyOp2
 70
     1
102
RTVSPropertyOp3
 70
     1
102
RTVSPropertyOp4
 70
     1
102
RTVSPropertyOp5
 70
     1
102
RTVSPropertyOp6
 70
     1
102
RTVSPropertyOp7
 70
     1
102
RTVSPropertyOp8
 70
     1
102
RTVSPropertyOp9
 70
     1
102
RTVSPropertyOp10
 70
     1
102
RTVSPropertyOp11
 70
     1
102
RTVSPropertyOp12
 70
     1
102
RTVSPropertyOp13
 70
     1
102
RTVSPropertyOp14
 70
     1
102
RTVSPropertyOp15
 70
     1
102
RTVSPropertyOp16
 70
     1
102
RTVSPropertyOp17
 70
     1
102
RTVSPropertyOp18
 70
     1
102
RTVSPropertyOp19
 70
     1
102
RTVSPropertyOp20
 70
     1
102
RTVSPropertyOp21
 70
     1
102
RTVSPropertyOp22
 70
     1
102
RTVSPropertyOp23
 70
     1
102
RTVSPropertyOp24
 70
     1
102
RTVSPropertyOp25
 70
     1
102
RTVSPropertyOp26
 70
     1
102
RTVSPropertyOp27
 70
     1
102
RTVSPropertyOp28
 70
     1
102
RTVSPropertyOp29
 70
     1
102
RTVSPropertyOp30
 70
     1
102
RTVSPropertyOp31
 70
     1
102
RTVSPropertyOp32
 70
     1
102
RTVSPropertyOp33
 70
     1
102
RTVSPropertyOp34
 70
     1
102
RTVSPropertyOp35
 70
     1
102
RTVSPropertyOp36
 70
     1
102
RTVSPropertyOp37
 70
     1
102
RTVSPropertyOp38
 70
     1
102
RTVSPropertyOp39
 70
     1
102
RTVSPropertyOp40
 70
     1
102
RTVSPropertyOp41
 70
     1
102
RTVSPropertyOp42
 70
     1
102
RTVSPropertyOp43
 70
     1
102
RTVSPropertyOp44
 70
     1
102
RTVSPropertyOp45
 70
     1
102
RTVSPropertyOp46
 70
     1
102
RTVSPropertyOp47
 70
     1
102
RTVSPropertyOp48
 70
     1
102
RTVSPropertyOp49
 70
     1
102
RTVSPropertyOp50
 70
     1
102
RTVSPropertyOp51
 70
     0
102
RTVSPropertyOp52
 70
     0
102
RTVSPropertyOp53
 70
     1
102
RTVSPropertyOp54
 70
     1
102
RTVSPropertyOp55
 70
     1
102
RTVSPropertyOp56
 70
     1
102
RTVSPropertyOp57
 70
     1
102
RTVSPost2010Prop28
280
     0
102
RTVSPost2010PropOp28
 70
     1
102
RTVSPost2010Prop29
280
     1
102
RTVSPost2010PropOp29
 70
     1
102
RTVSPost2010Prop30
280
     1
102
RTVSPost2010PropOp30
 70
     1
102
RTVSPost2010Prop31
280
     0
102
RTVSPost2010PropOp31
 70
     1
102
RTVSPost2010Prop32
280
     0
102
RTVSPost2010PropOp32
 70
     1
102
RTVSPost2010Prop33
280
     0
102
RTVSPost2010PropOp33
 70
     1
102
RTVSPost2010Prop34
280
     0
102
RTVSPost2010PropOp34
 70
     1
102
RTVSPost2010Prop35
280
     0
102
RTVSPost2010PropOp35
 70
     1
102
RTVSPost2010Prop36
280
     0
102
RTVSPost2010PropOp36
 70
     1
102
RTVSPost2010Prop37
 90
       50
102
RTVSPost2010PropOp37
 70
     1
102
RTVSPost2010Prop38
140
0.0
102
RTVSPost2010PropOp38
 70
     1
102
RTVSPost2010Prop39
140
1.0
102
RTVSPost2010PropOp39
 70
     1
102
RTVSPost2010Prop40
 90
        0
102
RTVSPost2010PropOp40
 70
     1
102
RTVSPost2010Prop41ColorIndex
 90
       18
102
RTVSPost2010Prop41ColorRGB
 90
        0
102
RTVSPost2010PropOp41
 70
     1
102
RTVSPost2010Prop42
 90
       50
102
RTVSPost2010PropOp42
 70
     1
102
RTVSPost2010Prop43
 90
        3
102
RTVSPost2010PropOp43
 70
     1
102
RTVSPost2010Prop44ColorIndex
 90
        5
102
RTVSPost2010Prop44ColorRGB
 90
      255
102
RTVSPost2010PropOp44
 70
     1
102
RTVSPost2010Prop45
280
     0
102
RTVSPost2010PropOp45
 70
     1
102
RTVSPost2010Prop46
 90
       50
102
RTVSPost2010PropOp46
 70
     1
102
RTVSPost2010Prop47
 90
       50
102
RTVSPost2010PropOp47
 70
     1
102
RTVSPost2010Prop48
 90
       50
102
RTVSPost2010PropOp48
 70
     1
102
RTVSPost2010Prop49
280
     0
102
RTVSPost2010PropOp49
 70
     1
102
RTVSPost2010Prop50
 90
       50
102
RTVSPost2010PropOp50
 70
     1
102
RTVSPost2010Prop51ColorIndex
 90
      256
102
RTVSPost2010Prop51ColorRGB
 90
-16777216
102
RTVSPost2010PropOp51
 70
     0
102
RTVSPost2010Prop52
140
1.0
102
RTVSPost2010PropOp52
 70
     0
102
RTVSPost2010Prop53
 90
        2
102
RTVSPost2010PropOp53
 70
     1
102
RTVSPost2010Prop54
  1
strokes_ogs.tif
102
RTVSPost2010PropOp54
 70
     1
102
RTVSPost2010Prop55
280
     0
102
RTVSPost2010PropOp55
 70
     1
102
RTVSPost2010Prop56
140
1.0
102
RTVSPost2010PropOp56
 70
     1
102
RTVSPost2010Prop57
140
1.0
102
RTVSPost2010PropOp57
 70
     1
  0
XRECORD
  5
106ACDD
102
{ACAD_REACTORS
330
106ACDC
102
}
330
106ACDC
100
AcDbXrecord
280
     1
102
RTVSPropertyOp0
 70
     1
102
RTVSPropertyOp1
 70
     1
102
RTVSPropertyOp2
 70
     1
102
RTVSPropertyOp3
 70
     1
102
RTVSPropertyOp4
 70
     1
102
RTVSPropertyOp5
 70
     1
102
RTVSPropertyOp6
 70
     1
102
RTVSPropertyOp7
 70
     1
102
RTVSPropertyOp8
 70
     1
102
RTVSPropertyOp9
 70
     1
102
RTVSPropertyOp10
 70
     1
102
RTVSPropertyOp11
 70
     1
102
RTVSPropertyOp12
 70
     1
102
RTVSPropertyOp13
 70
     1
102
RTVSPropertyOp14
 70
     1
102
RTVSPropertyOp15
 70
     1
102
RTVSPropertyOp16
 70
     1
102
RTVSPropertyOp17
 70
     1
102
RTVSPropertyOp18
 70
     1
102
RTVSPropertyOp19
 70
     1
102
RTVSPropertyOp20
 70
     1
102
RTVSPropertyOp21
 70
     1
102
RTVSPropertyOp22
 70
     1
102
RTVSPropertyOp23
 70
     1
102
RTVSPropertyOp24
 70
     1
102
RTVSPropertyOp25
 70
     1
102
RTVSPropertyOp26
 70
     1
102
RTVSPropertyOp27
 70
     1
102
RTVSPropertyOp28
 70
     1
102
RTVSPropertyOp29
 70
     1
102
RTVSPropertyOp30
 70
     1
102
RTVSPropertyOp31
 70
     1
102
RTVSPropertyOp32
 70
     1
102
RTVSPropertyOp33
 70
     1
102
RTVSPropertyOp34
 70
     1
102
RTVSPropertyOp35
 70
     1
102
RTVSPropertyOp36
 70
     1
102
RTVSPropertyOp37
 70
     1
102
RTVSPropertyOp38
 70
     1
102
RTVSPropertyOp39
 70
     1
102
RTVSPropertyOp40
 70
     1
102
RTVSPropertyOp41
 70
     1
102
RTVSPropertyOp42
 70
     1
102
RTVSPropertyOp43
 70
     1
102
RTVSPropertyOp44
 70
     1
102
RTVSPropertyOp45
 70
     1
102
RTVSPropertyOp46
 70
     1
102
RTVSPropertyOp47
 70
     1
102
RTVSPropertyOp48
 70
     1
102
RTVSPropertyOp49
 70
     1
102
RTVSPropertyOp50
 70
     1
102
RTVSPropertyOp51
 70
     0
102
RTVSPropertyOp52
 70
     0
102
RTVSPropertyOp53
 70
     1
102
RTVSPropertyOp54
 70
     1
102
RTVSPropertyOp55
 70
     1
102
RTVSPropertyOp56
 70
     1
102
RTVSPropertyOp57
 70
     1
102
RTVSPost2010Prop28
280
     0
102
RTVSPost2010PropOp28
 70
     1
102
RTVSPost2010Prop29
280
     1
102
RTVSPost2010PropOp29
 70
     1
102
RTVSPost2010Prop30
280
     1
102
RTVSPost2010PropOp30
 70
     1
102
RTVSPost2010Prop31
280
     0
102
RTVSPost2010PropOp31
 70
     1
102
RTVSPost2010Prop32
280
     0
102
RTVSPost2010PropOp32
 70
     1
102
RTVSPost2010Prop33
280
     0
102
RTVSPost2010PropOp33
 70
     1
102
RTVSPost2010Prop34
280
     0
102
RTVSPost2010PropOp34
 70
     1
102
RTVSPost2010Prop35
280
     0
102
RTVSPost2010PropOp35
 70
     1
102
RTVSPost2010Prop36
280
     0
102
RTVSPost2010PropOp36
 70
     1
102
RTVSPost2010Prop37
 90
       50
102
RTVSPost2010PropOp37
 70
     1
102
RTVSPost2010Prop38
140
0.0
102
RTVSPost2010PropOp38
 70
     1
102
RTVSPost2010Prop39
140
1.0
102
RTVSPost2010PropOp39
 70
     1
102
RTVSPost2010Prop40
 90
        0
102
RTVSPost2010PropOp40
 70
     1
102
RTVSPost2010Prop41ColorIndex
 90
       18
102
RTVSPost2010Prop41ColorRGB
 90
        0
102
RTVSPost2010PropOp41
 70
     1
102
RTVSPost2010Prop42
 90
       50
102
RTVSPost2010PropOp42
 70
     1
102
RTVSPost2010Prop43
 90
        3
102
RTVSPost2010PropOp43
 70
     1
102
RTVSPost2010Prop44ColorIndex
 90
        5
102
RTVSPost2010Prop44ColorRGB
 90
      255
102
RTVSPost2010PropOp44
 70
     1
102
RTVSPost2010Prop45
280
     0
102
RTVSPost2010PropOp45
 70
     1
102
RTVSPost2010Prop46
 90
       50
102
RTVSPost2010PropOp46
 70
     1
102
RTVSPost2010Prop47
 90
       50
102
RTVSPost2010PropOp47
 70
     1
102
RTVSPost2010Prop48
 90
       50
102
RTVSPost2010PropOp48
 70
     1
102
RTVSPost2010Prop49
280
     0
102
RTVSPost2010PropOp49
 70
     1
102
RTVSPost2010Prop50
 90
       50
102
RTVSPost2010PropOp50
 70
     1
102
RTVSPost2010Prop51ColorIndex
 90
      256
102
RTVSPost2010Prop51ColorRGB
 90
-16777216
102
RTVSPost2010PropOp51
 70
     0
102
RTVSPost2010Prop52
140
1.0
102
RTVSPost2010PropOp52
 70
     0
102
RTVSPost2010Prop53
 90
        2
102
RTVSPost2010PropOp53
 70
     1
102
RTVSPost2010Prop54
  1
strokes_ogs.tif
102
RTVSPost2010PropOp54
 70
     1
102
RTVSPost2010Prop55
280
     0
102
RTVSPost2010PropOp55
 70
     1
102
RTVSPost2010Prop56
140
1.0
102
RTVSPost2010PropOp56
 70
     1
102
RTVSPost2010Prop57
140
1.0
102
RTVSPost2010PropOp57
 70
     1
  0
XRECORD
  5
106ACDB
102
{ACAD_REACTORS
330
106ACDA
102
}
330
106ACDA
100
AcDbXrecord
280
     1
102
RTVSPropertyOp0
 70
     1
102
RTVSPropertyOp1
 70
     1
102
RTVSPropertyOp2
 70
     1
102
RTVSPropertyOp3
 70
     1
102
RTVSPropertyOp4
 70
     1
102
RTVSPropertyOp5
 70
     1
102
RTVSPropertyOp6
 70
     1
102
RTVSPropertyOp7
 70
     1
102
RTVSPropertyOp8
 70
     1
102
RTVSPropertyOp9
 70
     1
102
RTVSPropertyOp10
 70
     1
102
RTVSPropertyOp11
 70
     1
102
RTVSPropertyOp12
 70
     1
102
RTVSPropertyOp13
 70
     1
102
RTVSPropertyOp14
 70
     1
102
RTVSPropertyOp15
 70
     1
102
RTVSPropertyOp16
 70
     1
102
RTVSPropertyOp17
 70
     1
102
RTVSPropertyOp18
 70
     1
102
RTVSPropertyOp19
 70
     1
102
RTVSPropertyOp20
 70
     1
102
RTVSPropertyOp21
 70
     1
102
RTVSPropertyOp22
 70
     1
102
RTVSPropertyOp23
 70
     1
102
RTVSPropertyOp24
 70
     1
102
RTVSPropertyOp25
 70
     1
102
RTVSPropertyOp26
 70
     1
102
RTVSPropertyOp27
 70
     1
102
RTVSPropertyOp28
 70
     1
102
RTVSPropertyOp29
 70
     1
102
RTVSPropertyOp30
 70
     1
102
RTVSPropertyOp31
 70
     1
102
RTVSPropertyOp32
 70
     1
102
RTVSPropertyOp33
 70
     1
102
RTVSPropertyOp34
 70
     1
102
RTVSPropertyOp35
 70
     1
102
RTVSPropertyOp36
 70
     1
102
RTVSPropertyOp37
 70
     1
102
RTVSPropertyOp38
 70
     1
102
RTVSPropertyOp39
 70
     1
102
RTVSPropertyOp40
 70
     1
102
RTVSPropertyOp41
 70
     1
102
RTVSPropertyOp42
 70
     1
102
RTVSPropertyOp43
 70
     1
102
RTVSPropertyOp44
 70
     1
102
RTVSPropertyOp45
 70
     1
102
RTVSPropertyOp46
 70
     1
102
RTVSPropertyOp47
 70
     1
102
RTVSPropertyOp48
 70
     1
102
RTVSPropertyOp49
 70
     1
102
RTVSPropertyOp50
 70
     1
102
RTVSPropertyOp51
 70
     0
102
RTVSPropertyOp52
 70
     0
102
RTVSPropertyOp53
 70
     1
102
RTVSPropertyOp54
 70
     1
102
RTVSPropertyOp55
 70
     1
102
RTVSPropertyOp56
 70
     1
102
RTVSPropertyOp57
 70
     1
102
RTVSPost2010Prop28
280
     0
102
RTVSPost2010PropOp28
 70
     1
102
RTVSPost2010Prop29
280
     1
102
RTVSPost2010PropOp29
 70
     1
102
RTVSPost2010Prop30
280
     1
102
RTVSPost2010PropOp30
 70
     1
102
RTVSPost2010Prop31
280
     0
102
RTVSPost2010PropOp31
 70
     1
102
RTVSPost2010Prop32
280
     0
102
RTVSPost2010PropOp32
 70
     1
102
RTVSPost2010Prop33
280
     0
102
RTVSPost2010PropOp33
 70
     1
102
RTVSPost2010Prop34
280
     0
102
RTVSPost2010PropOp34
 70
     1
102
RTVSPost2010Prop35
280
     0
102
RTVSPost2010PropOp35
 70
     1
102
RTVSPost2010Prop36
280
     0
102
RTVSPost2010PropOp36
 70
     1
102
RTVSPost2010Prop37
 90
       50
102
RTVSPost2010PropOp37
 70
     1
102
RTVSPost2010Prop38
140
0.0
102
RTVSPost2010PropOp38
 70
     1
102
RTVSPost2010Prop39
140
1.0
102
RTVSPost2010PropOp39
 70
     1
102
RTVSPost2010Prop40
 90
        0
102
RTVSPost2010PropOp40
 70
     1
102
RTVSPost2010Prop41ColorIndex
 90
       18
102
RTVSPost2010Prop41ColorRGB
 90
        0
102
RTVSPost2010PropOp41
 70
     1
102
RTVSPost2010Prop42
 90
       50
102
RTVSPost2010PropOp42
 70
     1
102
RTVSPost2010Prop43
 90
        3
102
RTVSPost2010PropOp43
 70
     1
102
RTVSPost2010Prop44ColorIndex
 90
        5
102
RTVSPost2010Prop44ColorRGB
 90
      255
102
RTVSPost2010PropOp44
 70
     1
102
RTVSPost2010Prop45
280
     0
102
RTVSPost2010PropOp45
 70
     1
102
RTVSPost2010Prop46
 90
       50
102
RTVSPost2010PropOp46
 70
     1
102
RTVSPost2010Prop47
 90
       50
102
RTVSPost2010PropOp47
 70
     1
102
RTVSPost2010Prop48
 90
       50
102
RTVSPost2010PropOp48
 70
     1
102
RTVSPost2010Prop49
280
     0
102
RTVSPost2010PropOp49
 70
     1
102
RTVSPost2010Prop50
 90
       50
102
RTVSPost2010PropOp50
 70
     1
102
RTVSPost2010Prop51ColorIndex
 90
      256
102
RTVSPost2010Prop51ColorRGB
 90
-16777216
102
RTVSPost2010PropOp51
 70
     0
102
RTVSPost2010Prop52
140
1.0
102
RTVSPost2010PropOp52
 70
     0
102
RTVSPost2010Prop53
 90
        2
102
RTVSPost2010PropOp53
 70
     1
102
RTVSPost2010Prop54
  1
strokes_ogs.tif
102
RTVSPost2010PropOp54
 70
     1
102
RTVSPost2010Prop55
280
     0
102
RTVSPost2010PropOp55
 70
     1
102
RTVSPost2010Prop56
140
1.0
102
RTVSPost2010PropOp56
 70
     1
102
RTVSPost2010Prop57
140
1.0
102
RTVSPost2010PropOp57
 70
     1
  0
XRECORD
  5
106ACD5
102
{ACAD_REACTORS
330
106ACD4
102
}
330
106ACD4
100
AcDbXrecord
280
     1
102
RTVSPropertyOp0
 70
     1
102
RTVSPropertyOp1
 70
     1
102
RTVSPropertyOp2
 70
     1
102
RTVSPropertyOp3
 70
     1
102
RTVSPropertyOp4
 70
     1
102
RTVSPropertyOp5
 70
     1
102
RTVSPropertyOp6
 70
     1
102
RTVSPropertyOp7
 70
     1
102
RTVSPropertyOp8
 70
     1
102
RTVSPropertyOp9
 70
     1
102
RTVSPropertyOp10
 70
     1
102
RTVSPropertyOp11
 70
     1
102
RTVSPropertyOp12
 70
     1
102
RTVSPropertyOp13
 70
     1
102
RTVSPropertyOp14
 70
     1
102
RTVSPropertyOp15
 70
     1
102
RTVSPropertyOp16
 70
     1
102
RTVSPropertyOp17
 70
     1
102
RTVSPropertyOp18
 70
     1
102
RTVSPropertyOp19
 70
     1
102
RTVSPropertyOp20
 70
     1
102
RTVSPropertyOp21
 70
     1
102
RTVSPropertyOp22
 70
     1
102
RTVSPropertyOp23
 70
     1
102
RTVSPropertyOp24
 70
     1
102
RTVSPropertyOp25
 70
     1
102
RTVSPropertyOp26
 70
     1
102
RTVSPropertyOp27
 70
     1
102
RTVSPropertyOp28
 70
     1
102
RTVSPropertyOp29
 70
     1
102
RTVSPropertyOp30
 70
     1
102
RTVSPropertyOp31
 70
     1
102
RTVSPropertyOp32
 70
     1
102
RTVSPropertyOp33
 70
     1
102
RTVSPropertyOp34
 70
     1
102
RTVSPropertyOp35
 70
     1
102
RTVSPropertyOp36
 70
     1
102
RTVSPropertyOp37
 70
     1
102
RTVSPropertyOp38
 70
     1
102
RTVSPropertyOp39
 70
     1
102
RTVSPropertyOp40
 70
     1
102
RTVSPropertyOp41
 70
     1
102
RTVSPropertyOp42
 70
     1
102
RTVSPropertyOp43
 70
     1
102
RTVSPropertyOp44
 70
     1
102
RTVSPropertyOp45
 70
     1
102
RTVSPropertyOp46
 70
     1
102
RTVSPropertyOp47
 70
     1
102
RTVSPropertyOp48
 70
     1
102
RTVSPropertyOp49
 70
     1
102
RTVSPropertyOp50
 70
     1
102
RTVSPropertyOp51
 70
     0
102
RTVSPropertyOp52
 70
     0
102
RTVSPropertyOp53
 70
     1
102
RTVSPropertyOp54
 70
     1
102
RTVSPropertyOp55
 70
     1
102
RTVSPropertyOp56
 70
     1
102
RTVSPropertyOp57
 70
     1
102
RTVSPost2010Prop28
280
     0
102
RTVSPost2010PropOp28
 70
     1
102
RTVSPost2010Prop29
280
     1
102
RTVSPost2010PropOp29
 70
     1
102
RTVSPost2010Prop30
280
     1
102
RTVSPost2010PropOp30
 70
     1
102
RTVSPost2010Prop31
280
     0
102
RTVSPost2010PropOp31
 70
     1
102
RTVSPost2010Prop32
280
     0
102
RTVSPost2010PropOp32
 70
     1
102
RTVSPost2010Prop33
280
     0
102
RTVSPost2010PropOp33
 70
     1
102
RTVSPost2010Prop34
280
     0
102
RTVSPost2010PropOp34
 70
     1
102
RTVSPost2010Prop35
280
     0
102
RTVSPost2010PropOp35
 70
     1
102
RTVSPost2010Prop36
280
     0
102
RTVSPost2010PropOp36
 70
     1
102
RTVSPost2010Prop37
 90
       50
102
RTVSPost2010PropOp37
 70
     1
102
RTVSPost2010Prop38
140
0.0
102
RTVSPost2010PropOp38
 70
     1
102
RTVSPost2010Prop39
140
1.0
102
RTVSPost2010PropOp39
 70
     1
102
RTVSPost2010Prop40
 90
        0
102
RTVSPost2010PropOp40
 70
     1
102
RTVSPost2010Prop41ColorIndex
 90
       18
102
RTVSPost2010Prop41ColorRGB
 90
        0
102
RTVSPost2010PropOp41
 70
     1
102
RTVSPost2010Prop42
 90
       50
102
RTVSPost2010PropOp42
 70
     1
102
RTVSPost2010Prop43
 90
        3
102
RTVSPost2010PropOp43
 70
     1
102
RTVSPost2010Prop44ColorIndex
 90
        5
102
RTVSPost2010Prop44ColorRGB
 90
      255
102
RTVSPost2010PropOp44
 70
     1
102
RTVSPost2010Prop45
280
     0
102
RTVSPost2010PropOp45
 70
     1
102
RTVSPost2010Prop46
 90
       50
102
RTVSPost2010PropOp46
 70
     1
102
RTVSPost2010Prop47
 90
       50
102
RTVSPost2010PropOp47
 70
     1
102
RTVSPost2010Prop48
 90
       50
102
RTVSPost2010PropOp48
 70
     1
102
RTVSPost2010Prop49
280
     0
102
RTVSPost2010PropOp49
 70
     1
102
RTVSPost2010Prop50
 90
       50
102
RTVSPost2010PropOp50
 70
     1
102
RTVSPost2010Prop51ColorIndex
 90
      256
102
RTVSPost2010Prop51ColorRGB
 90
-16777216
102
RTVSPost2010PropOp51
 70
     0
102
RTVSPost2010Prop52
140
1.0
102
RTVSPost2010PropOp52
 70
     0
102
RTVSPost2010Prop53
 90
        2
102
RTVSPost2010PropOp53
 70
     1
102
RTVSPost2010Prop54
  1
strokes_ogs.tif
102
RTVSPost2010PropOp54
 70
     1
102
RTVSPost2010Prop55
280
     0
102
RTVSPost2010PropOp55
 70
     1
102
RTVSPost2010Prop56
140
1.0
102
RTVSPost2010PropOp56
 70
     1
102
RTVSPost2010Prop57
140
1.0
102
RTVSPost2010PropOp57
 70
     1
  0
XRECORD
  5
106ACD7
102
{ACAD_REACTORS
330
106ACD6
102
}
330
106ACD6
100
AcDbXrecord
280
     1
102
RTVSPropertyOp0
 70
     1
102
RTVSPropertyOp1
 70
     1
102
RTVSPropertyOp2
 70
     1
102
RTVSPropertyOp3
 70
     1
102
RTVSPropertyOp4
 70
     1
102
RTVSPropertyOp5
 70
     1
102
RTVSPropertyOp6
 70
     1
102
RTVSPropertyOp7
 70
     1
102
RTVSPropertyOp8
 70
     1
102
RTVSPropertyOp9
 70
     1
102
RTVSPropertyOp10
 70
     1
102
RTVSPropertyOp11
 70
     1
102
RTVSPropertyOp12
 70
     1
102
RTVSPropertyOp13
 70
     1
102
RTVSPropertyOp14
 70
     1
102
RTVSPropertyOp15
 70
     1
102
RTVSPropertyOp16
 70
     1
102
RTVSPropertyOp17
 70
     1
102
RTVSPropertyOp18
 70
     1
102
RTVSPropertyOp19
 70
     1
102
RTVSPropertyOp20
 70
     1
102
RTVSPropertyOp21
 70
     1
102
RTVSPropertyOp22
 70
     1
102
RTVSPropertyOp23
 70
     1
102
RTVSPropertyOp24
 70
     1
102
RTVSPropertyOp25
 70
     1
102
RTVSPropertyOp26
 70
     1
102
RTVSPropertyOp27
 70
     1
102
RTVSPropertyOp28
 70
     1
102
RTVSPropertyOp29
 70
     1
102
RTVSPropertyOp30
 70
     1
102
RTVSPropertyOp31
 70
     1
102
RTVSPropertyOp32
 70
     1
102
RTVSPropertyOp33
 70
     1
102
RTVSPropertyOp34
 70
     1
102
RTVSPropertyOp35
 70
     1
102
RTVSPropertyOp36
 70
     1
102
RTVSPropertyOp37
 70
     1
102
RTVSPropertyOp38
 70
     1
102
RTVSPropertyOp39
 70
     1
102
RTVSPropertyOp40
 70
     1
102
RTVSPropertyOp41
 70
     1
102
RTVSPropertyOp42
 70
     1
102
RTVSPropertyOp43
 70
     1
102
RTVSPropertyOp44
 70
     1
102
RTVSPropertyOp45
 70
     1
102
RTVSPropertyOp46
 70
     1
102
RTVSPropertyOp47
 70
     1
102
RTVSPropertyOp48
 70
     1
102
RTVSPropertyOp49
 70
     1
102
RTVSPropertyOp50
 70
     1
102
RTVSPropertyOp51
 70
     0
102
RTVSPropertyOp52
 70
     0
102
RTVSPropertyOp53
 70
     1
102
RTVSPropertyOp54
 70
     1
102
RTVSPropertyOp55
 70
     1
102
RTVSPropertyOp56
 70
     1
102
RTVSPropertyOp57
 70
     1
102
RTVSPost2010Prop28
280
     0
102
RTVSPost2010PropOp28
 70
     1
102
RTVSPost2010Prop29
280
     1
102
RTVSPost2010PropOp29
 70
     1
102
RTVSPost2010Prop30
280
     1
102
RTVSPost2010PropOp30
 70
     1
102
RTVSPost2010Prop31
280
     0
102
RTVSPost2010PropOp31
 70
     1
102
RTVSPost2010Prop32
280
     0
102
RTVSPost2010PropOp32
 70
     1
102
RTVSPost2010Prop33
280
     0
102
RTVSPost2010PropOp33
 70
     1
102
RTVSPost2010Prop34
280
     0
102
RTVSPost2010PropOp34
 70
     1
102
RTVSPost2010Prop35
280
     0
102
RTVSPost2010PropOp35
 70
     1
102
RTVSPost2010Prop36
280
     0
102
RTVSPost2010PropOp36
 70
     1
102
RTVSPost2010Prop37
 90
       50
102
RTVSPost2010PropOp37
 70
     1
102
RTVSPost2010Prop38
140
0.0
102
RTVSPost2010PropOp38
 70
     1
102
RTVSPost2010Prop39
140
1.0
102
RTVSPost2010PropOp39
 70
     1
102
RTVSPost2010Prop40
 90
        0
102
RTVSPost2010PropOp40
 70
     1
102
RTVSPost2010Prop41ColorIndex
 90
       18
102
RTVSPost2010Prop41ColorRGB
 90
        0
102
RTVSPost2010PropOp41
 70
     1
102
RTVSPost2010Prop42
 90
       50
102
RTVSPost2010PropOp42
 70
     1
102
RTVSPost2010Prop43
 90
        3
102
RTVSPost2010PropOp43
 70
     1
102
RTVSPost2010Prop44ColorIndex
 90
        5
102
RTVSPost2010Prop44ColorRGB
 90
      255
102
RTVSPost2010PropOp44
 70
     1
102
RTVSPost2010Prop45
280
     0
102
RTVSPost2010PropOp45
 70
     1
102
RTVSPost2010Prop46
 90
       50
102
RTVSPost2010PropOp46
 70
     1
102
RTVSPost2010Prop47
 90
       50
102
RTVSPost2010PropOp47
 70
     1
102
RTVSPost2010Prop48
 90
       50
102
RTVSPost2010PropOp48
 70
     1
102
RTVSPost2010Prop49
280
     0
102
RTVSPost2010PropOp49
 70
     1
102
RTVSPost2010Prop50
 90
       50
102
RTVSPost2010PropOp50
 70
     1
102
RTVSPost2010Prop51ColorIndex
 90
      256
102
RTVSPost2010Prop51ColorRGB
 90
-16777216
102
RTVSPost2010PropOp51
 70
     0
102
RTVSPost2010Prop52
140
1.0
102
RTVSPost2010PropOp52
 70
     0
102
RTVSPost2010Prop53
 90
        2
102
RTVSPost2010PropOp53
 70
     1
102
RTVSPost2010Prop54
  1
strokes_ogs.tif
102
RTVSPost2010PropOp54
 70
     1
102
RTVSPost2010Prop55
280
     0
102
RTVSPost2010PropOp55
 70
     1
102
RTVSPost2010Prop56
140
1.0
102
RTVSPost2010PropOp56
 70
     1
102
RTVSPost2010Prop57
140
1.0
102
RTVSPost2010PropOp57
 70
     1
  0
XRECORD
  5
106ACC7
102
{ACAD_REACTORS
330
106ACC6
102
}
330
106ACC6
100
AcDbXrecord
280
     1
102
RTVSPropertyOp0
 70
     1
102
RTVSPropertyOp1
 70
     1
102
RTVSPropertyOp2
 70
     1
102
RTVSPropertyOp3
 70
     1
102
RTVSPropertyOp4
 70
     1
102
RTVSPropertyOp5
 70
     1
102
RTVSPropertyOp6
 70
     1
102
RTVSPropertyOp7
 70
     1
102
RTVSPropertyOp8
 70
     1
102
RTVSPropertyOp9
 70
     1
102
RTVSPropertyOp10
 70
     1
102
RTVSPropertyOp11
 70
     1
102
RTVSPropertyOp12
 70
     1
102
RTVSPropertyOp13
 70
     1
102
RTVSPropertyOp14
 70
     1
102
RTVSPropertyOp15
 70
     1
102
RTVSPropertyOp16
 70
     1
102
RTVSPropertyOp17
 70
     1
102
RTVSPropertyOp18
 70
     1
102
RTVSPropertyOp19
 70
     1
102
RTVSPropertyOp20
 70
     1
102
RTVSPropertyOp21
 70
     1
102
RTVSPropertyOp22
 70
     1
102
RTVSPropertyOp23
 70
     1
102
RTVSPropertyOp24
 70
     1
102
RTVSPropertyOp25
 70
     1
102
RTVSPropertyOp26
 70
     1
102
RTVSPropertyOp27
 70
     1
102
RTVSPropertyOp28
 70
     1
102
RTVSPropertyOp29
 70
     1
102
RTVSPropertyOp30
 70
     1
102
RTVSPropertyOp31
 70
     1
102
RTVSPropertyOp32
 70
     1
102
RTVSPropertyOp33
 70
     1
102
RTVSPropertyOp34
 70
     1
102
RTVSPropertyOp35
 70
     1
102
RTVSPropertyOp36
 70
     1
102
RTVSPropertyOp37
 70
     1
102
RTVSPropertyOp38
 70
     1
102
RTVSPropertyOp39
 70
     1
102
RTVSPropertyOp40
 70
     1
102
RTVSPropertyOp41
 70
     1
102
RTVSPropertyOp42
 70
     1
102
RTVSPropertyOp43
 70
     1
102
RTVSPropertyOp44
 70
     1
102
RTVSPropertyOp45
 70
     1
102
RTVSPropertyOp46
 70
     1
102
RTVSPropertyOp47
 70
     1
102
RTVSPropertyOp48
 70
     1
102
RTVSPropertyOp49
 70
     1
102
RTVSPropertyOp50
 70
     1
102
RTVSPropertyOp51
 70
     0
102
RTVSPropertyOp52
 70
     0
102
RTVSPropertyOp53
 70
     1
102
RTVSPropertyOp54
 70
     1
102
RTVSPropertyOp55
 70
     1
102
RTVSPropertyOp56
 70
     1
102
RTVSPropertyOp57
 70
     1
102
RTVSPost2010Prop28
280
     0
102
RTVSPost2010PropOp28
 70
     1
102
RTVSPost2010Prop29
280
     1
102
RTVSPost2010PropOp29
 70
     1
102
RTVSPost2010Prop30
280
     1
102
RTVSPost2010PropOp30
 70
     1
102
RTVSPost2010Prop31
280
     0
102
RTVSPost2010PropOp31
 70
     1
102
RTVSPost2010Prop32
280
     0
102
RTVSPost2010PropOp32
 70
     1
102
RTVSPost2010Prop33
280
     0
102
RTVSPost2010PropOp33
 70
     1
102
RTVSPost2010Prop34
280
     0
102
RTVSPost2010PropOp34
 70
     1
102
RTVSPost2010Prop35
280
     0
102
RTVSPost2010PropOp35
 70
     1
102
RTVSPost2010Prop36
280
     0
102
RTVSPost2010PropOp36
 70
     1
102
RTVSPost2010Prop37
 90
       50
102
RTVSPost2010PropOp37
 70
     1
102
RTVSPost2010Prop38
140
0.0
102
RTVSPost2010PropOp38
 70
     1
102
RTVSPost2010Prop39
140
1.0
102
RTVSPost2010PropOp39
 70
     1
102
RTVSPost2010Prop40
 90
        0
102
RTVSPost2010PropOp40
 70
     1
102
RTVSPost2010Prop41ColorIndex
 90
       18
102
RTVSPost2010Prop41ColorRGB
 90
        0
102
RTVSPost2010PropOp41
 70
     1
102
RTVSPost2010Prop42
 90
       50
102
RTVSPost2010PropOp42
 70
     1
102
RTVSPost2010Prop43
 90
        3
102
RTVSPost2010PropOp43
 70
     1
102
RTVSPost2010Prop44ColorIndex
 90
        5
102
RTVSPost2010Prop44ColorRGB
 90
      255
102
RTVSPost2010PropOp44
 70
     1
102
RTVSPost2010Prop45
280
     0
102
RTVSPost2010PropOp45
 70
     1
102
RTVSPost2010Prop46
 90
       50
102
RTVSPost2010PropOp46
 70
     1
102
RTVSPost2010Prop47
 90
       50
102
RTVSPost2010PropOp47
 70
     1
102
RTVSPost2010Prop48
 90
       50
102
RTVSPost2010PropOp48
 70
     1
102
RTVSPost2010Prop49
280
     0
102
RTVSPost2010PropOp49
 70
     1
102
RTVSPost2010Prop50
 90
       50
102
RTVSPost2010PropOp50
 70
     1
102
RTVSPost2010Prop51ColorIndex
 90
      256
102
RTVSPost2010Prop51ColorRGB
 90
-16777216
102
RTVSPost2010PropOp51
 70
     0
102
RTVSPost2010Prop52
140
1.0
102
RTVSPost2010PropOp52
 70
     0
102
RTVSPost2010Prop53
 90
        2
102
RTVSPost2010PropOp53
 70
     1
102
RTVSPost2010Prop54
  1
strokes_ogs.tif
102
RTVSPost2010PropOp54
 70
     1
102
RTVSPost2010Prop55
280
     0
102
RTVSPost2010PropOp55
 70
     1
102
RTVSPost2010Prop56
140
1.0
102
RTVSPost2010PropOp56
 70
     1
102
RTVSPost2010Prop57
140
1.0
102
RTVSPost2010PropOp57
 70
     1
  0
XRECORD
  5
106ACB9
102
{ACAD_REACTORS
330
106ACB8
102
}
330
106ACB8
100
AcDbXrecord
280
     1
102
RTVSPropertyOp0
 70
     1
102
RTVSPropertyOp1
 70
     1
102
RTVSPropertyOp2
 70
     1
102
RTVSPropertyOp3
 70
     1
102
RTVSPropertyOp4
 70
     1
102
RTVSPropertyOp5
 70
     1
102
RTVSPropertyOp6
 70
     1
102
RTVSPropertyOp7
 70
     1
102
RTVSPropertyOp8
 70
     1
102
RTVSPropertyOp9
 70
     1
102
RTVSPropertyOp10
 70
     1
102
RTVSPropertyOp11
 70
     1
102
RTVSPropertyOp12
 70
     1
102
RTVSPropertyOp13
 70
     1
102
RTVSPropertyOp14
 70
     1
102
RTVSPropertyOp15
 70
     1
102
RTVSPropertyOp16
 70
     1
102
RTVSPropertyOp17
 70
     1
102
RTVSPropertyOp18
 70
     1
102
RTVSPropertyOp19
 70
     1
102
RTVSPropertyOp20
 70
     1
102
RTVSPropertyOp21
 70
     1
102
RTVSPropertyOp22
 70
     1
102
RTVSPropertyOp23
 70
     1
102
RTVSPropertyOp24
 70
     1
102
RTVSPropertyOp25
 70
     1
102
RTVSPropertyOp26
 70
     1
102
RTVSPropertyOp27
 70
     1
102
RTVSPropertyOp28
 70
     1
102
RTVSPropertyOp29
 70
     1
102
RTVSPropertyOp30
 70
     1
102
RTVSPropertyOp31
 70
     1
102
RTVSPropertyOp32
 70
     1
102
RTVSPropertyOp33
 70
     1
102
RTVSPropertyOp34
 70
     1
102
RTVSPropertyOp35
 70
     1
102
RTVSPropertyOp36
 70
     1
102
RTVSPropertyOp37
 70
     1
102
RTVSPropertyOp38
 70
     1
102
RTVSPropertyOp39
 70
     1
102
RTVSPropertyOp40
 70
     1
102
RTVSPropertyOp41
 70
     1
102
RTVSPropertyOp42
 70
     1
102
RTVSPropertyOp43
 70
     1
102
RTVSPropertyOp44
 70
     1
102
RTVSPropertyOp45
 70
     1
102
RTVSPropertyOp46
 70
     1
102
RTVSPropertyOp47
 70
     1
102
RTVSPropertyOp48
 70
     1
102
RTVSPropertyOp49
 70
     1
102
RTVSPropertyOp50
 70
     1
102
RTVSPropertyOp51
 70
     0
102
RTVSPropertyOp52
 70
     0
102
RTVSPropertyOp53
 70
     1
102
RTVSPropertyOp54
 70
     1
102
RTVSPropertyOp55
 70
     1
102
RTVSPropertyOp56
 70
     1
102
RTVSPropertyOp57
 70
     1
102
RTVSPost2010Prop28
280
     0
102
RTVSPost2010PropOp28
 70
     1
102
RTVSPost2010Prop29
280
     1
102
RTVSPost2010PropOp29
 70
     1
102
RTVSPost2010Prop30
280
     1
102
RTVSPost2010PropOp30
 70
     1
102
RTVSPost2010Prop31
280
     0
102
RTVSPost2010PropOp31
 70
     1
102
RTVSPost2010Prop32
280
     0
102
RTVSPost2010PropOp32
 70
     1
102
RTVSPost2010Prop33
280
     0
102
RTVSPost2010PropOp33
 70
     1
102
RTVSPost2010Prop34
280
     0
102
RTVSPost2010PropOp34
 70
     1
102
RTVSPost2010Prop35
280
     0
102
RTVSPost2010PropOp35
 70
     1
102
RTVSPost2010Prop36
280
     0
102
RTVSPost2010PropOp36
 70
     1
102
RTVSPost2010Prop37
 90
       50
102
RTVSPost2010PropOp37
 70
     1
102
RTVSPost2010Prop38
140
0.0
102
RTVSPost2010PropOp38
 70
     1
102
RTVSPost2010Prop39
140
1.0
102
RTVSPost2010PropOp39
 70
     1
102
RTVSPost2010Prop40
 90
        0
102
RTVSPost2010PropOp40
 70
     1
102
RTVSPost2010Prop41ColorIndex
 90
       18
102
RTVSPost2010Prop41ColorRGB
 90
        0
102
RTVSPost2010PropOp41
 70
     1
102
RTVSPost2010Prop42
 90
       50
102
RTVSPost2010PropOp42
 70
     1
102
RTVSPost2010Prop43
 90
        3
102
RTVSPost2010PropOp43
 70
     1
102
RTVSPost2010Prop44ColorIndex
 90
        5
102
RTVSPost2010Prop44ColorRGB
 90
      255
102
RTVSPost2010PropOp44
 70
     1
102
RTVSPost2010Prop45
280
     0
102
RTVSPost2010PropOp45
 70
     1
102
RTVSPost2010Prop46
 90
       50
102
RTVSPost2010PropOp46
 70
     1
102
RTVSPost2010Prop47
 90
       50
102
RTVSPost2010PropOp47
 70
     1
102
RTVSPost2010Prop48
 90
       50
102
RTVSPost2010PropOp48
 70
     1
102
RTVSPost2010Prop49
280
     0
102
RTVSPost2010PropOp49
 70
     1
102
RTVSPost2010Prop50
 90
       50
102
RTVSPost2010PropOp50
 70
     1
102
RTVSPost2010Prop51ColorIndex
 90
      256
102
RTVSPost2010Prop51ColorRGB
 90
-16777216
102
RTVSPost2010PropOp51
 70
     0
102
RTVSPost2010Prop52
140
1.0
102
RTVSPost2010PropOp52
 70
     0
102
RTVSPost2010Prop53
 90
        2
102
RTVSPost2010PropOp53
 70
     1
102
RTVSPost2010Prop54
  1
strokes_ogs.tif
102
RTVSPost2010PropOp54
 70
     1
102
RTVSPost2010Prop55
280
     0
102
RTVSPost2010PropOp55
 70
     1
102
RTVSPost2010Prop56
140
1.0
102
RTVSPost2010PropOp56
 70
     1
102
RTVSPost2010Prop57
140
1.0
102
RTVSPost2010PropOp57
 70
     1
  0
XRECORD
  5
106ACD9
102
{ACAD_REACTORS
330
106ACD8
102
}
330
106ACD8
100
AcDbXrecord
280
     1
102
RTVSPropertyOp0
 70
     1
102
RTVSPropertyOp1
 70
     1
102
RTVSPropertyOp2
 70
     1
102
RTVSPropertyOp3
 70
     1
102
RTVSPropertyOp4
 70
     1
102
RTVSPropertyOp5
 70
     1
102
RTVSPropertyOp6
 70
     1
102
RTVSPropertyOp7
 70
     1
102
RTVSPropertyOp8
 70
     1
102
RTVSPropertyOp9
 70
     1
102
RTVSPropertyOp10
 70
     1
102
RTVSPropertyOp11
 70
     1
102
RTVSPropertyOp12
 70
     1
102
RTVSPropertyOp13
 70
     1
102
RTVSPropertyOp14
 70
     1
102
RTVSPropertyOp15
 70
     1
102
RTVSPropertyOp16
 70
     1
102
RTVSPropertyOp17
 70
     1
102
RTVSPropertyOp18
 70
     1
102
RTVSPropertyOp19
 70
     1
102
RTVSPropertyOp20
 70
     1
102
RTVSPropertyOp21
 70
     1
102
RTVSPropertyOp22
 70
     1
102
RTVSPropertyOp23
 70
     1
102
RTVSPropertyOp24
 70
     1
102
RTVSPropertyOp25
 70
     1
102
RTVSPropertyOp26
 70
     1
102
RTVSPropertyOp27
 70
     1
102
RTVSPropertyOp28
 70
     1
102
RTVSPropertyOp29
 70
     1
102
RTVSPropertyOp30
 70
     1
102
RTVSPropertyOp31
 70
     1
102
RTVSPropertyOp32
 70
     1
102
RTVSPropertyOp33
 70
     1
102
RTVSPropertyOp34
 70
     1
102
RTVSPropertyOp35
 70
     1
102
RTVSPropertyOp36
 70
     1
102
RTVSPropertyOp37
 70
     1
102
RTVSPropertyOp38
 70
     1
102
RTVSPropertyOp39
 70
     1
102
RTVSPropertyOp40
 70
     1
102
RTVSPropertyOp41
 70
     1
102
RTVSPropertyOp42
 70
     1
102
RTVSPropertyOp43
 70
     1
102
RTVSPropertyOp44
 70
     1
102
RTVSPropertyOp45
 70
     1
102
RTVSPropertyOp46
 70
     1
102
RTVSPropertyOp47
 70
     1
102
RTVSPropertyOp48
 70
     1
102
RTVSPropertyOp49
 70
     1
102
RTVSPropertyOp50
 70
     1
102
RTVSPropertyOp51
 70
     0
102
RTVSPropertyOp52
 70
     0
102
RTVSPropertyOp53
 70
     1
102
RTVSPropertyOp54
 70
     1
102
RTVSPropertyOp55
 70
     1
102
RTVSPropertyOp56
 70
     1
102
RTVSPropertyOp57
 70
     1
102
RTVSPost2010Prop28
280
     0
102
RTVSPost2010PropOp28
 70
     1
102
RTVSPost2010Prop29
280
     1
102
RTVSPost2010PropOp29
 70
     1
102
RTVSPost2010Prop30
280
     1
102
RTVSPost2010PropOp30
 70
     1
102
RTVSPost2010Prop31
280
     0
102
RTVSPost2010PropOp31
 70
     1
102
RTVSPost2010Prop32
280
     0
102
RTVSPost2010PropOp32
 70
     1
102
RTVSPost2010Prop33
280
     0
102
RTVSPost2010PropOp33
 70
     1
102
RTVSPost2010Prop34
280
     0
102
RTVSPost2010PropOp34
 70
     1
102
RTVSPost2010Prop35
280
     0
102
RTVSPost2010PropOp35
 70
     1
102
RTVSPost2010Prop36
280
     0
102
RTVSPost2010PropOp36
 70
     1
102
RTVSPost2010Prop37
 90
       50
102
RTVSPost2010PropOp37
 70
     1
102
RTVSPost2010Prop38
140
0.0
102
RTVSPost2010PropOp38
 70
     1
102
RTVSPost2010Prop39
140
1.0
102
RTVSPost2010PropOp39
 70
     1
102
RTVSPost2010Prop40
 90
        0
102
RTVSPost2010PropOp40
 70
     1
102
RTVSPost2010Prop41ColorIndex
 90
       18
102
RTVSPost2010Prop41ColorRGB
 90
        0
102
RTVSPost2010PropOp41
 70
     1
102
RTVSPost2010Prop42
 90
       50
102
RTVSPost2010PropOp42
 70
     1
102
RTVSPost2010Prop43
 90
        3
102
RTVSPost2010PropOp43
 70
     1
102
RTVSPost2010Prop44ColorIndex
 90
        5
102
RTVSPost2010Prop44ColorRGB
 90
      255
102
RTVSPost2010PropOp44
 70
     1
102
RTVSPost2010Prop45
280
     0
102
RTVSPost2010PropOp45
 70
     1
102
RTVSPost2010Prop46
 90
       50
102
RTVSPost2010PropOp46
 70
     1
102
RTVSPost2010Prop47
 90
       50
102
RTVSPost2010PropOp47
 70
     1
102
RTVSPost2010Prop48
 90
       50
102
RTVSPost2010PropOp48
 70
     1
102
RTVSPost2010Prop49
280
     0
102
RTVSPost2010PropOp49
 70
     1
102
RTVSPost2010Prop50
 90
       50
102
RTVSPost2010PropOp50
 70
     1
102
RTVSPost2010Prop51ColorIndex
 90
      256
102
RTVSPost2010Prop51ColorRGB
 90
-16777216
102
RTVSPost2010PropOp51
 70
     0
102
RTVSPost2010Prop52
140
1.0
102
RTVSPost2010PropOp52
 70
     0
102
RTVSPost2010Prop53
 90
        2
102
RTVSPost2010PropOp53
 70
     1
102
RTVSPost2010Prop54
  1
strokes_ogs.tif
102
RTVSPost2010PropOp54
 70
     1
102
RTVSPost2010Prop55
280
     0
102
RTVSPost2010PropOp55
 70
     1
102
RTVSPost2010Prop56
140
1.0
102
RTVSPost2010PropOp56
 70
     1
102
RTVSPost2010Prop57
140
1.0
102
RTVSPost2010PropOp57
 70
     1
  0
ENDSEC
  0
EOF
