  0
SECTION
  2
HEADER
  9
$ACADVER
  1
AC1015
  9
$ACADMAINTVER
 70
     6
  9
$DWGCODEPAGE
  3
ANSI_932
  9
$INSBASE
 10
0.0
 20
0.0
 30
0.0
  9
$EXTMIN
 10
-15.0
 20
-45.0
 30
0.0
  9
$EXTMAX
 10
130.0
 20
45.0
 30
0.0
  9
$LIMMIN
 10
0.0
 20
0.0
  9
$LIMMAX
 10
12.0
 20
9.0
  9
$ORTHOMODE
 70
     0
  9
$REGENMODE
 70
     1
  9
$FILLMODE
 70
     1
  9
$QTEXTMODE
 70
     0
  9
$MIRRTEXT
 70
     1
  9
$LTSCALE
 40
1.0
  9
$ATTMODE
 70
     1
  9
$TEXTSIZE
 40
0.2
  9
$TRACEWID
 40
0.05
  9
$TEXTSTYLE
  7
Standard
  9
$CLAYER
  8
0
  9
$CELTYPE
  6
ByBlock
  9
$CECOLOR
 62
   256
  9
$CELTSCALE
 40
1.0
  9
$DISPSILH
 70
     0
  9
$DIMSCALE
 40
1.0
  9
$DIMASZ
 40
0.18
  9
$DIMEXO
 40
0.0625
  9
$DIMDLI
 40
0.38
  9
$DIMRND
 40
0.0
  9
$DIMDLE
 40
0.0
  9
$DIMEXE
 40
0.18
  9
$DIMTP
 40
0.0
  9
$DIMTM
 40
0.0
  9
$DIMTXT
 40
0.18
  9
$DIMCEN
 40
0.09
  9
$DIMTSZ
 40
0.0
  9
$DIMTOL
 70
     0
  9
$DIMLIM
 70
     0
  9
$DIMTIH
 70
     1
  9
$DIMTOH
 70
     1
  9
$DIMSE1
 70
     0
  9
$DIMSE2
 70
     0
  9
$DIMTAD
 70
     0
  9
$DIMZIN
 70
     0
  9
$DIMBLK
  1

  9
$DIMASO
 70
     1
  9
$DIMSHO
 70
     1
  9
$DIMPOST
  1

  9
$DIMAPOST
  1

  9
$DIMALT
 70
     0
  9
$DIMALTD
 70
     2
  9
$DIMALTF
 40
25.4
  9
$DIMLFAC
 40
1.0
  9
$DIMTOFL
 70
     0
  9
$DIMTVP
 40
0.0
  9
$DIMTIX
 70
     0
  9
$DIMSOXD
 70
     0
  9
$DIMSAH
 70
     0
  9
$DIMBLK1
  1

  9
$DIMBLK2
  1

  9
$DIMSTYLE
  2
STANDARD
  9
$DIMCLRD
 70
     0
  9
$DIMCLRE
 70
     0
  9
$DIMCLRT
 70
     0
  9
$DIMTFAC
 40
1.0
  9
$DIMGAP
 40
0.09
  9
$DIMJUST
 70
     0
  9
$DIMSD1
 70
     0
  9
$DIMSD2
 70
     0
  9
$DIMTOLJ
 70
     1
  9
$DIMTZIN
 70
     0
  9
$DIMALTZ
 70
     0
  9
$DIMALTTZ
 70
     0
  9
$DIMUPT
 70
     0
  9
$DIMDEC
 70
     4
  9
$DIMTDEC
 70
     4
  9
$DIMALTU
 70
     2
  9
$DIMALTTD
 70
     2
  9
$DIMTXSTY
  7
Standard
  9
$DIMAUNIT
 70
     0
  9
$DIMADEC
 70
     0
  9
$DIMALTRND
 40
0.0
  9
$DIMAZIN
 70
     0
  9
$DIMDSEP
 70
    46
  9
$DIMATFIT
 70
     3
  9
$DIMFRAC
 70
     0
  9
$DIMLDRBLK
  1

  9
$DIMLUNIT
 70
     2
  9
$DIMLWD
 70
    -2
  9
$DIMLWE
 70
    -2
  9
$DIMTMOVE
 70
     0
  9
$LUNITS
 70
     2
  9
$LUPREC
 70
     4
  9
$SKETCHINC
 40
0.1
  9
$FILLETRAD
 40
0.5
  9
$AUNITS
 70
     0
  9
$AUPREC
 70
     0
  9
$MENU
  1
.
  9
$ELEVATION
 40
0.0
  9
$PELEVATION
 40
0.0
  9
$THICKNESS
 40
0.0
  9
$LIMCHECK
 70
     0
  9
$CHAMFERA
 40
0.0
  9
$CHAMFERB
 40
0.0
  9
$CHAMFERC
 40
0.0
  9
$CHAMFERD
 40
0.0
  9
$SKPOLY
 70
     0
  9
$TDCREATE
 40
2447893.375
  9
$TDUCREATE
 40
0.0
  9
$TDUPDATE
 40
2460864.649156053
  9
$TDUUPDATE
 40
2460864.274156053
  9
$TDINDWG
 40
0.0044088657
  9
$TDUSRTIMER
 40
0.0001658565
  9
$USRTIMER
 70
     1
  9
$ANGBASE
 50
0.0
  9
$ANGDIR
 70
     0
  9
$PDMODE
 70
     0
  9
$PDSIZE
 40
0.0
  9
$PLINEWID
 40
0.0
  9
$SPLFRAME
 70
     0
  9
$SPLINETYPE
 70
     6
  9
$SPLINESEGS
 70
     8
  9
$HANDSEED
  5
106AD27
  9
$SURFTAB1
 70
     6
  9
$SURFTAB2
 70
     6
  9
$SURFTYPE
 70
     6
  9
$SURFU
 70
     6
  9
$SURFV
 70
     6
  9
$UCSBASE
  2

  9
$UCSNAME
  2

  9
$UCSORG
 10
0.0
 20
0.0
 30
0.0
  9
$UCSXDIR
 10
1.0
 20
0.0
 30
0.0
  9
$UCSYDIR
 10
0.0
 20
1.0
 30
0.0
  9
$UCSORTHOREF
  2

  9
$UCSORTHOVIEW
 70
     0
  9
$UCSORGTOP
 10
0.0
 20
0.0
 30
0.0
  9
$UCSORGBOTTOM
 10
0.0
 20
0.0
 30
0.0
  9
$UCSORGLEFT
 10
0.0
 20
0.0
 30
0.0
  9
$UCSORGRIGHT
 10
0.0
 20
0.0
 30
0.0
  9
$UCSORGFRONT
 10
0.0
 20
0.0
 30
0.0
  9
$UCSORGBACK
 10
0.0
 20
0.0
 30
0.0
  9
$PUCSBASE
  2

  9
$PUCSNAME
  2

  9
$PUCSORG
 10
0.0
 20
0.0
 30
0.0
  9
$PUCSXDIR
 10
1.0
 20
0.0
 30
0.0
  9
$PUCSYDIR
 10
0.0
 20
1.0
 30
0.0
  9
$PUCSORTHOREF
  2

  9
$PUCSORTHOVIEW
 70
     0
  9
$PUCSORGTOP
 10
0.0
 20
0.0
 30
0.0
  9
$PUCSORGBOTTOM
 10
0.0
 20
0.0
 30
0.0
  9
$PUCSORGLEFT
 10
0.0
 20
0.0
 30
0.0
  9
$PUCSORGRIGHT
 10
0.0
 20
0.0
 30
0.0
  9
$PUCSORGFRONT
 10
0.0
 20
0.0
 30
0.0
  9
$PUCSORGBACK
 10
0.0
 20
0.0
 30
0.0
  9
$USERI1
 70
     0
  9
$USERI2
 70
     0
  9
$USERI3
 70
     0
  9
$USERI4
 70
     0
  9
$USERI5
 70
     0
  9
$USERR1
 40
0.0
  9
$USERR2
 40
0.0
  9
$USERR3
 40
0.0
  9
$USERR4
 40
0.0
  9
$USERR5
 40
0.0
  9
$WORLDVIEW
 70
     1
  9
$SHADEDGE
 70
     3
  9
$SHADEDIF
 70
    70
  9
$TILEMODE
 70
     1
  9
$MAXACTVP
 70
    64
  9
$PINSBASE
 10
0.0
 20
0.0
 30
0.0
  9
$PLIMCHECK
 70
     0
  9
$PEXTMIN
 10
1.000000000000000E+20
 20
1.000000000000000E+20
 30
1.000000000000000E+20
  9
$PEXTMAX
 10
-1.000000000000000E+20
 20
-1.000000000000000E+20
 30
-1.000000000000000E+20
  9
$PLIMMIN
 10
0.0
 20
0.0
  9
$PLIMMAX
 10
0.0
 20
0.0
  9
$UNITMODE
 70
     0
  9
$VISRETAIN
 70
     1
  9
$PLINEGEN
 70
     0
  9
$PSLTSCALE
 70
     1
  9
$TREEDEPTH
 70
  3020
  9
$CMLSTYLE
  2
Standard
  9
$CMLJUST
 70
     0
  9
$CMLSCALE
 40
1.0
  9
$PROXYGRAPHICS
 70
     1
  9
$MEASUREMENT
 70
     0
  9
$CELWEIGHT
370
    -1
  9
$ENDCAPS
280
     0
  9
$JOINSTYLE
280
     0
  9
$LWDISPLAY
290
     0
  9
$INSUNITS
 70
     0
  9
$HYPERLINKBASE
  1

  9
$STYLESHEET
  1

  9
$XEDIT
290
     1
  9
$CEPSNTYPE
380
     0
  9
$PSTYLEMODE
290
     1
  9
$FINGERPRINTGUID
  2
{70d5ab0f-b816-4e9a-bc31-7512b238590a}
  9
$VERSIONGUID
  2
{FAEB1C32-E019-11D5-929B-00C0DF256EC4}
  9
$EXTNAMES
290
     1
  9
$PSVPSCALE
 40
0.0
  9
$OLESTARTUP
290
     0
  0
ENDSEC
  0
SECTION
  2
CLASSES
  0
CLASS
  1
IMAGEDEF
  2
AcDbRasterImageDef
  3
ISM
 90
        0
280
     0
281
     0
  0
CLASS
  1
IMAGE
  2
AcDbRasterImage
  3
ISM
 90
      127
280
     0
281
     1
  0
CLASS
  1
IMAGEDEF_REACTOR
  2
AcDbRasterImageDefReactor
  3
ISM
 90
        1
280
     0
281
     0
  0
CLASS
  1
ACDBDICTIONARYWDFLT
  2
AcDbDictionaryWithDefault
  3
ObjectDBX Classes
 90
        0
280
     0
281
     0
  0
CLASS
  1
SCALE
  2
AcDbScale
  3
ObjectDBX Classes
 90
     1153
280
     0
281
     0
  0
CLASS
  1
MATERIAL
  2
AcDbMaterial
  3
ObjectDBX Classes
 90
     1153
280
     0
281
     0
  0
CLASS
  1
VISUALSTYLE
  2
AcDbVisualStyle
  3
ObjectDBX Classes
 90
     4095
280
     0
281
     0
  0
CLASS
  1
TABLESTYLE
  2
AcDbTableStyle
  3
ObjectDBX Classes
 90
     4095
280
     0
281
     0
  0
CLASS
  1
MLEADERSTYLE
  2
AcDbMLeaderStyle
  3
ACDB_MLEADERSTYLE_CLASS
 90
     4095
280
     0
281
     0
  0
CLASS
  1
SUN
  2
AcDbSun
  3
SCENEOE
 90
     1153
280
     0
281
     0
  0
CLASS
  1
RASTERVARIABLES
  2
AcDbRasterVariables
  3
ISM
 90
        0
280
     0
281
     0
  0
CLASS
  1
DICTIONARYVAR
  2
AcDbDictionaryVar
  3
ObjectDBX Classes
 90
        0
280
     0
281
     0
  0
CLASS
  1
ACDBPLACEHOLDER
  2
AcDbPlaceHolder
  3
ObjectDBX Classes
 90
        0
280
     0
281
     0
  0
CLASS
  1
LAYOUT
  2
AcDbLayout
  3
ObjectDBX Classes
 90
        0
280
     0
281
     0
  0
ENDSEC
  0
SECTION
  2
TABLES
  0
TABLE
  2
VPORT
  5
2
102
{ACAD_XDICTIONARY
360
106ACEC
102
}
330
0
100
AcDbSymbolTable
 70
     1
  0
VPORT
  5
106AB91
330
2
100
AcDbSymbolTableRecord
100
AcDbViewportTableRecord
  2
*Active
 70
     0
 10
0.0
 20
0.0
 11
1.0
 21
1.0
 12
57.5
 22
0.0
 13
0.0
 23
0.0
 14
0.5
 24
0.5
 15
0.5
 25
0.5
 16
0.0
 26
0.0
 36
1.0
 17
0.0
 27
0.0
 37
0.0
 40
91.8
 41
2.05750350631136
 42
50.0
 43
0.0
 44
0.0
 50
0.0
 51
0.0
 71
    16
 72
   100
 73
     1
 74
     3
 75
     0
 76
     0
 77
     0
 78
     0
281
     0
 65
     1
110
0.0
120
0.0
130
0.0
111
1.0
121
0.0
131
0.0
112
0.0
122
1.0
132
0.0
 79
     0
146
0.0
  0
ENDTAB
  0
TABLE
  2
LTYPE
  5
3
330
0
100
AcDbSymbolTable
 70
     3
  0
LTYPE
  5
4
330
3
100
AcDbSymbolTableRecord
100
AcDbLinetypeTableRecord
  2
ByBlock
 70
     0
  3

 72
    65
 73
     0
 40
0.0
  0
LTYPE
  5
5
330
3
100
AcDbSymbolTableRecord
100
AcDbLinetypeTableRecord
  2
ByLayer
 70
     0
  3

 72
    65
 73
     0
 40
0.0
  0
LTYPE
  5
6
330
3
100
AcDbSymbolTableRecord
100
AcDbLinetypeTableRecord
  2
CONTINUOUS
 70
     0
  3
Solid Line
 72
    65
 73
     0
 40
0.0
  0
LTYPE
  5
7
330
3
100
AcDbSymbolTableRecord
100
AcDbLinetypeTableRecord
  2
DASH
 70
     0
  3
Hidden
 72
    65
 73
     2
 40
2.5
 49
1.5
 74
     0
 49
-1.0
 74
     0
  0
LTYPE
  5
8
330
3
100
AcDbSymbolTableRecord
100
AcDbLinetypeTableRecord
  2
LONGDASHDASH
 70
     0
  3
__ . __
 72
    65
 73
     4
 40
7.0
 49
4.0
 74
     0
 49
-1.0
 74
     0
 49
1.0
 74
     0
 49
-1.0
 74
     0
  0
ENDTAB
  0
TABLE
  2
LAYER
  5
9
330
0
100
AcDbSymbolTable
 70
    11
  0
LAYER
  5
A
330
9
100
AcDbSymbolTableRecord
100
AcDbLayerTableRecord
  2
0
 70
     0
 62
     7
  6
CONTINUOUS
370
    -3
390
106AB96
  0
LAYER
  5
C
330
9
100
AcDbSymbolTableRecord
100
AcDbLayerTableRecord
  2
1
 70
     0
 62
     4
  6
CONTINUOUS
370
    50
390
106AB96
  0
LAYER
  5
D
330
9
100
AcDbSymbolTableRecord
100
AcDbLayerTableRecord
  2
2
 70
     0
 62
     7
  6
CONTINUOUS
370
    25
390
106AB96
  0
LAYER
  5
F
330
9
100
AcDbSymbolTableRecord
100
AcDbLayerTableRecord
  2
4
 70
     0
 62
     2
  6
LONGDASHDASH
370
    25
390
106AB96
  0
LAYER
  5
13
330
9
100
AcDbSymbolTableRecord
100
AcDbLayerTableRecord
  2
SK1
 70
     0
 62
     4
  6
CONTINUOUS
370
    50
390
106AB96
  0
LAYER
  5
14
330
9
100
AcDbSymbolTableRecord
100
AcDbLayerTableRecord
  2
SK2
 70
     0
 62
     7
  6
CONTINUOUS
370
    25
390
106AB96
  0
LAYER
  5
16
330
9
100
AcDbSymbolTableRecord
100
AcDbLayerTableRecord
  2
SK4
 70
     0
 62
     2
  6
LONGDASHDASH
370
    25
390
106AB96
  0
LAYER
  5
21
330
9
100
AcDbSymbolTableRecord
100
AcDbLayerTableRecord
  2
NOCUT
 70
     0
 62
     7
  6
CONTINUOUS
370
    25
390
106AB96
  0
LAYER
  5
22
330
9
100
AcDbSymbolTableRecord
100
AcDbLayerTableRecord
  2
CUT
 70
     0
 62
     1
  6
CONTINUOUS
370
    25
390
106AB96
  0
LAYER
  5
26
330
9
100
AcDbSymbolTableRecord
100
AcDbLayerTableRecord
  2
INFTOTAL
 70
     0
 62
     9
  6
CONTINUOUS
370
    18
390
106AB96
  0
LAYER
  5
106ABE1
330
9
100
AcDbSymbolTableRecord
100
AcDbLayerTableRecord
  2
Defpoints
 70
     0
 62
     7
  6
CONTINUOUS
290
     0
370
    -3
390
106AB96
  0
ENDTAB
  0
TABLE
  2
STYLE
  5
27
330
0
100
AcDbSymbolTable
 70
     2
  0
STYLE
  5
28
330
27
100
AcDbSymbolTableRecord
100
AcDbTextStyleTableRecord
  2
Monospac821 BT
 70
     0
 40
3.5
 41
1.0
 50
0.0
 71
     0
 42
3.0
  3

  4

1001
ACAD
1000
Monospac821 BT
1071
      256
  0
STYLE
  5
106AB90
330
27
100
AcDbSymbolTableRecord
100
AcDbTextStyleTableRecord
  2
Standard
 70
     0
 40
0.0
 41
1.0
 50
0.0
 71
     0
 42
0.2
  3
txt
  4

  0
ENDTAB
  0
TABLE
  2
VIEW
  5
29
330
0
100
AcDbSymbolTable
 70
     0
  0
ENDTAB
  0
TABLE
  2
UCS
  5
2A
330
0
100
AcDbSymbolTable
 70
     0
  0
ENDTAB
  0
TABLE
  2
APPID
  5
2B
330
0
100
AcDbSymbolTable
 70
     5
  0
APPID
  5
2C
330
2B
100
AcDbSymbolTableRecord
100
AcDbRegAppTableRecord
  2
ACAD
 70
     0
  0
APPID
  5
106AC17
330
2B
100
AcDbSymbolTableRecord
100
AcDbRegAppTableRecord
  2
FX_DIMP_FAV_VERSION
 70
     0
  0
APPID
  5
106ACA9
330
2B
100
AcDbSymbolTableRecord
100
AcDbRegAppTableRecord
  2
ACAD_DSTYLE_DIMFLIPARROW_SYMBOL
 70
     0
  0
APPID
  5
106ACAA
330
2B
100
AcDbSymbolTableRecord
100
AcDbRegAppTableRecord
  2
ACAD_DSTYLE_DIMFLIPARROW_WHICH_SYMBOL
 70
     0
  0
APPID
  5
106ACE5
330
2B
100
AcDbSymbolTableRecord
100
AcDbRegAppTableRecord
  2
ACAD_MLEADERVER
 70
     0
  0
ENDTAB
  0
TABLE
  2
DIMSTYLE
  5
2D
330
0
100
AcDbSymbolTable
 70
     1
100
AcDbDimStyleTable
  0
DIMSTYLE
105
2E
102
{ACAD_REACTORS
330
106AC06
330
106AC39
330
106AC67
330
106AC92
102
}
330
2D
100
AcDbSymbolTableRecord
100
AcDbDimStyleTableRecord
  2
STANDARD
 70
     0
 41
3.0
 42
0.5
 44
1.0
 73
     0
 77
     1
 78
     1
140
3.5
141
2.5
143
0.03937007874
147
0.8
172
     1
174
     1
178
     0
179
     1
271
     2
279
     1
284
     1
340
28
  0
ENDTAB
  0
TABLE
  2
BLOCK_RECORD
  5
2F
330
0
100
AcDbSymbolTable
 70
    15
  0
BLOCK_RECORD
  5
30
102
{ACAD_XDICTIONARY
360
106AC9F
102
}
330
2F
100
AcDbSymbolTableRecord
100
AcDbBlockTableRecord
  2
*Model_Space
340
106AB98
  0
BLOCK_RECORD
  5
31
330
2F
100
AcDbSymbolTableRecord
100
AcDbBlockTableRecord
  2
*Paper_Space
340
106AB99
  0
BLOCK_RECORD
  5
3AB
330
2F
100
AcDbSymbolTableRecord
100
AcDbBlockTableRecord
  2
*D0
340
0
  0
BLOCK_RECORD
  5
3B9
330
2F
100
AcDbSymbolTableRecord
100
AcDbBlockTableRecord
  2
*D1
340
0
  0
BLOCK_RECORD
  5
3C7
330
2F
100
AcDbSymbolTableRecord
100
AcDbBlockTableRecord
  2
*D2
340
0
  0
BLOCK_RECORD
  5
3D5
330
2F
100
AcDbSymbolTableRecord
100
AcDbBlockTableRecord
  2
*D3
340
0
  0
BLOCK_RECORD
  5
3E3
330
2F
100
AcDbSymbolTableRecord
100
AcDbBlockTableRecord
  2
*D4
340
0
  0
BLOCK_RECORD
  5
3F1
330
2F
100
AcDbSymbolTableRecord
100
AcDbBlockTableRecord
  2
*D5
340
0
  0
BLOCK_RECORD
  5
3FF
330
2F
100
AcDbSymbolTableRecord
100
AcDbBlockTableRecord
  2
*D6
340
0
  0
BLOCK_RECORD
  5
106ABF7
330
2F
100
AcDbSymbolTableRecord
100
AcDbBlockTableRecord
  2
*D7
340
0
  0
BLOCK_RECORD
  5
106AC07
330
2F
100
AcDbSymbolTableRecord
100
AcDbBlockTableRecord
  2
*D8
340
0
  0
BLOCK_RECORD
  5
106AC27
330
2F
100
AcDbSymbolTableRecord
100
AcDbBlockTableRecord
  2
*D9
340
0
  0
BLOCK_RECORD
  5
106AC3A
330
2F
100
AcDbSymbolTableRecord
100
AcDbBlockTableRecord
  2
*D10
340
0
  0
BLOCK_RECORD
  5
106AC55
330
2F
100
AcDbSymbolTableRecord
100
AcDbBlockTableRecord
  2
*D11
340
0
  0
BLOCK_RECORD
  5
106AC68
330
2F
100
AcDbSymbolTableRecord
100
AcDbBlockTableRecord
  2
*D12
340
0
  0
BLOCK_RECORD
  5
106AC83
330
2F
100
AcDbSymbolTableRecord
100
AcDbBlockTableRecord
  2
*D13
340
0
  0
BLOCK_RECORD
  5
106AC93
330
2F
100
AcDbSymbolTableRecord
100
AcDbBlockTableRecord
  2
*D14
340
0
  0
ENDTAB
  0
ENDSEC
  0
SECTION
  2
BLOCKS
  0
BLOCK
  5
32
330
30
100
AcDbEntity
  8
0
100
AcDbBlockBegin
  2
*Model_Space
 70
     0
 10
0.0
 20
0.0
 30
0.0
  3
*Model_Space
  1

  0
ENDBLK
  5
33
330
30
100
AcDbEntity
  8
0
100
AcDbBlockEnd
  0
BLOCK
  5
34
330
31
100
AcDbEntity
 67
     1
  8
0
100
AcDbBlockBegin
  2
*Paper_Space
 70
     0
 10
0.0
 20
0.0
 30
0.0
  3
*Paper_Space
  1

  0
ENDBLK
  5
35
330
31
100
AcDbEntity
 67
     1
  8
0
100
AcDbBlockEnd
  0
BLOCK
  5
3A9
330
3AB
100
AcDbEntity
  8
SK2
100
AcDbBlockBegin
  2
*D0
 70
     1
 10
0.0
 20
0.0
 30
0.0
  3
*D0
  1

  0
LINE
  5
3AC
330
3AB
100
AcDbEntity
  8
SK2
 62
     0
370
    -2
100
AcDbLine
 10
83.049115951988
 20
-2.95
 30
0.0
 11
83.049115951988
 21
-41.0
 31
0.0
  0
LINE
  5
3AD
330
3AB
100
AcDbEntity
  8
SK2
 62
     0
370
    -2
100
AcDbLine
 10
3.049115951988
 20
-3.294
 30
0.0
 11
3.049115951988
 21
-41.0
 31
0.0
  0
LINE
  5
3AE
330
3AB
100
AcDbEntity
  8
SK2
 62
     0
370
    -2
100
AcDbLine
 10
80.049115951988
 20
-40.0
 30
0.0
 11
6.049115951988
 21
-40.0
 31
0.0
  0
SOLID
  5
3AF
330
3AB
100
AcDbEntity
  8
SK2
 62
     0
100
AcDbTrace
 10
80.049115951988
 20
-40.5
 30
0.0
 11
80.049115951988
 21
-39.5
 31
0.0
 12
83.049115951988
 22
-40.0
 32
0.0
 13
83.049115951988
 23
-40.0
 33
0.0
  0
SOLID
  5
3B0
330
3AB
100
AcDbEntity
  8
SK2
 62
     0
100
AcDbTrace
 10
6.049115951988
 20
-39.5
 30
0.0
 11
6.049115951988
 21
-40.5
 31
0.0
 12
3.049115951988
 22
-40.0
 32
0.0
 13
3.049115951988
 23
-40.0
 33
0.0
  0
MTEXT
  5
3B1
330
3AB
100
AcDbEntity
  8
SK2
  6
ByBlock
 62
     0
100
AcDbMText
 10
43.049115951988
 20
-37.38875
 30
0.0
 40
3.5
 41
0.0
 71
     5
 72
     1
  1
\A1;80
 73
     1
 44
1.0
  0
POINT
  5
3B2
330
3AB
100
AcDbEntity
  8
Defpoints
 62
     0
100
AcDbPoint
 10
83.049115951988
 20
-2.45
 30
0.0
  0
POINT
  5
3B3
330
3AB
100
AcDbEntity
  8
Defpoints
 62
     0
100
AcDbPoint
 10
3.049115951988
 20
-2.794
 30
0.0
  0
POINT
  5
3B4
330
3AB
100
AcDbEntity
  8
Defpoints
 62
     0
100
AcDbPoint
 10
3.049115951988
 20
-40.0
 30
0.0
  0
ENDBLK
  5
3B5
330
3AB
100
AcDbEntity
  8
SK2
100
AcDbBlockEnd
  0
BLOCK
  5
3B7
330
3B9
100
AcDbEntity
  8
SK2
100
AcDbBlockBegin
  2
*D1
 70
     1
 10
0.0
 20
0.0
 30
0.0
  3
*D1
  1

  0
LINE
  5
3BA
330
3B9
100
AcDbEntity
  8
SK2
 62
     0
370
    -2
100
AcDbLine
 10
20.0992
 20
2.794
 30
0.0
 11
20.0992
 21
28.1355
 31
0.0
  0
LINE
  5
3BB
330
3B9
100
AcDbEntity
  8
SK2
 62
     0
370
    -2
100
AcDbLine
 10
20.0992
 20
-2.794
 30
0.0
 11
20.0992
 21
2.794
 31
0.0
  0
LINE
  5
3BC
330
3B9
100
AcDbEntity
  8
SK2
 62
     0
370
    -2
100
AcDbLine
 10
20.0992
 20
-5.794
 30
0.0
 11
20.0992
 21
-8.794
 31
0.0
  0
LINE
  5
3BD
330
3B9
100
AcDbEntity
  8
SK2
 62
     0
370
    -2
100
AcDbLine
 10
20.0992
 20
5.794
 30
0.0
 11
20.0992
 21
8.794
 31
0.0
  0
SOLID
  5
3BE
330
3B9
100
AcDbEntity
  8
SK2
 62
     0
100
AcDbTrace
 10
20.5992
 20
-5.794
 30
0.0
 11
19.5992
 21
-5.794
 31
0.0
 12
20.0992
 22
-2.794
 32
0.0
 13
20.0992
 23
-2.794
 33
0.0
  0
SOLID
  5
3BF
330
3B9
100
AcDbEntity
  8
SK2
 62
     0
100
AcDbTrace
 10
19.5992
 20
5.794
 30
0.0
 11
20.5992
 21
5.794
 31
0.0
 12
20.0992
 22
2.794
 32
0.0
 13
20.0992
 23
2.794
 33
0.0
  0
MTEXT
  5
3C0
330
3B9
100
AcDbEntity
  8
SK2
  6
ByBlock
 62
     0
100
AcDbMText
 10
17.4372
 20
18.46475
 30
0.0
 40
3.5
 41
0.0
 71
     5
 72
     1
  1
\A1;%%c5.588
 11
0.0
 21
1.0
 31
0.0
 73
     1
 44
1.0
  0
POINT
  5
3C1
330
3B9
100
AcDbEntity
  8
Defpoints
 62
     0
100
AcDbPoint
 10
3.049115951988
 20
-2.794
 30
0.0
  0
POINT
  5
3C2
330
3B9
100
AcDbEntity
  8
Defpoints
 62
     0
100
AcDbPoint
 10
3.049115951988
 20
2.794
 30
0.0
  0
POINT
  5
106ABE2
330
3B9
100
AcDbEntity
  8
Defpoints
 62
     0
100
AcDbPoint
 10
20.0992
 20
2.794000000000001
 30
0.0
  0
ENDBLK
  5
3C3
330
3B9
100
AcDbEntity
  8
SK2
100
AcDbBlockEnd
  0
BLOCK
  5
3C5
330
3C7
100
AcDbEntity
  8
SK2
100
AcDbBlockBegin
  2
*D2
 70
     1
 10
0.0
 20
0.0
 30
0.0
  3
*D2
  1

  0
LINE
  5
3C8
330
3C7
100
AcDbEntity
  8
SK2
 62
     0
370
    -2
100
AcDbLine
 10
10.149115951988
 20
-3.294
 30
0.0
 11
10.149115951988
 21
-17.0
 31
0.0
  0
LINE
  5
3C9
330
3C7
100
AcDbEntity
  8
SK2
 62
     0
370
    -2
100
AcDbLine
 10
3.049115951988
 20
-3.294
 30
0.0
 11
3.049115951988001
 21
-17.0
 31
0.0
  0
LINE
  5
3CA
330
3C7
100
AcDbEntity
  8
SK2
 62
     0
370
    -2
100
AcDbLine
 10
3.049115951988001
 20
-16.0
 30
0.0
 11
-12.163384048012
 21
-16.0
 31
0.0
  0
LINE
  5
3CB
330
3C7
100
AcDbEntity
  8
SK2
 62
     0
370
    -2
100
AcDbLine
 10
10.149115951988
 20
-16.0
 30
0.0
 11
3.049115951988001
 21
-16.0
 31
0.0
  0
LINE
  5
3CC
330
3C7
100
AcDbEntity
  8
SK2
 62
     0
370
    -2
100
AcDbLine
 10
13.149115951988
 20
-16.0
 30
0.0
 11
16.149115951988
 21
-16.0
 31
0.0
  0
LINE
  5
3CD
330
3C7
100
AcDbEntity
  8
SK2
 62
     0
370
    -2
100
AcDbLine
 10
0.0491159519880009
 20
-16.0
 30
0.0
 11
-2.950884048011999
 21
-16.0
 31
0.0
  0
SOLID
  5
3CE
330
3C7
100
AcDbEntity
  8
SK2
 62
     0
100
AcDbTrace
 10
13.149115951988
 20
-15.5
 30
0.0
 11
13.149115951988
 21
-16.5
 31
0.0
 12
10.149115951988
 22
-16.0
 32
0.0
 13
10.149115951988
 23
-16.0
 33
0.0
  0
SOLID
  5
3CF
330
3C7
100
AcDbEntity
  8
SK2
 62
     0
100
AcDbTrace
 10
0.0491159519880009
 20
-16.5
 30
0.0
 11
0.0491159519880009
 21
-15.5
 31
0.0
 12
3.049115951988001
 22
-16.0
 32
0.0
 13
3.049115951988001
 23
-16.0
 33
0.0
  0
MTEXT
  5
3D0
330
3C7
100
AcDbEntity
  8
SK2
  6
ByBlock
 62
     0
100
AcDbMText
 10
-7.557134048011998
 20
-13.4395
 30
0.0
 40
3.5
 41
0.0
 71
     5
 72
     1
  1
\A1;7.1
 73
     1
 44
1.0
  0
POINT
  5
106ABE4
330
3C7
100
AcDbEntity
  8
Defpoints
 62
     0
100
AcDbPoint
 10
10.149115951988
 20
-2.794
 30
0.0
  0
POINT
  5
106ABE5
330
3C7
100
AcDbEntity
  8
Defpoints
 62
     0
100
AcDbPoint
 10
3.049115951988
 20
-2.794
 30
0.0
  0
POINT
  5
106ABEA
330
3C7
100
AcDbEntity
  8
Defpoints
 62
     0
100
AcDbPoint
 10
3.049115951988
 20
-16.0
 30
0.0
  0
ENDBLK
  5
3D1
330
3C7
100
AcDbEntity
  8
SK2
100
AcDbBlockEnd
  0
BLOCK
  5
3D3
330
3D5
100
AcDbEntity
  8
2
100
AcDbBlockBegin
  2
*D3
 70
     1
 10
0.0
 20
0.0
 30
0.0
  3
*D3
  1

  0
LINE
  5
3D6
330
3D5
100
AcDbEntity
  8
2
 62
     0
370
    -2
100
AcDbLine
 10
83.049115951988
 20
-2.95
 30
0.0
 11
83.049115951988
 21
-25.0
 31
0.0
  0
LINE
  5
3D7
330
3D5
100
AcDbEntity
  8
2
 62
     0
370
    -2
100
AcDbLine
 10
72.249115951988
 20
-3.25
 30
0.0
 11
72.249115951988
 21
-25.0
 31
0.0
  0
LINE
  5
3D8
330
3D5
100
AcDbEntity
  8
2
 62
     0
370
    -2
100
AcDbLine
 10
83.049115951988
 20
-24.0
 30
0.0
 11
99.39999999999999
 21
-24.0
 31
0.0
  0
LINE
  5
3D9
330
3D5
100
AcDbEntity
  8
2
 62
     0
370
    -2
100
AcDbLine
 10
83.049115951988
 20
-24.0
 30
0.0
 11
72.249115951988
 21
-24.0
 31
0.0
  0
LINE
  5
3DA
330
3D5
100
AcDbEntity
  8
2
 62
     0
370
    -2
100
AcDbLine
 10
86.049115951988
 20
-24.0
 30
0.0
 11
89.049115951988
 21
-24.0
 31
0.0
  0
LINE
  5
3DB
330
3D5
100
AcDbEntity
  8
2
 62
     0
370
    -2
100
AcDbLine
 10
69.249115951988
 20
-24.0
 30
0.0
 11
66.249115951988
 21
-24.0
 31
0.0
  0
SOLID
  5
3DC
330
3D5
100
AcDbEntity
  8
2
 62
     0
100
AcDbTrace
 10
86.049115951988
 20
-23.5
 30
0.0
 11
86.049115951988
 21
-24.5
 31
0.0
 12
83.049115951988
 22
-24.0
 32
0.0
 13
83.049115951988
 23
-24.0
 33
0.0
  0
SOLID
  5
3DD
330
3D5
100
AcDbEntity
  8
2
 62
     0
100
AcDbTrace
 10
69.249115951988
 20
-24.5
 30
0.0
 11
69.249115951988
 21
-23.5
 31
0.0
 12
72.249115951988
 22
-24.0
 32
0.0
 13
72.249115951988
 23
-24.0
 33
0.0
  0
MTEXT
  5
3DE
330
3D5
100
AcDbEntity
  8
2
  6
ByBlock
 62
     0
100
AcDbMText
 10
93.0
 20
-21.38875
 30
0.0
 40
3.5
 41
0.0
 71
     5
 72
     1
  1
\A1;10.8
 73
     1
 44
1.0
  0
POINT
  5
106AC13
330
3D5
100
AcDbEntity
  8
Defpoints
 62
     0
100
AcDbPoint
 10
83.049115951988
 20
-2.45
 30
0.0
  0
POINT
  5
106AC14
330
3D5
100
AcDbEntity
  8
Defpoints
 62
     0
100
AcDbPoint
 10
72.249115951988
 20
-2.75
 30
0.0
  0
POINT
  5
106AC15
330
3D5
100
AcDbEntity
  8
Defpoints
 62
     0
100
AcDbPoint
 10
72.249115951988
 20
-24.0
 30
0.0
  0
ENDBLK
  5
3DF
330
3D5
100
AcDbEntity
  8
2
100
AcDbBlockEnd
  0
BLOCK
  5
3E1
330
3E3
100
AcDbEntity
  8
2
100
AcDbBlockBegin
  2
*D4
 70
     1
 10
0.0
 20
0.0
 30
0.0
  3
*D4
  1

  0
LINE
  5
3E4
330
3E3
100
AcDbEntity
  8
2
 62
     0
370
    -2
100
AcDbLine
 10
83.049115951988
 20
-2.95
 30
0.0
 11
83.049115951988
 21
-33.0
 31
0.0
  0
LINE
  5
3E5
330
3E3
100
AcDbEntity
  8
2
 62
     0
370
    -2
100
AcDbLine
 10
53.049115951988
 20
-2.65
 30
0.0
 11
53.049115951988
 21
-33.0
 31
0.0
  0
LINE
  5
3E6
330
3E3
100
AcDbEntity
  8
2
 62
     0
370
    -2
100
AcDbLine
 10
80.049115951988
 20
-32.0
 30
0.0
 11
56.049115951988
 21
-32.0
 31
0.0
  0
SOLID
  5
3E7
330
3E3
100
AcDbEntity
  8
2
 62
     0
100
AcDbTrace
 10
80.049115951988
 20
-32.5
 30
0.0
 11
80.049115951988
 21
-31.5
 31
0.0
 12
83.049115951988
 22
-32.0
 32
0.0
 13
83.049115951988
 23
-32.0
 33
0.0
  0
SOLID
  5
3E8
330
3E3
100
AcDbEntity
  8
2
 62
     0
100
AcDbTrace
 10
56.049115951988
 20
-31.5
 30
0.0
 11
56.049115951988
 21
-32.5
 31
0.0
 12
53.049115951988
 22
-32.0
 32
0.0
 13
53.049115951988
 23
-32.0
 33
0.0
  0
MTEXT
  5
3E9
330
3E3
100
AcDbEntity
  8
2
  6
ByBlock
 62
     0
100
AcDbMText
 10
68.049115951988
 20
-29.38875
 30
0.0
 40
3.5
 41
0.0
 71
     5
 72
     1
  1
\A1;30
 73
     1
 44
1.0
  0
POINT
  5
3EA
330
3E3
100
AcDbEntity
  8
Defpoints
 62
     0
100
AcDbPoint
 10
83.049115951988
 20
-2.45
 30
0.0
  0
POINT
  5
3EB
330
3E3
100
AcDbEntity
  8
Defpoints
 62
     0
100
AcDbPoint
 10
53.049115951988
 20
-2.15
 30
0.0
  0
POINT
  5
3EC
330
3E3
100
AcDbEntity
  8
Defpoints
 62
     0
100
AcDbPoint
 10
53.049115951988
 20
-32.0
 30
0.0
  0
ENDBLK
  5
3ED
330
3E3
100
AcDbEntity
  8
2
100
AcDbBlockEnd
  0
BLOCK
  5
3EF
330
3F1
100
AcDbEntity
  8
2
100
AcDbBlockBegin
  2
*D5
 70
     1
 10
0.0
 20
0.0
 30
0.0
  3
*D5
  1

  0
LINE
  5
3F2
330
3F1
100
AcDbEntity
  8
2
 62
     0
370
    -2
100
AcDbLine
 10
62.129500709717
 20
2.15
 30
0.0
 11
62.129500709717
 21
21.398
 31
0.0
  0
LINE
  5
3F3
330
3F1
100
AcDbEntity
  8
2
 62
     0
370
    -2
100
AcDbLine
 10
62.129500709717
 20
-2.15
 30
0.0
 11
62.129500709717
 21
2.15
 31
0.0
  0
LINE
  5
3F4
330
3F1
100
AcDbEntity
  8
2
 62
     0
370
    -2
100
AcDbLine
 10
62.129500709717
 20
-5.15
 30
0.0
 11
62.129500709717
 21
-8.15
 31
0.0
  0
LINE
  5
3F5
330
3F1
100
AcDbEntity
  8
2
 62
     0
370
    -2
100
AcDbLine
 10
62.129500709717
 20
5.15
 30
0.0
 11
62.129500709717
 21
8.15
 31
0.0
  0
SOLID
  5
3F6
330
3F1
100
AcDbEntity
  8
2
 62
     0
100
AcDbTrace
 10
62.629500709717
 20
-5.15
 30
0.0
 11
61.629500709717
 21
-5.15
 31
0.0
 12
62.129500709717
 22
-2.15
 32
0.0
 13
62.129500709717
 23
-2.15
 33
0.0
  0
SOLID
  5
3F7
330
3F1
100
AcDbEntity
  8
2
 62
     0
100
AcDbTrace
 10
61.629500709717
 20
5.15
 30
0.0
 11
62.629500709717
 21
5.15
 31
0.0
 12
62.129500709717
 22
2.15
 32
0.0
 13
62.129500709717
 23
2.15
 33
0.0
  0
MTEXT
  5
3F8
330
3F1
100
AcDbEntity
  8
2
  6
ByBlock
 62
     0
100
AcDbMText
 10
59.467500709717
 20
14.774
 30
0.0
 40
3.5
 41
0.0
 71
     5
 72
     1
  1
\A1;%%c4.3
 11
0.0
 21
1.0
 31
0.0
 73
     1
 44
1.0
  0
POINT
  5
3F9
330
3F1
100
AcDbEntity
  8
Defpoints
 62
     0
100
AcDbPoint
 10
53.049115951988
 20
-2.15
 30
0.0
  0
POINT
  5
3FA
330
3F1
100
AcDbEntity
  8
Defpoints
 62
     0
100
AcDbPoint
 10
53.049115951988
 20
2.15
 30
0.0
  0
POINT
  5
106ABE6
330
3F1
100
AcDbEntity
  8
Defpoints
 62
     0
100
AcDbPoint
 10
62.129500709717
 20
2.15
 30
0.0
  0
ENDBLK
  5
3FB
330
3F1
100
AcDbEntity
  8
2
100
AcDbBlockEnd
  0
BLOCK
  5
3FD
330
3FF
100
AcDbEntity
  8
2
100
AcDbBlockBegin
  2
*D6
 70
     1
 10
0.0
 20
0.0
 30
0.0
  3
*D6
  1

  0
LINE
  5
400
330
3FF
100
AcDbEntity
  8
2
 62
     0
370
    -2
100
AcDbLine
 10
85.722821779607
 20
0.5
 30
0.0
 11
85.722821779607
 21
36.0
 31
0.0
  0
LINE
  5
401
330
3FF
100
AcDbEntity
  8
2
 62
     0
370
    -2
100
AcDbLine
 10
31.422821779607
 20
3.294
 30
0.0
 11
31.422821779607
 21
36.0
 31
0.0
  0
LINE
  5
402
330
3FF
100
AcDbEntity
  8
2
 62
     0
370
    -2
100
AcDbLine
 10
82.722821779607
 20
35.0
 30
0.0
 11
34.422821779607
 21
35.0
 31
0.0
  0
SOLID
  5
403
330
3FF
100
AcDbEntity
  8
2
 62
     0
100
AcDbTrace
 10
82.722821779607
 20
34.5
 30
0.0
 11
82.722821779607
 21
35.5
 31
0.0
 12
85.722821779607
 22
35.0
 32
0.0
 13
85.722821779607
 23
35.0
 33
0.0
  0
SOLID
  5
404
330
3FF
100
AcDbEntity
  8
2
 62
     0
100
AcDbTrace
 10
34.422821779607
 20
35.5
 30
0.0
 11
34.422821779607
 21
34.5
 31
0.0
 12
31.422821779607
 22
35.0
 32
0.0
 13
31.422821779607
 23
35.0
 33
0.0
  0
MTEXT
  5
405
330
3FF
100
AcDbEntity
  8
2
  6
ByBlock
 62
     0
100
AcDbMText
 10
58.572821779607
 20
37.61125
 30
0.0
 40
3.5
 41
0.0
 71
     5
 72
     1
  1
\A1;54.3
 73
     1
 44
1.0
  0
POINT
  5
406
330
3FF
100
AcDbEntity
  8
Defpoints
 62
     0
100
AcDbPoint
 10
85.722821779607
 20
0.0
 30
0.0
  0
POINT
  5
407
330
3FF
100
AcDbEntity
  8
Defpoints
 62
     0
100
AcDbPoint
 10
31.422821779607
 20
2.794
 30
0.0
  0
POINT
  5
408
330
3FF
100
AcDbEntity
  8
Defpoints
 62
     0
100
AcDbPoint
 10
31.422821779607
 20
35.0
 30
0.0
  0
ENDBLK
  5
409
330
3FF
100
AcDbEntity
  8
2
100
AcDbBlockEnd
  0
BLOCK
  5
106ABF8
330
106ABF7
100
AcDbEntity
  8
2
100
AcDbBlockBegin
  2
*D7
 70
     1
 10
0.0
 20
0.0
 30
0.0
  3
*D7
  1

  0
LINE
  5
106ABF9
330
106ABF7
100
AcDbEntity
  8
2
 62
     0
370
    -2
100
AcDbLine
 10
11.0
 20
12.844
 30
0.0
 11
11.0
 21
0.0
 31
0.0
  0
LINE
  5
106ABFA
330
106ABF7
100
AcDbEntity
  8
2
 62
     0
370
    -2
100
AcDbLine
 10
0.2000000000000028
 20
12.544
 30
0.0
 11
0.2000000000000028
 21
0.0
 31
0.0
  0
LINE
  5
106ABFB
330
106ABF7
100
AcDbEntity
  8
2
 62
     0
370
    -2
100
AcDbLine
 10
8.0
 20
1.0
 30
0.0
 11
3.200000000000003
 21
1.0
 31
0.0
  0
SOLID
  5
106ABFC
330
106ABF7
100
AcDbEntity
  8
2
 62
     0
100
AcDbTrace
 10
8.0
 20
0.5
 30
0.0
 11
8.0
 21
1.5
 31
0.0
 12
11.0
 22
1.0
 32
0.0
 13
11.0
 23
1.0
 33
0.0
  0
SOLID
  5
106ABFD
330
106ABF7
100
AcDbEntity
  8
2
 62
     0
100
AcDbTrace
 10
3.200000000000003
 20
1.5
 30
0.0
 11
3.200000000000003
 21
0.5
 31
0.0
 12
0.2000000000000028
 22
1.0
 32
0.0
 13
0.2000000000000028
 23
1.0
 33
0.0
  0
MTEXT
  5
106ABFE
330
106ABF7
100
AcDbEntity
  8
2
  6
ByBlock
 62
     0
100
AcDbMText
 10
5.599999999999994
 20
3.61125
 30
0.0
 40
3.5
 41
0.0
 71
     5
 72
     1
  1
\A1;10.8
 73
     1
 44
1.0
  0
POINT
  5
106ABFF
330
106ABF7
100
AcDbEntity
  8
Defpoints
 62
     0
100
AcDbPoint
 10
11.0
 20
13.344
 30
0.0
  0
POINT
  5
106AC00
330
106ABF7
100
AcDbEntity
  8
Defpoints
 62
     0
100
AcDbPoint
 10
0.2000000000000028
 20
13.044
 30
0.0
  0
POINT
  5
106AC01
330
106ABF7
100
AcDbEntity
  8
Defpoints
 62
     0
100
AcDbPoint
 10
0.2000000000000028
 20
1.0
 30
0.0
  0
ENDBLK
  5
106AC02
330
106ABF7
100
AcDbEntity
  8
2
100
AcDbBlockEnd
  0
BLOCK
  5
106AC08
330
106AC07
100
AcDbEntity
  8
0
100
AcDbBlockBegin
  2
*D8
 70
     1
 10
0.0
 20
0.0
 30
0.0
  3
*D8
  1

  0
LINE
  5
106AC0A
330
106AC07
100
AcDbEntity
  8
2
 62
     0
370
    -2
100
AcDbLine
 10
83.049115951988
 20
-2.95
 30
0.0
 11
83.049115951988
 21
-17.0
 31
0.0
  0
LINE
  5
106AC0B
330
106AC07
100
AcDbEntity
  8
2
 62
     0
370
    -2
100
AcDbLine
 10
81.049115951988
 20
-3.25
 30
0.0
 11
81.049115951988
 21
-17.0
 31
0.0
  0
LINE
  5
106AC0C
330
106AC07
100
AcDbEntity
  8
2
 62
     0
370
    -2
100
AcDbLine
 10
83.049115951988
 20
-16.0
 30
0.0
 11
95.0005
 21
-16.0
 31
0.0
  0
LINE
  5
106AC0D
330
106AC07
100
AcDbEntity
  8
2
 62
     0
370
    -2
100
AcDbLine
 10
83.049115951988
 20
-16.0
 30
0.0
 11
81.049115951988
 21
-16.0
 31
0.0
  0
LINE
  5
106AC0E
330
106AC07
100
AcDbEntity
  8
2
 62
     0
370
    -2
100
AcDbLine
 10
86.049115951988
 20
-16.0
 30
0.0
 11
89.049115951988
 21
-16.0
 31
0.0
  0
LINE
  5
106AC0F
330
106AC07
100
AcDbEntity
  8
2
 62
     0
370
    -2
100
AcDbLine
 10
78.049115951988
 20
-16.0
 30
0.0
 11
75.049115951988
 21
-16.0
 31
0.0
  0
SOLID
  5
106AC10
330
106AC07
100
AcDbEntity
  8
2
 62
     0
100
AcDbTrace
 10
86.049115951988
 20
-15.5
 30
0.0
 11
86.049115951988
 21
-16.5
 31
0.0
 12
83.049115951988
 22
-16.0
 32
0.0
 13
83.049115951988
 23
-16.0
 33
0.0
  0
SOLID
  5
106AC11
330
106AC07
100
AcDbEntity
  8
2
 62
     0
100
AcDbTrace
 10
78.049115951988
 20
-16.5
 30
0.0
 11
78.049115951988
 21
-15.5
 31
0.0
 12
81.049115951988
 22
-16.0
 32
0.0
 13
81.049115951988
 23
-16.0
 33
0.0
  0
MTEXT
  5
106AC12
330
106AC07
100
AcDbEntity
  8
2
  6
ByBlock
 62
     0
100
AcDbMText
 10
93.0
 20
-13.4395
 30
0.0
 40
3.5
 41
0.0
 71
     5
 72
     1
  1
\A1;2
 73
     1
 44
1.0
  0
POINT
  5
106AC18
330
106AC07
100
AcDbEntity
  8
Defpoints
 62
     0
100
AcDbPoint
 10
83.049115951988
 20
-2.45
 30
0.0
  0
POINT
  5
106AC19
330
106AC07
100
AcDbEntity
  8
Defpoints
 62
     0
100
AcDbPoint
 10
81.049115951988
 20
-2.75
 30
0.0
  0
POINT
  5
106AC1A
330
106AC07
100
AcDbEntity
  8
Defpoints
 62
     0
100
AcDbPoint
 10
81.049115951988
 20
-16.0
 30
0.0
  0
ENDBLK
  5
106AC09
330
106AC07
100
AcDbEntity
  8
0
100
AcDbBlockEnd
  0
BLOCK
  5
106AC28
330
106AC27
100
AcDbEntity
  8
2
100
AcDbBlockBegin
  2
*D9
 70
     1
 10
0.0
 20
0.0
 30
0.0
  3
*D9
  1

  0
LINE
  5
106AC29
330
106AC27
100
AcDbEntity
  8
2
 62
     0
370
    -2
100
AcDbLine
 10
3.081749999999992
 20
5.999999999999998
 30
0.0
 11
5.581749999999992
 21
5.999999999999996
 31
0.0
  0
LINE
  5
106AC2A
330
106AC27
100
AcDbEntity
  8
2
 62
     0
370
    -2
100
AcDbLine
 10
3.081749999999992
 20
10.3
 30
0.0
 11
5.581749999999992
 21
10.3
 31
0.0
  0
LINE
  5
106AC2B
330
106AC27
100
AcDbEntity
  8
2
 62
     0
370
    -2
100
AcDbLine
 10
4.581749999999992
 20
10.3
 30
0.0
 11
4.581749999999992
 21
31.081
 31
0.0
  0
LINE
  5
106AC2C
330
106AC27
100
AcDbEntity
  8
2
 62
     0
370
    -2
100
AcDbLine
 10
4.581749999999992
 20
5.999999999999996
 30
0.0
 11
4.581749999999992
 21
10.3
 31
0.0
  0
LINE
  5
106AC2D
330
106AC27
100
AcDbEntity
  8
2
 62
     0
370
    -2
100
AcDbLine
 10
4.581749999999992
 20
2.999999999999996
 30
0.0
 11
4.581749999999992
 21
-0.0000000000000036
 31
0.0
  0
LINE
  5
106AC2E
330
106AC27
100
AcDbEntity
  8
2
 62
     0
370
    -2
100
AcDbLine
 10
4.581749999999992
 20
13.3
 30
0.0
 11
4.581749999999992
 21
16.3
 31
0.0
  0
SOLID
  5
106AC2F
330
106AC27
100
AcDbEntity
  8
2
 62
     0
100
AcDbTrace
 10
5.081749999999992
 20
2.999999999999996
 30
0.0
 11
4.081749999999992
 21
2.999999999999996
 31
0.0
 12
4.581749999999992
 22
5.999999999999996
 32
0.0
 13
4.581749999999992
 23
5.999999999999996
 33
0.0
  0
SOLID
  5
106AC30
330
106AC27
100
AcDbEntity
  8
2
 62
     0
100
AcDbTrace
 10
4.081749999999992
 20
13.3
 30
0.0
 11
5.081749999999992
 21
13.3
 31
0.0
 12
4.581749999999992
 22
10.3
 32
0.0
 13
4.581749999999992
 23
10.3
 33
0.0
  0
MTEXT
  5
106AC31
330
106AC27
100
AcDbEntity
  8
2
  6
ByBlock
 62
     0
100
AcDbMText
 10
1.919749999999994
 20
24.457
 30
0.0
 40
3.5
 41
0.0
 71
     5
 72
     1
  1
\A1;%%c4.3
 11
0.0
 21
1.0
 31
0.0
 73
     1
 44
1.0
  0
POINT
  5
106AC32
330
106AC27
100
AcDbEntity
  8
Defpoints
 62
     0
100
AcDbPoint
 10
2.581749999999992
 20
5.999999999999998
 30
0.0
  0
POINT
  5
106AC33
330
106AC27
100
AcDbEntity
  8
Defpoints
 62
     0
100
AcDbPoint
 10
2.581749999999992
 20
10.3
 30
0.0
  0
POINT
  5
106AC34
330
106AC27
100
AcDbEntity
  8
Defpoints
 62
     0
100
AcDbPoint
 10
4.581749999999992
 20
10.3
 30
0.0
  0
ENDBLK
  5
106AC35
330
106AC27
100
AcDbEntity
  8
2
100
AcDbBlockEnd
  0
BLOCK
  5
106AC3B
330
106AC3A
100
AcDbEntity
  8
0
100
AcDbBlockBegin
  2
*D10
 70
     1
 10
0.0
 20
0.0
 30
0.0
  3
*D10
  1

  0
LINE
  5
106AC3D
330
106AC3A
100
AcDbEntity
  8
2
 62
     0
370
    -2
100
AcDbLine
 10
83.549115951988
 20
-2.45
 30
0.0
 11
111.0
 21
-2.449999999999999
 31
0.0
  0
LINE
  5
106AC3E
330
106AC3A
100
AcDbEntity
  8
2
 62
     0
370
    -2
100
AcDbLine
 10
83.549115951988
 20
2.45
 30
0.0
 11
111.0
 21
2.450000000000001
 31
0.0
  0
LINE
  5
106AC3F
330
106AC3A
100
AcDbEntity
  8
2
 62
     0
370
    -2
100
AcDbLine
 10
110.0
 20
2.450000000000001
 30
0.0
 11
110.0
 21
21.73999999999999
 31
0.0
  0
LINE
  5
106AC40
330
106AC3A
100
AcDbEntity
  8
2
 62
     0
370
    -2
100
AcDbLine
 10
110.0
 20
-2.449999999999999
 30
0.0
 11
110.0
 21
2.450000000000001
 31
0.0
  0
LINE
  5
106AC41
330
106AC3A
100
AcDbEntity
  8
2
 62
     0
370
    -2
100
AcDbLine
 10
110.0
 20
-5.449999999999999
 30
0.0
 11
110.0
 21
-8.45
 31
0.0
  0
LINE
  5
106AC42
330
106AC3A
100
AcDbEntity
  8
2
 62
     0
370
    -2
100
AcDbLine
 10
110.0
 20
5.450000000000001
 30
0.0
 11
110.0
 21
8.450000000000001
 31
0.0
  0
SOLID
  5
106AC43
330
106AC3A
100
AcDbEntity
  8
2
 62
     0
100
AcDbTrace
 10
110.5
 20
-5.449999999999999
 30
0.0
 11
109.5
 21
-5.449999999999999
 31
0.0
 12
110.0
 22
-2.449999999999999
 32
0.0
 13
110.0
 23
-2.449999999999999
 33
0.0
  0
SOLID
  5
106AC44
330
106AC3A
100
AcDbEntity
  8
2
 62
     0
100
AcDbTrace
 10
109.5
 20
5.450000000000001
 30
0.0
 11
110.5
 21
5.450000000000001
 31
0.0
 12
110.0
 22
2.450000000000001
 32
0.0
 13
110.0
 23
2.450000000000001
 33
0.0
  0
MTEXT
  5
106AC45
330
106AC3A
100
AcDbEntity
  8
2
  6
ByBlock
 62
     0
100
AcDbMText
 10
107.338
 20
15.095
 30
0.0
 40
3.5
 41
0.0
 71
     5
 72
     1
  1
\A1;%%c4.9
 11
0.0
 21
1.0
 31
0.0
 73
     1
 44
1.0
  0
POINT
  5
106AC46
330
106AC3A
100
AcDbEntity
  8
Defpoints
 62
     0
100
AcDbPoint
 10
83.049115951988
 20
-2.45
 30
0.0
  0
POINT
  5
106AC47
330
106AC3A
100
AcDbEntity
  8
Defpoints
 62
     0
100
AcDbPoint
 10
83.049115951988
 20
2.45
 30
0.0
  0
POINT
  5
106AC48
330
106AC3A
100
AcDbEntity
  8
Defpoints
 62
     0
100
AcDbPoint
 10
110.0
 20
2.450000000000002
 30
0.0
  0
ENDBLK
  5
106AC3C
330
106AC3A
100
AcDbEntity
  8
0
100
AcDbBlockEnd
  0
BLOCK
  5
106AC56
330
106AC55
100
AcDbEntity
  8
0
100
AcDbBlockBegin
  2
*D11
 70
     1
 10
0.0
 20
0.0
 30
0.0
  3
*D11
  1

  0
LINE
  5
106AC57
330
106AC55
100
AcDbEntity
  8
2
 62
     0
370
    -2
100
AcDbLine
 10
0.5
 20
5.999999999999999
 30
0.0
 11
27.950884048012
 21
6.0
 31
0.0
  0
LINE
  5
106AC58
330
106AC55
100
AcDbEntity
  8
2
 62
     0
370
    -2
100
AcDbLine
 10
0.5
 20
10.9
 30
0.0
 11
27.950884048012
 21
10.9
 31
0.0
  0
LINE
  5
106AC59
330
106AC55
100
AcDbEntity
  8
2
 62
     0
370
    -2
100
AcDbLine
 10
26.950884048012
 20
10.9
 30
0.0
 11
26.950884048012
 21
30.19
 31
0.0
  0
LINE
  5
106AC5A
330
106AC55
100
AcDbEntity
  8
2
 62
     0
370
    -2
100
AcDbLine
 10
26.950884048012
 20
6.0
 30
0.0
 11
26.950884048012
 21
10.9
 31
0.0
  0
LINE
  5
106AC5B
330
106AC55
100
AcDbEntity
  8
2
 62
     0
370
    -2
100
AcDbLine
 10
26.950884048012
 20
3.0
 30
0.0
 11
26.950884048012
 21
0.0
 31
0.0
  0
LINE
  5
106AC5C
330
106AC55
100
AcDbEntity
  8
2
 62
     0
370
    -2
100
AcDbLine
 10
26.950884048012
 20
13.9
 30
0.0
 11
26.950884048012
 21
16.9
 31
0.0
  0
SOLID
  5
106AC5D
330
106AC55
100
AcDbEntity
  8
2
 62
     0
100
AcDbTrace
 10
27.450884048012
 20
3.0
 30
0.0
 11
26.450884048012
 21
3.0
 31
0.0
 12
26.950884048012
 22
6.0
 32
0.0
 13
26.950884048012
 23
6.0
 33
0.0
  0
SOLID
  5
106AC5E
330
106AC55
100
AcDbEntity
  8
2
 62
     0
100
AcDbTrace
 10
26.450884048012
 20
13.9
 30
0.0
 11
27.450884048012
 21
13.9
 31
0.0
 12
26.950884048012
 22
10.9
 32
0.0
 13
26.950884048012
 23
10.9
 33
0.0
  0
MTEXT
  5
106AC5F
330
106AC55
100
AcDbEntity
  8
2
  6
ByBlock
 62
     0
100
AcDbMText
 10
24.288884048012
 20
23.545
 30
0.0
 40
3.5
 41
0.0
 71
     5
 72
     1
  1
\A1;%%c4.9
 11
0.0
 21
1.0
 31
0.0
 73
     1
 44
1.0
  0
POINT
  5
106AC60
330
106AC55
100
AcDbEntity
  8
Defpoints
 62
     0
100
AcDbPoint
 10
0.0
 20
5.999999999999999
 30
0.0
  0
POINT
  5
106AC61
330
106AC55
100
AcDbEntity
  8
Defpoints
 62
     0
100
AcDbPoint
 10
0.0
 20
10.9
 30
0.0
  0
POINT
  5
106AC62
330
106AC55
100
AcDbEntity
  8
Defpoints
 62
     0
100
AcDbPoint
 10
26.950884048012
 20
10.9
 30
0.0
  0
ENDBLK
  5
106AC63
330
106AC55
100
AcDbEntity
  8
0
100
AcDbBlockEnd
  0
BLOCK
  5
106AC69
330
106AC68
100
AcDbEntity
  8
0
100
AcDbBlockBegin
  2
*D12
 70
     1
 10
0.0
 20
0.0
 30
0.0
  3
*D12
  1

  0
LINE
  5
106AC6B
330
106AC68
100
AcDbEntity
  8
2
 62
     0
370
    -2
100
AcDbLine
 10
81.549115951988
 20
-2.75
 30
0.0
 11
119.0
 21
-2.749999999999996
 31
0.0
  0
LINE
  5
106AC6C
330
106AC68
100
AcDbEntity
  8
2
 62
     0
370
    -2
100
AcDbLine
 10
81.549115951988
 20
2.75
 30
0.0
 11
119.0
 21
2.750000000000004
 31
0.0
  0
LINE
  5
106AC6D
330
106AC68
100
AcDbEntity
  8
2
 62
     0
370
    -2
100
AcDbLine
 10
118.0
 20
2.750000000000004
 30
0.0
 11
118.0
 21
34.017
 31
0.0
  0
LINE
  5
106AC6E
330
106AC68
100
AcDbEntity
  8
2
 62
     0
370
    -2
100
AcDbLine
 10
118.0
 20
-2.749999999999996
 30
0.0
 11
118.0
 21
2.750000000000004
 31
0.0
  0
LINE
  5
106AC6F
330
106AC68
100
AcDbEntity
  8
2
 62
     0
370
    -2
100
AcDbLine
 10
118.0
 20
-5.749999999999996
 30
0.0
 11
118.0
 21
-8.749999999999996
 31
0.0
  0
LINE
  5
106AC70
330
106AC68
100
AcDbEntity
  8
2
 62
     0
370
    -2
100
AcDbLine
 10
118.0
 20
5.750000000000004
 30
0.0
 11
118.0
 21
8.750000000000004
 31
0.0
  0
SOLID
  5
106AC71
330
106AC68
100
AcDbEntity
  8
2
 62
     0
100
AcDbTrace
 10
118.5
 20
-5.749999999999996
 30
0.0
 11
117.5
 21
-5.749999999999996
 31
0.0
 12
118.0
 22
-2.749999999999996
 32
0.0
 13
118.0
 23
-2.749999999999996
 33
0.0
  0
SOLID
  5
106AC72
330
106AC68
100
AcDbEntity
  8
2
 62
     0
100
AcDbTrace
 10
117.5
 20
5.750000000000004
 30
0.0
 11
118.5
 21
5.750000000000004
 31
0.0
 12
118.0
 22
2.750000000000004
 32
0.0
 13
118.0
 23
2.750000000000004
 33
0.0
  0
MTEXT
  5
106AC73
330
106AC68
100
AcDbEntity
  8
2
  6
ByBlock
 62
     0
100
AcDbMText
 10
115.38875
 20
21.3835
 30
0.0
 40
3.5
 41
0.0
 71
     5
 72
     1
  1
\A1;M5.5X0.5
 11
0.0
 21
1.0
 31
0.0
 73
     1
 44
1.0
  0
POINT
  5
106AC74
330
106AC68
100
AcDbEntity
  8
Defpoints
 62
     0
100
AcDbPoint
 10
81.049115951988
 20
-2.75
 30
0.0
  0
POINT
  5
106AC75
330
106AC68
100
AcDbEntity
  8
Defpoints
 62
     0
100
AcDbPoint
 10
81.049115951988
 20
2.75
 30
0.0
  0
POINT
  5
106AC76
330
106AC68
100
AcDbEntity
  8
Defpoints
 62
     0
100
AcDbPoint
 10
118.0
 20
2.750000000000002
 30
0.0
  0
ENDBLK
  5
106AC6A
330
106AC68
100
AcDbEntity
  8
0
100
AcDbBlockEnd
  0
BLOCK
  5
106AC84
330
106AC83
100
AcDbEntity
  8
2
100
AcDbBlockBegin
  2
*D13
 70
     1
 10
0.0
 20
0.0
 30
0.0
  3
*D13
  1

  0
LINE
  5
106AC85
330
106AC83
100
AcDbEntity
  8
2
 62
     0
370
    -2
100
AcDbLine
 10
54.30000000000001
 20
0.5
 30
0.0
 11
54.30000000000001
 21
36.0
 31
0.0
  0
LINE
  5
106AC86
330
106AC83
100
AcDbEntity
  8
2
 62
     0
370
    -2
100
AcDbLine
 10
0.0000000000000036
 20
3.294
 30
0.0
 11
0.0000000000000036
 21
36.0
 31
0.0
  0
LINE
  5
106AC87
330
106AC83
100
AcDbEntity
  8
2
 62
     0
370
    -2
100
AcDbLine
 10
51.30000000000001
 20
35.0
 30
0.0
 11
3.000000000000003
 21
35.0
 31
0.0
  0
SOLID
  5
106AC88
330
106AC83
100
AcDbEntity
  8
2
 62
     0
100
AcDbTrace
 10
51.30000000000001
 20
34.5
 30
0.0
 11
51.30000000000001
 21
35.5
 31
0.0
 12
54.30000000000001
 22
35.0
 32
0.0
 13
54.30000000000001
 23
35.0
 33
0.0
  0
SOLID
  5
106AC89
330
106AC83
100
AcDbEntity
  8
2
 62
     0
100
AcDbTrace
 10
3.000000000000003
 20
35.5
 30
0.0
 11
3.000000000000003
 21
34.5
 31
0.0
 12
0.0000000000000036
 22
35.0
 32
0.0
 13
0.0000000000000036
 23
35.0
 33
0.0
  0
MTEXT
  5
106AC8A
330
106AC83
100
AcDbEntity
  8
2
  6
ByBlock
 62
     0
100
AcDbMText
 10
27.15
 20
37.61125
 30
0.0
 40
3.5
 41
0.0
 71
     5
 72
     1
  1
\A1;54.3
 73
     1
 44
1.0
  0
POINT
  5
106AC8B
330
106AC83
100
AcDbEntity
  8
Defpoints
 62
     0
100
AcDbPoint
 10
54.30000000000001
 20
0.0
 30
0.0
  0
POINT
  5
106AC8C
330
106AC83
100
AcDbEntity
  8
Defpoints
 62
     0
100
AcDbPoint
 10
0.0000000000000036
 20
2.794
 30
0.0
  0
POINT
  5
106AC8D
330
106AC83
100
AcDbEntity
  8
Defpoints
 62
     0
100
AcDbPoint
 10
0.0000000000000036
 20
35.0
 30
0.0
  0
ENDBLK
  5
106AC8E
330
106AC83
100
AcDbEntity
  8
2
100
AcDbBlockEnd
  0
BLOCK
  5
106AC94
330
106AC93
100
AcDbEntity
  8
0
100
AcDbBlockBegin
  2
*D14
 70
     1
 10
0.0
 20
0.0
 30
0.0
  3
*D14
  1

  0
LINE
  5
106AC96
330
106AC93
100
AcDbEntity
  8
SK2
 62
     0
370
    -2
100
AcDbLine
 10
31.422821779607
 20
3.294
 30
0.0
 11
31.422821779607
 21
36.0
 31
0.0
  0
LINE
  5
106AC97
330
106AC93
100
AcDbEntity
  8
SK2
 62
     0
370
    -2
100
AcDbLine
 10
3.049115951988
 20
3.294
 30
0.0
 11
3.049115951988
 21
36.0
 31
0.0
  0
LINE
  5
106AC98
330
106AC93
100
AcDbEntity
  8
SK2
 62
     0
370
    -2
100
AcDbLine
 10
28.422821779607
 20
35.0
 30
0.0
 11
6.049115951988
 21
35.0
 31
0.0
  0
SOLID
  5
106AC99
330
106AC93
100
AcDbEntity
  8
SK2
 62
     0
100
AcDbTrace
 10
28.422821779607
 20
34.5
 30
0.0
 11
28.422821779607
 21
35.5
 31
0.0
 12
31.422821779607
 22
35.0
 32
0.0
 13
31.422821779607
 23
35.0
 33
0.0
  0
SOLID
  5
106AC9A
330
106AC93
100
AcDbEntity
  8
SK2
 62
     0
100
AcDbTrace
 10
6.049115951988
 20
35.5
 30
0.0
 11
6.049115951988
 21
34.5
 31
0.0
 12
3.049115951988
 22
35.0
 32
0.0
 13
3.049115951988
 23
35.0
 33
0.0
  0
MTEXT
  5
106AC9B
330
106AC93
100
AcDbEntity
  8
SK2
  6
ByBlock
 62
     0
100
AcDbMText
 10
17.2359688657975
 20
37.61125
 30
0.0
 40
3.5
 41
0.0
 71
     5
 72
     1
  1
\A1;28.4
 73
     1
 44
1.0
  0
POINT
  5
106AC9C
330
106AC93
100
AcDbEntity
  8
Defpoints
 62
     0
100
AcDbPoint
 10
31.422821779607
 20
2.794
 30
0.0
  0
POINT
  5
106AC9D
330
106AC93
100
AcDbEntity
  8
Defpoints
 62
     0
100
AcDbPoint
 10
3.049115951988
 20
2.794
 30
0.0
  0
POINT
  5
106AC9E
330
106AC93
100
AcDbEntity
  8
Defpoints
 62
     0
100
AcDbPoint
 10
3.049115951988
 20
35.0
 30
0.0
  0
ENDBLK
  5
106AC95
330
106AC93
100
AcDbEntity
  8
0
100
AcDbBlockEnd
  0
ENDSEC
  0
SECTION
  2
ENTITIES
  0
DIMENSION
  5
3B6
330
30
100
AcDbEntity
  8
SK2
100
AcDbDimension
  2
*D0
 10
3.049115951988
 20
-40.0
 30
0.0
 11
43.049115951988
 21
-40.0
 31
0.0
 70
   160
  1
<>
 71
     5
 42
80.0
  3
STANDARD
100
AcDbAlignedDimension
 13
83.049115951988
 23
-2.45
 33
0.0
 14
3.049115951988
 24
-2.794
 34
0.0
100
AcDbRotatedDimension
1001
ACAD
1000
DSTYLE
1002
{
1070
   271
1070
     0
1070
   279
1070
     0
1070
    74
1070
     0
1002
}
  0
DIMENSION
  5
3C4
330
30
100
AcDbEntity
  8
SK2
100
AcDbDimension
  2
*D1
 10
20.0992
 20
2.794
 30
0.0
 11
20.0992
 21
18.46475
 31
0.0
 70
   160
  1
%%c<>
 71
     5
 42
5.588
  3
STANDARD
100
AcDbAlignedDimension
 13
3.049115951988
 23
-2.794
 33
0.0
 14
3.049115951988
 24
2.794
 34
0.0
 50
-90.0
100
AcDbRotatedDimension
1001
ACAD
1000
DSTYLE
1002
{
1070
    76
1070
     1
1070
    75
1070
     1
1070
   271
1070
     3
1070
   279
1070
     0
1070
    74
1070
     0
1002
}
  0
DIMENSION
  5
3D2
330
30
100
AcDbEntity
  8
SK2
100
AcDbDimension
  2
*D2
 10
3.049115951988001
 20
-16.0
 30
0.0
 11
-7.557134048011998
 21
-16.0
 31
0.0
 70
   160
  1
<>
 71
     5
 42
7.1
  3
STANDARD
100
AcDbAlignedDimension
 13
10.149115951988
 23
-2.794
 33
0.0
 14
3.049115951988
 24
-2.794
 34
0.0
100
AcDbRotatedDimension
1001
ACAD
1000
DSTYLE
1002
{
1070
   271
1070
     1
1070
   279
1070
     0
1070
    74
1070
     0
1002
}
  0
DIMENSION
  5
3E0
330
30
100
AcDbEntity
  8
2
100
AcDbDimension
  2
*D3
 10
72.249115951988
 20
-24.0
 30
0.0
 11
93.0
 21
-24.0
 31
0.0
 70
   160
  1
<>
 71
     5
 42
10.8
  3
STANDARD
100
AcDbAlignedDimension
 13
83.049115951988
 23
-2.45
 33
0.0
 14
72.249115951988
 24
-2.75
 34
0.0
100
AcDbRotatedDimension
1001
ACAD
1000
DSTYLE
1002
{
1070
   271
1070
     1
1070
   279
1070
     0
1070
    74
1070
     0
1002
}
1001
ACAD_DSTYLE_DIMFLIPARROW_SYMBOL
1070
   385
1070
     0
1001
ACAD_DSTYLE_DIMFLIPARROW_WHICH_SYMBOL
1070
   386
1070
     3
  0
DIMENSION
  5
3EE
330
30
100
AcDbEntity
  8
2
100
AcDbDimension
  2
*D4
 10
53.049115951988
 20
-32.0
 30
0.0
 11
68.049115951988
 21
-32.0
 31
0.0
 70
   160
  1
<>
 71
     5
 42
30.0
  3
STANDARD
100
AcDbAlignedDimension
 13
83.049115951988
 23
-2.45
 33
0.0
 14
53.049115951988
 24
-2.15
 34
0.0
100
AcDbRotatedDimension
1001
ACAD
1000
DSTYLE
1002
{
1070
   271
1070
     0
1070
   279
1070
     0
1070
    74
1070
     0
1002
}
  0
DIMENSION
  5
3FC
330
30
100
AcDbEntity
  8
2
100
AcDbDimension
  2
*D5
 10
62.129500709717
 20
2.15
 30
0.0
 11
62.129500709717
 21
14.774
 31
0.0
 70
   160
  1
%%c<>
 71
     5
 42
4.3
  3
STANDARD
100
AcDbAlignedDimension
 13
53.049115951988
 23
-2.15
 33
0.0
 14
53.049115951988
 24
2.15
 34
0.0
 50
-90.0
100
AcDbRotatedDimension
1001
ACAD
1000
DSTYLE
1002
{
1070
    76
1070
     1
1070
    75
1070
     1
1070
   271
1070
     1
1070
   279
1070
     0
1070
    74
1070
     0
1002
}
  0
DIMENSION
  5
40A
330
30
100
AcDbEntity
  8
2
100
AcDbDimension
  2
*D6
 10
31.422821779607
 20
35.0
 30
0.0
 11
58.572821779607
 21
35.0
 31
0.0
 70
   160
  1
<>
 71
     5
 42
54.3
  3
STANDARD
100
AcDbAlignedDimension
 13
85.722821779607
 23
0.0
 33
0.0
 14
31.422821779607
 24
2.794
 34
0.0
100
AcDbRotatedDimension
1001
ACAD
1000
DSTYLE
1002
{
1070
   271
1070
     1
1070
   279
1070
     0
1070
    74
1070
     0
1002
}
  0
LINE
  5
36
330
30
100
AcDbEntity
  8
1
100
AcDbLine
 10
85.722821779607
 20
0.0
 30
0.0
 11
83.049115951988
 21
2.45
 31
0.0
  0
LINE
  5
37
330
30
100
AcDbEntity
  8
1
100
AcDbLine
 10
83.049115951988
 20
2.45
 30
0.0
 11
81.049115951988
 21
2.75
 31
0.0
  0
LINE
  5
38
330
30
100
AcDbEntity
  8
1
100
AcDbLine
 10
81.049115951988
 20
2.75
 30
0.0
 11
72.249115951988
 21
2.75
 31
0.0
  0
LINE
  5
39
330
30
100
AcDbEntity
  8
1
100
AcDbLine
 10
72.249115951988
 20
2.75
 30
0.0
 11
71.209885467446
 21
2.15
 31
0.0
  0
LINE
  5
3A
330
30
100
AcDbEntity
  8
1
100
AcDbLine
 10
71.209885467446
 20
2.15
 30
0.0
 11
53.049115951988
 21
2.15
 31
0.0
  0
LINE
  5
3B
330
30
100
AcDbEntity
  8
1
100
AcDbLine
 10
53.049115951988
 20
2.15
 30
0.0
 11
48.049260936053
 21
2.794
 31
0.0
  0
LINE
  5
3C
330
30
100
AcDbEntity
  8
1
100
AcDbLine
 10
48.049260936053
 20
2.794
 30
0.0
 11
31.422821779607
 21
2.794
 31
0.0
  0
LINE
  5
3D
330
30
100
AcDbEntity
  8
1
100
AcDbLine
 10
31.422821779607
 20
2.794
 30
0.0
 11
31.422821779607
 21
-2.794
 31
0.0
  0
LINE
  5
3E
330
30
100
AcDbEntity
  8
1
100
AcDbLine
 10
31.422821779607
 20
-2.794
 30
0.0
 11
48.049260936053
 21
-2.794
 31
0.0
  0
LINE
  5
3F
330
30
100
AcDbEntity
  8
1
100
AcDbLine
 10
48.049260936053
 20
-2.794
 30
0.0
 11
53.049115951988
 21
-2.15
 31
0.0
  0
LINE
  5
40
330
30
100
AcDbEntity
  8
1
100
AcDbLine
 10
53.049115951988
 20
-2.15
 30
0.0
 11
71.209885467446
 21
-2.15
 31
0.0
  0
LINE
  5
41
330
30
100
AcDbEntity
  8
1
100
AcDbLine
 10
71.209885467446
 20
-2.15
 30
0.0
 11
72.249115951988
 21
-2.75
 31
0.0
  0
LINE
  5
42
330
30
100
AcDbEntity
  8
1
100
AcDbLine
 10
72.249115951988
 20
-2.75
 30
0.0
 11
81.049115951988
 21
-2.75
 31
0.0
  0
LINE
  5
43
330
30
100
AcDbEntity
  8
1
100
AcDbLine
 10
81.049115951988
 20
-2.75
 30
0.0
 11
83.049115951988
 21
-2.45
 31
0.0
  0
LINE
  5
44
330
30
100
AcDbEntity
  8
1
100
AcDbLine
 10
83.049115951988
 20
-2.45
 30
0.0
 11
85.722821779607
 21
0.0
 31
0.0
  0
LINE
  5
45
330
30
100
AcDbEntity
  8
1
100
AcDbLine
 10
85.106821779607
 20
0.06803866215
 30
0.0
 11
85.106821779607
 21
-0.077084928401
 31
0.0
  0
LINE
  5
46
330
30
100
AcDbEntity
  8
1
100
AcDbLine
 10
85.106821779607
 20
-0.077084928401
 30
0.0
 11
85.106821779607
 21
0.06803866215
 31
0.0
  0
LINE
  5
47
330
30
100
AcDbEntity
  8
1
100
AcDbLine
 10
85.106821779607
 20
0.06803866215
 30
0.0
 11
85.018821779607
 21
0.177031499337
 31
0.0
  0
LINE
  5
48
330
30
100
AcDbEntity
  8
1
100
AcDbLine
 10
85.018821779607
 20
0.177031499337
 30
0.0
 11
84.930821779607
 21
0.232357121805
 31
0.0
  0
LINE
  5
49
330
30
100
AcDbEntity
  8
1
100
AcDbLine
 10
84.930821779607
 20
0.232357121805
 30
0.0
 11
84.842821779607
 21
0.278937413572
 31
0.0
  0
LINE
  5
4A
330
30
100
AcDbEntity
  8
1
100
AcDbLine
 10
84.842821779607
 20
0.278937413572
 30
0.0
 11
84.754821779607
 21
0.325236001549
 31
0.0
  0
LINE
  5
4B
330
30
100
AcDbEntity
  8
1
100
AcDbLine
 10
84.754821779607
 20
0.325236001549
 30
0.0
 11
84.666821779607
 21
0.371326665993
 31
0.0
  0
LINE
  5
4C
330
30
100
AcDbEntity
  8
1
100
AcDbLine
 10
84.666821779607
 20
0.371326665993
 30
0.0
 11
84.578821779607
 21
0.417259296811
 31
0.0
  0
LINE
  5
4D
330
30
100
AcDbEntity
  8
1
100
AcDbLine
 10
84.578821779607
 20
0.417259296811
 30
0.0
 11
84.490821779607
 21
0.463068899941
 31
0.0
  0
LINE
  5
4E
330
30
100
AcDbEntity
  8
1
100
AcDbLine
 10
84.490821779607
 20
0.463068899941
 30
0.0
 11
84.402821779607
 21
0.508780793563
 31
0.0
  0
LINE
  5
4F
330
30
100
AcDbEntity
  8
1
100
AcDbLine
 10
84.402821779607
 20
0.508780793563
 30
0.0
 11
84.314821779607
 21
0.554413759187
 31
0.0
  0
LINE
  5
50
330
30
100
AcDbEntity
  8
1
100
AcDbLine
 10
84.314821779607
 20
0.554413759187
 30
0.0
 11
84.226821779607
 21
0.599982032678
 31
0.0
  0
LINE
  5
51
330
30
100
AcDbEntity
  8
1
100
AcDbLine
 10
84.226821779607
 20
0.599982032678
 30
0.0
 11
84.138821779607
 21
0.64549660651
 31
0.0
  0
LINE
  5
52
330
30
100
AcDbEntity
  8
1
100
AcDbLine
 10
84.138821779607
 20
0.64549660651
 30
0.0
 11
84.050821779607
 21
0.690966107015
 31
0.0
  0
LINE
  5
53
330
30
100
AcDbEntity
  8
1
100
AcDbLine
 10
84.050821779607
 20
0.690966107015
 30
0.0
 11
83.962821779607
 21
0.73639740061
 31
0.0
  0
LINE
  5
54
330
30
100
AcDbEntity
  8
1
100
AcDbLine
 10
83.962821779607
 20
0.73639740061
 30
0.0
 11
83.874821779607
 21
0.781796022174
 31
0.0
  0
LINE
  5
55
330
30
100
AcDbEntity
  8
1
100
AcDbLine
 10
83.874821779607
 20
0.781796022174
 30
0.0
 11
83.786821779607
 21
0.827166483775
 31
0.0
  0
LINE
  5
56
330
30
100
AcDbEntity
  8
1
100
AcDbLine
 10
83.786821779607
 20
0.827166483775
 30
0.0
 11
83.698821779607
 21
0.872512501092
 31
0.0
  0
LINE
  5
57
330
30
100
AcDbEntity
  8
1
100
AcDbLine
 10
83.698821779607
 20
0.872512501092
 30
0.0
 11
83.610821779607
 21
0.917837162104
 31
0.0
  0
LINE
  5
58
330
30
100
AcDbEntity
  8
1
100
AcDbLine
 10
83.610821779607
 20
0.917837162104
 30
0.0
 11
83.522821779607
 21
0.963143054554
 31
0.0
  0
LINE
  5
59
330
30
100
AcDbEntity
  8
1
100
AcDbLine
 10
83.522821779607
 20
0.963143054554
 30
0.0
 11
83.434821779607
 21
1.008432363497
 31
0.0
  0
LINE
  5
5A
330
30
100
AcDbEntity
  8
1
100
AcDbLine
 10
83.434821779607
 20
1.008432363497
 30
0.0
 11
83.346821779607
 21
1.053706946848
 31
0.0
  0
LINE
  5
5B
330
30
100
AcDbEntity
  8
1
100
AcDbLine
 10
83.346821779607
 20
1.053706946848
 30
0.0
 11
83.258821779607
 21
1.098968394496
 31
0.0
  0
LINE
  5
5C
330
30
100
AcDbEntity
  8
1
100
AcDbLine
 10
83.258821779607
 20
1.098968394496
 30
0.0
 11
83.170821779607
 21
1.144218075036
 31
0.0
  0
LINE
  5
5D
330
30
100
AcDbEntity
  8
1
100
AcDbLine
 10
83.170821779607
 20
1.144218075036
 30
0.0
 11
83.082821779607
 21
1.18945717303
 31
0.0
  0
LINE
  5
5E
330
30
100
AcDbEntity
  8
1
100
AcDbLine
 10
83.082821779607
 20
1.18945717303
 30
0.0
 11
82.994821779607
 21
1.211350220426
 31
0.0
  0
LINE
  5
5F
330
30
100
AcDbEntity
  8
1
100
AcDbLine
 10
82.994821779607
 20
1.211350220426
 30
0.0
 11
82.906821779607
 21
1.218754025111
 31
0.0
  0
LINE
  5
60
330
30
100
AcDbEntity
  8
1
100
AcDbLine
 10
82.906821779607
 20
1.218754025111
 30
0.0
 11
82.818821779607
 21
1.226157590081
 31
0.0
  0
LINE
  5
61
330
30
100
AcDbEntity
  8
1
100
AcDbLine
 10
82.818821779607
 20
1.226157590081
 30
0.0
 11
82.730821779607
 21
1.233560919161
 31
0.0
  0
LINE
  5
62
330
30
100
AcDbEntity
  8
1
100
AcDbLine
 10
82.730821779607
 20
1.233560919161
 30
0.0
 11
82.642821779607
 21
1.240964016092
 31
0.0
  0
LINE
  5
63
330
30
100
AcDbEntity
  8
1
100
AcDbLine
 10
82.642821779607
 20
1.240964016092
 30
0.0
 11
82.554821779607
 21
1.248366884537
 31
0.0
  0
LINE
  5
64
330
30
100
AcDbEntity
  8
1
100
AcDbLine
 10
82.554821779607
 20
1.248366884537
 30
0.0
 11
82.466821779607
 21
1.255769528084
 31
0.0
  0
LINE
  5
65
330
30
100
AcDbEntity
  8
1
100
AcDbLine
 10
82.466821779607
 20
1.255769528084
 30
0.0
 11
82.378821779607
 21
1.263171950244
 31
0.0
  0
LINE
  5
66
330
30
100
AcDbEntity
  8
1
100
AcDbLine
 10
82.378821779607
 20
1.263171950244
 30
0.0
 11
82.290821779607
 21
1.270574154456
 31
0.0
  0
LINE
  5
67
330
30
100
AcDbEntity
  8
1
100
AcDbLine
 10
82.290821779607
 20
1.270574154456
 30
0.0
 11
82.202821779607
 21
1.277976144089
 31
0.0
  0
LINE
  5
68
330
30
100
AcDbEntity
  8
1
100
AcDbLine
 10
82.202821779607
 20
1.277976144089
 30
0.0
 11
82.114821779607
 21
1.28537792244
 31
0.0
  0
LINE
  5
69
330
30
100
AcDbEntity
  8
1
100
AcDbLine
 10
82.114821779607
 20
1.28537792244
 30
0.0
 11
82.026821779607
 21
1.292779492742
 31
0.0
  0
LINE
  5
6A
330
30
100
AcDbEntity
  8
1
100
AcDbLine
 10
82.026821779607
 20
1.292779492742
 30
0.0
 11
81.938821779607
 21
1.30018085816
 31
0.0
  0
LINE
  5
6B
330
30
100
AcDbEntity
  8
1
100
AcDbLine
 10
81.938821779607
 20
1.30018085816
 30
0.0
 11
81.850821779607
 21
1.307582021796
 31
0.0
  0
LINE
  5
6C
330
30
100
AcDbEntity
  8
1
100
AcDbLine
 10
81.850821779607
 20
1.307582021796
 30
0.0
 11
81.762821779607
 21
1.31498298669
 31
0.0
  0
LINE
  5
6D
330
30
100
AcDbEntity
  8
1
100
AcDbLine
 10
81.762821779607
 20
1.31498298669
 30
0.0
 11
81.674821779607
 21
1.322383755821
 31
0.0
  0
LINE
  5
6E
330
30
100
AcDbEntity
  8
1
100
AcDbLine
 10
81.674821779607
 20
1.322383755821
 30
0.0
 11
81.586821779607
 21
1.329784332107
 31
0.0
  0
LINE
  5
6F
330
30
100
AcDbEntity
  8
1
100
AcDbLine
 10
81.586821779607
 20
1.329784332107
 30
0.0
 11
81.498821779607
 21
1.337184718411
 31
0.0
  0
LINE
  5
70
330
30
100
AcDbEntity
  8
1
100
AcDbLine
 10
81.498821779607
 20
1.337184718411
 30
0.0
 11
81.410821779607
 21
1.344584917537
 31
0.0
  0
LINE
  5
71
330
30
100
AcDbEntity
  8
1
100
AcDbLine
 10
81.410821779607
 20
1.344584917537
 30
0.0
 11
81.322821779607
 21
1.351984932235
 31
0.0
  0
LINE
  5
72
330
30
100
AcDbEntity
  8
1
100
AcDbLine
 10
81.322821779607
 20
1.351984932235
 30
0.0
 11
81.234821779607
 21
1.359384765203
 31
0.0
  0
LINE
  5
73
330
30
100
AcDbEntity
  8
1
100
AcDbLine
 10
81.234821779607
 20
1.359384765203
 30
0.0
 11
81.146821779607
 21
1.366784419083
 31
0.0
  0
LINE
  5
74
330
30
100
AcDbEntity
  8
1
100
AcDbLine
 10
81.146821779607
 20
1.366784419083
 30
0.0
 11
81.058821779607
 21
1.374183896469
 31
0.0
  0
LINE
  5
75
330
30
100
AcDbEntity
  8
1
100
AcDbLine
 10
81.058821779607
 20
1.374183896469
 30
0.0
 11
80.970821779607
 21
1.375
 31
0.0
  0
LINE
  5
76
330
30
100
AcDbEntity
  8
1
100
AcDbLine
 10
80.970821779607
 20
1.375
 30
0.0
 11
80.882821779607
 21
1.375
 31
0.0
  0
LINE
  5
77
330
30
100
AcDbEntity
  8
1
100
AcDbLine
 10
80.882821779607
 20
1.375
 30
0.0
 11
80.794821779607
 21
1.375
 31
0.0
  0
LINE
  5
78
330
30
100
AcDbEntity
  8
1
100
AcDbLine
 10
80.794821779607
 20
1.375
 30
0.0
 11
80.706821779607
 21
1.375
 31
0.0
  0
LINE
  5
79
330
30
100
AcDbEntity
  8
1
100
AcDbLine
 10
80.706821779607
 20
1.375
 30
0.0
 11
80.618821779607
 21
1.375
 31
0.0
  0
LINE
  5
7A
330
30
100
AcDbEntity
  8
1
100
AcDbLine
 10
80.618821779607
 20
1.375
 30
0.0
 11
80.530821779607
 21
1.375
 31
0.0
  0
LINE
  5
7B
330
30
100
AcDbEntity
  8
1
100
AcDbLine
 10
80.530821779607
 20
1.375
 30
0.0
 11
80.442821779607
 21
1.375
 31
0.0
  0
LINE
  5
7C
330
30
100
AcDbEntity
  8
1
100
AcDbLine
 10
80.442821779607
 20
1.375
 30
0.0
 11
80.354821779607
 21
1.375
 31
0.0
  0
LINE
  5
7D
330
30
100
AcDbEntity
  8
1
100
AcDbLine
 10
80.354821779607
 20
1.375
 30
0.0
 11
80.266821779607
 21
1.375
 31
0.0
  0
LINE
  5
7E
330
30
100
AcDbEntity
  8
1
100
AcDbLine
 10
80.266821779607
 20
1.375
 30
0.0
 11
80.178821779607
 21
1.375
 31
0.0
  0
LINE
  5
7F
330
30
100
AcDbEntity
  8
1
100
AcDbLine
 10
80.178821779607
 20
1.375
 30
0.0
 11
80.090821779607
 21
1.375
 31
0.0
  0
LINE
  5
80
330
30
100
AcDbEntity
  8
1
100
AcDbLine
 10
80.090821779607
 20
1.375
 30
0.0
 11
80.002821779607
 21
1.375
 31
0.0
  0
LINE
  5
81
330
30
100
AcDbEntity
  8
1
100
AcDbLine
 10
80.002821779607
 20
1.375
 30
0.0
 11
79.914821779607
 21
1.375
 31
0.0
  0
LINE
  5
82
330
30
100
AcDbEntity
  8
1
100
AcDbLine
 10
79.914821779607
 20
1.375
 30
0.0
 11
79.826821779607
 21
1.375
 31
0.0
  0
LINE
  5
83
330
30
100
AcDbEntity
  8
1
100
AcDbLine
 10
79.826821779607
 20
1.375
 30
0.0
 11
79.738821779607
 21
1.375
 31
0.0
  0
LINE
  5
84
330
30
100
AcDbEntity
  8
1
100
AcDbLine
 10
79.738821779607
 20
1.375
 30
0.0
 11
79.650821779607
 21
1.375
 31
0.0
  0
LINE
  5
85
330
30
100
AcDbEntity
  8
1
100
AcDbLine
 10
79.650821779607
 20
1.375
 30
0.0
 11
79.562821779607
 21
1.375
 31
0.0
  0
LINE
  5
86
330
30
100
AcDbEntity
  8
1
100
AcDbLine
 10
79.562821779607
 20
1.375
 30
0.0
 11
79.474821779607
 21
1.375
 31
0.0
  0
LINE
  5
87
330
30
100
AcDbEntity
  8
1
100
AcDbLine
 10
79.474821779607
 20
1.375
 30
0.0
 11
79.386821779607
 21
1.375
 31
0.0
  0
LINE
  5
88
330
30
100
AcDbEntity
  8
1
100
AcDbLine
 10
79.386821779607
 20
1.375
 30
0.0
 11
79.298821779607
 21
1.375
 31
0.0
  0
LINE
  5
89
330
30
100
AcDbEntity
  8
1
100
AcDbLine
 10
79.298821779607
 20
1.375
 30
0.0
 11
79.210821779607
 21
1.375
 31
0.0
  0
LINE
  5
8A
330
30
100
AcDbEntity
  8
1
100
AcDbLine
 10
79.210821779607
 20
1.375
 30
0.0
 11
79.122821779607
 21
1.375
 31
0.0
  0
LINE
  5
8B
330
30
100
AcDbEntity
  8
1
100
AcDbLine
 10
79.122821779607
 20
1.375
 30
0.0
 11
79.034821779607
 21
1.375
 31
0.0
  0
LINE
  5
8C
330
30
100
AcDbEntity
  8
1
100
AcDbLine
 10
79.034821779607
 20
1.375
 30
0.0
 11
78.946821779607
 21
1.375
 31
0.0
  0
LINE
  5
8D
330
30
100
AcDbEntity
  8
1
100
AcDbLine
 10
78.946821779607
 20
1.375
 30
0.0
 11
78.858821779607
 21
1.375
 31
0.0
  0
LINE
  5
8E
330
30
100
AcDbEntity
  8
1
100
AcDbLine
 10
78.858821779607
 20
1.375
 30
0.0
 11
78.770821779607
 21
1.375
 31
0.0
  0
LINE
  5
8F
330
30
100
AcDbEntity
  8
1
100
AcDbLine
 10
78.770821779607
 20
1.375
 30
0.0
 11
78.682821779607
 21
1.375
 31
0.0
  0
LINE
  5
90
330
30
100
AcDbEntity
  8
1
100
AcDbLine
 10
78.682821779607
 20
1.375
 30
0.0
 11
78.594821779607
 21
1.375
 31
0.0
  0
LINE
  5
91
330
30
100
AcDbEntity
  8
1
100
AcDbLine
 10
78.594821779607
 20
1.375
 30
0.0
 11
78.506821779607
 21
1.375
 31
0.0
  0
LINE
  5
92
330
30
100
AcDbEntity
  8
1
100
AcDbLine
 10
78.506821779607
 20
1.375
 30
0.0
 11
78.418821779607
 21
1.375
 31
0.0
  0
LINE
  5
93
330
30
100
AcDbEntity
  8
1
100
AcDbLine
 10
78.418821779607
 20
1.375
 30
0.0
 11
78.330821779607
 21
1.375
 31
0.0
  0
LINE
  5
94
330
30
100
AcDbEntity
  8
1
100
AcDbLine
 10
78.330821779607
 20
1.375
 30
0.0
 11
78.242821779607
 21
1.375
 31
0.0
  0
LINE
  5
95
330
30
100
AcDbEntity
  8
1
100
AcDbLine
 10
78.242821779607
 20
1.375
 30
0.0
 11
78.154821779607
 21
1.375
 31
0.0
  0
LINE
  5
96
330
30
100
AcDbEntity
  8
1
100
AcDbLine
 10
78.154821779607
 20
1.375
 30
0.0
 11
78.066821779607
 21
1.375
 31
0.0
  0
LINE
  5
97
330
30
100
AcDbEntity
  8
1
100
AcDbLine
 10
78.066821779607
 20
1.375
 30
0.0
 11
77.978821779607
 21
1.375
 31
0.0
  0
LINE
  5
98
330
30
100
AcDbEntity
  8
1
100
AcDbLine
 10
77.978821779607
 20
1.375
 30
0.0
 11
77.890821779607
 21
1.375
 31
0.0
  0
LINE
  5
99
330
30
100
AcDbEntity
  8
1
100
AcDbLine
 10
77.890821779607
 20
1.375
 30
0.0
 11
77.802821779607
 21
1.375
 31
0.0
  0
LINE
  5
9A
330
30
100
AcDbEntity
  8
1
100
AcDbLine
 10
77.802821779607
 20
1.375
 30
0.0
 11
77.714821779607
 21
1.375
 31
0.0
  0
LINE
  5
9B
330
30
100
AcDbEntity
  8
1
100
AcDbLine
 10
77.714821779607
 20
1.375
 30
0.0
 11
77.626821779607
 21
1.375
 31
0.0
  0
LINE
  5
9C
330
30
100
AcDbEntity
  8
1
100
AcDbLine
 10
77.626821779607
 20
1.375
 30
0.0
 11
77.538821779607
 21
1.375
 31
0.0
  0
LINE
  5
9D
330
30
100
AcDbEntity
  8
1
100
AcDbLine
 10
77.538821779607
 20
1.375
 30
0.0
 11
77.450821779607
 21
1.375
 31
0.0
  0
LINE
  5
9E
330
30
100
AcDbEntity
  8
1
100
AcDbLine
 10
77.450821779607
 20
1.375
 30
0.0
 11
77.362821779607
 21
1.375
 31
0.0
  0
LINE
  5
9F
330
30
100
AcDbEntity
  8
1
100
AcDbLine
 10
77.362821779607
 20
1.375
 30
0.0
 11
77.274821779607
 21
1.375
 31
0.0
  0
LINE
  5
A0
330
30
100
AcDbEntity
  8
1
100
AcDbLine
 10
77.274821779607
 20
1.375
 30
0.0
 11
77.186821779607
 21
1.375
 31
0.0
  0
LINE
  5
A1
330
30
100
AcDbEntity
  8
1
100
AcDbLine
 10
77.186821779607
 20
1.375
 30
0.0
 11
77.098821779607
 21
1.375
 31
0.0
  0
LINE
  5
A2
330
30
100
AcDbEntity
  8
1
100
AcDbLine
 10
77.098821779607
 20
1.375
 30
0.0
 11
77.010821779607
 21
1.375
 31
0.0
  0
LINE
  5
A3
330
30
100
AcDbEntity
  8
1
100
AcDbLine
 10
77.010821779607
 20
1.375
 30
0.0
 11
76.922821779607
 21
1.375
 31
0.0
  0
LINE
  5
A4
330
30
100
AcDbEntity
  8
1
100
AcDbLine
 10
76.922821779607
 20
1.375
 30
0.0
 11
76.834821779607
 21
1.375
 31
0.0
  0
LINE
  5
A5
330
30
100
AcDbEntity
  8
1
100
AcDbLine
 10
76.834821779607
 20
1.375
 30
0.0
 11
76.746821779607
 21
1.375
 31
0.0
  0
LINE
  5
A6
330
30
100
AcDbEntity
  8
1
100
AcDbLine
 10
76.746821779607
 20
1.375
 30
0.0
 11
76.658821779607
 21
1.375
 31
0.0
  0
LINE
  5
A7
330
30
100
AcDbEntity
  8
1
100
AcDbLine
 10
76.658821779607
 20
1.375
 30
0.0
 11
76.570821779607
 21
1.375
 31
0.0
  0
LINE
  5
A8
330
30
100
AcDbEntity
  8
1
100
AcDbLine
 10
76.570821779607
 20
1.375
 30
0.0
 11
76.482821779607
 21
1.375
 31
0.0
  0
LINE
  5
A9
330
30
100
AcDbEntity
  8
1
100
AcDbLine
 10
76.482821779607
 20
1.375
 30
0.0
 11
76.394821779607
 21
1.375
 31
0.0
  0
LINE
  5
AA
330
30
100
AcDbEntity
  8
1
100
AcDbLine
 10
76.394821779607
 20
1.375
 30
0.0
 11
76.306821779607
 21
1.375
 31
0.0
  0
LINE
  5
AB
330
30
100
AcDbEntity
  8
1
100
AcDbLine
 10
76.306821779607
 20
1.375
 30
0.0
 11
76.218821779607
 21
1.375
 31
0.0
  0
LINE
  5
AC
330
30
100
AcDbEntity
  8
1
100
AcDbLine
 10
76.218821779607
 20
1.375
 30
0.0
 11
76.130821779607
 21
1.375
 31
0.0
  0
LINE
  5
AD
330
30
100
AcDbEntity
  8
1
100
AcDbLine
 10
76.130821779607
 20
1.375
 30
0.0
 11
76.042821779607
 21
1.375
 31
0.0
  0
LINE
  5
AE
330
30
100
AcDbEntity
  8
1
100
AcDbLine
 10
76.042821779607
 20
1.375
 30
0.0
 11
75.954821779607
 21
1.375
 31
0.0
  0
LINE
  5
AF
330
30
100
AcDbEntity
  8
1
100
AcDbLine
 10
75.954821779607
 20
1.375
 30
0.0
 11
75.866821779607
 21
1.375
 31
0.0
  0
LINE
  5
B0
330
30
100
AcDbEntity
  8
1
100
AcDbLine
 10
75.866821779607
 20
1.375
 30
0.0
 11
75.778821779607
 21
1.375
 31
0.0
  0
LINE
  5
B1
330
30
100
AcDbEntity
  8
1
100
AcDbLine
 10
75.778821779607
 20
1.375
 30
0.0
 11
75.690821779607
 21
1.375
 31
0.0
  0
LINE
  5
B2
330
30
100
AcDbEntity
  8
1
100
AcDbLine
 10
75.690821779607
 20
1.375
 30
0.0
 11
75.602821779607
 21
1.375
 31
0.0
  0
LINE
  5
B3
330
30
100
AcDbEntity
  8
1
100
AcDbLine
 10
75.602821779607
 20
1.375
 30
0.0
 11
75.514821779607
 21
1.375
 31
0.0
  0
LINE
  5
B4
330
30
100
AcDbEntity
  8
1
100
AcDbLine
 10
75.514821779607
 20
1.375
 30
0.0
 11
75.426821779607
 21
1.375
 31
0.0
  0
LINE
  5
B5
330
30
100
AcDbEntity
  8
1
100
AcDbLine
 10
75.426821779607
 20
1.375
 30
0.0
 11
75.338821779607
 21
1.375
 31
0.0
  0
LINE
  5
B6
330
30
100
AcDbEntity
  8
1
100
AcDbLine
 10
75.338821779607
 20
1.375
 30
0.0
 11
75.250821779607
 21
1.375
 31
0.0
  0
LINE
  5
B7
330
30
100
AcDbEntity
  8
1
100
AcDbLine
 10
75.250821779607
 20
1.375
 30
0.0
 11
75.162821779607
 21
1.375
 31
0.0
  0
LINE
  5
B8
330
30
100
AcDbEntity
  8
1
100
AcDbLine
 10
75.162821779607
 20
1.375
 30
0.0
 11
75.074821779607
 21
1.375
 31
0.0
  0
LINE
  5
B9
330
30
100
AcDbEntity
  8
1
100
AcDbLine
 10
75.074821779607
 20
1.375
 30
0.0
 11
74.986821779607
 21
1.375
 31
0.0
  0
LINE
  5
BA
330
30
100
AcDbEntity
  8
1
100
AcDbLine
 10
74.986821779607
 20
1.375
 30
0.0
 11
74.898821779607
 21
1.375
 31
0.0
  0
LINE
  5
BB
330
30
100
AcDbEntity
  8
1
100
AcDbLine
 10
74.898821779607
 20
1.375
 30
0.0
 11
74.810821779607
 21
1.375
 31
0.0
  0
LINE
  5
BC
330
30
100
AcDbEntity
  8
1
100
AcDbLine
 10
74.810821779607
 20
1.375
 30
0.0
 11
74.722821779607
 21
1.375
 31
0.0
  0
LINE
  5
BD
330
30
100
AcDbEntity
  8
1
100
AcDbLine
 10
74.722821779607
 20
1.375
 30
0.0
 11
74.634821779607
 21
1.375
 31
0.0
  0
LINE
  5
BE
330
30
100
AcDbEntity
  8
1
100
AcDbLine
 10
74.634821779607
 20
1.375
 30
0.0
 11
74.546821779607
 21
1.375
 31
0.0
  0
LINE
  5
BF
330
30
100
AcDbEntity
  8
1
100
AcDbLine
 10
74.546821779607
 20
1.375
 30
0.0
 11
74.458821779607
 21
1.375
 31
0.0
  0
LINE
  5
C0
330
30
100
AcDbEntity
  8
1
100
AcDbLine
 10
74.458821779607
 20
1.375
 30
0.0
 11
74.370821779607
 21
1.375
 31
0.0
  0
LINE
  5
C1
330
30
100
AcDbEntity
  8
1
100
AcDbLine
 10
74.370821779607
 20
1.375
 30
0.0
 11
74.282821779607
 21
1.375
 31
0.0
  0
LINE
  5
C2
330
30
100
AcDbEntity
  8
1
100
AcDbLine
 10
74.282821779607
 20
1.375
 30
0.0
 11
74.194821779607
 21
1.375
 31
0.0
  0
LINE
  5
C3
330
30
100
AcDbEntity
  8
1
100
AcDbLine
 10
74.194821779607
 20
1.375
 30
0.0
 11
74.106821779607
 21
1.375
 31
0.0
  0
LINE
  5
C4
330
30
100
AcDbEntity
  8
1
100
AcDbLine
 10
74.106821779607
 20
1.375
 30
0.0
 11
74.018821779607
 21
1.375
 31
0.0
  0
LINE
  5
C5
330
30
100
AcDbEntity
  8
1
100
AcDbLine
 10
74.018821779607
 20
1.375
 30
0.0
 11
73.930821779607
 21
1.375
 31
0.0
  0
LINE
  5
C6
330
30
100
AcDbEntity
  8
1
100
AcDbLine
 10
73.930821779607
 20
1.375
 30
0.0
 11
73.842821779607
 21
1.375
 31
0.0
  0
LINE
  5
C7
330
30
100
AcDbEntity
  8
1
100
AcDbLine
 10
73.842821779607
 20
1.375
 30
0.0
 11
73.754821779607
 21
1.375
 31
0.0
  0
LINE
  5
C8
330
30
100
AcDbEntity
  8
1
100
AcDbLine
 10
73.754821779607
 20
1.375
 30
0.0
 11
73.666821779607
 21
1.375
 31
0.0
  0
LINE
  5
C9
330
30
100
AcDbEntity
  8
1
100
AcDbLine
 10
73.666821779607
 20
1.375
 30
0.0
 11
73.578821779607
 21
1.375
 31
0.0
  0
LINE
  5
CA
330
30
100
AcDbEntity
  8
1
100
AcDbLine
 10
73.578821779607
 20
1.375
 30
0.0
 11
73.490821779607
 21
1.375
 31
0.0
  0
LINE
  5
CB
330
30
100
AcDbEntity
  8
1
100
AcDbLine
 10
73.490821779607
 20
1.375
 30
0.0
 11
73.402821779607
 21
1.375
 31
0.0
  0
LINE
  5
CC
330
30
100
AcDbEntity
  8
1
100
AcDbLine
 10
73.402821779607
 20
1.375
 30
0.0
 11
73.314821779607
 21
1.375
 31
0.0
  0
LINE
  5
CD
330
30
100
AcDbEntity
  8
1
100
AcDbLine
 10
73.314821779607
 20
1.375
 30
0.0
 11
73.226821779607
 21
1.375
 31
0.0
  0
LINE
  5
CE
330
30
100
AcDbEntity
  8
1
100
AcDbLine
 10
73.226821779607
 20
1.375
 30
0.0
 11
73.138821779607
 21
1.375
 31
0.0
  0
LINE
  5
CF
330
30
100
AcDbEntity
  8
1
100
AcDbLine
 10
73.138821779607
 20
1.375
 30
0.0
 11
73.050821779607
 21
1.375
 31
0.0
  0
LINE
  5
D0
330
30
100
AcDbEntity
  8
1
100
AcDbLine
 10
73.050821779607
 20
1.375
 30
0.0
 11
72.962821779607
 21
1.375
 31
0.0
  0
LINE
  5
D1
330
30
100
AcDbEntity
  8
1
100
AcDbLine
 10
72.962821779607
 20
1.375
 30
0.0
 11
72.874821779607
 21
1.375
 31
0.0
  0
LINE
  5
D2
330
30
100
AcDbEntity
  8
1
100
AcDbLine
 10
72.874821779607
 20
1.375
 30
0.0
 11
72.786821779607
 21
1.375
 31
0.0
  0
LINE
  5
D3
330
30
100
AcDbEntity
  8
1
100
AcDbLine
 10
72.786821779607
 20
1.375
 30
0.0
 11
72.698821779607
 21
1.375
 31
0.0
  0
LINE
  5
D4
330
30
100
AcDbEntity
  8
1
100
AcDbLine
 10
72.698821779607
 20
1.375
 30
0.0
 11
72.610821779607
 21
1.375
 31
0.0
  0
LINE
  5
D5
330
30
100
AcDbEntity
  8
1
100
AcDbLine
 10
72.610821779607
 20
1.375
 30
0.0
 11
72.522821779607
 21
1.375
 31
0.0
  0
LINE
  5
D6
330
30
100
AcDbEntity
  8
1
100
AcDbLine
 10
72.522821779607
 20
1.375
 30
0.0
 11
72.434821779607
 21
1.375
 31
0.0
  0
LINE
  5
D7
330
30
100
AcDbEntity
  8
1
100
AcDbLine
 10
72.434821779607
 20
1.375
 30
0.0
 11
72.346821779607
 21
1.375
 31
0.0
  0
LINE
  5
D8
330
30
100
AcDbEntity
  8
1
100
AcDbLine
 10
72.346821779607
 20
1.375
 30
0.0
 11
72.258821779607
 21
1.375
 31
0.0
  0
LINE
  5
D9
330
30
100
AcDbEntity
  8
1
100
AcDbLine
 10
72.258821779607
 20
1.375
 30
0.0
 11
72.170821779607
 21
1.349659952895
 31
0.0
  0
LINE
  5
DA
330
30
100
AcDbEntity
  8
1
100
AcDbLine
 10
72.170821779607
 20
1.349659952895
 30
0.0
 11
72.082821779607
 21
1.321176035843
 31
0.0
  0
LINE
  5
DB
330
30
100
AcDbEntity
  8
1
100
AcDbLine
 10
72.082821779607
 20
1.321176035843
 30
0.0
 11
71.994821779607
 21
1.292689253849
 31
0.0
  0
LINE
  5
DC
330
30
100
AcDbEntity
  8
1
100
AcDbLine
 10
71.994821779607
 20
1.292689253849
 30
0.0
 11
71.906821779607
 21
1.264199434885
 31
0.0
  0
LINE
  5
DD
330
30
100
AcDbEntity
  8
1
100
AcDbLine
 10
71.906821779607
 20
1.264199434885
 30
0.0
 11
71.818821779607
 21
1.235706392844
 31
0.0
  0
LINE
  5
DE
330
30
100
AcDbEntity
  8
1
100
AcDbLine
 10
71.818821779607
 20
1.235706392844
 30
0.0
 11
71.730821779607
 21
1.207209926076
 31
0.0
  0
LINE
  5
DF
330
30
100
AcDbEntity
  8
1
100
AcDbLine
 10
71.730821779607
 20
1.207209926076
 30
0.0
 11
71.642821779607
 21
1.17870981572
 31
0.0
  0
LINE
  5
E0
330
30
100
AcDbEntity
  8
1
100
AcDbLine
 10
71.642821779607
 20
1.17870981572
 30
0.0
 11
71.554821779607
 21
1.150205823832
 31
0.0
  0
LINE
  5
E1
330
30
100
AcDbEntity
  8
1
100
AcDbLine
 10
71.554821779607
 20
1.150205823832
 30
0.0
 11
71.466821779607
 21
1.121697691249
 31
0.0
  0
LINE
  5
E2
330
30
100
AcDbEntity
  8
1
100
AcDbLine
 10
71.466821779607
 20
1.121697691249
 30
0.0
 11
71.378821779607
 21
1.093185135168
 31
0.0
  0
LINE
  5
E3
330
30
100
AcDbEntity
  8
1
100
AcDbLine
 10
71.378821779607
 20
1.093185135168
 30
0.0
 11
71.290821779607
 21
1.064667846385
 31
0.0
  0
LINE
  5
E4
330
30
100
AcDbEntity
  8
1
100
AcDbLine
 10
71.290821779607
 20
1.064667846385
 30
0.0
 11
71.202821779607
 21
1.038435148361
 31
0.0
  0
LINE
  5
E5
330
30
100
AcDbEntity
  8
1
100
AcDbLine
 10
71.202821779607
 20
1.038435148361
 30
0.0
 11
71.114821779607
 21
1.038435148361
 31
0.0
  0
LINE
  5
E6
330
30
100
AcDbEntity
  8
1
100
AcDbLine
 10
71.114821779607
 20
1.038435148361
 30
0.0
 11
71.026821779607
 21
1.038435148361
 31
0.0
  0
LINE
  5
E7
330
30
100
AcDbEntity
  8
1
100
AcDbLine
 10
71.026821779607
 20
1.038435148361
 30
0.0
 11
70.938821779607
 21
1.038435148361
 31
0.0
  0
LINE
  5
E8
330
30
100
AcDbEntity
  8
1
100
AcDbLine
 10
70.938821779607
 20
1.038435148361
 30
0.0
 11
70.850821779607
 21
1.038435148361
 31
0.0
  0
LINE
  5
E9
330
30
100
AcDbEntity
  8
1
100
AcDbLine
 10
70.850821779607
 20
1.038435148361
 30
0.0
 11
70.762821779607
 21
1.038435148361
 31
0.0
  0
LINE
  5
EA
330
30
100
AcDbEntity
  8
1
100
AcDbLine
 10
70.762821779607
 20
1.038435148361
 30
0.0
 11
70.674821779607
 21
1.038435148361
 31
0.0
  0
LINE
  5
EB
330
30
100
AcDbEntity
  8
1
100
AcDbLine
 10
70.674821779607
 20
1.038435148361
 30
0.0
 11
70.586821779607
 21
1.038435148361
 31
0.0
  0
LINE
  5
EC
330
30
100
AcDbEntity
  8
1
100
AcDbLine
 10
70.586821779607
 20
1.038435148361
 30
0.0
 11
70.498821779607
 21
1.038435148361
 31
0.0
  0
LINE
  5
ED
330
30
100
AcDbEntity
  8
1
100
AcDbLine
 10
70.498821779607
 20
1.038435148361
 30
0.0
 11
70.410821779607
 21
1.038435148361
 31
0.0
  0
LINE
  5
EE
330
30
100
AcDbEntity
  8
1
100
AcDbLine
 10
70.410821779607
 20
1.038435148361
 30
0.0
 11
70.322821779607
 21
1.038435148361
 31
0.0
  0
LINE
  5
EF
330
30
100
AcDbEntity
  8
1
100
AcDbLine
 10
70.322821779607
 20
1.038435148361
 30
0.0
 11
70.234821779607
 21
1.038435148361
 31
0.0
  0
LINE
  5
F0
330
30
100
AcDbEntity
  8
1
100
AcDbLine
 10
70.234821779607
 20
1.038435148361
 30
0.0
 11
70.146821779607
 21
1.038435148361
 31
0.0
  0
LINE
  5
F1
330
30
100
AcDbEntity
  8
1
100
AcDbLine
 10
70.146821779607
 20
1.038435148361
 30
0.0
 11
70.058821779607
 21
1.038435148361
 31
0.0
  0
LINE
  5
F2
330
30
100
AcDbEntity
  8
1
100
AcDbLine
 10
70.058821779607
 20
1.038435148361
 30
0.0
 11
69.970821779607
 21
1.038435148361
 31
0.0
  0
LINE
  5
F3
330
30
100
AcDbEntity
  8
1
100
AcDbLine
 10
69.970821779607
 20
1.038435148361
 30
0.0
 11
69.882821779607
 21
1.038435148361
 31
0.0
  0
LINE
  5
F4
330
30
100
AcDbEntity
  8
1
100
AcDbLine
 10
69.882821779607
 20
1.038435148361
 30
0.0
 11
69.794821779607
 21
1.038435148361
 31
0.0
  0
LINE
  5
F5
330
30
100
AcDbEntity
  8
1
100
AcDbLine
 10
69.794821779607
 20
1.038435148361
 30
0.0
 11
69.706821779607
 21
1.038435148361
 31
0.0
  0
LINE
  5
F6
330
30
100
AcDbEntity
  8
1
100
AcDbLine
 10
69.706821779607
 20
1.038435148361
 30
0.0
 11
69.618821779607
 21
1.038435148361
 31
0.0
  0
LINE
  5
F7
330
30
100
AcDbEntity
  8
1
100
AcDbLine
 10
69.618821779607
 20
1.038435148361
 30
0.0
 11
69.530821779607
 21
1.038435148361
 31
0.0
  0
LINE
  5
F8
330
30
100
AcDbEntity
  8
1
100
AcDbLine
 10
69.530821779607
 20
1.038435148361
 30
0.0
 11
69.442821779607
 21
1.038435148361
 31
0.0
  0
LINE
  5
F9
330
30
100
AcDbEntity
  8
1
100
AcDbLine
 10
69.442821779607
 20
1.038435148361
 30
0.0
 11
69.354821779607
 21
1.038435148361
 31
0.0
  0
LINE
  5
FA
330
30
100
AcDbEntity
  8
1
100
AcDbLine
 10
69.354821779607
 20
1.038435148361
 30
0.0
 11
69.266821779607
 21
1.038435148361
 31
0.0
  0
LINE
  5
FB
330
30
100
AcDbEntity
  8
1
100
AcDbLine
 10
69.266821779607
 20
1.038435148361
 30
0.0
 11
69.178821779607
 21
1.038435148361
 31
0.0
  0
LINE
  5
FC
330
30
100
AcDbEntity
  8
1
100
AcDbLine
 10
69.178821779607
 20
1.038435148361
 30
0.0
 11
69.090821779607
 21
1.038435148361
 31
0.0
  0
LINE
  5
FD
330
30
100
AcDbEntity
  8
1
100
AcDbLine
 10
69.090821779607
 20
1.038435148361
 30
0.0
 11
69.002821779607
 21
1.038435148361
 31
0.0
  0
LINE
  5
FE
330
30
100
AcDbEntity
  8
1
100
AcDbLine
 10
69.002821779607
 20
1.038435148361
 30
0.0
 11
68.914821779607
 21
1.038435148361
 31
0.0
  0
LINE
  5
FF
330
30
100
AcDbEntity
  8
1
100
AcDbLine
 10
68.914821779607
 20
1.038435148361
 30
0.0
 11
68.826821779607
 21
1.038435148361
 31
0.0
  0
LINE
  5
100
330
30
100
AcDbEntity
  8
1
100
AcDbLine
 10
68.826821779607
 20
1.038435148361
 30
0.0
 11
68.738821779607
 21
1.038435148361
 31
0.0
  0
LINE
  5
101
330
30
100
AcDbEntity
  8
1
100
AcDbLine
 10
68.738821779607
 20
1.038435148361
 30
0.0
 11
68.650821779607
 21
1.038435148361
 31
0.0
  0
LINE
  5
102
330
30
100
AcDbEntity
  8
1
100
AcDbLine
 10
68.650821779607
 20
1.038435148361
 30
0.0
 11
68.562821779607
 21
1.038435148361
 31
0.0
  0
LINE
  5
103
330
30
100
AcDbEntity
  8
1
100
AcDbLine
 10
68.562821779607
 20
1.038435148361
 30
0.0
 11
68.474821779607
 21
1.038435148361
 31
0.0
  0
LINE
  5
104
330
30
100
AcDbEntity
  8
1
100
AcDbLine
 10
68.474821779607
 20
1.038435148361
 30
0.0
 11
68.386821779607
 21
1.038435148361
 31
0.0
  0
LINE
  5
105
330
30
100
AcDbEntity
  8
1
100
AcDbLine
 10
68.386821779607
 20
1.038435148361
 30
0.0
 11
68.298821779607
 21
1.038435148361
 31
0.0
  0
LINE
  5
106
330
30
100
AcDbEntity
  8
1
100
AcDbLine
 10
68.298821779607
 20
1.038435148361
 30
0.0
 11
68.210821779607
 21
1.038435148361
 31
0.0
  0
LINE
  5
107
330
30
100
AcDbEntity
  8
1
100
AcDbLine
 10
68.210821779607
 20
1.038435148361
 30
0.0
 11
68.122821779607
 21
1.038435148361
 31
0.0
  0
LINE
  5
108
330
30
100
AcDbEntity
  8
1
100
AcDbLine
 10
68.122821779607
 20
1.038435148361
 30
0.0
 11
68.034821779607
 21
1.038435148361
 31
0.0
  0
LINE
  5
109
330
30
100
AcDbEntity
  8
1
100
AcDbLine
 10
68.034821779607
 20
1.038435148361
 30
0.0
 11
67.946821779607
 21
1.038435148361
 31
0.0
  0
LINE
  5
10A
330
30
100
AcDbEntity
  8
1
100
AcDbLine
 10
67.946821779607
 20
1.038435148361
 30
0.0
 11
67.858821779607
 21
1.038435148361
 31
0.0
  0
LINE
  5
10B
330
30
100
AcDbEntity
  8
1
100
AcDbLine
 10
67.858821779607
 20
1.038435148361
 30
0.0
 11
67.770821779607
 21
1.038435148361
 31
0.0
  0
LINE
  5
10C
330
30
100
AcDbEntity
  8
1
100
AcDbLine
 10
67.770821779607
 20
1.038435148361
 30
0.0
 11
67.682821779607
 21
1.038435148361
 31
0.0
  0
LINE
  5
10D
330
30
100
AcDbEntity
  8
1
100
AcDbLine
 10
67.682821779607
 20
1.038435148361
 30
0.0
 11
67.594821779607
 21
1.038435148361
 31
0.0
  0
LINE
  5
10E
330
30
100
AcDbEntity
  8
1
100
AcDbLine
 10
67.594821779607
 20
1.038435148361
 30
0.0
 11
67.506821779607
 21
1.038435148361
 31
0.0
  0
LINE
  5
10F
330
30
100
AcDbEntity
  8
1
100
AcDbLine
 10
67.506821779607
 20
1.038435148361
 30
0.0
 11
67.418821779607
 21
1.038435148361
 31
0.0
  0
LINE
  5
110
330
30
100
AcDbEntity
  8
1
100
AcDbLine
 10
67.418821779607
 20
1.038435148361
 30
0.0
 11
67.330821779607
 21
1.038435148361
 31
0.0
  0
LINE
  5
111
330
30
100
AcDbEntity
  8
1
100
AcDbLine
 10
67.330821779607
 20
1.038435148361
 30
0.0
 11
67.242821779607
 21
1.038435148361
 31
0.0
  0
LINE
  5
112
330
30
100
AcDbEntity
  8
1
100
AcDbLine
 10
67.242821779607
 20
1.038435148361
 30
0.0
 11
67.154821779607
 21
1.038435148361
 31
0.0
  0
LINE
  5
113
330
30
100
AcDbEntity
  8
1
100
AcDbLine
 10
67.154821779607
 20
1.038435148361
 30
0.0
 11
67.066821779607
 21
1.038435148361
 31
0.0
  0
LINE
  5
114
330
30
100
AcDbEntity
  8
1
100
AcDbLine
 10
67.066821779607
 20
1.038435148361
 30
0.0
 11
66.978821779607
 21
1.038435148361
 31
0.0
  0
LINE
  5
115
330
30
100
AcDbEntity
  8
1
100
AcDbLine
 10
66.978821779607
 20
1.038435148361
 30
0.0
 11
66.890821779607
 21
1.038435148361
 31
0.0
  0
LINE
  5
116
330
30
100
AcDbEntity
  8
1
100
AcDbLine
 10
66.890821779607
 20
1.038435148361
 30
0.0
 11
66.802821779607
 21
1.038435148361
 31
0.0
  0
LINE
  5
117
330
30
100
AcDbEntity
  8
1
100
AcDbLine
 10
66.802821779607
 20
1.038435148361
 30
0.0
 11
66.714821779607
 21
1.038435148361
 31
0.0
  0
LINE
  5
118
330
30
100
AcDbEntity
  8
1
100
AcDbLine
 10
66.714821779607
 20
1.038435148361
 30
0.0
 11
66.626821779607
 21
1.038435148361
 31
0.0
  0
LINE
  5
119
330
30
100
AcDbEntity
  8
1
100
AcDbLine
 10
66.626821779607
 20
1.038435148361
 30
0.0
 11
66.538821779607
 21
1.038435148361
 31
0.0
  0
LINE
  5
11A
330
30
100
AcDbEntity
  8
1
100
AcDbLine
 10
66.538821779607
 20
1.038435148361
 30
0.0
 11
66.450821779607
 21
1.038435148361
 31
0.0
  0
LINE
  5
11B
330
30
100
AcDbEntity
  8
1
100
AcDbLine
 10
66.450821779607
 20
1.038435148361
 30
0.0
 11
66.362821779607
 21
1.038435148361
 31
0.0
  0
LINE
  5
11C
330
30
100
AcDbEntity
  8
1
100
AcDbLine
 10
66.362821779607
 20
1.038435148361
 30
0.0
 11
66.274821779607
 21
1.038435148361
 31
0.0
  0
LINE
  5
11D
330
30
100
AcDbEntity
  8
1
100
AcDbLine
 10
66.274821779607
 20
1.038435148361
 30
0.0
 11
66.186821779607
 21
1.038435148361
 31
0.0
  0
LINE
  5
11E
330
30
100
AcDbEntity
  8
1
100
AcDbLine
 10
66.186821779607
 20
1.038435148361
 30
0.0
 11
66.098821779607
 21
1.038435148361
 31
0.0
  0
LINE
  5
11F
330
30
100
AcDbEntity
  8
1
100
AcDbLine
 10
66.098821779607
 20
1.038435148361
 30
0.0
 11
66.010821779607
 21
1.038435148361
 31
0.0
  0
LINE
  5
120
330
30
100
AcDbEntity
  8
1
100
AcDbLine
 10
66.010821779607
 20
1.038435148361
 30
0.0
 11
65.922821779607
 21
1.038435148361
 31
0.0
  0
LINE
  5
121
330
30
100
AcDbEntity
  8
1
100
AcDbLine
 10
65.922821779607
 20
1.038435148361
 30
0.0
 11
65.834821779607
 21
1.038435148361
 31
0.0
  0
LINE
  5
122
330
30
100
AcDbEntity
  8
1
100
AcDbLine
 10
65.834821779607
 20
1.038435148361
 30
0.0
 11
65.746821779607
 21
1.038435148361
 31
0.0
  0
LINE
  5
123
330
30
100
AcDbEntity
  8
1
100
AcDbLine
 10
65.746821779607
 20
1.038435148361
 30
0.0
 11
65.658821779607
 21
1.038435148361
 31
0.0
  0
LINE
  5
124
330
30
100
AcDbEntity
  8
1
100
AcDbLine
 10
65.658821779607
 20
1.038435148361
 30
0.0
 11
65.570821779607
 21
1.038435148361
 31
0.0
  0
LINE
  5
125
330
30
100
AcDbEntity
  8
1
100
AcDbLine
 10
65.570821779607
 20
1.038435148361
 30
0.0
 11
65.482821779607
 21
1.038435148361
 31
0.0
  0
LINE
  5
126
330
30
100
AcDbEntity
  8
1
100
AcDbLine
 10
65.482821779607
 20
1.038435148361
 30
0.0
 11
65.394821779607
 21
1.038435148361
 31
0.0
  0
LINE
  5
127
330
30
100
AcDbEntity
  8
1
100
AcDbLine
 10
65.394821779607
 20
1.038435148361
 30
0.0
 11
65.306821779607
 21
1.038435148361
 31
0.0
  0
LINE
  5
128
330
30
100
AcDbEntity
  8
1
100
AcDbLine
 10
65.306821779607
 20
1.038435148361
 30
0.0
 11
65.218821779607
 21
1.038435148361
 31
0.0
  0
LINE
  5
129
330
30
100
AcDbEntity
  8
1
100
AcDbLine
 10
65.218821779607
 20
1.038435148361
 30
0.0
 11
65.130821779607
 21
1.038435148361
 31
0.0
  0
LINE
  5
12A
330
30
100
AcDbEntity
  8
1
100
AcDbLine
 10
65.130821779607
 20
1.038435148361
 30
0.0
 11
65.042821779607
 21
1.038435148361
 31
0.0
  0
LINE
  5
12B
330
30
100
AcDbEntity
  8
1
100
AcDbLine
 10
65.042821779607
 20
1.038435148361
 30
0.0
 11
64.954821779607
 21
1.038435148361
 31
0.0
  0
LINE
  5
12C
330
30
100
AcDbEntity
  8
1
100
AcDbLine
 10
64.954821779607
 20
1.038435148361
 30
0.0
 11
64.866821779607
 21
1.038435148361
 31
0.0
  0
LINE
  5
12D
330
30
100
AcDbEntity
  8
1
100
AcDbLine
 10
64.866821779607
 20
1.038435148361
 30
0.0
 11
64.778821779607
 21
1.038435148361
 31
0.0
  0
LINE
  5
12E
330
30
100
AcDbEntity
  8
1
100
AcDbLine
 10
64.778821779607
 20
1.038435148361
 30
0.0
 11
64.690821779607
 21
1.038435148361
 31
0.0
  0
LINE
  5
12F
330
30
100
AcDbEntity
  8
1
100
AcDbLine
 10
64.690821779607
 20
1.038435148361
 30
0.0
 11
64.602821779607
 21
1.038435148361
 31
0.0
  0
LINE
  5
130
330
30
100
AcDbEntity
  8
1
100
AcDbLine
 10
64.602821779607
 20
1.038435148361
 30
0.0
 11
64.514821779607
 21
1.038435148361
 31
0.0
  0
LINE
  5
131
330
30
100
AcDbEntity
  8
1
100
AcDbLine
 10
64.514821779607
 20
1.038435148361
 30
0.0
 11
64.426821779607
 21
1.038435148361
 31
0.0
  0
LINE
  5
132
330
30
100
AcDbEntity
  8
1
100
AcDbLine
 10
64.426821779607
 20
1.038435148361
 30
0.0
 11
64.338821779607
 21
1.038435148361
 31
0.0
  0
LINE
  5
133
330
30
100
AcDbEntity
  8
1
100
AcDbLine
 10
64.338821779607
 20
1.038435148361
 30
0.0
 11
64.250821779607
 21
1.038435148361
 31
0.0
  0
LINE
  5
134
330
30
100
AcDbEntity
  8
1
100
AcDbLine
 10
64.250821779607
 20
1.038435148361
 30
0.0
 11
64.162821779607
 21
1.038435148361
 31
0.0
  0
LINE
  5
135
330
30
100
AcDbEntity
  8
1
100
AcDbLine
 10
64.162821779607
 20
1.038435148361
 30
0.0
 11
64.074821779607
 21
1.038435148361
 31
0.0
  0
LINE
  5
136
330
30
100
AcDbEntity
  8
1
100
AcDbLine
 10
64.074821779607
 20
1.038435148361
 30
0.0
 11
63.986821779607
 21
1.038435148361
 31
0.0
  0
LINE
  5
137
330
30
100
AcDbEntity
  8
1
100
AcDbLine
 10
63.986821779607
 20
1.038435148361
 30
0.0
 11
63.898821779607
 21
1.038435148361
 31
0.0
  0
LINE
  5
138
330
30
100
AcDbEntity
  8
1
100
AcDbLine
 10
63.898821779607
 20
1.038435148361
 30
0.0
 11
63.810821779607
 21
1.038435148361
 31
0.0
  0
LINE
  5
139
330
30
100
AcDbEntity
  8
1
100
AcDbLine
 10
63.810821779607
 20
1.038435148361
 30
0.0
 11
63.722821779607
 21
1.038435148361
 31
0.0
  0
LINE
  5
13A
330
30
100
AcDbEntity
  8
1
100
AcDbLine
 10
63.722821779607
 20
1.038435148361
 30
0.0
 11
63.634821779607
 21
1.038435148361
 31
0.0
  0
LINE
  5
13B
330
30
100
AcDbEntity
  8
1
100
AcDbLine
 10
63.634821779607
 20
1.038435148361
 30
0.0
 11
63.546821779607
 21
1.038435148361
 31
0.0
  0
LINE
  5
13C
330
30
100
AcDbEntity
  8
1
100
AcDbLine
 10
63.546821779607
 20
1.038435148361
 30
0.0
 11
63.458821779607
 21
1.038435148361
 31
0.0
  0
LINE
  5
13D
330
30
100
AcDbEntity
  8
1
100
AcDbLine
 10
63.458821779607
 20
1.038435148361
 30
0.0
 11
63.370821779607
 21
1.038435148361
 31
0.0
  0
LINE
  5
13E
330
30
100
AcDbEntity
  8
1
100
AcDbLine
 10
63.370821779607
 20
1.038435148361
 30
0.0
 11
63.282821779607
 21
1.038435148361
 31
0.0
  0
LINE
  5
13F
330
30
100
AcDbEntity
  8
1
100
AcDbLine
 10
63.282821779607
 20
1.038435148361
 30
0.0
 11
63.194821779607
 21
1.038435148361
 31
0.0
  0
LINE
  5
140
330
30
100
AcDbEntity
  8
1
100
AcDbLine
 10
63.194821779607
 20
1.038435148361
 30
0.0
 11
63.106821779607
 21
1.038435148361
 31
0.0
  0
LINE
  5
141
330
30
100
AcDbEntity
  8
1
100
AcDbLine
 10
63.106821779607
 20
1.038435148361
 30
0.0
 11
63.018821779607
 21
1.038435148361
 31
0.0
  0
LINE
  5
142
330
30
100
AcDbEntity
  8
1
100
AcDbLine
 10
63.018821779607
 20
1.038435148361
 30
0.0
 11
62.930821779607
 21
1.038435148361
 31
0.0
  0
LINE
  5
143
330
30
100
AcDbEntity
  8
1
100
AcDbLine
 10
62.930821779607
 20
1.038435148361
 30
0.0
 11
62.842821779607
 21
1.038435148361
 31
0.0
  0
LINE
  5
144
330
30
100
AcDbEntity
  8
1
100
AcDbLine
 10
62.842821779607
 20
1.038435148361
 30
0.0
 11
62.754821779607
 21
1.038435148361
 31
0.0
  0
LINE
  5
145
330
30
100
AcDbEntity
  8
1
100
AcDbLine
 10
62.754821779607
 20
1.038435148361
 30
0.0
 11
62.666821779607
 21
1.038435148361
 31
0.0
  0
LINE
  5
146
330
30
100
AcDbEntity
  8
1
100
AcDbLine
 10
62.666821779607
 20
1.038435148361
 30
0.0
 11
62.578821779607
 21
1.038435148361
 31
0.0
  0
LINE
  5
147
330
30
100
AcDbEntity
  8
1
100
AcDbLine
 10
62.578821779607
 20
1.038435148361
 30
0.0
 11
62.490821779607
 21
1.038435148361
 31
0.0
  0
LINE
  5
148
330
30
100
AcDbEntity
  8
1
100
AcDbLine
 10
62.490821779607
 20
1.038435148361
 30
0.0
 11
62.402821779607
 21
1.038435148361
 31
0.0
  0
LINE
  5
149
330
30
100
AcDbEntity
  8
1
100
AcDbLine
 10
62.402821779607
 20
1.038435148361
 30
0.0
 11
62.314821779607
 21
1.038435148361
 31
0.0
  0
LINE
  5
14A
330
30
100
AcDbEntity
  8
1
100
AcDbLine
 10
62.314821779607
 20
1.038435148361
 30
0.0
 11
62.226821779607
 21
1.038435148361
 31
0.0
  0
LINE
  5
14B
330
30
100
AcDbEntity
  8
1
100
AcDbLine
 10
62.226821779607
 20
1.038435148361
 30
0.0
 11
62.138821779607
 21
1.038435148361
 31
0.0
  0
LINE
  5
14C
330
30
100
AcDbEntity
  8
1
100
AcDbLine
 10
62.138821779607
 20
1.038435148361
 30
0.0
 11
62.050821779607
 21
1.038435148361
 31
0.0
  0
LINE
  5
14D
330
30
100
AcDbEntity
  8
1
100
AcDbLine
 10
62.050821779607
 20
1.038435148361
 30
0.0
 11
61.962821779607
 21
1.038435148361
 31
0.0
  0
LINE
  5
14E
330
30
100
AcDbEntity
  8
1
100
AcDbLine
 10
61.962821779607
 20
1.038435148361
 30
0.0
 11
61.874821779607
 21
1.038435148361
 31
0.0
  0
LINE
  5
14F
330
30
100
AcDbEntity
  8
1
100
AcDbLine
 10
61.874821779607
 20
1.038435148361
 30
0.0
 11
61.786821779607
 21
1.038435148361
 31
0.0
  0
LINE
  5
150
330
30
100
AcDbEntity
  8
1
100
AcDbLine
 10
61.786821779607
 20
1.038435148361
 30
0.0
 11
61.698821779607
 21
1.038435148361
 31
0.0
  0
LINE
  5
151
330
30
100
AcDbEntity
  8
1
100
AcDbLine
 10
61.698821779607
 20
1.038435148361
 30
0.0
 11
61.610821779607
 21
1.038435148361
 31
0.0
  0
LINE
  5
152
330
30
100
AcDbEntity
  8
1
100
AcDbLine
 10
61.610821779607
 20
1.038435148361
 30
0.0
 11
61.522821779607
 21
1.038435148361
 31
0.0
  0
LINE
  5
153
330
30
100
AcDbEntity
  8
1
100
AcDbLine
 10
61.522821779607
 20
1.038435148361
 30
0.0
 11
61.434821779607
 21
1.038435148361
 31
0.0
  0
LINE
  5
154
330
30
100
AcDbEntity
  8
1
100
AcDbLine
 10
61.434821779607
 20
1.038435148361
 30
0.0
 11
61.346821779607
 21
1.038435148361
 31
0.0
  0
LINE
  5
155
330
30
100
AcDbEntity
  8
1
100
AcDbLine
 10
61.346821779607
 20
1.038435148361
 30
0.0
 11
61.258821779607
 21
1.038435148361
 31
0.0
  0
LINE
  5
156
330
30
100
AcDbEntity
  8
1
100
AcDbLine
 10
61.258821779607
 20
1.038435148361
 30
0.0
 11
61.170821779607
 21
1.038435148361
 31
0.0
  0
LINE
  5
157
330
30
100
AcDbEntity
  8
1
100
AcDbLine
 10
61.170821779607
 20
1.038435148361
 30
0.0
 11
61.082821779607
 21
1.038435148361
 31
0.0
  0
LINE
  5
158
330
30
100
AcDbEntity
  8
1
100
AcDbLine
 10
61.082821779607
 20
1.038435148361
 30
0.0
 11
60.994821779607
 21
1.038435148361
 31
0.0
  0
LINE
  5
159
330
30
100
AcDbEntity
  8
1
100
AcDbLine
 10
60.994821779607
 20
1.038435148361
 30
0.0
 11
60.906821779607
 21
1.038435148361
 31
0.0
  0
LINE
  5
15A
330
30
100
AcDbEntity
  8
1
100
AcDbLine
 10
60.906821779607
 20
1.038435148361
 30
0.0
 11
60.818821779607
 21
1.038435148361
 31
0.0
  0
LINE
  5
15B
330
30
100
AcDbEntity
  8
1
100
AcDbLine
 10
60.818821779607
 20
1.038435148361
 30
0.0
 11
60.730821779607
 21
1.038435148361
 31
0.0
  0
LINE
  5
15C
330
30
100
AcDbEntity
  8
1
100
AcDbLine
 10
60.730821779607
 20
1.038435148361
 30
0.0
 11
60.642821779607
 21
1.038435148361
 31
0.0
  0
LINE
  5
15D
330
30
100
AcDbEntity
  8
1
100
AcDbLine
 10
60.642821779607
 20
1.038435148361
 30
0.0
 11
60.554821779607
 21
1.038435148361
 31
0.0
  0
LINE
  5
15E
330
30
100
AcDbEntity
  8
1
100
AcDbLine
 10
60.554821779607
 20
1.038435148361
 30
0.0
 11
60.466821779607
 21
1.038435148361
 31
0.0
  0
LINE
  5
15F
330
30
100
AcDbEntity
  8
1
100
AcDbLine
 10
60.466821779607
 20
1.038435148361
 30
0.0
 11
60.378821779607
 21
1.038435148361
 31
0.0
  0
LINE
  5
160
330
30
100
AcDbEntity
  8
1
100
AcDbLine
 10
60.378821779607
 20
1.038435148361
 30
0.0
 11
60.290821779607
 21
1.038435148361
 31
0.0
  0
LINE
  5
161
330
30
100
AcDbEntity
  8
1
100
AcDbLine
 10
60.290821779607
 20
1.038435148361
 30
0.0
 11
60.202821779607
 21
1.038435148361
 31
0.0
  0
LINE
  5
162
330
30
100
AcDbEntity
  8
1
100
AcDbLine
 10
60.202821779607
 20
1.038435148361
 30
0.0
 11
60.114821779607
 21
1.038435148361
 31
0.0
  0
LINE
  5
163
330
30
100
AcDbEntity
  8
1
100
AcDbLine
 10
60.114821779607
 20
1.038435148361
 30
0.0
 11
60.026821779607
 21
1.038435148361
 31
0.0
  0
LINE
  5
164
330
30
100
AcDbEntity
  8
1
100
AcDbLine
 10
60.026821779607
 20
1.038435148361
 30
0.0
 11
59.938821779607
 21
1.038435148361
 31
0.0
  0
LINE
  5
165
330
30
100
AcDbEntity
  8
1
100
AcDbLine
 10
59.938821779607
 20
1.038435148361
 30
0.0
 11
59.850821779607
 21
1.038435148361
 31
0.0
  0
LINE
  5
166
330
30
100
AcDbEntity
  8
1
100
AcDbLine
 10
59.850821779607
 20
1.038435148361
 30
0.0
 11
59.762821779607
 21
1.038435148361
 31
0.0
  0
LINE
  5
167
330
30
100
AcDbEntity
  8
1
100
AcDbLine
 10
59.762821779607
 20
1.038435148361
 30
0.0
 11
59.674821779607
 21
1.038435148361
 31
0.0
  0
LINE
  5
168
330
30
100
AcDbEntity
  8
1
100
AcDbLine
 10
59.674821779607
 20
1.038435148361
 30
0.0
 11
59.586821779607
 21
1.038435148361
 31
0.0
  0
LINE
  5
169
330
30
100
AcDbEntity
  8
1
100
AcDbLine
 10
59.586821779607
 20
1.038435148361
 30
0.0
 11
59.498821779607
 21
1.038435148361
 31
0.0
  0
LINE
  5
16A
330
30
100
AcDbEntity
  8
1
100
AcDbLine
 10
59.498821779607
 20
1.038435148361
 30
0.0
 11
59.410821779607
 21
1.038435148361
 31
0.0
  0
LINE
  5
16B
330
30
100
AcDbEntity
  8
1
100
AcDbLine
 10
59.410821779607
 20
1.038435148361
 30
0.0
 11
59.322821779607
 21
1.038435148361
 31
0.0
  0
LINE
  5
16C
330
30
100
AcDbEntity
  8
1
100
AcDbLine
 10
59.322821779607
 20
1.038435148361
 30
0.0
 11
59.410821779607
 21
0.928996410606
 31
0.0
  0
LINE
  5
16D
330
30
100
AcDbEntity
  8
1
100
AcDbLine
 10
59.410821779607
 20
0.928996410606
 30
0.0
 11
59.498821779607
 21
0.822515476574
 31
0.0
  0
LINE
  5
16E
330
30
100
AcDbEntity
  8
1
100
AcDbLine
 10
59.498821779607
 20
0.822515476574
 30
0.0
 11
59.586821779607
 21
0.718992346265
 31
0.0
  0
LINE
  5
16F
330
30
100
AcDbEntity
  8
1
100
AcDbLine
 10
59.586821779607
 20
0.718992346265
 30
0.0
 11
59.674821779607
 21
0.61842701968
 31
0.0
  0
LINE
  5
170
330
30
100
AcDbEntity
  8
1
100
AcDbLine
 10
59.674821779607
 20
0.61842701968
 30
0.0
 11
59.762821779607
 21
0.520819496817
 31
0.0
  0
LINE
  5
171
330
30
100
AcDbEntity
  8
1
100
AcDbLine
 10
59.762821779607
 20
0.520819496817
 30
0.0
 11
59.850821779607
 21
0.426169777678
 31
0.0
  0
LINE
  5
172
330
30
100
AcDbEntity
  8
1
100
AcDbLine
 10
59.850821779607
 20
0.426169777678
 30
0.0
 11
59.938821779607
 21
0.334477862261
 31
0.0
  0
LINE
  5
173
330
30
100
AcDbEntity
  8
1
100
AcDbLine
 10
59.938821779607
 20
0.334477862261
 30
0.0
 11
60.026821779607
 21
0.245743750568
 31
0.0
  0
LINE
  5
174
330
30
100
AcDbEntity
  8
1
100
AcDbLine
 10
60.026821779607
 20
0.245743750568
 30
0.0
 11
60.114821779607
 21
0.159967442598
 31
0.0
  0
LINE
  5
175
330
30
100
AcDbEntity
  8
1
100
AcDbLine
 10
60.114821779607
 20
0.159967442598
 30
0.0
 11
60.202821779607
 21
0.077148938351
 31
0.0
  0
LINE
  5
176
330
30
100
AcDbEntity
  8
1
100
AcDbLine
 10
60.202821779607
 20
0.077148938351
 30
0.0
 11
60.290821779607
 21
-0.002711762173
 31
0.0
  0
LINE
  5
177
330
30
100
AcDbEntity
  8
1
100
AcDbLine
 10
60.290821779607
 20
-0.002711762173
 30
0.0
 11
60.378821779607
 21
-0.079614658974
 31
0.0
  0
LINE
  5
178
330
30
100
AcDbEntity
  8
1
100
AcDbLine
 10
60.378821779607
 20
-0.079614658974
 30
0.0
 11
60.466821779607
 21
-0.153559752051
 31
0.0
  0
LINE
  5
179
330
30
100
AcDbEntity
  8
1
100
AcDbLine
 10
60.466821779607
 20
-0.153559752051
 30
0.0
 11
60.554821779607
 21
-0.224547041406
 31
0.0
  0
LINE
  5
17A
330
30
100
AcDbEntity
  8
1
100
AcDbLine
 10
60.554821779607
 20
-0.224547041406
 30
0.0
 11
60.642821779607
 21
-0.292576527037
 31
0.0
  0
LINE
  5
17B
330
30
100
AcDbEntity
  8
1
100
AcDbLine
 10
60.642821779607
 20
-0.292576527037
 30
0.0
 11
60.730821779607
 21
-0.357648208946
 31
0.0
  0
LINE
  5
17C
330
30
100
AcDbEntity
  8
1
100
AcDbLine
 10
60.730821779607
 20
-0.357648208946
 30
0.0
 11
60.818821779607
 21
-0.419762087131
 31
0.0
  0
LINE
  5
17D
330
30
100
AcDbEntity
  8
1
100
AcDbLine
 10
60.818821779607
 20
-0.419762087131
 30
0.0
 11
60.906821779607
 21
-0.478918161593
 31
0.0
  0
LINE
  5
17E
330
30
100
AcDbEntity
  8
1
100
AcDbLine
 10
60.906821779607
 20
-0.478918161593
 30
0.0
 11
60.994821779607
 21
-0.535116432332
 31
0.0
  0
LINE
  5
17F
330
30
100
AcDbEntity
  8
1
100
AcDbLine
 10
60.994821779607
 20
-0.535116432332
 30
0.0
 11
61.082821779607
 21
-0.588356899348
 31
0.0
  0
LINE
  5
180
330
30
100
AcDbEntity
  8
1
100
AcDbLine
 10
61.082821779607
 20
-0.588356899348
 30
0.0
 11
61.170821779607
 21
-0.638639562641
 31
0.0
  0
LINE
  5
181
330
30
100
AcDbEntity
  8
1
100
AcDbLine
 10
61.170821779607
 20
-0.638639562641
 30
0.0
 11
61.258821779607
 21
-0.68596442221
 31
0.0
  0
LINE
  5
182
330
30
100
AcDbEntity
  8
1
100
AcDbLine
 10
61.258821779607
 20
-0.68596442221
 30
0.0
 11
61.346821779607
 21
-0.730331478057
 31
0.0
  0
LINE
  5
183
330
30
100
AcDbEntity
  8
1
100
AcDbLine
 10
61.346821779607
 20
-0.730331478057
 30
0.0
 11
61.434821779607
 21
-0.77174073018
 31
0.0
  0
LINE
  5
184
330
30
100
AcDbEntity
  8
1
100
AcDbLine
 10
61.434821779607
 20
-0.77174073018
 30
0.0
 11
61.522821779607
 21
-0.810192178581
 31
0.0
  0
LINE
  5
185
330
30
100
AcDbEntity
  8
1
100
AcDbLine
 10
61.522821779607
 20
-0.810192178581
 30
0.0
 11
61.610821779607
 21
-0.845685823258
 31
0.0
  0
LINE
  5
186
330
30
100
AcDbEntity
  8
1
100
AcDbLine
 10
61.610821779607
 20
-0.845685823258
 30
0.0
 11
61.698821779607
 21
-0.878221664212
 31
0.0
  0
LINE
  5
187
330
30
100
AcDbEntity
  8
1
100
AcDbLine
 10
61.698821779607
 20
-0.878221664212
 30
0.0
 11
61.786821779607
 21
-0.907799701443
 31
0.0
  0
LINE
  5
188
330
30
100
AcDbEntity
  8
1
100
AcDbLine
 10
61.786821779607
 20
-0.907799701443
 30
0.0
 11
61.874821779607
 21
-0.934419934951
 31
0.0
  0
LINE
  5
189
330
30
100
AcDbEntity
  8
1
100
AcDbLine
 10
61.874821779607
 20
-0.934419934951
 30
0.0
 11
61.962821779607
 21
-0.958082364736
 31
0.0
  0
LINE
  5
18A
330
30
100
AcDbEntity
  8
1
100
AcDbLine
 10
61.962821779607
 20
-0.958082364736
 30
0.0
 11
62.050821779607
 21
-0.978786990798
 31
0.0
  0
LINE
  5
18B
330
30
100
AcDbEntity
  8
1
100
AcDbLine
 10
62.050821779607
 20
-0.978786990798
 30
0.0
 11
62.138821779607
 21
-0.996533813137
 31
0.0
  0
LINE
  5
18C
330
30
100
AcDbEntity
  8
1
100
AcDbLine
 10
62.138821779607
 20
-0.996533813137
 30
0.0
 11
62.226821779607
 21
-1.011322831752
 31
0.0
  0
LINE
  5
18D
330
30
100
AcDbEntity
  8
1
100
AcDbLine
 10
62.226821779607
 20
-1.011322831752
 30
0.0
 11
62.314821779607
 21
-1.023154046644
 31
0.0
  0
LINE
  5
18E
330
30
100
AcDbEntity
  8
1
100
AcDbLine
 10
62.314821779607
 20
-1.023154046644
 30
0.0
 11
62.402821779607
 21
-1.032027457814
 31
0.0
  0
LINE
  5
18F
330
30
100
AcDbEntity
  8
1
100
AcDbLine
 10
62.402821779607
 20
-1.032027457814
 30
0.0
 11
62.490821779607
 21
-1.03794306526
 31
0.0
  0
LINE
  5
190
330
30
100
AcDbEntity
  8
1
100
AcDbLine
 10
62.490821779607
 20
-1.03794306526
 30
0.0
 11
62.578821779607
 21
-1.040900868983
 31
0.0
  0
LINE
  5
191
330
30
100
AcDbEntity
  8
1
100
AcDbLine
 10
62.578821779607
 20
-1.040900868983
 30
0.0
 11
62.666821779607
 21
-1.041270594449
 31
0.0
  0
LINE
  5
192
330
30
100
AcDbEntity
  8
1
100
AcDbLine
 10
62.666821779607
 20
-1.041270594449
 30
0.0
 11
62.754821779607
 21
-1.041270594449
 31
0.0
  0
LINE
  5
193
330
30
100
AcDbEntity
  8
1
100
AcDbLine
 10
62.754821779607
 20
-1.041270594449
 30
0.0
 11
62.842821779607
 21
-1.041270594449
 31
0.0
  0
LINE
  5
194
330
30
100
AcDbEntity
  8
1
100
AcDbLine
 10
62.842821779607
 20
-1.041270594449
 30
0.0
 11
62.930821779607
 21
-1.041270594449
 31
0.0
  0
LINE
  5
195
330
30
100
AcDbEntity
  8
1
100
AcDbLine
 10
62.930821779607
 20
-1.041270594449
 30
0.0
 11
63.018821779607
 21
-1.041270594449
 31
0.0
  0
LINE
  5
196
330
30
100
AcDbEntity
  8
1
100
AcDbLine
 10
63.018821779607
 20
-1.041270594449
 30
0.0
 11
63.106821779607
 21
-1.041270594449
 31
0.0
  0
LINE
  5
197
330
30
100
AcDbEntity
  8
1
100
AcDbLine
 10
63.106821779607
 20
-1.041270594449
 30
0.0
 11
63.194821779607
 21
-1.041270594449
 31
0.0
  0
LINE
  5
198
330
30
100
AcDbEntity
  8
1
100
AcDbLine
 10
63.194821779607
 20
-1.041270594449
 30
0.0
 11
63.282821779607
 21
-1.041270594449
 31
0.0
  0
LINE
  5
199
330
30
100
AcDbEntity
  8
1
100
AcDbLine
 10
63.282821779607
 20
-1.041270594449
 30
0.0
 11
63.370821779607
 21
-1.041270594449
 31
0.0
  0
LINE
  5
19A
330
30
100
AcDbEntity
  8
1
100
AcDbLine
 10
63.370821779607
 20
-1.041270594449
 30
0.0
 11
63.458821779607
 21
-1.041270594449
 31
0.0
  0
LINE
  5
19B
330
30
100
AcDbEntity
  8
1
100
AcDbLine
 10
63.458821779607
 20
-1.041270594449
 30
0.0
 11
63.546821779607
 21
-1.041270594449
 31
0.0
  0
LINE
  5
19C
330
30
100
AcDbEntity
  8
1
100
AcDbLine
 10
63.546821779607
 20
-1.041270594449
 30
0.0
 11
63.634821779607
 21
-1.041270594449
 31
0.0
  0
LINE
  5
19D
330
30
100
AcDbEntity
  8
1
100
AcDbLine
 10
63.634821779607
 20
-1.041270594449
 30
0.0
 11
63.722821779607
 21
-1.041270594449
 31
0.0
  0
LINE
  5
19E
330
30
100
AcDbEntity
  8
1
100
AcDbLine
 10
63.722821779607
 20
-1.041270594449
 30
0.0
 11
63.810821779607
 21
-1.041270594449
 31
0.0
  0
LINE
  5
19F
330
30
100
AcDbEntity
  8
1
100
AcDbLine
 10
63.810821779607
 20
-1.041270594449
 30
0.0
 11
63.898821779607
 21
-1.041270594449
 31
0.0
  0
LINE
  5
1A0
330
30
100
AcDbEntity
  8
1
100
AcDbLine
 10
63.898821779607
 20
-1.041270594449
 30
0.0
 11
63.986821779607
 21
-1.041270594449
 31
0.0
  0
LINE
  5
1A1
330
30
100
AcDbEntity
  8
1
100
AcDbLine
 10
63.986821779607
 20
-1.041270594449
 30
0.0
 11
64.074821779607
 21
-1.041270594449
 31
0.0
  0
LINE
  5
1A2
330
30
100
AcDbEntity
  8
1
100
AcDbLine
 10
64.074821779607
 20
-1.041270594449
 30
0.0
 11
64.162821779607
 21
-1.041270594449
 31
0.0
  0
LINE
  5
1A3
330
30
100
AcDbEntity
  8
1
100
AcDbLine
 10
64.162821779607
 20
-1.041270594449
 30
0.0
 11
64.250821779607
 21
-1.041270594449
 31
0.0
  0
LINE
  5
1A4
330
30
100
AcDbEntity
  8
1
100
AcDbLine
 10
64.250821779607
 20
-1.041270594449
 30
0.0
 11
64.338821779607
 21
-1.041270594449
 31
0.0
  0
LINE
  5
1A5
330
30
100
AcDbEntity
  8
1
100
AcDbLine
 10
64.338821779607
 20
-1.041270594449
 30
0.0
 11
64.426821779607
 21
-1.041270594449
 31
0.0
  0
LINE
  5
1A6
330
30
100
AcDbEntity
  8
1
100
AcDbLine
 10
64.426821779607
 20
-1.041270594449
 30
0.0
 11
64.514821779607
 21
-1.041270594449
 31
0.0
  0
LINE
  5
1A7
330
30
100
AcDbEntity
  8
1
100
AcDbLine
 10
64.514821779607
 20
-1.041270594449
 30
0.0
 11
64.602821779607
 21
-1.041270594449
 31
0.0
  0
LINE
  5
1A8
330
30
100
AcDbEntity
  8
1
100
AcDbLine
 10
64.602821779607
 20
-1.041270594449
 30
0.0
 11
64.690821779607
 21
-1.041270594449
 31
0.0
  0
LINE
  5
1A9
330
30
100
AcDbEntity
  8
1
100
AcDbLine
 10
64.690821779607
 20
-1.041270594449
 30
0.0
 11
64.778821779607
 21
-1.041270594449
 31
0.0
  0
LINE
  5
1AA
330
30
100
AcDbEntity
  8
1
100
AcDbLine
 10
64.778821779607
 20
-1.041270594449
 30
0.0
 11
64.866821779607
 21
-1.041270594449
 31
0.0
  0
LINE
  5
1AB
330
30
100
AcDbEntity
  8
1
100
AcDbLine
 10
64.866821779607
 20
-1.041270594449
 30
0.0
 11
64.954821779607
 21
-1.041270594449
 31
0.0
  0
LINE
  5
1AC
330
30
100
AcDbEntity
  8
1
100
AcDbLine
 10
64.954821779607
 20
-1.041270594449
 30
0.0
 11
65.042821779607
 21
-1.041270594449
 31
0.0
  0
LINE
  5
1AD
330
30
100
AcDbEntity
  8
1
100
AcDbLine
 10
65.042821779607
 20
-1.041270594449
 30
0.0
 11
65.130821779607
 21
-1.041270594449
 31
0.0
  0
LINE
  5
1AE
330
30
100
AcDbEntity
  8
1
100
AcDbLine
 10
65.130821779607
 20
-1.041270594449
 30
0.0
 11
65.218821779607
 21
-1.041270594449
 31
0.0
  0
LINE
  5
1AF
330
30
100
AcDbEntity
  8
1
100
AcDbLine
 10
65.218821779607
 20
-1.041270594449
 30
0.0
 11
65.306821779607
 21
-1.041270594449
 31
0.0
  0
LINE
  5
1B0
330
30
100
AcDbEntity
  8
1
100
AcDbLine
 10
65.306821779607
 20
-1.041270594449
 30
0.0
 11
65.394821779607
 21
-1.041270594449
 31
0.0
  0
LINE
  5
1B1
330
30
100
AcDbEntity
  8
1
100
AcDbLine
 10
65.394821779607
 20
-1.041270594449
 30
0.0
 11
65.482821779607
 21
-1.041270594449
 31
0.0
  0
LINE
  5
1B2
330
30
100
AcDbEntity
  8
1
100
AcDbLine
 10
65.482821779607
 20
-1.041270594449
 30
0.0
 11
65.570821779607
 21
-1.041270594449
 31
0.0
  0
LINE
  5
1B3
330
30
100
AcDbEntity
  8
1
100
AcDbLine
 10
65.570821779607
 20
-1.041270594449
 30
0.0
 11
65.658821779607
 21
-1.041270594449
 31
0.0
  0
LINE
  5
1B4
330
30
100
AcDbEntity
  8
1
100
AcDbLine
 10
65.658821779607
 20
-1.041270594449
 30
0.0
 11
65.746821779607
 21
-1.041270594449
 31
0.0
  0
LINE
  5
1B5
330
30
100
AcDbEntity
  8
1
100
AcDbLine
 10
65.746821779607
 20
-1.041270594449
 30
0.0
 11
65.834821779607
 21
-1.041270594449
 31
0.0
  0
LINE
  5
1B6
330
30
100
AcDbEntity
  8
1
100
AcDbLine
 10
65.834821779607
 20
-1.041270594449
 30
0.0
 11
65.922821779607
 21
-1.041270594449
 31
0.0
  0
LINE
  5
1B7
330
30
100
AcDbEntity
  8
1
100
AcDbLine
 10
65.922821779607
 20
-1.041270594449
 30
0.0
 11
66.010821779607
 21
-1.041270594449
 31
0.0
  0
LINE
  5
1B8
330
30
100
AcDbEntity
  8
1
100
AcDbLine
 10
66.010821779607
 20
-1.041270594449
 30
0.0
 11
66.098821779607
 21
-1.041270594449
 31
0.0
  0
LINE
  5
1B9
330
30
100
AcDbEntity
  8
1
100
AcDbLine
 10
66.098821779607
 20
-1.041270594449
 30
0.0
 11
66.186821779607
 21
-1.041270594449
 31
0.0
  0
LINE
  5
1BA
330
30
100
AcDbEntity
  8
1
100
AcDbLine
 10
66.186821779607
 20
-1.041270594449
 30
0.0
 11
66.274821779607
 21
-1.041270594449
 31
0.0
  0
LINE
  5
1BB
330
30
100
AcDbEntity
  8
1
100
AcDbLine
 10
66.274821779607
 20
-1.041270594449
 30
0.0
 11
66.362821779607
 21
-1.041270594449
 31
0.0
  0
LINE
  5
1BC
330
30
100
AcDbEntity
  8
1
100
AcDbLine
 10
66.362821779607
 20
-1.041270594449
 30
0.0
 11
66.450821779607
 21
-1.041270594449
 31
0.0
  0
LINE
  5
1BD
330
30
100
AcDbEntity
  8
1
100
AcDbLine
 10
66.450821779607
 20
-1.041270594449
 30
0.0
 11
66.538821779607
 21
-1.041270594449
 31
0.0
  0
LINE
  5
1BE
330
30
100
AcDbEntity
  8
1
100
AcDbLine
 10
66.538821779607
 20
-1.041270594449
 30
0.0
 11
66.626821779607
 21
-1.041270594449
 31
0.0
  0
LINE
  5
1BF
330
30
100
AcDbEntity
  8
1
100
AcDbLine
 10
66.626821779607
 20
-1.041270594449
 30
0.0
 11
66.714821779607
 21
-1.041270594449
 31
0.0
  0
LINE
  5
1C0
330
30
100
AcDbEntity
  8
1
100
AcDbLine
 10
66.714821779607
 20
-1.041270594449
 30
0.0
 11
66.802821779607
 21
-1.041270594449
 31
0.0
  0
LINE
  5
1C1
330
30
100
AcDbEntity
  8
1
100
AcDbLine
 10
66.802821779607
 20
-1.041270594449
 30
0.0
 11
66.890821779607
 21
-1.041270594449
 31
0.0
  0
LINE
  5
1C2
330
30
100
AcDbEntity
  8
1
100
AcDbLine
 10
66.890821779607
 20
-1.041270594449
 30
0.0
 11
66.978821779607
 21
-1.041270594449
 31
0.0
  0
LINE
  5
1C3
330
30
100
AcDbEntity
  8
1
100
AcDbLine
 10
66.978821779607
 20
-1.041270594449
 30
0.0
 11
67.066821779607
 21
-1.041270594449
 31
0.0
  0
LINE
  5
1C4
330
30
100
AcDbEntity
  8
1
100
AcDbLine
 10
67.066821779607
 20
-1.041270594449
 30
0.0
 11
67.154821779607
 21
-1.041270594449
 31
0.0
  0
LINE
  5
1C5
330
30
100
AcDbEntity
  8
1
100
AcDbLine
 10
67.154821779607
 20
-1.041270594449
 30
0.0
 11
67.242821779607
 21
-1.041270594449
 31
0.0
  0
LINE
  5
1C6
330
30
100
AcDbEntity
  8
1
100
AcDbLine
 10
67.242821779607
 20
-1.041270594449
 30
0.0
 11
67.330821779607
 21
-1.041270594449
 31
0.0
  0
LINE
  5
1C7
330
30
100
AcDbEntity
  8
1
100
AcDbLine
 10
67.330821779607
 20
-1.041270594449
 30
0.0
 11
67.418821779607
 21
-1.041270594449
 31
0.0
  0
LINE
  5
1C8
330
30
100
AcDbEntity
  8
1
100
AcDbLine
 10
67.418821779607
 20
-1.041270594449
 30
0.0
 11
67.506821779607
 21
-1.041270594449
 31
0.0
  0
LINE
  5
1C9
330
30
100
AcDbEntity
  8
1
100
AcDbLine
 10
67.506821779607
 20
-1.041270594449
 30
0.0
 11
67.594821779607
 21
-1.041270594449
 31
0.0
  0
LINE
  5
1CA
330
30
100
AcDbEntity
  8
1
100
AcDbLine
 10
67.594821779607
 20
-1.041270594449
 30
0.0
 11
67.682821779607
 21
-1.041270594449
 31
0.0
  0
LINE
  5
1CB
330
30
100
AcDbEntity
  8
1
100
AcDbLine
 10
67.682821779607
 20
-1.041270594449
 30
0.0
 11
67.770821779607
 21
-1.041270594449
 31
0.0
  0
LINE
  5
1CC
330
30
100
AcDbEntity
  8
1
100
AcDbLine
 10
67.770821779607
 20
-1.041270594449
 30
0.0
 11
67.858821779607
 21
-1.041270594449
 31
0.0
  0
LINE
  5
1CD
330
30
100
AcDbEntity
  8
1
100
AcDbLine
 10
67.858821779607
 20
-1.041270594449
 30
0.0
 11
67.946821779607
 21
-1.041270594449
 31
0.0
  0
LINE
  5
1CE
330
30
100
AcDbEntity
  8
1
100
AcDbLine
 10
67.946821779607
 20
-1.041270594449
 30
0.0
 11
68.034821779607
 21
-1.041270594449
 31
0.0
  0
LINE
  5
1CF
330
30
100
AcDbEntity
  8
1
100
AcDbLine
 10
68.034821779607
 20
-1.041270594449
 30
0.0
 11
68.122821779607
 21
-1.041270594449
 31
0.0
  0
LINE
  5
1D0
330
30
100
AcDbEntity
  8
1
100
AcDbLine
 10
68.122821779607
 20
-1.041270594449
 30
0.0
 11
68.210821779607
 21
-1.041270594449
 31
0.0
  0
LINE
  5
1D1
330
30
100
AcDbEntity
  8
1
100
AcDbLine
 10
68.210821779607
 20
-1.041270594449
 30
0.0
 11
68.298821779607
 21
-1.041270594449
 31
0.0
  0
LINE
  5
1D2
330
30
100
AcDbEntity
  8
1
100
AcDbLine
 10
68.298821779607
 20
-1.041270594449
 30
0.0
 11
68.386821779607
 21
-1.041270594449
 31
0.0
  0
LINE
  5
1D3
330
30
100
AcDbEntity
  8
1
100
AcDbLine
 10
68.386821779607
 20
-1.041270594449
 30
0.0
 11
68.474821779607
 21
-1.041270594449
 31
0.0
  0
LINE
  5
1D4
330
30
100
AcDbEntity
  8
1
100
AcDbLine
 10
68.474821779607
 20
-1.041270594449
 30
0.0
 11
68.562821779607
 21
-1.041270594449
 31
0.0
  0
LINE
  5
1D5
330
30
100
AcDbEntity
  8
1
100
AcDbLine
 10
68.562821779607
 20
-1.041270594449
 30
0.0
 11
68.650821779607
 21
-1.041270594449
 31
0.0
  0
LINE
  5
1D6
330
30
100
AcDbEntity
  8
1
100
AcDbLine
 10
68.650821779607
 20
-1.041270594449
 30
0.0
 11
68.738821779607
 21
-1.041270594449
 31
0.0
  0
LINE
  5
1D7
330
30
100
AcDbEntity
  8
1
100
AcDbLine
 10
68.738821779607
 20
-1.041270594449
 30
0.0
 11
68.826821779607
 21
-1.041270594449
 31
0.0
  0
LINE
  5
1D8
330
30
100
AcDbEntity
  8
1
100
AcDbLine
 10
68.826821779607
 20
-1.041270594449
 30
0.0
 11
68.914821779607
 21
-1.041270594449
 31
0.0
  0
LINE
  5
1D9
330
30
100
AcDbEntity
  8
1
100
AcDbLine
 10
68.914821779607
 20
-1.041270594449
 30
0.0
 11
69.002821779607
 21
-1.041270594449
 31
0.0
  0
LINE
  5
1DA
330
30
100
AcDbEntity
  8
1
100
AcDbLine
 10
69.002821779607
 20
-1.041270594449
 30
0.0
 11
69.090821779607
 21
-1.041270594449
 31
0.0
  0
LINE
  5
1DB
330
30
100
AcDbEntity
  8
1
100
AcDbLine
 10
69.090821779607
 20
-1.041270594449
 30
0.0
 11
69.178821779607
 21
-1.041270594449
 31
0.0
  0
LINE
  5
1DC
330
30
100
AcDbEntity
  8
1
100
AcDbLine
 10
69.178821779607
 20
-1.041270594449
 30
0.0
 11
69.266821779607
 21
-1.041270594449
 31
0.0
  0
LINE
  5
1DD
330
30
100
AcDbEntity
  8
1
100
AcDbLine
 10
69.266821779607
 20
-1.041270594449
 30
0.0
 11
69.354821779607
 21
-1.041270594449
 31
0.0
  0
LINE
  5
1DE
330
30
100
AcDbEntity
  8
1
100
AcDbLine
 10
69.354821779607
 20
-1.041270594449
 30
0.0
 11
69.442821779607
 21
-1.041270594449
 31
0.0
  0
LINE
  5
1DF
330
30
100
AcDbEntity
  8
1
100
AcDbLine
 10
69.442821779607
 20
-1.041270594449
 30
0.0
 11
69.530821779607
 21
-1.041270594449
 31
0.0
  0
LINE
  5
1E0
330
30
100
AcDbEntity
  8
1
100
AcDbLine
 10
69.530821779607
 20
-1.041270594449
 30
0.0
 11
69.618821779607
 21
-1.041270594449
 31
0.0
  0
LINE
  5
1E1
330
30
100
AcDbEntity
  8
1
100
AcDbLine
 10
69.618821779607
 20
-1.041270594449
 30
0.0
 11
69.706821779607
 21
-1.041270594449
 31
0.0
  0
LINE
  5
1E2
330
30
100
AcDbEntity
  8
1
100
AcDbLine
 10
69.706821779607
 20
-1.041270594449
 30
0.0
 11
69.794821779607
 21
-1.041270594449
 31
0.0
  0
LINE
  5
1E3
330
30
100
AcDbEntity
  8
1
100
AcDbLine
 10
69.794821779607
 20
-1.041270594449
 30
0.0
 11
69.882821779607
 21
-1.041270594449
 31
0.0
  0
LINE
  5
1E4
330
30
100
AcDbEntity
  8
1
100
AcDbLine
 10
69.882821779607
 20
-1.041270594449
 30
0.0
 11
69.970821779607
 21
-1.041270594449
 31
0.0
  0
LINE
  5
1E5
330
30
100
AcDbEntity
  8
1
100
AcDbLine
 10
69.970821779607
 20
-1.041270594449
 30
0.0
 11
70.058821779607
 21
-1.041270594449
 31
0.0
  0
LINE
  5
1E6
330
30
100
AcDbEntity
  8
1
100
AcDbLine
 10
70.058821779607
 20
-1.041270594449
 30
0.0
 11
70.146821779607
 21
-1.041270594449
 31
0.0
  0
LINE
  5
1E7
330
30
100
AcDbEntity
  8
1
100
AcDbLine
 10
70.146821779607
 20
-1.041270594449
 30
0.0
 11
70.234821779607
 21
-1.041270594449
 31
0.0
  0
LINE
  5
1E8
330
30
100
AcDbEntity
  8
1
100
AcDbLine
 10
70.234821779607
 20
-1.041270594449
 30
0.0
 11
70.322821779607
 21
-1.041270594449
 31
0.0
  0
LINE
  5
1E9
330
30
100
AcDbEntity
  8
1
100
AcDbLine
 10
70.322821779607
 20
-1.041270594449
 30
0.0
 11
70.410821779607
 21
-1.041270594449
 31
0.0
  0
LINE
  5
1EA
330
30
100
AcDbEntity
  8
1
100
AcDbLine
 10
70.410821779607
 20
-1.041270594449
 30
0.0
 11
70.498821779607
 21
-1.041270594449
 31
0.0
  0
LINE
  5
1EB
330
30
100
AcDbEntity
  8
1
100
AcDbLine
 10
70.498821779607
 20
-1.041270594449
 30
0.0
 11
70.586821779607
 21
-1.041270594449
 31
0.0
  0
LINE
  5
1EC
330
30
100
AcDbEntity
  8
1
100
AcDbLine
 10
70.586821779607
 20
-1.041270594449
 30
0.0
 11
70.674821779607
 21
-1.041270594449
 31
0.0
  0
LINE
  5
1ED
330
30
100
AcDbEntity
  8
1
100
AcDbLine
 10
70.674821779607
 20
-1.041270594449
 30
0.0
 11
70.762821779607
 21
-1.041270594449
 31
0.0
  0
LINE
  5
1EE
330
30
100
AcDbEntity
  8
1
100
AcDbLine
 10
70.762821779607
 20
-1.041270594449
 30
0.0
 11
70.850821779607
 21
-1.041270594449
 31
0.0
  0
LINE
  5
1EF
330
30
100
AcDbEntity
  8
1
100
AcDbLine
 10
70.850821779607
 20
-1.041270594449
 30
0.0
 11
70.938821779607
 21
-1.041270594449
 31
0.0
  0
LINE
  5
1F0
330
30
100
AcDbEntity
  8
1
100
AcDbLine
 10
70.938821779607
 20
-1.041270594449
 30
0.0
 11
71.026821779607
 21
-1.041270594449
 31
0.0
  0
LINE
  5
1F1
330
30
100
AcDbEntity
  8
1
100
AcDbLine
 10
71.026821779607
 20
-1.041270594449
 30
0.0
 11
71.114821779607
 21
-1.041270594449
 31
0.0
  0
LINE
  5
1F2
330
30
100
AcDbEntity
  8
1
100
AcDbLine
 10
71.114821779607
 20
-1.041270594449
 30
0.0
 11
71.202821779607
 21
-1.041270594449
 31
0.0
  0
LINE
  5
1F3
330
30
100
AcDbEntity
  8
1
100
AcDbLine
 10
71.202821779607
 20
-1.041270594449
 30
0.0
 11
71.290821779607
 21
-1.067279245372
 31
0.0
  0
LINE
  5
1F4
330
30
100
AcDbEntity
  8
1
100
AcDbLine
 10
71.290821779607
 20
-1.067279245372
 30
0.0
 11
71.378821779607
 21
-1.095553690304
 31
0.0
  0
LINE
  5
1F5
330
30
100
AcDbEntity
  8
1
100
AcDbLine
 10
71.378821779607
 20
-1.095553690304
 30
0.0
 11
71.466821779607
 21
-1.123824139499
 31
0.0
  0
LINE
  5
1F6
330
30
100
AcDbEntity
  8
1
100
AcDbLine
 10
71.466821779607
 20
-1.123824139499
 30
0.0
 11
71.554821779607
 21
-1.152090853749
 31
0.0
  0
LINE
  5
1F7
330
30
100
AcDbEntity
  8
1
100
AcDbLine
 10
71.554821779607
 20
-1.152090853749
 30
0.0
 11
71.642821779607
 21
-1.1803540716
 31
0.0
  0
LINE
  5
1F8
330
30
100
AcDbEntity
  8
1
100
AcDbLine
 10
71.642821779607
 20
-1.1803540716
 30
0.0
 11
71.730821779607
 21
-1.208614011683
 31
0.0
  0
LINE
  5
1F9
330
30
100
AcDbEntity
  8
1
100
AcDbLine
 10
71.730821779607
 20
-1.208614011683
 30
0.0
 11
71.818821779607
 21
-1.236870874751
 31
0.0
  0
LINE
  5
1FA
330
30
100
AcDbEntity
  8
1
100
AcDbLine
 10
71.818821779607
 20
-1.236870874751
 30
0.0
 11
71.906821779607
 21
-1.265124845472
 31
0.0
  0
LINE
  5
1FB
330
30
100
AcDbEntity
  8
1
100
AcDbLine
 10
71.906821779607
 20
-1.265124845472
 30
0.0
 11
71.994821779607
 21
-1.293376094009
 31
0.0
  0
LINE
  5
1FC
330
30
100
AcDbEntity
  8
1
100
AcDbLine
 10
71.994821779607
 20
-1.293376094009
 30
0.0
 11
72.082821779607
 21
-1.321624777419
 31
0.0
  0
LINE
  5
1FD
330
30
100
AcDbEntity
  8
1
100
AcDbLine
 10
72.082821779607
 20
-1.321624777419
 30
0.0
 11
72.170821779607
 21
-1.349871040893
 31
0.0
  0
LINE
  5
1FE
330
30
100
AcDbEntity
  8
1
100
AcDbLine
 10
72.170821779607
 20
-1.349871040893
 30
0.0
 11
72.258821779607
 21
-1.375
 31
0.0
  0
LINE
  5
1FF
330
30
100
AcDbEntity
  8
1
100
AcDbLine
 10
72.258821779607
 20
-1.375
 30
0.0
 11
72.346821779607
 21
-1.375
 31
0.0
  0
LINE
  5
200
330
30
100
AcDbEntity
  8
1
100
AcDbLine
 10
72.346821779607
 20
-1.375
 30
0.0
 11
72.434821779607
 21
-1.375
 31
0.0
  0
LINE
  5
201
330
30
100
AcDbEntity
  8
1
100
AcDbLine
 10
72.434821779607
 20
-1.375
 30
0.0
 11
72.522821779607
 21
-1.375
 31
0.0
  0
LINE
  5
202
330
30
100
AcDbEntity
  8
1
100
AcDbLine
 10
72.522821779607
 20
-1.375
 30
0.0
 11
72.610821779607
 21
-1.375
 31
0.0
  0
LINE
  5
203
330
30
100
AcDbEntity
  8
1
100
AcDbLine
 10
72.610821779607
 20
-1.375
 30
0.0
 11
72.698821779607
 21
-1.375
 31
0.0
  0
LINE
  5
204
330
30
100
AcDbEntity
  8
1
100
AcDbLine
 10
72.698821779607
 20
-1.375
 30
0.0
 11
72.786821779607
 21
-1.375
 31
0.0
  0
LINE
  5
205
330
30
100
AcDbEntity
  8
1
100
AcDbLine
 10
72.786821779607
 20
-1.375
 30
0.0
 11
72.874821779607
 21
-1.375
 31
0.0
  0
LINE
  5
206
330
30
100
AcDbEntity
  8
1
100
AcDbLine
 10
72.874821779607
 20
-1.375
 30
0.0
 11
72.962821779607
 21
-1.375
 31
0.0
  0
LINE
  5
207
330
30
100
AcDbEntity
  8
1
100
AcDbLine
 10
72.962821779607
 20
-1.375
 30
0.0
 11
73.050821779607
 21
-1.375
 31
0.0
  0
LINE
  5
208
330
30
100
AcDbEntity
  8
1
100
AcDbLine
 10
73.050821779607
 20
-1.375
 30
0.0
 11
73.138821779607
 21
-1.375
 31
0.0
  0
LINE
  5
209
330
30
100
AcDbEntity
  8
1
100
AcDbLine
 10
73.138821779607
 20
-1.375
 30
0.0
 11
73.226821779607
 21
-1.375
 31
0.0
  0
LINE
  5
20A
330
30
100
AcDbEntity
  8
1
100
AcDbLine
 10
73.226821779607
 20
-1.375
 30
0.0
 11
73.314821779607
 21
-1.375
 31
0.0
  0
LINE
  5
20B
330
30
100
AcDbEntity
  8
1
100
AcDbLine
 10
73.314821779607
 20
-1.375
 30
0.0
 11
73.402821779607
 21
-1.375
 31
0.0
  0
LINE
  5
20C
330
30
100
AcDbEntity
  8
1
100
AcDbLine
 10
73.402821779607
 20
-1.375
 30
0.0
 11
73.490821779607
 21
-1.375
 31
0.0
  0
LINE
  5
20D
330
30
100
AcDbEntity
  8
1
100
AcDbLine
 10
73.490821779607
 20
-1.375
 30
0.0
 11
73.578821779607
 21
-1.375
 31
0.0
  0
LINE
  5
20E
330
30
100
AcDbEntity
  8
1
100
AcDbLine
 10
73.578821779607
 20
-1.375
 30
0.0
 11
73.666821779607
 21
-1.375
 31
0.0
  0
LINE
  5
20F
330
30
100
AcDbEntity
  8
1
100
AcDbLine
 10
73.666821779607
 20
-1.375
 30
0.0
 11
73.754821779607
 21
-1.375
 31
0.0
  0
LINE
  5
210
330
30
100
AcDbEntity
  8
1
100
AcDbLine
 10
73.754821779607
 20
-1.375
 30
0.0
 11
73.842821779607
 21
-1.375
 31
0.0
  0
LINE
  5
211
330
30
100
AcDbEntity
  8
1
100
AcDbLine
 10
73.842821779607
 20
-1.375
 30
0.0
 11
73.930821779607
 21
-1.375
 31
0.0
  0
LINE
  5
212
330
30
100
AcDbEntity
  8
1
100
AcDbLine
 10
73.930821779607
 20
-1.375
 30
0.0
 11
74.018821779607
 21
-1.375
 31
0.0
  0
LINE
  5
213
330
30
100
AcDbEntity
  8
1
100
AcDbLine
 10
74.018821779607
 20
-1.375
 30
0.0
 11
74.106821779607
 21
-1.375
 31
0.0
  0
LINE
  5
214
330
30
100
AcDbEntity
  8
1
100
AcDbLine
 10
74.106821779607
 20
-1.375
 30
0.0
 11
74.194821779607
 21
-1.375
 31
0.0
  0
LINE
  5
215
330
30
100
AcDbEntity
  8
1
100
AcDbLine
 10
74.194821779607
 20
-1.375
 30
0.0
 11
74.282821779607
 21
-1.375
 31
0.0
  0
LINE
  5
216
330
30
100
AcDbEntity
  8
1
100
AcDbLine
 10
74.282821779607
 20
-1.375
 30
0.0
 11
74.370821779607
 21
-1.375
 31
0.0
  0
LINE
  5
217
330
30
100
AcDbEntity
  8
1
100
AcDbLine
 10
74.370821779607
 20
-1.375
 30
0.0
 11
74.458821779607
 21
-1.375
 31
0.0
  0
LINE
  5
218
330
30
100
AcDbEntity
  8
1
100
AcDbLine
 10
74.458821779607
 20
-1.375
 30
0.0
 11
74.546821779607
 21
-1.375
 31
0.0
  0
LINE
  5
219
330
30
100
AcDbEntity
  8
1
100
AcDbLine
 10
74.546821779607
 20
-1.375
 30
0.0
 11
74.634821779607
 21
-1.375
 31
0.0
  0
LINE
  5
21A
330
30
100
AcDbEntity
  8
1
100
AcDbLine
 10
74.634821779607
 20
-1.375
 30
0.0
 11
74.722821779607
 21
-1.375
 31
0.0
  0
LINE
  5
21B
330
30
100
AcDbEntity
  8
1
100
AcDbLine
 10
74.722821779607
 20
-1.375
 30
0.0
 11
74.810821779607
 21
-1.375
 31
0.0
  0
LINE
  5
21C
330
30
100
AcDbEntity
  8
1
100
AcDbLine
 10
74.810821779607
 20
-1.375
 30
0.0
 11
74.898821779607
 21
-1.375
 31
0.0
  0
LINE
  5
21D
330
30
100
AcDbEntity
  8
1
100
AcDbLine
 10
74.898821779607
 20
-1.375
 30
0.0
 11
74.986821779607
 21
-1.375
 31
0.0
  0
LINE
  5
21E
330
30
100
AcDbEntity
  8
1
100
AcDbLine
 10
74.986821779607
 20
-1.375
 30
0.0
 11
75.074821779607
 21
-1.375
 31
0.0
  0
LINE
  5
21F
330
30
100
AcDbEntity
  8
1
100
AcDbLine
 10
75.074821779607
 20
-1.375
 30
0.0
 11
75.162821779607
 21
-1.375
 31
0.0
  0
LINE
  5
220
330
30
100
AcDbEntity
  8
1
100
AcDbLine
 10
75.162821779607
 20
-1.375
 30
0.0
 11
75.250821779607
 21
-1.375
 31
0.0
  0
LINE
  5
221
330
30
100
AcDbEntity
  8
1
100
AcDbLine
 10
75.250821779607
 20
-1.375
 30
0.0
 11
75.338821779607
 21
-1.375
 31
0.0
  0
LINE
  5
222
330
30
100
AcDbEntity
  8
1
100
AcDbLine
 10
75.338821779607
 20
-1.375
 30
0.0
 11
75.426821779607
 21
-1.375
 31
0.0
  0
LINE
  5
223
330
30
100
AcDbEntity
  8
1
100
AcDbLine
 10
75.426821779607
 20
-1.375
 30
0.0
 11
75.514821779607
 21
-1.375
 31
0.0
  0
LINE
  5
224
330
30
100
AcDbEntity
  8
1
100
AcDbLine
 10
75.514821779607
 20
-1.375
 30
0.0
 11
75.602821779607
 21
-1.375
 31
0.0
  0
LINE
  5
225
330
30
100
AcDbEntity
  8
1
100
AcDbLine
 10
75.602821779607
 20
-1.375
 30
0.0
 11
75.690821779607
 21
-1.375
 31
0.0
  0
LINE
  5
226
330
30
100
AcDbEntity
  8
1
100
AcDbLine
 10
75.690821779607
 20
-1.375
 30
0.0
 11
75.778821779607
 21
-1.375
 31
0.0
  0
LINE
  5
227
330
30
100
AcDbEntity
  8
1
100
AcDbLine
 10
75.778821779607
 20
-1.375
 30
0.0
 11
75.866821779607
 21
-1.375
 31
0.0
  0
LINE
  5
228
330
30
100
AcDbEntity
  8
1
100
AcDbLine
 10
75.866821779607
 20
-1.375
 30
0.0
 11
75.954821779607
 21
-1.375
 31
0.0
  0
LINE
  5
229
330
30
100
AcDbEntity
  8
1
100
AcDbLine
 10
75.954821779607
 20
-1.375
 30
0.0
 11
76.042821779607
 21
-1.375
 31
0.0
  0
LINE
  5
22A
330
30
100
AcDbEntity
  8
1
100
AcDbLine
 10
76.042821779607
 20
-1.375
 30
0.0
 11
76.130821779607
 21
-1.375
 31
0.0
  0
LINE
  5
22B
330
30
100
AcDbEntity
  8
1
100
AcDbLine
 10
76.130821779607
 20
-1.375
 30
0.0
 11
76.218821779607
 21
-1.375
 31
0.0
  0
LINE
  5
22C
330
30
100
AcDbEntity
  8
1
100
AcDbLine
 10
76.218821779607
 20
-1.375
 30
0.0
 11
76.306821779607
 21
-1.375
 31
0.0
  0
LINE
  5
22D
330
30
100
AcDbEntity
  8
1
100
AcDbLine
 10
76.306821779607
 20
-1.375
 30
0.0
 11
76.394821779607
 21
-1.375
 31
0.0
  0
LINE
  5
22E
330
30
100
AcDbEntity
  8
1
100
AcDbLine
 10
76.394821779607
 20
-1.375
 30
0.0
 11
76.482821779607
 21
-1.375
 31
0.0
  0
LINE
  5
22F
330
30
100
AcDbEntity
  8
1
100
AcDbLine
 10
76.482821779607
 20
-1.375
 30
0.0
 11
76.570821779607
 21
-1.375
 31
0.0
  0
LINE
  5
230
330
30
100
AcDbEntity
  8
1
100
AcDbLine
 10
76.570821779607
 20
-1.375
 30
0.0
 11
76.658821779607
 21
-1.375
 31
0.0
  0
LINE
  5
231
330
30
100
AcDbEntity
  8
1
100
AcDbLine
 10
76.658821779607
 20
-1.375
 30
0.0
 11
76.746821779607
 21
-1.375
 31
0.0
  0
LINE
  5
232
330
30
100
AcDbEntity
  8
1
100
AcDbLine
 10
76.746821779607
 20
-1.375
 30
0.0
 11
76.834821779607
 21
-1.375
 31
0.0
  0
LINE
  5
233
330
30
100
AcDbEntity
  8
1
100
AcDbLine
 10
76.834821779607
 20
-1.375
 30
0.0
 11
76.922821779607
 21
-1.375
 31
0.0
  0
LINE
  5
234
330
30
100
AcDbEntity
  8
1
100
AcDbLine
 10
76.922821779607
 20
-1.375
 30
0.0
 11
77.010821779607
 21
-1.375
 31
0.0
  0
LINE
  5
235
330
30
100
AcDbEntity
  8
1
100
AcDbLine
 10
77.010821779607
 20
-1.375
 30
0.0
 11
77.098821779607
 21
-1.375
 31
0.0
  0
LINE
  5
236
330
30
100
AcDbEntity
  8
1
100
AcDbLine
 10
77.098821779607
 20
-1.375
 30
0.0
 11
77.186821779607
 21
-1.375
 31
0.0
  0
LINE
  5
237
330
30
100
AcDbEntity
  8
1
100
AcDbLine
 10
77.186821779607
 20
-1.375
 30
0.0
 11
77.274821779607
 21
-1.375
 31
0.0
  0
LINE
  5
238
330
30
100
AcDbEntity
  8
1
100
AcDbLine
 10
77.274821779607
 20
-1.375
 30
0.0
 11
77.362821779607
 21
-1.375
 31
0.0
  0
LINE
  5
239
330
30
100
AcDbEntity
  8
1
100
AcDbLine
 10
77.362821779607
 20
-1.375
 30
0.0
 11
77.450821779607
 21
-1.375
 31
0.0
  0
LINE
  5
23A
330
30
100
AcDbEntity
  8
1
100
AcDbLine
 10
77.450821779607
 20
-1.375
 30
0.0
 11
77.538821779607
 21
-1.375
 31
0.0
  0
LINE
  5
23B
330
30
100
AcDbEntity
  8
1
100
AcDbLine
 10
77.538821779607
 20
-1.375
 30
0.0
 11
77.626821779607
 21
-1.375
 31
0.0
  0
LINE
  5
23C
330
30
100
AcDbEntity
  8
1
100
AcDbLine
 10
77.626821779607
 20
-1.375
 30
0.0
 11
77.714821779607
 21
-1.375
 31
0.0
  0
LINE
  5
23D
330
30
100
AcDbEntity
  8
1
100
AcDbLine
 10
77.714821779607
 20
-1.375
 30
0.0
 11
77.802821779607
 21
-1.375
 31
0.0
  0
LINE
  5
23E
330
30
100
AcDbEntity
  8
1
100
AcDbLine
 10
77.802821779607
 20
-1.375
 30
0.0
 11
77.890821779607
 21
-1.375
 31
0.0
  0
LINE
  5
23F
330
30
100
AcDbEntity
  8
1
100
AcDbLine
 10
77.890821779607
 20
-1.375
 30
0.0
 11
77.978821779607
 21
-1.375
 31
0.0
  0
LINE
  5
240
330
30
100
AcDbEntity
  8
1
100
AcDbLine
 10
77.978821779607
 20
-1.375
 30
0.0
 11
78.066821779607
 21
-1.375
 31
0.0
  0
LINE
  5
241
330
30
100
AcDbEntity
  8
1
100
AcDbLine
 10
78.066821779607
 20
-1.375
 30
0.0
 11
78.154821779607
 21
-1.375
 31
0.0
  0
LINE
  5
242
330
30
100
AcDbEntity
  8
1
100
AcDbLine
 10
78.154821779607
 20
-1.375
 30
0.0
 11
78.242821779607
 21
-1.375
 31
0.0
  0
LINE
  5
243
330
30
100
AcDbEntity
  8
1
100
AcDbLine
 10
78.242821779607
 20
-1.375
 30
0.0
 11
78.330821779607
 21
-1.375
 31
0.0
  0
LINE
  5
244
330
30
100
AcDbEntity
  8
1
100
AcDbLine
 10
78.330821779607
 20
-1.375
 30
0.0
 11
78.418821779607
 21
-1.375
 31
0.0
  0
LINE
  5
245
330
30
100
AcDbEntity
  8
1
100
AcDbLine
 10
78.418821779607
 20
-1.375
 30
0.0
 11
78.506821779607
 21
-1.375
 31
0.0
  0
LINE
  5
246
330
30
100
AcDbEntity
  8
1
100
AcDbLine
 10
78.506821779607
 20
-1.375
 30
0.0
 11
78.594821779607
 21
-1.375
 31
0.0
  0
LINE
  5
247
330
30
100
AcDbEntity
  8
1
100
AcDbLine
 10
78.594821779607
 20
-1.375
 30
0.0
 11
78.682821779607
 21
-1.375
 31
0.0
  0
LINE
  5
248
330
30
100
AcDbEntity
  8
1
100
AcDbLine
 10
78.682821779607
 20
-1.375
 30
0.0
 11
78.770821779607
 21
-1.375
 31
0.0
  0
LINE
  5
249
330
30
100
AcDbEntity
  8
1
100
AcDbLine
 10
78.770821779607
 20
-1.375
 30
0.0
 11
78.858821779607
 21
-1.375
 31
0.0
  0
LINE
  5
24A
330
30
100
AcDbEntity
  8
1
100
AcDbLine
 10
78.858821779607
 20
-1.375
 30
0.0
 11
78.946821779607
 21
-1.375
 31
0.0
  0
LINE
  5
24B
330
30
100
AcDbEntity
  8
1
100
AcDbLine
 10
78.946821779607
 20
-1.375
 30
0.0
 11
79.034821779607
 21
-1.375
 31
0.0
  0
LINE
  5
24C
330
30
100
AcDbEntity
  8
1
100
AcDbLine
 10
79.034821779607
 20
-1.375
 30
0.0
 11
79.122821779607
 21
-1.375
 31
0.0
  0
LINE
  5
24D
330
30
100
AcDbEntity
  8
1
100
AcDbLine
 10
79.122821779607
 20
-1.375
 30
0.0
 11
79.210821779607
 21
-1.375
 31
0.0
  0
LINE
  5
24E
330
30
100
AcDbEntity
  8
1
100
AcDbLine
 10
79.210821779607
 20
-1.375
 30
0.0
 11
79.298821779607
 21
-1.375
 31
0.0
  0
LINE
  5
24F
330
30
100
AcDbEntity
  8
1
100
AcDbLine
 10
79.298821779607
 20
-1.375
 30
0.0
 11
79.386821779607
 21
-1.375
 31
0.0
  0
LINE
  5
250
330
30
100
AcDbEntity
  8
1
100
AcDbLine
 10
79.386821779607
 20
-1.375
 30
0.0
 11
79.474821779607
 21
-1.375
 31
0.0
  0
LINE
  5
251
330
30
100
AcDbEntity
  8
1
100
AcDbLine
 10
79.474821779607
 20
-1.375
 30
0.0
 11
79.562821779607
 21
-1.375
 31
0.0
  0
LINE
  5
252
330
30
100
AcDbEntity
  8
1
100
AcDbLine
 10
79.562821779607
 20
-1.375
 30
0.0
 11
79.650821779607
 21
-1.375
 31
0.0
  0
LINE
  5
253
330
30
100
AcDbEntity
  8
1
100
AcDbLine
 10
79.650821779607
 20
-1.375
 30
0.0
 11
79.738821779607
 21
-1.375
 31
0.0
  0
LINE
  5
254
330
30
100
AcDbEntity
  8
1
100
AcDbLine
 10
79.738821779607
 20
-1.375
 30
0.0
 11
79.826821779607
 21
-1.375
 31
0.0
  0
LINE
  5
255
330
30
100
AcDbEntity
  8
1
100
AcDbLine
 10
79.826821779607
 20
-1.375
 30
0.0
 11
79.914821779607
 21
-1.375
 31
0.0
  0
LINE
  5
256
330
30
100
AcDbEntity
  8
1
100
AcDbLine
 10
79.914821779607
 20
-1.375
 30
0.0
 11
80.002821779607
 21
-1.375
 31
0.0
  0
LINE
  5
257
330
30
100
AcDbEntity
  8
1
100
AcDbLine
 10
80.002821779607
 20
-1.375
 30
0.0
 11
80.090821779607
 21
-1.375
 31
0.0
  0
LINE
  5
258
330
30
100
AcDbEntity
  8
1
100
AcDbLine
 10
80.090821779607
 20
-1.375
 30
0.0
 11
80.178821779607
 21
-1.375
 31
0.0
  0
LINE
  5
259
330
30
100
AcDbEntity
  8
1
100
AcDbLine
 10
80.178821779607
 20
-1.375
 30
0.0
 11
80.266821779607
 21
-1.375
 31
0.0
  0
LINE
  5
25A
330
30
100
AcDbEntity
  8
1
100
AcDbLine
 10
80.266821779607
 20
-1.375
 30
0.0
 11
80.354821779607
 21
-1.375
 31
0.0
  0
LINE
  5
25B
330
30
100
AcDbEntity
  8
1
100
AcDbLine
 10
80.354821779607
 20
-1.375
 30
0.0
 11
80.442821779607
 21
-1.375
 31
0.0
  0
LINE
  5
25C
330
30
100
AcDbEntity
  8
1
100
AcDbLine
 10
80.442821779607
 20
-1.375
 30
0.0
 11
80.530821779607
 21
-1.375
 31
0.0
  0
LINE
  5
25D
330
30
100
AcDbEntity
  8
1
100
AcDbLine
 10
80.530821779607
 20
-1.375
 30
0.0
 11
80.618821779607
 21
-1.375
 31
0.0
  0
LINE
  5
25E
330
30
100
AcDbEntity
  8
1
100
AcDbLine
 10
80.618821779607
 20
-1.375
 30
0.0
 11
80.706821779607
 21
-1.375
 31
0.0
  0
LINE
  5
25F
330
30
100
AcDbEntity
  8
1
100
AcDbLine
 10
80.706821779607
 20
-1.375
 30
0.0
 11
80.794821779607
 21
-1.375
 31
0.0
  0
LINE
  5
260
330
30
100
AcDbEntity
  8
1
100
AcDbLine
 10
80.794821779607
 20
-1.375
 30
0.0
 11
80.882821779607
 21
-1.375
 31
0.0
  0
LINE
  5
261
330
30
100
AcDbEntity
  8
1
100
AcDbLine
 10
80.882821779607
 20
-1.375
 30
0.0
 11
80.970821779607
 21
-1.375
 31
0.0
  0
LINE
  5
262
330
30
100
AcDbEntity
  8
1
100
AcDbLine
 10
80.970821779607
 20
-1.375
 30
0.0
 11
81.058821779607
 21
-1.374190690041
 31
0.0
  0
LINE
  5
263
330
30
100
AcDbEntity
  8
1
100
AcDbLine
 10
81.058821779607
 20
-1.374190690041
 30
0.0
 11
81.146821779607
 21
-1.366852823109
 31
0.0
  0
LINE
  5
264
330
30
100
AcDbEntity
  8
1
100
AcDbLine
 10
81.146821779607
 20
-1.366852823109
 30
0.0
 11
81.234821779607
 21
-1.359514807087
 31
0.0
  0
LINE
  5
265
330
30
100
AcDbEntity
  8
1
100
AcDbLine
 10
81.234821779607
 20
-1.359514807087
 30
0.0
 11
81.322821779607
 21
-1.352176639787
 31
0.0
  0
LINE
  5
266
330
30
100
AcDbEntity
  8
1
100
AcDbLine
 10
81.322821779607
 20
-1.352176639787
 30
0.0
 11
81.410821779607
 21
-1.344838318976
 31
0.0
  0
LINE
  5
267
330
30
100
AcDbEntity
  8
1
100
AcDbLine
 10
81.410821779607
 20
-1.344838318976
 30
0.0
 11
81.498821779607
 21
-1.337499842378
 31
0.0
  0
LINE
  5
268
330
30
100
AcDbEntity
  8
1
100
AcDbLine
 10
81.498821779607
 20
-1.337499842378
 30
0.0
 11
81.586821779607
 21
-1.330161207673
 31
0.0
  0
LINE
  5
269
330
30
100
AcDbEntity
  8
1
100
AcDbLine
 10
81.586821779607
 20
-1.330161207673
 30
0.0
 11
81.674821779607
 21
-1.322822412493
 31
0.0
  0
LINE
  5
26A
330
30
100
AcDbEntity
  8
1
100
AcDbLine
 10
81.674821779607
 20
-1.322822412493
 30
0.0
 11
81.762821779607
 21
-1.315483454422
 31
0.0
  0
LINE
  5
26B
330
30
100
AcDbEntity
  8
1
100
AcDbLine
 10
81.762821779607
 20
-1.315483454422
 30
0.0
 11
81.850821779607
 21
-1.308144330996
 31
0.0
  0
LINE
  5
26C
330
30
100
AcDbEntity
  8
1
100
AcDbLine
 10
81.850821779607
 20
-1.308144330996
 30
0.0
 11
81.938821779607
 21
-1.300805039702
 31
0.0
  0
LINE
  5
26D
330
30
100
AcDbEntity
  8
1
100
AcDbLine
 10
81.938821779607
 20
-1.300805039702
 30
0.0
 11
82.026821779607
 21
-1.293465577974
 31
0.0
  0
LINE
  5
26E
330
30
100
AcDbEntity
  8
1
100
AcDbLine
 10
82.026821779607
 20
-1.293465577974
 30
0.0
 11
82.114821779607
 21
-1.286125943195
 31
0.0
  0
LINE
  5
26F
330
30
100
AcDbEntity
  8
1
100
AcDbLine
 10
82.114821779607
 20
-1.286125943195
 30
0.0
 11
82.202821779607
 21
-1.278786132692
 31
0.0
  0
LINE
  5
270
330
30
100
AcDbEntity
  8
1
100
AcDbLine
 10
82.202821779607
 20
-1.278786132692
 30
0.0
 11
82.290821779607
 21
-1.271446143738
 31
0.0
  0
LINE
  5
271
330
30
100
AcDbEntity
  8
1
100
AcDbLine
 10
82.290821779607
 20
-1.271446143738
 30
0.0
 11
82.378821779607
 21
-1.26410597355
 31
0.0
  0
LINE
  5
272
330
30
100
AcDbEntity
  8
1
100
AcDbLine
 10
82.378821779607
 20
-1.26410597355
 30
0.0
 11
82.466821779607
 21
-1.256765619285
 31
0.0
  0
LINE
  5
273
330
30
100
AcDbEntity
  8
1
100
AcDbLine
 10
82.466821779607
 20
-1.256765619285
 30
0.0
 11
82.554821779607
 21
-1.249425078041
 31
0.0
  0
LINE
  5
274
330
30
100
AcDbEntity
  8
1
100
AcDbLine
 10
82.554821779607
 20
-1.249425078041
 30
0.0
 11
82.642821779607
 21
-1.242084346854
 31
0.0
  0
LINE
  5
275
330
30
100
AcDbEntity
  8
1
100
AcDbLine
 10
82.642821779607
 20
-1.242084346854
 30
0.0
 11
82.730821779607
 21
-1.234743422699
 31
0.0
  0
LINE
  5
276
330
30
100
AcDbEntity
  8
1
100
AcDbLine
 10
82.730821779607
 20
-1.234743422699
 30
0.0
 11
82.818821779607
 21
-1.227402302484
 31
0.0
  0
LINE
  5
277
330
30
100
AcDbEntity
  8
1
100
AcDbLine
 10
82.818821779607
 20
-1.227402302484
 30
0.0
 11
82.906821779607
 21
-1.22006098305
 31
0.0
  0
LINE
  5
278
330
30
100
AcDbEntity
  8
1
100
AcDbLine
 10
82.906821779607
 20
-1.22006098305
 30
0.0
 11
82.994821779607
 21
-1.212719461173
 31
0.0
  0
LINE
  5
279
330
30
100
AcDbEntity
  8
1
100
AcDbLine
 10
82.994821779607
 20
-1.212719461173
 30
0.0
 11
83.082821779607
 21
-1.191010795883
 31
0.0
  0
LINE
  5
27A
330
30
100
AcDbEntity
  8
1
100
AcDbLine
 10
83.082821779607
 20
-1.191010795883
 30
0.0
 11
83.170821779607
 21
-1.146153759728
 31
0.0
  0
LINE
  5
27B
330
30
100
AcDbEntity
  8
1
100
AcDbLine
 10
83.170821779607
 20
-1.146153759728
 30
0.0
 11
83.258821779607
 21
-1.10128778782
 31
0.0
  0
LINE
  5
27C
330
30
100
AcDbEntity
  8
1
100
AcDbLine
 10
83.258821779607
 20
-1.10128778782
 30
0.0
 11
83.346821779607
 21
-1.056411881024
 31
0.0
  0
LINE
  5
27D
330
30
100
AcDbEntity
  8
1
100
AcDbLine
 10
83.346821779607
 20
-1.056411881024
 30
0.0
 11
83.434821779607
 21
-1.011524885206
 31
0.0
  0
LINE
  5
27E
330
30
100
AcDbEntity
  8
1
100
AcDbLine
 10
83.434821779607
 20
-1.011524885206
 30
0.0
 11
83.522821779607
 21
-0.966625459907
 31
0.0
  0
LINE
  5
27F
330
30
100
AcDbEntity
  8
1
100
AcDbLine
 10
83.522821779607
 20
-0.966625459907
 30
0.0
 11
83.610821779607
 21
-0.92171203907
 31
0.0
  0
LINE
  5
280
330
30
100
AcDbEntity
  8
1
100
AcDbLine
 10
83.610821779607
 20
-0.92171203907
 30
0.0
 11
83.698821779607
 21
-0.876782781396
 31
0.0
  0
LINE
  5
281
330
30
100
AcDbEntity
  8
1
100
AcDbLine
 10
83.698821779607
 20
-0.876782781396
 30
0.0
 11
83.786821779607
 21
-0.831835506926
 31
0.0
  0
LINE
  5
282
330
30
100
AcDbEntity
  8
1
100
AcDbLine
 10
83.786821779607
 20
-0.831835506926
 30
0.0
 11
83.874821779607
 21
-0.786867615215
 31
0.0
  0
LINE
  5
283
330
30
100
AcDbEntity
  8
1
100
AcDbLine
 10
83.874821779607
 20
-0.786867615215
 30
0.0
 11
83.962821779607
 21
-0.741875978489
 31
0.0
  0
LINE
  5
284
330
30
100
AcDbEntity
  8
1
100
AcDbLine
 10
83.962821779607
 20
-0.741875978489
 30
0.0
 11
84.050821779607
 21
-0.696856800373
 31
0.0
  0
LINE
  5
285
330
30
100
AcDbEntity
  8
1
100
AcDbLine
 10
84.050821779607
 20
-0.696856800373
 30
0.0
 11
84.138821779607
 21
-0.651805426449
 31
0.0
  0
LINE
  5
286
330
30
100
AcDbEntity
  8
1
100
AcDbLine
 10
84.138821779607
 20
-0.651805426449
 30
0.0
 11
84.226821779607
 21
-0.606716086258
 31
0.0
  0
LINE
  5
287
330
30
100
AcDbEntity
  8
1
100
AcDbLine
 10
84.226821779607
 20
-0.606716086258
 30
0.0
 11
84.314821779607
 21
-0.561581535792
 31
0.0
  0
LINE
  5
288
330
30
100
AcDbEntity
  8
1
100
AcDbLine
 10
84.314821779607
 20
-0.561581535792
 30
0.0
 11
84.402821779607
 21
-0.516392552382
 31
0.0
  0
LINE
  5
289
330
30
100
AcDbEntity
  8
1
100
AcDbLine
 10
84.402821779607
 20
-0.516392552382
 30
0.0
 11
84.490821779607
 21
-0.471137205163
 31
0.0
  0
LINE
  5
28A
330
30
100
AcDbEntity
  8
1
100
AcDbLine
 10
84.490821779607
 20
-0.471137205163
 30
0.0
 11
84.578821779607
 21
-0.425799774627
 31
0.0
  0
LINE
  5
28B
330
30
100
AcDbEntity
  8
1
100
AcDbLine
 10
84.578821779607
 20
-0.425799774627
 30
0.0
 11
84.666821779607
 21
-0.380359105461
 31
0.0
  0
LINE
  5
28C
330
30
100
AcDbEntity
  8
1
100
AcDbLine
 10
84.666821779607
 20
-0.380359105461
 30
0.0
 11
84.754821779607
 21
-0.334786009
 31
0.0
  0
LINE
  5
28D
330
30
100
AcDbEntity
  8
1
100
AcDbLine
 10
84.754821779607
 20
-0.334786009
 30
0.0
 11
84.842821779607
 21
-0.289038999353
 31
0.0
  0
LINE
  5
28E
330
30
100
AcDbEntity
  8
1
100
AcDbLine
 10
84.842821779607
 20
-0.289038999353
 30
0.0
 11
84.930821779607
 21
-0.243056946995
 31
0.0
  0
LINE
  5
28F
330
30
100
AcDbEntity
  8
1
100
AcDbLine
 10
84.930821779607
 20
-0.243056946995
 30
0.0
 11
85.018821779607
 21
-0.186996446289
 31
0.0
  0
LINE
  5
290
330
30
100
AcDbEntity
  8
1
100
AcDbLine
 10
85.018821779607
 20
-0.186996446289
 30
0.0
 11
85.106821779607
 21
-0.077084928401
 31
0.0
  0
LINE
  5
291
330
30
100
AcDbEntity
  8
1
100
AcDbLine
 10
83.049115951988
 20
-2.45
 30
0.0
 11
83.049115951988
 21
2.45
 31
0.0
  0
LINE
  5
292
330
30
100
AcDbEntity
  8
1
100
AcDbLine
 10
72.258821779607
 20
2.75
 30
0.0
 11
72.346821779607
 21
2.75
 31
0.0
  0
LINE
  5
293
330
30
100
AcDbEntity
  8
1
100
AcDbLine
 10
72.346821779607
 20
2.75
 30
0.0
 11
72.434821779607
 21
2.75
 31
0.0
  0
LINE
  5
294
330
30
100
AcDbEntity
  8
1
100
AcDbLine
 10
72.434821779607
 20
2.75
 30
0.0
 11
72.522821779607
 21
2.75
 31
0.0
  0
LINE
  5
295
330
30
100
AcDbEntity
  8
1
100
AcDbLine
 10
72.522821779607
 20
2.75
 30
0.0
 11
72.610821779607
 21
2.75
 31
0.0
  0
LINE
  5
296
330
30
100
AcDbEntity
  8
1
100
AcDbLine
 10
72.610821779607
 20
2.75
 30
0.0
 11
72.698821779607
 21
2.75
 31
0.0
  0
LINE
  5
297
330
30
100
AcDbEntity
  8
1
100
AcDbLine
 10
72.698821779607
 20
2.75
 30
0.0
 11
72.786821779607
 21
2.75
 31
0.0
  0
LINE
  5
298
330
30
100
AcDbEntity
  8
1
100
AcDbLine
 10
72.786821779607
 20
2.75
 30
0.0
 11
72.874821779607
 21
2.75
 31
0.0
  0
LINE
  5
299
330
30
100
AcDbEntity
  8
1
100
AcDbLine
 10
72.874821779607
 20
2.75
 30
0.0
 11
72.962821779607
 21
2.75
 31
0.0
  0
LINE
  5
29A
330
30
100
AcDbEntity
  8
1
100
AcDbLine
 10
72.962821779607
 20
2.75
 30
0.0
 11
73.050821779607
 21
2.75
 31
0.0
  0
LINE
  5
29B
330
30
100
AcDbEntity
  8
1
100
AcDbLine
 10
73.050821779607
 20
2.75
 30
0.0
 11
73.138821779607
 21
2.75
 31
0.0
  0
LINE
  5
29C
330
30
100
AcDbEntity
  8
1
100
AcDbLine
 10
73.138821779607
 20
2.75
 30
0.0
 11
73.226821779607
 21
2.75
 31
0.0
  0
LINE
  5
29D
330
30
100
AcDbEntity
  8
1
100
AcDbLine
 10
73.226821779607
 20
2.75
 30
0.0
 11
73.314821779607
 21
2.75
 31
0.0
  0
LINE
  5
29E
330
30
100
AcDbEntity
  8
1
100
AcDbLine
 10
73.314821779607
 20
2.75
 30
0.0
 11
73.402821779607
 21
2.75
 31
0.0
  0
LINE
  5
29F
330
30
100
AcDbEntity
  8
1
100
AcDbLine
 10
73.402821779607
 20
2.75
 30
0.0
 11
73.490821779607
 21
2.75
 31
0.0
  0
LINE
  5
2A0
330
30
100
AcDbEntity
  8
1
100
AcDbLine
 10
73.490821779607
 20
2.75
 30
0.0
 11
73.578821779607
 21
2.75
 31
0.0
  0
LINE
  5
2A1
330
30
100
AcDbEntity
  8
1
100
AcDbLine
 10
73.578821779607
 20
2.75
 30
0.0
 11
73.666821779607
 21
2.75
 31
0.0
  0
LINE
  5
2A2
330
30
100
AcDbEntity
  8
1
100
AcDbLine
 10
73.666821779607
 20
2.75
 30
0.0
 11
73.754821779607
 21
2.75
 31
0.0
  0
LINE
  5
2A3
330
30
100
AcDbEntity
  8
1
100
AcDbLine
 10
73.754821779607
 20
2.75
 30
0.0
 11
73.842821779607
 21
2.75
 31
0.0
  0
LINE
  5
2A4
330
30
100
AcDbEntity
  8
1
100
AcDbLine
 10
73.842821779607
 20
2.75
 30
0.0
 11
73.930821779607
 21
2.75
 31
0.0
  0
LINE
  5
2A5
330
30
100
AcDbEntity
  8
1
100
AcDbLine
 10
73.930821779607
 20
2.75
 30
0.0
 11
74.018821779607
 21
2.75
 31
0.0
  0
LINE
  5
2A6
330
30
100
AcDbEntity
  8
1
100
AcDbLine
 10
74.018821779607
 20
2.75
 30
0.0
 11
74.106821779607
 21
2.75
 31
0.0
  0
LINE
  5
2A7
330
30
100
AcDbEntity
  8
1
100
AcDbLine
 10
74.106821779607
 20
2.75
 30
0.0
 11
74.194821779607
 21
2.75
 31
0.0
  0
LINE
  5
2A8
330
30
100
AcDbEntity
  8
1
100
AcDbLine
 10
74.194821779607
 20
2.75
 30
0.0
 11
74.282821779607
 21
2.75
 31
0.0
  0
LINE
  5
2A9
330
30
100
AcDbEntity
  8
1
100
AcDbLine
 10
74.282821779607
 20
2.75
 30
0.0
 11
74.370821779607
 21
2.75
 31
0.0
  0
LINE
  5
2AA
330
30
100
AcDbEntity
  8
1
100
AcDbLine
 10
74.370821779607
 20
2.75
 30
0.0
 11
74.458821779607
 21
2.75
 31
0.0
  0
LINE
  5
2AB
330
30
100
AcDbEntity
  8
1
100
AcDbLine
 10
74.458821779607
 20
2.75
 30
0.0
 11
74.546821779607
 21
2.75
 31
0.0
  0
LINE
  5
2AC
330
30
100
AcDbEntity
  8
1
100
AcDbLine
 10
74.546821779607
 20
2.75
 30
0.0
 11
74.634821779607
 21
2.75
 31
0.0
  0
LINE
  5
2AD
330
30
100
AcDbEntity
  8
1
100
AcDbLine
 10
74.634821779607
 20
2.75
 30
0.0
 11
74.722821779607
 21
2.75
 31
0.0
  0
LINE
  5
2AE
330
30
100
AcDbEntity
  8
1
100
AcDbLine
 10
74.722821779607
 20
2.75
 30
0.0
 11
74.810821779607
 21
2.75
 31
0.0
  0
LINE
  5
2AF
330
30
100
AcDbEntity
  8
1
100
AcDbLine
 10
74.810821779607
 20
2.75
 30
0.0
 11
74.898821779607
 21
2.75
 31
0.0
  0
LINE
  5
2B0
330
30
100
AcDbEntity
  8
1
100
AcDbLine
 10
74.898821779607
 20
2.75
 30
0.0
 11
74.986821779607
 21
2.75
 31
0.0
  0
LINE
  5
2B1
330
30
100
AcDbEntity
  8
1
100
AcDbLine
 10
74.986821779607
 20
2.75
 30
0.0
 11
75.074821779607
 21
2.75
 31
0.0
  0
LINE
  5
2B2
330
30
100
AcDbEntity
  8
1
100
AcDbLine
 10
75.074821779607
 20
2.75
 30
0.0
 11
75.162821779607
 21
2.75
 31
0.0
  0
LINE
  5
2B3
330
30
100
AcDbEntity
  8
1
100
AcDbLine
 10
75.162821779607
 20
2.75
 30
0.0
 11
75.250821779607
 21
2.75
 31
0.0
  0
LINE
  5
2B4
330
30
100
AcDbEntity
  8
1
100
AcDbLine
 10
75.250821779607
 20
2.75
 30
0.0
 11
75.338821779607
 21
2.75
 31
0.0
  0
LINE
  5
2B5
330
30
100
AcDbEntity
  8
1
100
AcDbLine
 10
75.338821779607
 20
2.75
 30
0.0
 11
75.426821779607
 21
2.75
 31
0.0
  0
LINE
  5
2B6
330
30
100
AcDbEntity
  8
1
100
AcDbLine
 10
75.426821779607
 20
2.75
 30
0.0
 11
75.514821779607
 21
2.75
 31
0.0
  0
LINE
  5
2B7
330
30
100
AcDbEntity
  8
1
100
AcDbLine
 10
75.514821779607
 20
2.75
 30
0.0
 11
75.602821779607
 21
2.75
 31
0.0
  0
LINE
  5
2B8
330
30
100
AcDbEntity
  8
1
100
AcDbLine
 10
75.602821779607
 20
2.75
 30
0.0
 11
75.690821779607
 21
2.75
 31
0.0
  0
LINE
  5
2B9
330
30
100
AcDbEntity
  8
1
100
AcDbLine
 10
75.690821779607
 20
2.75
 30
0.0
 11
75.778821779607
 21
2.75
 31
0.0
  0
LINE
  5
2BA
330
30
100
AcDbEntity
  8
1
100
AcDbLine
 10
75.778821779607
 20
2.75
 30
0.0
 11
75.866821779607
 21
2.75
 31
0.0
  0
LINE
  5
2BB
330
30
100
AcDbEntity
  8
1
100
AcDbLine
 10
75.866821779607
 20
2.75
 30
0.0
 11
75.954821779607
 21
2.75
 31
0.0
  0
LINE
  5
2BC
330
30
100
AcDbEntity
  8
1
100
AcDbLine
 10
75.954821779607
 20
2.75
 30
0.0
 11
76.042821779607
 21
2.75
 31
0.0
  0
LINE
  5
2BD
330
30
100
AcDbEntity
  8
1
100
AcDbLine
 10
76.042821779607
 20
2.75
 30
0.0
 11
76.130821779607
 21
2.75
 31
0.0
  0
LINE
  5
2BE
330
30
100
AcDbEntity
  8
1
100
AcDbLine
 10
76.130821779607
 20
2.75
 30
0.0
 11
76.218821779607
 21
2.75
 31
0.0
  0
LINE
  5
2BF
330
30
100
AcDbEntity
  8
1
100
AcDbLine
 10
76.218821779607
 20
2.75
 30
0.0
 11
76.306821779607
 21
2.75
 31
0.0
  0
LINE
  5
2C0
330
30
100
AcDbEntity
  8
1
100
AcDbLine
 10
76.306821779607
 20
2.75
 30
0.0
 11
76.394821779607
 21
2.75
 31
0.0
  0
LINE
  5
2C1
330
30
100
AcDbEntity
  8
1
100
AcDbLine
 10
76.394821779607
 20
2.75
 30
0.0
 11
76.482821779607
 21
2.75
 31
0.0
  0
LINE
  5
2C2
330
30
100
AcDbEntity
  8
1
100
AcDbLine
 10
76.482821779607
 20
2.75
 30
0.0
 11
76.570821779607
 21
2.75
 31
0.0
  0
LINE
  5
2C3
330
30
100
AcDbEntity
  8
1
100
AcDbLine
 10
76.570821779607
 20
2.75
 30
0.0
 11
76.658821779607
 21
2.75
 31
0.0
  0
LINE
  5
2C4
330
30
100
AcDbEntity
  8
1
100
AcDbLine
 10
76.658821779607
 20
2.75
 30
0.0
 11
76.746821779607
 21
2.75
 31
0.0
  0
LINE
  5
2C5
330
30
100
AcDbEntity
  8
1
100
AcDbLine
 10
76.746821779607
 20
2.75
 30
0.0
 11
76.834821779607
 21
2.75
 31
0.0
  0
LINE
  5
2C6
330
30
100
AcDbEntity
  8
1
100
AcDbLine
 10
76.834821779607
 20
2.75
 30
0.0
 11
76.922821779607
 21
2.75
 31
0.0
  0
LINE
  5
2C7
330
30
100
AcDbEntity
  8
1
100
AcDbLine
 10
76.922821779607
 20
2.75
 30
0.0
 11
77.010821779607
 21
2.75
 31
0.0
  0
LINE
  5
2C8
330
30
100
AcDbEntity
  8
1
100
AcDbLine
 10
77.010821779607
 20
2.75
 30
0.0
 11
77.098821779607
 21
2.75
 31
0.0
  0
LINE
  5
2C9
330
30
100
AcDbEntity
  8
1
100
AcDbLine
 10
77.098821779607
 20
2.75
 30
0.0
 11
77.186821779607
 21
2.75
 31
0.0
  0
LINE
  5
2CA
330
30
100
AcDbEntity
  8
1
100
AcDbLine
 10
77.186821779607
 20
2.75
 30
0.0
 11
77.274821779607
 21
2.75
 31
0.0
  0
LINE
  5
2CB
330
30
100
AcDbEntity
  8
1
100
AcDbLine
 10
77.274821779607
 20
2.75
 30
0.0
 11
77.362821779607
 21
2.75
 31
0.0
  0
LINE
  5
2CC
330
30
100
AcDbEntity
  8
1
100
AcDbLine
 10
77.362821779607
 20
2.75
 30
0.0
 11
77.450821779607
 21
2.75
 31
0.0
  0
LINE
  5
2CD
330
30
100
AcDbEntity
  8
1
100
AcDbLine
 10
77.450821779607
 20
2.75
 30
0.0
 11
77.538821779607
 21
2.75
 31
0.0
  0
LINE
  5
2CE
330
30
100
AcDbEntity
  8
1
100
AcDbLine
 10
77.538821779607
 20
2.75
 30
0.0
 11
77.626821779607
 21
2.75
 31
0.0
  0
LINE
  5
2CF
330
30
100
AcDbEntity
  8
1
100
AcDbLine
 10
77.626821779607
 20
2.75
 30
0.0
 11
77.714821779607
 21
2.75
 31
0.0
  0
LINE
  5
2D0
330
30
100
AcDbEntity
  8
1
100
AcDbLine
 10
77.714821779607
 20
2.75
 30
0.0
 11
77.802821779607
 21
2.75
 31
0.0
  0
LINE
  5
2D1
330
30
100
AcDbEntity
  8
1
100
AcDbLine
 10
77.802821779607
 20
2.75
 30
0.0
 11
77.890821779607
 21
2.75
 31
0.0
  0
LINE
  5
2D2
330
30
100
AcDbEntity
  8
1
100
AcDbLine
 10
77.890821779607
 20
2.75
 30
0.0
 11
77.978821779607
 21
2.75
 31
0.0
  0
LINE
  5
2D3
330
30
100
AcDbEntity
  8
1
100
AcDbLine
 10
77.978821779607
 20
2.75
 30
0.0
 11
78.066821779607
 21
2.75
 31
0.0
  0
LINE
  5
2D4
330
30
100
AcDbEntity
  8
1
100
AcDbLine
 10
78.066821779607
 20
2.75
 30
0.0
 11
78.154821779607
 21
2.75
 31
0.0
  0
LINE
  5
2D5
330
30
100
AcDbEntity
  8
1
100
AcDbLine
 10
78.154821779607
 20
2.75
 30
0.0
 11
78.242821779607
 21
2.75
 31
0.0
  0
LINE
  5
2D6
330
30
100
AcDbEntity
  8
1
100
AcDbLine
 10
78.242821779607
 20
2.75
 30
0.0
 11
78.330821779607
 21
2.75
 31
0.0
  0
LINE
  5
2D7
330
30
100
AcDbEntity
  8
1
100
AcDbLine
 10
78.330821779607
 20
2.75
 30
0.0
 11
78.418821779607
 21
2.75
 31
0.0
  0
LINE
  5
2D8
330
30
100
AcDbEntity
  8
1
100
AcDbLine
 10
78.418821779607
 20
2.75
 30
0.0
 11
78.506821779607
 21
2.75
 31
0.0
  0
LINE
  5
2D9
330
30
100
AcDbEntity
  8
1
100
AcDbLine
 10
78.506821779607
 20
2.75
 30
0.0
 11
78.594821779607
 21
2.75
 31
0.0
  0
LINE
  5
2DA
330
30
100
AcDbEntity
  8
1
100
AcDbLine
 10
78.594821779607
 20
2.75
 30
0.0
 11
78.682821779607
 21
2.75
 31
0.0
  0
LINE
  5
2DB
330
30
100
AcDbEntity
  8
1
100
AcDbLine
 10
78.682821779607
 20
2.75
 30
0.0
 11
78.770821779607
 21
2.75
 31
0.0
  0
LINE
  5
2DC
330
30
100
AcDbEntity
  8
1
100
AcDbLine
 10
78.770821779607
 20
2.75
 30
0.0
 11
78.858821779607
 21
2.75
 31
0.0
  0
LINE
  5
2DD
330
30
100
AcDbEntity
  8
1
100
AcDbLine
 10
78.858821779607
 20
2.75
 30
0.0
 11
78.946821779607
 21
2.75
 31
0.0
  0
LINE
  5
2DE
330
30
100
AcDbEntity
  8
1
100
AcDbLine
 10
78.946821779607
 20
2.75
 30
0.0
 11
79.034821779607
 21
2.75
 31
0.0
  0
LINE
  5
2DF
330
30
100
AcDbEntity
  8
1
100
AcDbLine
 10
79.034821779607
 20
2.75
 30
0.0
 11
79.122821779607
 21
2.75
 31
0.0
  0
LINE
  5
2E0
330
30
100
AcDbEntity
  8
1
100
AcDbLine
 10
79.122821779607
 20
2.75
 30
0.0
 11
79.210821779607
 21
2.75
 31
0.0
  0
LINE
  5
2E1
330
30
100
AcDbEntity
  8
1
100
AcDbLine
 10
79.210821779607
 20
2.75
 30
0.0
 11
79.298821779607
 21
2.75
 31
0.0
  0
LINE
  5
2E2
330
30
100
AcDbEntity
  8
1
100
AcDbLine
 10
79.298821779607
 20
2.75
 30
0.0
 11
79.386821779607
 21
2.75
 31
0.0
  0
LINE
  5
2E3
330
30
100
AcDbEntity
  8
1
100
AcDbLine
 10
79.386821779607
 20
2.75
 30
0.0
 11
79.474821779607
 21
2.75
 31
0.0
  0
LINE
  5
2E4
330
30
100
AcDbEntity
  8
1
100
AcDbLine
 10
79.474821779607
 20
2.75
 30
0.0
 11
79.562821779607
 21
2.75
 31
0.0
  0
LINE
  5
2E5
330
30
100
AcDbEntity
  8
1
100
AcDbLine
 10
79.562821779607
 20
2.75
 30
0.0
 11
79.650821779607
 21
2.75
 31
0.0
  0
LINE
  5
2E6
330
30
100
AcDbEntity
  8
1
100
AcDbLine
 10
79.650821779607
 20
2.75
 30
0.0
 11
79.738821779607
 21
2.75
 31
0.0
  0
LINE
  5
2E7
330
30
100
AcDbEntity
  8
1
100
AcDbLine
 10
79.738821779607
 20
2.75
 30
0.0
 11
79.826821779607
 21
2.75
 31
0.0
  0
LINE
  5
2E8
330
30
100
AcDbEntity
  8
1
100
AcDbLine
 10
79.826821779607
 20
2.75
 30
0.0
 11
79.914821779607
 21
2.75
 31
0.0
  0
LINE
  5
2E9
330
30
100
AcDbEntity
  8
1
100
AcDbLine
 10
79.914821779607
 20
2.75
 30
0.0
 11
80.002821779607
 21
2.75
 31
0.0
  0
LINE
  5
2EA
330
30
100
AcDbEntity
  8
1
100
AcDbLine
 10
80.002821779607
 20
2.75
 30
0.0
 11
80.090821779607
 21
2.75
 31
0.0
  0
LINE
  5
2EB
330
30
100
AcDbEntity
  8
1
100
AcDbLine
 10
80.090821779607
 20
2.75
 30
0.0
 11
80.178821779607
 21
2.75
 31
0.0
  0
LINE
  5
2EC
330
30
100
AcDbEntity
  8
1
100
AcDbLine
 10
80.178821779607
 20
2.75
 30
0.0
 11
80.266821779607
 21
2.75
 31
0.0
  0
LINE
  5
2ED
330
30
100
AcDbEntity
  8
1
100
AcDbLine
 10
80.266821779607
 20
2.75
 30
0.0
 11
80.354821779607
 21
2.75
 31
0.0
  0
LINE
  5
2EE
330
30
100
AcDbEntity
  8
1
100
AcDbLine
 10
80.354821779607
 20
2.75
 30
0.0
 11
80.442821779607
 21
2.75
 31
0.0
  0
LINE
  5
2EF
330
30
100
AcDbEntity
  8
1
100
AcDbLine
 10
80.442821779607
 20
2.75
 30
0.0
 11
80.530821779607
 21
2.75
 31
0.0
  0
LINE
  5
2F0
330
30
100
AcDbEntity
  8
1
100
AcDbLine
 10
80.530821779607
 20
2.75
 30
0.0
 11
80.618821779607
 21
2.75
 31
0.0
  0
LINE
  5
2F1
330
30
100
AcDbEntity
  8
1
100
AcDbLine
 10
80.618821779607
 20
2.75
 30
0.0
 11
80.706821779607
 21
2.75
 31
0.0
  0
LINE
  5
2F2
330
30
100
AcDbEntity
  8
1
100
AcDbLine
 10
80.706821779607
 20
2.75
 30
0.0
 11
80.794821779607
 21
2.75
 31
0.0
  0
LINE
  5
2F3
330
30
100
AcDbEntity
  8
1
100
AcDbLine
 10
80.794821779607
 20
2.75
 30
0.0
 11
80.882821779607
 21
2.75
 31
0.0
  0
LINE
  5
2F4
330
30
100
AcDbEntity
  8
1
100
AcDbLine
 10
80.882821779607
 20
2.75
 30
0.0
 11
80.970821779607
 21
2.75
 31
0.0
  0
LINE
  5
2F5
330
30
100
AcDbEntity
  8
1
100
AcDbLine
 10
81.049115951988
 20
2.75
 30
0.0
 11
81.049115951988
 21
-2.75
 31
0.0
  0
LINE
  5
2F6
330
30
100
AcDbEntity
  8
1
100
AcDbLine
 10
80.970821779607
 20
-2.75
 30
0.0
 11
80.882821779607
 21
-2.75
 31
0.0
  0
LINE
  5
2F7
330
30
100
AcDbEntity
  8
1
100
AcDbLine
 10
80.882821779607
 20
-2.75
 30
0.0
 11
80.794821779607
 21
-2.75
 31
0.0
  0
LINE
  5
2F8
330
30
100
AcDbEntity
  8
1
100
AcDbLine
 10
80.794821779607
 20
-2.75
 30
0.0
 11
80.706821779607
 21
-2.75
 31
0.0
  0
LINE
  5
2F9
330
30
100
AcDbEntity
  8
1
100
AcDbLine
 10
80.706821779607
 20
-2.75
 30
0.0
 11
80.618821779607
 21
-2.75
 31
0.0
  0
LINE
  5
2FA
330
30
100
AcDbEntity
  8
1
100
AcDbLine
 10
80.618821779607
 20
-2.75
 30
0.0
 11
80.530821779607
 21
-2.75
 31
0.0
  0
LINE
  5
2FB
330
30
100
AcDbEntity
  8
1
100
AcDbLine
 10
80.530821779607
 20
-2.75
 30
0.0
 11
80.442821779607
 21
-2.75
 31
0.0
  0
LINE
  5
2FC
330
30
100
AcDbEntity
  8
1
100
AcDbLine
 10
80.442821779607
 20
-2.75
 30
0.0
 11
80.354821779607
 21
-2.75
 31
0.0
  0
LINE
  5
2FD
330
30
100
AcDbEntity
  8
1
100
AcDbLine
 10
80.354821779607
 20
-2.75
 30
0.0
 11
80.266821779607
 21
-2.75
 31
0.0
  0
LINE
  5
2FE
330
30
100
AcDbEntity
  8
1
100
AcDbLine
 10
80.266821779607
 20
-2.75
 30
0.0
 11
80.178821779607
 21
-2.75
 31
0.0
  0
LINE
  5
2FF
330
30
100
AcDbEntity
  8
1
100
AcDbLine
 10
80.178821779607
 20
-2.75
 30
0.0
 11
80.090821779607
 21
-2.75
 31
0.0
  0
LINE
  5
300
330
30
100
AcDbEntity
  8
1
100
AcDbLine
 10
80.090821779607
 20
-2.75
 30
0.0
 11
80.002821779607
 21
-2.75
 31
0.0
  0
LINE
  5
301
330
30
100
AcDbEntity
  8
1
100
AcDbLine
 10
80.002821779607
 20
-2.75
 30
0.0
 11
79.914821779607
 21
-2.75
 31
0.0
  0
LINE
  5
302
330
30
100
AcDbEntity
  8
1
100
AcDbLine
 10
79.914821779607
 20
-2.75
 30
0.0
 11
79.826821779607
 21
-2.75
 31
0.0
  0
LINE
  5
303
330
30
100
AcDbEntity
  8
1
100
AcDbLine
 10
79.826821779607
 20
-2.75
 30
0.0
 11
79.738821779607
 21
-2.75
 31
0.0
  0
LINE
  5
304
330
30
100
AcDbEntity
  8
1
100
AcDbLine
 10
79.738821779607
 20
-2.75
 30
0.0
 11
79.650821779607
 21
-2.75
 31
0.0
  0
LINE
  5
305
330
30
100
AcDbEntity
  8
1
100
AcDbLine
 10
79.650821779607
 20
-2.75
 30
0.0
 11
79.562821779607
 21
-2.75
 31
0.0
  0
LINE
  5
306
330
30
100
AcDbEntity
  8
1
100
AcDbLine
 10
79.562821779607
 20
-2.75
 30
0.0
 11
79.474821779607
 21
-2.75
 31
0.0
  0
LINE
  5
307
330
30
100
AcDbEntity
  8
1
100
AcDbLine
 10
79.474821779607
 20
-2.75
 30
0.0
 11
79.386821779607
 21
-2.75
 31
0.0
  0
LINE
  5
308
330
30
100
AcDbEntity
  8
1
100
AcDbLine
 10
79.386821779607
 20
-2.75
 30
0.0
 11
79.298821779607
 21
-2.75
 31
0.0
  0
LINE
  5
309
330
30
100
AcDbEntity
  8
1
100
AcDbLine
 10
79.298821779607
 20
-2.75
 30
0.0
 11
79.210821779607
 21
-2.75
 31
0.0
  0
LINE
  5
30A
330
30
100
AcDbEntity
  8
1
100
AcDbLine
 10
79.210821779607
 20
-2.75
 30
0.0
 11
79.122821779607
 21
-2.75
 31
0.0
  0
LINE
  5
30B
330
30
100
AcDbEntity
  8
1
100
AcDbLine
 10
79.122821779607
 20
-2.75
 30
0.0
 11
79.034821779607
 21
-2.75
 31
0.0
  0
LINE
  5
30C
330
30
100
AcDbEntity
  8
1
100
AcDbLine
 10
79.034821779607
 20
-2.75
 30
0.0
 11
78.946821779607
 21
-2.75
 31
0.0
  0
LINE
  5
30D
330
30
100
AcDbEntity
  8
1
100
AcDbLine
 10
78.946821779607
 20
-2.75
 30
0.0
 11
78.858821779607
 21
-2.75
 31
0.0
  0
LINE
  5
30E
330
30
100
AcDbEntity
  8
1
100
AcDbLine
 10
78.858821779607
 20
-2.75
 30
0.0
 11
78.770821779607
 21
-2.75
 31
0.0
  0
LINE
  5
30F
330
30
100
AcDbEntity
  8
1
100
AcDbLine
 10
78.770821779607
 20
-2.75
 30
0.0
 11
78.682821779607
 21
-2.75
 31
0.0
  0
LINE
  5
310
330
30
100
AcDbEntity
  8
1
100
AcDbLine
 10
78.682821779607
 20
-2.75
 30
0.0
 11
78.594821779607
 21
-2.75
 31
0.0
  0
LINE
  5
311
330
30
100
AcDbEntity
  8
1
100
AcDbLine
 10
78.594821779607
 20
-2.75
 30
0.0
 11
78.506821779607
 21
-2.75
 31
0.0
  0
LINE
  5
312
330
30
100
AcDbEntity
  8
1
100
AcDbLine
 10
78.506821779607
 20
-2.75
 30
0.0
 11
78.418821779607
 21
-2.75
 31
0.0
  0
LINE
  5
313
330
30
100
AcDbEntity
  8
1
100
AcDbLine
 10
78.418821779607
 20
-2.75
 30
0.0
 11
78.330821779607
 21
-2.75
 31
0.0
  0
LINE
  5
314
330
30
100
AcDbEntity
  8
1
100
AcDbLine
 10
78.330821779607
 20
-2.75
 30
0.0
 11
78.242821779607
 21
-2.75
 31
0.0
  0
LINE
  5
315
330
30
100
AcDbEntity
  8
1
100
AcDbLine
 10
78.242821779607
 20
-2.75
 30
0.0
 11
78.154821779607
 21
-2.75
 31
0.0
  0
LINE
  5
316
330
30
100
AcDbEntity
  8
1
100
AcDbLine
 10
78.154821779607
 20
-2.75
 30
0.0
 11
78.066821779607
 21
-2.75
 31
0.0
  0
LINE
  5
317
330
30
100
AcDbEntity
  8
1
100
AcDbLine
 10
78.066821779607
 20
-2.75
 30
0.0
 11
77.978821779607
 21
-2.75
 31
0.0
  0
LINE
  5
318
330
30
100
AcDbEntity
  8
1
100
AcDbLine
 10
77.978821779607
 20
-2.75
 30
0.0
 11
77.890821779607
 21
-2.75
 31
0.0
  0
LINE
  5
319
330
30
100
AcDbEntity
  8
1
100
AcDbLine
 10
77.890821779607
 20
-2.75
 30
0.0
 11
77.802821779607
 21
-2.75
 31
0.0
  0
LINE
  5
31A
330
30
100
AcDbEntity
  8
1
100
AcDbLine
 10
77.802821779607
 20
-2.75
 30
0.0
 11
77.714821779607
 21
-2.75
 31
0.0
  0
LINE
  5
31B
330
30
100
AcDbEntity
  8
1
100
AcDbLine
 10
77.714821779607
 20
-2.75
 30
0.0
 11
77.626821779607
 21
-2.75
 31
0.0
  0
LINE
  5
31C
330
30
100
AcDbEntity
  8
1
100
AcDbLine
 10
77.626821779607
 20
-2.75
 30
0.0
 11
77.538821779607
 21
-2.75
 31
0.0
  0
LINE
  5
31D
330
30
100
AcDbEntity
  8
1
100
AcDbLine
 10
77.538821779607
 20
-2.75
 30
0.0
 11
77.450821779607
 21
-2.75
 31
0.0
  0
LINE
  5
31E
330
30
100
AcDbEntity
  8
1
100
AcDbLine
 10
77.450821779607
 20
-2.75
 30
0.0
 11
77.362821779607
 21
-2.75
 31
0.0
  0
LINE
  5
31F
330
30
100
AcDbEntity
  8
1
100
AcDbLine
 10
77.362821779607
 20
-2.75
 30
0.0
 11
77.274821779607
 21
-2.75
 31
0.0
  0
LINE
  5
320
330
30
100
AcDbEntity
  8
1
100
AcDbLine
 10
77.274821779607
 20
-2.75
 30
0.0
 11
77.186821779607
 21
-2.75
 31
0.0
  0
LINE
  5
321
330
30
100
AcDbEntity
  8
1
100
AcDbLine
 10
77.186821779607
 20
-2.75
 30
0.0
 11
77.098821779607
 21
-2.75
 31
0.0
  0
LINE
  5
322
330
30
100
AcDbEntity
  8
1
100
AcDbLine
 10
77.098821779607
 20
-2.75
 30
0.0
 11
77.010821779607
 21
-2.75
 31
0.0
  0
LINE
  5
323
330
30
100
AcDbEntity
  8
1
100
AcDbLine
 10
77.010821779607
 20
-2.75
 30
0.0
 11
76.922821779607
 21
-2.75
 31
0.0
  0
LINE
  5
324
330
30
100
AcDbEntity
  8
1
100
AcDbLine
 10
76.922821779607
 20
-2.75
 30
0.0
 11
76.834821779607
 21
-2.75
 31
0.0
  0
LINE
  5
325
330
30
100
AcDbEntity
  8
1
100
AcDbLine
 10
76.834821779607
 20
-2.75
 30
0.0
 11
76.746821779607
 21
-2.75
 31
0.0
  0
LINE
  5
326
330
30
100
AcDbEntity
  8
1
100
AcDbLine
 10
76.746821779607
 20
-2.75
 30
0.0
 11
76.658821779607
 21
-2.75
 31
0.0
  0
LINE
  5
327
330
30
100
AcDbEntity
  8
1
100
AcDbLine
 10
76.658821779607
 20
-2.75
 30
0.0
 11
76.570821779607
 21
-2.75
 31
0.0
  0
LINE
  5
328
330
30
100
AcDbEntity
  8
1
100
AcDbLine
 10
76.570821779607
 20
-2.75
 30
0.0
 11
76.482821779607
 21
-2.75
 31
0.0
  0
LINE
  5
329
330
30
100
AcDbEntity
  8
1
100
AcDbLine
 10
76.482821779607
 20
-2.75
 30
0.0
 11
76.394821779607
 21
-2.75
 31
0.0
  0
LINE
  5
32A
330
30
100
AcDbEntity
  8
1
100
AcDbLine
 10
76.394821779607
 20
-2.75
 30
0.0
 11
76.306821779607
 21
-2.75
 31
0.0
  0
LINE
  5
32B
330
30
100
AcDbEntity
  8
1
100
AcDbLine
 10
76.306821779607
 20
-2.75
 30
0.0
 11
76.218821779607
 21
-2.75
 31
0.0
  0
LINE
  5
32C
330
30
100
AcDbEntity
  8
1
100
AcDbLine
 10
76.218821779607
 20
-2.75
 30
0.0
 11
76.130821779607
 21
-2.75
 31
0.0
  0
LINE
  5
32D
330
30
100
AcDbEntity
  8
1
100
AcDbLine
 10
76.130821779607
 20
-2.75
 30
0.0
 11
76.042821779607
 21
-2.75
 31
0.0
  0
LINE
  5
32E
330
30
100
AcDbEntity
  8
1
100
AcDbLine
 10
76.042821779607
 20
-2.75
 30
0.0
 11
75.954821779607
 21
-2.75
 31
0.0
  0
LINE
  5
32F
330
30
100
AcDbEntity
  8
1
100
AcDbLine
 10
75.954821779607
 20
-2.75
 30
0.0
 11
75.866821779607
 21
-2.75
 31
0.0
  0
LINE
  5
330
330
30
100
AcDbEntity
  8
1
100
AcDbLine
 10
75.866821779607
 20
-2.75
 30
0.0
 11
75.778821779607
 21
-2.75
 31
0.0
  0
LINE
  5
331
330
30
100
AcDbEntity
  8
1
100
AcDbLine
 10
75.778821779607
 20
-2.75
 30
0.0
 11
75.690821779607
 21
-2.75
 31
0.0
  0
LINE
  5
332
330
30
100
AcDbEntity
  8
1
100
AcDbLine
 10
75.690821779607
 20
-2.75
 30
0.0
 11
75.602821779607
 21
-2.75
 31
0.0
  0
LINE
  5
333
330
30
100
AcDbEntity
  8
1
100
AcDbLine
 10
75.602821779607
 20
-2.75
 30
0.0
 11
75.514821779607
 21
-2.75
 31
0.0
  0
LINE
  5
334
330
30
100
AcDbEntity
  8
1
100
AcDbLine
 10
75.514821779607
 20
-2.75
 30
0.0
 11
75.426821779607
 21
-2.75
 31
0.0
  0
LINE
  5
335
330
30
100
AcDbEntity
  8
1
100
AcDbLine
 10
75.426821779607
 20
-2.75
 30
0.0
 11
75.338821779607
 21
-2.75
 31
0.0
  0
LINE
  5
336
330
30
100
AcDbEntity
  8
1
100
AcDbLine
 10
75.338821779607
 20
-2.75
 30
0.0
 11
75.250821779607
 21
-2.75
 31
0.0
  0
LINE
  5
337
330
30
100
AcDbEntity
  8
1
100
AcDbLine
 10
75.250821779607
 20
-2.75
 30
0.0
 11
75.162821779607
 21
-2.75
 31
0.0
  0
LINE
  5
338
330
30
100
AcDbEntity
  8
1
100
AcDbLine
 10
75.162821779607
 20
-2.75
 30
0.0
 11
75.074821779607
 21
-2.75
 31
0.0
  0
LINE
  5
339
330
30
100
AcDbEntity
  8
1
100
AcDbLine
 10
75.074821779607
 20
-2.75
 30
0.0
 11
74.986821779607
 21
-2.75
 31
0.0
  0
LINE
  5
33A
330
30
100
AcDbEntity
  8
1
100
AcDbLine
 10
74.986821779607
 20
-2.75
 30
0.0
 11
74.898821779607
 21
-2.75
 31
0.0
  0
LINE
  5
33B
330
30
100
AcDbEntity
  8
1
100
AcDbLine
 10
74.898821779607
 20
-2.75
 30
0.0
 11
74.810821779607
 21
-2.75
 31
0.0
  0
LINE
  5
33C
330
30
100
AcDbEntity
  8
1
100
AcDbLine
 10
74.810821779607
 20
-2.75
 30
0.0
 11
74.722821779607
 21
-2.75
 31
0.0
  0
LINE
  5
33D
330
30
100
AcDbEntity
  8
1
100
AcDbLine
 10
74.722821779607
 20
-2.75
 30
0.0
 11
74.634821779607
 21
-2.75
 31
0.0
  0
LINE
  5
33E
330
30
100
AcDbEntity
  8
1
100
AcDbLine
 10
74.634821779607
 20
-2.75
 30
0.0
 11
74.546821779607
 21
-2.75
 31
0.0
  0
LINE
  5
33F
330
30
100
AcDbEntity
  8
1
100
AcDbLine
 10
74.546821779607
 20
-2.75
 30
0.0
 11
74.458821779607
 21
-2.75
 31
0.0
  0
LINE
  5
340
330
30
100
AcDbEntity
  8
1
100
AcDbLine
 10
74.458821779607
 20
-2.75
 30
0.0
 11
74.370821779607
 21
-2.75
 31
0.0
  0
LINE
  5
341
330
30
100
AcDbEntity
  8
1
100
AcDbLine
 10
74.370821779607
 20
-2.75
 30
0.0
 11
74.282821779607
 21
-2.75
 31
0.0
  0
LINE
  5
342
330
30
100
AcDbEntity
  8
1
100
AcDbLine
 10
74.282821779607
 20
-2.75
 30
0.0
 11
74.194821779607
 21
-2.75
 31
0.0
  0
LINE
  5
343
330
30
100
AcDbEntity
  8
1
100
AcDbLine
 10
74.194821779607
 20
-2.75
 30
0.0
 11
74.106821779607
 21
-2.75
 31
0.0
  0
LINE
  5
344
330
30
100
AcDbEntity
  8
1
100
AcDbLine
 10
74.106821779607
 20
-2.75
 30
0.0
 11
74.018821779607
 21
-2.75
 31
0.0
  0
LINE
  5
345
330
30
100
AcDbEntity
  8
1
100
AcDbLine
 10
74.018821779607
 20
-2.75
 30
0.0
 11
73.930821779607
 21
-2.75
 31
0.0
  0
LINE
  5
346
330
30
100
AcDbEntity
  8
1
100
AcDbLine
 10
73.930821779607
 20
-2.75
 30
0.0
 11
73.842821779607
 21
-2.75
 31
0.0
  0
LINE
  5
347
330
30
100
AcDbEntity
  8
1
100
AcDbLine
 10
73.842821779607
 20
-2.75
 30
0.0
 11
73.754821779607
 21
-2.75
 31
0.0
  0
LINE
  5
348
330
30
100
AcDbEntity
  8
1
100
AcDbLine
 10
73.754821779607
 20
-2.75
 30
0.0
 11
73.666821779607
 21
-2.75
 31
0.0
  0
LINE
  5
349
330
30
100
AcDbEntity
  8
1
100
AcDbLine
 10
73.666821779607
 20
-2.75
 30
0.0
 11
73.578821779607
 21
-2.75
 31
0.0
  0
LINE
  5
34A
330
30
100
AcDbEntity
  8
1
100
AcDbLine
 10
73.578821779607
 20
-2.75
 30
0.0
 11
73.490821779607
 21
-2.75
 31
0.0
  0
LINE
  5
34B
330
30
100
AcDbEntity
  8
1
100
AcDbLine
 10
73.490821779607
 20
-2.75
 30
0.0
 11
73.402821779607
 21
-2.75
 31
0.0
  0
LINE
  5
34C
330
30
100
AcDbEntity
  8
1
100
AcDbLine
 10
73.402821779607
 20
-2.75
 30
0.0
 11
73.314821779607
 21
-2.75
 31
0.0
  0
LINE
  5
34D
330
30
100
AcDbEntity
  8
1
100
AcDbLine
 10
73.314821779607
 20
-2.75
 30
0.0
 11
73.226821779607
 21
-2.75
 31
0.0
  0
LINE
  5
34E
330
30
100
AcDbEntity
  8
1
100
AcDbLine
 10
73.226821779607
 20
-2.75
 30
0.0
 11
73.138821779607
 21
-2.75
 31
0.0
  0
LINE
  5
34F
330
30
100
AcDbEntity
  8
1
100
AcDbLine
 10
73.138821779607
 20
-2.75
 30
0.0
 11
73.050821779607
 21
-2.75
 31
0.0
  0
LINE
  5
350
330
30
100
AcDbEntity
  8
1
100
AcDbLine
 10
73.050821779607
 20
-2.75
 30
0.0
 11
72.962821779607
 21
-2.75
 31
0.0
  0
LINE
  5
351
330
30
100
AcDbEntity
  8
1
100
AcDbLine
 10
72.962821779607
 20
-2.75
 30
0.0
 11
72.874821779607
 21
-2.75
 31
0.0
  0
LINE
  5
352
330
30
100
AcDbEntity
  8
1
100
AcDbLine
 10
72.874821779607
 20
-2.75
 30
0.0
 11
72.786821779607
 21
-2.75
 31
0.0
  0
LINE
  5
353
330
30
100
AcDbEntity
  8
1
100
AcDbLine
 10
72.786821779607
 20
-2.75
 30
0.0
 11
72.698821779607
 21
-2.75
 31
0.0
  0
LINE
  5
354
330
30
100
AcDbEntity
  8
1
100
AcDbLine
 10
72.698821779607
 20
-2.75
 30
0.0
 11
72.610821779607
 21
-2.75
 31
0.0
  0
LINE
  5
355
330
30
100
AcDbEntity
  8
1
100
AcDbLine
 10
72.610821779607
 20
-2.75
 30
0.0
 11
72.522821779607
 21
-2.75
 31
0.0
  0
LINE
  5
356
330
30
100
AcDbEntity
  8
1
100
AcDbLine
 10
72.522821779607
 20
-2.75
 30
0.0
 11
72.434821779607
 21
-2.75
 31
0.0
  0
LINE
  5
357
330
30
100
AcDbEntity
  8
1
100
AcDbLine
 10
72.434821779607
 20
-2.75
 30
0.0
 11
72.346821779607
 21
-2.75
 31
0.0
  0
LINE
  5
358
330
30
100
AcDbEntity
  8
1
100
AcDbLine
 10
72.346821779607
 20
-2.75
 30
0.0
 11
72.258821779607
 21
-2.75
 31
0.0
  0
LINE
  5
359
330
30
100
AcDbEntity
  8
1
100
AcDbLine
 10
72.249115951988
 20
-2.75
 30
0.0
 11
72.249115951988
 21
2.75
 31
0.0
  0
LINE
  5
35A
330
30
100
AcDbEntity
  8
1
100
AcDbLine
 10
72.249115951988
 20
2.75
 30
0.0
 11
72.249115951988
 21
-2.75
 31
0.0
  0
LINE
  5
35B
330
30
100
AcDbEntity
  8
1
100
AcDbLine
 10
71.209885467446
 20
-2.15
 30
0.0
 11
71.209885467446
 21
2.15
 31
0.0
  0
LINE
  5
35C
330
30
100
AcDbEntity
  8
1
100
AcDbLine
 10
53.049115951988
 20
2.15
 30
0.0
 11
53.049115951988
 21
-2.15
 31
0.0
  0
LINE
  5
35D
330
30
100
AcDbEntity
  8
1
100
AcDbLine
 10
48.049260936053
 20
-2.794
 30
0.0
 11
48.049260936053
 21
2.794
 31
0.0
  0
LINE
  5
35E
330
30
100
AcDbEntity
  8
1
100
AcDbLine
 10
48.049260936053
 20
2.794
 30
0.0
 11
48.049260936053
 21
-2.794
 31
0.0
  0
LINE
  5
35F
330
30
100
AcDbEntity
  8
SK1
100
AcDbLine
 10
31.422821779607
 20
2.794
 30
0.0
 11
3.049115951988
 21
2.794
 31
0.0
  0
LINE
  5
360
330
30
100
AcDbEntity
  8
SK1
100
AcDbLine
 10
3.049115951988
 20
2.794
 30
0.0
 11
0.0
 21
0.0
 31
0.0
  0
LINE
  5
361
330
30
100
AcDbEntity
  8
SK1
100
AcDbLine
 10
31.422821779607
 20
-2.794
 30
0.0
 11
3.049115951988
 21
-2.794
 31
0.0
  0
LINE
  5
362
330
30
100
AcDbEntity
  8
SK1
100
AcDbLine
 10
3.049115951988
 20
-2.794
 30
0.0
 11
0.0
 21
0.0
 31
0.0
  0
LINE
  5
363
330
30
100
AcDbEntity
  8
SK1
100
AcDbLine
 10
3.049115951988
 20
2.794
 30
0.0
 11
3.049115951988
 21
-2.794
 31
0.0
  0
LINE
  5
364
330
30
100
AcDbEntity
  8
SK1
100
AcDbLine
 10
3.049115951988
 20
2.794
 30
0.0
 11
3.049115951988
 21
-2.794
 31
0.0
  0
LINE
  5
365
330
30
100
AcDbEntity
  8
SK1
100
AcDbLine
 10
32.462921779607
 20
1.40688
 30
0.0
 11
32.829721779607
 21
1.0401
 31
0.0
  0
LINE
  5
366
330
30
100
AcDbEntity
  8
SK1
100
AcDbLine
 10
31.955621779607
 20
1.66666
 30
0.0
 11
33.089521779607
 21
0.532833
 31
0.0
  0
LINE
  5
367
330
30
100
AcDbEntity
  8
SK1
100
AcDbLine
 10
31.638221779607
 20
1.73657
 30
0.0
 11
33.159421779607
 21
0.215434
 31
0.0
  0
LINE
  5
368
330
30
100
AcDbEntity
  8
SK1
100
AcDbLine
 10
31.422821779607
 20
1.70452
 30
0.0
 11
33.127321779607
 21
0.0
 31
0.0
  0
LINE
  5
369
330
30
100
AcDbEntity
  8
SK1
100
AcDbLine
 10
31.422821779607
 20
1.45703
 30
0.0
 11
32.879821779607
 21
0.0
 31
0.0
  0
LINE
  5
36A
330
30
100
AcDbEntity
  8
SK1
100
AcDbLine
 10
31.422821779607
 20
1.20954
 30
0.0
 11
32.632321779607
 21
0.0
 31
0.0
  0
LINE
  5
36B
330
30
100
AcDbEntity
  8
SK1
100
AcDbLine
 10
31.422821779607
 20
0.962054
 30
0.0
 11
32.384921779607
 21
0.0
 31
0.0
  0
LINE
  5
36C
330
30
100
AcDbEntity
  8
SK1
100
AcDbLine
 10
31.422821779607
 20
0.714566
 30
0.0
 11
32.137421779607
 21
0.0
 31
0.0
  0
LINE
  5
36D
330
30
100
AcDbEntity
  8
SK1
100
AcDbLine
 10
31.422821779607
 20
0.467079
 30
0.0
 11
31.889921779607
 21
0.0
 31
0.0
  0
LINE
  5
36E
330
30
100
AcDbEntity
  8
SK1
100
AcDbLine
 10
31.422821779607
 20
0.219592
 30
0.0
 11
31.642421779607
 21
0.0
 31
0.0
  0
LINE
  5
36F
330
30
100
AcDbEntity
  8
SK1
100
AcDbLine
 10
31.422821779607
 20
1.70452
 30
0.0
 11
31.466921779607
 21
1.74861
 31
0.0
  0
LINE
  5
370
330
30
100
AcDbEntity
  8
SK1
100
AcDbLine
 10
31.422821779607
 20
1.45703
 30
0.0
 11
31.693821779607
 21
1.72802
 31
0.0
  0
LINE
  5
371
330
30
100
AcDbEntity
  8
SK1
100
AcDbLine
 10
31.422821779607
 20
1.20954
 30
0.0
 11
31.897021779607
 21
1.6837
 31
0.0
  0
LINE
  5
372
330
30
100
AcDbEntity
  8
SK1
100
AcDbLine
 10
31.422821779607
 20
0.962054
 30
0.0
 11
32.081621779607
 21
1.62082
 31
0.0
  0
LINE
  5
373
330
30
100
AcDbEntity
  8
SK1
100
AcDbLine
 10
31.422821779607
 20
0.714566
 30
0.0
 11
32.249921779607
 21
1.54167
 31
0.0
  0
LINE
  5
374
330
30
100
AcDbEntity
  8
SK1
100
AcDbLine
 10
31.422821779607
 20
0.467079
 30
0.0
 11
32.403821779607
 21
1.44812
 31
0.0
  0
LINE
  5
375
330
30
100
AcDbEntity
  8
SK1
100
AcDbLine
 10
31.422821779607
 20
0.219592
 30
0.0
 11
32.545421779607
 21
1.34216
 31
0.0
  0
LINE
  5
376
330
30
100
AcDbEntity
  8
SK1
100
AcDbLine
 10
31.450721779607
 20
0.0
 30
0.0
 11
32.673621779607
 21
1.22288
 31
0.0
  0
LINE
  5
377
330
30
100
AcDbEntity
  8
SK1
100
AcDbLine
 10
31.698221779607
 20
0.0
 30
0.0
 11
32.789821779607
 21
1.09157
 31
0.0
  0
LINE
  5
378
330
30
100
AcDbEntity
  8
SK1
100
AcDbLine
 10
31.945721779607
 20
0.0
 30
0.0
 11
32.893521779607
 21
0.947822
 31
0.0
  0
LINE
  5
379
330
30
100
AcDbEntity
  8
SK1
100
AcDbLine
 10
32.193221779607
 20
0.0
 30
0.0
 11
32.983321779607
 21
0.790145
 31
0.0
  0
LINE
  5
37A
330
30
100
AcDbEntity
  8
SK1
100
AcDbLine
 10
32.440621779607
 20
0.0
 30
0.0
 11
33.059221779607
 21
0.618517
 31
0.0
  0
LINE
  5
37B
330
30
100
AcDbEntity
  8
SK1
100
AcDbLine
 10
32.688121779607
 20
0.0
 30
0.0
 11
33.118821779607
 21
0.430696
 31
0.0
  0
LINE
  5
37C
330
30
100
AcDbEntity
  8
SK1
100
AcDbLine
 10
32.935621779607
 20
0.0
 30
0.0
 11
33.158421779607
 21
0.222827
 31
0.0
  0
LINE
  5
37D
330
30
100
AcDbEntity
  8
SK1
100
AcDbLine
 10
31.422821779607
 20
0.0
 30
0.0
 11
31.422821779607
 21
1.75
 31
0.0
  0
LINE
  5
37E
330
30
100
AcDbEntity
  8
SK1
100
AcDbLine
 10
31.422821779607
 20
0.0
 30
0.0
 11
33.172821779607
 21
0.0
 31
0.0
  0
ARC
  5
37F
330
30
100
AcDbEntity
  8
SK1
100
AcDbCircle
 10
31.422821779607
 20
0.0
 30
0.0
 40
1.75
100
AcDbArc
 50
0.0
 51
90.0
  0
ARC
  5
380
330
30
100
AcDbEntity
  8
SK1
100
AcDbCircle
 10
31.422821779607
 20
0.0
 30
0.0
 40
1.75
100
AcDbArc
 50
90.0
 51
180.0
  0
LINE
  5
381
330
30
100
AcDbEntity
  8
SK1
100
AcDbLine
 10
31.394921779607
 20
0.0
 30
0.0
 11
31.422821779607
 21
-0.0278958
 31
0.0
  0
LINE
  5
382
330
30
100
AcDbEntity
  8
SK1
100
AcDbLine
 10
31.147421779607
 20
0.0
 30
0.0
 11
31.422821779607
 21
-0.275383
 31
0.0
  0
LINE
  5
383
330
30
100
AcDbEntity
  8
SK1
100
AcDbLine
 10
30.899921779607
 20
0.0
 30
0.0
 11
31.422821779607
 21
-0.522871
 31
0.0
  0
LINE
  5
384
330
30
100
AcDbEntity
  8
SK1
100
AcDbLine
 10
30.652421779607
 20
0.0
 30
0.0
 11
31.422821779607
 21
-0.770358
 31
0.0
  0
LINE
  5
385
330
30
100
AcDbEntity
  8
SK1
100
AcDbLine
 10
30.405021779607
 20
0.0
 30
0.0
 11
31.422821779607
 21
-1.01785
 31
0.0
  0
LINE
  5
386
330
30
100
AcDbEntity
  8
SK1
100
AcDbLine
 10
30.157521779607
 20
0.0
 30
0.0
 11
31.422821779607
 21
-1.26533
 31
0.0
  0
LINE
  5
387
330
30
100
AcDbEntity
  8
SK1
100
AcDbLine
 10
29.910021779607
 20
0.0
 30
0.0
 11
31.422821779607
 21
-1.51282
 31
0.0
  0
LINE
  5
388
330
30
100
AcDbEntity
  8
SK1
100
AcDbLine
 10
29.673121779607
 20
-0.0106419
 30
0.0
 11
31.412221779607
 21
-1.74967
 31
0.0
  0
LINE
  5
389
330
30
100
AcDbEntity
  8
SK1
100
AcDbLine
 10
29.696421779607
 20
-0.281429
 30
0.0
 11
31.141421779607
 21
-1.72637
 31
0.0
  0
LINE
  5
38A
330
30
100
AcDbEntity
  8
SK1
100
AcDbLine
 10
29.786721779607
 20
-0.619147
 30
0.0
 11
30.803721779607
 21
-1.63613
 31
0.0
  0
LINE
  5
38B
330
30
100
AcDbEntity
  8
SK1
100
AcDbLine
 10
29.674221779607
 20
-0.0440984
 30
0.0
 11
29.718321779607
 21
0.0
 31
0.0
  0
LINE
  5
38C
330
30
100
AcDbEntity
  8
SK1
100
AcDbLine
 10
29.694821779607
 20
-0.270991
 30
0.0
 11
29.965821779607
 21
0.0
 31
0.0
  0
LINE
  5
38D
330
30
100
AcDbEntity
  8
SK1
100
AcDbLine
 10
29.739121779607
 20
-0.474162
 30
0.0
 11
30.213321779607
 21
0.0
 31
0.0
  0
LINE
  5
38E
330
30
100
AcDbEntity
  8
SK1
100
AcDbLine
 10
29.802021779607
 20
-0.658762
 30
0.0
 11
30.460721779607
 21
0.0
 31
0.0
  0
LINE
  5
38F
330
30
100
AcDbEntity
  8
SK1
100
AcDbLine
 10
29.881121779607
 20
-0.827105
 30
0.0
 11
30.708221779607
 21
0.0
 31
0.0
  0
LINE
  5
390
330
30
100
AcDbEntity
  8
SK1
100
AcDbLine
 10
29.974721779607
 20
-0.981039
 30
0.0
 11
30.955721779607
 21
0.0
 31
0.0
  0
LINE
  5
391
330
30
100
AcDbEntity
  8
SK1
100
AcDbLine
 10
30.080621779607
 20
-1.12257
 30
0.0
 11
31.203221779607
 21
0.0
 31
0.0
  0
LINE
  5
392
330
30
100
AcDbEntity
  8
SK1
100
AcDbLine
 10
30.199921779607
 20
-1.25077
 30
0.0
 11
31.422821779607
 21
-0.0278958
 31
0.0
  0
LINE
  5
393
330
30
100
AcDbEntity
  8
SK1
100
AcDbLine
 10
30.331221779607
 20
-1.36695
 30
0.0
 11
31.422821779607
 21
-0.275383
 31
0.0
  0
LINE
  5
394
330
30
100
AcDbEntity
  8
SK1
100
AcDbLine
 10
30.475021779607
 20
-1.47069
 30
0.0
 11
31.422821779607
 21
-0.522871
 31
0.0
  0
LINE
  5
395
330
30
100
AcDbEntity
  8
SK1
100
AcDbLine
 10
30.632721779607
 20
-1.5605
 30
0.0
 11
31.422821779607
 21
-0.770358
 31
0.0
  0
LINE
  5
396
330
30
100
AcDbEntity
  8
SK1
100
AcDbLine
 10
30.804321779607
 20
-1.63636
 30
0.0
 11
31.422821779607
 21
-1.01785
 31
0.0
  0
LINE
  5
397
330
30
100
AcDbEntity
  8
SK1
100
AcDbLine
 10
30.992121779607
 20
-1.69603
 30
0.0
 11
31.422821779607
 21
-1.26533
 31
0.0
  0
LINE
  5
398
330
30
100
AcDbEntity
  8
SK1
100
AcDbLine
 10
31.200021779607
 20
-1.73565
 30
0.0
 11
31.422821779607
 21
-1.51282
 31
0.0
  0
LINE
  5
399
330
30
100
AcDbEntity
  8
SK1
100
AcDbLine
 10
31.422821779607
 20
0.0
 30
0.0
 11
29.672821779607
 21
0.0
 31
0.0
  0
LINE
  5
39A
330
30
100
AcDbEntity
  8
SK1
100
AcDbLine
 10
31.422821779607
 20
-1.75
 30
0.0
 11
31.422821779607
 21
0.0
 31
0.0
  0
ARC
  5
39B
330
30
100
AcDbEntity
  8
SK1
100
AcDbCircle
 10
31.422821779607
 20
0.0
 30
0.0
 40
1.75
100
AcDbArc
 50
180.0
 51
270.0
  0
ARC
  5
39C
330
30
100
AcDbEntity
  8
SK1
100
AcDbCircle
 10
31.422821779607
 20
0.0
 30
0.0
 40
1.75
100
AcDbArc
 50
270.0
 51
0.0
  0
LINE
  5
40B
330
30
100
AcDbEntity
  8
NOCUT
100
AcDbLine
 10
72.249115951988
 20
0.0
 30
0.0
 11
72.249115951988
 21
2.75
 31
0.0
  0
LINE
  5
40C
330
30
100
AcDbEntity
  8
NOCUT
100
AcDbLine
 10
72.249115951988
 20
2.75
 30
0.0
 11
71.209885467446
 21
2.15
 31
0.0
  0
LINE
  5
40D
330
30
100
AcDbEntity
  8
NOCUT
100
AcDbLine
 10
71.209885467446
 20
2.15
 30
0.0
 11
53.049115951988
 21
2.15
 31
0.0
  0
LINE
  5
40E
330
30
100
AcDbEntity
  8
NOCUT
100
AcDbLine
 10
53.049115951988
 20
2.15
 30
0.0
 11
48.049260936053
 21
2.794
 31
0.0
  0
LINE
  5
40F
330
30
100
AcDbEntity
  8
NOCUT
100
AcDbLine
 10
48.049260936053
 20
2.794
 30
0.0
 11
31.422821779607
 21
2.794
 31
0.0
  0
LINE
  5
410
330
30
100
AcDbEntity
  8
NOCUT
100
AcDbLine
 10
31.422821779607
 20
2.794
 30
0.0
 11
31.422821779607
 21
0.0
 31
0.0
  0
LINE
  5
411
330
30
100
AcDbEntity
  8
NOCUT
100
AcDbLine
 10
31.422821779607
 20
0.0
 30
0.0
 11
72.249115951988
 21
0.0
 31
0.0
  0
LINE
  5
412
330
30
100
AcDbEntity
  8
CUT
100
AcDbLine
 10
85.722821779607
 20
0.0
 30
0.0
 11
83.049115951988
 21
2.45
 31
0.0
  0
LINE
  5
413
330
30
100
AcDbEntity
  8
CUT
100
AcDbLine
 10
83.049115951988
 20
2.45
 30
0.0
 11
81.049115951988
 21
2.75
 31
0.0
  0
LINE
  5
414
330
30
100
AcDbEntity
  8
CUT
100
AcDbLine
 10
81.049115951988
 20
2.75
 30
0.0
 11
72.249115951988
 21
2.75
 31
0.0
  0
LINE
  5
415
330
30
100
AcDbEntity
  8
CUT
100
AcDbLine
 10
72.249115951988
 20
2.75
 30
0.0
 11
72.249115951988
 21
0.0
 31
0.0
  0
LINE
  5
416
330
30
100
AcDbEntity
  8
CUT
100
AcDbLine
 10
72.249115951988
 20
0.0
 30
0.0
 11
85.722821779607
 21
0.0
 31
0.0
  0
LINE
  5
417
330
30
100
AcDbEntity
  8
4
100
AcDbLine
 10
31.422821779607
 20
0.0
 30
0.0
 11
85.722821779607
 21
0.0
 31
0.0
  0
LINE
  5
418
330
30
100
AcDbEntity
  8
SK4
100
AcDbLine
 10
-1.0
 20
0.0
 30
0.0
 11
86.722821779607
 21
0.0
 31
0.0
  0
LINE
  5
419
330
30
100
AcDbEntity
  8
1
100
AcDbLine
 10
82.852449285321
 20
2.4795
 30
0.0
 11
72.249115951988
 21
2.4795
 31
0.0
  0
LINE
  5
41A
330
30
100
AcDbEntity
  8
1
100
AcDbLine
 10
82.626254872985
 20
2.51342916185
 30
0.0
 11
82.606665862258
 21
2.4795
 31
0.0
  0
LINE
  5
41B
330
30
100
AcDbEntity
  8
1
100
AcDbLine
 10
82.606665862258
 20
2.4795
 30
0.0
 11
82.577890907123
 21
2.4795
 31
0.0
  0
LINE
  5
41C
330
30
100
AcDbEntity
  8
1
100
AcDbLine
 10
82.577890907123
 20
2.4795
 30
0.0
 11
82.549115951988
 21
2.4795
 31
0.0
  0
LINE
  5
41D
330
30
100
AcDbEntity
  8
1
100
AcDbLine
 10
82.549115951988
 20
2.4795
 30
0.0
 11
82.520355813702
 21
2.529314020743
 31
0.0
  0
LINE
  5
41E
330
30
100
AcDbEntity
  8
1
100
AcDbLine
 10
82.166105019272
 20
2.582451639907
 30
0.0
 11
82.106665862258
 21
2.4795
 31
0.0
  0
LINE
  5
41F
330
30
100
AcDbEntity
  8
1
100
AcDbLine
 10
82.106665862258
 20
2.4795
 30
0.0
 11
82.077890907123
 21
2.4795
 31
0.0
  0
LINE
  5
420
330
30
100
AcDbEntity
  8
1
100
AcDbLine
 10
82.077890907123
 20
2.4795
 30
0.0
 11
82.049115951988
 21
2.4795
 31
0.0
  0
LINE
  5
421
330
30
100
AcDbEntity
  8
1
100
AcDbLine
 10
82.049115951988
 20
2.4795
 30
0.0
 11
81.972948992353
 21
2.611425043945
 31
0.0
  0
LINE
  5
422
330
30
100
AcDbEntity
  8
1
100
AcDbLine
 10
81.705955165558
 20
2.651474117964
 30
0.0
 11
81.606665862258
 21
2.4795
 31
0.0
  0
LINE
  5
423
330
30
100
AcDbEntity
  8
1
100
AcDbLine
 10
81.606665862258
 20
2.4795
 30
0.0
 11
81.577890907123
 21
2.4795
 31
0.0
  0
LINE
  5
424
330
30
100
AcDbEntity
  8
1
100
AcDbLine
 10
81.577890907123
 20
2.4795
 30
0.0
 11
81.549115951988
 21
2.4795
 31
0.0
  0
LINE
  5
425
330
30
100
AcDbEntity
  8
1
100
AcDbLine
 10
81.549115951988
 20
2.4795
 30
0.0
 11
81.425542171004
 21
2.693536067148
 31
0.0
  0
LINE
  5
426
330
30
100
AcDbEntity
  8
1
100
AcDbLine
 10
81.245805311844
 20
2.720496596021
 30
0.0
 11
81.106665862258
 21
2.4795
 31
0.0
  0
LINE
  5
427
330
30
100
AcDbEntity
  8
1
100
AcDbLine
 10
81.106665862258
 20
2.4795
 30
0.0
 11
81.077890907123
 21
2.4795
 31
0.0
  0
LINE
  5
428
330
30
100
AcDbEntity
  8
1
100
AcDbLine
 10
81.077890907123
 20
2.4795
 30
0.0
 11
81.049115951988
 21
2.4795
 31
0.0
  0
LINE
  5
429
330
30
100
AcDbEntity
  8
1
100
AcDbLine
 10
81.049115951988
 20
2.4795
 30
0.0
 11
80.892942704172
 21
2.75
 31
0.0
  0
LINE
  5
42A
330
30
100
AcDbEntity
  8
1
100
AcDbLine
 10
80.892942704172
 20
2.75
 30
0.0
 11
80.827890907123
 21
2.75
 31
0.0
  0
LINE
  5
42B
330
30
100
AcDbEntity
  8
1
100
AcDbLine
 10
80.827890907123
 20
2.75
 30
0.0
 11
80.762839110073
 21
2.75
 31
0.0
  0
LINE
  5
42C
330
30
100
AcDbEntity
  8
1
100
AcDbLine
 10
80.762839110073
 20
2.75
 30
0.0
 11
80.606665862258
 21
2.4795
 31
0.0
  0
LINE
  5
42D
330
30
100
AcDbEntity
  8
1
100
AcDbLine
 10
80.606665862258
 20
2.4795
 30
0.0
 11
80.577890907123
 21
2.4795
 31
0.0
  0
LINE
  5
42E
330
30
100
AcDbEntity
  8
1
100
AcDbLine
 10
80.577890907123
 20
2.4795
 30
0.0
 11
80.549115951988
 21
2.4795
 31
0.0
  0
LINE
  5
42F
330
30
100
AcDbEntity
  8
1
100
AcDbLine
 10
80.549115951988
 20
2.4795
 30
0.0
 11
80.392942704172
 21
2.75
 31
0.0
  0
LINE
  5
430
330
30
100
AcDbEntity
  8
1
100
AcDbLine
 10
80.392942704172
 20
2.75
 30
0.0
 11
80.327890907123
 21
2.75
 31
0.0
  0
LINE
  5
431
330
30
100
AcDbEntity
  8
1
100
AcDbLine
 10
80.327890907123
 20
2.75
 30
0.0
 11
80.262839110073
 21
2.75
 31
0.0
  0
LINE
  5
432
330
30
100
AcDbEntity
  8
1
100
AcDbLine
 10
80.262839110073
 20
2.75
 30
0.0
 11
80.106665862258
 21
2.4795
 31
0.0
  0
LINE
  5
433
330
30
100
AcDbEntity
  8
1
100
AcDbLine
 10
80.106665862258
 20
2.4795
 30
0.0
 11
80.077890907123
 21
2.4795
 31
0.0
  0
LINE
  5
434
330
30
100
AcDbEntity
  8
1
100
AcDbLine
 10
80.077890907123
 20
2.4795
 30
0.0
 11
80.049115951988
 21
2.4795
 31
0.0
  0
LINE
  5
435
330
30
100
AcDbEntity
  8
1
100
AcDbLine
 10
80.049115951988
 20
2.4795
 30
0.0
 11
79.892942704172
 21
2.75
 31
0.0
  0
LINE
  5
436
330
30
100
AcDbEntity
  8
1
100
AcDbLine
 10
79.892942704172
 20
2.75
 30
0.0
 11
79.827890907123
 21
2.75
 31
0.0
  0
LINE
  5
437
330
30
100
AcDbEntity
  8
1
100
AcDbLine
 10
79.827890907123
 20
2.75
 30
0.0
 11
79.762839110073
 21
2.75
 31
0.0
  0
LINE
  5
438
330
30
100
AcDbEntity
  8
1
100
AcDbLine
 10
79.762839110073
 20
2.75
 30
0.0
 11
79.606665862258
 21
2.4795
 31
0.0
  0
LINE
  5
439
330
30
100
AcDbEntity
  8
1
100
AcDbLine
 10
79.606665862258
 20
2.4795
 30
0.0
 11
79.577890907123
 21
2.4795
 31
0.0
  0
LINE
  5
43A
330
30
100
AcDbEntity
  8
1
100
AcDbLine
 10
79.577890907123
 20
2.4795
 30
0.0
 11
79.549115951988
 21
2.4795
 31
0.0
  0
LINE
  5
43B
330
30
100
AcDbEntity
  8
1
100
AcDbLine
 10
79.549115951988
 20
2.4795
 30
0.0
 11
79.392942704172
 21
2.75
 31
0.0
  0
LINE
  5
43C
330
30
100
AcDbEntity
  8
1
100
AcDbLine
 10
79.392942704172
 20
2.75
 30
0.0
 11
79.327890907123
 21
2.75
 31
0.0
  0
LINE
  5
43D
330
30
100
AcDbEntity
  8
1
100
AcDbLine
 10
79.327890907123
 20
2.75
 30
0.0
 11
79.262839110073
 21
2.75
 31
0.0
  0
LINE
  5
43E
330
30
100
AcDbEntity
  8
1
100
AcDbLine
 10
79.262839110073
 20
2.75
 30
0.0
 11
79.106665862258
 21
2.4795
 31
0.0
  0
LINE
  5
43F
330
30
100
AcDbEntity
  8
1
100
AcDbLine
 10
79.106665862258
 20
2.4795
 30
0.0
 11
79.077890907123
 21
2.4795
 31
0.0
  0
LINE
  5
440
330
30
100
AcDbEntity
  8
1
100
AcDbLine
 10
79.077890907123
 20
2.4795
 30
0.0
 11
79.049115951988
 21
2.4795
 31
0.0
  0
LINE
  5
441
330
30
100
AcDbEntity
  8
1
100
AcDbLine
 10
79.049115951988
 20
2.4795
 30
0.0
 11
78.892942704172
 21
2.75
 31
0.0
  0
LINE
  5
442
330
30
100
AcDbEntity
  8
1
100
AcDbLine
 10
78.892942704172
 20
2.75
 30
0.0
 11
78.827890907123
 21
2.75
 31
0.0
  0
LINE
  5
443
330
30
100
AcDbEntity
  8
1
100
AcDbLine
 10
78.827890907123
 20
2.75
 30
0.0
 11
78.762839110073
 21
2.75
 31
0.0
  0
LINE
  5
444
330
30
100
AcDbEntity
  8
1
100
AcDbLine
 10
78.762839110073
 20
2.75
 30
0.0
 11
78.606665862258
 21
2.4795
 31
0.0
  0
LINE
  5
445
330
30
100
AcDbEntity
  8
1
100
AcDbLine
 10
78.606665862258
 20
2.4795
 30
0.0
 11
78.577890907123
 21
2.4795
 31
0.0
  0
LINE
  5
446
330
30
100
AcDbEntity
  8
1
100
AcDbLine
 10
78.577890907123
 20
2.4795
 30
0.0
 11
78.549115951988
 21
2.4795
 31
0.0
  0
LINE
  5
447
330
30
100
AcDbEntity
  8
1
100
AcDbLine
 10
78.549115951988
 20
2.4795
 30
0.0
 11
78.392942704172
 21
2.75
 31
0.0
  0
LINE
  5
448
330
30
100
AcDbEntity
  8
1
100
AcDbLine
 10
78.392942704172
 20
2.75
 30
0.0
 11
78.327890907123
 21
2.75
 31
0.0
  0
LINE
  5
449
330
30
100
AcDbEntity
  8
1
100
AcDbLine
 10
78.327890907123
 20
2.75
 30
0.0
 11
78.262839110073
 21
2.75
 31
0.0
  0
LINE
  5
44A
330
30
100
AcDbEntity
  8
1
100
AcDbLine
 10
78.262839110073
 20
2.75
 30
0.0
 11
78.106665862258
 21
2.4795
 31
0.0
  0
LINE
  5
44B
330
30
100
AcDbEntity
  8
1
100
AcDbLine
 10
78.106665862258
 20
2.4795
 30
0.0
 11
78.077890907123
 21
2.4795
 31
0.0
  0
LINE
  5
44C
330
30
100
AcDbEntity
  8
1
100
AcDbLine
 10
78.077890907123
 20
2.4795
 30
0.0
 11
78.049115951988
 21
2.4795
 31
0.0
  0
LINE
  5
44D
330
30
100
AcDbEntity
  8
1
100
AcDbLine
 10
78.049115951988
 20
2.4795
 30
0.0
 11
77.892942704172
 21
2.75
 31
0.0
  0
LINE
  5
44E
330
30
100
AcDbEntity
  8
1
100
AcDbLine
 10
77.892942704172
 20
2.75
 30
0.0
 11
77.827890907123
 21
2.75
 31
0.0
  0
LINE
  5
44F
330
30
100
AcDbEntity
  8
1
100
AcDbLine
 10
77.827890907123
 20
2.75
 30
0.0
 11
77.762839110073
 21
2.75
 31
0.0
  0
LINE
  5
450
330
30
100
AcDbEntity
  8
1
100
AcDbLine
 10
77.762839110073
 20
2.75
 30
0.0
 11
77.606665862258
 21
2.4795
 31
0.0
  0
LINE
  5
451
330
30
100
AcDbEntity
  8
1
100
AcDbLine
 10
77.606665862258
 20
2.4795
 30
0.0
 11
77.577890907123
 21
2.4795
 31
0.0
  0
LINE
  5
452
330
30
100
AcDbEntity
  8
1
100
AcDbLine
 10
77.577890907123
 20
2.4795
 30
0.0
 11
77.549115951988
 21
2.4795
 31
0.0
  0
LINE
  5
453
330
30
100
AcDbEntity
  8
1
100
AcDbLine
 10
77.549115951988
 20
2.4795
 30
0.0
 11
77.392942704172
 21
2.75
 31
0.0
  0
LINE
  5
454
330
30
100
AcDbEntity
  8
1
100
AcDbLine
 10
77.392942704172
 20
2.75
 30
0.0
 11
77.327890907123
 21
2.75
 31
0.0
  0
LINE
  5
455
330
30
100
AcDbEntity
  8
1
100
AcDbLine
 10
77.327890907123
 20
2.75
 30
0.0
 11
77.262839110073
 21
2.75
 31
0.0
  0
LINE
  5
456
330
30
100
AcDbEntity
  8
1
100
AcDbLine
 10
77.262839110073
 20
2.75
 30
0.0
 11
77.106665862258
 21
2.4795
 31
0.0
  0
LINE
  5
457
330
30
100
AcDbEntity
  8
1
100
AcDbLine
 10
77.106665862258
 20
2.4795
 30
0.0
 11
77.077890907123
 21
2.4795
 31
0.0
  0
LINE
  5
458
330
30
100
AcDbEntity
  8
1
100
AcDbLine
 10
77.077890907123
 20
2.4795
 30
0.0
 11
77.049115951988
 21
2.4795
 31
0.0
  0
LINE
  5
459
330
30
100
AcDbEntity
  8
1
100
AcDbLine
 10
77.049115951988
 20
2.4795
 30
0.0
 11
76.892942704172
 21
2.75
 31
0.0
  0
LINE
  5
45A
330
30
100
AcDbEntity
  8
1
100
AcDbLine
 10
76.892942704172
 20
2.75
 30
0.0
 11
76.827890907123
 21
2.75
 31
0.0
  0
LINE
  5
45B
330
30
100
AcDbEntity
  8
1
100
AcDbLine
 10
76.827890907123
 20
2.75
 30
0.0
 11
76.762839110073
 21
2.75
 31
0.0
  0
LINE
  5
45C
330
30
100
AcDbEntity
  8
1
100
AcDbLine
 10
76.762839110073
 20
2.75
 30
0.0
 11
76.606665862258
 21
2.4795
 31
0.0
  0
LINE
  5
45D
330
30
100
AcDbEntity
  8
1
100
AcDbLine
 10
76.606665862258
 20
2.4795
 30
0.0
 11
76.577890907123
 21
2.4795
 31
0.0
  0
LINE
  5
45E
330
30
100
AcDbEntity
  8
1
100
AcDbLine
 10
76.577890907123
 20
2.4795
 30
0.0
 11
76.549115951988
 21
2.4795
 31
0.0
  0
LINE
  5
45F
330
30
100
AcDbEntity
  8
1
100
AcDbLine
 10
76.549115951988
 20
2.4795
 30
0.0
 11
76.392942704172
 21
2.75
 31
0.0
  0
LINE
  5
460
330
30
100
AcDbEntity
  8
1
100
AcDbLine
 10
76.392942704172
 20
2.75
 30
0.0
 11
76.327890907123
 21
2.75
 31
0.0
  0
LINE
  5
461
330
30
100
AcDbEntity
  8
1
100
AcDbLine
 10
76.327890907123
 20
2.75
 30
0.0
 11
76.262839110073
 21
2.75
 31
0.0
  0
LINE
  5
462
330
30
100
AcDbEntity
  8
1
100
AcDbLine
 10
76.262839110073
 20
2.75
 30
0.0
 11
76.106665862258
 21
2.4795
 31
0.0
  0
LINE
  5
463
330
30
100
AcDbEntity
  8
1
100
AcDbLine
 10
76.106665862258
 20
2.4795
 30
0.0
 11
76.077890907123
 21
2.4795
 31
0.0
  0
LINE
  5
464
330
30
100
AcDbEntity
  8
1
100
AcDbLine
 10
76.077890907123
 20
2.4795
 30
0.0
 11
76.049115951988
 21
2.4795
 31
0.0
  0
LINE
  5
465
330
30
100
AcDbEntity
  8
1
100
AcDbLine
 10
76.049115951988
 20
2.4795
 30
0.0
 11
75.892942704172
 21
2.75
 31
0.0
  0
LINE
  5
466
330
30
100
AcDbEntity
  8
1
100
AcDbLine
 10
75.892942704172
 20
2.75
 30
0.0
 11
75.827890907123
 21
2.75
 31
0.0
  0
LINE
  5
467
330
30
100
AcDbEntity
  8
1
100
AcDbLine
 10
75.827890907123
 20
2.75
 30
0.0
 11
75.762839110073
 21
2.75
 31
0.0
  0
LINE
  5
468
330
30
100
AcDbEntity
  8
1
100
AcDbLine
 10
75.762839110073
 20
2.75
 30
0.0
 11
75.606665862258
 21
2.4795
 31
0.0
  0
LINE
  5
469
330
30
100
AcDbEntity
  8
1
100
AcDbLine
 10
75.606665862258
 20
2.4795
 30
0.0
 11
75.577890907123
 21
2.4795
 31
0.0
  0
LINE
  5
46A
330
30
100
AcDbEntity
  8
1
100
AcDbLine
 10
75.577890907123
 20
2.4795
 30
0.0
 11
75.549115951988
 21
2.4795
 31
0.0
  0
LINE
  5
46B
330
30
100
AcDbEntity
  8
1
100
AcDbLine
 10
75.549115951988
 20
2.4795
 30
0.0
 11
75.392942704172
 21
2.75
 31
0.0
  0
LINE
  5
46C
330
30
100
AcDbEntity
  8
1
100
AcDbLine
 10
75.392942704172
 20
2.75
 30
0.0
 11
75.327890907123
 21
2.75
 31
0.0
  0
LINE
  5
46D
330
30
100
AcDbEntity
  8
1
100
AcDbLine
 10
75.327890907123
 20
2.75
 30
0.0
 11
75.262839110073
 21
2.75
 31
0.0
  0
LINE
  5
46E
330
30
100
AcDbEntity
  8
1
100
AcDbLine
 10
75.262839110073
 20
2.75
 30
0.0
 11
75.106665862258
 21
2.4795
 31
0.0
  0
LINE
  5
46F
330
30
100
AcDbEntity
  8
1
100
AcDbLine
 10
75.106665862258
 20
2.4795
 30
0.0
 11
75.077890907123
 21
2.4795
 31
0.0
  0
LINE
  5
470
330
30
100
AcDbEntity
  8
1
100
AcDbLine
 10
75.077890907123
 20
2.4795
 30
0.0
 11
75.049115951988
 21
2.4795
 31
0.0
  0
LINE
  5
471
330
30
100
AcDbEntity
  8
1
100
AcDbLine
 10
75.049115951988
 20
2.4795
 30
0.0
 11
74.892942704172
 21
2.75
 31
0.0
  0
LINE
  5
472
330
30
100
AcDbEntity
  8
1
100
AcDbLine
 10
74.892942704172
 20
2.75
 30
0.0
 11
74.827890907123
 21
2.75
 31
0.0
  0
LINE
  5
473
330
30
100
AcDbEntity
  8
1
100
AcDbLine
 10
74.827890907123
 20
2.75
 30
0.0
 11
74.762839110073
 21
2.75
 31
0.0
  0
LINE
  5
474
330
30
100
AcDbEntity
  8
1
100
AcDbLine
 10
74.762839110073
 20
2.75
 30
0.0
 11
74.606665862258
 21
2.4795
 31
0.0
  0
LINE
  5
475
330
30
100
AcDbEntity
  8
1
100
AcDbLine
 10
74.606665862258
 20
2.4795
 30
0.0
 11
74.577890907123
 21
2.4795
 31
0.0
  0
LINE
  5
476
330
30
100
AcDbEntity
  8
1
100
AcDbLine
 10
74.577890907123
 20
2.4795
 30
0.0
 11
74.549115951988
 21
2.4795
 31
0.0
  0
LINE
  5
477
330
30
100
AcDbEntity
  8
1
100
AcDbLine
 10
74.549115951988
 20
2.4795
 30
0.0
 11
74.392942704172
 21
2.75
 31
0.0
  0
LINE
  5
478
330
30
100
AcDbEntity
  8
1
100
AcDbLine
 10
74.392942704172
 20
2.75
 30
0.0
 11
74.327890907123
 21
2.75
 31
0.0
  0
LINE
  5
479
330
30
100
AcDbEntity
  8
1
100
AcDbLine
 10
74.327890907123
 20
2.75
 30
0.0
 11
74.262839110073
 21
2.75
 31
0.0
  0
LINE
  5
47A
330
30
100
AcDbEntity
  8
1
100
AcDbLine
 10
74.262839110073
 20
2.75
 30
0.0
 11
74.106665862258
 21
2.4795
 31
0.0
  0
LINE
  5
47B
330
30
100
AcDbEntity
  8
1
100
AcDbLine
 10
74.106665862258
 20
2.4795
 30
0.0
 11
74.077890907123
 21
2.4795
 31
0.0
  0
LINE
  5
47C
330
30
100
AcDbEntity
  8
1
100
AcDbLine
 10
74.077890907123
 20
2.4795
 30
0.0
 11
74.049115951988
 21
2.4795
 31
0.0
  0
LINE
  5
47D
330
30
100
AcDbEntity
  8
1
100
AcDbLine
 10
74.049115951988
 20
2.4795
 30
0.0
 11
73.892942704172
 21
2.75
 31
0.0
  0
LINE
  5
47E
330
30
100
AcDbEntity
  8
1
100
AcDbLine
 10
73.892942704172
 20
2.75
 30
0.0
 11
73.827890907123
 21
2.75
 31
0.0
  0
LINE
  5
47F
330
30
100
AcDbEntity
  8
1
100
AcDbLine
 10
73.827890907123
 20
2.75
 30
0.0
 11
73.762839110073
 21
2.75
 31
0.0
  0
LINE
  5
480
330
30
100
AcDbEntity
  8
1
100
AcDbLine
 10
73.762839110073
 20
2.75
 30
0.0
 11
73.606665862258
 21
2.4795
 31
0.0
  0
LINE
  5
481
330
30
100
AcDbEntity
  8
1
100
AcDbLine
 10
73.606665862258
 20
2.4795
 30
0.0
 11
73.577890907123
 21
2.4795
 31
0.0
  0
LINE
  5
482
330
30
100
AcDbEntity
  8
1
100
AcDbLine
 10
73.577890907123
 20
2.4795
 30
0.0
 11
73.549115951988
 21
2.4795
 31
0.0
  0
LINE
  5
483
330
30
100
AcDbEntity
  8
1
100
AcDbLine
 10
73.549115951988
 20
2.4795
 30
0.0
 11
73.392942704172
 21
2.75
 31
0.0
  0
LINE
  5
484
330
30
100
AcDbEntity
  8
1
100
AcDbLine
 10
73.392942704172
 20
2.75
 30
0.0
 11
73.327890907123
 21
2.75
 31
0.0
  0
LINE
  5
485
330
30
100
AcDbEntity
  8
1
100
AcDbLine
 10
73.327890907123
 20
2.75
 30
0.0
 11
73.262839110073
 21
2.75
 31
0.0
  0
LINE
  5
486
330
30
100
AcDbEntity
  8
1
100
AcDbLine
 10
73.262839110073
 20
2.75
 30
0.0
 11
73.106665862258
 21
2.4795
 31
0.0
  0
LINE
  5
487
330
30
100
AcDbEntity
  8
1
100
AcDbLine
 10
73.106665862258
 20
2.4795
 30
0.0
 11
73.077890907123
 21
2.4795
 31
0.0
  0
LINE
  5
488
330
30
100
AcDbEntity
  8
1
100
AcDbLine
 10
73.077890907123
 20
2.4795
 30
0.0
 11
73.049115951988
 21
2.4795
 31
0.0
  0
LINE
  5
489
330
30
100
AcDbEntity
  8
1
100
AcDbLine
 10
73.049115951988
 20
2.4795
 30
0.0
 11
72.892942704172
 21
2.75
 31
0.0
  0
LINE
  5
48A
330
30
100
AcDbEntity
  8
1
100
AcDbLine
 10
72.892942704172
 20
2.75
 30
0.0
 11
72.827890907123
 21
2.75
 31
0.0
  0
LINE
  5
48B
330
30
100
AcDbEntity
  8
1
100
AcDbLine
 10
72.827890907123
 20
2.75
 30
0.0
 11
72.762839110073
 21
2.75
 31
0.0
  0
LINE
  5
48C
330
30
100
AcDbEntity
  8
1
100
AcDbLine
 10
72.762839110073
 20
2.75
 30
0.0
 11
72.606665862258
 21
2.4795
 31
0.0
  0
LINE
  5
48D
330
30
100
AcDbEntity
  8
1
100
AcDbLine
 10
72.606665862258
 20
2.4795
 30
0.0
 11
72.577890907123
 21
2.4795
 31
0.0
  0
LINE
  5
48E
330
30
100
AcDbEntity
  8
1
100
AcDbLine
 10
72.577890907123
 20
2.4795
 30
0.0
 11
72.549115951988
 21
2.4795
 31
0.0
  0
LINE
  5
48F
330
30
100
AcDbEntity
  8
1
100
AcDbLine
 10
72.549115951988
 20
2.4795
 30
0.0
 11
72.392942704172
 21
2.75
 31
0.0
  0
LINE
  5
490
330
30
100
AcDbEntity
  8
1
100
AcDbLine
 10
72.392942704172
 20
2.75
 30
0.0
 11
72.327890907123
 21
2.75
 31
0.0
  0
LINE
  5
491
330
30
100
AcDbEntity
  8
1
100
AcDbLine
 10
72.327890907123
 20
2.75
 30
0.0
 11
72.262839110073
 21
2.75
 31
0.0
  0
LINE
  5
492
330
30
100
AcDbEntity
  8
1
100
AcDbLine
 10
72.262839110073
 20
2.75
 30
0.0
 11
72.106665862258
 21
2.4795
 31
0.0
  0
LINE
  5
493
330
30
100
AcDbEntity
  8
1
100
AcDbLine
 10
72.106665862258
 20
2.4795
 30
0.0
 11
72.077890907123
 21
2.4795
 31
0.0
  0
LINE
  5
494
330
30
100
AcDbEntity
  8
1
100
AcDbLine
 10
72.077890907123
 20
2.4795
 30
0.0
 11
72.049115951988
 21
2.4795
 31
0.0
  0
LINE
  5
495
330
30
100
AcDbEntity
  8
1
100
AcDbLine
 10
82.852449285321
 20
-2.4795
 30
0.0
 11
72.249115951988
 21
-2.4795
 31
0.0
  0
LINE
  5
496
330
30
100
AcDbEntity
  8
1
100
AcDbLine
 10
82.626254872985
 20
-2.51342916185
 30
0.0
 11
82.606665862258
 21
-2.4795
 31
0.0
  0
LINE
  5
497
330
30
100
AcDbEntity
  8
1
100
AcDbLine
 10
82.606665862258
 20
-2.4795
 30
0.0
 11
82.577890907123
 21
-2.4795
 31
0.0
  0
LINE
  5
498
330
30
100
AcDbEntity
  8
1
100
AcDbLine
 10
82.577890907123
 20
-2.4795
 30
0.0
 11
82.549115951988
 21
-2.4795
 31
0.0
  0
LINE
  5
499
330
30
100
AcDbEntity
  8
1
100
AcDbLine
 10
82.549115951988
 20
-2.4795
 30
0.0
 11
82.520355813702
 21
-2.529314020743
 31
0.0
  0
LINE
  5
49A
330
30
100
AcDbEntity
  8
1
100
AcDbLine
 10
82.166105019272
 20
-2.582451639907
 30
0.0
 11
82.106665862258
 21
-2.4795
 31
0.0
  0
LINE
  5
49B
330
30
100
AcDbEntity
  8
1
100
AcDbLine
 10
82.106665862258
 20
-2.4795
 30
0.0
 11
82.077890907123
 21
-2.4795
 31
0.0
  0
LINE
  5
49C
330
30
100
AcDbEntity
  8
1
100
AcDbLine
 10
82.077890907123
 20
-2.4795
 30
0.0
 11
82.049115951988
 21
-2.4795
 31
0.0
  0
LINE
  5
49D
330
30
100
AcDbEntity
  8
1
100
AcDbLine
 10
82.049115951988
 20
-2.4795
 30
0.0
 11
81.972948992353
 21
-2.611425043945
 31
0.0
  0
LINE
  5
49E
330
30
100
AcDbEntity
  8
1
100
AcDbLine
 10
81.705955165558
 20
-2.651474117964
 30
0.0
 11
81.606665862258
 21
-2.4795
 31
0.0
  0
LINE
  5
49F
330
30
100
AcDbEntity
  8
1
100
AcDbLine
 10
81.606665862258
 20
-2.4795
 30
0.0
 11
81.577890907123
 21
-2.4795
 31
0.0
  0
LINE
  5
4A0
330
30
100
AcDbEntity
  8
1
100
AcDbLine
 10
81.577890907123
 20
-2.4795
 30
0.0
 11
81.549115951988
 21
-2.4795
 31
0.0
  0
LINE
  5
4A1
330
30
100
AcDbEntity
  8
1
100
AcDbLine
 10
81.549115951988
 20
-2.4795
 30
0.0
 11
81.425542171004
 21
-2.693536067148
 31
0.0
  0
LINE
  5
4A2
330
30
100
AcDbEntity
  8
1
100
AcDbLine
 10
81.245805311844
 20
-2.720496596021
 30
0.0
 11
81.106665862258
 21
-2.4795
 31
0.0
  0
LINE
  5
4A3
330
30
100
AcDbEntity
  8
1
100
AcDbLine
 10
81.106665862258
 20
-2.4795
 30
0.0
 11
81.077890907123
 21
-2.4795
 31
0.0
  0
LINE
  5
4A4
330
30
100
AcDbEntity
  8
1
100
AcDbLine
 10
81.077890907123
 20
-2.4795
 30
0.0
 11
81.049115951988
 21
-2.4795
 31
0.0
  0
LINE
  5
4A5
330
30
100
AcDbEntity
  8
1
100
AcDbLine
 10
81.049115951988
 20
-2.4795
 30
0.0
 11
80.892942704172
 21
-2.75
 31
0.0
  0
LINE
  5
4A6
330
30
100
AcDbEntity
  8
1
100
AcDbLine
 10
80.892942704172
 20
-2.75
 30
0.0
 11
80.827890907123
 21
-2.75
 31
0.0
  0
LINE
  5
4A7
330
30
100
AcDbEntity
  8
1
100
AcDbLine
 10
80.827890907123
 20
-2.75
 30
0.0
 11
80.762839110073
 21
-2.75
 31
0.0
  0
LINE
  5
4A8
330
30
100
AcDbEntity
  8
1
100
AcDbLine
 10
80.762839110073
 20
-2.75
 30
0.0
 11
80.606665862258
 21
-2.4795
 31
0.0
  0
LINE
  5
4A9
330
30
100
AcDbEntity
  8
1
100
AcDbLine
 10
80.606665862258
 20
-2.4795
 30
0.0
 11
80.577890907123
 21
-2.4795
 31
0.0
  0
LINE
  5
4AA
330
30
100
AcDbEntity
  8
1
100
AcDbLine
 10
80.577890907123
 20
-2.4795
 30
0.0
 11
80.549115951988
 21
-2.4795
 31
0.0
  0
LINE
  5
4AB
330
30
100
AcDbEntity
  8
1
100
AcDbLine
 10
80.549115951988
 20
-2.4795
 30
0.0
 11
80.392942704172
 21
-2.75
 31
0.0
  0
LINE
  5
4AC
330
30
100
AcDbEntity
  8
1
100
AcDbLine
 10
80.392942704172
 20
-2.75
 30
0.0
 11
80.327890907123
 21
-2.75
 31
0.0
  0
LINE
  5
4AD
330
30
100
AcDbEntity
  8
1
100
AcDbLine
 10
80.327890907123
 20
-2.75
 30
0.0
 11
80.262839110073
 21
-2.75
 31
0.0
  0
LINE
  5
4AE
330
30
100
AcDbEntity
  8
1
100
AcDbLine
 10
80.262839110073
 20
-2.75
 30
0.0
 11
80.106665862258
 21
-2.4795
 31
0.0
  0
LINE
  5
4AF
330
30
100
AcDbEntity
  8
1
100
AcDbLine
 10
80.106665862258
 20
-2.4795
 30
0.0
 11
80.077890907123
 21
-2.4795
 31
0.0
  0
LINE
  5
4B0
330
30
100
AcDbEntity
  8
1
100
AcDbLine
 10
80.077890907123
 20
-2.4795
 30
0.0
 11
80.049115951988
 21
-2.4795
 31
0.0
  0
LINE
  5
4B1
330
30
100
AcDbEntity
  8
1
100
AcDbLine
 10
80.049115951988
 20
-2.4795
 30
0.0
 11
79.892942704172
 21
-2.75
 31
0.0
  0
LINE
  5
4B2
330
30
100
AcDbEntity
  8
1
100
AcDbLine
 10
79.892942704172
 20
-2.75
 30
0.0
 11
79.827890907123
 21
-2.75
 31
0.0
  0
LINE
  5
4B3
330
30
100
AcDbEntity
  8
1
100
AcDbLine
 10
79.827890907123
 20
-2.75
 30
0.0
 11
79.762839110073
 21
-2.75
 31
0.0
  0
LINE
  5
4B4
330
30
100
AcDbEntity
  8
1
100
AcDbLine
 10
79.762839110073
 20
-2.75
 30
0.0
 11
79.606665862258
 21
-2.4795
 31
0.0
  0
LINE
  5
4B5
330
30
100
AcDbEntity
  8
1
100
AcDbLine
 10
79.606665862258
 20
-2.4795
 30
0.0
 11
79.577890907123
 21
-2.4795
 31
0.0
  0
LINE
  5
4B6
330
30
100
AcDbEntity
  8
1
100
AcDbLine
 10
79.577890907123
 20
-2.4795
 30
0.0
 11
79.549115951988
 21
-2.4795
 31
0.0
  0
LINE
  5
4B7
330
30
100
AcDbEntity
  8
1
100
AcDbLine
 10
79.549115951988
 20
-2.4795
 30
0.0
 11
79.392942704172
 21
-2.75
 31
0.0
  0
LINE
  5
4B8
330
30
100
AcDbEntity
  8
1
100
AcDbLine
 10
79.392942704172
 20
-2.75
 30
0.0
 11
79.327890907123
 21
-2.75
 31
0.0
  0
LINE
  5
4B9
330
30
100
AcDbEntity
  8
1
100
AcDbLine
 10
79.327890907123
 20
-2.75
 30
0.0
 11
79.262839110073
 21
-2.75
 31
0.0
  0
LINE
  5
4BA
330
30
100
AcDbEntity
  8
1
100
AcDbLine
 10
79.262839110073
 20
-2.75
 30
0.0
 11
79.106665862258
 21
-2.4795
 31
0.0
  0
LINE
  5
4BB
330
30
100
AcDbEntity
  8
1
100
AcDbLine
 10
79.106665862258
 20
-2.4795
 30
0.0
 11
79.077890907123
 21
-2.4795
 31
0.0
  0
LINE
  5
4BC
330
30
100
AcDbEntity
  8
1
100
AcDbLine
 10
79.077890907123
 20
-2.4795
 30
0.0
 11
79.049115951988
 21
-2.4795
 31
0.0
  0
LINE
  5
4BD
330
30
100
AcDbEntity
  8
1
100
AcDbLine
 10
79.049115951988
 20
-2.4795
 30
0.0
 11
78.892942704172
 21
-2.75
 31
0.0
  0
LINE
  5
4BE
330
30
100
AcDbEntity
  8
1
100
AcDbLine
 10
78.892942704172
 20
-2.75
 30
0.0
 11
78.827890907123
 21
-2.75
 31
0.0
  0
LINE
  5
4BF
330
30
100
AcDbEntity
  8
1
100
AcDbLine
 10
78.827890907123
 20
-2.75
 30
0.0
 11
78.762839110073
 21
-2.75
 31
0.0
  0
LINE
  5
4C0
330
30
100
AcDbEntity
  8
1
100
AcDbLine
 10
78.762839110073
 20
-2.75
 30
0.0
 11
78.606665862258
 21
-2.4795
 31
0.0
  0
LINE
  5
4C1
330
30
100
AcDbEntity
  8
1
100
AcDbLine
 10
78.606665862258
 20
-2.4795
 30
0.0
 11
78.577890907123
 21
-2.4795
 31
0.0
  0
LINE
  5
4C2
330
30
100
AcDbEntity
  8
1
100
AcDbLine
 10
78.577890907123
 20
-2.4795
 30
0.0
 11
78.549115951988
 21
-2.4795
 31
0.0
  0
LINE
  5
4C3
330
30
100
AcDbEntity
  8
1
100
AcDbLine
 10
78.549115951988
 20
-2.4795
 30
0.0
 11
78.392942704172
 21
-2.75
 31
0.0
  0
LINE
  5
4C4
330
30
100
AcDbEntity
  8
1
100
AcDbLine
 10
78.392942704172
 20
-2.75
 30
0.0
 11
78.327890907123
 21
-2.75
 31
0.0
  0
LINE
  5
4C5
330
30
100
AcDbEntity
  8
1
100
AcDbLine
 10
78.327890907123
 20
-2.75
 30
0.0
 11
78.262839110073
 21
-2.75
 31
0.0
  0
LINE
  5
4C6
330
30
100
AcDbEntity
  8
1
100
AcDbLine
 10
78.262839110073
 20
-2.75
 30
0.0
 11
78.106665862258
 21
-2.4795
 31
0.0
  0
LINE
  5
4C7
330
30
100
AcDbEntity
  8
1
100
AcDbLine
 10
78.106665862258
 20
-2.4795
 30
0.0
 11
78.077890907123
 21
-2.4795
 31
0.0
  0
LINE
  5
4C8
330
30
100
AcDbEntity
  8
1
100
AcDbLine
 10
78.077890907123
 20
-2.4795
 30
0.0
 11
78.049115951988
 21
-2.4795
 31
0.0
  0
LINE
  5
4C9
330
30
100
AcDbEntity
  8
1
100
AcDbLine
 10
78.049115951988
 20
-2.4795
 30
0.0
 11
77.892942704172
 21
-2.75
 31
0.0
  0
LINE
  5
4CA
330
30
100
AcDbEntity
  8
1
100
AcDbLine
 10
77.892942704172
 20
-2.75
 30
0.0
 11
77.827890907123
 21
-2.75
 31
0.0
  0
LINE
  5
4CB
330
30
100
AcDbEntity
  8
1
100
AcDbLine
 10
77.827890907123
 20
-2.75
 30
0.0
 11
77.762839110073
 21
-2.75
 31
0.0
  0
LINE
  5
4CC
330
30
100
AcDbEntity
  8
1
100
AcDbLine
 10
77.762839110073
 20
-2.75
 30
0.0
 11
77.606665862258
 21
-2.4795
 31
0.0
  0
LINE
  5
4CD
330
30
100
AcDbEntity
  8
1
100
AcDbLine
 10
77.606665862258
 20
-2.4795
 30
0.0
 11
77.577890907123
 21
-2.4795
 31
0.0
  0
LINE
  5
4CE
330
30
100
AcDbEntity
  8
1
100
AcDbLine
 10
77.577890907123
 20
-2.4795
 30
0.0
 11
77.549115951988
 21
-2.4795
 31
0.0
  0
LINE
  5
4CF
330
30
100
AcDbEntity
  8
1
100
AcDbLine
 10
77.549115951988
 20
-2.4795
 30
0.0
 11
77.392942704172
 21
-2.75
 31
0.0
  0
LINE
  5
4D0
330
30
100
AcDbEntity
  8
1
100
AcDbLine
 10
77.392942704172
 20
-2.75
 30
0.0
 11
77.327890907123
 21
-2.75
 31
0.0
  0
LINE
  5
4D1
330
30
100
AcDbEntity
  8
1
100
AcDbLine
 10
77.327890907123
 20
-2.75
 30
0.0
 11
77.262839110073
 21
-2.75
 31
0.0
  0
LINE
  5
4D2
330
30
100
AcDbEntity
  8
1
100
AcDbLine
 10
77.262839110073
 20
-2.75
 30
0.0
 11
77.106665862258
 21
-2.4795
 31
0.0
  0
LINE
  5
4D3
330
30
100
AcDbEntity
  8
1
100
AcDbLine
 10
77.106665862258
 20
-2.4795
 30
0.0
 11
77.077890907123
 21
-2.4795
 31
0.0
  0
LINE
  5
4D4
330
30
100
AcDbEntity
  8
1
100
AcDbLine
 10
77.077890907123
 20
-2.4795
 30
0.0
 11
77.049115951988
 21
-2.4795
 31
0.0
  0
LINE
  5
4D5
330
30
100
AcDbEntity
  8
1
100
AcDbLine
 10
77.049115951988
 20
-2.4795
 30
0.0
 11
76.892942704172
 21
-2.75
 31
0.0
  0
LINE
  5
4D6
330
30
100
AcDbEntity
  8
1
100
AcDbLine
 10
76.892942704172
 20
-2.75
 30
0.0
 11
76.827890907123
 21
-2.75
 31
0.0
  0
LINE
  5
4D7
330
30
100
AcDbEntity
  8
1
100
AcDbLine
 10
76.827890907123
 20
-2.75
 30
0.0
 11
76.762839110073
 21
-2.75
 31
0.0
  0
LINE
  5
4D8
330
30
100
AcDbEntity
  8
1
100
AcDbLine
 10
76.762839110073
 20
-2.75
 30
0.0
 11
76.606665862258
 21
-2.4795
 31
0.0
  0
LINE
  5
4D9
330
30
100
AcDbEntity
  8
1
100
AcDbLine
 10
76.606665862258
 20
-2.4795
 30
0.0
 11
76.577890907123
 21
-2.4795
 31
0.0
  0
LINE
  5
4DA
330
30
100
AcDbEntity
  8
1
100
AcDbLine
 10
76.577890907123
 20
-2.4795
 30
0.0
 11
76.549115951988
 21
-2.4795
 31
0.0
  0
LINE
  5
4DB
330
30
100
AcDbEntity
  8
1
100
AcDbLine
 10
76.549115951988
 20
-2.4795
 30
0.0
 11
76.392942704172
 21
-2.75
 31
0.0
  0
LINE
  5
4DC
330
30
100
AcDbEntity
  8
1
100
AcDbLine
 10
76.392942704172
 20
-2.75
 30
0.0
 11
76.327890907123
 21
-2.75
 31
0.0
  0
LINE
  5
4DD
330
30
100
AcDbEntity
  8
1
100
AcDbLine
 10
76.327890907123
 20
-2.75
 30
0.0
 11
76.262839110073
 21
-2.75
 31
0.0
  0
LINE
  5
4DE
330
30
100
AcDbEntity
  8
1
100
AcDbLine
 10
76.262839110073
 20
-2.75
 30
0.0
 11
76.106665862258
 21
-2.4795
 31
0.0
  0
LINE
  5
4DF
330
30
100
AcDbEntity
  8
1
100
AcDbLine
 10
76.106665862258
 20
-2.4795
 30
0.0
 11
76.077890907123
 21
-2.4795
 31
0.0
  0
LINE
  5
4E0
330
30
100
AcDbEntity
  8
1
100
AcDbLine
 10
76.077890907123
 20
-2.4795
 30
0.0
 11
76.049115951988
 21
-2.4795
 31
0.0
  0
LINE
  5
4E1
330
30
100
AcDbEntity
  8
1
100
AcDbLine
 10
76.049115951988
 20
-2.4795
 30
0.0
 11
75.892942704172
 21
-2.75
 31
0.0
  0
LINE
  5
4E2
330
30
100
AcDbEntity
  8
1
100
AcDbLine
 10
75.892942704172
 20
-2.75
 30
0.0
 11
75.827890907123
 21
-2.75
 31
0.0
  0
LINE
  5
4E3
330
30
100
AcDbEntity
  8
1
100
AcDbLine
 10
75.827890907123
 20
-2.75
 30
0.0
 11
75.762839110073
 21
-2.75
 31
0.0
  0
LINE
  5
4E4
330
30
100
AcDbEntity
  8
1
100
AcDbLine
 10
75.762839110073
 20
-2.75
 30
0.0
 11
75.606665862258
 21
-2.4795
 31
0.0
  0
LINE
  5
4E5
330
30
100
AcDbEntity
  8
1
100
AcDbLine
 10
75.606665862258
 20
-2.4795
 30
0.0
 11
75.577890907123
 21
-2.4795
 31
0.0
  0
LINE
  5
4E6
330
30
100
AcDbEntity
  8
1
100
AcDbLine
 10
75.577890907123
 20
-2.4795
 30
0.0
 11
75.549115951988
 21
-2.4795
 31
0.0
  0
LINE
  5
4E7
330
30
100
AcDbEntity
  8
1
100
AcDbLine
 10
75.549115951988
 20
-2.4795
 30
0.0
 11
75.392942704172
 21
-2.75
 31
0.0
  0
LINE
  5
4E8
330
30
100
AcDbEntity
  8
1
100
AcDbLine
 10
75.392942704172
 20
-2.75
 30
0.0
 11
75.327890907123
 21
-2.75
 31
0.0
  0
LINE
  5
4E9
330
30
100
AcDbEntity
  8
1
100
AcDbLine
 10
75.327890907123
 20
-2.75
 30
0.0
 11
75.262839110073
 21
-2.75
 31
0.0
  0
LINE
  5
4EA
330
30
100
AcDbEntity
  8
1
100
AcDbLine
 10
75.262839110073
 20
-2.75
 30
0.0
 11
75.106665862258
 21
-2.4795
 31
0.0
  0
LINE
  5
4EB
330
30
100
AcDbEntity
  8
1
100
AcDbLine
 10
75.106665862258
 20
-2.4795
 30
0.0
 11
75.077890907123
 21
-2.4795
 31
0.0
  0
LINE
  5
4EC
330
30
100
AcDbEntity
  8
1
100
AcDbLine
 10
75.077890907123
 20
-2.4795
 30
0.0
 11
75.049115951988
 21
-2.4795
 31
0.0
  0
LINE
  5
4ED
330
30
100
AcDbEntity
  8
1
100
AcDbLine
 10
75.049115951988
 20
-2.4795
 30
0.0
 11
74.892942704172
 21
-2.75
 31
0.0
  0
LINE
  5
4EE
330
30
100
AcDbEntity
  8
1
100
AcDbLine
 10
74.892942704172
 20
-2.75
 30
0.0
 11
74.827890907123
 21
-2.75
 31
0.0
  0
LINE
  5
4EF
330
30
100
AcDbEntity
  8
1
100
AcDbLine
 10
74.827890907123
 20
-2.75
 30
0.0
 11
74.762839110073
 21
-2.75
 31
0.0
  0
LINE
  5
4F0
330
30
100
AcDbEntity
  8
1
100
AcDbLine
 10
74.762839110073
 20
-2.75
 30
0.0
 11
74.606665862258
 21
-2.4795
 31
0.0
  0
LINE
  5
4F1
330
30
100
AcDbEntity
  8
1
100
AcDbLine
 10
74.606665862258
 20
-2.4795
 30
0.0
 11
74.577890907123
 21
-2.4795
 31
0.0
  0
LINE
  5
4F2
330
30
100
AcDbEntity
  8
1
100
AcDbLine
 10
74.577890907123
 20
-2.4795
 30
0.0
 11
74.549115951988
 21
-2.4795
 31
0.0
  0
LINE
  5
4F3
330
30
100
AcDbEntity
  8
1
100
AcDbLine
 10
74.549115951988
 20
-2.4795
 30
0.0
 11
74.392942704172
 21
-2.75
 31
0.0
  0
LINE
  5
4F4
330
30
100
AcDbEntity
  8
1
100
AcDbLine
 10
74.392942704172
 20
-2.75
 30
0.0
 11
74.327890907123
 21
-2.75
 31
0.0
  0
LINE
  5
4F5
330
30
100
AcDbEntity
  8
1
100
AcDbLine
 10
74.327890907123
 20
-2.75
 30
0.0
 11
74.262839110073
 21
-2.75
 31
0.0
  0
LINE
  5
4F6
330
30
100
AcDbEntity
  8
1
100
AcDbLine
 10
74.262839110073
 20
-2.75
 30
0.0
 11
74.106665862258
 21
-2.4795
 31
0.0
  0
LINE
  5
4F7
330
30
100
AcDbEntity
  8
1
100
AcDbLine
 10
74.106665862258
 20
-2.4795
 30
0.0
 11
74.077890907123
 21
-2.4795
 31
0.0
  0
LINE
  5
4F8
330
30
100
AcDbEntity
  8
1
100
AcDbLine
 10
74.077890907123
 20
-2.4795
 30
0.0
 11
74.049115951988
 21
-2.4795
 31
0.0
  0
LINE
  5
4F9
330
30
100
AcDbEntity
  8
1
100
AcDbLine
 10
74.049115951988
 20
-2.4795
 30
0.0
 11
73.892942704172
 21
-2.75
 31
0.0
  0
LINE
  5
4FA
330
30
100
AcDbEntity
  8
1
100
AcDbLine
 10
73.892942704172
 20
-2.75
 30
0.0
 11
73.827890907123
 21
-2.75
 31
0.0
  0
LINE
  5
4FB
330
30
100
AcDbEntity
  8
1
100
AcDbLine
 10
73.827890907123
 20
-2.75
 30
0.0
 11
73.762839110073
 21
-2.75
 31
0.0
  0
LINE
  5
4FC
330
30
100
AcDbEntity
  8
1
100
AcDbLine
 10
73.762839110073
 20
-2.75
 30
0.0
 11
73.606665862258
 21
-2.4795
 31
0.0
  0
LINE
  5
4FD
330
30
100
AcDbEntity
  8
1
100
AcDbLine
 10
73.606665862258
 20
-2.4795
 30
0.0
 11
73.577890907123
 21
-2.4795
 31
0.0
  0
LINE
  5
4FE
330
30
100
AcDbEntity
  8
1
100
AcDbLine
 10
73.577890907123
 20
-2.4795
 30
0.0
 11
73.549115951988
 21
-2.4795
 31
0.0
  0
LINE
  5
4FF
330
30
100
AcDbEntity
  8
1
100
AcDbLine
 10
73.549115951988
 20
-2.4795
 30
0.0
 11
73.392942704172
 21
-2.75
 31
0.0
  0
LINE
  5
500
330
30
100
AcDbEntity
  8
1
100
AcDbLine
 10
73.392942704172
 20
-2.75
 30
0.0
 11
73.327890907123
 21
-2.75
 31
0.0
  0
LINE
  5
501
330
30
100
AcDbEntity
  8
1
100
AcDbLine
 10
73.327890907123
 20
-2.75
 30
0.0
 11
73.262839110073
 21
-2.75
 31
0.0
  0
LINE
  5
502
330
30
100
AcDbEntity
  8
1
100
AcDbLine
 10
73.262839110073
 20
-2.75
 30
0.0
 11
73.106665862258
 21
-2.4795
 31
0.0
  0
LINE
  5
503
330
30
100
AcDbEntity
  8
1
100
AcDbLine
 10
73.106665862258
 20
-2.4795
 30
0.0
 11
73.077890907123
 21
-2.4795
 31
0.0
  0
LINE
  5
504
330
30
100
AcDbEntity
  8
1
100
AcDbLine
 10
73.077890907123
 20
-2.4795
 30
0.0
 11
73.049115951988
 21
-2.4795
 31
0.0
  0
LINE
  5
505
330
30
100
AcDbEntity
  8
1
100
AcDbLine
 10
73.049115951988
 20
-2.4795
 30
0.0
 11
72.892942704172
 21
-2.75
 31
0.0
  0
LINE
  5
506
330
30
100
AcDbEntity
  8
1
100
AcDbLine
 10
72.892942704172
 20
-2.75
 30
0.0
 11
72.827890907123
 21
-2.75
 31
0.0
  0
LINE
  5
507
330
30
100
AcDbEntity
  8
1
100
AcDbLine
 10
72.827890907123
 20
-2.75
 30
0.0
 11
72.762839110073
 21
-2.75
 31
0.0
  0
LINE
  5
508
330
30
100
AcDbEntity
  8
1
100
AcDbLine
 10
72.762839110073
 20
-2.75
 30
0.0
 11
72.606665862258
 21
-2.4795
 31
0.0
  0
LINE
  5
509
330
30
100
AcDbEntity
  8
1
100
AcDbLine
 10
72.606665862258
 20
-2.4795
 30
0.0
 11
72.577890907123
 21
-2.4795
 31
0.0
  0
LINE
  5
50A
330
30
100
AcDbEntity
  8
1
100
AcDbLine
 10
72.577890907123
 20
-2.4795
 30
0.0
 11
72.549115951988
 21
-2.4795
 31
0.0
  0
LINE
  5
50B
330
30
100
AcDbEntity
  8
1
100
AcDbLine
 10
72.549115951988
 20
-2.4795
 30
0.0
 11
72.392942704172
 21
-2.75
 31
0.0
  0
LINE
  5
50C
330
30
100
AcDbEntity
  8
1
100
AcDbLine
 10
72.392942704172
 20
-2.75
 30
0.0
 11
72.327890907123
 21
-2.75
 31
0.0
  0
LINE
  5
50D
330
30
100
AcDbEntity
  8
1
100
AcDbLine
 10
72.327890907123
 20
-2.75
 30
0.0
 11
72.262839110073
 21
-2.75
 31
0.0
  0
LINE
  5
50E
330
30
100
AcDbEntity
  8
1
100
AcDbLine
 10
72.262839110073
 20
-2.75
 30
0.0
 11
72.106665862258
 21
-2.4795
 31
0.0
  0
LINE
  5
50F
330
30
100
AcDbEntity
  8
1
100
AcDbLine
 10
72.106665862258
 20
-2.4795
 30
0.0
 11
72.077890907123
 21
-2.4795
 31
0.0
  0
LINE
  5
510
330
30
100
AcDbEntity
  8
1
100
AcDbLine
 10
72.077890907123
 20
-2.4795
 30
0.0
 11
72.049115951988
 21
-2.4795
 31
0.0
  0
LINE
  5
511
330
30
100
AcDbEntity
  8
SK1
100
AcDbLine
 10
10.149115951988
 20
1.312611293414
 30
0.0
 11
10.149115951988
 21
2.794
 31
0.0
  0
LINE
  5
512
330
30
100
AcDbEntity
  8
SK1
100
AcDbLine
 10
10.149115951988
 20
2.794
 30
0.0
 11
3.049115951988
 21
2.794
 31
0.0
  0
LINE
  5
513
330
30
100
AcDbEntity
  8
SK1
100
AcDbLine
 10
3.049115951988
 20
2.794
 30
0.0
 11
3.049115951988
 21
1.312611293414
 31
0.0
  0
LINE
  5
514
330
30
100
AcDbEntity
  8
SK1
100
AcDbLine
 10
3.049115951988
 20
1.312611293414
 30
0.0
 11
10.149115951988
 21
1.312611293414
 31
0.0
  0
LINE
  5
515
330
30
100
AcDbEntity
  8
SK1
100
AcDbLine
 10
10.149115951988
 20
1.312611293414
 30
0.0
 11
3.049115951988
 21
2.794
 31
0.0
  0
LINE
  5
516
330
30
100
AcDbEntity
  8
SK1
100
AcDbLine
 10
10.149115951988
 20
2.794
 30
0.0
 11
3.049115951988
 21
1.312611293414
 31
0.0
  0
LINE
  5
517
330
30
100
AcDbEntity
  8
SK1
100
AcDbLine
 10
10.149115951988
 20
-1.312611293414
 30
0.0
 11
10.149115951988
 21
-2.794
 31
0.0
  0
LINE
  5
518
330
30
100
AcDbEntity
  8
SK1
100
AcDbLine
 10
10.149115951988
 20
-2.794
 30
0.0
 11
3.049115951988
 21
-2.794
 31
0.0
  0
LINE
  5
519
330
30
100
AcDbEntity
  8
SK1
100
AcDbLine
 10
3.049115951988
 20
-2.794
 30
0.0
 11
3.049115951988
 21
-1.312611293414
 31
0.0
  0
LINE
  5
51A
330
30
100
AcDbEntity
  8
SK1
100
AcDbLine
 10
3.049115951988
 20
-1.312611293414
 30
0.0
 11
10.149115951988
 21
-1.312611293414
 31
0.0
  0
LINE
  5
51B
330
30
100
AcDbEntity
  8
SK1
100
AcDbLine
 10
10.149115951988
 20
-1.312611293414
 30
0.0
 11
3.049115951988
 21
-2.794
 31
0.0
  0
LINE
  5
51C
330
30
100
AcDbEntity
  8
SK1
100
AcDbLine
 10
10.149115951988
 20
-2.794
 30
0.0
 11
3.049115951988
 21
-1.312611293414
 31
0.0
  0
LINE
  5
51D
330
30
100
AcDbEntity
  8
INFTOTAL
100
AcDbLine
 10
-15.0
 20
45.0
 30
0.0
 11
130.0
 21
45.0
 31
0.0
  0
LINE
  5
51E
330
30
100
AcDbEntity
  8
INFTOTAL
100
AcDbLine
 10
130.0
 20
45.0
 30
0.0
 11
130.0
 21
-45.0
 31
0.0
  0
LINE
  5
51F
330
30
100
AcDbEntity
  8
INFTOTAL
100
AcDbLine
 10
130.0
 20
-45.0
 30
0.0
 11
-15.0
 21
-45.0
 31
0.0
  0
LINE
  5
520
330
30
100
AcDbEntity
  8
INFTOTAL
100
AcDbLine
 10
-15.0
 20
-45.0
 30
0.0
 11
-15.0
 21
45.0
 31
0.0
  0
DIMENSION
  5
106AC06
330
30
100
AcDbEntity
  8
2
100
AcDbDimension
  2
*D8
 10
81.049115951988
 20
-16.0
 30
0.0
 11
93.0
 21
-16.0
 31
0.0
 70
   160
  1
<>
 71
     5
 42
2.0
  3
STANDARD
100
AcDbAlignedDimension
 13
83.049115951988
 23
-2.45
 33
0.0
 14
81.049115951988
 24
-2.75
 34
0.0
100
AcDbRotatedDimension
1001
ACAD
1000
DSTYLE
1002
{
1070
   271
1070
     0
1070
   279
1070
     0
1070
    74
1070
     0
1002
}
  0
DIMENSION
  5
106AC39
330
30
100
AcDbEntity
  8
2
100
AcDbDimension
  2
*D10
 10
110.0
 20
2.450000000000001
 30
0.0
 11
110.0
 21
15.095
 31
0.0
 70
   160
  1
%%c<>
 71
     5
 42
4.9
  3
STANDARD
100
AcDbAlignedDimension
 13
83.049115951988
 23
-2.45
 33
0.0
 14
83.049115951988
 24
2.45
 34
0.0
 50
-90.0
100
AcDbRotatedDimension
1001
ACAD
1000
DSTYLE
1002
{
1070
   271
1070
     1
1070
   279
1070
     0
1070
    74
1070
     0
1002
}
  0
DIMENSION
  5
106AC67
330
30
100
AcDbEntity
  8
2
100
AcDbDimension
  2
*D12
 10
118.0
 20
2.750000000000004
 30
0.0
 11
118.0
 21
21.3835
 31
0.0
 70
   160
  1
M5.5X0.5
 71
     5
 42
5.5
  3
STANDARD
100
AcDbAlignedDimension
 13
81.049115951988
 23
-2.75
 33
0.0
 14
81.049115951988
 24
2.75
 34
0.0
 50
-90.0
100
AcDbRotatedDimension
1001
ACAD
1000
DSTYLE
1002
{
1070
   271
1070
     1
1070
   279
1070
     0
1070
    74
1070
     0
1002
}
  0
DIMENSION
  5
106AC92
330
30
100
AcDbEntity
  8
SK2
100
AcDbDimension
  2
*D14
 10
3.049115951988
 20
35.0
 30
0.0
 11
17.2359688657975
 21
35.0
 31
0.0
 70
   160
  1
<>
 71
     5
 42
28.373705827619
  3
STANDARD
100
AcDbAlignedDimension
 13
31.422821779607
 23
2.794
 33
0.0
 14
3.049115951988
 24
2.794
 34
0.0
100
AcDbRotatedDimension
1001
ACAD
1000
DSTYLE
1002
{
1070
   271
1070
     1
1070
   279
1070
     0
1070
    74
1070
     0
1002
}
  0
ENDSEC
  0
SECTION
  2
OBJECTS
  0
DICTIONARY
  5
521
330
0
100
AcDbDictionary
281
     1
  3
ACAD_GROUP
350
522
  3
ACAD_IMAGE_VARS
350
106ABDF
  3
ACAD_LAYOUT
350
106AB97
  3
ACAD_MATERIAL
350
106ABBC
  3
ACAD_MLEADERSTYLE
350
106ABDB
  3
ACAD_MLINESTYLE
350
106AB92
  3
ACAD_PLOTSETTINGS
350
106AB94
  3
ACAD_PLOTSTYLENAME
350
106AB95
  3
ACAD_SCALELIST
350
106AB9A
  3
ACAD_TABLESTYLE
350
106ABD9
  3
ACAD_VISUALSTYLE
350
106ABC0
  3
AcDbVariableDictionary
350
106ACA1
  3
APPDATA
350
106ABDD
  3
DWGPROPS
350
106ACEB
  3
FX_DICT_DIMENSION_PALETTE
350
106AC16
  3
PRINTCONFIG
350
106ACE8
  0
DICTIONARY
  5
106ACEC
330
2
100
AcDbDictionary
280
     1
281
     1
  3
ACAD_XREC_ROUNDTRIP
360
106ACED
  0
DICTIONARY
  5
106AC9F
330
30
100
AcDbDictionary
280
     1
281
     1
  3
DIM_BOUNDING_BOXES_V1
360
106ACA0
  0
DICTIONARY
  5
522
102
{ACAD_REACTORS
330
521
102
}
330
521
100
AcDbDictionary
281
     1
  0
RASTERVARIABLES
  5
106ABDF
102
{ACAD_REACTORS
330
521
102
}
330
521
100
AcDbRasterVariables
 90
        0
 70
     1
 71
     1
 72
     0
  0
DICTIONARY
  5
106AB97
102
{ACAD_REACTORS
330
521
102
}
330
521
100
AcDbDictionary
281
     1
  3
Model
350
106AB98
  3
シート 1
350
106AB99
  0
DICTIONARY
  5
106ABBC
102
{ACAD_REACTORS
330
521
102
}
330
521
100
AcDbDictionary
281
     1
  3
ByBlock
350
106ABBE
  3
ByLayer
350
106ABBD
  3
Global
350
106ABBF
  0
DICTIONARY
  5
106ABDB
102
{ACAD_REACTORS
330
521
102
}
330
521
100
AcDbDictionary
281
     1
  3
Standard
350
106ABDC
  0
DICTIONARY
  5
106AB92
102
{ACAD_REACTORS
330
521
102
}
330
521
100
AcDbDictionary
281
     1
  3
Standard
350
106AB93
  0
DICTIONARY
  5
106AB94
102
{ACAD_REACTORS
330
521
102
}
330
521
100
AcDbDictionary
281
     1
  0
ACDBDICTIONARYWDFLT
  5
106AB95
102
{ACAD_REACTORS
330
521
102
}
330
521
100
AcDbDictionary
281
     1
  3
Normal
350
106AB96
100
AcDbDictionaryWithDefault
340
106AB96
  0
DICTIONARY
  5
106AB9A
102
{ACAD_REACTORS
330
521
102
}
330
521
100
AcDbDictionary
281
     1
  3
A0
350
106AB9B
  3
A1
350
106AB9C
  3
A2
350
106AB9D
  3
A3
350
106AB9E
  3
A4
350
106AB9F
  3
A5
350
106ABA0
  3
A6
350
106ABA1
  3
A7
350
106ABA2
  3
A8
350
106ABA3
  3
A9
350
106ABA4
  3
B0
350
106ABA5
  3
B1
350
106ABA6
  3
B2
350
106ABA7
  3
B3
350
106ABA8
  3
B4
350
106ABA9
  3
B5
350
106ABAA
  3
B6
350
106ABAB
  3
B7
350
106ABAC
  3
B8
350
106ABAD
  3
B9
350
106ABAE
  3
C0
350
106ABAF
  3
C1
350
106ABB0
  3
C2
350
106ABB1
  3
C3
350
106ABB2
  3
C4
350
106ABB3
  3
C5
350
106ABB4
  3
C6
350
106ABB5
  3
C7
350
106ABB6
  3
C8
350
106ABB7
  3
C9
350
106ABB8
  3
D0
350
106ABB9
  3
D1
350
106ABBA
  3
D2
350
106ABBB
  0
DICTIONARY
  5
106ABD9
102
{ACAD_REACTORS
330
521
102
}
330
521
100
AcDbDictionary
281
     1
  3
Standard
350
106ABDA
  0
DICTIONARY
  5
106ABC0
102
{ACAD_REACTORS
330
521
102
}
330
521
100
AcDbDictionary
281
     1
  3
2dWireframe
350
106ABC5
  3
Basic
350
106ABC8
  3
Brighten
350
106ABCC
  3
ColorChange
350
106ABD0
  3
Conceptual
350
106ABCA
  3
Dim
350
106ABCB
  3
EdgeColorOff
350
106ABD3
  3
Facepattern
350
106ABCF
  3
Flat
350
106ABC1
  3
FlatWithEdges
350
106ABC2
  3
Gouraud
350
106ABC3
  3
GouraudWithEdges
350
106ABC4
  3
Hidden
350
106ABC7
  3
JitterOff
350
106ABD1
  3
Linepattern
350
106ABCE
  3
OverhangOff
350
106ABD2
  3
Realistic
350
106ABC9
  3
Shaded
350
106ABD8
  3
Shaded with edges
350
106ABD7
  3
Shades of Gray
350
106ABD4
  3
Sketchy
350
106ABD5
  3
Thicken
350
106ABCD
  3
Wireframe
350
106ABC6
  3
X-Ray
350
106ABD6
  0
DICTIONARY
  5
106ACA1
102
{ACAD_REACTORS
330
521
102
}
330
521
100
AcDbDictionary
281
     1
  3
CANNOSCALE
350
106ACEE
  3
CMLEADERSTYLE
350
106ACA3
  3
CTABLESTYLE
350
106ACA2
  3
DIMASSOC
350
106ACA6
  3
HIDETEXT
350
106ACA7
  3
MSLTSCALE
350
106ACAE
  0
DICTIONARY
  5
106ABDD
102
{ACAD_REACTORS
330
521
102
}
330
521
100
AcDbDictionary
281
     1
  0
XRECORD
  5
106ACEB
102
{ACAD_REACTORS
330
521
102
}
330
521
100
AcDbXrecord
280
     1
  1
DWGPROPS COOKIE
  2

  3

  4

  6

  7

  8
usr2460
  9

300
=
301
=
302
=
303
=
304
=
305
=
306
=
307
=
308
=
309
=
 40
0.0
 41
0.0
 42
2460864.274156053
  1

 90
        0
  0
DICTIONARY
  5
106AC16
102
{ACAD_REACTORS
330
521
102
}
330
521
100
AcDbDictionary
281
     1
1001
FX_DIMP_FAV_VERSION
1071
        1
  0
DICTIONARYVAR
  5
106ACE8
102
{ACAD_REACTORS
330
521
102
}
330
521
100
DictionaryVariables
280
     0
  1
0
  0
XRECORD
  5
106ACED
102
{ACAD_REACTORS
330
106ACEC
102
}
330
106ACEC
100
AcDbXrecord
280
     1
102
VTR_0.000_0.000_1.000_1.000_VISUALSTYLE
340
106ABC5
102
VTR_0.000_0.000_1.000_1.000_GRIDDISPLAY
 70
     3
102
VTR_0.000_0.000_1.000_1.000_GRIDMAJOR
 70
     5
102
VTR_0.000_0.000_1.000_1.000_DEFAULTLIGHTING
280
     1
102
VTR_0.000_0.000_1.000_1.000_DEFAULTLIGHTINGTYPE
 70
     1
102
VTR_0.000_0.000_1.000_1.000_BRIGHTNESS
141
0.0
102
VTR_0.000_0.000_1.000_1.000_CONTRAST
142
0.0
  0
DICTIONARY
  5
106ACA0
102
{ACAD_REACTORS
330
106AC9F
102
}
330
106AC9F
100
AcDbDictionary
281
     1
  0
LAYOUT
  5
106AB98
102
{ACAD_REACTORS
330
106AB97
102
}
330
106AB97
100
AcDbPlotSettings
  1

  2
none_device
  4
Letter_(8.50_x_11.00_Inches)
  6

 40
6.35
 41
6.35
 42
6.35
 43
6.35
 44
215.9
 45
279.4
 46
0.0
 47
0.0
 48
0.0
 49
0.0
140
0.0
141
0.0
142
1.0
143
2.21959459445662
 70
  1712
 72
     0
 73
     0
 74
     0
  7

 75
     0
147
0.4505327245333333
148
-39.40881537143161
149
0.0
100
AcDbLayout
  1
Model
 70
     1
 71
     0
 10
0.0
 20
0.0
 11
12.0
 21
9.0
 12
0.0
 22
0.0
 32
0.0
 14
-15.0
 24
-45.0
 34
0.0
 15
130.0
 25
45.0
 35
0.0
146
0.0
 13
0.0
 23
0.0
 33
0.0
 16
1.0
 26
0.0
 36
0.0
 17
0.0
 27
1.0
 37
0.0
 76
     0
330
30
331
106AB91
  0
LAYOUT
  5
106AB99
102
{ACAD_REACTORS
330
106AB97
102
}
330
106AB97
100
AcDbPlotSettings
  1

  2
none_device
  4

  6

 40
0.0
 41
0.0
 42
0.0
 43
0.0
 44
0.0
 45
0.0
 46
0.0
 47
0.0
 48
0.0
 49
0.0
140
0.0
141
0.0
142
1.0
143
1.0
 70
   688
 72
     0
 73
     0
 74
     5
  7

 75
    16
147
1.0
148
0.0
149
0.0
100
AcDbLayout
  1
シート 1
 70
     1
 71
     1
 10
0.0
 20
0.0
 11
0.0
 21
0.0
 12
0.0
 22
0.0
 32
0.0
 14
1.000000000000000E+20
 24
1.000000000000000E+20
 34
1.000000000000000E+20
 15
-1.000000000000000E+20
 25
-1.000000000000000E+20
 35
-1.000000000000000E+20
146
0.0
 13
0.0
 23
0.0
 33
0.0
 16
1.0
 26
0.0
 36
0.0
 17
0.0
 27
1.0
 37
0.0
 76
     0
330
31
  0
MATERIAL
  5
106ABBE
102
{ACAD_REACTORS
330
106ABBC
102
}
102
{ACAD_XDICTIONARY
360
106ACEF
102
}
330
106ABBC
100
AcDbMaterial
  1
ByBlock
  0
MATERIAL
  5
106ABBD
102
{ACAD_REACTORS
330
106ABBC
102
}
102
{ACAD_XDICTIONARY
360
106ACF1
102
}
330
106ABBC
100
AcDbMaterial
  1
ByLayer
  0
MATERIAL
  5
106ABBF
102
{ACAD_REACTORS
330
106ABBC
102
}
102
{ACAD_XDICTIONARY
360
106ACF3
102
}
330
106ABBC
100
AcDbMaterial
  1
Global
  0
MLEADERSTYLE
  5
106ABDC
102
{ACAD_REACTORS
330
106ABDB
102
}
102
{ACAD_XDICTIONARY
360
106ACF5
102
}
330
106ABDB
100
AcDbMLeaderStyle
170
     2
171
     1
172
     0
 90
        2
 40
0.0
 41
0.0
173
     1
 91
-1056964608
340
4
 92
       -2
290
     1
 42
0.09
291
     1
 43
0.36
  3
Standard
341
0
 44
0.18
300

342
28
174
     1
178
     1
175
     1
176
     0
 93
-1056964608
 45
0.18
292
     0
297
     0
 46
0.18
343
0
 94
-1056964608
 47
1.0
 49
1.0
140
1.0
293
     1
141
0.0
294
     1
177
     0
142
1.0
295
     0
296
     0
143
0.125
1001
ACAD_MLEADERVER
1070
     2
  0
MLINESTYLE
  5
106AB93
102
{ACAD_REACTORS
330
106AB92
102
}
330
106AB92
100
AcDbMlineStyle
  2
Standard
 70
     0
  3

 62
   256
 51
90.0
 52
90.0
 71
     2
 49
0.5
 62
   256
  6
BYLAYER
 49
-0.5
 62
   256
  6
BYLAYER
  0
ACDBPLACEHOLDER
  5
106AB96
102
{ACAD_REACTORS
330
106AB95
102
}
330
106AB95
  0
SCALE
  5
106AB9B
102
{ACAD_REACTORS
330
106AB9A
102
}
330
106AB9A
100
AcDbScale
 70
     0
300
1:1
140
1.0
141
1.0
290
     1
  0
SCALE
  5
106AB9C
102
{ACAD_REACTORS
330
106AB9A
102
}
330
106AB9A
100
AcDbScale
 70
     0
300
1:2
140
1.0
141
2.0
290
     0
  0
SCALE
  5
106AB9D
102
{ACAD_REACTORS
330
106AB9A
102
}
330
106AB9A
100
AcDbScale
 70
     0
300
1:4
140
1.0
141
4.0
290
     0
  0
SCALE
  5
106AB9E
102
{ACAD_REACTORS
330
106AB9A
102
}
330
106AB9A
100
AcDbScale
 70
     0
300
1:5
140
1.0
141
5.0
290
     0
  0
SCALE
  5
106AB9F
102
{ACAD_REACTORS
330
106AB9A
102
}
330
106AB9A
100
AcDbScale
 70
     0
300
1:8
140
1.0
141
8.0
290
     0
  0
SCALE
  5
106ABA0
102
{ACAD_REACTORS
330
106AB9A
102
}
330
106AB9A
100
AcDbScale
 70
     0
300
1:10
140
1.0
141
10.0
290
     0
  0
SCALE
  5
106ABA1
102
{ACAD_REACTORS
330
106AB9A
102
}
330
106AB9A
100
AcDbScale
 70
     0
300
1:16
140
1.0
141
16.0
290
     0
  0
SCALE
  5
106ABA2
102
{ACAD_REACTORS
330
106AB9A
102
}
330
106AB9A
100
AcDbScale
 70
     0
300
1:20
140
1.0
141
20.0
290
     0
  0
SCALE
  5
106ABA3
102
{ACAD_REACTORS
330
106AB9A
102
}
330
106AB9A
100
AcDbScale
 70
     0
300
1:30
140
1.0
141
30.0
290
     0
  0
SCALE
  5
106ABA4
102
{ACAD_REACTORS
330
106AB9A
102
}
330
106AB9A
100
AcDbScale
 70
     0
300
1:40
140
1.0
141
40.0
290
     0
  0
SCALE
  5
106ABA5
102
{ACAD_REACTORS
330
106AB9A
102
}
330
106AB9A
100
AcDbScale
 70
     0
300
1:50
140
1.0
141
50.0
290
     0
  0
SCALE
  5
106ABA6
102
{ACAD_REACTORS
330
106AB9A
102
}
330
106AB9A
100
AcDbScale
 70
     0
300
1:100
140
1.0
141
100.0
290
     0
  0
SCALE
  5
106ABA7
102
{ACAD_REACTORS
330
106AB9A
102
}
330
106AB9A
100
AcDbScale
 70
     0
300
2:1
140
2.0
141
1.0
290
     0
  0
SCALE
  5
106ABA8
102
{ACAD_REACTORS
330
106AB9A
102
}
330
106AB9A
100
AcDbScale
 70
     0
300
4:1
140
4.0
141
1.0
290
     0
  0
SCALE
  5
106ABA9
102
{ACAD_REACTORS
330
106AB9A
102
}
330
106AB9A
100
AcDbScale
 70
     0
300
8:1
140
8.0
141
1.0
290
     0
  0
SCALE
  5
106ABAA
102
{ACAD_REACTORS
330
106AB9A
102
}
330
106AB9A
100
AcDbScale
 70
     0
300
10:1
140
10.0
141
1.0
290
     0
  0
SCALE
  5
106ABAB
102
{ACAD_REACTORS
330
106AB9A
102
}
330
106AB9A
100
AcDbScale
 70
     0
300
100:1
140
100.0
141
1.0
290
     0
  0
SCALE
  5
106ABAC
102
{ACAD_REACTORS
330
106AB9A
102
}
330
106AB9A
100
AcDbScale
 70
     0
300
1/128" = 1'-0"
140
0.0078125
141
12.0
290
     0
  0
SCALE
  5
106ABAD
102
{ACAD_REACTORS
330
106AB9A
102
}
330
106AB9A
100
AcDbScale
 70
     0
300
1/64" = 1'-0"
140
0.015625
141
12.0
290
     0
  0
SCALE
  5
106ABAE
102
{ACAD_REACTORS
330
106AB9A
102
}
330
106AB9A
100
AcDbScale
 70
     0
300
1/32" = 1'-0"
140
0.03125
141
12.0
290
     0
  0
SCALE
  5
106ABAF
102
{ACAD_REACTORS
330
106AB9A
102
}
330
106AB9A
100
AcDbScale
 70
     0
300
1/16" = 1'-0"
140
0.0625
141
12.0
290
     0
  0
SCALE
  5
106ABB0
102
{ACAD_REACTORS
330
106AB9A
102
}
330
106AB9A
100
AcDbScale
 70
     0
300
3/32" = 1'-0"
140
0.09375
141
12.0
290
     0
  0
SCALE
  5
106ABB1
102
{ACAD_REACTORS
330
106AB9A
102
}
330
106AB9A
100
AcDbScale
 70
     0
300
1/8" = 1'-0"
140
0.125
141
12.0
290
     0
  0
SCALE
  5
106ABB2
102
{ACAD_REACTORS
330
106AB9A
102
}
330
106AB9A
100
AcDbScale
 70
     0
300
3/16" = 1'-0"
140
0.1875
141
12.0
290
     0
  0
SCALE
  5
106ABB3
102
{ACAD_REACTORS
330
106AB9A
102
}
330
106AB9A
100
AcDbScale
 70
     0
300
1/4" = 1'-0"
140
0.25
141
12.0
290
     0
  0
SCALE
  5
106ABB4
102
{ACAD_REACTORS
330
106AB9A
102
}
330
106AB9A
100
AcDbScale
 70
     0
300
3/8" = 1'-0"
140
0.375
141
12.0
290
     0
  0
SCALE
  5
106ABB5
102
{ACAD_REACTORS
330
106AB9A
102
}
330
106AB9A
100
AcDbScale
 70
     0
300
1/2" = 1'-0"
140
0.5
141
12.0
290
     0
  0
SCALE
  5
106ABB6
102
{ACAD_REACTORS
330
106AB9A
102
}
330
106AB9A
100
AcDbScale
 70
     0
300
3/4" = 1'-0"
140
0.75
141
12.0
290
     0
  0
SCALE
  5
106ABB7
102
{ACAD_REACTORS
330
106AB9A
102
}
330
106AB9A
100
AcDbScale
 70
     0
300
1" = 1'-0"
140
1.0
141
12.0
290
     0
  0
SCALE
  5
106ABB8
102
{ACAD_REACTORS
330
106AB9A
102
}
330
106AB9A
100
AcDbScale
 70
     0
300
1-1/2" = 1'-0"
140
1.5
141
12.0
290
     0
  0
SCALE
  5
106ABB9
102
{ACAD_REACTORS
330
106AB9A
102
}
330
106AB9A
100
AcDbScale
 70
     0
300
3" = 1'-0"
140
3.0
141
12.0
290
     0
  0
SCALE
  5
106ABBA
102
{ACAD_REACTORS
330
106AB9A
102
}
330
106AB9A
100
AcDbScale
 70
     0
300
6" = 1'-0"
140
6.0
141
12.0
290
     0
  0
SCALE
  5
106ABBB
102
{ACAD_REACTORS
330
106AB9A
102
}
330
106AB9A
100
AcDbScale
 70
     0
300
1'-0" = 1'-0"
140
12.0
141
12.0
290
     0
  0
TABLESTYLE
  5
106ABDA
102
{ACAD_REACTORS
330
106ABD9
102
}
330
106ABD9
100
AcDbTableStyle
  3
Standard
 70
     0
 71
     0
 40
0.06
 41
0.06
280
     0
281
     0
  7
Monospac821 BT
140
0.18
170
     2
 62
     0
 63
   257
283
     0
274
    -2
284
     1
 64
     0
275
    -2
285
     1
 65
     0
276
    -2
286
     1
 66
     0
277
    -2
287
     1
 67
     0
278
    -2
288
     1
 68
     0
279
    -2
289
     1
 69
     0
  7
Monospac821 BT
140
0.25
170
     5
 62
     0
 63
   257
283
     0
274
    -2
284
     1
 64
     0
275
    -2
285
     1
 65
     0
276
    -2
286
     1
 66
     0
277
    -2
287
     1
 67
     0
278
    -2
288
     1
 68
     0
279
    -2
289
     1
 69
     0
  7
Monospac821 BT
140
0.18
170
     5
 62
     0
 63
   257
283
     0
274
    -2
284
     1
 64
     0
275
    -2
285
     1
 65
     0
276
    -2
286
     1
 66
     0
277
    -2
287
     1
 67
     0
278
    -2
288
     1
 68
     0
279
    -2
289
     1
 69
     0
  0
VISUALSTYLE
  5
106ABC5
102
{ACAD_REACTORS
330
106ABC0
102
}
102
{ACAD_XDICTIONARY
360
106ACF7
102
}
330
106ABC0
100
AcDbVisualStyle
  2
2dWireframe
 70
     4
 71
     0
 72
     2
 73
     0
 90
        0
 40
0.6
 41
30.0
 62
     5
 63
     7
 74
     1
 91
        4
 64
     7
 65
   257
 75
     1
175
     1
 42
1.0
 92
        0
 66
   257
 43
1.0
 76
     1
 77
     6
 78
     2
 67
     7
 79
     5
170
     0
171
     0
290
     0
174
     0
 93
        1
 44
0.0
173
     0
291
     0
 45
0.0
1001
ACAD
1000
AcDbSavedByObjectVersion
1070
     0
  0
VISUALSTYLE
  5
106ABC8
102
{ACAD_REACTORS
330
106ABC0
102
}
102
{ACAD_XDICTIONARY
360
106ACF9
102
}
330
106ABC0
100
AcDbVisualStyle
  2
Basic
 70
     7
 71
     1
 72
     0
 73
     1
 90
        0
 40
0.6
 41
30.0
 62
     5
 63
     7
 74
     0
 91
        4
 64
     7
 65
   257
 75
     1
175
     1
 42
1.0
 92
        8
 66
     7
 43
1.0
 76
     1
 77
     6
 78
     2
 67
     7
 79
     5
170
     0
171
     0
290
     0
174
     0
 93
        1
 44
0.0
173
     0
291
     1
 45
0.0
1001
ACAD
1000
AcDbSavedByObjectVersion
1070
     0
  0
VISUALSTYLE
  5
106ABCC
102
{ACAD_REACTORS
330
106ABC0
102
}
102
{ACAD_XDICTIONARY
360
106ACFB
102
}
330
106ABC0
100
AcDbVisualStyle
  2
Brighten
 70
    12
 71
     2
 72
     2
 73
     0
 90
        0
 40
0.6
 41
30.0
 62
     5
 63
     7
 74
     1
 91
        4
 64
     7
 65
   257
 75
     1
175
     1
 42
1.0
 92
        8
 66
     7
 43
1.0
 76
     1
 77
     6
 78
     2
 67
     7
 79
     5
170
     0
171
     0
290
     0
174
     0
 93
        1
 44
50.0
173
     0
291
     1
 45
0.0
1001
ACAD
1000
AcDbSavedByObjectVersion
1070
     0
  0
VISUALSTYLE
  5
106ABD0
102
{ACAD_REACTORS
330
106ABC0
102
}
102
{ACAD_XDICTIONARY
360
106ACFD
102
}
330
106ABC0
100
AcDbVisualStyle
  2
ColorChange
 70
    16
 71
     2
 72
     2
 73
     3
 90
        0
 40
0.6
 41
30.0
 62
     5
 63
     8
 74
     1
 91
        4
 64
     7
 65
   257
 75
     1
175
     1
 42
1.0
 92
        8
 66
     8
 43
1.0
 76
     1
 77
     6
 78
     2
 67
     7
 79
     5
170
     0
171
     0
290
     0
174
     0
 93
        1
 44
0.0
173
     0
291
     1
 45
0.0
1001
ACAD
1000
AcDbSavedByObjectVersion
1070
     0
  0
VISUALSTYLE
  5
106ABCA
102
{ACAD_REACTORS
330
106ABC0
102
}
102
{ACAD_XDICTIONARY
360
106ACFF
102
}
330
106ABC0
100
AcDbVisualStyle
  2
Conceptual
 70
     9
 71
     3
 72
     2
 73
     0
 90
        0
 40
0.6
 41
30.0
 62
     5
 63
     7
 74
     2
 91
        2
 64
     7
 65
   257
 75
     1
175
     1
 42
179.0
 92
        8
 66
     7
 43
1.0
 76
     1
 77
     6
 78
     2
 67
     7
 79
     3
170
     0
171
     0
290
     0
174
     0
 93
        1
 44
0.0
173
     0
291
     0
 45
0.0
1001
ACAD
1000
AcDbSavedByObjectVersion
1070
     0
  0
VISUALSTYLE
  5
106ABCB
102
{ACAD_REACTORS
330
106ABC0
102
}
102
{ACAD_XDICTIONARY
360
106AD01
102
}
330
106ABC0
100
AcDbVisualStyle
  2
Dim
 70
    11
 71
     2
 72
     2
 73
     0
 90
        0
 40
0.6
 41
30.0
 62
     5
 63
     7
 74
     1
 91
        4
 64
     7
 65
   257
 75
     1
175
     1
 42
1.0
 92
        8
 66
     7
 43
1.0
 76
     1
 77
     6
 78
     2
 67
     7
 79
     5
170
     0
171
     0
290
     0
174
     0
 93
        1
 44
-50.0
173
     0
291
     1
 45
0.0
1001
ACAD
1000
AcDbSavedByObjectVersion
1070
     0
  0
VISUALSTYLE
  5
106ABD3
102
{ACAD_REACTORS
330
106ABC0
102
}
102
{ACAD_XDICTIONARY
360
106AD03
102
}
330
106ABC0
100
AcDbVisualStyle
  2
EdgeColorOff
 70
    22
 71
     2
 72
     2
 73
     0
 90
        0
 40
0.6
 41
30.0
 62
     5
 63
     7
 74
     1
 91
        4
 64
     7
 65
   257
 75
     1
175
     1
 42
1.0
 92
        8
 66
     7
 43
1.0
 76
     1
 77
     6
 78
     2
 67
     7
 79
     5
170
     0
171
     0
290
     0
174
     0
 93
        1
 44
0.0
173
     0
291
     1
 45
0.0
1001
ACAD
1000
AcDbSavedByObjectVersion
1070
     0
  0
VISUALSTYLE
  5
106ABCF
102
{ACAD_REACTORS
330
106ABC0
102
}
102
{ACAD_XDICTIONARY
360
106AD05
102
}
330
106ABC0
100
AcDbVisualStyle
  2
Facepattern
 70
    15
 71
     2
 72
     2
 73
     0
 90
        0
 40
0.6
 41
30.0
 62
     5
 63
     7
 74
     1
 91
        4
 64
     7
 65
   257
 75
     1
175
     1
 42
1.0
 92
        8
 66
     7
 43
1.0
 76
     1
 77
     6
 78
     2
 67
     7
 79
     5
170
     0
171
     0
290
     0
174
     0
 93
        1
 44
0.0
173
     0
291
     1
 45
0.0
1001
ACAD
1000
AcDbSavedByObjectVersion
1070
     0
  0
VISUALSTYLE
  5
106ABC1
102
{ACAD_REACTORS
330
106ABC0
102
}
102
{ACAD_XDICTIONARY
360
106AD07
102
}
330
106ABC0
100
AcDbVisualStyle
  2
Flat
 70
     0
 71
     2
 72
     1
 73
     1
 90
        2
 40
0.6
 41
30.0
 62
     5
 63
     7
 74
     0
 91
        0
 64
     7
 65
   257
 75
     1
175
     1
 42
1.0
 92
        8
 66
     7
 43
1.0
 76
     1
 77
     6
 78
     2
 67
     7
 79
     5
170
     0
171
     0
290
     0
174
     0
 93
       13
 44
0.0
173
     0
291
     1
 45
0.0
1001
ACAD
1000
AcDbSavedByObjectVersion
1070
     0
  0
VISUALSTYLE
  5
106ABC2
102
{ACAD_REACTORS
330
106ABC0
102
}
102
{ACAD_XDICTIONARY
360
106AD09
102
}
330
106ABC0
100
AcDbVisualStyle
  2
FlatWithEdges
 70
     1
 71
     2
 72
     1
 73
     1
 90
        2
 40
0.6
 41
30.0
 62
     5
 63
     7
 74
     1
 91
        0
 64
     7
 65
   257
 75
     1
175
     1
 42
1.0
 92
        0
 66
   257
 43
1.0
 76
     1
 77
     6
 78
     2
 67
     7
 79
     5
170
     0
171
     0
290
     0
174
     0
 93
       13
 44
0.0
173
     0
291
     1
 45
0.0
1001
ACAD
1000
AcDbSavedByObjectVersion
1070
     0
  0
VISUALSTYLE
  5
106ABC3
102
{ACAD_REACTORS
330
106ABC0
102
}
102
{ACAD_XDICTIONARY
360
106AD0B
102
}
330
106ABC0
100
AcDbVisualStyle
  2
Gouraud
 70
     2
 71
     2
 72
     2
 73
     1
 90
        2
 40
0.6
 41
30.0
 62
     5
 63
     7
 74
     0
 91
        0
 64
     7
 65
   257
 75
     1
175
     1
 42
1.0
 92
        0
 66
     7
 43
1.0
 76
     1
 77
     6
 78
     2
 67
     7
 79
     5
170
     0
171
     0
290
     0
174
     0
 93
       13
 44
0.0
173
     0
291
     1
 45
0.0
1001
ACAD
1000
AcDbSavedByObjectVersion
1070
     0
  0
VISUALSTYLE
  5
106ABC4
102
{ACAD_REACTORS
330
106ABC0
102
}
102
{ACAD_XDICTIONARY
360
106AD0D
102
}
330
106ABC0
100
AcDbVisualStyle
  2
GouraudWithEdges
 70
     3
 71
     2
 72
     2
 73
     1
 90
        2
 40
0.6
 41
30.0
 62
     5
 63
     7
 74
     1
 91
        0
 64
     7
 65
   257
 75
     1
175
     1
 42
1.0
 92
        0
 66
   257
 43
1.0
 76
     1
 77
     6
 78
     2
 67
     7
 79
     5
170
     0
171
     0
290
     0
174
     0
 93
       13
 44
0.0
173
     0
291
     1
 45
0.0
1001
ACAD
1000
AcDbSavedByObjectVersion
1070
     0
  0
VISUALSTYLE
  5
106ABC7
102
{ACAD_REACTORS
330
106ABC0
102
}
102
{ACAD_XDICTIONARY
360
106AD0F
102
}
330
106ABC0
100
AcDbVisualStyle
  2
Hidden
 70
     6
 71
     1
 72
     2
 73
     2
 90
        0
 40
0.6
 41
30.0
 62
     5
 63
     7
 74
     2
 91
        2
 64
     7
 65
   257
 75
     2
175
     1
 42
40.0
 92
        0
 66
   257
 43
1.0
 76
     1
 77
     6
 78
     2
 67
     7
 79
     3
170
     0
171
     0
290
     0
174
     0
 93
        1
 44
0.0
173
     0
291
     0
 45
0.0
1001
ACAD
1000
AcDbSavedByObjectVersion
1070
     0
  0
VISUALSTYLE
  5
106ABD1
102
{ACAD_REACTORS
330
106ABC0
102
}
102
{ACAD_XDICTIONARY
360
106AD11
102
}
330
106ABC0
100
AcDbVisualStyle
  2
JitterOff
 70
    20
 71
     2
 72
     2
 73
     0
 90
        0
 40
0.6
 41
30.0
 62
     5
 63
     7
 74
     1
 91
        4
 64
     7
 65
   257
 75
     1
175
     1
 42
1.0
 92
       10
 66
     7
 43
1.0
 76
     1
 77
     6
 78
     2
 67
     7
 79
     5
170
     0
171
     0
290
     0
174
     0
 93
        1
 44
0.0
173
     0
291
     1
 45
0.0
1001
ACAD
1000
AcDbSavedByObjectVersion
1070
     0
  0
VISUALSTYLE
  5
106ABCE
102
{ACAD_REACTORS
330
106ABC0
102
}
102
{ACAD_XDICTIONARY
360
106AD13
102
}
330
106ABC0
100
AcDbVisualStyle
  2
Linepattern
 70
    14
 71
     2
 72
     2
 73
     0
 90
        0
 40
0.6
 41
30.0
 62
     5
 63
     7
 74
     1
 91
        4
 64
     7
 65
   257
 75
     7
175
     7
 42
1.0
 92
        8
 66
     7
 43
1.0
 76
     1
 77
     6
 78
     2
 67
     7
 79
     5
170
     0
171
     0
290
     0
174
     0
 93
        1
 44
0.0
173
     0
291
     1
 45
0.0
1001
ACAD
1000
AcDbSavedByObjectVersion
1070
     0
  0
VISUALSTYLE
  5
106ABD2
102
{ACAD_REACTORS
330
106ABC0
102
}
102
{ACAD_XDICTIONARY
360
106AD15
102
}
330
106ABC0
100
AcDbVisualStyle
  2
OverhangOff
 70
    21
 71
     2
 72
     2
 73
     0
 90
        0
 40
0.6
 41
30.0
 62
     5
 63
     7
 74
     1
 91
        4
 64
     7
 65
   257
 75
     1
175
     1
 42
1.0
 92
        9
 66
     7
 43
1.0
 76
     1
 77
     6
 78
     2
 67
     7
 79
     5
170
     0
171
     0
290
     0
174
     0
 93
        1
 44
0.0
173
     0
291
     1
 45
0.0
1001
ACAD
1000
AcDbSavedByObjectVersion
1070
     0
  0
VISUALSTYLE
  5
106ABC9
102
{ACAD_REACTORS
330
106ABC0
102
}
102
{ACAD_XDICTIONARY
360
106AD17
102
}
330
106ABC0
100
AcDbVisualStyle
  2
Realistic
 70
     8
 71
     2
 72
     3
 73
     0
 90
        2
 40
0.6
 41
30.0
 62
     5
 63
     7
 74
     0
 91
        0
 64
     7
 65
   257
 75
     1
175
     1
 42
1.0
 92
        8
 66
   257
 43
1.0
 76
     1
 77
     6
 78
     2
 67
     7
 79
     3
170
     0
171
     0
290
     0
174
     0
 93
       13
 44
0.0
173
     0
291
     0
 45
0.0
1001
ACAD
1000
AcDbSavedByObjectVersion
1070
     0
  0
VISUALSTYLE
  5
106ABD8
102
{ACAD_REACTORS
330
106ABC0
102
}
102
{ACAD_XDICTIONARY
360
106AD19
102
}
330
106ABC0
100
AcDbVisualStyle
  2
Shaded
 70
    27
 71
     2
 72
     2
 73
     1
 90
        2
 40
0.6
 41
30.0
 62
     5
 63
     7
 74
     0
 91
        4
 64
     7
 65
   257
 75
     1
175
     1
 42
1.0
 92
        8
 66
   257
 43
1.0
 76
     1
 77
     6
 78
     2
 67
     8
 79
     3
170
     0
171
     0
290
     0
174
     0
 93
        5
 44
0.0
173
     0
291
     0
 45
0.0
1001
ACAD
1000
AcDbSavedByObjectVersion
1070
     0
  0
VISUALSTYLE
  5
106ABD7
102
{ACAD_REACTORS
330
106ABC0
102
}
102
{ACAD_XDICTIONARY
360
106AD1B
102
}
330
106ABC0
100
AcDbVisualStyle
  2
Shaded with edges
 70
    26
 71
     2
 72
     2
 73
     1
 90
        2
 40
0.6
 41
30.0
 62
     5
 63
     7
 74
     1
 91
       10
 64
     7
 65
   257
 75
     2
175
     1
 42
1.0
 92
        8
 66
   257
 43
1.0
 76
     1
 77
     6
 78
     2
 67
     7
 79
     3
170
     0
171
     0
290
     0
174
     0
 93
        5
 44
0.0
173
     0
291
     0
 45
0.0
1001
ACAD
1000
AcDbSavedByObjectVersion
1070
     0
  0
VISUALSTYLE
  5
106ABD4
102
{ACAD_REACTORS
330
106ABC0
102
}
102
{ACAD_XDICTIONARY
360
106AD1D
102
}
330
106ABC0
100
AcDbVisualStyle
  2
Shades of Gray
 70
    23
 71
     2
 72
     2
 73
     3
 90
        0
 40
0.6
 41
30.0
 62
     5
 63
     7
 74
     2
 91
        2
 64
     7
 65
     7
 75
     1
175
     1
 42
40.0
 92
        8
 66
     7
 43
1.0
 76
     1
 77
     6
 78
     2
 67
     7
 79
     3
170
     0
171
     0
290
     0
174
     0
 93
        1
 44
0.0
173
     0
291
     0
 45
0.0
1001
ACAD
1000
AcDbSavedByObjectVersion
1070
     0
  0
VISUALSTYLE
  5
106ABD5
102
{ACAD_REACTORS
330
106ABC0
102
}
102
{ACAD_XDICTIONARY
360
106AD1F
102
}
330
106ABC0
100
AcDbVisualStyle
  2
Sketchy
 70
    24
 71
     1
 72
     2
 73
     2
 90
        0
 40
0.6
 41
30.0
 62
     5
 63
     7
 74
     2
 91
        2
 64
     7
 65
     7
 75
     1
175
     1
 42
40.0
 92
       11
 66
     7
 43
1.0
 76
     1
 77
     6
 78
     2
 67
     7
 79
     6
170
     0
171
     0
290
     0
174
     0
 93
        1
 44
0.0
173
     0
291
     0
 45
0.0
1001
ACAD
1000
AcDbSavedByObjectVersion
1070
     0
  0
VISUALSTYLE
  5
106ABCD
102
{ACAD_REACTORS
330
106ABC0
102
}
102
{ACAD_XDICTIONARY
360
106AD21
102
}
330
106ABC0
100
AcDbVisualStyle
  2
Thicken
 70
    13
 71
     2
 72
     2
 73
     0
 90
        0
 40
0.6
 41
30.0
 62
     5
 63
     7
 74
     1
 91
        4
 64
     7
 65
   257
 75
     1
175
     1
 42
1.0
 92
       12
 66
     7
 43
1.0
 76
     1
 77
     6
 78
     2
 67
     7
 79
     5
170
     0
171
     0
290
     0
174
     0
 93
        1
 44
0.0
173
     0
291
     1
 45
0.0
1001
ACAD
1000
AcDbSavedByObjectVersion
1070
     0
  0
VISUALSTYLE
  5
106ABC6
102
{ACAD_REACTORS
330
106ABC0
102
}
102
{ACAD_XDICTIONARY
360
106AD23
102
}
330
106ABC0
100
AcDbVisualStyle
  2
Wireframe
 70
     5
 71
     0
 72
     2
 73
     0
 90
        0
 40
0.6
 41
30.0
 62
     5
 63
     7
 74
     1
 91
        4
 64
     7
 65
   257
 75
     1
175
     1
 42
1.0
 92
        0
 66
   257
 43
1.0
 76
     1
 77
     6
 78
     2
 67
     7
 79
     3
170
     0
171
     0
290
     0
174
     0
 93
        1
 44
0.0
173
     0
291
     0
 45
0.0
1001
ACAD
1000
AcDbSavedByObjectVersion
1070
     0
  0
VISUALSTYLE
  5
106ABD6
102
{ACAD_REACTORS
330
106ABC0
102
}
102
{ACAD_XDICTIONARY
360
106AD25
102
}
330
106ABC0
100
AcDbVisualStyle
  2
X-Ray
 70
    25
 71
     2
 72
     2
 73
     1
 90
        1
 40
0.5
 41
30.0
 62
     5
 63
     7
 74
     1
 91
        0
 64
     7
 65
   257
 75
     1
175
     1
 42
1.0
 92
        8
 66
     7
 43
1.0
 76
     1
 77
     6
 78
     2
 67
     7
 79
     3
170
     0
171
     0
290
     0
174
     0
 93
       13
 44
0.0
173
     0
291
     0
 45
0.0
1001
ACAD
1000
AcDbSavedByObjectVersion
1070
     0
  0
DICTIONARYVAR
  5
106ACEE
102
{ACAD_REACTORS
330
106ACA1
102
}
330
106ACA1
100
DictionaryVariables
280
     0
  1
1:1
  0
DICTIONARYVAR
  5
106ACA3
102
{ACAD_REACTORS
330
106ACA1
102
}
330
106ACA1
100
DictionaryVariables
280
     0
  1
Standard
  0
DICTIONARYVAR
  5
106ACA2
102
{ACAD_REACTORS
330
106ACA1
102
}
330
106ACA1
100
DictionaryVariables
280
     0
  1
Standard
  0
DICTIONARYVAR
  5
106ACA6
102
{ACAD_REACTORS
330
106ACA1
102
}
330
106ACA1
100
DictionaryVariables
280
     0
  1
2
  0
DICTIONARYVAR
  5
106ACA7
102
{ACAD_REACTORS
330
106ACA1
102
}
330
106ACA1
100
DictionaryVariables
280
     0
  1
1
  0
DICTIONARYVAR
  5
106ACAE
102
{ACAD_REACTORS
330
106ACA1
102
}
330
106ACA1
100
DictionaryVariables
280
     0
  1
1
  0
DICTIONARY
  5
106ACEF
330
106ABBE
100
AcDbDictionary
280
     1
281
     1
  3
ACAD_XREC_ROUNDTRIP
360
106ACF0
  0
DICTIONARY
  5
106ACF1
330
106ABBD
100
AcDbDictionary
280
     1
281
     1
  3
ACAD_XREC_ROUNDTRIP
360
106ACF2
  0
DICTIONARY
  5
106ACF3
330
106ABBF
100
AcDbDictionary
280
     1
281
     1
  3
ACAD_XREC_ROUNDTRIP
360
106ACF4
  0
DICTIONARY
  5
106ACF5
330
106ABDC
100
AcDbDictionary
280
     1
281
     1
  3
ACAD_XREC_ROUNDTRIP
360
106ACF6
  0
DICTIONARY
  5
106ACF7
330
106ABC5
100
AcDbDictionary
280
     1
281
     1
  3
ACAD_XREC_ROUNDTRIP
360
106ACF8
  0
DICTIONARY
  5
106ACF9
330
106ABC8
100
AcDbDictionary
280
     1
281
     1
  3
ACAD_XREC_ROUNDTRIP
360
106ACFA
  0
DICTIONARY
  5
106ACFB
330
106ABCC
100
AcDbDictionary
280
     1
281
     1
  3
ACAD_XREC_ROUNDTRIP
360
106ACFC
  0
DICTIONARY
  5
106ACFD
330
106ABD0
100
AcDbDictionary
280
     1
281
     1
  3
ACAD_XREC_ROUNDTRIP
360
106ACFE
  0
DICTIONARY
  5
106ACFF
330
106ABCA
100
AcDbDictionary
280
     1
281
     1
  3
ACAD_XREC_ROUNDTRIP
360
106AD00
  0
DICTIONARY
  5
106AD01
330
106ABCB
100
AcDbDictionary
280
     1
281
     1
  3
ACAD_XREC_ROUNDTRIP
360
106AD02
  0
DICTIONARY
  5
106AD03
330
106ABD3
100
AcDbDictionary
280
     1
281
     1
  3
ACAD_XREC_ROUNDTRIP
360
106AD04
  0
DICTIONARY
  5
106AD05
330
106ABCF
100
AcDbDictionary
280
     1
281
     1
  3
ACAD_XREC_ROUNDTRIP
360
106AD06
  0
DICTIONARY
  5
106AD07
330
106ABC1
100
AcDbDictionary
280
     1
281
     1
  3
ACAD_XREC_ROUNDTRIP
360
106AD08
  0
DICTIONARY
  5
106AD09
330
106ABC2
100
AcDbDictionary
280
     1
281
     1
  3
ACAD_XREC_ROUNDTRIP
360
106AD0A
  0
DICTIONARY
  5
106AD0B
330
106ABC3
100
AcDbDictionary
280
     1
281
     1
  3
ACAD_XREC_ROUNDTRIP
360
106AD0C
  0
DICTIONARY
  5
106AD0D
330
106ABC4
100
AcDbDictionary
280
     1
281
     1
  3
ACAD_XREC_ROUNDTRIP
360
106AD0E
  0
DICTIONARY
  5
106AD0F
330
106ABC7
100
AcDbDictionary
280
     1
281
     1
  3
ACAD_XREC_ROUNDTRIP
360
106AD10
  0
DICTIONARY
  5
106AD11
330
106ABD1
100
AcDbDictionary
280
     1
281
     1
  3
ACAD_XREC_ROUNDTRIP
360
106AD12
  0
DICTIONARY
  5
106AD13
330
106ABCE
100
AcDbDictionary
280
     1
281
     1
  3
ACAD_XREC_ROUNDTRIP
360
106AD14
  0
DICTIONARY
  5
106AD15
330
106ABD2
100
AcDbDictionary
280
     1
281
     1
  3
ACAD_XREC_ROUNDTRIP
360
106AD16
  0
DICTIONARY
  5
106AD17
330
106ABC9
100
AcDbDictionary
280
     1
281
     1
  3
ACAD_XREC_ROUNDTRIP
360
106AD18
  0
DICTIONARY
  5
106AD19
330
106ABD8
100
AcDbDictionary
280
     1
281
     1
  3
ACAD_XREC_ROUNDTRIP
360
106AD1A
  0
DICTIONARY
  5
106AD1B
330
106ABD7
100
AcDbDictionary
280
     1
281
     1
  3
ACAD_XREC_ROUNDTRIP
360
106AD1C
  0
DICTIONARY
  5
106AD1D
330
106ABD4
100
AcDbDictionary
280
     1
281
     1
  3
ACAD_XREC_ROUNDTRIP
360
106AD1E
  0
DICTIONARY
  5
106AD1F
330
106ABD5
100
AcDbDictionary
280
     1
281
     1
  3
ACAD_XREC_ROUNDTRIP
360
106AD20
  0
DICTIONARY
  5
106AD21
330
106ABCD
100
AcDbDictionary
280
     1
281
     1
  3
ACAD_XREC_ROUNDTRIP
360
106AD22
  0
DICTIONARY
  5
106AD23
330
106ABC6
100
AcDbDictionary
280
     1
281
     1
  3
ACAD_XREC_ROUNDTRIP
360
106AD24
  0
DICTIONARY
  5
106AD25
330
106ABD6
100
AcDbDictionary
280
     1
281
     1
  3
ACAD_XREC_ROUNDTRIP
360
106AD26
  0
XRECORD
  5
106ACF0
102
{ACAD_REACTORS
330
106ACEF
102
}
330
106ACEF
100
AcDbXrecord
280
     1
102
MATERIAL
148
0.0
149
0.0
149
0.0
 93
        0
 94
      127
282
     0
 72
     1
 77
     1
171
     1
175
     1
179
     1
273
     0
  0
XRECORD
  5
106ACF2
102
{ACAD_REACTORS
330
106ACF1
102
}
330
106ACF1
100
AcDbXrecord
280
     1
102
MATERIAL
148
0.0
149
0.0
149
0.0
 93
        0
 94
      127
282
     0
 72
     1
 77
     1
171
     1
175
     1
179
     1
273
     0
  0
XRECORD
  5
106ACF4
102
{ACAD_REACTORS
330
106ACF3
102
}
330
106ACF3
100
AcDbXrecord
280
     1
102
MATERIAL
148
0.0
149
0.0
149
0.0
 93
        0
 94
      127
282
     0
 72
     1
 77
     1
171
     1
175
     1
179
     1
273
     0
  0
XRECORD
  5
106ACF6
102
{ACAD_REACTORS
330
106ACF5
102
}
330
106ACF5
100
AcDbXrecord
280
     1
102
ACAD_ROUNDTRIP_2010_MLEADER_STYLE
  0
XRECORD
  5
106ACF8
102
{ACAD_REACTORS
330
106ACF7
102
}
330
106ACF7
100
AcDbXrecord
280
     1
102
RTVSPropertyOp0
 70
     1
102
RTVSPropertyOp1
 70
     1
102
RTVSPropertyOp2
 70
     1
102
RTVSPropertyOp3
 70
     1
102
RTVSPropertyOp4
 70
     1
102
RTVSPropertyOp5
 70
     1
102
RTVSPropertyOp6
 70
     1
102
RTVSPropertyOp7
 70
     1
102
RTVSPropertyOp8
 70
     1
102
RTVSPropertyOp9
 70
     1
102
RTVSPropertyOp10
 70
     1
102
RTVSPropertyOp11
 70
     1
102
RTVSPropertyOp12
 70
     1
102
RTVSPropertyOp13
 70
     1
102
RTVSPropertyOp14
 70
     1
102
RTVSPropertyOp15
 70
     1
102
RTVSPropertyOp16
 70
     1
102
RTVSPropertyOp17
 70
     1
102
RTVSPropertyOp18
 70
     1
102
RTVSPropertyOp19
 70
     1
102
RTVSPropertyOp20
 70
     1
102
RTVSPropertyOp21
 70
     1
102
RTVSPropertyOp22
 70
     1
102
RTVSPropertyOp23
 70
     1
102
RTVSPropertyOp24
 70
     1
102
RTVSPropertyOp25
 70
     1
102
RTVSPropertyOp26
 70
     1
102
RTVSPropertyOp27
 70
     1
102
RTVSPropertyOp28
 70
     1
102
RTVSPropertyOp29
 70
     1
102
RTVSPropertyOp30
 70
     1
102
RTVSPropertyOp31
 70
     1
102
RTVSPropertyOp32
 70
     1
102
RTVSPropertyOp33
 70
     1
102
RTVSPropertyOp34
 70
     1
102
RTVSPropertyOp35
 70
     1
102
RTVSPropertyOp36
 70
     1
102
RTVSPropertyOp37
 70
     1
102
RTVSPropertyOp38
 70
     1
102
RTVSPropertyOp39
 70
     1
102
RTVSPropertyOp40
 70
     1
102
RTVSPropertyOp41
 70
     1
102
RTVSPropertyOp42
 70
     1
102
RTVSPropertyOp43
 70
     1
102
RTVSPropertyOp44
 70
     1
102
RTVSPropertyOp45
 70
     1
102
RTVSPropertyOp46
 70
     1
102
RTVSPropertyOp47
 70
     1
102
RTVSPropertyOp48
 70
     1
102
RTVSPropertyOp49
 70
     1
102
RTVSPropertyOp50
 70
     1
102
RTVSPropertyOp51
 70
     0
102
RTVSPropertyOp52
 70
     0
102
RTVSPropertyOp53
 70
     1
102
RTVSPropertyOp54
 70
     1
102
RTVSPropertyOp55
 70
     1
102
RTVSPropertyOp56
 70
     1
102
RTVSPropertyOp57
 70
     1
102
RTVSPost2010Prop28
280
     1
102
RTVSPost2010PropOp28
 70
     1
102
RTVSPost2010Prop29
280
     1
102
RTVSPost2010PropOp29
 70
     1
102
RTVSPost2010Prop30
280
     0
102
RTVSPost2010PropOp30
 70
     1
102
RTVSPost2010Prop31
280
     0
102
RTVSPost2010PropOp31
 70
     1
102
RTVSPost2010Prop32
280
     0
102
RTVSPost2010PropOp32
 70
     1
102
RTVSPost2010Prop33
280
     0
102
RTVSPost2010PropOp33
 70
     1
102
RTVSPost2010Prop34
280
     0
102
RTVSPost2010PropOp34
 70
     1
102
RTVSPost2010Prop35
280
     0
102
RTVSPost2010PropOp35
 70
     1
102
RTVSPost2010Prop36
280
     0
102
RTVSPost2010PropOp36
 70
     1
102
RTVSPost2010Prop37
 90
       50
102
RTVSPost2010PropOp37
 70
     1
102
RTVSPost2010Prop38
140
0.0
102
RTVSPost2010PropOp38
 70
     1
102
RTVSPost2010Prop39
140
1.0
102
RTVSPost2010PropOp39
 70
     1
102
RTVSPost2010Prop40
 90
        0
102
RTVSPost2010PropOp40
 70
     1
102
RTVSPost2010Prop41ColorIndex
 90
       18
102
RTVSPost2010Prop41ColorRGB
 90
        0
102
RTVSPost2010PropOp41
 70
     1
102
RTVSPost2010Prop42
 90
       50
102
RTVSPost2010PropOp42
 70
     1
102
RTVSPost2010Prop43
 90
        3
102
RTVSPost2010PropOp43
 70
     1
102
RTVSPost2010Prop44ColorIndex
 90
        5
102
RTVSPost2010Prop44ColorRGB
 90
      255
102
RTVSPost2010PropOp44
 70
     1
102
RTVSPost2010Prop45
280
     0
102
RTVSPost2010PropOp45
 70
     1
102
RTVSPost2010Prop46
 90
       50
102
RTVSPost2010PropOp46
 70
     1
102
RTVSPost2010Prop47
 90
       50
102
RTVSPost2010PropOp47
 70
     1
102
RTVSPost2010Prop48
 90
       50
102
RTVSPost2010PropOp48
 70
     1
102
RTVSPost2010Prop49
280
     0
102
RTVSPost2010PropOp49
 70
     1
102
RTVSPost2010Prop50
 90
       50
102
RTVSPost2010PropOp50
 70
     1
102
RTVSPost2010Prop51ColorIndex
 90
      256
102
RTVSPost2010Prop51ColorRGB
 90
-16777216
102
RTVSPost2010PropOp51
 70
     0
102
RTVSPost2010Prop52
140
1.0
102
RTVSPost2010PropOp52
 70
     0
102
RTVSPost2010Prop53
 90
        2
102
RTVSPost2010PropOp53
 70
     1
102
RTVSPost2010Prop54
  1
strokes_ogs.tif
102
RTVSPost2010PropOp54
 70
     1
102
RTVSPost2010Prop55
280
     0
102
RTVSPost2010PropOp55
 70
     1
102
RTVSPost2010Prop56
140
1.0
102
RTVSPost2010PropOp56
 70
     1
102
RTVSPost2010Prop57
140
1.0
102
RTVSPost2010PropOp57
 70
     1
  0
XRECORD
  5
106ACFA
102
{ACAD_REACTORS
330
106ACF9
102
}
330
106ACF9
100
AcDbXrecord
280
     1
102
RTVSPropertyOp0
 70
     1
102
RTVSPropertyOp1
 70
     1
102
RTVSPropertyOp2
 70
     1
102
RTVSPropertyOp3
 70
     1
102
RTVSPropertyOp4
 70
     1
102
RTVSPropertyOp5
 70
     1
102
RTVSPropertyOp6
 70
     1
102
RTVSPropertyOp7
 70
     1
102
RTVSPropertyOp8
 70
     1
102
RTVSPropertyOp9
 70
     1
102
RTVSPropertyOp10
 70
     1
102
RTVSPropertyOp11
 70
     1
102
RTVSPropertyOp12
 70
     1
102
RTVSPropertyOp13
 70
     1
102
RTVSPropertyOp14
 70
     1
102
RTVSPropertyOp15
 70
     1
102
RTVSPropertyOp16
 70
     1
102
RTVSPropertyOp17
 70
     1
102
RTVSPropertyOp18
 70
     1
102
RTVSPropertyOp19
 70
     1
102
RTVSPropertyOp20
 70
     1
102
RTVSPropertyOp21
 70
     1
102
RTVSPropertyOp22
 70
     1
102
RTVSPropertyOp23
 70
     1
102
RTVSPropertyOp24
 70
     1
102
RTVSPropertyOp25
 70
     1
102
RTVSPropertyOp26
 70
     1
102
RTVSPropertyOp27
 70
     1
102
RTVSPropertyOp28
 70
     1
102
RTVSPropertyOp29
 70
     1
102
RTVSPropertyOp30
 70
     1
102
RTVSPropertyOp31
 70
     1
102
RTVSPropertyOp32
 70
     1
102
RTVSPropertyOp33
 70
     1
102
RTVSPropertyOp34
 70
     1
102
RTVSPropertyOp35
 70
     1
102
RTVSPropertyOp36
 70
     1
102
RTVSPropertyOp37
 70
     1
102
RTVSPropertyOp38
 70
     1
102
RTVSPropertyOp39
 70
     1
102
RTVSPropertyOp40
 70
     1
102
RTVSPropertyOp41
 70
     1
102
RTVSPropertyOp42
 70
     1
102
RTVSPropertyOp43
 70
     1
102
RTVSPropertyOp44
 70
     1
102
RTVSPropertyOp45
 70
     1
102
RTVSPropertyOp46
 70
     1
102
RTVSPropertyOp47
 70
     1
102
RTVSPropertyOp48
 70
     1
102
RTVSPropertyOp49
 70
     1
102
RTVSPropertyOp50
 70
     1
102
RTVSPropertyOp51
 70
     0
102
RTVSPropertyOp52
 70
     0
102
RTVSPropertyOp53
 70
     1
102
RTVSPropertyOp54
 70
     1
102
RTVSPropertyOp55
 70
     1
102
RTVSPropertyOp56
 70
     1
102
RTVSPropertyOp57
 70
     1
102
RTVSPost2010Prop28
280
     0
102
RTVSPost2010PropOp28
 70
     1
102
RTVSPost2010Prop29
280
     1
102
RTVSPost2010PropOp29
 70
     1
102
RTVSPost2010Prop30
280
     1
102
RTVSPost2010PropOp30
 70
     1
102
RTVSPost2010Prop31
280
     0
102
RTVSPost2010PropOp31
 70
     1
102
RTVSPost2010Prop32
280
     0
102
RTVSPost2010PropOp32
 70
     1
102
RTVSPost2010Prop33
280
     0
102
RTVSPost2010PropOp33
 70
     1
102
RTVSPost2010Prop34
280
     0
102
RTVSPost2010PropOp34
 70
     1
102
RTVSPost2010Prop35
280
     0
102
RTVSPost2010PropOp35
 70
     1
102
RTVSPost2010Prop36
280
     0
102
RTVSPost2010PropOp36
 70
     1
102
RTVSPost2010Prop37
 90
       50
102
RTVSPost2010PropOp37
 70
     1
102
RTVSPost2010Prop38
140
0.0
102
RTVSPost2010PropOp38
 70
     1
102
RTVSPost2010Prop39
140
1.0
102
RTVSPost2010PropOp39
 70
     1
102
RTVSPost2010Prop40
 90
        0
102
RTVSPost2010PropOp40
 70
     1
102
RTVSPost2010Prop41ColorIndex
 90
       18
102
RTVSPost2010Prop41ColorRGB
 90
        0
102
RTVSPost2010PropOp41
 70
     1
102
RTVSPost2010Prop42
 90
       50
102
RTVSPost2010PropOp42
 70
     1
102
RTVSPost2010Prop43
 90
        3
102
RTVSPost2010PropOp43
 70
     1
102
RTVSPost2010Prop44ColorIndex
 90
        5
102
RTVSPost2010Prop44ColorRGB
 90
      255
102
RTVSPost2010PropOp44
 70
     1
102
RTVSPost2010Prop45
280
     0
102
RTVSPost2010PropOp45
 70
     1
102
RTVSPost2010Prop46
 90
       50
102
RTVSPost2010PropOp46
 70
     1
102
RTVSPost2010Prop47
 90
       50
102
RTVSPost2010PropOp47
 70
     1
102
RTVSPost2010Prop48
 90
       50
102
RTVSPost2010PropOp48
 70
     1
102
RTVSPost2010Prop49
280
     0
102
RTVSPost2010PropOp49
 70
     1
102
RTVSPost2010Prop50
 90
       50
102
RTVSPost2010PropOp50
 70
     1
102
RTVSPost2010Prop51ColorIndex
 90
      256
102
RTVSPost2010Prop51ColorRGB
 90
-16777216
102
RTVSPost2010PropOp51
 70
     0
102
RTVSPost2010Prop52
140
1.0
102
RTVSPost2010PropOp52
 70
     0
102
RTVSPost2010Prop53
 90
        2
102
RTVSPost2010PropOp53
 70
     1
102
RTVSPost2010Prop54
  1
strokes_ogs.tif
102
RTVSPost2010PropOp54
 70
     1
102
RTVSPost2010Prop55
280
     0
102
RTVSPost2010PropOp55
 70
     1
102
RTVSPost2010Prop56
140
1.0
102
RTVSPost2010PropOp56
 70
     1
102
RTVSPost2010Prop57
140
1.0
102
RTVSPost2010PropOp57
 70
     1
  0
XRECORD
  5
106ACFC
102
{ACAD_REACTORS
330
106ACFB
102
}
330
106ACFB
100
AcDbXrecord
280
     1
102
RTVSPropertyOp0
 70
     1
102
RTVSPropertyOp1
 70
     1
102
RTVSPropertyOp2
 70
     1
102
RTVSPropertyOp3
 70
     1
102
RTVSPropertyOp4
 70
     1
102
RTVSPropertyOp5
 70
     1
102
RTVSPropertyOp6
 70
     1
102
RTVSPropertyOp7
 70
     1
102
RTVSPropertyOp8
 70
     1
102
RTVSPropertyOp9
 70
     1
102
RTVSPropertyOp10
 70
     1
102
RTVSPropertyOp11
 70
     1
102
RTVSPropertyOp12
 70
     1
102
RTVSPropertyOp13
 70
     1
102
RTVSPropertyOp14
 70
     1
102
RTVSPropertyOp15
 70
     1
102
RTVSPropertyOp16
 70
     1
102
RTVSPropertyOp17
 70
     1
102
RTVSPropertyOp18
 70
     1
102
RTVSPropertyOp19
 70
     1
102
RTVSPropertyOp20
 70
     1
102
RTVSPropertyOp21
 70
     1
102
RTVSPropertyOp22
 70
     1
102
RTVSPropertyOp23
 70
     1
102
RTVSPropertyOp24
 70
     1
102
RTVSPropertyOp25
 70
     1
102
RTVSPropertyOp26
 70
     1
102
RTVSPropertyOp27
 70
     1
102
RTVSPropertyOp28
 70
     1
102
RTVSPropertyOp29
 70
     1
102
RTVSPropertyOp30
 70
     1
102
RTVSPropertyOp31
 70
     1
102
RTVSPropertyOp32
 70
     1
102
RTVSPropertyOp33
 70
     1
102
RTVSPropertyOp34
 70
     1
102
RTVSPropertyOp35
 70
     1
102
RTVSPropertyOp36
 70
     1
102
RTVSPropertyOp37
 70
     1
102
RTVSPropertyOp38
 70
     1
102
RTVSPropertyOp39
 70
     1
102
RTVSPropertyOp40
 70
     1
102
RTVSPropertyOp41
 70
     1
102
RTVSPropertyOp42
 70
     1
102
RTVSPropertyOp43
 70
     1
102
RTVSPropertyOp44
 70
     1
102
RTVSPropertyOp45
 70
     1
102
RTVSPropertyOp46
 70
     1
102
RTVSPropertyOp47
 70
     1
102
RTVSPropertyOp48
 70
     1
102
RTVSPropertyOp49
 70
     1
102
RTVSPropertyOp50
 70
     1
102
RTVSPropertyOp51
 70
     0
102
RTVSPropertyOp52
 70
     0
102
RTVSPropertyOp53
 70
     1
102
RTVSPropertyOp54
 70
     1
102
RTVSPropertyOp55
 70
     1
102
RTVSPropertyOp56
 70
     1
102
RTVSPropertyOp57
 70
     1
102
RTVSPost2010Prop28
280
     0
102
RTVSPost2010PropOp28
 70
     1
102
RTVSPost2010Prop29
280
     1
102
RTVSPost2010PropOp29
 70
     1
102
RTVSPost2010Prop30
280
     1
102
RTVSPost2010PropOp30
 70
     1
102
RTVSPost2010Prop31
280
     0
102
RTVSPost2010PropOp31
 70
     1
102
RTVSPost2010Prop32
280
     0
102
RTVSPost2010PropOp32
 70
     1
102
RTVSPost2010Prop33
280
     0
102
RTVSPost2010PropOp33
 70
     1
102
RTVSPost2010Prop34
280
     0
102
RTVSPost2010PropOp34
 70
     1
102
RTVSPost2010Prop35
280
     0
102
RTVSPost2010PropOp35
 70
     1
102
RTVSPost2010Prop36
280
     0
102
RTVSPost2010PropOp36
 70
     1
102
RTVSPost2010Prop37
 90
       50
102
RTVSPost2010PropOp37
 70
     1
102
RTVSPost2010Prop38
140
0.0
102
RTVSPost2010PropOp38
 70
     1
102
RTVSPost2010Prop39
140
1.0
102
RTVSPost2010PropOp39
 70
     1
102
RTVSPost2010Prop40
 90
        0
102
RTVSPost2010PropOp40
 70
     1
102
RTVSPost2010Prop41ColorIndex
 90
       18
102
RTVSPost2010Prop41ColorRGB
 90
        0
102
RTVSPost2010PropOp41
 70
     1
102
RTVSPost2010Prop42
 90
       50
102
RTVSPost2010PropOp42
 70
     1
102
RTVSPost2010Prop43
 90
        3
102
RTVSPost2010PropOp43
 70
     1
102
RTVSPost2010Prop44ColorIndex
 90
        5
102
RTVSPost2010Prop44ColorRGB
 90
      255
102
RTVSPost2010PropOp44
 70
     1
102
RTVSPost2010Prop45
280
     0
102
RTVSPost2010PropOp45
 70
     1
102
RTVSPost2010Prop46
 90
       50
102
RTVSPost2010PropOp46
 70
     1
102
RTVSPost2010Prop47
 90
       50
102
RTVSPost2010PropOp47
 70
     1
102
RTVSPost2010Prop48
 90
       50
102
RTVSPost2010PropOp48
 70
     1
102
RTVSPost2010Prop49
280
     0
102
RTVSPost2010PropOp49
 70
     1
102
RTVSPost2010Prop50
 90
       50
102
RTVSPost2010PropOp50
 70
     1
102
RTVSPost2010Prop51ColorIndex
 90
      256
102
RTVSPost2010Prop51ColorRGB
 90
-16777216
102
RTVSPost2010PropOp51
 70
     0
102
RTVSPost2010Prop52
140
1.0
102
RTVSPost2010PropOp52
 70
     0
102
RTVSPost2010Prop53
 90
        2
102
RTVSPost2010PropOp53
 70
     1
102
RTVSPost2010Prop54
  1
strokes_ogs.tif
102
RTVSPost2010PropOp54
 70
     1
102
RTVSPost2010Prop55
280
     0
102
RTVSPost2010PropOp55
 70
     1
102
RTVSPost2010Prop56
140
1.0
102
RTVSPost2010PropOp56
 70
     1
102
RTVSPost2010Prop57
140
1.0
102
RTVSPost2010PropOp57
 70
     1
  0
XRECORD
  5
106ACFE
102
{ACAD_REACTORS
330
106ACFD
102
}
330
106ACFD
100
AcDbXrecord
280
     1
102
RTVSPropertyOp0
 70
     1
102
RTVSPropertyOp1
 70
     1
102
RTVSPropertyOp2
 70
     1
102
RTVSPropertyOp3
 70
     1
102
RTVSPropertyOp4
 70
     1
102
RTVSPropertyOp5
 70
     1
102
RTVSPropertyOp6
 70
     1
102
RTVSPropertyOp7
 70
     1
102
RTVSPropertyOp8
 70
     1
102
RTVSPropertyOp9
 70
     1
102
RTVSPropertyOp10
 70
     1
102
RTVSPropertyOp11
 70
     1
102
RTVSPropertyOp12
 70
     1
102
RTVSPropertyOp13
 70
     1
102
RTVSPropertyOp14
 70
     1
102
RTVSPropertyOp15
 70
     1
102
RTVSPropertyOp16
 70
     1
102
RTVSPropertyOp17
 70
     1
102
RTVSPropertyOp18
 70
     1
102
RTVSPropertyOp19
 70
     1
102
RTVSPropertyOp20
 70
     1
102
RTVSPropertyOp21
 70
     1
102
RTVSPropertyOp22
 70
     1
102
RTVSPropertyOp23
 70
     1
102
RTVSPropertyOp24
 70
     1
102
RTVSPropertyOp25
 70
     1
102
RTVSPropertyOp26
 70
     1
102
RTVSPropertyOp27
 70
     1
102
RTVSPropertyOp28
 70
     1
102
RTVSPropertyOp29
 70
     1
102
RTVSPropertyOp30
 70
     1
102
RTVSPropertyOp31
 70
     1
102
RTVSPropertyOp32
 70
     1
102
RTVSPropertyOp33
 70
     1
102
RTVSPropertyOp34
 70
     1
102
RTVSPropertyOp35
 70
     1
102
RTVSPropertyOp36
 70
     1
102
RTVSPropertyOp37
 70
     1
102
RTVSPropertyOp38
 70
     1
102
RTVSPropertyOp39
 70
     1
102
RTVSPropertyOp40
 70
     1
102
RTVSPropertyOp41
 70
     1
102
RTVSPropertyOp42
 70
     1
102
RTVSPropertyOp43
 70
     1
102
RTVSPropertyOp44
 70
     1
102
RTVSPropertyOp45
 70
     1
102
RTVSPropertyOp46
 70
     1
102
RTVSPropertyOp47
 70
     1
102
RTVSPropertyOp48
 70
     1
102
RTVSPropertyOp49
 70
     1
102
RTVSPropertyOp50
 70
     1
102
RTVSPropertyOp51
 70
     0
102
RTVSPropertyOp52
 70
     0
102
RTVSPropertyOp53
 70
     1
102
RTVSPropertyOp54
 70
     1
102
RTVSPropertyOp55
 70
     1
102
RTVSPropertyOp56
 70
     1
102
RTVSPropertyOp57
 70
     1
102
RTVSPost2010Prop28
280
     0
102
RTVSPost2010PropOp28
 70
     1
102
RTVSPost2010Prop29
280
     1
102
RTVSPost2010PropOp29
 70
     1
102
RTVSPost2010Prop30
280
     1
102
RTVSPost2010PropOp30
 70
     1
102
RTVSPost2010Prop31
280
     0
102
RTVSPost2010PropOp31
 70
     1
102
RTVSPost2010Prop32
280
     0
102
RTVSPost2010PropOp32
 70
     1
102
RTVSPost2010Prop33
280
     0
102
RTVSPost2010PropOp33
 70
     1
102
RTVSPost2010Prop34
280
     0
102
RTVSPost2010PropOp34
 70
     1
102
RTVSPost2010Prop35
280
     0
102
RTVSPost2010PropOp35
 70
     1
102
RTVSPost2010Prop36
280
     0
102
RTVSPost2010PropOp36
 70
     1
102
RTVSPost2010Prop37
 90
       50
102
RTVSPost2010PropOp37
 70
     1
102
RTVSPost2010Prop38
140
0.0
102
RTVSPost2010PropOp38
 70
     1
102
RTVSPost2010Prop39
140
1.0
102
RTVSPost2010PropOp39
 70
     1
102
RTVSPost2010Prop40
 90
        0
102
RTVSPost2010PropOp40
 70
     1
102
RTVSPost2010Prop41ColorIndex
 90
       18
102
RTVSPost2010Prop41ColorRGB
 90
        0
102
RTVSPost2010PropOp41
 70
     1
102
RTVSPost2010Prop42
 90
       50
102
RTVSPost2010PropOp42
 70
     1
102
RTVSPost2010Prop43
 90
        3
102
RTVSPost2010PropOp43
 70
     1
102
RTVSPost2010Prop44ColorIndex
 90
        5
102
RTVSPost2010Prop44ColorRGB
 90
      255
102
RTVSPost2010PropOp44
 70
     1
102
RTVSPost2010Prop45
280
     0
102
RTVSPost2010PropOp45
 70
     1
102
RTVSPost2010Prop46
 90
       50
102
RTVSPost2010PropOp46
 70
     1
102
RTVSPost2010Prop47
 90
       50
102
RTVSPost2010PropOp47
 70
     1
102
RTVSPost2010Prop48
 90
       50
102
RTVSPost2010PropOp48
 70
     1
102
RTVSPost2010Prop49
280
     0
102
RTVSPost2010PropOp49
 70
     1
102
RTVSPost2010Prop50
 90
       50
102
RTVSPost2010PropOp50
 70
     1
102
RTVSPost2010Prop51ColorIndex
 90
      256
102
RTVSPost2010Prop51ColorRGB
 90
-16777216
102
RTVSPost2010PropOp51
 70
     0
102
RTVSPost2010Prop52
140
1.0
102
RTVSPost2010PropOp52
 70
     0
102
RTVSPost2010Prop53
 90
        2
102
RTVSPost2010PropOp53
 70
     1
102
RTVSPost2010Prop54
  1
strokes_ogs.tif
102
RTVSPost2010PropOp54
 70
     1
102
RTVSPost2010Prop55
280
     0
102
RTVSPost2010PropOp55
 70
     1
102
RTVSPost2010Prop56
140
1.0
102
RTVSPost2010PropOp56
 70
     1
102
RTVSPost2010Prop57
140
1.0
102
RTVSPost2010PropOp57
 70
     1
  0
XRECORD
  5
106AD00
102
{ACAD_REACTORS
330
106ACFF
102
}
330
106ACFF
100
AcDbXrecord
280
     1
102
RTVSPropertyOp0
 70
     1
102
RTVSPropertyOp1
 70
     1
102
RTVSPropertyOp2
 70
     1
102
RTVSPropertyOp3
 70
     1
102
RTVSPropertyOp4
 70
     1
102
RTVSPropertyOp5
 70
     1
102
RTVSPropertyOp6
 70
     1
102
RTVSPropertyOp7
 70
     1
102
RTVSPropertyOp8
 70
     1
102
RTVSPropertyOp9
 70
     1
102
RTVSPropertyOp10
 70
     1
102
RTVSPropertyOp11
 70
     1
102
RTVSPropertyOp12
 70
     1
102
RTVSPropertyOp13
 70
     1
102
RTVSPropertyOp14
 70
     1
102
RTVSPropertyOp15
 70
     1
102
RTVSPropertyOp16
 70
     1
102
RTVSPropertyOp17
 70
     1
102
RTVSPropertyOp18
 70
     1
102
RTVSPropertyOp19
 70
     1
102
RTVSPropertyOp20
 70
     1
102
RTVSPropertyOp21
 70
     1
102
RTVSPropertyOp22
 70
     1
102
RTVSPropertyOp23
 70
     1
102
RTVSPropertyOp24
 70
     1
102
RTVSPropertyOp25
 70
     1
102
RTVSPropertyOp26
 70
     1
102
RTVSPropertyOp27
 70
     1
102
RTVSPropertyOp28
 70
     1
102
RTVSPropertyOp29
 70
     1
102
RTVSPropertyOp30
 70
     1
102
RTVSPropertyOp31
 70
     1
102
RTVSPropertyOp32
 70
     1
102
RTVSPropertyOp33
 70
     1
102
RTVSPropertyOp34
 70
     1
102
RTVSPropertyOp35
 70
     1
102
RTVSPropertyOp36
 70
     1
102
RTVSPropertyOp37
 70
     1
102
RTVSPropertyOp38
 70
     1
102
RTVSPropertyOp39
 70
     1
102
RTVSPropertyOp40
 70
     1
102
RTVSPropertyOp41
 70
     1
102
RTVSPropertyOp42
 70
     1
102
RTVSPropertyOp43
 70
     1
102
RTVSPropertyOp44
 70
     1
102
RTVSPropertyOp45
 70
     1
102
RTVSPropertyOp46
 70
     1
102
RTVSPropertyOp47
 70
     1
102
RTVSPropertyOp48
 70
     1
102
RTVSPropertyOp49
 70
     1
102
RTVSPropertyOp50
 70
     1
102
RTVSPropertyOp51
 70
     0
102
RTVSPropertyOp52
 70
     0
102
RTVSPropertyOp53
 70
     1
102
RTVSPropertyOp54
 70
     1
102
RTVSPropertyOp55
 70
     1
102
RTVSPropertyOp56
 70
     1
102
RTVSPropertyOp57
 70
     1
102
RTVSPost2010Prop28
280
     0
102
RTVSPost2010PropOp28
 70
     1
102
RTVSPost2010Prop29
280
     1
102
RTVSPost2010PropOp29
 70
     1
102
RTVSPost2010Prop30
280
     1
102
RTVSPost2010PropOp30
 70
     1
102
RTVSPost2010Prop31
280
     0
102
RTVSPost2010PropOp31
 70
     1
102
RTVSPost2010Prop32
280
     0
102
RTVSPost2010PropOp32
 70
     1
102
RTVSPost2010Prop33
280
     0
102
RTVSPost2010PropOp33
 70
     1
102
RTVSPost2010Prop34
280
     0
102
RTVSPost2010PropOp34
 70
     1
102
RTVSPost2010Prop35
280
     0
102
RTVSPost2010PropOp35
 70
     1
102
RTVSPost2010Prop36
280
     0
102
RTVSPost2010PropOp36
 70
     1
102
RTVSPost2010Prop37
 90
       50
102
RTVSPost2010PropOp37
 70
     1
102
RTVSPost2010Prop38
140
0.0
102
RTVSPost2010PropOp38
 70
     1
102
RTVSPost2010Prop39
140
1.0
102
RTVSPost2010PropOp39
 70
     1
102
RTVSPost2010Prop40
 90
        0
102
RTVSPost2010PropOp40
 70
     1
102
RTVSPost2010Prop41ColorIndex
 90
       18
102
RTVSPost2010Prop41ColorRGB
 90
        0
102
RTVSPost2010PropOp41
 70
     1
102
RTVSPost2010Prop42
 90
       50
102
RTVSPost2010PropOp42
 70
     1
102
RTVSPost2010Prop43
 90
        3
102
RTVSPost2010PropOp43
 70
     1
102
RTVSPost2010Prop44ColorIndex
 90
        5
102
RTVSPost2010Prop44ColorRGB
 90
      255
102
RTVSPost2010PropOp44
 70
     1
102
RTVSPost2010Prop45
280
     0
102
RTVSPost2010PropOp45
 70
     1
102
RTVSPost2010Prop46
 90
       50
102
RTVSPost2010PropOp46
 70
     1
102
RTVSPost2010Prop47
 90
       50
102
RTVSPost2010PropOp47
 70
     1
102
RTVSPost2010Prop48
 90
       50
102
RTVSPost2010PropOp48
 70
     1
102
RTVSPost2010Prop49
280
     0
102
RTVSPost2010PropOp49
 70
     1
102
RTVSPost2010Prop50
 90
       50
102
RTVSPost2010PropOp50
 70
     1
102
RTVSPost2010Prop51ColorIndex
 90
      256
102
RTVSPost2010Prop51ColorRGB
 90
-16777216
102
RTVSPost2010PropOp51
 70
     0
102
RTVSPost2010Prop52
140
1.0
102
RTVSPost2010PropOp52
 70
     0
102
RTVSPost2010Prop53
 90
        2
102
RTVSPost2010PropOp53
 70
     1
102
RTVSPost2010Prop54
  1
strokes_ogs.tif
102
RTVSPost2010PropOp54
 70
     1
102
RTVSPost2010Prop55
280
     0
102
RTVSPost2010PropOp55
 70
     1
102
RTVSPost2010Prop56
140
1.0
102
RTVSPost2010PropOp56
 70
     1
102
RTVSPost2010Prop57
140
1.0
102
RTVSPost2010PropOp57
 70
     1
  0
XRECORD
  5
106AD02
102
{ACAD_REACTORS
330
106AD01
102
}
330
106AD01
100
AcDbXrecord
280
     1
102
RTVSPropertyOp0
 70
     1
102
RTVSPropertyOp1
 70
     1
102
RTVSPropertyOp2
 70
     1
102
RTVSPropertyOp3
 70
     1
102
RTVSPropertyOp4
 70
     1
102
RTVSPropertyOp5
 70
     1
102
RTVSPropertyOp6
 70
     1
102
RTVSPropertyOp7
 70
     1
102
RTVSPropertyOp8
 70
     1
102
RTVSPropertyOp9
 70
     1
102
RTVSPropertyOp10
 70
     1
102
RTVSPropertyOp11
 70
     1
102
RTVSPropertyOp12
 70
     1
102
RTVSPropertyOp13
 70
     1
102
RTVSPropertyOp14
 70
     1
102
RTVSPropertyOp15
 70
     1
102
RTVSPropertyOp16
 70
     1
102
RTVSPropertyOp17
 70
     1
102
RTVSPropertyOp18
 70
     1
102
RTVSPropertyOp19
 70
     1
102
RTVSPropertyOp20
 70
     1
102
RTVSPropertyOp21
 70
     1
102
RTVSPropertyOp22
 70
     1
102
RTVSPropertyOp23
 70
     1
102
RTVSPropertyOp24
 70
     1
102
RTVSPropertyOp25
 70
     1
102
RTVSPropertyOp26
 70
     1
102
RTVSPropertyOp27
 70
     1
102
RTVSPropertyOp28
 70
     1
102
RTVSPropertyOp29
 70
     1
102
RTVSPropertyOp30
 70
     1
102
RTVSPropertyOp31
 70
     1
102
RTVSPropertyOp32
 70
     1
102
RTVSPropertyOp33
 70
     1
102
RTVSPropertyOp34
 70
     1
102
RTVSPropertyOp35
 70
     1
102
RTVSPropertyOp36
 70
     1
102
RTVSPropertyOp37
 70
     1
102
RTVSPropertyOp38
 70
     1
102
RTVSPropertyOp39
 70
     1
102
RTVSPropertyOp40
 70
     1
102
RTVSPropertyOp41
 70
     1
102
RTVSPropertyOp42
 70
     1
102
RTVSPropertyOp43
 70
     1
102
RTVSPropertyOp44
 70
     1
102
RTVSPropertyOp45
 70
     1
102
RTVSPropertyOp46
 70
     1
102
RTVSPropertyOp47
 70
     1
102
RTVSPropertyOp48
 70
     1
102
RTVSPropertyOp49
 70
     1
102
RTVSPropertyOp50
 70
     1
102
RTVSPropertyOp51
 70
     0
102
RTVSPropertyOp52
 70
     0
102
RTVSPropertyOp53
 70
     1
102
RTVSPropertyOp54
 70
     1
102
RTVSPropertyOp55
 70
     1
102
RTVSPropertyOp56
 70
     1
102
RTVSPropertyOp57
 70
     1
102
RTVSPost2010Prop28
280
     0
102
RTVSPost2010PropOp28
 70
     1
102
RTVSPost2010Prop29
280
     1
102
RTVSPost2010PropOp29
 70
     1
102
RTVSPost2010Prop30
280
     1
102
RTVSPost2010PropOp30
 70
     1
102
RTVSPost2010Prop31
280
     0
102
RTVSPost2010PropOp31
 70
     1
102
RTVSPost2010Prop32
280
     0
102
RTVSPost2010PropOp32
 70
     1
102
RTVSPost2010Prop33
280
     0
102
RTVSPost2010PropOp33
 70
     1
102
RTVSPost2010Prop34
280
     0
102
RTVSPost2010PropOp34
 70
     1
102
RTVSPost2010Prop35
280
     0
102
RTVSPost2010PropOp35
 70
     1
102
RTVSPost2010Prop36
280
     0
102
RTVSPost2010PropOp36
 70
     1
102
RTVSPost2010Prop37
 90
       50
102
RTVSPost2010PropOp37
 70
     1
102
RTVSPost2010Prop38
140
0.0
102
RTVSPost2010PropOp38
 70
     1
102
RTVSPost2010Prop39
140
1.0
102
RTVSPost2010PropOp39
 70
     1
102
RTVSPost2010Prop40
 90
        0
102
RTVSPost2010PropOp40
 70
     1
102
RTVSPost2010Prop41ColorIndex
 90
       18
102
RTVSPost2010Prop41ColorRGB
 90
        0
102
RTVSPost2010PropOp41
 70
     1
102
RTVSPost2010Prop42
 90
       50
102
RTVSPost2010PropOp42
 70
     1
102
RTVSPost2010Prop43
 90
        3
102
RTVSPost2010PropOp43
 70
     1
102
RTVSPost2010Prop44ColorIndex
 90
        5
102
RTVSPost2010Prop44ColorRGB
 90
      255
102
RTVSPost2010PropOp44
 70
     1
102
RTVSPost2010Prop45
280
     0
102
RTVSPost2010PropOp45
 70
     1
102
RTVSPost2010Prop46
 90
       50
102
RTVSPost2010PropOp46
 70
     1
102
RTVSPost2010Prop47
 90
       50
102
RTVSPost2010PropOp47
 70
     1
102
RTVSPost2010Prop48
 90
       50
102
RTVSPost2010PropOp48
 70
     1
102
RTVSPost2010Prop49
280
     0
102
RTVSPost2010PropOp49
 70
     1
102
RTVSPost2010Prop50
 90
       50
102
RTVSPost2010PropOp50
 70
     1
102
RTVSPost2010Prop51ColorIndex
 90
      256
102
RTVSPost2010Prop51ColorRGB
 90
-16777216
102
RTVSPost2010PropOp51
 70
     0
102
RTVSPost2010Prop52
140
1.0
102
RTVSPost2010PropOp52
 70
     0
102
RTVSPost2010Prop53
 90
        2
102
RTVSPost2010PropOp53
 70
     1
102
RTVSPost2010Prop54
  1
strokes_ogs.tif
102
RTVSPost2010PropOp54
 70
     1
102
RTVSPost2010Prop55
280
     0
102
RTVSPost2010PropOp55
 70
     1
102
RTVSPost2010Prop56
140
1.0
102
RTVSPost2010PropOp56
 70
     1
102
RTVSPost2010Prop57
140
1.0
102
RTVSPost2010PropOp57
 70
     1
  0
XRECORD
  5
106AD04
102
{ACAD_REACTORS
330
106AD03
102
}
330
106AD03
100
AcDbXrecord
280
     1
102
RTVSPropertyOp0
 70
     0
102
RTVSPropertyOp1
 70
     0
102
RTVSPropertyOp2
 70
     0
102
RTVSPropertyOp3
 70
     0
102
RTVSPropertyOp4
 70
     0
102
RTVSPropertyOp5
 70
     0
102
RTVSPropertyOp6
 70
     0
102
RTVSPropertyOp7
 70
     0
102
RTVSPropertyOp8
 70
     0
102
RTVSPropertyOp9
 70
     0
102
RTVSPropertyOp10
 70
     0
102
RTVSPropertyOp11
 70
     0
102
RTVSPropertyOp12
 70
     0
102
RTVSPropertyOp13
 70
     0
102
RTVSPropertyOp14
 70
     2
102
RTVSPropertyOp15
 70
     0
102
RTVSPropertyOp16
 70
     0
102
RTVSPropertyOp17
 70
     0
102
RTVSPropertyOp18
 70
     0
102
RTVSPropertyOp19
 70
     0
102
RTVSPropertyOp20
 70
     0
102
RTVSPropertyOp21
 70
     0
102
RTVSPropertyOp22
 70
     0
102
RTVSPropertyOp23
 70
     0
102
RTVSPropertyOp24
 70
     0
102
RTVSPropertyOp25
 70
     0
102
RTVSPropertyOp26
 70
     0
102
RTVSPropertyOp27
 70
     0
102
RTVSPropertyOp28
 70
     0
102
RTVSPropertyOp29
 70
     0
102
RTVSPropertyOp30
 70
     0
102
RTVSPropertyOp31
 70
     0
102
RTVSPropertyOp32
 70
     0
102
RTVSPropertyOp33
 70
     0
102
RTVSPropertyOp34
 70
     0
102
RTVSPropertyOp35
 70
     0
102
RTVSPropertyOp36
 70
     0
102
RTVSPropertyOp37
 70
     0
102
RTVSPropertyOp38
 70
     0
102
RTVSPropertyOp39
 70
     0
102
RTVSPropertyOp40
 70
     0
102
RTVSPropertyOp41
 70
     0
102
RTVSPropertyOp42
 70
     0
102
RTVSPropertyOp43
 70
     0
102
RTVSPropertyOp44
 70
     0
102
RTVSPropertyOp45
 70
     0
102
RTVSPropertyOp46
 70
     0
102
RTVSPropertyOp47
 70
     0
102
RTVSPropertyOp48
 70
     0
102
RTVSPropertyOp49
 70
     0
102
RTVSPropertyOp50
 70
     0
102
RTVSPropertyOp51
 70
     0
102
RTVSPropertyOp52
 70
     0
102
RTVSPropertyOp53
 70
     0
102
RTVSPropertyOp54
 70
     0
102
RTVSPropertyOp55
 70
     0
102
RTVSPropertyOp56
 70
     0
102
RTVSPropertyOp57
 70
     0
102
RTVSPost2010Prop28
280
     0
102
RTVSPost2010PropOp28
 70
     0
102
RTVSPost2010Prop29
280
     1
102
RTVSPost2010PropOp29
 70
     0
102
RTVSPost2010Prop30
280
     1
102
RTVSPost2010PropOp30
 70
     0
102
RTVSPost2010Prop31
280
     0
102
RTVSPost2010PropOp31
 70
     0
102
RTVSPost2010Prop32
280
     0
102
RTVSPost2010PropOp32
 70
     0
102
RTVSPost2010Prop33
280
     0
102
RTVSPost2010PropOp33
 70
     0
102
RTVSPost2010Prop34
280
     0
102
RTVSPost2010PropOp34
 70
     0
102
RTVSPost2010Prop35
280
     0
102
RTVSPost2010PropOp35
 70
     0
102
RTVSPost2010Prop36
280
     0
102
RTVSPost2010PropOp36
 70
     0
102
RTVSPost2010Prop37
 90
       50
102
RTVSPost2010PropOp37
 70
     0
102
RTVSPost2010Prop38
140
0.0
102
RTVSPost2010PropOp38
 70
     0
102
RTVSPost2010Prop39
140
1.0
102
RTVSPost2010PropOp39
 70
     0
102
RTVSPost2010Prop40
 90
        0
102
RTVSPost2010PropOp40
 70
     0
102
RTVSPost2010Prop41ColorIndex
 90
       18
102
RTVSPost2010Prop41ColorRGB
 90
        0
102
RTVSPost2010PropOp41
 70
     0
102
RTVSPost2010Prop42
 90
       50
102
RTVSPost2010PropOp42
 70
     0
102
RTVSPost2010Prop43
 90
        3
102
RTVSPost2010PropOp43
 70
     0
102
RTVSPost2010Prop44ColorIndex
 90
        5
102
RTVSPost2010Prop44ColorRGB
 90
      255
102
RTVSPost2010PropOp44
 70
     0
102
RTVSPost2010Prop45
280
     0
102
RTVSPost2010PropOp45
 70
     0
102
RTVSPost2010Prop46
 90
       50
102
RTVSPost2010PropOp46
 70
     0
102
RTVSPost2010Prop47
 90
       50
102
RTVSPost2010PropOp47
 70
     0
102
RTVSPost2010Prop48
 90
       50
102
RTVSPost2010PropOp48
 70
     0
102
RTVSPost2010Prop49
280
     0
102
RTVSPost2010PropOp49
 70
     0
102
RTVSPost2010Prop50
 90
       50
102
RTVSPost2010PropOp50
 70
     0
102
RTVSPost2010Prop51ColorIndex
 90
      256
102
RTVSPost2010Prop51ColorRGB
 90
-16777216
102
RTVSPost2010PropOp51
 70
     0
102
RTVSPost2010Prop52
140
1.0
102
RTVSPost2010PropOp52
 70
     0
102
RTVSPost2010Prop53
 90
        2
102
RTVSPost2010PropOp53
 70
     0
102
RTVSPost2010Prop54
  1
strokes_ogs.tif
102
RTVSPost2010PropOp54
 70
     0
102
RTVSPost2010Prop55
280
     0
102
RTVSPost2010PropOp55
 70
     0
102
RTVSPost2010Prop56
140
1.0
102
RTVSPost2010PropOp56
 70
     0
102
RTVSPost2010Prop57
140
1.0
102
RTVSPost2010PropOp57
 70
     0
  0
XRECORD
  5
106AD06
102
{ACAD_REACTORS
330
106AD05
102
}
330
106AD05
100
AcDbXrecord
280
     1
102
RTVSPropertyOp0
 70
     1
102
RTVSPropertyOp1
 70
     1
102
RTVSPropertyOp2
 70
     1
102
RTVSPropertyOp3
 70
     1
102
RTVSPropertyOp4
 70
     1
102
RTVSPropertyOp5
 70
     1
102
RTVSPropertyOp6
 70
     1
102
RTVSPropertyOp7
 70
     1
102
RTVSPropertyOp8
 70
     1
102
RTVSPropertyOp9
 70
     1
102
RTVSPropertyOp10
 70
     1
102
RTVSPropertyOp11
 70
     1
102
RTVSPropertyOp12
 70
     1
102
RTVSPropertyOp13
 70
     1
102
RTVSPropertyOp14
 70
     1
102
RTVSPropertyOp15
 70
     1
102
RTVSPropertyOp16
 70
     1
102
RTVSPropertyOp17
 70
     1
102
RTVSPropertyOp18
 70
     1
102
RTVSPropertyOp19
 70
     1
102
RTVSPropertyOp20
 70
     1
102
RTVSPropertyOp21
 70
     1
102
RTVSPropertyOp22
 70
     1
102
RTVSPropertyOp23
 70
     1
102
RTVSPropertyOp24
 70
     1
102
RTVSPropertyOp25
 70
     1
102
RTVSPropertyOp26
 70
     1
102
RTVSPropertyOp27
 70
     1
102
RTVSPropertyOp28
 70
     1
102
RTVSPropertyOp29
 70
     1
102
RTVSPropertyOp30
 70
     1
102
RTVSPropertyOp31
 70
     1
102
RTVSPropertyOp32
 70
     1
102
RTVSPropertyOp33
 70
     1
102
RTVSPropertyOp34
 70
     1
102
RTVSPropertyOp35
 70
     1
102
RTVSPropertyOp36
 70
     1
102
RTVSPropertyOp37
 70
     1
102
RTVSPropertyOp38
 70
     1
102
RTVSPropertyOp39
 70
     1
102
RTVSPropertyOp40
 70
     1
102
RTVSPropertyOp41
 70
     1
102
RTVSPropertyOp42
 70
     1
102
RTVSPropertyOp43
 70
     1
102
RTVSPropertyOp44
 70
     1
102
RTVSPropertyOp45
 70
     1
102
RTVSPropertyOp46
 70
     1
102
RTVSPropertyOp47
 70
     1
102
RTVSPropertyOp48
 70
     1
102
RTVSPropertyOp49
 70
     1
102
RTVSPropertyOp50
 70
     1
102
RTVSPropertyOp51
 70
     0
102
RTVSPropertyOp52
 70
     0
102
RTVSPropertyOp53
 70
     1
102
RTVSPropertyOp54
 70
     1
102
RTVSPropertyOp55
 70
     1
102
RTVSPropertyOp56
 70
     1
102
RTVSPropertyOp57
 70
     1
102
RTVSPost2010Prop28
280
     0
102
RTVSPost2010PropOp28
 70
     1
102
RTVSPost2010Prop29
280
     1
102
RTVSPost2010PropOp29
 70
     1
102
RTVSPost2010Prop30
280
     1
102
RTVSPost2010PropOp30
 70
     1
102
RTVSPost2010Prop31
280
     0
102
RTVSPost2010PropOp31
 70
     1
102
RTVSPost2010Prop32
280
     0
102
RTVSPost2010PropOp32
 70
     1
102
RTVSPost2010Prop33
280
     0
102
RTVSPost2010PropOp33
 70
     1
102
RTVSPost2010Prop34
280
     0
102
RTVSPost2010PropOp34
 70
     1
102
RTVSPost2010Prop35
280
     0
102
RTVSPost2010PropOp35
 70
     1
102
RTVSPost2010Prop36
280
     0
102
RTVSPost2010PropOp36
 70
     1
102
RTVSPost2010Prop37
 90
       50
102
RTVSPost2010PropOp37
 70
     1
102
RTVSPost2010Prop38
140
0.0
102
RTVSPost2010PropOp38
 70
     1
102
RTVSPost2010Prop39
140
1.0
102
RTVSPost2010PropOp39
 70
     1
102
RTVSPost2010Prop40
 90
        0
102
RTVSPost2010PropOp40
 70
     1
102
RTVSPost2010Prop41ColorIndex
 90
       18
102
RTVSPost2010Prop41ColorRGB
 90
        0
102
RTVSPost2010PropOp41
 70
     1
102
RTVSPost2010Prop42
 90
       50
102
RTVSPost2010PropOp42
 70
     1
102
RTVSPost2010Prop43
 90
        3
102
RTVSPost2010PropOp43
 70
     1
102
RTVSPost2010Prop44ColorIndex
 90
        5
102
RTVSPost2010Prop44ColorRGB
 90
      255
102
RTVSPost2010PropOp44
 70
     1
102
RTVSPost2010Prop45
280
     0
102
RTVSPost2010PropOp45
 70
     1
102
RTVSPost2010Prop46
 90
       50
102
RTVSPost2010PropOp46
 70
     1
102
RTVSPost2010Prop47
 90
       50
102
RTVSPost2010PropOp47
 70
     1
102
RTVSPost2010Prop48
 90
       50
102
RTVSPost2010PropOp48
 70
     1
102
RTVSPost2010Prop49
280
     0
102
RTVSPost2010PropOp49
 70
     1
102
RTVSPost2010Prop50
 90
       50
102
RTVSPost2010PropOp50
 70
     1
102
RTVSPost2010Prop51ColorIndex
 90
      256
102
RTVSPost2010Prop51ColorRGB
 90
-16777216
102
RTVSPost2010PropOp51
 70
     0
102
RTVSPost2010Prop52
140
1.0
102
RTVSPost2010PropOp52
 70
     0
102
RTVSPost2010Prop53
 90
        2
102
RTVSPost2010PropOp53
 70
     1
102
RTVSPost2010Prop54
  1
strokes_ogs.tif
102
RTVSPost2010PropOp54
 70
     1
102
RTVSPost2010Prop55
280
     0
102
RTVSPost2010PropOp55
 70
     1
102
RTVSPost2010Prop56
140
1.0
102
RTVSPost2010PropOp56
 70
     1
102
RTVSPost2010Prop57
140
1.0
102
RTVSPost2010PropOp57
 70
     1
  0
XRECORD
  5
106AD08
102
{ACAD_REACTORS
330
106AD07
102
}
330
106AD07
100
AcDbXrecord
280
     1
102
RTVSPropertyOp0
 70
     1
102
RTVSPropertyOp1
 70
     1
102
RTVSPropertyOp2
 70
     1
102
RTVSPropertyOp3
 70
     1
102
RTVSPropertyOp4
 70
     1
102
RTVSPropertyOp5
 70
     1
102
RTVSPropertyOp6
 70
     1
102
RTVSPropertyOp7
 70
     1
102
RTVSPropertyOp8
 70
     1
102
RTVSPropertyOp9
 70
     1
102
RTVSPropertyOp10
 70
     1
102
RTVSPropertyOp11
 70
     1
102
RTVSPropertyOp12
 70
     1
102
RTVSPropertyOp13
 70
     1
102
RTVSPropertyOp14
 70
     1
102
RTVSPropertyOp15
 70
     1
102
RTVSPropertyOp16
 70
     1
102
RTVSPropertyOp17
 70
     1
102
RTVSPropertyOp18
 70
     1
102
RTVSPropertyOp19
 70
     1
102
RTVSPropertyOp20
 70
     1
102
RTVSPropertyOp21
 70
     1
102
RTVSPropertyOp22
 70
     1
102
RTVSPropertyOp23
 70
     1
102
RTVSPropertyOp24
 70
     1
102
RTVSPropertyOp25
 70
     1
102
RTVSPropertyOp26
 70
     1
102
RTVSPropertyOp27
 70
     1
102
RTVSPropertyOp28
 70
     1
102
RTVSPropertyOp29
 70
     1
102
RTVSPropertyOp30
 70
     1
102
RTVSPropertyOp31
 70
     1
102
RTVSPropertyOp32
 70
     1
102
RTVSPropertyOp33
 70
     1
102
RTVSPropertyOp34
 70
     1
102
RTVSPropertyOp35
 70
     1
102
RTVSPropertyOp36
 70
     1
102
RTVSPropertyOp37
 70
     1
102
RTVSPropertyOp38
 70
     1
102
RTVSPropertyOp39
 70
     1
102
RTVSPropertyOp40
 70
     1
102
RTVSPropertyOp41
 70
     1
102
RTVSPropertyOp42
 70
     1
102
RTVSPropertyOp43
 70
     1
102
RTVSPropertyOp44
 70
     1
102
RTVSPropertyOp45
 70
     1
102
RTVSPropertyOp46
 70
     1
102
RTVSPropertyOp47
 70
     1
102
RTVSPropertyOp48
 70
     1
102
RTVSPropertyOp49
 70
     1
102
RTVSPropertyOp50
 70
     1
102
RTVSPropertyOp51
 70
     0
102
RTVSPropertyOp52
 70
     0
102
RTVSPropertyOp53
 70
     1
102
RTVSPropertyOp54
 70
     1
102
RTVSPropertyOp55
 70
     1
102
RTVSPropertyOp56
 70
     1
102
RTVSPropertyOp57
 70
     1
102
RTVSPost2010Prop28
280
     0
102
RTVSPost2010PropOp28
 70
     1
102
RTVSPost2010Prop29
280
     1
102
RTVSPost2010PropOp29
 70
     1
102
RTVSPost2010Prop30
280
     1
102
RTVSPost2010PropOp30
 70
     1
102
RTVSPost2010Prop31
280
     0
102
RTVSPost2010PropOp31
 70
     1
102
RTVSPost2010Prop32
280
     0
102
RTVSPost2010PropOp32
 70
     1
102
RTVSPost2010Prop33
280
     0
102
RTVSPost2010PropOp33
 70
     1
102
RTVSPost2010Prop34
280
     0
102
RTVSPost2010PropOp34
 70
     1
102
RTVSPost2010Prop35
280
     0
102
RTVSPost2010PropOp35
 70
     1
102
RTVSPost2010Prop36
280
     0
102
RTVSPost2010PropOp36
 70
     1
102
RTVSPost2010Prop37
 90
       50
102
RTVSPost2010PropOp37
 70
     1
102
RTVSPost2010Prop38
140
0.0
102
RTVSPost2010PropOp38
 70
     1
102
RTVSPost2010Prop39
140
1.0
102
RTVSPost2010PropOp39
 70
     1
102
RTVSPost2010Prop40
 90
        0
102
RTVSPost2010PropOp40
 70
     1
102
RTVSPost2010Prop41ColorIndex
 90
       18
102
RTVSPost2010Prop41ColorRGB
 90
        0
102
RTVSPost2010PropOp41
 70
     1
102
RTVSPost2010Prop42
 90
       50
102
RTVSPost2010PropOp42
 70
     1
102
RTVSPost2010Prop43
 90
        3
102
RTVSPost2010PropOp43
 70
     1
102
RTVSPost2010Prop44ColorIndex
 90
        5
102
RTVSPost2010Prop44ColorRGB
 90
      255
102
RTVSPost2010PropOp44
 70
     1
102
RTVSPost2010Prop45
280
     0
102
RTVSPost2010PropOp45
 70
     1
102
RTVSPost2010Prop46
 90
       50
102
RTVSPost2010PropOp46
 70
     1
102
RTVSPost2010Prop47
 90
       50
102
RTVSPost2010PropOp47
 70
     1
102
RTVSPost2010Prop48
 90
       50
102
RTVSPost2010PropOp48
 70
     1
102
RTVSPost2010Prop49
280
     0
102
RTVSPost2010PropOp49
 70
     1
102
RTVSPost2010Prop50
 90
       50
102
RTVSPost2010PropOp50
 70
     1
102
RTVSPost2010Prop51ColorIndex
 90
      256
102
RTVSPost2010Prop51ColorRGB
 90
-16777216
102
RTVSPost2010PropOp51
 70
     0
102
RTVSPost2010Prop52
140
1.0
102
RTVSPost2010PropOp52
 70
     0
102
RTVSPost2010Prop53
 90
        2
102
RTVSPost2010PropOp53
 70
     1
102
RTVSPost2010Prop54
  1
strokes_ogs.tif
102
RTVSPost2010PropOp54
 70
     1
102
RTVSPost2010Prop55
280
     0
102
RTVSPost2010PropOp55
 70
     1
102
RTVSPost2010Prop56
140
1.0
102
RTVSPost2010PropOp56
 70
     1
102
RTVSPost2010Prop57
140
1.0
102
RTVSPost2010PropOp57
 70
     1
  0
XRECORD
  5
106AD0A
102
{ACAD_REACTORS
330
106AD09
102
}
330
106AD09
100
AcDbXrecord
280
     1
102
RTVSPropertyOp0
 70
     1
102
RTVSPropertyOp1
 70
     1
102
RTVSPropertyOp2
 70
     1
102
RTVSPropertyOp3
 70
     1
102
RTVSPropertyOp4
 70
     1
102
RTVSPropertyOp5
 70
     1
102
RTVSPropertyOp6
 70
     1
102
RTVSPropertyOp7
 70
     1
102
RTVSPropertyOp8
 70
     1
102
RTVSPropertyOp9
 70
     1
102
RTVSPropertyOp10
 70
     1
102
RTVSPropertyOp11
 70
     1
102
RTVSPropertyOp12
 70
     1
102
RTVSPropertyOp13
 70
     1
102
RTVSPropertyOp14
 70
     1
102
RTVSPropertyOp15
 70
     1
102
RTVSPropertyOp16
 70
     1
102
RTVSPropertyOp17
 70
     1
102
RTVSPropertyOp18
 70
     1
102
RTVSPropertyOp19
 70
     1
102
RTVSPropertyOp20
 70
     1
102
RTVSPropertyOp21
 70
     1
102
RTVSPropertyOp22
 70
     1
102
RTVSPropertyOp23
 70
     1
102
RTVSPropertyOp24
 70
     1
102
RTVSPropertyOp25
 70
     1
102
RTVSPropertyOp26
 70
     1
102
RTVSPropertyOp27
 70
     1
102
RTVSPropertyOp28
 70
     1
102
RTVSPropertyOp29
 70
     1
102
RTVSPropertyOp30
 70
     1
102
RTVSPropertyOp31
 70
     1
102
RTVSPropertyOp32
 70
     1
102
RTVSPropertyOp33
 70
     1
102
RTVSPropertyOp34
 70
     1
102
RTVSPropertyOp35
 70
     1
102
RTVSPropertyOp36
 70
     1
102
RTVSPropertyOp37
 70
     1
102
RTVSPropertyOp38
 70
     1
102
RTVSPropertyOp39
 70
     1
102
RTVSPropertyOp40
 70
     1
102
RTVSPropertyOp41
 70
     1
102
RTVSPropertyOp42
 70
     1
102
RTVSPropertyOp43
 70
     1
102
RTVSPropertyOp44
 70
     1
102
RTVSPropertyOp45
 70
     1
102
RTVSPropertyOp46
 70
     1
102
RTVSPropertyOp47
 70
     1
102
RTVSPropertyOp48
 70
     1
102
RTVSPropertyOp49
 70
     1
102
RTVSPropertyOp50
 70
     1
102
RTVSPropertyOp51
 70
     0
102
RTVSPropertyOp52
 70
     0
102
RTVSPropertyOp53
 70
     1
102
RTVSPropertyOp54
 70
     1
102
RTVSPropertyOp55
 70
     1
102
RTVSPropertyOp56
 70
     1
102
RTVSPropertyOp57
 70
     1
102
RTVSPost2010Prop28
280
     0
102
RTVSPost2010PropOp28
 70
     1
102
RTVSPost2010Prop29
280
     1
102
RTVSPost2010PropOp29
 70
     1
102
RTVSPost2010Prop30
280
     1
102
RTVSPost2010PropOp30
 70
     1
102
RTVSPost2010Prop31
280
     0
102
RTVSPost2010PropOp31
 70
     1
102
RTVSPost2010Prop32
280
     0
102
RTVSPost2010PropOp32
 70
     1
102
RTVSPost2010Prop33
280
     0
102
RTVSPost2010PropOp33
 70
     1
102
RTVSPost2010Prop34
280
     0
102
RTVSPost2010PropOp34
 70
     1
102
RTVSPost2010Prop35
280
     0
102
RTVSPost2010PropOp35
 70
     1
102
RTVSPost2010Prop36
280
     0
102
RTVSPost2010PropOp36
 70
     1
102
RTVSPost2010Prop37
 90
       50
102
RTVSPost2010PropOp37
 70
     1
102
RTVSPost2010Prop38
140
0.0
102
RTVSPost2010PropOp38
 70
     1
102
RTVSPost2010Prop39
140
1.0
102
RTVSPost2010PropOp39
 70
     1
102
RTVSPost2010Prop40
 90
        0
102
RTVSPost2010PropOp40
 70
     1
102
RTVSPost2010Prop41ColorIndex
 90
       18
102
RTVSPost2010Prop41ColorRGB
 90
        0
102
RTVSPost2010PropOp41
 70
     1
102
RTVSPost2010Prop42
 90
       50
102
RTVSPost2010PropOp42
 70
     1
102
RTVSPost2010Prop43
 90
        3
102
RTVSPost2010PropOp43
 70
     1
102
RTVSPost2010Prop44ColorIndex
 90
        5
102
RTVSPost2010Prop44ColorRGB
 90
      255
102
RTVSPost2010PropOp44
 70
     1
102
RTVSPost2010Prop45
280
     0
102
RTVSPost2010PropOp45
 70
     1
102
RTVSPost2010Prop46
 90
       50
102
RTVSPost2010PropOp46
 70
     1
102
RTVSPost2010Prop47
 90
       50
102
RTVSPost2010PropOp47
 70
     1
102
RTVSPost2010Prop48
 90
       50
102
RTVSPost2010PropOp48
 70
     1
102
RTVSPost2010Prop49
280
     0
102
RTVSPost2010PropOp49
 70
     1
102
RTVSPost2010Prop50
 90
       50
102
RTVSPost2010PropOp50
 70
     1
102
RTVSPost2010Prop51ColorIndex
 90
      256
102
RTVSPost2010Prop51ColorRGB
 90
-16777216
102
RTVSPost2010PropOp51
 70
     0
102
RTVSPost2010Prop52
140
1.0
102
RTVSPost2010PropOp52
 70
     0
102
RTVSPost2010Prop53
 90
        2
102
RTVSPost2010PropOp53
 70
     1
102
RTVSPost2010Prop54
  1
strokes_ogs.tif
102
RTVSPost2010PropOp54
 70
     1
102
RTVSPost2010Prop55
280
     0
102
RTVSPost2010PropOp55
 70
     1
102
RTVSPost2010Prop56
140
1.0
102
RTVSPost2010PropOp56
 70
     1
102
RTVSPost2010Prop57
140
1.0
102
RTVSPost2010PropOp57
 70
     1
  0
XRECORD
  5
106AD0C
102
{ACAD_REACTORS
330
106AD0B
102
}
330
106AD0B
100
AcDbXrecord
280
     1
102
RTVSPropertyOp0
 70
     1
102
RTVSPropertyOp1
 70
     1
102
RTVSPropertyOp2
 70
     1
102
RTVSPropertyOp3
 70
     1
102
RTVSPropertyOp4
 70
     1
102
RTVSPropertyOp5
 70
     1
102
RTVSPropertyOp6
 70
     1
102
RTVSPropertyOp7
 70
     1
102
RTVSPropertyOp8
 70
     1
102
RTVSPropertyOp9
 70
     1
102
RTVSPropertyOp10
 70
     1
102
RTVSPropertyOp11
 70
     1
102
RTVSPropertyOp12
 70
     1
102
RTVSPropertyOp13
 70
     1
102
RTVSPropertyOp14
 70
     1
102
RTVSPropertyOp15
 70
     1
102
RTVSPropertyOp16
 70
     1
102
RTVSPropertyOp17
 70
     1
102
RTVSPropertyOp18
 70
     1
102
RTVSPropertyOp19
 70
     1
102
RTVSPropertyOp20
 70
     1
102
RTVSPropertyOp21
 70
     1
102
RTVSPropertyOp22
 70
     1
102
RTVSPropertyOp23
 70
     1
102
RTVSPropertyOp24
 70
     1
102
RTVSPropertyOp25
 70
     1
102
RTVSPropertyOp26
 70
     1
102
RTVSPropertyOp27
 70
     1
102
RTVSPropertyOp28
 70
     1
102
RTVSPropertyOp29
 70
     1
102
RTVSPropertyOp30
 70
     1
102
RTVSPropertyOp31
 70
     1
102
RTVSPropertyOp32
 70
     1
102
RTVSPropertyOp33
 70
     1
102
RTVSPropertyOp34
 70
     1
102
RTVSPropertyOp35
 70
     1
102
RTVSPropertyOp36
 70
     1
102
RTVSPropertyOp37
 70
     1
102
RTVSPropertyOp38
 70
     1
102
RTVSPropertyOp39
 70
     1
102
RTVSPropertyOp40
 70
     1
102
RTVSPropertyOp41
 70
     1
102
RTVSPropertyOp42
 70
     1
102
RTVSPropertyOp43
 70
     1
102
RTVSPropertyOp44
 70
     1
102
RTVSPropertyOp45
 70
     1
102
RTVSPropertyOp46
 70
     1
102
RTVSPropertyOp47
 70
     1
102
RTVSPropertyOp48
 70
     1
102
RTVSPropertyOp49
 70
     1
102
RTVSPropertyOp50
 70
     1
102
RTVSPropertyOp51
 70
     0
102
RTVSPropertyOp52
 70
     0
102
RTVSPropertyOp53
 70
     1
102
RTVSPropertyOp54
 70
     1
102
RTVSPropertyOp55
 70
     1
102
RTVSPropertyOp56
 70
     1
102
RTVSPropertyOp57
 70
     1
102
RTVSPost2010Prop28
280
     0
102
RTVSPost2010PropOp28
 70
     1
102
RTVSPost2010Prop29
280
     1
102
RTVSPost2010PropOp29
 70
     1
102
RTVSPost2010Prop30
280
     1
102
RTVSPost2010PropOp30
 70
     1
102
RTVSPost2010Prop31
280
     0
102
RTVSPost2010PropOp31
 70
     1
102
RTVSPost2010Prop32
280
     0
102
RTVSPost2010PropOp32
 70
     1
102
RTVSPost2010Prop33
280
     0
102
RTVSPost2010PropOp33
 70
     1
102
RTVSPost2010Prop34
280
     0
102
RTVSPost2010PropOp34
 70
     1
102
RTVSPost2010Prop35
280
     0
102
RTVSPost2010PropOp35
 70
     1
102
RTVSPost2010Prop36
280
     0
102
RTVSPost2010PropOp36
 70
     1
102
RTVSPost2010Prop37
 90
       50
102
RTVSPost2010PropOp37
 70
     1
102
RTVSPost2010Prop38
140
0.0
102
RTVSPost2010PropOp38
 70
     1
102
RTVSPost2010Prop39
140
1.0
102
RTVSPost2010PropOp39
 70
     1
102
RTVSPost2010Prop40
 90
        0
102
RTVSPost2010PropOp40
 70
     1
102
RTVSPost2010Prop41ColorIndex
 90
       18
102
RTVSPost2010Prop41ColorRGB
 90
        0
102
RTVSPost2010PropOp41
 70
     1
102
RTVSPost2010Prop42
 90
       50
102
RTVSPost2010PropOp42
 70
     1
102
RTVSPost2010Prop43
 90
        3
102
RTVSPost2010PropOp43
 70
     1
102
RTVSPost2010Prop44ColorIndex
 90
        5
102
RTVSPost2010Prop44ColorRGB
 90
      255
102
RTVSPost2010PropOp44
 70
     1
102
RTVSPost2010Prop45
280
     0
102
RTVSPost2010PropOp45
 70
     1
102
RTVSPost2010Prop46
 90
       50
102
RTVSPost2010PropOp46
 70
     1
102
RTVSPost2010Prop47
 90
       50
102
RTVSPost2010PropOp47
 70
     1
102
RTVSPost2010Prop48
 90
       50
102
RTVSPost2010PropOp48
 70
     1
102
RTVSPost2010Prop49
280
     0
102
RTVSPost2010PropOp49
 70
     1
102
RTVSPost2010Prop50
 90
       50
102
RTVSPost2010PropOp50
 70
     1
102
RTVSPost2010Prop51ColorIndex
 90
      256
102
RTVSPost2010Prop51ColorRGB
 90
-16777216
102
RTVSPost2010PropOp51
 70
     0
102
RTVSPost2010Prop52
140
1.0
102
RTVSPost2010PropOp52
 70
     0
102
RTVSPost2010Prop53
 90
        2
102
RTVSPost2010PropOp53
 70
     1
102
RTVSPost2010Prop54
  1
strokes_ogs.tif
102
RTVSPost2010PropOp54
 70
     1
102
RTVSPost2010Prop55
280
     0
102
RTVSPost2010PropOp55
 70
     1
102
RTVSPost2010Prop56
140
1.0
102
RTVSPost2010PropOp56
 70
     1
102
RTVSPost2010Prop57
140
1.0
102
RTVSPost2010PropOp57
 70
     1
  0
XRECORD
  5
106AD0E
102
{ACAD_REACTORS
330
106AD0D
102
}
330
106AD0D
100
AcDbXrecord
280
     1
102
RTVSPropertyOp0
 70
     1
102
RTVSPropertyOp1
 70
     1
102
RTVSPropertyOp2
 70
     1
102
RTVSPropertyOp3
 70
     1
102
RTVSPropertyOp4
 70
     1
102
RTVSPropertyOp5
 70
     1
102
RTVSPropertyOp6
 70
     1
102
RTVSPropertyOp7
 70
     1
102
RTVSPropertyOp8
 70
     1
102
RTVSPropertyOp9
 70
     1
102
RTVSPropertyOp10
 70
     1
102
RTVSPropertyOp11
 70
     1
102
RTVSPropertyOp12
 70
     1
102
RTVSPropertyOp13
 70
     1
102
RTVSPropertyOp14
 70
     1
102
RTVSPropertyOp15
 70
     1
102
RTVSPropertyOp16
 70
     1
102
RTVSPropertyOp17
 70
     1
102
RTVSPropertyOp18
 70
     1
102
RTVSPropertyOp19
 70
     1
102
RTVSPropertyOp20
 70
     1
102
RTVSPropertyOp21
 70
     1
102
RTVSPropertyOp22
 70
     1
102
RTVSPropertyOp23
 70
     1
102
RTVSPropertyOp24
 70
     1
102
RTVSPropertyOp25
 70
     1
102
RTVSPropertyOp26
 70
     1
102
RTVSPropertyOp27
 70
     1
102
RTVSPropertyOp28
 70
     1
102
RTVSPropertyOp29
 70
     1
102
RTVSPropertyOp30
 70
     1
102
RTVSPropertyOp31
 70
     1
102
RTVSPropertyOp32
 70
     1
102
RTVSPropertyOp33
 70
     1
102
RTVSPropertyOp34
 70
     1
102
RTVSPropertyOp35
 70
     1
102
RTVSPropertyOp36
 70
     1
102
RTVSPropertyOp37
 70
     1
102
RTVSPropertyOp38
 70
     1
102
RTVSPropertyOp39
 70
     1
102
RTVSPropertyOp40
 70
     1
102
RTVSPropertyOp41
 70
     1
102
RTVSPropertyOp42
 70
     1
102
RTVSPropertyOp43
 70
     1
102
RTVSPropertyOp44
 70
     1
102
RTVSPropertyOp45
 70
     1
102
RTVSPropertyOp46
 70
     1
102
RTVSPropertyOp47
 70
     1
102
RTVSPropertyOp48
 70
     1
102
RTVSPropertyOp49
 70
     1
102
RTVSPropertyOp50
 70
     1
102
RTVSPropertyOp51
 70
     0
102
RTVSPropertyOp52
 70
     0
102
RTVSPropertyOp53
 70
     1
102
RTVSPropertyOp54
 70
     1
102
RTVSPropertyOp55
 70
     1
102
RTVSPropertyOp56
 70
     1
102
RTVSPropertyOp57
 70
     1
102
RTVSPost2010Prop28
280
     0
102
RTVSPost2010PropOp28
 70
     1
102
RTVSPost2010Prop29
280
     1
102
RTVSPost2010PropOp29
 70
     1
102
RTVSPost2010Prop30
280
     1
102
RTVSPost2010PropOp30
 70
     1
102
RTVSPost2010Prop31
280
     0
102
RTVSPost2010PropOp31
 70
     1
102
RTVSPost2010Prop32
280
     0
102
RTVSPost2010PropOp32
 70
     1
102
RTVSPost2010Prop33
280
     0
102
RTVSPost2010PropOp33
 70
     1
102
RTVSPost2010Prop34
280
     0
102
RTVSPost2010PropOp34
 70
     1
102
RTVSPost2010Prop35
280
     0
102
RTVSPost2010PropOp35
 70
     1
102
RTVSPost2010Prop36
280
     0
102
RTVSPost2010PropOp36
 70
     1
102
RTVSPost2010Prop37
 90
       50
102
RTVSPost2010PropOp37
 70
     1
102
RTVSPost2010Prop38
140
0.0
102
RTVSPost2010PropOp38
 70
     1
102
RTVSPost2010Prop39
140
1.0
102
RTVSPost2010PropOp39
 70
     1
102
RTVSPost2010Prop40
 90
        0
102
RTVSPost2010PropOp40
 70
     1
102
RTVSPost2010Prop41ColorIndex
 90
       18
102
RTVSPost2010Prop41ColorRGB
 90
        0
102
RTVSPost2010PropOp41
 70
     1
102
RTVSPost2010Prop42
 90
       50
102
RTVSPost2010PropOp42
 70
     1
102
RTVSPost2010Prop43
 90
        3
102
RTVSPost2010PropOp43
 70
     1
102
RTVSPost2010Prop44ColorIndex
 90
        5
102
RTVSPost2010Prop44ColorRGB
 90
      255
102
RTVSPost2010PropOp44
 70
     1
102
RTVSPost2010Prop45
280
     0
102
RTVSPost2010PropOp45
 70
     1
102
RTVSPost2010Prop46
 90
       50
102
RTVSPost2010PropOp46
 70
     1
102
RTVSPost2010Prop47
 90
       50
102
RTVSPost2010PropOp47
 70
     1
102
RTVSPost2010Prop48
 90
       50
102
RTVSPost2010PropOp48
 70
     1
102
RTVSPost2010Prop49
280
     0
102
RTVSPost2010PropOp49
 70
     1
102
RTVSPost2010Prop50
 90
       50
102
RTVSPost2010PropOp50
 70
     1
102
RTVSPost2010Prop51ColorIndex
 90
      256
102
RTVSPost2010Prop51ColorRGB
 90
-16777216
102
RTVSPost2010PropOp51
 70
     0
102
RTVSPost2010Prop52
140
1.0
102
RTVSPost2010PropOp52
 70
     0
102
RTVSPost2010Prop53
 90
        2
102
RTVSPost2010PropOp53
 70
     1
102
RTVSPost2010Prop54
  1
strokes_ogs.tif
102
RTVSPost2010PropOp54
 70
     1
102
RTVSPost2010Prop55
280
     0
102
RTVSPost2010PropOp55
 70
     1
102
RTVSPost2010Prop56
140
1.0
102
RTVSPost2010PropOp56
 70
     1
102
RTVSPost2010Prop57
140
1.0
102
RTVSPost2010PropOp57
 70
     1
  0
XRECORD
  5
106AD10
102
{ACAD_REACTORS
330
106AD0F
102
}
330
106AD0F
100
AcDbXrecord
280
     1
102
RTVSPropertyOp0
 70
     1
102
RTVSPropertyOp1
 70
     1
102
RTVSPropertyOp2
 70
     1
102
RTVSPropertyOp3
 70
     1
102
RTVSPropertyOp4
 70
     1
102
RTVSPropertyOp5
 70
     1
102
RTVSPropertyOp6
 70
     1
102
RTVSPropertyOp7
 70
     1
102
RTVSPropertyOp8
 70
     1
102
RTVSPropertyOp9
 70
     1
102
RTVSPropertyOp10
 70
     1
102
RTVSPropertyOp11
 70
     1
102
RTVSPropertyOp12
 70
     1
102
RTVSPropertyOp13
 70
     1
102
RTVSPropertyOp14
 70
     1
102
RTVSPropertyOp15
 70
     1
102
RTVSPropertyOp16
 70
     1
102
RTVSPropertyOp17
 70
     1
102
RTVSPropertyOp18
 70
     1
102
RTVSPropertyOp19
 70
     1
102
RTVSPropertyOp20
 70
     1
102
RTVSPropertyOp21
 70
     1
102
RTVSPropertyOp22
 70
     1
102
RTVSPropertyOp23
 70
     1
102
RTVSPropertyOp24
 70
     1
102
RTVSPropertyOp25
 70
     1
102
RTVSPropertyOp26
 70
     1
102
RTVSPropertyOp27
 70
     1
102
RTVSPropertyOp28
 70
     1
102
RTVSPropertyOp29
 70
     1
102
RTVSPropertyOp30
 70
     1
102
RTVSPropertyOp31
 70
     1
102
RTVSPropertyOp32
 70
     1
102
RTVSPropertyOp33
 70
     1
102
RTVSPropertyOp34
 70
     1
102
RTVSPropertyOp35
 70
     1
102
RTVSPropertyOp36
 70
     1
102
RTVSPropertyOp37
 70
     1
102
RTVSPropertyOp38
 70
     1
102
RTVSPropertyOp39
 70
     1
102
RTVSPropertyOp40
 70
     1
102
RTVSPropertyOp41
 70
     1
102
RTVSPropertyOp42
 70
     1
102
RTVSPropertyOp43
 70
     1
102
RTVSPropertyOp44
 70
     1
102
RTVSPropertyOp45
 70
     1
102
RTVSPropertyOp46
 70
     1
102
RTVSPropertyOp47
 70
     1
102
RTVSPropertyOp48
 70
     1
102
RTVSPropertyOp49
 70
     1
102
RTVSPropertyOp50
 70
     1
102
RTVSPropertyOp51
 70
     0
102
RTVSPropertyOp52
 70
     0
102
RTVSPropertyOp53
 70
     1
102
RTVSPropertyOp54
 70
     1
102
RTVSPropertyOp55
 70
     1
102
RTVSPropertyOp56
 70
     1
102
RTVSPropertyOp57
 70
     1
102
RTVSPost2010Prop28
280
     0
102
RTVSPost2010PropOp28
 70
     1
102
RTVSPost2010Prop29
280
     1
102
RTVSPost2010PropOp29
 70
     1
102
RTVSPost2010Prop30
280
     1
102
RTVSPost2010PropOp30
 70
     1
102
RTVSPost2010Prop31
280
     0
102
RTVSPost2010PropOp31
 70
     1
102
RTVSPost2010Prop32
280
     0
102
RTVSPost2010PropOp32
 70
     1
102
RTVSPost2010Prop33
280
     0
102
RTVSPost2010PropOp33
 70
     1
102
RTVSPost2010Prop34
280
     0
102
RTVSPost2010PropOp34
 70
     1
102
RTVSPost2010Prop35
280
     0
102
RTVSPost2010PropOp35
 70
     1
102
RTVSPost2010Prop36
280
     0
102
RTVSPost2010PropOp36
 70
     1
102
RTVSPost2010Prop37
 90
       50
102
RTVSPost2010PropOp37
 70
     1
102
RTVSPost2010Prop38
140
0.0
102
RTVSPost2010PropOp38
 70
     1
102
RTVSPost2010Prop39
140
1.0
102
RTVSPost2010PropOp39
 70
     1
102
RTVSPost2010Prop40
 90
        0
102
RTVSPost2010PropOp40
 70
     1
102
RTVSPost2010Prop41ColorIndex
 90
       18
102
RTVSPost2010Prop41ColorRGB
 90
        0
102
RTVSPost2010PropOp41
 70
     1
102
RTVSPost2010Prop42
 90
       50
102
RTVSPost2010PropOp42
 70
     1
102
RTVSPost2010Prop43
 90
        3
102
RTVSPost2010PropOp43
 70
     1
102
RTVSPost2010Prop44ColorIndex
 90
        5
102
RTVSPost2010Prop44ColorRGB
 90
      255
102
RTVSPost2010PropOp44
 70
     1
102
RTVSPost2010Prop45
280
     0
102
RTVSPost2010PropOp45
 70
     1
102
RTVSPost2010Prop46
 90
       50
102
RTVSPost2010PropOp46
 70
     1
102
RTVSPost2010Prop47
 90
       50
102
RTVSPost2010PropOp47
 70
     1
102
RTVSPost2010Prop48
 90
       50
102
RTVSPost2010PropOp48
 70
     1
102
RTVSPost2010Prop49
280
     0
102
RTVSPost2010PropOp49
 70
     1
102
RTVSPost2010Prop50
 90
       50
102
RTVSPost2010PropOp50
 70
     1
102
RTVSPost2010Prop51ColorIndex
 90
      256
102
RTVSPost2010Prop51ColorRGB
 90
-16777216
102
RTVSPost2010PropOp51
 70
     0
102
RTVSPost2010Prop52
140
1.0
102
RTVSPost2010PropOp52
 70
     0
102
RTVSPost2010Prop53
 90
        2
102
RTVSPost2010PropOp53
 70
     1
102
RTVSPost2010Prop54
  1
strokes_ogs.tif
102
RTVSPost2010PropOp54
 70
     1
102
RTVSPost2010Prop55
280
     0
102
RTVSPost2010PropOp55
 70
     1
102
RTVSPost2010Prop56
140
1.0
102
RTVSPost2010PropOp56
 70
     1
102
RTVSPost2010Prop57
140
1.0
102
RTVSPost2010PropOp57
 70
     1
  0
XRECORD
  5
106AD12
102
{ACAD_REACTORS
330
106AD11
102
}
330
106AD11
100
AcDbXrecord
280
     1
102
RTVSPropertyOp0
 70
     0
102
RTVSPropertyOp1
 70
     0
102
RTVSPropertyOp2
 70
     0
102
RTVSPropertyOp3
 70
     0
102
RTVSPropertyOp4
 70
     0
102
RTVSPropertyOp5
 70
     0
102
RTVSPropertyOp6
 70
     0
102
RTVSPropertyOp7
 70
     0
102
RTVSPropertyOp8
 70
     0
102
RTVSPropertyOp9
 70
     0
102
RTVSPropertyOp10
 70
     0
102
RTVSPropertyOp11
 70
     0
102
RTVSPropertyOp12
 70
     0
102
RTVSPropertyOp13
 70
     0
102
RTVSPropertyOp14
 70
     2
102
RTVSPropertyOp15
 70
     0
102
RTVSPropertyOp16
 70
     0
102
RTVSPropertyOp17
 70
     0
102
RTVSPropertyOp18
 70
     0
102
RTVSPropertyOp19
 70
     0
102
RTVSPropertyOp20
 70
     0
102
RTVSPropertyOp21
 70
     0
102
RTVSPropertyOp22
 70
     0
102
RTVSPropertyOp23
 70
     0
102
RTVSPropertyOp24
 70
     0
102
RTVSPropertyOp25
 70
     0
102
RTVSPropertyOp26
 70
     0
102
RTVSPropertyOp27
 70
     0
102
RTVSPropertyOp28
 70
     0
102
RTVSPropertyOp29
 70
     0
102
RTVSPropertyOp30
 70
     0
102
RTVSPropertyOp31
 70
     0
102
RTVSPropertyOp32
 70
     0
102
RTVSPropertyOp33
 70
     0
102
RTVSPropertyOp34
 70
     0
102
RTVSPropertyOp35
 70
     0
102
RTVSPropertyOp36
 70
     0
102
RTVSPropertyOp37
 70
     0
102
RTVSPropertyOp38
 70
     0
102
RTVSPropertyOp39
 70
     0
102
RTVSPropertyOp40
 70
     0
102
RTVSPropertyOp41
 70
     0
102
RTVSPropertyOp42
 70
     0
102
RTVSPropertyOp43
 70
     0
102
RTVSPropertyOp44
 70
     0
102
RTVSPropertyOp45
 70
     0
102
RTVSPropertyOp46
 70
     0
102
RTVSPropertyOp47
 70
     0
102
RTVSPropertyOp48
 70
     0
102
RTVSPropertyOp49
 70
     0
102
RTVSPropertyOp50
 70
     0
102
RTVSPropertyOp51
 70
     0
102
RTVSPropertyOp52
 70
     0
102
RTVSPropertyOp53
 70
     0
102
RTVSPropertyOp54
 70
     0
102
RTVSPropertyOp55
 70
     0
102
RTVSPropertyOp56
 70
     0
102
RTVSPropertyOp57
 70
     0
102
RTVSPost2010Prop28
280
     0
102
RTVSPost2010PropOp28
 70
     0
102
RTVSPost2010Prop29
280
     1
102
RTVSPost2010PropOp29
 70
     0
102
RTVSPost2010Prop30
280
     1
102
RTVSPost2010PropOp30
 70
     0
102
RTVSPost2010Prop31
280
     0
102
RTVSPost2010PropOp31
 70
     0
102
RTVSPost2010Prop32
280
     0
102
RTVSPost2010PropOp32
 70
     0
102
RTVSPost2010Prop33
280
     0
102
RTVSPost2010PropOp33
 70
     0
102
RTVSPost2010Prop34
280
     0
102
RTVSPost2010PropOp34
 70
     0
102
RTVSPost2010Prop35
280
     0
102
RTVSPost2010PropOp35
 70
     0
102
RTVSPost2010Prop36
280
     0
102
RTVSPost2010PropOp36
 70
     0
102
RTVSPost2010Prop37
 90
       50
102
RTVSPost2010PropOp37
 70
     0
102
RTVSPost2010Prop38
140
0.0
102
RTVSPost2010PropOp38
 70
     0
102
RTVSPost2010Prop39
140
1.0
102
RTVSPost2010PropOp39
 70
     0
102
RTVSPost2010Prop40
 90
        0
102
RTVSPost2010PropOp40
 70
     0
102
RTVSPost2010Prop41ColorIndex
 90
       18
102
RTVSPost2010Prop41ColorRGB
 90
        0
102
RTVSPost2010PropOp41
 70
     0
102
RTVSPost2010Prop42
 90
       50
102
RTVSPost2010PropOp42
 70
     0
102
RTVSPost2010Prop43
 90
        3
102
RTVSPost2010PropOp43
 70
     0
102
RTVSPost2010Prop44ColorIndex
 90
        5
102
RTVSPost2010Prop44ColorRGB
 90
      255
102
RTVSPost2010PropOp44
 70
     0
102
RTVSPost2010Prop45
280
     0
102
RTVSPost2010PropOp45
 70
     0
102
RTVSPost2010Prop46
 90
       50
102
RTVSPost2010PropOp46
 70
     0
102
RTVSPost2010Prop47
 90
       50
102
RTVSPost2010PropOp47
 70
     0
102
RTVSPost2010Prop48
 90
       50
102
RTVSPost2010PropOp48
 70
     0
102
RTVSPost2010Prop49
280
     0
102
RTVSPost2010PropOp49
 70
     0
102
RTVSPost2010Prop50
 90
       50
102
RTVSPost2010PropOp50
 70
     0
102
RTVSPost2010Prop51ColorIndex
 90
      256
102
RTVSPost2010Prop51ColorRGB
 90
-16777216
102
RTVSPost2010PropOp51
 70
     0
102
RTVSPost2010Prop52
140
1.0
102
RTVSPost2010PropOp52
 70
     0
102
RTVSPost2010Prop53
 90
        2
102
RTVSPost2010PropOp53
 70
     0
102
RTVSPost2010Prop54
  1
strokes_ogs.tif
102
RTVSPost2010PropOp54
 70
     0
102
RTVSPost2010Prop55
280
     0
102
RTVSPost2010PropOp55
 70
     0
102
RTVSPost2010Prop56
140
1.0
102
RTVSPost2010PropOp56
 70
     0
102
RTVSPost2010Prop57
140
1.0
102
RTVSPost2010PropOp57
 70
     0
  0
XRECORD
  5
106AD14
102
{ACAD_REACTORS
330
106AD13
102
}
330
106AD13
100
AcDbXrecord
280
     1
102
RTVSPropertyOp0
 70
     1
102
RTVSPropertyOp1
 70
     1
102
RTVSPropertyOp2
 70
     1
102
RTVSPropertyOp3
 70
     1
102
RTVSPropertyOp4
 70
     1
102
RTVSPropertyOp5
 70
     1
102
RTVSPropertyOp6
 70
     1
102
RTVSPropertyOp7
 70
     1
102
RTVSPropertyOp8
 70
     1
102
RTVSPropertyOp9
 70
     1
102
RTVSPropertyOp10
 70
     1
102
RTVSPropertyOp11
 70
     1
102
RTVSPropertyOp12
 70
     1
102
RTVSPropertyOp13
 70
     1
102
RTVSPropertyOp14
 70
     1
102
RTVSPropertyOp15
 70
     1
102
RTVSPropertyOp16
 70
     1
102
RTVSPropertyOp17
 70
     1
102
RTVSPropertyOp18
 70
     1
102
RTVSPropertyOp19
 70
     1
102
RTVSPropertyOp20
 70
     1
102
RTVSPropertyOp21
 70
     1
102
RTVSPropertyOp22
 70
     1
102
RTVSPropertyOp23
 70
     1
102
RTVSPropertyOp24
 70
     1
102
RTVSPropertyOp25
 70
     1
102
RTVSPropertyOp26
 70
     1
102
RTVSPropertyOp27
 70
     1
102
RTVSPropertyOp28
 70
     1
102
RTVSPropertyOp29
 70
     1
102
RTVSPropertyOp30
 70
     1
102
RTVSPropertyOp31
 70
     1
102
RTVSPropertyOp32
 70
     1
102
RTVSPropertyOp33
 70
     1
102
RTVSPropertyOp34
 70
     1
102
RTVSPropertyOp35
 70
     1
102
RTVSPropertyOp36
 70
     1
102
RTVSPropertyOp37
 70
     1
102
RTVSPropertyOp38
 70
     1
102
RTVSPropertyOp39
 70
     1
102
RTVSPropertyOp40
 70
     1
102
RTVSPropertyOp41
 70
     1
102
RTVSPropertyOp42
 70
     1
102
RTVSPropertyOp43
 70
     1
102
RTVSPropertyOp44
 70
     1
102
RTVSPropertyOp45
 70
     1
102
RTVSPropertyOp46
 70
     1
102
RTVSPropertyOp47
 70
     1
102
RTVSPropertyOp48
 70
     1
102
RTVSPropertyOp49
 70
     1
102
RTVSPropertyOp50
 70
     1
102
RTVSPropertyOp51
 70
     0
102
RTVSPropertyOp52
 70
     0
102
RTVSPropertyOp53
 70
     1
102
RTVSPropertyOp54
 70
     1
102
RTVSPropertyOp55
 70
     1
102
RTVSPropertyOp56
 70
     1
102
RTVSPropertyOp57
 70
     1
102
RTVSPost2010Prop28
280
     0
102
RTVSPost2010PropOp28
 70
     1
102
RTVSPost2010Prop29
280
     1
102
RTVSPost2010PropOp29
 70
     1
102
RTVSPost2010Prop30
280
     1
102
RTVSPost2010PropOp30
 70
     1
102
RTVSPost2010Prop31
280
     0
102
RTVSPost2010PropOp31
 70
     1
102
RTVSPost2010Prop32
280
     0
102
RTVSPost2010PropOp32
 70
     1
102
RTVSPost2010Prop33
280
     0
102
RTVSPost2010PropOp33
 70
     1
102
RTVSPost2010Prop34
280
     0
102
RTVSPost2010PropOp34
 70
     1
102
RTVSPost2010Prop35
280
     0
102
RTVSPost2010PropOp35
 70
     1
102
RTVSPost2010Prop36
280
     0
102
RTVSPost2010PropOp36
 70
     1
102
RTVSPost2010Prop37
 90
       50
102
RTVSPost2010PropOp37
 70
     1
102
RTVSPost2010Prop38
140
0.0
102
RTVSPost2010PropOp38
 70
     1
102
RTVSPost2010Prop39
140
1.0
102
RTVSPost2010PropOp39
 70
     1
102
RTVSPost2010Prop40
 90
        0
102
RTVSPost2010PropOp40
 70
     1
102
RTVSPost2010Prop41ColorIndex
 90
       18
102
RTVSPost2010Prop41ColorRGB
 90
        0
102
RTVSPost2010PropOp41
 70
     1
102
RTVSPost2010Prop42
 90
       50
102
RTVSPost2010PropOp42
 70
     1
102
RTVSPost2010Prop43
 90
        3
102
RTVSPost2010PropOp43
 70
     1
102
RTVSPost2010Prop44ColorIndex
 90
        5
102
RTVSPost2010Prop44ColorRGB
 90
      255
102
RTVSPost2010PropOp44
 70
     1
102
RTVSPost2010Prop45
280
     0
102
RTVSPost2010PropOp45
 70
     1
102
RTVSPost2010Prop46
 90
       50
102
RTVSPost2010PropOp46
 70
     1
102
RTVSPost2010Prop47
 90
       50
102
RTVSPost2010PropOp47
 70
     1
102
RTVSPost2010Prop48
 90
       50
102
RTVSPost2010PropOp48
 70
     1
102
RTVSPost2010Prop49
280
     0
102
RTVSPost2010PropOp49
 70
     1
102
RTVSPost2010Prop50
 90
       50
102
RTVSPost2010PropOp50
 70
     1
102
RTVSPost2010Prop51ColorIndex
 90
      256
102
RTVSPost2010Prop51ColorRGB
 90
-16777216
102
RTVSPost2010PropOp51
 70
     0
102
RTVSPost2010Prop52
140
1.0
102
RTVSPost2010PropOp52
 70
     0
102
RTVSPost2010Prop53
 90
        2
102
RTVSPost2010PropOp53
 70
     1
102
RTVSPost2010Prop54
  1
strokes_ogs.tif
102
RTVSPost2010PropOp54
 70
     1
102
RTVSPost2010Prop55
280
     0
102
RTVSPost2010PropOp55
 70
     1
102
RTVSPost2010Prop56
140
1.0
102
RTVSPost2010PropOp56
 70
     1
102
RTVSPost2010Prop57
140
1.0
102
RTVSPost2010PropOp57
 70
     1
  0
XRECORD
  5
106AD16
102
{ACAD_REACTORS
330
106AD15
102
}
330
106AD15
100
AcDbXrecord
280
     1
102
RTVSPropertyOp0
 70
     0
102
RTVSPropertyOp1
 70
     0
102
RTVSPropertyOp2
 70
     0
102
RTVSPropertyOp3
 70
     0
102
RTVSPropertyOp4
 70
     0
102
RTVSPropertyOp5
 70
     0
102
RTVSPropertyOp6
 70
     0
102
RTVSPropertyOp7
 70
     0
102
RTVSPropertyOp8
 70
     0
102
RTVSPropertyOp9
 70
     0
102
RTVSPropertyOp10
 70
     0
102
RTVSPropertyOp11
 70
     0
102
RTVSPropertyOp12
 70
     0
102
RTVSPropertyOp13
 70
     0
102
RTVSPropertyOp14
 70
     2
102
RTVSPropertyOp15
 70
     0
102
RTVSPropertyOp16
 70
     0
102
RTVSPropertyOp17
 70
     0
102
RTVSPropertyOp18
 70
     0
102
RTVSPropertyOp19
 70
     0
102
RTVSPropertyOp20
 70
     0
102
RTVSPropertyOp21
 70
     0
102
RTVSPropertyOp22
 70
     0
102
RTVSPropertyOp23
 70
     0
102
RTVSPropertyOp24
 70
     0
102
RTVSPropertyOp25
 70
     0
102
RTVSPropertyOp26
 70
     0
102
RTVSPropertyOp27
 70
     0
102
RTVSPropertyOp28
 70
     0
102
RTVSPropertyOp29
 70
     0
102
RTVSPropertyOp30
 70
     0
102
RTVSPropertyOp31
 70
     0
102
RTVSPropertyOp32
 70
     0
102
RTVSPropertyOp33
 70
     0
102
RTVSPropertyOp34
 70
     0
102
RTVSPropertyOp35
 70
     0
102
RTVSPropertyOp36
 70
     0
102
RTVSPropertyOp37
 70
     0
102
RTVSPropertyOp38
 70
     0
102
RTVSPropertyOp39
 70
     0
102
RTVSPropertyOp40
 70
     0
102
RTVSPropertyOp41
 70
     0
102
RTVSPropertyOp42
 70
     0
102
RTVSPropertyOp43
 70
     0
102
RTVSPropertyOp44
 70
     0
102
RTVSPropertyOp45
 70
     0
102
RTVSPropertyOp46
 70
     0
102
RTVSPropertyOp47
 70
     0
102
RTVSPropertyOp48
 70
     0
102
RTVSPropertyOp49
 70
     0
102
RTVSPropertyOp50
 70
     0
102
RTVSPropertyOp51
 70
     0
102
RTVSPropertyOp52
 70
     0
102
RTVSPropertyOp53
 70
     0
102
RTVSPropertyOp54
 70
     0
102
RTVSPropertyOp55
 70
     0
102
RTVSPropertyOp56
 70
     0
102
RTVSPropertyOp57
 70
     0
102
RTVSPost2010Prop28
280
     0
102
RTVSPost2010PropOp28
 70
     0
102
RTVSPost2010Prop29
280
     1
102
RTVSPost2010PropOp29
 70
     0
102
RTVSPost2010Prop30
280
     1
102
RTVSPost2010PropOp30
 70
     0
102
RTVSPost2010Prop31
280
     0
102
RTVSPost2010PropOp31
 70
     0
102
RTVSPost2010Prop32
280
     0
102
RTVSPost2010PropOp32
 70
     0
102
RTVSPost2010Prop33
280
     0
102
RTVSPost2010PropOp33
 70
     0
102
RTVSPost2010Prop34
280
     0
102
RTVSPost2010PropOp34
 70
     0
102
RTVSPost2010Prop35
280
     0
102
RTVSPost2010PropOp35
 70
     0
102
RTVSPost2010Prop36
280
     0
102
RTVSPost2010PropOp36
 70
     0
102
RTVSPost2010Prop37
 90
       50
102
RTVSPost2010PropOp37
 70
     0
102
RTVSPost2010Prop38
140
0.0
102
RTVSPost2010PropOp38
 70
     0
102
RTVSPost2010Prop39
140
1.0
102
RTVSPost2010PropOp39
 70
     0
102
RTVSPost2010Prop40
 90
        0
102
RTVSPost2010PropOp40
 70
     0
102
RTVSPost2010Prop41ColorIndex
 90
       18
102
RTVSPost2010Prop41ColorRGB
 90
        0
102
RTVSPost2010PropOp41
 70
     0
102
RTVSPost2010Prop42
 90
       50
102
RTVSPost2010PropOp42
 70
     0
102
RTVSPost2010Prop43
 90
        3
102
RTVSPost2010PropOp43
 70
     0
102
RTVSPost2010Prop44ColorIndex
 90
        5
102
RTVSPost2010Prop44ColorRGB
 90
      255
102
RTVSPost2010PropOp44
 70
     0
102
RTVSPost2010Prop45
280
     0
102
RTVSPost2010PropOp45
 70
     0
102
RTVSPost2010Prop46
 90
       50
102
RTVSPost2010PropOp46
 70
     0
102
RTVSPost2010Prop47
 90
       50
102
RTVSPost2010PropOp47
 70
     0
102
RTVSPost2010Prop48
 90
       50
102
RTVSPost2010PropOp48
 70
     0
102
RTVSPost2010Prop49
280
     0
102
RTVSPost2010PropOp49
 70
     0
102
RTVSPost2010Prop50
 90
       50
102
RTVSPost2010PropOp50
 70
     0
102
RTVSPost2010Prop51ColorIndex
 90
      256
102
RTVSPost2010Prop51ColorRGB
 90
-16777216
102
RTVSPost2010PropOp51
 70
     0
102
RTVSPost2010Prop52
140
1.0
102
RTVSPost2010PropOp52
 70
     0
102
RTVSPost2010Prop53
 90
        2
102
RTVSPost2010PropOp53
 70
     0
102
RTVSPost2010Prop54
  1
strokes_ogs.tif
102
RTVSPost2010PropOp54
 70
     0
102
RTVSPost2010Prop55
280
     0
102
RTVSPost2010PropOp55
 70
     0
102
RTVSPost2010Prop56
140
1.0
102
RTVSPost2010PropOp56
 70
     0
102
RTVSPost2010Prop57
140
1.0
102
RTVSPost2010PropOp57
 70
     0
  0
XRECORD
  5
106AD18
102
{ACAD_REACTORS
330
106AD17
102
}
330
106AD17
100
AcDbXrecord
280
     1
102
RTVSPropertyOp0
 70
     1
102
RTVSPropertyOp1
 70
     1
102
RTVSPropertyOp2
 70
     1
102
RTVSPropertyOp3
 70
     1
102
RTVSPropertyOp4
 70
     1
102
RTVSPropertyOp5
 70
     1
102
RTVSPropertyOp6
 70
     1
102
RTVSPropertyOp7
 70
     1
102
RTVSPropertyOp8
 70
     1
102
RTVSPropertyOp9
 70
     1
102
RTVSPropertyOp10
 70
     1
102
RTVSPropertyOp11
 70
     1
102
RTVSPropertyOp12
 70
     1
102
RTVSPropertyOp13
 70
     1
102
RTVSPropertyOp14
 70
     1
102
RTVSPropertyOp15
 70
     1
102
RTVSPropertyOp16
 70
     1
102
RTVSPropertyOp17
 70
     1
102
RTVSPropertyOp18
 70
     1
102
RTVSPropertyOp19
 70
     1
102
RTVSPropertyOp20
 70
     1
102
RTVSPropertyOp21
 70
     1
102
RTVSPropertyOp22
 70
     1
102
RTVSPropertyOp23
 70
     1
102
RTVSPropertyOp24
 70
     1
102
RTVSPropertyOp25
 70
     1
102
RTVSPropertyOp26
 70
     1
102
RTVSPropertyOp27
 70
     1
102
RTVSPropertyOp28
 70
     1
102
RTVSPropertyOp29
 70
     1
102
RTVSPropertyOp30
 70
     1
102
RTVSPropertyOp31
 70
     1
102
RTVSPropertyOp32
 70
     1
102
RTVSPropertyOp33
 70
     1
102
RTVSPropertyOp34
 70
     1
102
RTVSPropertyOp35
 70
     1
102
RTVSPropertyOp36
 70
     1
102
RTVSPropertyOp37
 70
     1
102
RTVSPropertyOp38
 70
     1
102
RTVSPropertyOp39
 70
     1
102
RTVSPropertyOp40
 70
     1
102
RTVSPropertyOp41
 70
     1
102
RTVSPropertyOp42
 70
     1
102
RTVSPropertyOp43
 70
     1
102
RTVSPropertyOp44
 70
     1
102
RTVSPropertyOp45
 70
     1
102
RTVSPropertyOp46
 70
     1
102
RTVSPropertyOp47
 70
     1
102
RTVSPropertyOp48
 70
     1
102
RTVSPropertyOp49
 70
     1
102
RTVSPropertyOp50
 70
     1
102
RTVSPropertyOp51
 70
     0
102
RTVSPropertyOp52
 70
     0
102
RTVSPropertyOp53
 70
     1
102
RTVSPropertyOp54
 70
     1
102
RTVSPropertyOp55
 70
     1
102
RTVSPropertyOp56
 70
     1
102
RTVSPropertyOp57
 70
     1
102
RTVSPost2010Prop28
280
     0
102
RTVSPost2010PropOp28
 70
     1
102
RTVSPost2010Prop29
280
     1
102
RTVSPost2010PropOp29
 70
     1
102
RTVSPost2010Prop30
280
     1
102
RTVSPost2010PropOp30
 70
     1
102
RTVSPost2010Prop31
280
     0
102
RTVSPost2010PropOp31
 70
     1
102
RTVSPost2010Prop32
280
     0
102
RTVSPost2010PropOp32
 70
     1
102
RTVSPost2010Prop33
280
     0
102
RTVSPost2010PropOp33
 70
     1
102
RTVSPost2010Prop34
280
     0
102
RTVSPost2010PropOp34
 70
     1
102
RTVSPost2010Prop35
280
     0
102
RTVSPost2010PropOp35
 70
     1
102
RTVSPost2010Prop36
280
     0
102
RTVSPost2010PropOp36
 70
     1
102
RTVSPost2010Prop37
 90
       50
102
RTVSPost2010PropOp37
 70
     1
102
RTVSPost2010Prop38
140
0.0
102
RTVSPost2010PropOp38
 70
     1
102
RTVSPost2010Prop39
140
1.0
102
RTVSPost2010PropOp39
 70
     1
102
RTVSPost2010Prop40
 90
        0
102
RTVSPost2010PropOp40
 70
     1
102
RTVSPost2010Prop41ColorIndex
 90
       18
102
RTVSPost2010Prop41ColorRGB
 90
        0
102
RTVSPost2010PropOp41
 70
     1
102
RTVSPost2010Prop42
 90
       50
102
RTVSPost2010PropOp42
 70
     1
102
RTVSPost2010Prop43
 90
        3
102
RTVSPost2010PropOp43
 70
     1
102
RTVSPost2010Prop44ColorIndex
 90
        5
102
RTVSPost2010Prop44ColorRGB
 90
      255
102
RTVSPost2010PropOp44
 70
     1
102
RTVSPost2010Prop45
280
     0
102
RTVSPost2010PropOp45
 70
     1
102
RTVSPost2010Prop46
 90
       50
102
RTVSPost2010PropOp46
 70
     1
102
RTVSPost2010Prop47
 90
       50
102
RTVSPost2010PropOp47
 70
     1
102
RTVSPost2010Prop48
 90
       50
102
RTVSPost2010PropOp48
 70
     1
102
RTVSPost2010Prop49
280
     0
102
RTVSPost2010PropOp49
 70
     1
102
RTVSPost2010Prop50
 90
       50
102
RTVSPost2010PropOp50
 70
     1
102
RTVSPost2010Prop51ColorIndex
 90
      256
102
RTVSPost2010Prop51ColorRGB
 90
-16777216
102
RTVSPost2010PropOp51
 70
     0
102
RTVSPost2010Prop52
140
1.0
102
RTVSPost2010PropOp52
 70
     0
102
RTVSPost2010Prop53
 90
        2
102
RTVSPost2010PropOp53
 70
     1
102
RTVSPost2010Prop54
  1
strokes_ogs.tif
102
RTVSPost2010PropOp54
 70
     1
102
RTVSPost2010Prop55
280
     0
102
RTVSPost2010PropOp55
 70
     1
102
RTVSPost2010Prop56
140
1.0
102
RTVSPost2010PropOp56
 70
     1
102
RTVSPost2010Prop57
140
1.0
102
RTVSPost2010PropOp57
 70
     1
  0
XRECORD
  5
106AD1A
102
{ACAD_REACTORS
330
106AD19
102
}
330
106AD19
100
AcDbXrecord
280
     1
102
RTVSPropertyOp0
 70
     1
102
RTVSPropertyOp1
 70
     1
102
RTVSPropertyOp2
 70
     1
102
RTVSPropertyOp3
 70
     1
102
RTVSPropertyOp4
 70
     1
102
RTVSPropertyOp5
 70
     1
102
RTVSPropertyOp6
 70
     1
102
RTVSPropertyOp7
 70
     1
102
RTVSPropertyOp8
 70
     1
102
RTVSPropertyOp9
 70
     1
102
RTVSPropertyOp10
 70
     1
102
RTVSPropertyOp11
 70
     1
102
RTVSPropertyOp12
 70
     1
102
RTVSPropertyOp13
 70
     1
102
RTVSPropertyOp14
 70
     1
102
RTVSPropertyOp15
 70
     1
102
RTVSPropertyOp16
 70
     1
102
RTVSPropertyOp17
 70
     1
102
RTVSPropertyOp18
 70
     1
102
RTVSPropertyOp19
 70
     1
102
RTVSPropertyOp20
 70
     1
102
RTVSPropertyOp21
 70
     1
102
RTVSPropertyOp22
 70
     1
102
RTVSPropertyOp23
 70
     1
102
RTVSPropertyOp24
 70
     1
102
RTVSPropertyOp25
 70
     1
102
RTVSPropertyOp26
 70
     1
102
RTVSPropertyOp27
 70
     1
102
RTVSPropertyOp28
 70
     1
102
RTVSPropertyOp29
 70
     1
102
RTVSPropertyOp30
 70
     1
102
RTVSPropertyOp31
 70
     1
102
RTVSPropertyOp32
 70
     1
102
RTVSPropertyOp33
 70
     1
102
RTVSPropertyOp34
 70
     1
102
RTVSPropertyOp35
 70
     1
102
RTVSPropertyOp36
 70
     1
102
RTVSPropertyOp37
 70
     1
102
RTVSPropertyOp38
 70
     1
102
RTVSPropertyOp39
 70
     1
102
RTVSPropertyOp40
 70
     1
102
RTVSPropertyOp41
 70
     1
102
RTVSPropertyOp42
 70
     1
102
RTVSPropertyOp43
 70
     1
102
RTVSPropertyOp44
 70
     1
102
RTVSPropertyOp45
 70
     1
102
RTVSPropertyOp46
 70
     1
102
RTVSPropertyOp47
 70
     1
102
RTVSPropertyOp48
 70
     1
102
RTVSPropertyOp49
 70
     1
102
RTVSPropertyOp50
 70
     1
102
RTVSPropertyOp51
 70
     0
102
RTVSPropertyOp52
 70
     0
102
RTVSPropertyOp53
 70
     1
102
RTVSPropertyOp54
 70
     1
102
RTVSPropertyOp55
 70
     1
102
RTVSPropertyOp56
 70
     1
102
RTVSPropertyOp57
 70
     1
102
RTVSPost2010Prop28
280
     0
102
RTVSPost2010PropOp28
 70
     1
102
RTVSPost2010Prop29
280
     1
102
RTVSPost2010PropOp29
 70
     1
102
RTVSPost2010Prop30
280
     1
102
RTVSPost2010PropOp30
 70
     1
102
RTVSPost2010Prop31
280
     0
102
RTVSPost2010PropOp31
 70
     1
102
RTVSPost2010Prop32
280
     0
102
RTVSPost2010PropOp32
 70
     1
102
RTVSPost2010Prop33
280
     0
102
RTVSPost2010PropOp33
 70
     1
102
RTVSPost2010Prop34
280
     0
102
RTVSPost2010PropOp34
 70
     1
102
RTVSPost2010Prop35
280
     0
102
RTVSPost2010PropOp35
 70
     1
102
RTVSPost2010Prop36
280
     0
102
RTVSPost2010PropOp36
 70
     1
102
RTVSPost2010Prop37
 90
       50
102
RTVSPost2010PropOp37
 70
     1
102
RTVSPost2010Prop38
140
0.0
102
RTVSPost2010PropOp38
 70
     1
102
RTVSPost2010Prop39
140
1.0
102
RTVSPost2010PropOp39
 70
     1
102
RTVSPost2010Prop40
 90
        0
102
RTVSPost2010PropOp40
 70
     1
102
RTVSPost2010Prop41ColorIndex
 90
       18
102
RTVSPost2010Prop41ColorRGB
 90
        0
102
RTVSPost2010PropOp41
 70
     1
102
RTVSPost2010Prop42
 90
       50
102
RTVSPost2010PropOp42
 70
     1
102
RTVSPost2010Prop43
 90
        3
102
RTVSPost2010PropOp43
 70
     1
102
RTVSPost2010Prop44ColorIndex
 90
        5
102
RTVSPost2010Prop44ColorRGB
 90
      255
102
RTVSPost2010PropOp44
 70
     1
102
RTVSPost2010Prop45
280
     0
102
RTVSPost2010PropOp45
 70
     1
102
RTVSPost2010Prop46
 90
       50
102
RTVSPost2010PropOp46
 70
     1
102
RTVSPost2010Prop47
 90
       50
102
RTVSPost2010PropOp47
 70
     1
102
RTVSPost2010Prop48
 90
       50
102
RTVSPost2010PropOp48
 70
     1
102
RTVSPost2010Prop49
280
     0
102
RTVSPost2010PropOp49
 70
     1
102
RTVSPost2010Prop50
 90
       50
102
RTVSPost2010PropOp50
 70
     1
102
RTVSPost2010Prop51ColorIndex
 90
      256
102
RTVSPost2010Prop51ColorRGB
 90
-16777216
102
RTVSPost2010PropOp51
 70
     0
102
RTVSPost2010Prop52
140
1.0
102
RTVSPost2010PropOp52
 70
     0
102
RTVSPost2010Prop53
 90
        2
102
RTVSPost2010PropOp53
 70
     1
102
RTVSPost2010Prop54
  1
strokes_ogs.tif
102
RTVSPost2010PropOp54
 70
     1
102
RTVSPost2010Prop55
280
     0
102
RTVSPost2010PropOp55
 70
     1
102
RTVSPost2010Prop56
140
1.0
102
RTVSPost2010PropOp56
 70
     1
102
RTVSPost2010Prop57
140
1.0
102
RTVSPost2010PropOp57
 70
     1
  0
XRECORD
  5
106AD1C
102
{ACAD_REACTORS
330
106AD1B
102
}
330
106AD1B
100
AcDbXrecord
280
     1
102
RTVSPropertyOp0
 70
     1
102
RTVSPropertyOp1
 70
     1
102
RTVSPropertyOp2
 70
     1
102
RTVSPropertyOp3
 70
     1
102
RTVSPropertyOp4
 70
     1
102
RTVSPropertyOp5
 70
     1
102
RTVSPropertyOp6
 70
     1
102
RTVSPropertyOp7
 70
     1
102
RTVSPropertyOp8
 70
     1
102
RTVSPropertyOp9
 70
     1
102
RTVSPropertyOp10
 70
     1
102
RTVSPropertyOp11
 70
     1
102
RTVSPropertyOp12
 70
     1
102
RTVSPropertyOp13
 70
     1
102
RTVSPropertyOp14
 70
     1
102
RTVSPropertyOp15
 70
     1
102
RTVSPropertyOp16
 70
     1
102
RTVSPropertyOp17
 70
     1
102
RTVSPropertyOp18
 70
     1
102
RTVSPropertyOp19
 70
     1
102
RTVSPropertyOp20
 70
     1
102
RTVSPropertyOp21
 70
     1
102
RTVSPropertyOp22
 70
     1
102
RTVSPropertyOp23
 70
     1
102
RTVSPropertyOp24
 70
     1
102
RTVSPropertyOp25
 70
     1
102
RTVSPropertyOp26
 70
     1
102
RTVSPropertyOp27
 70
     1
102
RTVSPropertyOp28
 70
     1
102
RTVSPropertyOp29
 70
     1
102
RTVSPropertyOp30
 70
     1
102
RTVSPropertyOp31
 70
     1
102
RTVSPropertyOp32
 70
     1
102
RTVSPropertyOp33
 70
     1
102
RTVSPropertyOp34
 70
     1
102
RTVSPropertyOp35
 70
     1
102
RTVSPropertyOp36
 70
     1
102
RTVSPropertyOp37
 70
     1
102
RTVSPropertyOp38
 70
     1
102
RTVSPropertyOp39
 70
     1
102
RTVSPropertyOp40
 70
     1
102
RTVSPropertyOp41
 70
     1
102
RTVSPropertyOp42
 70
     1
102
RTVSPropertyOp43
 70
     1
102
RTVSPropertyOp44
 70
     1
102
RTVSPropertyOp45
 70
     1
102
RTVSPropertyOp46
 70
     1
102
RTVSPropertyOp47
 70
     1
102
RTVSPropertyOp48
 70
     1
102
RTVSPropertyOp49
 70
     1
102
RTVSPropertyOp50
 70
     1
102
RTVSPropertyOp51
 70
     0
102
RTVSPropertyOp52
 70
     0
102
RTVSPropertyOp53
 70
     1
102
RTVSPropertyOp54
 70
     1
102
RTVSPropertyOp55
 70
     1
102
RTVSPropertyOp56
 70
     1
102
RTVSPropertyOp57
 70
     1
102
RTVSPost2010Prop28
280
     0
102
RTVSPost2010PropOp28
 70
     1
102
RTVSPost2010Prop29
280
     1
102
RTVSPost2010PropOp29
 70
     1
102
RTVSPost2010Prop30
280
     1
102
RTVSPost2010PropOp30
 70
     1
102
RTVSPost2010Prop31
280
     0
102
RTVSPost2010PropOp31
 70
     1
102
RTVSPost2010Prop32
280
     0
102
RTVSPost2010PropOp32
 70
     1
102
RTVSPost2010Prop33
280
     0
102
RTVSPost2010PropOp33
 70
     1
102
RTVSPost2010Prop34
280
     0
102
RTVSPost2010PropOp34
 70
     1
102
RTVSPost2010Prop35
280
     0
102
RTVSPost2010PropOp35
 70
     1
102
RTVSPost2010Prop36
280
     0
102
RTVSPost2010PropOp36
 70
     1
102
RTVSPost2010Prop37
 90
       50
102
RTVSPost2010PropOp37
 70
     1
102
RTVSPost2010Prop38
140
0.0
102
RTVSPost2010PropOp38
 70
     1
102
RTVSPost2010Prop39
140
1.0
102
RTVSPost2010PropOp39
 70
     1
102
RTVSPost2010Prop40
 90
        0
102
RTVSPost2010PropOp40
 70
     1
102
RTVSPost2010Prop41ColorIndex
 90
       18
102
RTVSPost2010Prop41ColorRGB
 90
        0
102
RTVSPost2010PropOp41
 70
     1
102
RTVSPost2010Prop42
 90
       50
102
RTVSPost2010PropOp42
 70
     1
102
RTVSPost2010Prop43
 90
        3
102
RTVSPost2010PropOp43
 70
     1
102
RTVSPost2010Prop44ColorIndex
 90
        5
102
RTVSPost2010Prop44ColorRGB
 90
      255
102
RTVSPost2010PropOp44
 70
     1
102
RTVSPost2010Prop45
280
     0
102
RTVSPost2010PropOp45
 70
     1
102
RTVSPost2010Prop46
 90
       50
102
RTVSPost2010PropOp46
 70
     1
102
RTVSPost2010Prop47
 90
       50
102
RTVSPost2010PropOp47
 70
     1
102
RTVSPost2010Prop48
 90
       50
102
RTVSPost2010PropOp48
 70
     1
102
RTVSPost2010Prop49
280
     0
102
RTVSPost2010PropOp49
 70
     1
102
RTVSPost2010Prop50
 90
       50
102
RTVSPost2010PropOp50
 70
     1
102
RTVSPost2010Prop51ColorIndex
 90
      256
102
RTVSPost2010Prop51ColorRGB
 90
-16777216
102
RTVSPost2010PropOp51
 70
     0
102
RTVSPost2010Prop52
140
1.0
102
RTVSPost2010PropOp52
 70
     0
102
RTVSPost2010Prop53
 90
        2
102
RTVSPost2010PropOp53
 70
     1
102
RTVSPost2010Prop54
  1
strokes_ogs.tif
102
RTVSPost2010PropOp54
 70
     1
102
RTVSPost2010Prop55
280
     0
102
RTVSPost2010PropOp55
 70
     1
102
RTVSPost2010Prop56
140
1.0
102
RTVSPost2010PropOp56
 70
     1
102
RTVSPost2010Prop57
140
1.0
102
RTVSPost2010PropOp57
 70
     1
  0
XRECORD
  5
106AD1E
102
{ACAD_REACTORS
330
106AD1D
102
}
330
106AD1D
100
AcDbXrecord
280
     1
102
RTVSPropertyOp0
 70
     1
102
RTVSPropertyOp1
 70
     1
102
RTVSPropertyOp2
 70
     1
102
RTVSPropertyOp3
 70
     1
102
RTVSPropertyOp4
 70
     1
102
RTVSPropertyOp5
 70
     1
102
RTVSPropertyOp6
 70
     1
102
RTVSPropertyOp7
 70
     1
102
RTVSPropertyOp8
 70
     1
102
RTVSPropertyOp9
 70
     1
102
RTVSPropertyOp10
 70
     1
102
RTVSPropertyOp11
 70
     1
102
RTVSPropertyOp12
 70
     1
102
RTVSPropertyOp13
 70
     1
102
RTVSPropertyOp14
 70
     1
102
RTVSPropertyOp15
 70
     1
102
RTVSPropertyOp16
 70
     1
102
RTVSPropertyOp17
 70
     1
102
RTVSPropertyOp18
 70
     1
102
RTVSPropertyOp19
 70
     1
102
RTVSPropertyOp20
 70
     1
102
RTVSPropertyOp21
 70
     1
102
RTVSPropertyOp22
 70
     1
102
RTVSPropertyOp23
 70
     1
102
RTVSPropertyOp24
 70
     1
102
RTVSPropertyOp25
 70
     1
102
RTVSPropertyOp26
 70
     1
102
RTVSPropertyOp27
 70
     1
102
RTVSPropertyOp28
 70
     1
102
RTVSPropertyOp29
 70
     1
102
RTVSPropertyOp30
 70
     1
102
RTVSPropertyOp31
 70
     1
102
RTVSPropertyOp32
 70
     1
102
RTVSPropertyOp33
 70
     1
102
RTVSPropertyOp34
 70
     1
102
RTVSPropertyOp35
 70
     1
102
RTVSPropertyOp36
 70
     1
102
RTVSPropertyOp37
 70
     1
102
RTVSPropertyOp38
 70
     1
102
RTVSPropertyOp39
 70
     1
102
RTVSPropertyOp40
 70
     1
102
RTVSPropertyOp41
 70
     1
102
RTVSPropertyOp42
 70
     1
102
RTVSPropertyOp43
 70
     1
102
RTVSPropertyOp44
 70
     1
102
RTVSPropertyOp45
 70
     1
102
RTVSPropertyOp46
 70
     1
102
RTVSPropertyOp47
 70
     1
102
RTVSPropertyOp48
 70
     1
102
RTVSPropertyOp49
 70
     1
102
RTVSPropertyOp50
 70
     1
102
RTVSPropertyOp51
 70
     0
102
RTVSPropertyOp52
 70
     0
102
RTVSPropertyOp53
 70
     1
102
RTVSPropertyOp54
 70
     1
102
RTVSPropertyOp55
 70
     1
102
RTVSPropertyOp56
 70
     1
102
RTVSPropertyOp57
 70
     1
102
RTVSPost2010Prop28
280
     0
102
RTVSPost2010PropOp28
 70
     1
102
RTVSPost2010Prop29
280
     1
102
RTVSPost2010PropOp29
 70
     1
102
RTVSPost2010Prop30
280
     1
102
RTVSPost2010PropOp30
 70
     1
102
RTVSPost2010Prop31
280
     0
102
RTVSPost2010PropOp31
 70
     1
102
RTVSPost2010Prop32
280
     0
102
RTVSPost2010PropOp32
 70
     1
102
RTVSPost2010Prop33
280
     0
102
RTVSPost2010PropOp33
 70
     1
102
RTVSPost2010Prop34
280
     0
102
RTVSPost2010PropOp34
 70
     1
102
RTVSPost2010Prop35
280
     0
102
RTVSPost2010PropOp35
 70
     1
102
RTVSPost2010Prop36
280
     0
102
RTVSPost2010PropOp36
 70
     1
102
RTVSPost2010Prop37
 90
       50
102
RTVSPost2010PropOp37
 70
     1
102
RTVSPost2010Prop38
140
0.0
102
RTVSPost2010PropOp38
 70
     1
102
RTVSPost2010Prop39
140
1.0
102
RTVSPost2010PropOp39
 70
     1
102
RTVSPost2010Prop40
 90
        0
102
RTVSPost2010PropOp40
 70
     1
102
RTVSPost2010Prop41ColorIndex
 90
       18
102
RTVSPost2010Prop41ColorRGB
 90
        0
102
RTVSPost2010PropOp41
 70
     1
102
RTVSPost2010Prop42
 90
       50
102
RTVSPost2010PropOp42
 70
     1
102
RTVSPost2010Prop43
 90
        3
102
RTVSPost2010PropOp43
 70
     1
102
RTVSPost2010Prop44ColorIndex
 90
        5
102
RTVSPost2010Prop44ColorRGB
 90
      255
102
RTVSPost2010PropOp44
 70
     1
102
RTVSPost2010Prop45
280
     0
102
RTVSPost2010PropOp45
 70
     1
102
RTVSPost2010Prop46
 90
       50
102
RTVSPost2010PropOp46
 70
     1
102
RTVSPost2010Prop47
 90
       50
102
RTVSPost2010PropOp47
 70
     1
102
RTVSPost2010Prop48
 90
       50
102
RTVSPost2010PropOp48
 70
     1
102
RTVSPost2010Prop49
280
     0
102
RTVSPost2010PropOp49
 70
     1
102
RTVSPost2010Prop50
 90
       50
102
RTVSPost2010PropOp50
 70
     1
102
RTVSPost2010Prop51ColorIndex
 90
      256
102
RTVSPost2010Prop51ColorRGB
 90
-16777216
102
RTVSPost2010PropOp51
 70
     0
102
RTVSPost2010Prop52
140
1.0
102
RTVSPost2010PropOp52
 70
     0
102
RTVSPost2010Prop53
 90
        2
102
RTVSPost2010PropOp53
 70
     1
102
RTVSPost2010Prop54
  1
strokes_ogs.tif
102
RTVSPost2010PropOp54
 70
     1
102
RTVSPost2010Prop55
280
     0
102
RTVSPost2010PropOp55
 70
     1
102
RTVSPost2010Prop56
140
1.0
102
RTVSPost2010PropOp56
 70
     1
102
RTVSPost2010Prop57
140
1.0
102
RTVSPost2010PropOp57
 70
     1
  0
XRECORD
  5
106AD20
102
{ACAD_REACTORS
330
106AD1F
102
}
330
106AD1F
100
AcDbXrecord
280
     1
102
RTVSPropertyOp0
 70
     1
102
RTVSPropertyOp1
 70
     1
102
RTVSPropertyOp2
 70
     1
102
RTVSPropertyOp3
 70
     1
102
RTVSPropertyOp4
 70
     1
102
RTVSPropertyOp5
 70
     1
102
RTVSPropertyOp6
 70
     1
102
RTVSPropertyOp7
 70
     1
102
RTVSPropertyOp8
 70
     1
102
RTVSPropertyOp9
 70
     1
102
RTVSPropertyOp10
 70
     1
102
RTVSPropertyOp11
 70
     1
102
RTVSPropertyOp12
 70
     1
102
RTVSPropertyOp13
 70
     1
102
RTVSPropertyOp14
 70
     1
102
RTVSPropertyOp15
 70
     1
102
RTVSPropertyOp16
 70
     1
102
RTVSPropertyOp17
 70
     1
102
RTVSPropertyOp18
 70
     1
102
RTVSPropertyOp19
 70
     1
102
RTVSPropertyOp20
 70
     1
102
RTVSPropertyOp21
 70
     1
102
RTVSPropertyOp22
 70
     1
102
RTVSPropertyOp23
 70
     1
102
RTVSPropertyOp24
 70
     1
102
RTVSPropertyOp25
 70
     1
102
RTVSPropertyOp26
 70
     1
102
RTVSPropertyOp27
 70
     1
102
RTVSPropertyOp28
 70
     1
102
RTVSPropertyOp29
 70
     1
102
RTVSPropertyOp30
 70
     1
102
RTVSPropertyOp31
 70
     1
102
RTVSPropertyOp32
 70
     1
102
RTVSPropertyOp33
 70
     1
102
RTVSPropertyOp34
 70
     1
102
RTVSPropertyOp35
 70
     1
102
RTVSPropertyOp36
 70
     1
102
RTVSPropertyOp37
 70
     1
102
RTVSPropertyOp38
 70
     1
102
RTVSPropertyOp39
 70
     1
102
RTVSPropertyOp40
 70
     1
102
RTVSPropertyOp41
 70
     1
102
RTVSPropertyOp42
 70
     1
102
RTVSPropertyOp43
 70
     1
102
RTVSPropertyOp44
 70
     1
102
RTVSPropertyOp45
 70
     1
102
RTVSPropertyOp46
 70
     1
102
RTVSPropertyOp47
 70
     1
102
RTVSPropertyOp48
 70
     1
102
RTVSPropertyOp49
 70
     1
102
RTVSPropertyOp50
 70
     1
102
RTVSPropertyOp51
 70
     0
102
RTVSPropertyOp52
 70
     0
102
RTVSPropertyOp53
 70
     1
102
RTVSPropertyOp54
 70
     1
102
RTVSPropertyOp55
 70
     1
102
RTVSPropertyOp56
 70
     1
102
RTVSPropertyOp57
 70
     1
102
RTVSPost2010Prop28
280
     0
102
RTVSPost2010PropOp28
 70
     1
102
RTVSPost2010Prop29
280
     1
102
RTVSPost2010PropOp29
 70
     1
102
RTVSPost2010Prop30
280
     1
102
RTVSPost2010PropOp30
 70
     1
102
RTVSPost2010Prop31
280
     0
102
RTVSPost2010PropOp31
 70
     1
102
RTVSPost2010Prop32
280
     0
102
RTVSPost2010PropOp32
 70
     1
102
RTVSPost2010Prop33
280
     0
102
RTVSPost2010PropOp33
 70
     1
102
RTVSPost2010Prop34
280
     0
102
RTVSPost2010PropOp34
 70
     1
102
RTVSPost2010Prop35
280
     0
102
RTVSPost2010PropOp35
 70
     1
102
RTVSPost2010Prop36
280
     0
102
RTVSPost2010PropOp36
 70
     1
102
RTVSPost2010Prop37
 90
       50
102
RTVSPost2010PropOp37
 70
     1
102
RTVSPost2010Prop38
140
0.0
102
RTVSPost2010PropOp38
 70
     1
102
RTVSPost2010Prop39
140
1.0
102
RTVSPost2010PropOp39
 70
     1
102
RTVSPost2010Prop40
 90
        0
102
RTVSPost2010PropOp40
 70
     1
102
RTVSPost2010Prop41ColorIndex
 90
       18
102
RTVSPost2010Prop41ColorRGB
 90
        0
102
RTVSPost2010PropOp41
 70
     1
102
RTVSPost2010Prop42
 90
       50
102
RTVSPost2010PropOp42
 70
     1
102
RTVSPost2010Prop43
 90
        3
102
RTVSPost2010PropOp43
 70
     1
102
RTVSPost2010Prop44ColorIndex
 90
        5
102
RTVSPost2010Prop44ColorRGB
 90
      255
102
RTVSPost2010PropOp44
 70
     1
102
RTVSPost2010Prop45
280
     0
102
RTVSPost2010PropOp45
 70
     1
102
RTVSPost2010Prop46
 90
       50
102
RTVSPost2010PropOp46
 70
     1
102
RTVSPost2010Prop47
 90
       50
102
RTVSPost2010PropOp47
 70
     1
102
RTVSPost2010Prop48
 90
       50
102
RTVSPost2010PropOp48
 70
     1
102
RTVSPost2010Prop49
280
     0
102
RTVSPost2010PropOp49
 70
     1
102
RTVSPost2010Prop50
 90
       50
102
RTVSPost2010PropOp50
 70
     1
102
RTVSPost2010Prop51ColorIndex
 90
      256
102
RTVSPost2010Prop51ColorRGB
 90
-16777216
102
RTVSPost2010PropOp51
 70
     0
102
RTVSPost2010Prop52
140
1.0
102
RTVSPost2010PropOp52
 70
     0
102
RTVSPost2010Prop53
 90
        2
102
RTVSPost2010PropOp53
 70
     1
102
RTVSPost2010Prop54
  1
strokes_ogs.tif
102
RTVSPost2010PropOp54
 70
     1
102
RTVSPost2010Prop55
280
     0
102
RTVSPost2010PropOp55
 70
     1
102
RTVSPost2010Prop56
140
1.0
102
RTVSPost2010PropOp56
 70
     1
102
RTVSPost2010Prop57
140
1.0
102
RTVSPost2010PropOp57
 70
     1
  0
XRECORD
  5
106AD22
102
{ACAD_REACTORS
330
106AD21
102
}
330
106AD21
100
AcDbXrecord
280
     1
102
RTVSPropertyOp0
 70
     1
102
RTVSPropertyOp1
 70
     1
102
RTVSPropertyOp2
 70
     1
102
RTVSPropertyOp3
 70
     1
102
RTVSPropertyOp4
 70
     1
102
RTVSPropertyOp5
 70
     1
102
RTVSPropertyOp6
 70
     1
102
RTVSPropertyOp7
 70
     1
102
RTVSPropertyOp8
 70
     1
102
RTVSPropertyOp9
 70
     1
102
RTVSPropertyOp10
 70
     1
102
RTVSPropertyOp11
 70
     1
102
RTVSPropertyOp12
 70
     1
102
RTVSPropertyOp13
 70
     1
102
RTVSPropertyOp14
 70
     1
102
RTVSPropertyOp15
 70
     1
102
RTVSPropertyOp16
 70
     1
102
RTVSPropertyOp17
 70
     1
102
RTVSPropertyOp18
 70
     1
102
RTVSPropertyOp19
 70
     1
102
RTVSPropertyOp20
 70
     1
102
RTVSPropertyOp21
 70
     1
102
RTVSPropertyOp22
 70
     1
102
RTVSPropertyOp23
 70
     1
102
RTVSPropertyOp24
 70
     1
102
RTVSPropertyOp25
 70
     1
102
RTVSPropertyOp26
 70
     1
102
RTVSPropertyOp27
 70
     1
102
RTVSPropertyOp28
 70
     1
102
RTVSPropertyOp29
 70
     1
102
RTVSPropertyOp30
 70
     1
102
RTVSPropertyOp31
 70
     1
102
RTVSPropertyOp32
 70
     1
102
RTVSPropertyOp33
 70
     1
102
RTVSPropertyOp34
 70
     1
102
RTVSPropertyOp35
 70
     1
102
RTVSPropertyOp36
 70
     1
102
RTVSPropertyOp37
 70
     1
102
RTVSPropertyOp38
 70
     1
102
RTVSPropertyOp39
 70
     1
102
RTVSPropertyOp40
 70
     1
102
RTVSPropertyOp41
 70
     1
102
RTVSPropertyOp42
 70
     1
102
RTVSPropertyOp43
 70
     1
102
RTVSPropertyOp44
 70
     1
102
RTVSPropertyOp45
 70
     1
102
RTVSPropertyOp46
 70
     1
102
RTVSPropertyOp47
 70
     1
102
RTVSPropertyOp48
 70
     1
102
RTVSPropertyOp49
 70
     1
102
RTVSPropertyOp50
 70
     1
102
RTVSPropertyOp51
 70
     0
102
RTVSPropertyOp52
 70
     0
102
RTVSPropertyOp53
 70
     1
102
RTVSPropertyOp54
 70
     1
102
RTVSPropertyOp55
 70
     1
102
RTVSPropertyOp56
 70
     1
102
RTVSPropertyOp57
 70
     1
102
RTVSPost2010Prop28
280
     0
102
RTVSPost2010PropOp28
 70
     1
102
RTVSPost2010Prop29
280
     1
102
RTVSPost2010PropOp29
 70
     1
102
RTVSPost2010Prop30
280
     1
102
RTVSPost2010PropOp30
 70
     1
102
RTVSPost2010Prop31
280
     0
102
RTVSPost2010PropOp31
 70
     1
102
RTVSPost2010Prop32
280
     0
102
RTVSPost2010PropOp32
 70
     1
102
RTVSPost2010Prop33
280
     0
102
RTVSPost2010PropOp33
 70
     1
102
RTVSPost2010Prop34
280
     0
102
RTVSPost2010PropOp34
 70
     1
102
RTVSPost2010Prop35
280
     0
102
RTVSPost2010PropOp35
 70
     1
102
RTVSPost2010Prop36
280
     0
102
RTVSPost2010PropOp36
 70
     1
102
RTVSPost2010Prop37
 90
       50
102
RTVSPost2010PropOp37
 70
     1
102
RTVSPost2010Prop38
140
0.0
102
RTVSPost2010PropOp38
 70
     1
102
RTVSPost2010Prop39
140
1.0
102
RTVSPost2010PropOp39
 70
     1
102
RTVSPost2010Prop40
 90
        0
102
RTVSPost2010PropOp40
 70
     1
102
RTVSPost2010Prop41ColorIndex
 90
       18
102
RTVSPost2010Prop41ColorRGB
 90
        0
102
RTVSPost2010PropOp41
 70
     1
102
RTVSPost2010Prop42
 90
       50
102
RTVSPost2010PropOp42
 70
     1
102
RTVSPost2010Prop43
 90
        3
102
RTVSPost2010PropOp43
 70
     1
102
RTVSPost2010Prop44ColorIndex
 90
        5
102
RTVSPost2010Prop44ColorRGB
 90
      255
102
RTVSPost2010PropOp44
 70
     1
102
RTVSPost2010Prop45
280
     0
102
RTVSPost2010PropOp45
 70
     1
102
RTVSPost2010Prop46
 90
       50
102
RTVSPost2010PropOp46
 70
     1
102
RTVSPost2010Prop47
 90
       50
102
RTVSPost2010PropOp47
 70
     1
102
RTVSPost2010Prop48
 90
       50
102
RTVSPost2010PropOp48
 70
     1
102
RTVSPost2010Prop49
280
     0
102
RTVSPost2010PropOp49
 70
     1
102
RTVSPost2010Prop50
 90
       50
102
RTVSPost2010PropOp50
 70
     1
102
RTVSPost2010Prop51ColorIndex
 90
      256
102
RTVSPost2010Prop51ColorRGB
 90
-16777216
102
RTVSPost2010PropOp51
 70
     0
102
RTVSPost2010Prop52
140
1.0
102
RTVSPost2010PropOp52
 70
     0
102
RTVSPost2010Prop53
 90
        2
102
RTVSPost2010PropOp53
 70
     1
102
RTVSPost2010Prop54
  1
strokes_ogs.tif
102
RTVSPost2010PropOp54
 70
     1
102
RTVSPost2010Prop55
280
     0
102
RTVSPost2010PropOp55
 70
     1
102
RTVSPost2010Prop56
140
1.0
102
RTVSPost2010PropOp56
 70
     1
102
RTVSPost2010Prop57
140
1.0
102
RTVSPost2010PropOp57
 70
     1
  0
XRECORD
  5
106AD24
102
{ACAD_REACTORS
330
106AD23
102
}
330
106AD23
100
AcDbXrecord
280
     1
102
RTVSPropertyOp0
 70
     1
102
RTVSPropertyOp1
 70
     1
102
RTVSPropertyOp2
 70
     1
102
RTVSPropertyOp3
 70
     1
102
RTVSPropertyOp4
 70
     1
102
RTVSPropertyOp5
 70
     1
102
RTVSPropertyOp6
 70
     1
102
RTVSPropertyOp7
 70
     1
102
RTVSPropertyOp8
 70
     1
102
RTVSPropertyOp9
 70
     1
102
RTVSPropertyOp10
 70
     1
102
RTVSPropertyOp11
 70
     1
102
RTVSPropertyOp12
 70
     1
102
RTVSPropertyOp13
 70
     1
102
RTVSPropertyOp14
 70
     1
102
RTVSPropertyOp15
 70
     1
102
RTVSPropertyOp16
 70
     1
102
RTVSPropertyOp17
 70
     1
102
RTVSPropertyOp18
 70
     1
102
RTVSPropertyOp19
 70
     1
102
RTVSPropertyOp20
 70
     1
102
RTVSPropertyOp21
 70
     1
102
RTVSPropertyOp22
 70
     1
102
RTVSPropertyOp23
 70
     1
102
RTVSPropertyOp24
 70
     1
102
RTVSPropertyOp25
 70
     1
102
RTVSPropertyOp26
 70
     1
102
RTVSPropertyOp27
 70
     1
102
RTVSPropertyOp28
 70
     1
102
RTVSPropertyOp29
 70
     1
102
RTVSPropertyOp30
 70
     1
102
RTVSPropertyOp31
 70
     1
102
RTVSPropertyOp32
 70
     1
102
RTVSPropertyOp33
 70
     1
102
RTVSPropertyOp34
 70
     1
102
RTVSPropertyOp35
 70
     1
102
RTVSPropertyOp36
 70
     1
102
RTVSPropertyOp37
 70
     1
102
RTVSPropertyOp38
 70
     1
102
RTVSPropertyOp39
 70
     1
102
RTVSPropertyOp40
 70
     1
102
RTVSPropertyOp41
 70
     1
102
RTVSPropertyOp42
 70
     1
102
RTVSPropertyOp43
 70
     1
102
RTVSPropertyOp44
 70
     1
102
RTVSPropertyOp45
 70
     1
102
RTVSPropertyOp46
 70
     1
102
RTVSPropertyOp47
 70
     1
102
RTVSPropertyOp48
 70
     1
102
RTVSPropertyOp49
 70
     1
102
RTVSPropertyOp50
 70
     1
102
RTVSPropertyOp51
 70
     0
102
RTVSPropertyOp52
 70
     0
102
RTVSPropertyOp53
 70
     1
102
RTVSPropertyOp54
 70
     1
102
RTVSPropertyOp55
 70
     1
102
RTVSPropertyOp56
 70
     1
102
RTVSPropertyOp57
 70
     1
102
RTVSPost2010Prop28
280
     0
102
RTVSPost2010PropOp28
 70
     1
102
RTVSPost2010Prop29
280
     1
102
RTVSPost2010PropOp29
 70
     1
102
RTVSPost2010Prop30
280
     1
102
RTVSPost2010PropOp30
 70
     1
102
RTVSPost2010Prop31
280
     0
102
RTVSPost2010PropOp31
 70
     1
102
RTVSPost2010Prop32
280
     0
102
RTVSPost2010PropOp32
 70
     1
102
RTVSPost2010Prop33
280
     0
102
RTVSPost2010PropOp33
 70
     1
102
RTVSPost2010Prop34
280
     0
102
RTVSPost2010PropOp34
 70
     1
102
RTVSPost2010Prop35
280
     0
102
RTVSPost2010PropOp35
 70
     1
102
RTVSPost2010Prop36
280
     0
102
RTVSPost2010PropOp36
 70
     1
102
RTVSPost2010Prop37
 90
       50
102
RTVSPost2010PropOp37
 70
     1
102
RTVSPost2010Prop38
140
0.0
102
RTVSPost2010PropOp38
 70
     1
102
RTVSPost2010Prop39
140
1.0
102
RTVSPost2010PropOp39
 70
     1
102
RTVSPost2010Prop40
 90
        0
102
RTVSPost2010PropOp40
 70
     1
102
RTVSPost2010Prop41ColorIndex
 90
       18
102
RTVSPost2010Prop41ColorRGB
 90
        0
102
RTVSPost2010PropOp41
 70
     1
102
RTVSPost2010Prop42
 90
       50
102
RTVSPost2010PropOp42
 70
     1
102
RTVSPost2010Prop43
 90
        3
102
RTVSPost2010PropOp43
 70
     1
102
RTVSPost2010Prop44ColorIndex
 90
        5
102
RTVSPost2010Prop44ColorRGB
 90
      255
102
RTVSPost2010PropOp44
 70
     1
102
RTVSPost2010Prop45
280
     0
102
RTVSPost2010PropOp45
 70
     1
102
RTVSPost2010Prop46
 90
       50
102
RTVSPost2010PropOp46
 70
     1
102
RTVSPost2010Prop47
 90
       50
102
RTVSPost2010PropOp47
 70
     1
102
RTVSPost2010Prop48
 90
       50
102
RTVSPost2010PropOp48
 70
     1
102
RTVSPost2010Prop49
280
     0
102
RTVSPost2010PropOp49
 70
     1
102
RTVSPost2010Prop50
 90
       50
102
RTVSPost2010PropOp50
 70
     1
102
RTVSPost2010Prop51ColorIndex
 90
      256
102
RTVSPost2010Prop51ColorRGB
 90
-16777216
102
RTVSPost2010PropOp51
 70
     0
102
RTVSPost2010Prop52
140
1.0
102
RTVSPost2010PropOp52
 70
     0
102
RTVSPost2010Prop53
 90
        2
102
RTVSPost2010PropOp53
 70
     1
102
RTVSPost2010Prop54
  1
strokes_ogs.tif
102
RTVSPost2010PropOp54
 70
     1
102
RTVSPost2010Prop55
280
     0
102
RTVSPost2010PropOp55
 70
     1
102
RTVSPost2010Prop56
140
1.0
102
RTVSPost2010PropOp56
 70
     1
102
RTVSPost2010Prop57
140
1.0
102
RTVSPost2010PropOp57
 70
     1
  0
XRECORD
  5
106AD26
102
{ACAD_REACTORS
330
106AD25
102
}
330
106AD25
100
AcDbXrecord
280
     1
102
RTVSPropertyOp0
 70
     1
102
RTVSPropertyOp1
 70
     1
102
RTVSPropertyOp2
 70
     1
102
RTVSPropertyOp3
 70
     1
102
RTVSPropertyOp4
 70
     1
102
RTVSPropertyOp5
 70
     1
102
RTVSPropertyOp6
 70
     1
102
RTVSPropertyOp7
 70
     1
102
RTVSPropertyOp8
 70
     1
102
RTVSPropertyOp9
 70
     1
102
RTVSPropertyOp10
 70
     1
102
RTVSPropertyOp11
 70
     1
102
RTVSPropertyOp12
 70
     1
102
RTVSPropertyOp13
 70
     1
102
RTVSPropertyOp14
 70
     1
102
RTVSPropertyOp15
 70
     1
102
RTVSPropertyOp16
 70
     1
102
RTVSPropertyOp17
 70
     1
102
RTVSPropertyOp18
 70
     1
102
RTVSPropertyOp19
 70
     1
102
RTVSPropertyOp20
 70
     1
102
RTVSPropertyOp21
 70
     1
102
RTVSPropertyOp22
 70
     1
102
RTVSPropertyOp23
 70
     1
102
RTVSPropertyOp24
 70
     1
102
RTVSPropertyOp25
 70
     1
102
RTVSPropertyOp26
 70
     1
102
RTVSPropertyOp27
 70
     1
102
RTVSPropertyOp28
 70
     1
102
RTVSPropertyOp29
 70
     1
102
RTVSPropertyOp30
 70
     1
102
RTVSPropertyOp31
 70
     1
102
RTVSPropertyOp32
 70
     1
102
RTVSPropertyOp33
 70
     1
102
RTVSPropertyOp34
 70
     1
102
RTVSPropertyOp35
 70
     1
102
RTVSPropertyOp36
 70
     1
102
RTVSPropertyOp37
 70
     1
102
RTVSPropertyOp38
 70
     1
102
RTVSPropertyOp39
 70
     1
102
RTVSPropertyOp40
 70
     1
102
RTVSPropertyOp41
 70
     1
102
RTVSPropertyOp42
 70
     1
102
RTVSPropertyOp43
 70
     1
102
RTVSPropertyOp44
 70
     1
102
RTVSPropertyOp45
 70
     1
102
RTVSPropertyOp46
 70
     1
102
RTVSPropertyOp47
 70
     1
102
RTVSPropertyOp48
 70
     1
102
RTVSPropertyOp49
 70
     1
102
RTVSPropertyOp50
 70
     1
102
RTVSPropertyOp51
 70
     0
102
RTVSPropertyOp52
 70
     0
102
RTVSPropertyOp53
 70
     1
102
RTVSPropertyOp54
 70
     1
102
RTVSPropertyOp55
 70
     1
102
RTVSPropertyOp56
 70
     1
102
RTVSPropertyOp57
 70
     1
102
RTVSPost2010Prop28
280
     0
102
RTVSPost2010PropOp28
 70
     1
102
RTVSPost2010Prop29
280
     1
102
RTVSPost2010PropOp29
 70
     1
102
RTVSPost2010Prop30
280
     1
102
RTVSPost2010PropOp30
 70
     1
102
RTVSPost2010Prop31
280
     0
102
RTVSPost2010PropOp31
 70
     1
102
RTVSPost2010Prop32
280
     0
102
RTVSPost2010PropOp32
 70
     1
102
RTVSPost2010Prop33
280
     0
102
RTVSPost2010PropOp33
 70
     1
102
RTVSPost2010Prop34
280
     0
102
RTVSPost2010PropOp34
 70
     1
102
RTVSPost2010Prop35
280
     0
102
RTVSPost2010PropOp35
 70
     1
102
RTVSPost2010Prop36
280
     0
102
RTVSPost2010PropOp36
 70
     1
102
RTVSPost2010Prop37
 90
       50
102
RTVSPost2010PropOp37
 70
     1
102
RTVSPost2010Prop38
140
0.0
102
RTVSPost2010PropOp38
 70
     1
102
RTVSPost2010Prop39
140
1.0
102
RTVSPost2010PropOp39
 70
     1
102
RTVSPost2010Prop40
 90
        0
102
RTVSPost2010PropOp40
 70
     1
102
RTVSPost2010Prop41ColorIndex
 90
       18
102
RTVSPost2010Prop41ColorRGB
 90
        0
102
RTVSPost2010PropOp41
 70
     1
102
RTVSPost2010Prop42
 90
       50
102
RTVSPost2010PropOp42
 70
     1
102
RTVSPost2010Prop43
 90
        3
102
RTVSPost2010PropOp43
 70
     1
102
RTVSPost2010Prop44ColorIndex
 90
        5
102
RTVSPost2010Prop44ColorRGB
 90
      255
102
RTVSPost2010PropOp44
 70
     1
102
RTVSPost2010Prop45
280
     0
102
RTVSPost2010PropOp45
 70
     1
102
RTVSPost2010Prop46
 90
       50
102
RTVSPost2010PropOp46
 70
     1
102
RTVSPost2010Prop47
 90
       50
102
RTVSPost2010PropOp47
 70
     1
102
RTVSPost2010Prop48
 90
       50
102
RTVSPost2010PropOp48
 70
     1
102
RTVSPost2010Prop49
280
     0
102
RTVSPost2010PropOp49
 70
     1
102
RTVSPost2010Prop50
 90
       50
102
RTVSPost2010PropOp50
 70
     1
102
RTVSPost2010Prop51ColorIndex
 90
      256
102
RTVSPost2010Prop51ColorRGB
 90
-16777216
102
RTVSPost2010PropOp51
 70
     0
102
RTVSPost2010Prop52
140
1.0
102
RTVSPost2010PropOp52
 70
     0
102
RTVSPost2010Prop53
 90
        2
102
RTVSPost2010PropOp53
 70
     1
102
RTVSPost2010Prop54
  1
strokes_ogs.tif
102
RTVSPost2010PropOp54
 70
     1
102
RTVSPost2010Prop55
280
     0
102
RTVSPost2010PropOp55
 70
     1
102
RTVSPost2010Prop56
140
1.0
102
RTVSPost2010PropOp56
 70
     1
102
RTVSPost2010Prop57
140
1.0
102
RTVSPost2010PropOp57
 70
     1
  0
ENDSEC
  0
EOF
