  0
SECTION
  2
HEADER
  9
$ACADVER
  1
AC1015
  9
$ACADMAINTVER
 70
     6
  9
$DWGCODEPAGE
  3
ANSI_932
  9
$INSBASE
 10
0.0
 20
0.0
 30
0.0
  9
$EXTMIN
 10
-20.0
 20
-45.0
 30
0.0
  9
$EXTMAX
 10
140.0
 20
45.0
 30
0.0
  9
$LIMMIN
 10
0.0
 20
0.0
  9
$LIMMAX
 10
12.0
 20
9.0
  9
$ORTHOMODE
 70
     0
  9
$REGENMODE
 70
     1
  9
$FILLMODE
 70
     1
  9
$QTEXTMODE
 70
     0
  9
$MIRRTEXT
 70
     1
  9
$LTSCALE
 40
1.0
  9
$ATTMODE
 70
     1
  9
$TEXTSIZE
 40
0.2
  9
$TRACEWID
 40
0.05
  9
$TEXTSTYLE
  7
Standard
  9
$CLAYER
  8
0
  9
$CELTYPE
  6
ByBlock
  9
$CECOLOR
 62
   256
  9
$CELTSCALE
 40
1.0
  9
$DISPSILH
 70
     0
  9
$DIMSCALE
 40
1.0
  9
$DIMASZ
 40
0.18
  9
$DIMEXO
 40
0.0625
  9
$DIMDLI
 40
0.38
  9
$DIMRND
 40
0.0
  9
$DIMDLE
 40
0.0
  9
$DIMEXE
 40
0.18
  9
$DIMTP
 40
0.0
  9
$DIMTM
 40
0.0
  9
$DIMTXT
 40
0.18
  9
$DIMCEN
 40
0.09
  9
$DIMTSZ
 40
0.0
  9
$DIMTOL
 70
     0
  9
$DIMLIM
 70
     0
  9
$DIMTIH
 70
     1
  9
$DIMTOH
 70
     1
  9
$DIMSE1
 70
     0
  9
$DIMSE2
 70
     0
  9
$DIMTAD
 70
     0
  9
$DIMZIN
 70
     0
  9
$DIMBLK
  1

  9
$DIMASO
 70
     1
  9
$DIMSHO
 70
     1
  9
$DIMPOST
  1

  9
$DIMAPOST
  1

  9
$DIMALT
 70
     0
  9
$DIMALTD
 70
     2
  9
$DIMALTF
 40
25.4
  9
$DIMLFAC
 40
1.0
  9
$DIMTOFL
 70
     0
  9
$DIMTVP
 40
0.0
  9
$DIMTIX
 70
     0
  9
$DIMSOXD
 70
     0
  9
$DIMSAH
 70
     0
  9
$DIMBLK1
  1

  9
$DIMBLK2
  1

  9
$DIMSTYLE
  2
STANDARD
  9
$DIMCLRD
 70
     0
  9
$DIMCLRE
 70
     0
  9
$DIMCLRT
 70
     0
  9
$DIMTFAC
 40
1.0
  9
$DIMGAP
 40
0.09
  9
$DIMJUST
 70
     0
  9
$DIMSD1
 70
     0
  9
$DIMSD2
 70
     0
  9
$DIMTOLJ
 70
     1
  9
$DIMTZIN
 70
     0
  9
$DIMALTZ
 70
     0
  9
$DIMALTTZ
 70
     0
  9
$DIMUPT
 70
     0
  9
$DIMDEC
 70
     4
  9
$DIMTDEC
 70
     4
  9
$DIMALTU
 70
     2
  9
$DIMALTTD
 70
     2
  9
$DIMTXSTY
  7
Standard
  9
$DIMAUNIT
 70
     0
  9
$DIMADEC
 70
     0
  9
$DIMALTRND
 40
0.0
  9
$DIMAZIN
 70
     0
  9
$DIMDSEP
 70
    46
  9
$DIMATFIT
 70
     3
  9
$DIMFRAC
 70
     0
  9
$DIMLDRBLK
  1

  9
$DIMLUNIT
 70
     2
  9
$DIMLWD
 70
    -2
  9
$DIMLWE
 70
    -2
  9
$DIMTMOVE
 70
     0
  9
$LUNITS
 70
     2
  9
$LUPREC
 70
     4
  9
$SKETCHINC
 40
0.1
  9
$FILLETRAD
 40
0.5
  9
$AUNITS
 70
     0
  9
$AUPREC
 70
     0
  9
$MENU
  1
.
  9
$ELEVATION
 40
0.0
  9
$PELEVATION
 40
0.0
  9
$THICKNESS
 40
0.0
  9
$LIMCHECK
 70
     0
  9
$CHAMFERA
 40
0.0
  9
$CHAMFERB
 40
0.0
  9
$CHAMFERC
 40
0.0
  9
$CHAMFERD
 40
0.0
  9
$SKPOLY
 70
     0
  9
$TDCREATE
 40
2447893.375
  9
$TDUCREATE
 40
0.0
  9
$TDUPDATE
 40
2460864.666988947
  9
$TDUUPDATE
 40
2460864.291988947
  9
$TDINDWG
 40
0.0033420602
  9
$TDUSRTIMER
 40
0.0033420602
  9
$USRTIMER
 70
     1
  9
$ANGBASE
 50
0.0
  9
$ANGDIR
 70
     0
  9
$PDMODE
 70
     0
  9
$PDSIZE
 40
0.0
  9
$PLINEWID
 40
0.0
  9
$SPLFRAME
 70
     0
  9
$SPLINETYPE
 70
     6
  9
$SPLINESEGS
 70
     8
  9
$HANDSEED
  5
106AD25
  9
$SURFTAB1
 70
     6
  9
$SURFTAB2
 70
     6
  9
$SURFTYPE
 70
     6
  9
$SURFU
 70
     6
  9
$SURFV
 70
     6
  9
$UCSBASE
  2

  9
$UCSNAME
  2

  9
$UCSORG
 10
0.0
 20
0.0
 30
0.0
  9
$UCSXDIR
 10
1.0
 20
0.0
 30
0.0
  9
$UCSYDIR
 10
0.0
 20
1.0
 30
0.0
  9
$UCSORTHOREF
  2

  9
$UCSORTHOVIEW
 70
     0
  9
$UCSORGTOP
 10
0.0
 20
0.0
 30
0.0
  9
$UCSORGBOTTOM
 10
0.0
 20
0.0
 30
0.0
  9
$UCSORGLEFT
 10
0.0
 20
0.0
 30
0.0
  9
$UCSORGRIGHT
 10
0.0
 20
0.0
 30
0.0
  9
$UCSORGFRONT
 10
0.0
 20
0.0
 30
0.0
  9
$UCSORGBACK
 10
0.0
 20
0.0
 30
0.0
  9
$PUCSBASE
  2

  9
$PUCSNAME
  2

  9
$PUCSORG
 10
0.0
 20
0.0
 30
0.0
  9
$PUCSXDIR
 10
1.0
 20
0.0
 30
0.0
  9
$PUCSYDIR
 10
0.0
 20
1.0
 30
0.0
  9
$PUCSORTHOREF
  2

  9
$PUCSORTHOVIEW
 70
     0
  9
$PUCSORGTOP
 10
0.0
 20
0.0
 30
0.0
  9
$PUCSORGBOTTOM
 10
0.0
 20
0.0
 30
0.0
  9
$PUCSORGLEFT
 10
0.0
 20
0.0
 30
0.0
  9
$PUCSORGRIGHT
 10
0.0
 20
0.0
 30
0.0
  9
$PUCSORGFRONT
 10
0.0
 20
0.0
 30
0.0
  9
$PUCSORGBACK
 10
0.0
 20
0.0
 30
0.0
  9
$USERI1
 70
     0
  9
$USERI2
 70
     0
  9
$USERI3
 70
     0
  9
$USERI4
 70
     0
  9
$USERI5
 70
     0
  9
$USERR1
 40
0.0
  9
$USERR2
 40
0.0
  9
$USERR3
 40
0.0
  9
$USERR4
 40
0.0
  9
$USERR5
 40
0.0
  9
$WORLDVIEW
 70
     1
  9
$SHADEDGE
 70
     3
  9
$SHADEDIF
 70
    70
  9
$TILEMODE
 70
     1
  9
$MAXACTVP
 70
    64
  9
$PINSBASE
 10
0.0
 20
0.0
 30
0.0
  9
$PLIMCHECK
 70
     0
  9
$PEXTMIN
 10
1.000000000000000E+20
 20
1.000000000000000E+20
 30
1.000000000000000E+20
  9
$PEXTMAX
 10
-1.000000000000000E+20
 20
-1.000000000000000E+20
 30
-1.000000000000000E+20
  9
$PLIMMIN
 10
0.0
 20
0.0
  9
$PLIMMAX
 10
0.0
 20
0.0
  9
$UNITMODE
 70
     0
  9
$VISRETAIN
 70
     1
  9
$PLINEGEN
 70
     0
  9
$PSLTSCALE
 70
     1
  9
$TREEDEPTH
 70
  3020
  9
$CMLSTYLE
  2
Standard
  9
$CMLJUST
 70
     0
  9
$CMLSCALE
 40
1.0
  9
$PROXYGRAPHICS
 70
     1
  9
$MEASUREMENT
 70
     0
  9
$CELWEIGHT
370
    -1
  9
$ENDCAPS
280
     0
  9
$JOINSTYLE
280
     0
  9
$LWDISPLAY
290
     0
  9
$INSUNITS
 70
     0
  9
$HYPERLINKBASE
  1

  9
$STYLESHEET
  1

  9
$XEDIT
290
     1
  9
$CEPSNTYPE
380
     0
  9
$PSTYLEMODE
290
     1
  9
$FINGERPRINTGUID
  2
{9e8fb0a8-d329-4869-8067-3495aa3a4616}
  9
$VERSIONGUID
  2
{FAEB1C32-E019-11D5-929B-00C0DF256EC4}
  9
$EXTNAMES
290
     1
  9
$PSVPSCALE
 40
0.0
  9
$OLESTARTUP
290
     0
  0
ENDSEC
  0
SECTION
  2
CLASSES
  0
CLASS
  1
IMAGEDEF
  2
AcDbRasterImageDef
  3
ISM
 90
        0
280
     0
281
     0
  0
CLASS
  1
IMAGE
  2
AcDbRasterImage
  3
ISM
 90
      127
280
     0
281
     1
  0
CLASS
  1
IMAGEDEF_REACTOR
  2
AcDbRasterImageDefReactor
  3
ISM
 90
        1
280
     0
281
     0
  0
CLASS
  1
ACDBDICTIONARYWDFLT
  2
AcDbDictionaryWithDefault
  3
ObjectDBX Classes
 90
        0
280
     0
281
     0
  0
CLASS
  1
SCALE
  2
AcDbScale
  3
ObjectDBX Classes
 90
     1153
280
     0
281
     0
  0
CLASS
  1
MATERIAL
  2
AcDbMaterial
  3
ObjectDBX Classes
 90
     1153
280
     0
281
     0
  0
CLASS
  1
VISUALSTYLE
  2
AcDbVisualStyle
  3
ObjectDBX Classes
 90
     4095
280
     0
281
     0
  0
CLASS
  1
TABLESTYLE
  2
AcDbTableStyle
  3
ObjectDBX Classes
 90
     4095
280
     0
281
     0
  0
CLASS
  1
MLEADERSTYLE
  2
AcDbMLeaderStyle
  3
ACDB_MLEADERSTYLE_CLASS
 90
     4095
280
     0
281
     0
  0
CLASS
  1
SUN
  2
AcDbSun
  3
SCENEOE
 90
     1153
280
     0
281
     0
  0
CLASS
  1
RASTERVARIABLES
  2
AcDbRasterVariables
  3
ISM
 90
        0
280
     0
281
     0
  0
CLASS
  1
DICTIONARYVAR
  2
AcDbDictionaryVar
  3
ObjectDBX Classes
 90
        0
280
     0
281
     0
  0
CLASS
  1
ACDBPLACEHOLDER
  2
AcDbPlaceHolder
  3
ObjectDBX Classes
 90
        0
280
     0
281
     0
  0
CLASS
  1
LAYOUT
  2
AcDbLayout
  3
ObjectDBX Classes
 90
        0
280
     0
281
     0
  0
ENDSEC
  0
SECTION
  2
TABLES
  0
TABLE
  2
VPORT
  5
2
102
{ACAD_XDICTIONARY
360
106ACEA
102
}
330
0
100
AcDbSymbolTable
 70
     1
  0
VPORT
  5
106AB91
330
2
100
AcDbSymbolTableRecord
100
AcDbViewportTableRecord
  2
*Active
 70
     0
 10
0.0
 20
0.0
 11
1.0
 21
1.0
 12
60.0
 22
0.0
 13
0.0
 23
0.0
 14
0.5
 24
0.5
 15
0.5
 25
0.5
 16
0.0
 26
0.0
 36
1.0
 17
0.0
 27
0.0
 37
0.0
 40
91.8
 41
2.05750350631136
 42
50.0
 43
0.0
 44
0.0
 50
0.0
 51
0.0
 71
    16
 72
   100
 73
     1
 74
     3
 75
     0
 76
     0
 77
     0
 78
     0
281
     0
 65
     1
110
0.0
120
0.0
130
0.0
111
1.0
121
0.0
131
0.0
112
0.0
122
1.0
132
0.0
 79
     0
146
0.0
  0
ENDTAB
  0
TABLE
  2
LTYPE
  5
3
330
0
100
AcDbSymbolTable
 70
     3
  0
LTYPE
  5
4
330
3
100
AcDbSymbolTableRecord
100
AcDbLinetypeTableRecord
  2
ByBlock
 70
     0
  3

 72
    65
 73
     0
 40
0.0
  0
LTYPE
  5
5
330
3
100
AcDbSymbolTableRecord
100
AcDbLinetypeTableRecord
  2
ByLayer
 70
     0
  3

 72
    65
 73
     0
 40
0.0
  0
LTYPE
  5
6
330
3
100
AcDbSymbolTableRecord
100
AcDbLinetypeTableRecord
  2
CONTINUOUS
 70
     0
  3
Solid Line
 72
    65
 73
     0
 40
0.0
  0
LTYPE
  5
7
330
3
100
AcDbSymbolTableRecord
100
AcDbLinetypeTableRecord
  2
DASH
 70
     0
  3
Hidden
 72
    65
 73
     2
 40
2.5
 49
1.5
 74
     0
 49
-1.0
 74
     0
  0
LTYPE
  5
8
330
3
100
AcDbSymbolTableRecord
100
AcDbLinetypeTableRecord
  2
LONGDASHDASH
 70
     0
  3
__ . __
 72
    65
 73
     4
 40
7.0
 49
4.0
 74
     0
 49
-1.0
 74
     0
 49
1.0
 74
     0
 49
-1.0
 74
     0
  0
ENDTAB
  0
TABLE
  2
LAYER
  5
9
330
0
100
AcDbSymbolTable
 70
    11
  0
LAYER
  5
A
330
9
100
AcDbSymbolTableRecord
100
AcDbLayerTableRecord
  2
0
 70
     0
 62
     7
  6
CONTINUOUS
370
    -3
390
106AB96
  0
LAYER
  5
C
330
9
100
AcDbSymbolTableRecord
100
AcDbLayerTableRecord
  2
1
 70
     0
 62
     4
  6
CONTINUOUS
370
    50
390
106AB96
  0
LAYER
  5
D
330
9
100
AcDbSymbolTableRecord
100
AcDbLayerTableRecord
  2
2
 70
     0
 62
     7
  6
CONTINUOUS
370
    25
390
106AB96
  0
LAYER
  5
F
330
9
100
AcDbSymbolTableRecord
100
AcDbLayerTableRecord
  2
4
 70
     0
 62
     2
  6
LONGDASHDASH
370
    25
390
106AB96
  0
LAYER
  5
13
330
9
100
AcDbSymbolTableRecord
100
AcDbLayerTableRecord
  2
SK1
 70
     0
 62
     4
  6
CONTINUOUS
370
    50
390
106AB96
  0
LAYER
  5
14
330
9
100
AcDbSymbolTableRecord
100
AcDbLayerTableRecord
  2
SK2
 70
     0
 62
     7
  6
CONTINUOUS
370
    25
390
106AB96
  0
LAYER
  5
16
330
9
100
AcDbSymbolTableRecord
100
AcDbLayerTableRecord
  2
SK4
 70
     0
 62
     2
  6
LONGDASHDASH
370
    25
390
106AB96
  0
LAYER
  5
21
330
9
100
AcDbSymbolTableRecord
100
AcDbLayerTableRecord
  2
NOCUT
 70
     0
 62
     7
  6
CONTINUOUS
370
    25
390
106AB96
  0
LAYER
  5
22
330
9
100
AcDbSymbolTableRecord
100
AcDbLayerTableRecord
  2
CUT
 70
     0
 62
     1
  6
CONTINUOUS
370
    25
390
106AB96
  0
LAYER
  5
26
330
9
100
AcDbSymbolTableRecord
100
AcDbLayerTableRecord
  2
INFTOTAL
 70
     0
 62
     9
  6
CONTINUOUS
370
    18
390
106AB96
  0
LAYER
  5
106ABE1
330
9
100
AcDbSymbolTableRecord
100
AcDbLayerTableRecord
  2
Defpoints
 70
     0
 62
     7
  6
CONTINUOUS
290
     0
370
    -3
390
106AB96
  0
ENDTAB
  0
TABLE
  2
STYLE
  5
27
330
0
100
AcDbSymbolTable
 70
     2
  0
STYLE
  5
28
330
27
100
AcDbSymbolTableRecord
100
AcDbTextStyleTableRecord
  2
Monospac821 BT
 70
     0
 40
3.5
 41
1.0
 50
0.0
 71
     0
 42
3.0
  3

  4

1001
ACAD
1000
Monospac821 BT
1071
      256
  0
STYLE
  5
106AB90
330
27
100
AcDbSymbolTableRecord
100
AcDbTextStyleTableRecord
  2
Standard
 70
     0
 40
0.0
 41
1.0
 50
0.0
 71
     0
 42
0.2
  3
txt
  4

  0
ENDTAB
  0
TABLE
  2
VIEW
  5
29
330
0
100
AcDbSymbolTable
 70
     0
  0
ENDTAB
  0
TABLE
  2
UCS
  5
2A
330
0
100
AcDbSymbolTable
 70
     0
  0
ENDTAB
  0
TABLE
  2
APPID
  5
2B
330
0
100
AcDbSymbolTable
 70
     5
  0
APPID
  5
2C
330
2B
100
AcDbSymbolTableRecord
100
AcDbRegAppTableRecord
  2
ACAD
 70
     0
  0
APPID
  5
106AC17
330
2B
100
AcDbSymbolTableRecord
100
AcDbRegAppTableRecord
  2
FX_DIMP_FAV_VERSION
 70
     0
  0
APPID
  5
106ACE8
330
2B
100
AcDbSymbolTableRecord
100
AcDbRegAppTableRecord
  2
ACAD_DSTYLE_DIMFLIPARROW_SYMBOL
 70
     0
  0
APPID
  5
106ACE9
330
2B
100
AcDbSymbolTableRecord
100
AcDbRegAppTableRecord
  2
ACAD_DSTYLE_DIMFLIPARROW_WHICH_SYMBOL
 70
     0
  0
APPID
  5
106AD22
330
2B
100
AcDbSymbolTableRecord
100
AcDbRegAppTableRecord
  2
ACAD_MLEADERVER
 70
     0
  0
ENDTAB
  0
TABLE
  2
DIMSTYLE
  5
2D
330
0
100
AcDbSymbolTable
 70
     1
100
AcDbDimStyleTable
  0
DIMSTYLE
105
2E
102
{ACAD_REACTORS
330
106ABF6
330
106AC06
330
106AC23
330
106AC36
330
106AC53
330
106AC66
330
106AC81
330
106AC91
102
}
330
2D
100
AcDbSymbolTableRecord
100
AcDbDimStyleTableRecord
  2
STANDARD
 70
     0
 41
3.0
 42
0.5
 44
1.0
 73
     0
 77
     1
 78
     1
140
3.5
141
2.5
143
0.03937007874
147
0.8
172
     1
174
     1
178
     0
179
     1
271
     2
279
     1
284
     1
340
28
  0
ENDTAB
  0
TABLE
  2
BLOCK_RECORD
  5
2F
330
0
100
AcDbSymbolTable
 70
    15
  0
BLOCK_RECORD
  5
30
102
{ACAD_XDICTIONARY
360
106AC9E
102
}
330
2F
100
AcDbSymbolTableRecord
100
AcDbBlockTableRecord
  2
*Model_Space
340
106AB98
  0
BLOCK_RECORD
  5
31
330
2F
100
AcDbSymbolTableRecord
100
AcDbBlockTableRecord
  2
*Paper_Space
340
106AB99
  0
BLOCK_RECORD
  5
40B
330
2F
100
AcDbSymbolTableRecord
100
AcDbBlockTableRecord
  2
*D0
340
0
  0
BLOCK_RECORD
  5
419
330
2F
100
AcDbSymbolTableRecord
100
AcDbBlockTableRecord
  2
*D1
340
0
  0
BLOCK_RECORD
  5
427
330
2F
100
AcDbSymbolTableRecord
100
AcDbBlockTableRecord
  2
*D2
340
0
  0
BLOCK_RECORD
  5
435
330
2F
100
AcDbSymbolTableRecord
100
AcDbBlockTableRecord
  2
*D3
340
0
  0
BLOCK_RECORD
  5
443
330
2F
100
AcDbSymbolTableRecord
100
AcDbBlockTableRecord
  2
*D4
340
0
  0
BLOCK_RECORD
  5
451
330
2F
100
AcDbSymbolTableRecord
100
AcDbBlockTableRecord
  2
*D5
340
0
  0
BLOCK_RECORD
  5
45F
330
2F
100
AcDbSymbolTableRecord
100
AcDbBlockTableRecord
  2
*D6
340
0
  0
BLOCK_RECORD
  5
106ABF7
330
2F
100
AcDbSymbolTableRecord
100
AcDbBlockTableRecord
  2
*D8
340
0
  0
BLOCK_RECORD
  5
106AC07
330
2F
100
AcDbSymbolTableRecord
100
AcDbBlockTableRecord
  2
*D9
340
0
  0
BLOCK_RECORD
  5
106AC24
330
2F
100
AcDbSymbolTableRecord
100
AcDbBlockTableRecord
  2
*D11
340
0
  0
BLOCK_RECORD
  5
106AC37
330
2F
100
AcDbSymbolTableRecord
100
AcDbBlockTableRecord
  2
*D12
340
0
  0
BLOCK_RECORD
  5
106AC54
330
2F
100
AcDbSymbolTableRecord
100
AcDbBlockTableRecord
  2
*D14
340
0
  0
BLOCK_RECORD
  5
106AC67
330
2F
100
AcDbSymbolTableRecord
100
AcDbBlockTableRecord
  2
*D15
340
0
  0
BLOCK_RECORD
  5
106AC82
330
2F
100
AcDbSymbolTableRecord
100
AcDbBlockTableRecord
  2
*D17
340
0
  0
BLOCK_RECORD
  5
106AC92
330
2F
100
AcDbSymbolTableRecord
100
AcDbBlockTableRecord
  2
*D18
340
0
  0
ENDTAB
  0
ENDSEC
  0
SECTION
  2
BLOCKS
  0
BLOCK
  5
32
330
30
100
AcDbEntity
  8
0
100
AcDbBlockBegin
  2
*Model_Space
 70
     0
 10
0.0
 20
0.0
 30
0.0
  3
*Model_Space
  1

  0
ENDBLK
  5
33
330
30
100
AcDbEntity
  8
0
100
AcDbBlockEnd
  0
BLOCK
  5
34
330
31
100
AcDbEntity
 67
     1
  8
0
100
AcDbBlockBegin
  2
*Paper_Space
 70
     0
 10
0.0
 20
0.0
 30
0.0
  3
*Paper_Space
  1

  0
ENDBLK
  5
35
330
31
100
AcDbEntity
 67
     1
  8
0
100
AcDbBlockEnd
  0
BLOCK
  5
409
330
40B
100
AcDbEntity
  8
SK2
100
AcDbBlockBegin
  2
*D0
 70
     1
 10
0.0
 20
0.0
 30
0.0
  3
*D0
  1

  0
LINE
  5
40C
330
40B
100
AcDbEntity
  8
SK2
 62
     0
370
    -2
100
AcDbLine
 10
90.0
 20
-4.4
 30
0.0
 11
90.0
 21
-41.0
 31
0.0
  0
LINE
  5
40D
330
40B
100
AcDbEntity
  8
SK2
 62
     0
370
    -2
100
AcDbLine
 10
0.0
 20
-4.422168825983
 30
0.0
 11
0.0
 21
-41.0
 31
0.0
  0
LINE
  5
40E
330
40B
100
AcDbEntity
  8
SK2
 62
     0
370
    -2
100
AcDbLine
 10
87.0
 20
-40.0
 30
0.0
 11
3.0
 21
-40.0
 31
0.0
  0
SOLID
  5
40F
330
40B
100
AcDbEntity
  8
SK2
 62
     0
100
AcDbTrace
 10
87.0
 20
-40.5
 30
0.0
 11
87.0
 21
-39.5
 31
0.0
 12
90.0
 22
-40.0
 32
0.0
 13
90.0
 23
-40.0
 33
0.0
  0
SOLID
  5
410
330
40B
100
AcDbEntity
  8
SK2
 62
     0
100
AcDbTrace
 10
3.0
 20
-39.5
 30
0.0
 11
3.0
 21
-40.5
 31
0.0
 12
0.0
 22
-40.0
 32
0.0
 13
0.0
 23
-40.0
 33
0.0
  0
MTEXT
  5
411
330
40B
100
AcDbEntity
  8
SK2
  6
ByBlock
 62
     0
100
AcDbMText
 10
45.0
 20
-37.38875
 30
0.0
 40
3.5
 41
0.0
 71
     5
 72
     1
  1
\A1;90
 73
     1
 44
1.0
  0
POINT
  5
412
330
40B
100
AcDbEntity
  8
Defpoints
 62
     0
100
AcDbPoint
 10
90.0
 20
-3.9
 30
0.0
  0
POINT
  5
413
330
40B
100
AcDbEntity
  8
Defpoints
 62
     0
100
AcDbPoint
 10
0.0
 20
-3.922168825983
 30
0.0
  0
POINT
  5
414
330
40B
100
AcDbEntity
  8
Defpoints
 62
     0
100
AcDbPoint
 10
0.0
 20
-40.0
 30
0.0
  0
ENDBLK
  5
415
330
40B
100
AcDbEntity
  8
SK2
100
AcDbBlockEnd
  0
BLOCK
  5
417
330
419
100
AcDbEntity
  8
SK2
100
AcDbBlockBegin
  2
*D1
 70
     1
 10
0.0
 20
0.0
 30
0.0
  3
*D1
  1

  0
LINE
  5
41A
330
419
100
AcDbEntity
  8
SK2
 62
     0
370
    -2
100
AcDbLine
 10
25.0
 20
4.838500000000002
 30
0.0
 11
25.0
 21
28.67775
 31
0.0
  0
LINE
  5
41B
330
419
100
AcDbEntity
  8
SK2
 62
     0
370
    -2
100
AcDbLine
 10
25.0
 20
-4.838499999999989
 30
0.0
 11
25.0
 21
4.838500000000002
 31
0.0
  0
LINE
  5
41C
330
419
100
AcDbEntity
  8
SK2
 62
     0
370
    -2
100
AcDbLine
 10
25.0
 20
-7.838499999999989
 30
0.0
 11
25.0
 21
-10.83849999999999
 31
0.0
  0
LINE
  5
41D
330
419
100
AcDbEntity
  8
SK2
 62
     0
370
    -2
100
AcDbLine
 10
25.0
 20
7.838500000000002
 30
0.0
 11
25.0
 21
10.8385
 31
0.0
  0
SOLID
  5
41E
330
419
100
AcDbEntity
  8
SK2
 62
     0
100
AcDbTrace
 10
25.5
 20
-7.838499999999989
 30
0.0
 11
24.5
 21
-7.838499999999989
 31
0.0
 12
25.0
 22
-4.838499999999989
 32
0.0
 13
25.0
 23
-4.838499999999989
 33
0.0
  0
SOLID
  5
41F
330
419
100
AcDbEntity
  8
SK2
 62
     0
100
AcDbTrace
 10
24.5
 20
7.838500000000002
 30
0.0
 11
25.5
 21
7.838500000000002
 31
0.0
 12
25.0
 22
4.838500000000002
 32
0.0
 13
25.0
 23
4.838500000000002
 33
0.0
  0
MTEXT
  5
420
330
419
100
AcDbEntity
  8
SK2
  6
ByBlock
 62
     0
100
AcDbMText
 10
22.338
 20
19.0
 30
0.0
 40
3.5
 41
0.0
 71
     5
 72
     1
  1
\A1;%%c9.677
 11
0.0
 21
1.0
 31
0.0
 73
     1
 44
1.0
  0
POINT
  5
421
330
419
100
AcDbEntity
  8
Defpoints
 62
     0
100
AcDbPoint
 10
1.0
 20
-4.8385
 30
0.0
  0
POINT
  5
422
330
419
100
AcDbEntity
  8
Defpoints
 62
     0
100
AcDbPoint
 10
1.0
 20
4.8385
 30
0.0
  0
POINT
  5
106ABE4
330
419
100
AcDbEntity
  8
Defpoints
 62
     0
100
AcDbPoint
 10
25.0
 20
4.838500000000002
 30
0.0
  0
ENDBLK
  5
423
330
419
100
AcDbEntity
  8
SK2
100
AcDbBlockEnd
  0
BLOCK
  5
425
330
427
100
AcDbEntity
  8
SK2
100
AcDbBlockBegin
  2
*D2
 70
     1
 10
0.0
 20
0.0
 30
0.0
  3
*D2
  1

  0
LINE
  5
428
330
427
100
AcDbEntity
  8
SK2
 62
     0
370
    -2
100
AcDbLine
 10
11.1
 20
-5.3385
 30
0.0
 11
11.1
 21
-17.0
 31
0.0
  0
LINE
  5
429
330
427
100
AcDbEntity
  8
SK2
 62
     0
370
    -2
100
AcDbLine
 10
0.0
 20
-5.3385
 30
0.0
 11
0.0
 21
-17.0
 31
0.0
  0
LINE
  5
42A
330
427
100
AcDbEntity
  8
SK2
 62
     0
370
    -2
100
AcDbLine
 10
0.0
 20
-16.0
 30
0.0
 11
-14.967
 21
-16.0
 31
0.0
  0
LINE
  5
42B
330
427
100
AcDbEntity
  8
SK2
 62
     0
370
    -2
100
AcDbLine
 10
11.1
 20
-16.0
 30
0.0
 11
0.0
 21
-16.0
 31
0.0
  0
LINE
  5
42C
330
427
100
AcDbEntity
  8
SK2
 62
     0
370
    -2
100
AcDbLine
 10
14.1
 20
-16.0
 30
0.0
 11
17.1
 21
-16.0
 31
0.0
  0
LINE
  5
42D
330
427
100
AcDbEntity
  8
SK2
 62
     0
370
    -2
100
AcDbLine
 10
-3.0
 20
-16.0
 30
0.0
 11
-6.0
 21
-16.0
 31
0.0
  0
SOLID
  5
42E
330
427
100
AcDbEntity
  8
SK2
 62
     0
100
AcDbTrace
 10
14.1
 20
-15.5
 30
0.0
 11
14.1
 21
-16.5
 31
0.0
 12
11.1
 22
-16.0
 32
0.0
 13
11.1
 23
-16.0
 33
0.0
  0
SOLID
  5
42F
330
427
100
AcDbEntity
  8
SK2
 62
     0
100
AcDbTrace
 10
-3.0
 20
-16.5
 30
0.0
 11
-3.0
 21
-15.5
 31
0.0
 12
0.0
 22
-16.0
 32
0.0
 13
0.0
 23
-16.0
 33
0.0
  0
MTEXT
  5
430
330
427
100
AcDbEntity
  8
SK2
  6
ByBlock
 62
     0
100
AcDbMText
 10
-8.9835
 20
-13.4395
 30
0.0
 40
3.5
 41
0.0
 71
     5
 72
     1
  1
\A1;11.1
 73
     1
 44
1.0
  0
POINT
  5
106ABE8
330
427
100
AcDbEntity
  8
Defpoints
 62
     0
100
AcDbPoint
 10
11.1
 20
-4.8385
 30
0.0
  0
POINT
  5
106ABE9
330
427
100
AcDbEntity
  8
Defpoints
 62
     0
100
AcDbPoint
 10
0.0
 20
-4.8385
 30
0.0
  0
POINT
  5
106ABEA
330
427
100
AcDbEntity
  8
Defpoints
 62
     0
100
AcDbPoint
 10
0.0
 20
-16.0
 30
0.0
  0
ENDBLK
  5
431
330
427
100
AcDbEntity
  8
SK2
100
AcDbBlockEnd
  0
BLOCK
  5
433
330
435
100
AcDbEntity
  8
2
100
AcDbBlockBegin
  2
*D3
 70
     1
 10
0.0
 20
0.0
 30
0.0
  3
*D3
  1

  0
LINE
  5
436
330
435
100
AcDbEntity
  8
2
 62
     0
370
    -2
100
AcDbLine
 10
90.0
 20
-4.4
 30
0.0
 11
90.0
 21
-25.0
 31
0.0
  0
LINE
  5
437
330
435
100
AcDbEntity
  8
2
 62
     0
370
    -2
100
AcDbLine
 10
75.0
 20
-5.0
 30
0.0
 11
75.0
 21
-25.0
 31
0.0
  0
LINE
  5
438
330
435
100
AcDbEntity
  8
2
 62
     0
370
    -2
100
AcDbLine
 10
87.0
 20
-24.0
 30
0.0
 11
78.0
 21
-24.0
 31
0.0
  0
SOLID
  5
439
330
435
100
AcDbEntity
  8
2
 62
     0
100
AcDbTrace
 10
87.0
 20
-24.5
 30
0.0
 11
87.0
 21
-23.5
 31
0.0
 12
90.0
 22
-24.0
 32
0.0
 13
90.0
 23
-24.0
 33
0.0
  0
SOLID
  5
43A
330
435
100
AcDbEntity
  8
2
 62
     0
100
AcDbTrace
 10
78.0
 20
-23.5
 30
0.0
 11
78.0
 21
-24.5
 31
0.0
 12
75.0
 22
-24.0
 32
0.0
 13
75.0
 23
-24.0
 33
0.0
  0
MTEXT
  5
43B
330
435
100
AcDbEntity
  8
2
  6
ByBlock
 62
     0
100
AcDbMText
 10
82.5
 20
-21.38875
 30
0.0
 40
3.5
 41
0.0
 71
     5
 72
     1
  1
\A1;15
 73
     1
 44
1.0
  0
POINT
  5
43C
330
435
100
AcDbEntity
  8
Defpoints
 62
     0
100
AcDbPoint
 10
90.0
 20
-3.9
 30
0.0
  0
POINT
  5
43D
330
435
100
AcDbEntity
  8
Defpoints
 62
     0
100
AcDbPoint
 10
75.0
 20
-4.5
 30
0.0
  0
POINT
  5
43E
330
435
100
AcDbEntity
  8
Defpoints
 62
     0
100
AcDbPoint
 10
75.0
 20
-24.0
 30
0.0
  0
ENDBLK
  5
43F
330
435
100
AcDbEntity
  8
2
100
AcDbBlockEnd
  0
BLOCK
  5
441
330
443
100
AcDbEntity
  8
2
100
AcDbBlockBegin
  2
*D4
 70
     1
 10
0.0
 20
0.0
 30
0.0
  3
*D4
  1

  0
LINE
  5
444
330
443
100
AcDbEntity
  8
2
 62
     0
370
    -2
100
AcDbLine
 10
90.0
 20
-4.4
 30
0.0
 11
90.0
 21
-33.0
 31
0.0
  0
LINE
  5
445
330
443
100
AcDbEntity
  8
2
 62
     0
370
    -2
100
AcDbLine
 10
55.0
 20
-4.1
 30
0.0
 11
55.0
 21
-33.0
 31
0.0
  0
LINE
  5
446
330
443
100
AcDbEntity
  8
2
 62
     0
370
    -2
100
AcDbLine
 10
87.0
 20
-32.0
 30
0.0
 11
58.0
 21
-32.0
 31
0.0
  0
SOLID
  5
447
330
443
100
AcDbEntity
  8
2
 62
     0
100
AcDbTrace
 10
87.0
 20
-32.5
 30
0.0
 11
87.0
 21
-31.5
 31
0.0
 12
90.0
 22
-32.0
 32
0.0
 13
90.0
 23
-32.0
 33
0.0
  0
SOLID
  5
448
330
443
100
AcDbEntity
  8
2
 62
     0
100
AcDbTrace
 10
58.0
 20
-31.5
 30
0.0
 11
58.0
 21
-32.5
 31
0.0
 12
55.0
 22
-32.0
 32
0.0
 13
55.0
 23
-32.0
 33
0.0
  0
MTEXT
  5
449
330
443
100
AcDbEntity
  8
2
  6
ByBlock
 62
     0
100
AcDbMText
 10
72.5
 20
-29.38875
 30
0.0
 40
3.5
 41
0.0
 71
     5
 72
     1
  1
\A1;35
 73
     1
 44
1.0
  0
POINT
  5
44A
330
443
100
AcDbEntity
  8
Defpoints
 62
     0
100
AcDbPoint
 10
90.0
 20
-3.9
 30
0.0
  0
POINT
  5
44B
330
443
100
AcDbEntity
  8
Defpoints
 62
     0
100
AcDbPoint
 10
55.0
 20
-3.6
 30
0.0
  0
POINT
  5
44C
330
443
100
AcDbEntity
  8
Defpoints
 62
     0
100
AcDbPoint
 10
55.0
 20
-32.0
 30
0.0
  0
ENDBLK
  5
44D
330
443
100
AcDbEntity
  8
2
100
AcDbBlockEnd
  0
BLOCK
  5
44F
330
451
100
AcDbEntity
  8
2
100
AcDbBlockBegin
  2
*D5
 70
     1
 10
0.0
 20
0.0
 30
0.0
  3
*D5
  1

  0
LINE
  5
452
330
451
100
AcDbEntity
  8
2
 62
     0
370
    -2
100
AcDbLine
 10
64.220577136594
 20
3.6
 30
0.0
 11
64.220577136594
 21
22.84799999999999
 31
0.0
  0
LINE
  5
453
330
451
100
AcDbEntity
  8
2
 62
     0
370
    -2
100
AcDbLine
 10
64.220577136594
 20
-3.6
 30
0.0
 11
64.220577136594
 21
3.6
 31
0.0
  0
LINE
  5
454
330
451
100
AcDbEntity
  8
2
 62
     0
370
    -2
100
AcDbLine
 10
64.220577136594
 20
-6.6
 30
0.0
 11
64.220577136594
 21
-9.6
 31
0.0
  0
LINE
  5
455
330
451
100
AcDbEntity
  8
2
 62
     0
370
    -2
100
AcDbLine
 10
64.220577136594
 20
6.6
 30
0.0
 11
64.220577136594
 21
9.6
 31
0.0
  0
SOLID
  5
456
330
451
100
AcDbEntity
  8
2
 62
     0
100
AcDbTrace
 10
64.720577136594
 20
-6.6
 30
0.0
 11
63.720577136594
 21
-6.6
 31
0.0
 12
64.220577136594
 22
-3.6
 32
0.0
 13
64.220577136594
 23
-3.6
 33
0.0
  0
SOLID
  5
457
330
451
100
AcDbEntity
  8
2
 62
     0
100
AcDbTrace
 10
63.720577136594
 20
6.6
 30
0.0
 11
64.720577136594
 21
6.6
 31
0.0
 12
64.220577136594
 22
3.6
 32
0.0
 13
64.220577136594
 23
3.6
 33
0.0
  0
MTEXT
  5
458
330
451
100
AcDbEntity
  8
2
  6
ByBlock
 62
     0
100
AcDbMText
 10
61.558577136594
 20
16.224
 30
0.0
 40
3.5
 41
0.0
 71
     5
 72
     1
  1
\A1;%%c7.2
 11
0.0
 21
1.0
 31
0.0
 73
     1
 44
1.0
  0
POINT
  5
459
330
451
100
AcDbEntity
  8
Defpoints
 62
     0
100
AcDbPoint
 10
55.0
 20
-3.6
 30
0.0
  0
POINT
  5
45A
330
451
100
AcDbEntity
  8
Defpoints
 62
     0
100
AcDbPoint
 10
55.0
 20
3.6
 30
0.0
  0
POINT
  5
106ABE2
330
451
100
AcDbEntity
  8
Defpoints
 62
     0
100
AcDbPoint
 10
64.220577136594
 20
3.600000000000001
 30
0.0
  0
ENDBLK
  5
45B
330
451
100
AcDbEntity
  8
2
100
AcDbBlockEnd
  0
BLOCK
  5
45D
330
45F
100
AcDbEntity
  8
2
100
AcDbBlockBegin
  2
*D6
 70
     1
 10
0.0
 20
0.0
 30
0.0
  3
*D6
  1

  0
LINE
  5
460
330
45F
100
AcDbEntity
  8
2
 62
     0
370
    -2
100
AcDbLine
 10
94.25610315417
 20
0.5
 30
0.0
 11
94.25610315417
 21
36.0
 31
0.0
  0
LINE
  5
461
330
45F
100
AcDbEntity
  8
2
 62
     0
370
    -2
100
AcDbLine
 10
44.35610315417
 20
5.3385
 30
0.0
 11
44.35610315417
 21
36.0
 31
0.0
  0
LINE
  5
462
330
45F
100
AcDbEntity
  8
2
 62
     0
370
    -2
100
AcDbLine
 10
91.25610315417
 20
35.0
 30
0.0
 11
47.35610315417
 21
35.0
 31
0.0
  0
SOLID
  5
463
330
45F
100
AcDbEntity
  8
2
 62
     0
100
AcDbTrace
 10
91.25610315417
 20
34.5
 30
0.0
 11
91.25610315417
 21
35.5
 31
0.0
 12
94.25610315417
 22
35.0
 32
0.0
 13
94.25610315417
 23
35.0
 33
0.0
  0
SOLID
  5
464
330
45F
100
AcDbEntity
  8
2
 62
     0
100
AcDbTrace
 10
47.35610315417
 20
35.5
 30
0.0
 11
47.35610315417
 21
34.5
 31
0.0
 12
44.35610315417
 22
35.0
 32
0.0
 13
44.35610315417
 23
35.0
 33
0.0
  0
MTEXT
  5
465
330
45F
100
AcDbEntity
  8
2
  6
ByBlock
 62
     0
100
AcDbMText
 10
69.30610315417
 20
37.61125
 30
0.0
 40
3.5
 41
0.0
 71
     5
 72
     1
  1
\A1;49.9
 73
     1
 44
1.0
  0
POINT
  5
466
330
45F
100
AcDbEntity
  8
Defpoints
 62
     0
100
AcDbPoint
 10
94.25610315417
 20
0.0
 30
0.0
  0
POINT
  5
467
330
45F
100
AcDbEntity
  8
Defpoints
 62
     0
100
AcDbPoint
 10
44.35610315417
 20
4.8385
 30
0.0
  0
POINT
  5
468
330
45F
100
AcDbEntity
  8
Defpoints
 62
     0
100
AcDbPoint
 10
44.35610315417
 20
35.0
 30
0.0
  0
ENDBLK
  5
469
330
45F
100
AcDbEntity
  8
2
100
AcDbBlockEnd
  0
BLOCK
  5
106ABF8
330
106ABF7
100
AcDbEntity
  8
2
100
AcDbBlockBegin
  2
*D8
 70
     1
 10
0.0
 20
0.0
 30
0.0
  3
*D8
  1

  0
LINE
  5
106ABF9
330
106ABF7
100
AcDbEntity
  8
2
 62
     0
370
    -2
100
AcDbLine
 10
15.0
 20
13.4385
 30
0.0
 11
15.0
 21
0.0
 31
0.0
  0
LINE
  5
106ABFA
330
106ABF7
100
AcDbEntity
  8
2
 62
     0
370
    -2
100
AcDbLine
 10
0.0
 20
12.8385
 30
0.0
 11
0.0
 21
0.0
 31
0.0
  0
LINE
  5
106ABFB
330
106ABF7
100
AcDbEntity
  8
2
 62
     0
370
    -2
100
AcDbLine
 10
12.0
 20
1.0
 30
0.0
 11
3.0
 21
1.0
 31
0.0
  0
SOLID
  5
106ABFC
330
106ABF7
100
AcDbEntity
  8
2
 62
     0
100
AcDbTrace
 10
12.0
 20
0.5
 30
0.0
 11
12.0
 21
1.5
 31
0.0
 12
15.0
 22
1.0
 32
0.0
 13
15.0
 23
1.0
 33
0.0
  0
SOLID
  5
106ABFD
330
106ABF7
100
AcDbEntity
  8
2
 62
     0
100
AcDbTrace
 10
3.0
 20
1.5
 30
0.0
 11
3.0
 21
0.5
 31
0.0
 12
0.0
 22
1.0
 32
0.0
 13
0.0
 23
1.0
 33
0.0
  0
MTEXT
  5
106ABFE
330
106ABF7
100
AcDbEntity
  8
2
  6
ByBlock
 62
     0
100
AcDbMText
 10
7.5
 20
3.61125
 30
0.0
 40
3.5
 41
0.0
 71
     5
 72
     1
  1
\A1;15
 73
     1
 44
1.0
  0
POINT
  5
106ABFF
330
106ABF7
100
AcDbEntity
  8
Defpoints
 62
     0
100
AcDbPoint
 10
15.0
 20
13.9385
 30
0.0
  0
POINT
  5
106AC00
330
106ABF7
100
AcDbEntity
  8
Defpoints
 62
     0
100
AcDbPoint
 10
0.0
 20
13.3385
 30
0.0
  0
POINT
  5
106AC01
330
106ABF7
100
AcDbEntity
  8
Defpoints
 62
     0
100
AcDbPoint
 10
0.0
 20
1.0
 30
0.0
  0
ENDBLK
  5
106AC02
330
106ABF7
100
AcDbEntity
  8
2
100
AcDbBlockEnd
  0
BLOCK
  5
106AC08
330
106AC07
100
AcDbEntity
  8
0
100
AcDbBlockBegin
  2
*D9
 70
     1
 10
0.0
 20
0.0
 30
0.0
  3
*D9
  1

  0
LINE
  5
106AC0A
330
106AC07
100
AcDbEntity
  8
2
 62
     0
370
    -2
100
AcDbLine
 10
90.0
 20
-4.4
 30
0.0
 11
90.0
 21
-17.0
 31
0.0
  0
LINE
  5
106AC0B
330
106AC07
100
AcDbEntity
  8
2
 62
     0
370
    -2
100
AcDbLine
 10
86.0
 20
-5.0
 30
0.0
 11
86.0
 21
-17.0
 31
0.0
  0
LINE
  5
106AC0C
330
106AC07
100
AcDbEntity
  8
2
 62
     0
370
    -2
100
AcDbLine
 10
90.0
 20
-16.0
 30
0.0
 11
100.0885
 21
-16.0
 31
0.0
  0
LINE
  5
106AC0D
330
106AC07
100
AcDbEntity
  8
2
 62
     0
370
    -2
100
AcDbLine
 10
90.0
 20
-16.0
 30
0.0
 11
86.0
 21
-16.0
 31
0.0
  0
LINE
  5
106AC0E
330
106AC07
100
AcDbEntity
  8
2
 62
     0
370
    -2
100
AcDbLine
 10
93.0
 20
-16.0
 30
0.0
 11
96.0
 21
-16.0
 31
0.0
  0
LINE
  5
106AC0F
330
106AC07
100
AcDbEntity
  8
2
 62
     0
370
    -2
100
AcDbLine
 10
83.0
 20
-16.0
 30
0.0
 11
80.0
 21
-16.0
 31
0.0
  0
SOLID
  5
106AC10
330
106AC07
100
AcDbEntity
  8
2
 62
     0
100
AcDbTrace
 10
93.0
 20
-15.5
 30
0.0
 11
93.0
 21
-16.5
 31
0.0
 12
90.0
 22
-16.0
 32
0.0
 13
90.0
 23
-16.0
 33
0.0
  0
SOLID
  5
106AC11
330
106AC07
100
AcDbEntity
  8
2
 62
     0
100
AcDbTrace
 10
83.0
 20
-16.5
 30
0.0
 11
83.0
 21
-15.5
 31
0.0
 12
86.0
 22
-16.0
 32
0.0
 13
86.0
 23
-16.0
 33
0.0
  0
MTEXT
  5
106AC12
330
106AC07
100
AcDbEntity
  8
2
  6
ByBlock
 62
     0
100
AcDbMText
 10
98.04424999999999
 20
-13.45
 30
0.0
 40
3.5
 41
0.0
 71
     5
 72
     1
  1
\A1;4
 73
     1
 44
1.0
  0
POINT
  5
106AC13
330
106AC07
100
AcDbEntity
  8
Defpoints
 62
     0
100
AcDbPoint
 10
90.0
 20
-3.9
 30
0.0
  0
POINT
  5
106AC14
330
106AC07
100
AcDbEntity
  8
Defpoints
 62
     0
100
AcDbPoint
 10
86.0
 20
-4.5
 30
0.0
  0
POINT
  5
106AC15
330
106AC07
100
AcDbEntity
  8
Defpoints
 62
     0
100
AcDbPoint
 10
86.0
 20
-16.0
 30
0.0
  0
ENDBLK
  5
106AC09
330
106AC07
100
AcDbEntity
  8
0
100
AcDbBlockEnd
  0
BLOCK
  5
106AC25
330
106AC24
100
AcDbEntity
  8
2
100
AcDbBlockBegin
  2
*D11
 70
     1
 10
0.0
 20
0.0
 30
0.0
  3
*D11
  1

  0
LINE
  5
106AC26
330
106AC24
100
AcDbEntity
  8
2
 62
     0
370
    -2
100
AcDbLine
 10
3.081749999999985
 20
6.000000000000002
 30
0.0
 11
5.581749999999985
 21
5.999999999999999
 31
0.0
  0
LINE
  5
106AC27
330
106AC24
100
AcDbEntity
  8
2
 62
     0
370
    -2
100
AcDbLine
 10
3.081749999999985
 20
13.2
 30
0.0
 11
5.581749999999985
 21
13.2
 31
0.0
  0
LINE
  5
106AC28
330
106AC24
100
AcDbEntity
  8
2
 62
     0
370
    -2
100
AcDbLine
 10
4.581749999999985
 20
13.2
 30
0.0
 11
4.581749999999985
 21
33.981
 31
0.0
  0
LINE
  5
106AC29
330
106AC24
100
AcDbEntity
  8
2
 62
     0
370
    -2
100
AcDbLine
 10
4.581749999999985
 20
6.0
 30
0.0
 11
4.581749999999985
 21
13.2
 31
0.0
  0
LINE
  5
106AC2A
330
106AC24
100
AcDbEntity
  8
2
 62
     0
370
    -2
100
AcDbLine
 10
4.581749999999985
 20
3.0
 30
0.0
 11
4.581749999999985
 21
0.0
 31
0.0
  0
LINE
  5
106AC2B
330
106AC24
100
AcDbEntity
  8
2
 62
     0
370
    -2
100
AcDbLine
 10
4.581749999999985
 20
16.2
 30
0.0
 11
4.581749999999985
 21
19.2
 31
0.0
  0
SOLID
  5
106AC2C
330
106AC24
100
AcDbEntity
  8
2
 62
     0
100
AcDbTrace
 10
5.081749999999985
 20
3.0
 30
0.0
 11
4.081749999999985
 21
3.0
 31
0.0
 12
4.581749999999985
 22
6.0
 32
0.0
 13
4.581749999999985
 23
6.0
 33
0.0
  0
SOLID
  5
106AC2D
330
106AC24
100
AcDbEntity
  8
2
 62
     0
100
AcDbTrace
 10
4.081749999999985
 20
16.2
 30
0.0
 11
5.081749999999985
 21
16.2
 31
0.0
 12
4.581749999999985
 22
13.2
 32
0.0
 13
4.581749999999985
 23
13.2
 33
0.0
  0
MTEXT
  5
106AC2E
330
106AC24
100
AcDbEntity
  8
2
  6
ByBlock
 62
     0
100
AcDbMText
 10
1.919749999999987
 20
27.357
 30
0.0
 40
3.5
 41
0.0
 71
     5
 72
     1
  1
\A1;%%c7.2
 11
0.0
 21
1.0
 31
0.0
 73
     1
 44
1.0
  0
POINT
  5
106AC2F
330
106AC24
100
AcDbEntity
  8
Defpoints
 62
     0
100
AcDbPoint
 10
2.581749999999985
 20
6.000000000000002
 30
0.0
  0
POINT
  5
106AC30
330
106AC24
100
AcDbEntity
  8
Defpoints
 62
     0
100
AcDbPoint
 10
2.581749999999985
 20
13.2
 30
0.0
  0
POINT
  5
106AC31
330
106AC24
100
AcDbEntity
  8
Defpoints
 62
     0
100
AcDbPoint
 10
4.581749999999985
 20
13.2
 30
0.0
  0
ENDBLK
  5
106AC32
330
106AC24
100
AcDbEntity
  8
2
100
AcDbBlockEnd
  0
BLOCK
  5
106AC38
330
106AC37
100
AcDbEntity
  8
0
100
AcDbBlockBegin
  2
*D12
 70
     1
 10
0.0
 20
0.0
 30
0.0
  3
*D12
  1

  0
LINE
  5
106AC3A
330
106AC37
100
AcDbEntity
  8
2
 62
     0
370
    -2
100
AcDbLine
 10
90.5
 20
-3.9
 30
0.0
 11
121.0
 21
-3.899999999999999
 31
0.0
  0
LINE
  5
106AC3B
330
106AC37
100
AcDbEntity
  8
2
 62
     0
370
    -2
100
AcDbLine
 10
90.5
 20
3.9
 30
0.0
 11
121.0
 21
3.900000000000002
 31
0.0
  0
LINE
  5
106AC3C
330
106AC37
100
AcDbEntity
  8
2
 62
     0
370
    -2
100
AcDbLine
 10
120.0
 20
3.900000000000002
 30
0.0
 11
120.0
 21
21.63974999999999
 31
0.0
  0
LINE
  5
106AC3D
330
106AC37
100
AcDbEntity
  8
2
 62
     0
370
    -2
100
AcDbLine
 10
120.0
 20
-3.899999999999999
 30
0.0
 11
120.0
 21
3.900000000000002
 31
0.0
  0
LINE
  5
106AC3E
330
106AC37
100
AcDbEntity
  8
2
 62
     0
370
    -2
100
AcDbLine
 10
120.0
 20
-6.899999999999999
 30
0.0
 11
120.0
 21
-9.899999999999999
 31
0.0
  0
LINE
  5
106AC3F
330
106AC37
100
AcDbEntity
  8
2
 62
     0
370
    -2
100
AcDbLine
 10
120.0
 20
6.900000000000002
 30
0.0
 11
120.0
 21
9.900000000000002
 31
0.0
  0
SOLID
  5
106AC40
330
106AC37
100
AcDbEntity
  8
2
 62
     0
100
AcDbTrace
 10
120.5
 20
-6.899999999999999
 30
0.0
 11
119.5
 21
-6.899999999999999
 31
0.0
 12
120.0
 22
-3.899999999999999
 32
0.0
 13
120.0
 23
-3.899999999999999
 33
0.0
  0
SOLID
  5
106AC41
330
106AC37
100
AcDbEntity
  8
2
 62
     0
100
AcDbTrace
 10
119.5
 20
6.900000000000002
 30
0.0
 11
120.5
 21
6.900000000000002
 31
0.0
 12
120.0
 22
3.900000000000002
 32
0.0
 13
120.0
 23
3.900000000000002
 33
0.0
  0
MTEXT
  5
106AC42
330
106AC37
100
AcDbEntity
  8
2
  6
ByBlock
 62
     0
100
AcDbMText
 10
117.338
 20
15.0
 30
0.0
 40
3.5
 41
0.0
 71
     5
 72
     1
  1
\A1;%%c7.8
 11
0.0
 21
1.0
 31
0.0
 73
     1
 44
1.0
  0
POINT
  5
106AC43
330
106AC37
100
AcDbEntity
  8
Defpoints
 62
     0
100
AcDbPoint
 10
90.0
 20
-3.9
 30
0.0
  0
POINT
  5
106AC46
330
106AC37
100
AcDbEntity
  8
Defpoints
 62
     0
100
AcDbPoint
 10
90.0
 20
3.9
 30
0.0
  0
POINT
  5
106AC47
330
106AC37
100
AcDbEntity
  8
Defpoints
 62
     0
100
AcDbPoint
 10
120.0
 20
3.900000000000002
 30
0.0
  0
ENDBLK
  5
106AC39
330
106AC37
100
AcDbEntity
  8
0
100
AcDbBlockEnd
  0
BLOCK
  5
106AC55
330
106AC54
100
AcDbEntity
  8
0
100
AcDbBlockBegin
  2
*D14
 70
     1
 10
0.0
 20
0.0
 30
0.0
  3
*D14
  1

  0
LINE
  5
106AC56
330
106AC54
100
AcDbEntity
  8
2
 62
     0
370
    -2
100
AcDbLine
 10
0.5
 20
5.999999999999998
 30
0.0
 11
31.0
 21
6.0
 31
0.0
  0
LINE
  5
106AC57
330
106AC54
100
AcDbEntity
  8
2
 62
     0
370
    -2
100
AcDbLine
 10
0.5
 20
13.8
 30
0.0
 11
31.0
 21
13.8
 31
0.0
  0
LINE
  5
106AC58
330
106AC54
100
AcDbEntity
  8
2
 62
     0
370
    -2
100
AcDbLine
 10
30.0
 20
13.8
 30
0.0
 11
30.0
 21
31.53975
 31
0.0
  0
LINE
  5
106AC59
330
106AC54
100
AcDbEntity
  8
2
 62
     0
370
    -2
100
AcDbLine
 10
30.0
 20
6.0
 30
0.0
 11
30.0
 21
13.8
 31
0.0
  0
LINE
  5
106AC5A
330
106AC54
100
AcDbEntity
  8
2
 62
     0
370
    -2
100
AcDbLine
 10
30.0
 20
3.0
 30
0.0
 11
30.0
 21
0.0
 31
0.0
  0
LINE
  5
106AC5B
330
106AC54
100
AcDbEntity
  8
2
 62
     0
370
    -2
100
AcDbLine
 10
30.0
 20
16.8
 30
0.0
 11
30.0
 21
19.8
 31
0.0
  0
SOLID
  5
106AC5C
330
106AC54
100
AcDbEntity
  8
2
 62
     0
100
AcDbTrace
 10
30.5
 20
3.0
 30
0.0
 11
29.5
 21
3.0
 31
0.0
 12
30.0
 22
6.0
 32
0.0
 13
30.0
 23
6.0
 33
0.0
  0
SOLID
  5
106AC5D
330
106AC54
100
AcDbEntity
  8
2
 62
     0
100
AcDbTrace
 10
29.5
 20
16.8
 30
0.0
 11
30.5
 21
16.8
 31
0.0
 12
30.0
 22
13.8
 32
0.0
 13
30.0
 23
13.8
 33
0.0
  0
MTEXT
  5
106AC5E
330
106AC54
100
AcDbEntity
  8
2
  6
ByBlock
 62
     0
100
AcDbMText
 10
27.338
 20
24.9
 30
0.0
 40
3.5
 41
0.0
 71
     5
 72
     1
  1
\A1;%%c7.8
 11
0.0
 21
1.0
 31
0.0
 73
     1
 44
1.0
  0
POINT
  5
106AC5F
330
106AC54
100
AcDbEntity
  8
Defpoints
 62
     0
100
AcDbPoint
 10
0.0
 20
5.999999999999998
 30
0.0
  0
POINT
  5
106AC60
330
106AC54
100
AcDbEntity
  8
Defpoints
 62
     0
100
AcDbPoint
 10
0.0
 20
13.8
 30
0.0
  0
POINT
  5
106AC61
330
106AC54
100
AcDbEntity
  8
Defpoints
 62
     0
100
AcDbPoint
 10
30.0
 20
13.8
 30
0.0
  0
ENDBLK
  5
106AC62
330
106AC54
100
AcDbEntity
  8
0
100
AcDbBlockEnd
  0
BLOCK
  5
106AC68
330
106AC67
100
AcDbEntity
  8
0
100
AcDbBlockBegin
  2
*D15
 70
     1
 10
0.0
 20
0.0
 30
0.0
  3
*D15
  1

  0
LINE
  5
106AC6A
330
106AC67
100
AcDbEntity
  8
2
 62
     0
370
    -2
100
AcDbLine
 10
86.5
 20
-4.5
 30
0.0
 11
129.0
 21
-4.5
 31
0.0
  0
LINE
  5
106AC6B
330
106AC67
100
AcDbEntity
  8
2
 62
     0
370
    -2
100
AcDbLine
 10
86.5
 20
4.5
 30
0.0
 11
129.0
 21
4.5
 31
0.0
  0
LINE
  5
106AC6C
330
106AC67
100
AcDbEntity
  8
2
 62
     0
370
    -2
100
AcDbLine
 10
128.0
 20
4.5
 30
0.0
 11
128.0
 21
21.162
 31
0.0
  0
LINE
  5
106AC6D
330
106AC67
100
AcDbEntity
  8
2
 62
     0
370
    -2
100
AcDbLine
 10
128.0
 20
-4.5
 30
0.0
 11
128.0
 21
4.5
 31
0.0
  0
LINE
  5
106AC6E
330
106AC67
100
AcDbEntity
  8
2
 62
     0
370
    -2
100
AcDbLine
 10
128.0
 20
-7.5
 30
0.0
 11
128.0
 21
-10.5
 31
0.0
  0
LINE
  5
106AC6F
330
106AC67
100
AcDbEntity
  8
2
 62
     0
370
    -2
100
AcDbLine
 10
128.0
 20
7.5
 30
0.0
 11
128.0
 21
10.5
 31
0.0
  0
SOLID
  5
106AC70
330
106AC67
100
AcDbEntity
  8
2
 62
     0
100
AcDbTrace
 10
128.5
 20
-7.5
 30
0.0
 11
127.5
 21
-7.5
 31
0.0
 12
128.0
 22
-4.5
 32
0.0
 13
128.0
 23
-4.5
 33
0.0
  0
SOLID
  5
106AC71
330
106AC67
100
AcDbEntity
  8
2
 62
     0
100
AcDbTrace
 10
127.5
 20
7.5
 30
0.0
 11
128.5
 21
7.5
 31
0.0
 12
128.0
 22
4.5
 32
0.0
 13
128.0
 23
4.5
 33
0.0
  0
MTEXT
  5
106AC72
330
106AC67
100
AcDbEntity
  8
2
  6
ByBlock
 62
     0
100
AcDbMText
 10
125.38875
 20
15.0
 30
0.0
 40
3.5
 41
0.0
 71
     5
 72
     1
  1
\A1;M9X1
 11
0.0
 21
1.0
 31
0.0
 73
     1
 44
1.0
  0
POINT
  5
106AC73
330
106AC67
100
AcDbEntity
  8
Defpoints
 62
     0
100
AcDbPoint
 10
86.0
 20
-4.5
 30
0.0
  0
POINT
  5
106AC74
330
106AC67
100
AcDbEntity
  8
Defpoints
 62
     0
100
AcDbPoint
 10
86.0
 20
4.5
 30
0.0
  0
POINT
  5
106AC75
330
106AC67
100
AcDbEntity
  8
Defpoints
 62
     0
100
AcDbPoint
 10
128.0
 20
4.500000000000003
 30
0.0
  0
ENDBLK
  5
106AC69
330
106AC67
100
AcDbEntity
  8
0
100
AcDbBlockEnd
  0
BLOCK
  5
106AC83
330
106AC82
100
AcDbEntity
  8
2
100
AcDbBlockBegin
  2
*D17
 70
     1
 10
0.0
 20
0.0
 30
0.0
  3
*D17
  1

  0
LINE
  5
106AC84
330
106AC82
100
AcDbEntity
  8
2
 62
     0
370
    -2
100
AcDbLine
 10
49.90000000000001
 20
0.5
 30
0.0
 11
49.90000000000001
 21
36.0
 31
0.0
  0
LINE
  5
106AC85
330
106AC82
100
AcDbEntity
  8
2
 62
     0
370
    -2
100
AcDbLine
 10
0.0
 20
5.3385
 30
0.0
 11
0.0
 21
36.0
 31
0.0
  0
LINE
  5
106AC86
330
106AC82
100
AcDbEntity
  8
2
 62
     0
370
    -2
100
AcDbLine
 10
46.90000000000001
 20
35.0
 30
0.0
 11
3.0
 21
35.0
 31
0.0
  0
SOLID
  5
106AC87
330
106AC82
100
AcDbEntity
  8
2
 62
     0
100
AcDbTrace
 10
46.90000000000001
 20
34.5
 30
0.0
 11
46.90000000000001
 21
35.5
 31
0.0
 12
49.90000000000001
 22
35.0
 32
0.0
 13
49.90000000000001
 23
35.0
 33
0.0
  0
SOLID
  5
106AC88
330
106AC82
100
AcDbEntity
  8
2
 62
     0
100
AcDbTrace
 10
3.0
 20
35.5
 30
0.0
 11
3.0
 21
34.5
 31
0.0
 12
0.0
 22
35.0
 32
0.0
 13
0.0
 23
35.0
 33
0.0
  0
MTEXT
  5
106AC89
330
106AC82
100
AcDbEntity
  8
2
  6
ByBlock
 62
     0
100
AcDbMText
 10
24.95
 20
37.61125
 30
0.0
 40
3.5
 41
0.0
 71
     5
 72
     1
  1
\A1;49.9
 73
     1
 44
1.0
  0
POINT
  5
106AC8A
330
106AC82
100
AcDbEntity
  8
Defpoints
 62
     0
100
AcDbPoint
 10
49.90000000000001
 20
0.0
 30
0.0
  0
POINT
  5
106AC8B
330
106AC82
100
AcDbEntity
  8
Defpoints
 62
     0
100
AcDbPoint
 10
0.0
 20
4.8385
 30
0.0
  0
POINT
  5
106AC8C
330
106AC82
100
AcDbEntity
  8
Defpoints
 62
     0
100
AcDbPoint
 10
0.0
 20
35.0
 30
0.0
  0
ENDBLK
  5
106AC8D
330
106AC82
100
AcDbEntity
  8
2
100
AcDbBlockEnd
  0
BLOCK
  5
106AC93
330
106AC92
100
AcDbEntity
  8
0
100
AcDbBlockBegin
  2
*D18
 70
     1
 10
0.0
 20
0.0
 30
0.0
  3
*D18
  1

  0
LINE
  5
106AC95
330
106AC92
100
AcDbEntity
  8
SK2
 62
     0
370
    -2
100
AcDbLine
 10
44.35610315417
 20
5.3385
 30
0.0
 11
44.35610315417
 21
36.0
 31
0.0
  0
LINE
  5
106AC96
330
106AC92
100
AcDbEntity
  8
SK2
 62
     0
370
    -2
100
AcDbLine
 10
0.0
 20
4.422168825983
 30
0.0
 11
0.0
 21
36.0
 31
0.0
  0
LINE
  5
106AC97
330
106AC92
100
AcDbEntity
  8
SK2
 62
     0
370
    -2
100
AcDbLine
 10
41.35610315417
 20
35.0
 30
0.0
 11
3.0
 21
35.0
 31
0.0
  0
SOLID
  5
106AC98
330
106AC92
100
AcDbEntity
  8
SK2
 62
     0
100
AcDbTrace
 10
41.35610315417
 20
34.5
 30
0.0
 11
41.35610315417
 21
35.5
 31
0.0
 12
44.35610315417
 22
35.0
 32
0.0
 13
44.35610315417
 23
35.0
 33
0.0
  0
SOLID
  5
106AC99
330
106AC92
100
AcDbEntity
  8
SK2
 62
     0
100
AcDbTrace
 10
3.0
 20
35.5
 30
0.0
 11
3.0
 21
34.5
 31
0.0
 12
0.0
 22
35.0
 32
0.0
 13
0.0
 23
35.0
 33
0.0
  0
MTEXT
  5
106AC9A
330
106AC92
100
AcDbEntity
  8
SK2
  6
ByBlock
 62
     0
100
AcDbMText
 10
22.178051577085
 20
37.55
 30
0.0
 40
3.5
 41
0.0
 71
     5
 72
     1
  1
\A1;44.4
 73
     1
 44
1.0
  0
POINT
  5
106AC9B
330
106AC92
100
AcDbEntity
  8
Defpoints
 62
     0
100
AcDbPoint
 10
44.35610315417
 20
4.8385
 30
0.0
  0
POINT
  5
106AC9C
330
106AC92
100
AcDbEntity
  8
Defpoints
 62
     0
100
AcDbPoint
 10
0.0
 20
3.922168825983
 30
0.0
  0
POINT
  5
106AC9D
330
106AC92
100
AcDbEntity
  8
Defpoints
 62
     0
100
AcDbPoint
 10
0.0
 20
35.0
 30
0.0
  0
ENDBLK
  5
106AC94
330
106AC92
100
AcDbEntity
  8
0
100
AcDbBlockEnd
  0
ENDSEC
  0
SECTION
  2
ENTITIES
  0
DIMENSION
  5
416
330
30
100
AcDbEntity
  8
SK2
100
AcDbDimension
  2
*D0
 10
0.0
 20
-40.0
 30
0.0
 11
45.0
 21
-40.0
 31
0.0
 70
   160
  1
<>
 71
     5
 42
90.0
  3
STANDARD
100
AcDbAlignedDimension
 13
90.0
 23
-3.9
 33
0.0
 14
0.0
 24
-3.922168825983
 34
0.0
100
AcDbRotatedDimension
1001
ACAD
1000
DSTYLE
1002
{
1070
   271
1070
     0
1070
   279
1070
     0
1070
    74
1070
     0
1002
}
  0
DIMENSION
  5
424
330
30
100
AcDbEntity
  8
SK2
100
AcDbDimension
  2
*D1
 10
25.0
 20
4.838500000000002
 30
0.0
 11
25.0
 21
19.0
 31
0.0
 70
   160
  1
%%c<>
 71
     5
 42
9.677
  3
STANDARD
100
AcDbAlignedDimension
 13
1.0
 23
-4.8385
 33
0.0
 14
1.0
 24
4.8385
 34
0.0
 50
-90.0
100
AcDbRotatedDimension
1001
ACAD
1000
DSTYLE
1002
{
1070
    76
1070
     1
1070
    75
1070
     1
1070
   271
1070
     3
1070
   279
1070
     0
1070
    74
1070
     0
1002
}
1001
ACAD_DSTYLE_DIMFLIPARROW_SYMBOL
1070
   385
1070
     0
1001
ACAD_DSTYLE_DIMFLIPARROW_WHICH_SYMBOL
1070
   386
1070
     3
  0
DIMENSION
  5
432
330
30
100
AcDbEntity
  8
SK2
100
AcDbDimension
  2
*D2
 10
0.0
 20
-16.0
 30
0.0
 11
-8.9835
 21
-16.0
 31
0.0
 70
   160
  1
<>
 71
     5
 42
11.1
  3
STANDARD
100
AcDbAlignedDimension
 13
11.1
 23
-4.8385
 33
0.0
 14
0.0
 24
-4.8385
 34
0.0
100
AcDbRotatedDimension
1001
ACAD
1000
DSTYLE
1002
{
1070
   271
1070
     1
1070
   279
1070
     0
1070
    74
1070
     0
1002
}
1001
ACAD_DSTYLE_DIMFLIPARROW_SYMBOL
1070
   385
1070
     0
1001
ACAD_DSTYLE_DIMFLIPARROW_WHICH_SYMBOL
1070
   386
1070
     3
  0
DIMENSION
  5
440
330
30
100
AcDbEntity
  8
2
100
AcDbDimension
  2
*D3
 10
75.0
 20
-24.0
 30
0.0
 11
82.5
 21
-24.0
 31
0.0
 70
   160
  1
<>
 71
     5
 42
15.0
  3
STANDARD
100
AcDbAlignedDimension
 13
90.0
 23
-3.9
 33
0.0
 14
75.0
 24
-4.5
 34
0.0
100
AcDbRotatedDimension
1001
ACAD
1000
DSTYLE
1002
{
1070
   271
1070
     0
1070
   279
1070
     0
1070
    74
1070
     0
1002
}
  0
DIMENSION
  5
44E
330
30
100
AcDbEntity
  8
2
100
AcDbDimension
  2
*D4
 10
55.0
 20
-32.0
 30
0.0
 11
72.5
 21
-32.0
 31
0.0
 70
   160
  1
<>
 71
     5
 42
35.0
  3
STANDARD
100
AcDbAlignedDimension
 13
90.0
 23
-3.9
 33
0.0
 14
55.0
 24
-3.6
 34
0.0
100
AcDbRotatedDimension
1001
ACAD
1000
DSTYLE
1002
{
1070
   271
1070
     0
1070
   279
1070
     0
1070
    74
1070
     0
1002
}
  0
DIMENSION
  5
45C
330
30
100
AcDbEntity
  8
2
100
AcDbDimension
  2
*D5
 10
64.220577136594
 20
3.6
 30
0.0
 11
64.220577136594
 21
16.224
 31
0.0
 70
   160
  1
%%c<>
 71
     5
 42
7.2
  3
STANDARD
100
AcDbAlignedDimension
 13
55.0
 23
-3.6
 33
0.0
 14
55.0
 24
3.6
 34
0.0
 50
-90.0
100
AcDbRotatedDimension
1001
ACAD
1000
DSTYLE
1002
{
1070
    76
1070
     1
1070
    75
1070
     1
1070
   271
1070
     1
1070
   279
1070
     0
1070
    74
1070
     0
1002
}
  0
DIMENSION
  5
46A
330
30
100
AcDbEntity
  8
2
100
AcDbDimension
  2
*D6
 10
44.35610315417
 20
35.0
 30
0.0
 11
69.30610315417
 21
35.0
 31
0.0
 70
   160
  1
<>
 71
     5
 42
49.90000000000001
  3
STANDARD
100
AcDbAlignedDimension
 13
94.25610315417
 23
0.0
 33
0.0
 14
44.35610315417
 24
4.8385
 34
0.0
100
AcDbRotatedDimension
1001
ACAD
1000
DSTYLE
1002
{
1070
   271
1070
     1
1070
   279
1070
     0
1070
    74
1070
     0
1002
}
  0
LINE
  5
36
330
30
100
AcDbEntity
  8
1
100
AcDbLine
 10
94.25610315417
 20
0.0
 30
0.0
 11
90.0
 21
3.9
 31
0.0
  0
LINE
  5
37
330
30
100
AcDbEntity
  8
1
100
AcDbLine
 10
90.0
 20
3.9
 30
0.0
 11
86.0
 21
4.5
 31
0.0
  0
LINE
  5
38
330
30
100
AcDbEntity
  8
1
100
AcDbLine
 10
86.0
 20
4.5
 30
0.0
 11
75.0
 21
4.5
 31
0.0
  0
LINE
  5
39
330
30
100
AcDbEntity
  8
1
100
AcDbLine
 10
75.0
 20
4.5
 30
0.0
 11
73.441154273188
 21
3.6
 31
0.0
  0
LINE
  5
3A
330
30
100
AcDbEntity
  8
1
100
AcDbLine
 10
73.441154273188
 20
3.6
 30
0.0
 11
55.0
 21
3.6
 31
0.0
  0
LINE
  5
3B
330
30
100
AcDbEntity
  8
1
100
AcDbLine
 10
55.0
 20
3.6
 30
0.0
 11
48.000052832448
 21
4.8385
 31
0.0
  0
LINE
  5
3C
330
30
100
AcDbEntity
  8
1
100
AcDbLine
 10
48.000052832448
 20
4.8385
 30
0.0
 11
44.35610315417
 21
4.8385
 31
0.0
  0
LINE
  5
3D
330
30
100
AcDbEntity
  8
1
100
AcDbLine
 10
44.35610315417
 20
4.8385
 30
0.0
 11
44.35610315417
 21
-4.8385
 31
0.0
  0
LINE
  5
3E
330
30
100
AcDbEntity
  8
1
100
AcDbLine
 10
44.35610315417
 20
-4.8385
 30
0.0
 11
48.000052832448
 21
-4.8385
 31
0.0
  0
LINE
  5
3F
330
30
100
AcDbEntity
  8
1
100
AcDbLine
 10
48.000052832448
 20
-4.8385
 30
0.0
 11
55.0
 21
-3.6
 31
0.0
  0
LINE
  5
40
330
30
100
AcDbEntity
  8
1
100
AcDbLine
 10
55.0
 20
-3.6
 30
0.0
 11
73.441154273188
 21
-3.6
 31
0.0
  0
LINE
  5
41
330
30
100
AcDbEntity
  8
1
100
AcDbLine
 10
73.441154273188
 20
-3.6
 30
0.0
 11
75.0
 21
-4.5
 31
0.0
  0
LINE
  5
42
330
30
100
AcDbEntity
  8
1
100
AcDbLine
 10
75.0
 20
-4.5
 30
0.0
 11
86.0
 21
-4.5
 31
0.0
  0
LINE
  5
43
330
30
100
AcDbEntity
  8
1
100
AcDbLine
 10
86.0
 20
-4.5
 30
0.0
 11
90.0
 21
-3.9
 31
0.0
  0
LINE
  5
44
330
30
100
AcDbEntity
  8
1
100
AcDbLine
 10
90.0
 20
-3.9
 30
0.0
 11
94.25610315417
 21
0.0
 31
0.0
  0
LINE
  5
45
330
30
100
AcDbEntity
  8
1
100
AcDbLine
 10
93.25610315417
 20
0.091287649117
 30
0.0
 11
93.25610315417
 21
-0.105964001796
 31
0.0
  0
LINE
  5
46
330
30
100
AcDbEntity
  8
1
100
AcDbLine
 10
90.0
 20
-3.9
 30
0.0
 11
90.0
 21
3.9
 31
0.0
  0
LINE
  5
47
330
30
100
AcDbEntity
  8
1
100
AcDbLine
 10
75.05610315417
 20
4.5
 30
0.0
 11
75.15610315417
 21
4.5
 31
0.0
  0
LINE
  5
48
330
30
100
AcDbEntity
  8
1
100
AcDbLine
 10
75.15610315417
 20
4.5
 30
0.0
 11
75.25610315417
 21
4.5
 31
0.0
  0
LINE
  5
49
330
30
100
AcDbEntity
  8
1
100
AcDbLine
 10
75.25610315417
 20
4.5
 30
0.0
 11
75.35610315417
 21
4.5
 31
0.0
  0
LINE
  5
4A
330
30
100
AcDbEntity
  8
1
100
AcDbLine
 10
75.35610315417
 20
4.5
 30
0.0
 11
75.45610315417
 21
4.5
 31
0.0
  0
LINE
  5
4B
330
30
100
AcDbEntity
  8
1
100
AcDbLine
 10
75.45610315417
 20
4.5
 30
0.0
 11
75.55610315417
 21
4.5
 31
0.0
  0
LINE
  5
4C
330
30
100
AcDbEntity
  8
1
100
AcDbLine
 10
75.55610315417
 20
4.5
 30
0.0
 11
75.65610315417
 21
4.5
 31
0.0
  0
LINE
  5
4D
330
30
100
AcDbEntity
  8
1
100
AcDbLine
 10
75.65610315417
 20
4.5
 30
0.0
 11
75.75610315417
 21
4.5
 31
0.0
  0
LINE
  5
4E
330
30
100
AcDbEntity
  8
1
100
AcDbLine
 10
75.75610315417
 20
4.5
 30
0.0
 11
75.85610315417
 21
4.5
 31
0.0
  0
LINE
  5
4F
330
30
100
AcDbEntity
  8
1
100
AcDbLine
 10
75.85610315417
 20
4.5
 30
0.0
 11
75.95610315417
 21
4.5
 31
0.0
  0
LINE
  5
50
330
30
100
AcDbEntity
  8
1
100
AcDbLine
 10
75.95610315417
 20
4.5
 30
0.0
 11
76.05610315417
 21
4.5
 31
0.0
  0
LINE
  5
51
330
30
100
AcDbEntity
  8
1
100
AcDbLine
 10
76.05610315417
 20
4.5
 30
0.0
 11
76.15610315417
 21
4.5
 31
0.0
  0
LINE
  5
52
330
30
100
AcDbEntity
  8
1
100
AcDbLine
 10
76.15610315417
 20
4.5
 30
0.0
 11
76.25610315417
 21
4.5
 31
0.0
  0
LINE
  5
53
330
30
100
AcDbEntity
  8
1
100
AcDbLine
 10
76.25610315417
 20
4.5
 30
0.0
 11
76.35610315417
 21
4.5
 31
0.0
  0
LINE
  5
54
330
30
100
AcDbEntity
  8
1
100
AcDbLine
 10
76.35610315417
 20
4.5
 30
0.0
 11
76.45610315417
 21
4.5
 31
0.0
  0
LINE
  5
55
330
30
100
AcDbEntity
  8
1
100
AcDbLine
 10
76.45610315417
 20
4.5
 30
0.0
 11
76.55610315417
 21
4.5
 31
0.0
  0
LINE
  5
56
330
30
100
AcDbEntity
  8
1
100
AcDbLine
 10
76.55610315417
 20
4.5
 30
0.0
 11
76.65610315417
 21
4.5
 31
0.0
  0
LINE
  5
57
330
30
100
AcDbEntity
  8
1
100
AcDbLine
 10
76.65610315417
 20
4.5
 30
0.0
 11
76.75610315417
 21
4.5
 31
0.0
  0
LINE
  5
58
330
30
100
AcDbEntity
  8
1
100
AcDbLine
 10
76.75610315417
 20
4.5
 30
0.0
 11
76.85610315417
 21
4.5
 31
0.0
  0
LINE
  5
59
330
30
100
AcDbEntity
  8
1
100
AcDbLine
 10
76.85610315417
 20
4.5
 30
0.0
 11
76.95610315417
 21
4.5
 31
0.0
  0
LINE
  5
5A
330
30
100
AcDbEntity
  8
1
100
AcDbLine
 10
76.95610315417
 20
4.5
 30
0.0
 11
77.05610315417
 21
4.5
 31
0.0
  0
LINE
  5
5B
330
30
100
AcDbEntity
  8
1
100
AcDbLine
 10
77.05610315417
 20
4.5
 30
0.0
 11
77.15610315417
 21
4.5
 31
0.0
  0
LINE
  5
5C
330
30
100
AcDbEntity
  8
1
100
AcDbLine
 10
77.15610315417
 20
4.5
 30
0.0
 11
77.25610315417
 21
4.5
 31
0.0
  0
LINE
  5
5D
330
30
100
AcDbEntity
  8
1
100
AcDbLine
 10
77.25610315417
 20
4.5
 30
0.0
 11
77.35610315417
 21
4.5
 31
0.0
  0
LINE
  5
5E
330
30
100
AcDbEntity
  8
1
100
AcDbLine
 10
77.35610315417
 20
4.5
 30
0.0
 11
77.45610315417
 21
4.5
 31
0.0
  0
LINE
  5
5F
330
30
100
AcDbEntity
  8
1
100
AcDbLine
 10
77.45610315417
 20
4.5
 30
0.0
 11
77.55610315417
 21
4.5
 31
0.0
  0
LINE
  5
60
330
30
100
AcDbEntity
  8
1
100
AcDbLine
 10
77.55610315417
 20
4.5
 30
0.0
 11
77.65610315417
 21
4.5
 31
0.0
  0
LINE
  5
61
330
30
100
AcDbEntity
  8
1
100
AcDbLine
 10
77.65610315417
 20
4.5
 30
0.0
 11
77.75610315417
 21
4.5
 31
0.0
  0
LINE
  5
62
330
30
100
AcDbEntity
  8
1
100
AcDbLine
 10
77.75610315417
 20
4.5
 30
0.0
 11
77.85610315417
 21
4.5
 31
0.0
  0
LINE
  5
63
330
30
100
AcDbEntity
  8
1
100
AcDbLine
 10
77.85610315417
 20
4.5
 30
0.0
 11
77.95610315417
 21
4.5
 31
0.0
  0
LINE
  5
64
330
30
100
AcDbEntity
  8
1
100
AcDbLine
 10
77.95610315417
 20
4.5
 30
0.0
 11
78.05610315417
 21
4.5
 31
0.0
  0
LINE
  5
65
330
30
100
AcDbEntity
  8
1
100
AcDbLine
 10
78.05610315417
 20
4.5
 30
0.0
 11
78.15610315417
 21
4.5
 31
0.0
  0
LINE
  5
66
330
30
100
AcDbEntity
  8
1
100
AcDbLine
 10
78.15610315417
 20
4.5
 30
0.0
 11
78.25610315417
 21
4.5
 31
0.0
  0
LINE
  5
67
330
30
100
AcDbEntity
  8
1
100
AcDbLine
 10
78.25610315417
 20
4.5
 30
0.0
 11
78.35610315417
 21
4.5
 31
0.0
  0
LINE
  5
68
330
30
100
AcDbEntity
  8
1
100
AcDbLine
 10
78.35610315417
 20
4.5
 30
0.0
 11
78.45610315417
 21
4.5
 31
0.0
  0
LINE
  5
69
330
30
100
AcDbEntity
  8
1
100
AcDbLine
 10
78.45610315417
 20
4.5
 30
0.0
 11
78.55610315417
 21
4.5
 31
0.0
  0
LINE
  5
6A
330
30
100
AcDbEntity
  8
1
100
AcDbLine
 10
78.55610315417
 20
4.5
 30
0.0
 11
78.65610315417
 21
4.5
 31
0.0
  0
LINE
  5
6B
330
30
100
AcDbEntity
  8
1
100
AcDbLine
 10
78.65610315417
 20
4.5
 30
0.0
 11
78.75610315417
 21
4.5
 31
0.0
  0
LINE
  5
6C
330
30
100
AcDbEntity
  8
1
100
AcDbLine
 10
78.75610315417
 20
4.5
 30
0.0
 11
78.85610315417
 21
4.5
 31
0.0
  0
LINE
  5
6D
330
30
100
AcDbEntity
  8
1
100
AcDbLine
 10
78.85610315417
 20
4.5
 30
0.0
 11
78.95610315417
 21
4.5
 31
0.0
  0
LINE
  5
6E
330
30
100
AcDbEntity
  8
1
100
AcDbLine
 10
78.95610315417
 20
4.5
 30
0.0
 11
79.05610315417
 21
4.5
 31
0.0
  0
LINE
  5
6F
330
30
100
AcDbEntity
  8
1
100
AcDbLine
 10
79.05610315417
 20
4.5
 30
0.0
 11
79.15610315417
 21
4.5
 31
0.0
  0
LINE
  5
70
330
30
100
AcDbEntity
  8
1
100
AcDbLine
 10
79.15610315417
 20
4.5
 30
0.0
 11
79.25610315417
 21
4.5
 31
0.0
  0
LINE
  5
71
330
30
100
AcDbEntity
  8
1
100
AcDbLine
 10
79.25610315417
 20
4.5
 30
0.0
 11
79.35610315417
 21
4.5
 31
0.0
  0
LINE
  5
72
330
30
100
AcDbEntity
  8
1
100
AcDbLine
 10
79.35610315417
 20
4.5
 30
0.0
 11
79.45610315417
 21
4.5
 31
0.0
  0
LINE
  5
73
330
30
100
AcDbEntity
  8
1
100
AcDbLine
 10
79.45610315417
 20
4.5
 30
0.0
 11
79.55610315417
 21
4.5
 31
0.0
  0
LINE
  5
74
330
30
100
AcDbEntity
  8
1
100
AcDbLine
 10
79.55610315417
 20
4.5
 30
0.0
 11
79.65610315417
 21
4.5
 31
0.0
  0
LINE
  5
75
330
30
100
AcDbEntity
  8
1
100
AcDbLine
 10
79.65610315417
 20
4.5
 30
0.0
 11
79.75610315417
 21
4.5
 31
0.0
  0
LINE
  5
76
330
30
100
AcDbEntity
  8
1
100
AcDbLine
 10
79.75610315417
 20
4.5
 30
0.0
 11
79.85610315417
 21
4.5
 31
0.0
  0
LINE
  5
77
330
30
100
AcDbEntity
  8
1
100
AcDbLine
 10
79.85610315417
 20
4.5
 30
0.0
 11
79.95610315417
 21
4.5
 31
0.0
  0
LINE
  5
78
330
30
100
AcDbEntity
  8
1
100
AcDbLine
 10
79.95610315417
 20
4.5
 30
0.0
 11
80.05610315417
 21
4.5
 31
0.0
  0
LINE
  5
79
330
30
100
AcDbEntity
  8
1
100
AcDbLine
 10
80.05610315417
 20
4.5
 30
0.0
 11
80.15610315417
 21
4.5
 31
0.0
  0
LINE
  5
7A
330
30
100
AcDbEntity
  8
1
100
AcDbLine
 10
80.15610315417
 20
4.5
 30
0.0
 11
80.25610315417
 21
4.5
 31
0.0
  0
LINE
  5
7B
330
30
100
AcDbEntity
  8
1
100
AcDbLine
 10
80.25610315417
 20
4.5
 30
0.0
 11
80.35610315417
 21
4.5
 31
0.0
  0
LINE
  5
7C
330
30
100
AcDbEntity
  8
1
100
AcDbLine
 10
80.35610315417
 20
4.5
 30
0.0
 11
80.45610315417
 21
4.5
 31
0.0
  0
LINE
  5
7D
330
30
100
AcDbEntity
  8
1
100
AcDbLine
 10
80.45610315417
 20
4.5
 30
0.0
 11
80.55610315417
 21
4.5
 31
0.0
  0
LINE
  5
7E
330
30
100
AcDbEntity
  8
1
100
AcDbLine
 10
80.55610315417
 20
4.5
 30
0.0
 11
80.65610315417
 21
4.5
 31
0.0
  0
LINE
  5
7F
330
30
100
AcDbEntity
  8
1
100
AcDbLine
 10
80.65610315417
 20
4.5
 30
0.0
 11
80.75610315417
 21
4.5
 31
0.0
  0
LINE
  5
80
330
30
100
AcDbEntity
  8
1
100
AcDbLine
 10
80.75610315417
 20
4.5
 30
0.0
 11
80.85610315417
 21
4.5
 31
0.0
  0
LINE
  5
81
330
30
100
AcDbEntity
  8
1
100
AcDbLine
 10
80.85610315417
 20
4.5
 30
0.0
 11
80.95610315417
 21
4.5
 31
0.0
  0
LINE
  5
82
330
30
100
AcDbEntity
  8
1
100
AcDbLine
 10
80.95610315417
 20
4.5
 30
0.0
 11
81.05610315417
 21
4.5
 31
0.0
  0
LINE
  5
83
330
30
100
AcDbEntity
  8
1
100
AcDbLine
 10
81.05610315417
 20
4.5
 30
0.0
 11
81.15610315417
 21
4.5
 31
0.0
  0
LINE
  5
84
330
30
100
AcDbEntity
  8
1
100
AcDbLine
 10
81.15610315417
 20
4.5
 30
0.0
 11
81.25610315417
 21
4.5
 31
0.0
  0
LINE
  5
85
330
30
100
AcDbEntity
  8
1
100
AcDbLine
 10
81.25610315417
 20
4.5
 30
0.0
 11
81.35610315417
 21
4.5
 31
0.0
  0
LINE
  5
86
330
30
100
AcDbEntity
  8
1
100
AcDbLine
 10
81.35610315417
 20
4.5
 30
0.0
 11
81.45610315417
 21
4.5
 31
0.0
  0
LINE
  5
87
330
30
100
AcDbEntity
  8
1
100
AcDbLine
 10
81.45610315417
 20
4.5
 30
0.0
 11
81.55610315417
 21
4.5
 31
0.0
  0
LINE
  5
88
330
30
100
AcDbEntity
  8
1
100
AcDbLine
 10
81.55610315417
 20
4.5
 30
0.0
 11
81.65610315417
 21
4.5
 31
0.0
  0
LINE
  5
89
330
30
100
AcDbEntity
  8
1
100
AcDbLine
 10
81.65610315417
 20
4.5
 30
0.0
 11
81.75610315417
 21
4.5
 31
0.0
  0
LINE
  5
8A
330
30
100
AcDbEntity
  8
1
100
AcDbLine
 10
81.75610315417
 20
4.5
 30
0.0
 11
81.85610315417
 21
4.5
 31
0.0
  0
LINE
  5
8B
330
30
100
AcDbEntity
  8
1
100
AcDbLine
 10
81.85610315417
 20
4.5
 30
0.0
 11
81.95610315417
 21
4.5
 31
0.0
  0
LINE
  5
8C
330
30
100
AcDbEntity
  8
1
100
AcDbLine
 10
81.95610315417
 20
4.5
 30
0.0
 11
82.05610315417
 21
4.5
 31
0.0
  0
LINE
  5
8D
330
30
100
AcDbEntity
  8
1
100
AcDbLine
 10
82.05610315417
 20
4.5
 30
0.0
 11
82.15610315417
 21
4.5
 31
0.0
  0
LINE
  5
8E
330
30
100
AcDbEntity
  8
1
100
AcDbLine
 10
82.15610315417
 20
4.5
 30
0.0
 11
82.25610315417
 21
4.5
 31
0.0
  0
LINE
  5
8F
330
30
100
AcDbEntity
  8
1
100
AcDbLine
 10
82.25610315417
 20
4.5
 30
0.0
 11
82.35610315417
 21
4.5
 31
0.0
  0
LINE
  5
90
330
30
100
AcDbEntity
  8
1
100
AcDbLine
 10
82.35610315417
 20
4.5
 30
0.0
 11
82.45610315417
 21
4.5
 31
0.0
  0
LINE
  5
91
330
30
100
AcDbEntity
  8
1
100
AcDbLine
 10
82.45610315417
 20
4.5
 30
0.0
 11
82.55610315417
 21
4.5
 31
0.0
  0
LINE
  5
92
330
30
100
AcDbEntity
  8
1
100
AcDbLine
 10
82.55610315417
 20
4.5
 30
0.0
 11
82.65610315417
 21
4.5
 31
0.0
  0
LINE
  5
93
330
30
100
AcDbEntity
  8
1
100
AcDbLine
 10
82.65610315417
 20
4.5
 30
0.0
 11
82.75610315417
 21
4.5
 31
0.0
  0
LINE
  5
94
330
30
100
AcDbEntity
  8
1
100
AcDbLine
 10
82.75610315417
 20
4.5
 30
0.0
 11
82.85610315417
 21
4.5
 31
0.0
  0
LINE
  5
95
330
30
100
AcDbEntity
  8
1
100
AcDbLine
 10
82.85610315417
 20
4.5
 30
0.0
 11
82.95610315417
 21
4.5
 31
0.0
  0
LINE
  5
96
330
30
100
AcDbEntity
  8
1
100
AcDbLine
 10
82.95610315417
 20
4.5
 30
0.0
 11
83.05610315417
 21
4.5
 31
0.0
  0
LINE
  5
97
330
30
100
AcDbEntity
  8
1
100
AcDbLine
 10
83.05610315417
 20
4.5
 30
0.0
 11
83.15610315417
 21
4.5
 31
0.0
  0
LINE
  5
98
330
30
100
AcDbEntity
  8
1
100
AcDbLine
 10
83.15610315417
 20
4.5
 30
0.0
 11
83.25610315417
 21
4.5
 31
0.0
  0
LINE
  5
99
330
30
100
AcDbEntity
  8
1
100
AcDbLine
 10
83.25610315417
 20
4.5
 30
0.0
 11
83.35610315417
 21
4.5
 31
0.0
  0
LINE
  5
9A
330
30
100
AcDbEntity
  8
1
100
AcDbLine
 10
83.35610315417
 20
4.5
 30
0.0
 11
83.45610315417
 21
4.5
 31
0.0
  0
LINE
  5
9B
330
30
100
AcDbEntity
  8
1
100
AcDbLine
 10
83.45610315417
 20
4.5
 30
0.0
 11
83.55610315417
 21
4.5
 31
0.0
  0
LINE
  5
9C
330
30
100
AcDbEntity
  8
1
100
AcDbLine
 10
83.55610315417
 20
4.5
 30
0.0
 11
83.65610315417
 21
4.5
 31
0.0
  0
LINE
  5
9D
330
30
100
AcDbEntity
  8
1
100
AcDbLine
 10
83.65610315417
 20
4.5
 30
0.0
 11
83.75610315417
 21
4.5
 31
0.0
  0
LINE
  5
9E
330
30
100
AcDbEntity
  8
1
100
AcDbLine
 10
83.75610315417
 20
4.5
 30
0.0
 11
83.85610315417
 21
4.5
 31
0.0
  0
LINE
  5
9F
330
30
100
AcDbEntity
  8
1
100
AcDbLine
 10
83.85610315417
 20
4.5
 30
0.0
 11
83.95610315417
 21
4.5
 31
0.0
  0
LINE
  5
A0
330
30
100
AcDbEntity
  8
1
100
AcDbLine
 10
83.95610315417
 20
4.5
 30
0.0
 11
84.05610315417
 21
4.5
 31
0.0
  0
LINE
  5
A1
330
30
100
AcDbEntity
  8
1
100
AcDbLine
 10
84.05610315417
 20
4.5
 30
0.0
 11
84.15610315417
 21
4.5
 31
0.0
  0
LINE
  5
A2
330
30
100
AcDbEntity
  8
1
100
AcDbLine
 10
84.15610315417
 20
4.5
 30
0.0
 11
84.25610315417
 21
4.5
 31
0.0
  0
LINE
  5
A3
330
30
100
AcDbEntity
  8
1
100
AcDbLine
 10
84.25610315417
 20
4.5
 30
0.0
 11
84.35610315417
 21
4.5
 31
0.0
  0
LINE
  5
A4
330
30
100
AcDbEntity
  8
1
100
AcDbLine
 10
84.35610315417
 20
4.5
 30
0.0
 11
84.45610315417
 21
4.5
 31
0.0
  0
LINE
  5
A5
330
30
100
AcDbEntity
  8
1
100
AcDbLine
 10
84.45610315417
 20
4.5
 30
0.0
 11
84.55610315417
 21
4.5
 31
0.0
  0
LINE
  5
A6
330
30
100
AcDbEntity
  8
1
100
AcDbLine
 10
84.55610315417
 20
4.5
 30
0.0
 11
84.65610315417
 21
4.5
 31
0.0
  0
LINE
  5
A7
330
30
100
AcDbEntity
  8
1
100
AcDbLine
 10
84.65610315417
 20
4.5
 30
0.0
 11
84.75610315417
 21
4.5
 31
0.0
  0
LINE
  5
A8
330
30
100
AcDbEntity
  8
1
100
AcDbLine
 10
84.75610315417
 20
4.5
 30
0.0
 11
84.85610315417
 21
4.5
 31
0.0
  0
LINE
  5
A9
330
30
100
AcDbEntity
  8
1
100
AcDbLine
 10
84.85610315417
 20
4.5
 30
0.0
 11
84.95610315417
 21
4.5
 31
0.0
  0
LINE
  5
AA
330
30
100
AcDbEntity
  8
1
100
AcDbLine
 10
84.95610315417
 20
4.5
 30
0.0
 11
85.05610315417
 21
4.5
 31
0.0
  0
LINE
  5
AB
330
30
100
AcDbEntity
  8
1
100
AcDbLine
 10
85.05610315417
 20
4.5
 30
0.0
 11
85.15610315417
 21
4.5
 31
0.0
  0
LINE
  5
AC
330
30
100
AcDbEntity
  8
1
100
AcDbLine
 10
85.15610315417
 20
4.5
 30
0.0
 11
85.25610315417
 21
4.5
 31
0.0
  0
LINE
  5
AD
330
30
100
AcDbEntity
  8
1
100
AcDbLine
 10
85.25610315417
 20
4.5
 30
0.0
 11
85.35610315417
 21
4.5
 31
0.0
  0
LINE
  5
AE
330
30
100
AcDbEntity
  8
1
100
AcDbLine
 10
85.35610315417
 20
4.5
 30
0.0
 11
85.45610315417
 21
4.5
 31
0.0
  0
LINE
  5
AF
330
30
100
AcDbEntity
  8
1
100
AcDbLine
 10
85.45610315417
 20
4.5
 30
0.0
 11
85.55610315417
 21
4.5
 31
0.0
  0
LINE
  5
B0
330
30
100
AcDbEntity
  8
1
100
AcDbLine
 10
85.55610315417
 20
4.5
 30
0.0
 11
85.65610315417
 21
4.5
 31
0.0
  0
LINE
  5
B1
330
30
100
AcDbEntity
  8
1
100
AcDbLine
 10
85.65610315417
 20
4.5
 30
0.0
 11
85.75610315417
 21
4.5
 31
0.0
  0
LINE
  5
B2
330
30
100
AcDbEntity
  8
1
100
AcDbLine
 10
85.75610315417
 20
4.5
 30
0.0
 11
85.85610315417
 21
4.5
 31
0.0
  0
LINE
  5
B3
330
30
100
AcDbEntity
  8
1
100
AcDbLine
 10
85.85610315417
 20
4.5
 30
0.0
 11
85.95610315417
 21
4.5
 31
0.0
  0
LINE
  5
B4
330
30
100
AcDbEntity
  8
1
100
AcDbLine
 10
86.0
 20
4.5
 30
0.0
 11
86.0
 21
-4.5
 31
0.0
  0
LINE
  5
B5
330
30
100
AcDbEntity
  8
1
100
AcDbLine
 10
85.95610315417
 20
-4.5
 30
0.0
 11
85.85610315417
 21
-4.5
 31
0.0
  0
LINE
  5
B6
330
30
100
AcDbEntity
  8
1
100
AcDbLine
 10
85.85610315417
 20
-4.5
 30
0.0
 11
85.75610315417
 21
-4.5
 31
0.0
  0
LINE
  5
B7
330
30
100
AcDbEntity
  8
1
100
AcDbLine
 10
85.75610315417
 20
-4.5
 30
0.0
 11
85.65610315417
 21
-4.5
 31
0.0
  0
LINE
  5
B8
330
30
100
AcDbEntity
  8
1
100
AcDbLine
 10
85.65610315417
 20
-4.5
 30
0.0
 11
85.55610315417
 21
-4.5
 31
0.0
  0
LINE
  5
B9
330
30
100
AcDbEntity
  8
1
100
AcDbLine
 10
85.55610315417
 20
-4.5
 30
0.0
 11
85.45610315417
 21
-4.5
 31
0.0
  0
LINE
  5
BA
330
30
100
AcDbEntity
  8
1
100
AcDbLine
 10
85.45610315417
 20
-4.5
 30
0.0
 11
85.35610315417
 21
-4.5
 31
0.0
  0
LINE
  5
BB
330
30
100
AcDbEntity
  8
1
100
AcDbLine
 10
85.35610315417
 20
-4.5
 30
0.0
 11
85.25610315417
 21
-4.5
 31
0.0
  0
LINE
  5
BC
330
30
100
AcDbEntity
  8
1
100
AcDbLine
 10
85.25610315417
 20
-4.5
 30
0.0
 11
85.15610315417
 21
-4.5
 31
0.0
  0
LINE
  5
BD
330
30
100
AcDbEntity
  8
1
100
AcDbLine
 10
85.15610315417
 20
-4.5
 30
0.0
 11
85.05610315417
 21
-4.5
 31
0.0
  0
LINE
  5
BE
330
30
100
AcDbEntity
  8
1
100
AcDbLine
 10
85.05610315417
 20
-4.5
 30
0.0
 11
84.95610315417
 21
-4.5
 31
0.0
  0
LINE
  5
BF
330
30
100
AcDbEntity
  8
1
100
AcDbLine
 10
84.95610315417
 20
-4.5
 30
0.0
 11
84.85610315417
 21
-4.5
 31
0.0
  0
LINE
  5
C0
330
30
100
AcDbEntity
  8
1
100
AcDbLine
 10
84.85610315417
 20
-4.5
 30
0.0
 11
84.75610315417
 21
-4.5
 31
0.0
  0
LINE
  5
C1
330
30
100
AcDbEntity
  8
1
100
AcDbLine
 10
84.75610315417
 20
-4.5
 30
0.0
 11
84.65610315417
 21
-4.5
 31
0.0
  0
LINE
  5
C2
330
30
100
AcDbEntity
  8
1
100
AcDbLine
 10
84.65610315417
 20
-4.5
 30
0.0
 11
84.55610315417
 21
-4.5
 31
0.0
  0
LINE
  5
C3
330
30
100
AcDbEntity
  8
1
100
AcDbLine
 10
84.55610315417
 20
-4.5
 30
0.0
 11
84.45610315417
 21
-4.5
 31
0.0
  0
LINE
  5
C4
330
30
100
AcDbEntity
  8
1
100
AcDbLine
 10
84.45610315417
 20
-4.5
 30
0.0
 11
84.35610315417
 21
-4.5
 31
0.0
  0
LINE
  5
C5
330
30
100
AcDbEntity
  8
1
100
AcDbLine
 10
84.35610315417
 20
-4.5
 30
0.0
 11
84.25610315417
 21
-4.5
 31
0.0
  0
LINE
  5
C6
330
30
100
AcDbEntity
  8
1
100
AcDbLine
 10
84.25610315417
 20
-4.5
 30
0.0
 11
84.15610315417
 21
-4.5
 31
0.0
  0
LINE
  5
C7
330
30
100
AcDbEntity
  8
1
100
AcDbLine
 10
84.15610315417
 20
-4.5
 30
0.0
 11
84.05610315417
 21
-4.5
 31
0.0
  0
LINE
  5
C8
330
30
100
AcDbEntity
  8
1
100
AcDbLine
 10
84.05610315417
 20
-4.5
 30
0.0
 11
83.95610315417
 21
-4.5
 31
0.0
  0
LINE
  5
C9
330
30
100
AcDbEntity
  8
1
100
AcDbLine
 10
83.95610315417
 20
-4.5
 30
0.0
 11
83.85610315417
 21
-4.5
 31
0.0
  0
LINE
  5
CA
330
30
100
AcDbEntity
  8
1
100
AcDbLine
 10
83.85610315417
 20
-4.5
 30
0.0
 11
83.75610315417
 21
-4.5
 31
0.0
  0
LINE
  5
CB
330
30
100
AcDbEntity
  8
1
100
AcDbLine
 10
83.75610315417
 20
-4.5
 30
0.0
 11
83.65610315417
 21
-4.5
 31
0.0
  0
LINE
  5
CC
330
30
100
AcDbEntity
  8
1
100
AcDbLine
 10
83.65610315417
 20
-4.5
 30
0.0
 11
83.55610315417
 21
-4.5
 31
0.0
  0
LINE
  5
CD
330
30
100
AcDbEntity
  8
1
100
AcDbLine
 10
83.55610315417
 20
-4.5
 30
0.0
 11
83.45610315417
 21
-4.5
 31
0.0
  0
LINE
  5
CE
330
30
100
AcDbEntity
  8
1
100
AcDbLine
 10
83.45610315417
 20
-4.5
 30
0.0
 11
83.35610315417
 21
-4.5
 31
0.0
  0
LINE
  5
CF
330
30
100
AcDbEntity
  8
1
100
AcDbLine
 10
83.35610315417
 20
-4.5
 30
0.0
 11
83.25610315417
 21
-4.5
 31
0.0
  0
LINE
  5
D0
330
30
100
AcDbEntity
  8
1
100
AcDbLine
 10
83.25610315417
 20
-4.5
 30
0.0
 11
83.15610315417
 21
-4.5
 31
0.0
  0
LINE
  5
D1
330
30
100
AcDbEntity
  8
1
100
AcDbLine
 10
83.15610315417
 20
-4.5
 30
0.0
 11
83.05610315417
 21
-4.5
 31
0.0
  0
LINE
  5
D2
330
30
100
AcDbEntity
  8
1
100
AcDbLine
 10
83.05610315417
 20
-4.5
 30
0.0
 11
82.95610315417
 21
-4.5
 31
0.0
  0
LINE
  5
D3
330
30
100
AcDbEntity
  8
1
100
AcDbLine
 10
82.95610315417
 20
-4.5
 30
0.0
 11
82.85610315417
 21
-4.5
 31
0.0
  0
LINE
  5
D4
330
30
100
AcDbEntity
  8
1
100
AcDbLine
 10
82.85610315417
 20
-4.5
 30
0.0
 11
82.75610315417
 21
-4.5
 31
0.0
  0
LINE
  5
D5
330
30
100
AcDbEntity
  8
1
100
AcDbLine
 10
82.75610315417
 20
-4.5
 30
0.0
 11
82.65610315417
 21
-4.5
 31
0.0
  0
LINE
  5
D6
330
30
100
AcDbEntity
  8
1
100
AcDbLine
 10
82.65610315417
 20
-4.5
 30
0.0
 11
82.55610315417
 21
-4.5
 31
0.0
  0
LINE
  5
D7
330
30
100
AcDbEntity
  8
1
100
AcDbLine
 10
82.55610315417
 20
-4.5
 30
0.0
 11
82.45610315417
 21
-4.5
 31
0.0
  0
LINE
  5
D8
330
30
100
AcDbEntity
  8
1
100
AcDbLine
 10
82.45610315417
 20
-4.5
 30
0.0
 11
82.35610315417
 21
-4.5
 31
0.0
  0
LINE
  5
D9
330
30
100
AcDbEntity
  8
1
100
AcDbLine
 10
82.35610315417
 20
-4.5
 30
0.0
 11
82.25610315417
 21
-4.5
 31
0.0
  0
LINE
  5
DA
330
30
100
AcDbEntity
  8
1
100
AcDbLine
 10
82.25610315417
 20
-4.5
 30
0.0
 11
82.15610315417
 21
-4.5
 31
0.0
  0
LINE
  5
DB
330
30
100
AcDbEntity
  8
1
100
AcDbLine
 10
82.15610315417
 20
-4.5
 30
0.0
 11
82.05610315417
 21
-4.5
 31
0.0
  0
LINE
  5
DC
330
30
100
AcDbEntity
  8
1
100
AcDbLine
 10
82.05610315417
 20
-4.5
 30
0.0
 11
81.95610315417
 21
-4.5
 31
0.0
  0
LINE
  5
DD
330
30
100
AcDbEntity
  8
1
100
AcDbLine
 10
81.95610315417
 20
-4.5
 30
0.0
 11
81.85610315417
 21
-4.5
 31
0.0
  0
LINE
  5
DE
330
30
100
AcDbEntity
  8
1
100
AcDbLine
 10
81.85610315417
 20
-4.5
 30
0.0
 11
81.75610315417
 21
-4.5
 31
0.0
  0
LINE
  5
DF
330
30
100
AcDbEntity
  8
1
100
AcDbLine
 10
81.75610315417
 20
-4.5
 30
0.0
 11
81.65610315417
 21
-4.5
 31
0.0
  0
LINE
  5
E0
330
30
100
AcDbEntity
  8
1
100
AcDbLine
 10
81.65610315417
 20
-4.5
 30
0.0
 11
81.55610315417
 21
-4.5
 31
0.0
  0
LINE
  5
E1
330
30
100
AcDbEntity
  8
1
100
AcDbLine
 10
81.55610315417
 20
-4.5
 30
0.0
 11
81.45610315417
 21
-4.5
 31
0.0
  0
LINE
  5
E2
330
30
100
AcDbEntity
  8
1
100
AcDbLine
 10
81.45610315417
 20
-4.5
 30
0.0
 11
81.35610315417
 21
-4.5
 31
0.0
  0
LINE
  5
E3
330
30
100
AcDbEntity
  8
1
100
AcDbLine
 10
81.35610315417
 20
-4.5
 30
0.0
 11
81.25610315417
 21
-4.5
 31
0.0
  0
LINE
  5
E4
330
30
100
AcDbEntity
  8
1
100
AcDbLine
 10
81.25610315417
 20
-4.5
 30
0.0
 11
81.15610315417
 21
-4.5
 31
0.0
  0
LINE
  5
E5
330
30
100
AcDbEntity
  8
1
100
AcDbLine
 10
81.15610315417
 20
-4.5
 30
0.0
 11
81.05610315417
 21
-4.5
 31
0.0
  0
LINE
  5
E6
330
30
100
AcDbEntity
  8
1
100
AcDbLine
 10
81.05610315417
 20
-4.5
 30
0.0
 11
80.95610315417
 21
-4.5
 31
0.0
  0
LINE
  5
E7
330
30
100
AcDbEntity
  8
1
100
AcDbLine
 10
80.95610315417
 20
-4.5
 30
0.0
 11
80.85610315417
 21
-4.5
 31
0.0
  0
LINE
  5
E8
330
30
100
AcDbEntity
  8
1
100
AcDbLine
 10
80.85610315417
 20
-4.5
 30
0.0
 11
80.75610315417
 21
-4.5
 31
0.0
  0
LINE
  5
E9
330
30
100
AcDbEntity
  8
1
100
AcDbLine
 10
80.75610315417
 20
-4.5
 30
0.0
 11
80.65610315417
 21
-4.5
 31
0.0
  0
LINE
  5
EA
330
30
100
AcDbEntity
  8
1
100
AcDbLine
 10
80.65610315417
 20
-4.5
 30
0.0
 11
80.55610315417
 21
-4.5
 31
0.0
  0
LINE
  5
EB
330
30
100
AcDbEntity
  8
1
100
AcDbLine
 10
80.55610315417
 20
-4.5
 30
0.0
 11
80.45610315417
 21
-4.5
 31
0.0
  0
LINE
  5
EC
330
30
100
AcDbEntity
  8
1
100
AcDbLine
 10
80.45610315417
 20
-4.5
 30
0.0
 11
80.35610315417
 21
-4.5
 31
0.0
  0
LINE
  5
ED
330
30
100
AcDbEntity
  8
1
100
AcDbLine
 10
80.35610315417
 20
-4.5
 30
0.0
 11
80.25610315417
 21
-4.5
 31
0.0
  0
LINE
  5
EE
330
30
100
AcDbEntity
  8
1
100
AcDbLine
 10
80.25610315417
 20
-4.5
 30
0.0
 11
80.15610315417
 21
-4.5
 31
0.0
  0
LINE
  5
EF
330
30
100
AcDbEntity
  8
1
100
AcDbLine
 10
80.15610315417
 20
-4.5
 30
0.0
 11
80.05610315417
 21
-4.5
 31
0.0
  0
LINE
  5
F0
330
30
100
AcDbEntity
  8
1
100
AcDbLine
 10
80.05610315417
 20
-4.5
 30
0.0
 11
79.95610315417
 21
-4.5
 31
0.0
  0
LINE
  5
F1
330
30
100
AcDbEntity
  8
1
100
AcDbLine
 10
79.95610315417
 20
-4.5
 30
0.0
 11
79.85610315417
 21
-4.5
 31
0.0
  0
LINE
  5
F2
330
30
100
AcDbEntity
  8
1
100
AcDbLine
 10
79.85610315417
 20
-4.5
 30
0.0
 11
79.75610315417
 21
-4.5
 31
0.0
  0
LINE
  5
F3
330
30
100
AcDbEntity
  8
1
100
AcDbLine
 10
79.75610315417
 20
-4.5
 30
0.0
 11
79.65610315417
 21
-4.5
 31
0.0
  0
LINE
  5
F4
330
30
100
AcDbEntity
  8
1
100
AcDbLine
 10
79.65610315417
 20
-4.5
 30
0.0
 11
79.55610315417
 21
-4.5
 31
0.0
  0
LINE
  5
F5
330
30
100
AcDbEntity
  8
1
100
AcDbLine
 10
79.55610315417
 20
-4.5
 30
0.0
 11
79.45610315417
 21
-4.5
 31
0.0
  0
LINE
  5
F6
330
30
100
AcDbEntity
  8
1
100
AcDbLine
 10
79.45610315417
 20
-4.5
 30
0.0
 11
79.35610315417
 21
-4.5
 31
0.0
  0
LINE
  5
F7
330
30
100
AcDbEntity
  8
1
100
AcDbLine
 10
79.35610315417
 20
-4.5
 30
0.0
 11
79.25610315417
 21
-4.5
 31
0.0
  0
LINE
  5
F8
330
30
100
AcDbEntity
  8
1
100
AcDbLine
 10
79.25610315417
 20
-4.5
 30
0.0
 11
79.15610315417
 21
-4.5
 31
0.0
  0
LINE
  5
F9
330
30
100
AcDbEntity
  8
1
100
AcDbLine
 10
79.15610315417
 20
-4.5
 30
0.0
 11
79.05610315417
 21
-4.5
 31
0.0
  0
LINE
  5
FA
330
30
100
AcDbEntity
  8
1
100
AcDbLine
 10
79.05610315417
 20
-4.5
 30
0.0
 11
78.95610315417
 21
-4.5
 31
0.0
  0
LINE
  5
FB
330
30
100
AcDbEntity
  8
1
100
AcDbLine
 10
78.95610315417
 20
-4.5
 30
0.0
 11
78.85610315417
 21
-4.5
 31
0.0
  0
LINE
  5
FC
330
30
100
AcDbEntity
  8
1
100
AcDbLine
 10
78.85610315417
 20
-4.5
 30
0.0
 11
78.75610315417
 21
-4.5
 31
0.0
  0
LINE
  5
FD
330
30
100
AcDbEntity
  8
1
100
AcDbLine
 10
78.75610315417
 20
-4.5
 30
0.0
 11
78.65610315417
 21
-4.5
 31
0.0
  0
LINE
  5
FE
330
30
100
AcDbEntity
  8
1
100
AcDbLine
 10
78.65610315417
 20
-4.5
 30
0.0
 11
78.55610315417
 21
-4.5
 31
0.0
  0
LINE
  5
FF
330
30
100
AcDbEntity
  8
1
100
AcDbLine
 10
78.55610315417
 20
-4.5
 30
0.0
 11
78.45610315417
 21
-4.5
 31
0.0
  0
LINE
  5
100
330
30
100
AcDbEntity
  8
1
100
AcDbLine
 10
78.45610315417
 20
-4.5
 30
0.0
 11
78.35610315417
 21
-4.5
 31
0.0
  0
LINE
  5
101
330
30
100
AcDbEntity
  8
1
100
AcDbLine
 10
78.35610315417
 20
-4.5
 30
0.0
 11
78.25610315417
 21
-4.5
 31
0.0
  0
LINE
  5
102
330
30
100
AcDbEntity
  8
1
100
AcDbLine
 10
78.25610315417
 20
-4.5
 30
0.0
 11
78.15610315417
 21
-4.5
 31
0.0
  0
LINE
  5
103
330
30
100
AcDbEntity
  8
1
100
AcDbLine
 10
78.15610315417
 20
-4.5
 30
0.0
 11
78.05610315417
 21
-4.5
 31
0.0
  0
LINE
  5
104
330
30
100
AcDbEntity
  8
1
100
AcDbLine
 10
78.05610315417
 20
-4.5
 30
0.0
 11
77.95610315417
 21
-4.5
 31
0.0
  0
LINE
  5
105
330
30
100
AcDbEntity
  8
1
100
AcDbLine
 10
77.95610315417
 20
-4.5
 30
0.0
 11
77.85610315417
 21
-4.5
 31
0.0
  0
LINE
  5
106
330
30
100
AcDbEntity
  8
1
100
AcDbLine
 10
77.85610315417
 20
-4.5
 30
0.0
 11
77.75610315417
 21
-4.5
 31
0.0
  0
LINE
  5
107
330
30
100
AcDbEntity
  8
1
100
AcDbLine
 10
77.75610315417
 20
-4.5
 30
0.0
 11
77.65610315417
 21
-4.5
 31
0.0
  0
LINE
  5
108
330
30
100
AcDbEntity
  8
1
100
AcDbLine
 10
77.65610315417
 20
-4.5
 30
0.0
 11
77.55610315417
 21
-4.5
 31
0.0
  0
LINE
  5
109
330
30
100
AcDbEntity
  8
1
100
AcDbLine
 10
77.55610315417
 20
-4.5
 30
0.0
 11
77.45610315417
 21
-4.5
 31
0.0
  0
LINE
  5
10A
330
30
100
AcDbEntity
  8
1
100
AcDbLine
 10
77.45610315417
 20
-4.5
 30
0.0
 11
77.35610315417
 21
-4.5
 31
0.0
  0
LINE
  5
10B
330
30
100
AcDbEntity
  8
1
100
AcDbLine
 10
77.35610315417
 20
-4.5
 30
0.0
 11
77.25610315417
 21
-4.5
 31
0.0
  0
LINE
  5
10C
330
30
100
AcDbEntity
  8
1
100
AcDbLine
 10
77.25610315417
 20
-4.5
 30
0.0
 11
77.15610315417
 21
-4.5
 31
0.0
  0
LINE
  5
10D
330
30
100
AcDbEntity
  8
1
100
AcDbLine
 10
77.15610315417
 20
-4.5
 30
0.0
 11
77.05610315417
 21
-4.5
 31
0.0
  0
LINE
  5
10E
330
30
100
AcDbEntity
  8
1
100
AcDbLine
 10
77.05610315417
 20
-4.5
 30
0.0
 11
76.95610315417
 21
-4.5
 31
0.0
  0
LINE
  5
10F
330
30
100
AcDbEntity
  8
1
100
AcDbLine
 10
76.95610315417
 20
-4.5
 30
0.0
 11
76.85610315417
 21
-4.5
 31
0.0
  0
LINE
  5
110
330
30
100
AcDbEntity
  8
1
100
AcDbLine
 10
76.85610315417
 20
-4.5
 30
0.0
 11
76.75610315417
 21
-4.5
 31
0.0
  0
LINE
  5
111
330
30
100
AcDbEntity
  8
1
100
AcDbLine
 10
76.75610315417
 20
-4.5
 30
0.0
 11
76.65610315417
 21
-4.5
 31
0.0
  0
LINE
  5
112
330
30
100
AcDbEntity
  8
1
100
AcDbLine
 10
76.65610315417
 20
-4.5
 30
0.0
 11
76.55610315417
 21
-4.5
 31
0.0
  0
LINE
  5
113
330
30
100
AcDbEntity
  8
1
100
AcDbLine
 10
76.55610315417
 20
-4.5
 30
0.0
 11
76.45610315417
 21
-4.5
 31
0.0
  0
LINE
  5
114
330
30
100
AcDbEntity
  8
1
100
AcDbLine
 10
76.45610315417
 20
-4.5
 30
0.0
 11
76.35610315417
 21
-4.5
 31
0.0
  0
LINE
  5
115
330
30
100
AcDbEntity
  8
1
100
AcDbLine
 10
76.35610315417
 20
-4.5
 30
0.0
 11
76.25610315417
 21
-4.5
 31
0.0
  0
LINE
  5
116
330
30
100
AcDbEntity
  8
1
100
AcDbLine
 10
76.25610315417
 20
-4.5
 30
0.0
 11
76.15610315417
 21
-4.5
 31
0.0
  0
LINE
  5
117
330
30
100
AcDbEntity
  8
1
100
AcDbLine
 10
76.15610315417
 20
-4.5
 30
0.0
 11
76.05610315417
 21
-4.5
 31
0.0
  0
LINE
  5
118
330
30
100
AcDbEntity
  8
1
100
AcDbLine
 10
76.05610315417
 20
-4.5
 30
0.0
 11
75.95610315417
 21
-4.5
 31
0.0
  0
LINE
  5
119
330
30
100
AcDbEntity
  8
1
100
AcDbLine
 10
75.95610315417
 20
-4.5
 30
0.0
 11
75.85610315417
 21
-4.5
 31
0.0
  0
LINE
  5
11A
330
30
100
AcDbEntity
  8
1
100
AcDbLine
 10
75.85610315417
 20
-4.5
 30
0.0
 11
75.75610315417
 21
-4.5
 31
0.0
  0
LINE
  5
11B
330
30
100
AcDbEntity
  8
1
100
AcDbLine
 10
75.75610315417
 20
-4.5
 30
0.0
 11
75.65610315417
 21
-4.5
 31
0.0
  0
LINE
  5
11C
330
30
100
AcDbEntity
  8
1
100
AcDbLine
 10
75.65610315417
 20
-4.5
 30
0.0
 11
75.55610315417
 21
-4.5
 31
0.0
  0
LINE
  5
11D
330
30
100
AcDbEntity
  8
1
100
AcDbLine
 10
75.55610315417
 20
-4.5
 30
0.0
 11
75.45610315417
 21
-4.5
 31
0.0
  0
LINE
  5
11E
330
30
100
AcDbEntity
  8
1
100
AcDbLine
 10
75.45610315417
 20
-4.5
 30
0.0
 11
75.35610315417
 21
-4.5
 31
0.0
  0
LINE
  5
11F
330
30
100
AcDbEntity
  8
1
100
AcDbLine
 10
75.35610315417
 20
-4.5
 30
0.0
 11
75.25610315417
 21
-4.5
 31
0.0
  0
LINE
  5
120
330
30
100
AcDbEntity
  8
1
100
AcDbLine
 10
75.25610315417
 20
-4.5
 30
0.0
 11
75.15610315417
 21
-4.5
 31
0.0
  0
LINE
  5
121
330
30
100
AcDbEntity
  8
1
100
AcDbLine
 10
75.15610315417
 20
-4.5
 30
0.0
 11
75.05610315417
 21
-4.5
 31
0.0
  0
LINE
  5
122
330
30
100
AcDbEntity
  8
1
100
AcDbLine
 10
75.0
 20
-4.5
 30
0.0
 11
75.0
 21
4.5
 31
0.0
  0
LINE
  5
123
330
30
100
AcDbEntity
  8
1
100
AcDbLine
 10
75.0
 20
4.5
 30
0.0
 11
75.0
 21
-4.5
 31
0.0
  0
LINE
  5
124
330
30
100
AcDbEntity
  8
1
100
AcDbLine
 10
73.441154273188
 20
-3.6
 30
0.0
 11
73.441154273188
 21
3.6
 31
0.0
  0
LINE
  5
125
330
30
100
AcDbEntity
  8
1
100
AcDbLine
 10
60.15610315417
 20
1.745188680834
 30
0.0
 11
60.25610315417
 21
1.745188680834
 31
0.0
  0
LINE
  5
126
330
30
100
AcDbEntity
  8
1
100
AcDbLine
 10
60.25610315417
 20
1.745188680834
 30
0.0
 11
60.35610315417
 21
1.745188680834
 31
0.0
  0
LINE
  5
127
330
30
100
AcDbEntity
  8
1
100
AcDbLine
 10
60.35610315417
 20
1.745188680834
 30
0.0
 11
60.45610315417
 21
1.745188680834
 31
0.0
  0
LINE
  5
128
330
30
100
AcDbEntity
  8
1
100
AcDbLine
 10
60.45610315417
 20
1.745188680834
 30
0.0
 11
60.55610315417
 21
1.745188680834
 31
0.0
  0
LINE
  5
129
330
30
100
AcDbEntity
  8
1
100
AcDbLine
 10
60.55610315417
 20
1.745188680834
 30
0.0
 11
60.65610315417
 21
1.745188680834
 31
0.0
  0
LINE
  5
12A
330
30
100
AcDbEntity
  8
1
100
AcDbLine
 10
60.65610315417
 20
1.745188680834
 30
0.0
 11
60.75610315417
 21
1.745188680834
 31
0.0
  0
LINE
  5
12B
330
30
100
AcDbEntity
  8
1
100
AcDbLine
 10
60.75610315417
 20
1.745188680834
 30
0.0
 11
60.85610315417
 21
1.745188680834
 31
0.0
  0
LINE
  5
12C
330
30
100
AcDbEntity
  8
1
100
AcDbLine
 10
60.85610315417
 20
1.745188680834
 30
0.0
 11
60.95610315417
 21
1.745188680834
 31
0.0
  0
LINE
  5
12D
330
30
100
AcDbEntity
  8
1
100
AcDbLine
 10
60.95610315417
 20
1.745188680834
 30
0.0
 11
61.05610315417
 21
1.745188680834
 31
0.0
  0
LINE
  5
12E
330
30
100
AcDbEntity
  8
1
100
AcDbLine
 10
61.05610315417
 20
1.745188680834
 30
0.0
 11
61.15610315417
 21
1.745188680834
 31
0.0
  0
LINE
  5
12F
330
30
100
AcDbEntity
  8
1
100
AcDbLine
 10
61.15610315417
 20
1.745188680834
 30
0.0
 11
61.25610315417
 21
1.745188680834
 31
0.0
  0
LINE
  5
130
330
30
100
AcDbEntity
  8
1
100
AcDbLine
 10
61.25610315417
 20
1.745188680834
 30
0.0
 11
61.35610315417
 21
1.745188680834
 31
0.0
  0
LINE
  5
131
330
30
100
AcDbEntity
  8
1
100
AcDbLine
 10
61.35610315417
 20
1.745188680834
 30
0.0
 11
61.45610315417
 21
1.745188680834
 31
0.0
  0
LINE
  5
132
330
30
100
AcDbEntity
  8
1
100
AcDbLine
 10
61.45610315417
 20
1.745188680834
 30
0.0
 11
61.55610315417
 21
1.745188680834
 31
0.0
  0
LINE
  5
133
330
30
100
AcDbEntity
  8
1
100
AcDbLine
 10
61.55610315417
 20
1.745188680834
 30
0.0
 11
61.65610315417
 21
1.745188680834
 31
0.0
  0
LINE
  5
134
330
30
100
AcDbEntity
  8
1
100
AcDbLine
 10
61.65610315417
 20
1.745188680834
 30
0.0
 11
61.75610315417
 21
1.745188680834
 31
0.0
  0
LINE
  5
135
330
30
100
AcDbEntity
  8
1
100
AcDbLine
 10
61.75610315417
 20
1.745188680834
 30
0.0
 11
61.85610315417
 21
1.745188680834
 31
0.0
  0
LINE
  5
136
330
30
100
AcDbEntity
  8
1
100
AcDbLine
 10
61.85610315417
 20
1.745188680834
 30
0.0
 11
61.95610315417
 21
1.745188680834
 31
0.0
  0
LINE
  5
137
330
30
100
AcDbEntity
  8
1
100
AcDbLine
 10
61.95610315417
 20
1.745188680834
 30
0.0
 11
62.05610315417
 21
1.745188680834
 31
0.0
  0
LINE
  5
138
330
30
100
AcDbEntity
  8
1
100
AcDbLine
 10
62.05610315417
 20
1.745188680834
 30
0.0
 11
62.15610315417
 21
1.745188680834
 31
0.0
  0
LINE
  5
139
330
30
100
AcDbEntity
  8
1
100
AcDbLine
 10
62.15610315417
 20
1.745188680834
 30
0.0
 11
62.25610315417
 21
1.745188680834
 31
0.0
  0
LINE
  5
13A
330
30
100
AcDbEntity
  8
1
100
AcDbLine
 10
62.25610315417
 20
1.745188680834
 30
0.0
 11
62.35610315417
 21
1.745188680834
 31
0.0
  0
LINE
  5
13B
330
30
100
AcDbEntity
  8
1
100
AcDbLine
 10
62.35610315417
 20
1.745188680834
 30
0.0
 11
62.45610315417
 21
1.745188680834
 31
0.0
  0
LINE
  5
13C
330
30
100
AcDbEntity
  8
1
100
AcDbLine
 10
62.45610315417
 20
1.745188680834
 30
0.0
 11
62.55610315417
 21
1.745188680834
 31
0.0
  0
LINE
  5
13D
330
30
100
AcDbEntity
  8
1
100
AcDbLine
 10
62.55610315417
 20
1.745188680834
 30
0.0
 11
62.65610315417
 21
1.745188680834
 31
0.0
  0
LINE
  5
13E
330
30
100
AcDbEntity
  8
1
100
AcDbLine
 10
62.65610315417
 20
1.745188680834
 30
0.0
 11
62.75610315417
 21
1.745188680834
 31
0.0
  0
LINE
  5
13F
330
30
100
AcDbEntity
  8
1
100
AcDbLine
 10
62.75610315417
 20
1.745188680834
 30
0.0
 11
62.85610315417
 21
1.745188680834
 31
0.0
  0
LINE
  5
140
330
30
100
AcDbEntity
  8
1
100
AcDbLine
 10
62.85610315417
 20
1.745188680834
 30
0.0
 11
62.95610315417
 21
1.745188680834
 31
0.0
  0
LINE
  5
141
330
30
100
AcDbEntity
  8
1
100
AcDbLine
 10
62.95610315417
 20
1.745188680834
 30
0.0
 11
63.05610315417
 21
1.745188680834
 31
0.0
  0
LINE
  5
142
330
30
100
AcDbEntity
  8
1
100
AcDbLine
 10
63.05610315417
 20
1.745188680834
 30
0.0
 11
63.15610315417
 21
1.745188680834
 31
0.0
  0
LINE
  5
143
330
30
100
AcDbEntity
  8
1
100
AcDbLine
 10
63.15610315417
 20
1.745188680834
 30
0.0
 11
63.25610315417
 21
1.745188680834
 31
0.0
  0
LINE
  5
144
330
30
100
AcDbEntity
  8
1
100
AcDbLine
 10
63.25610315417
 20
1.745188680834
 30
0.0
 11
63.35610315417
 21
1.745188680834
 31
0.0
  0
LINE
  5
145
330
30
100
AcDbEntity
  8
1
100
AcDbLine
 10
63.35610315417
 20
1.745188680834
 30
0.0
 11
63.45610315417
 21
1.745188680834
 31
0.0
  0
LINE
  5
146
330
30
100
AcDbEntity
  8
1
100
AcDbLine
 10
63.45610315417
 20
1.745188680834
 30
0.0
 11
63.55610315417
 21
1.745188680834
 31
0.0
  0
LINE
  5
147
330
30
100
AcDbEntity
  8
1
100
AcDbLine
 10
63.55610315417
 20
1.745188680834
 30
0.0
 11
63.65610315417
 21
1.745188680834
 31
0.0
  0
LINE
  5
148
330
30
100
AcDbEntity
  8
1
100
AcDbLine
 10
63.65610315417
 20
1.745188680834
 30
0.0
 11
63.75610315417
 21
1.745188680834
 31
0.0
  0
LINE
  5
149
330
30
100
AcDbEntity
  8
1
100
AcDbLine
 10
63.75610315417
 20
1.745188680834
 30
0.0
 11
63.85610315417
 21
1.745188680834
 31
0.0
  0
LINE
  5
14A
330
30
100
AcDbEntity
  8
1
100
AcDbLine
 10
63.85610315417
 20
1.745188680834
 30
0.0
 11
63.95610315417
 21
1.745188680834
 31
0.0
  0
LINE
  5
14B
330
30
100
AcDbEntity
  8
1
100
AcDbLine
 10
63.95610315417
 20
1.745188680834
 30
0.0
 11
64.05610315417
 21
1.745188680834
 31
0.0
  0
LINE
  5
14C
330
30
100
AcDbEntity
  8
1
100
AcDbLine
 10
64.05610315417
 20
1.745188680834
 30
0.0
 11
64.15610315417
 21
1.745188680834
 31
0.0
  0
LINE
  5
14D
330
30
100
AcDbEntity
  8
1
100
AcDbLine
 10
64.15610315417
 20
1.745188680834
 30
0.0
 11
64.25610315417
 21
1.745188680834
 31
0.0
  0
LINE
  5
14E
330
30
100
AcDbEntity
  8
1
100
AcDbLine
 10
64.25610315417
 20
1.745188680834
 30
0.0
 11
64.35610315417
 21
1.745188680834
 31
0.0
  0
LINE
  5
14F
330
30
100
AcDbEntity
  8
1
100
AcDbLine
 10
64.35610315417
 20
1.745188680834
 30
0.0
 11
64.45610315417
 21
1.745188680834
 31
0.0
  0
LINE
  5
150
330
30
100
AcDbEntity
  8
1
100
AcDbLine
 10
64.45610315417
 20
1.745188680834
 30
0.0
 11
64.55610315417
 21
1.745188680834
 31
0.0
  0
LINE
  5
151
330
30
100
AcDbEntity
  8
1
100
AcDbLine
 10
64.55610315417
 20
1.745188680834
 30
0.0
 11
64.65610315417
 21
1.745188680834
 31
0.0
  0
LINE
  5
152
330
30
100
AcDbEntity
  8
1
100
AcDbLine
 10
64.65610315417
 20
1.745188680834
 30
0.0
 11
64.75610315417
 21
1.745188680834
 31
0.0
  0
LINE
  5
153
330
30
100
AcDbEntity
  8
1
100
AcDbLine
 10
64.75610315417
 20
1.745188680834
 30
0.0
 11
64.85610315417
 21
1.745188680834
 31
0.0
  0
LINE
  5
154
330
30
100
AcDbEntity
  8
1
100
AcDbLine
 10
64.85610315417
 20
1.745188680834
 30
0.0
 11
64.95610315417
 21
1.745188680834
 31
0.0
  0
LINE
  5
155
330
30
100
AcDbEntity
  8
1
100
AcDbLine
 10
64.95610315417
 20
1.745188680834
 30
0.0
 11
65.05610315417
 21
1.745188680834
 31
0.0
  0
LINE
  5
156
330
30
100
AcDbEntity
  8
1
100
AcDbLine
 10
65.05610315417
 20
1.745188680834
 30
0.0
 11
65.15610315417
 21
1.745188680834
 31
0.0
  0
LINE
  5
157
330
30
100
AcDbEntity
  8
1
100
AcDbLine
 10
65.15610315417
 20
1.745188680834
 30
0.0
 11
65.25610315417
 21
1.745188680834
 31
0.0
  0
LINE
  5
158
330
30
100
AcDbEntity
  8
1
100
AcDbLine
 10
65.25610315417
 20
1.745188680834
 30
0.0
 11
65.35610315417
 21
1.745188680834
 31
0.0
  0
LINE
  5
159
330
30
100
AcDbEntity
  8
1
100
AcDbLine
 10
65.35610315417
 20
1.745188680834
 30
0.0
 11
65.45610315417
 21
1.745188680834
 31
0.0
  0
LINE
  5
15A
330
30
100
AcDbEntity
  8
1
100
AcDbLine
 10
65.45610315417
 20
1.745188680834
 30
0.0
 11
65.55610315417
 21
1.745188680834
 31
0.0
  0
LINE
  5
15B
330
30
100
AcDbEntity
  8
1
100
AcDbLine
 10
65.55610315417
 20
1.745188680834
 30
0.0
 11
65.65610315417
 21
1.745188680834
 31
0.0
  0
LINE
  5
15C
330
30
100
AcDbEntity
  8
1
100
AcDbLine
 10
65.65610315417
 20
1.745188680834
 30
0.0
 11
65.75610315417
 21
1.745188680834
 31
0.0
  0
LINE
  5
15D
330
30
100
AcDbEntity
  8
1
100
AcDbLine
 10
65.75610315417
 20
1.745188680834
 30
0.0
 11
65.85610315417
 21
1.745188680834
 31
0.0
  0
LINE
  5
15E
330
30
100
AcDbEntity
  8
1
100
AcDbLine
 10
65.85610315417
 20
1.745188680834
 30
0.0
 11
65.95610315417
 21
1.745188680834
 31
0.0
  0
LINE
  5
15F
330
30
100
AcDbEntity
  8
1
100
AcDbLine
 10
65.95610315417
 20
1.745188680834
 30
0.0
 11
66.05610315417
 21
1.745188680834
 31
0.0
  0
LINE
  5
160
330
30
100
AcDbEntity
  8
1
100
AcDbLine
 10
66.05610315417
 20
1.745188680834
 30
0.0
 11
66.15610315417
 21
1.745188680834
 31
0.0
  0
LINE
  5
161
330
30
100
AcDbEntity
  8
1
100
AcDbLine
 10
66.15610315417
 20
1.745188680834
 30
0.0
 11
66.25610315417
 21
1.745188680834
 31
0.0
  0
LINE
  5
162
330
30
100
AcDbEntity
  8
1
100
AcDbLine
 10
66.25610315417
 20
1.745188680834
 30
0.0
 11
66.35610315417
 21
1.745188680834
 31
0.0
  0
LINE
  5
163
330
30
100
AcDbEntity
  8
1
100
AcDbLine
 10
66.35610315417
 20
1.745188680834
 30
0.0
 11
66.45610315417
 21
1.745188680834
 31
0.0
  0
LINE
  5
164
330
30
100
AcDbEntity
  8
1
100
AcDbLine
 10
66.45610315417
 20
1.745188680834
 30
0.0
 11
66.55610315417
 21
1.745188680834
 31
0.0
  0
LINE
  5
165
330
30
100
AcDbEntity
  8
1
100
AcDbLine
 10
66.55610315417
 20
1.745188680834
 30
0.0
 11
66.65610315417
 21
1.745188680834
 31
0.0
  0
LINE
  5
166
330
30
100
AcDbEntity
  8
1
100
AcDbLine
 10
66.65610315417
 20
1.745188680834
 30
0.0
 11
66.75610315417
 21
1.745188680834
 31
0.0
  0
LINE
  5
167
330
30
100
AcDbEntity
  8
1
100
AcDbLine
 10
66.75610315417
 20
1.745188680834
 30
0.0
 11
66.85610315417
 21
1.745188680834
 31
0.0
  0
LINE
  5
168
330
30
100
AcDbEntity
  8
1
100
AcDbLine
 10
66.85610315417
 20
1.745188680834
 30
0.0
 11
66.95610315417
 21
1.745188680834
 31
0.0
  0
LINE
  5
169
330
30
100
AcDbEntity
  8
1
100
AcDbLine
 10
66.95610315417
 20
1.745188680834
 30
0.0
 11
67.05610315417
 21
1.745188680834
 31
0.0
  0
LINE
  5
16A
330
30
100
AcDbEntity
  8
1
100
AcDbLine
 10
67.05610315417
 20
1.745188680834
 30
0.0
 11
67.15610315417
 21
1.745188680834
 31
0.0
  0
LINE
  5
16B
330
30
100
AcDbEntity
  8
1
100
AcDbLine
 10
67.15610315417
 20
1.745188680834
 30
0.0
 11
67.25610315417
 21
1.745188680834
 31
0.0
  0
LINE
  5
16C
330
30
100
AcDbEntity
  8
1
100
AcDbLine
 10
67.25610315417
 20
1.745188680834
 30
0.0
 11
67.35610315417
 21
1.745188680834
 31
0.0
  0
LINE
  5
16D
330
30
100
AcDbEntity
  8
1
100
AcDbLine
 10
67.35610315417
 20
1.745188680834
 30
0.0
 11
67.45610315417
 21
1.745188680834
 31
0.0
  0
LINE
  5
16E
330
30
100
AcDbEntity
  8
1
100
AcDbLine
 10
67.45610315417
 20
1.745188680834
 30
0.0
 11
67.55610315417
 21
1.745188680834
 31
0.0
  0
LINE
  5
16F
330
30
100
AcDbEntity
  8
1
100
AcDbLine
 10
67.55610315417
 20
1.745188680834
 30
0.0
 11
67.65610315417
 21
1.745188680834
 31
0.0
  0
LINE
  5
170
330
30
100
AcDbEntity
  8
1
100
AcDbLine
 10
67.65610315417
 20
1.745188680834
 30
0.0
 11
67.75610315417
 21
1.745188680834
 31
0.0
  0
LINE
  5
171
330
30
100
AcDbEntity
  8
1
100
AcDbLine
 10
67.75610315417
 20
1.745188680834
 30
0.0
 11
67.85610315417
 21
1.745188680834
 31
0.0
  0
LINE
  5
172
330
30
100
AcDbEntity
  8
1
100
AcDbLine
 10
67.85610315417
 20
1.745188680834
 30
0.0
 11
67.95610315417
 21
1.745188680834
 31
0.0
  0
LINE
  5
173
330
30
100
AcDbEntity
  8
1
100
AcDbLine
 10
67.95610315417
 20
1.745188680834
 30
0.0
 11
68.05610315417
 21
1.745188680834
 31
0.0
  0
LINE
  5
174
330
30
100
AcDbEntity
  8
1
100
AcDbLine
 10
68.05610315417
 20
1.745188680834
 30
0.0
 11
68.15610315417
 21
1.745188680834
 31
0.0
  0
LINE
  5
175
330
30
100
AcDbEntity
  8
1
100
AcDbLine
 10
68.15610315417
 20
1.745188680834
 30
0.0
 11
68.25610315417
 21
1.745188680834
 31
0.0
  0
LINE
  5
176
330
30
100
AcDbEntity
  8
1
100
AcDbLine
 10
68.25610315417
 20
1.745188680834
 30
0.0
 11
68.35610315417
 21
1.745188680834
 31
0.0
  0
LINE
  5
177
330
30
100
AcDbEntity
  8
1
100
AcDbLine
 10
68.35610315417
 20
1.745188680834
 30
0.0
 11
68.45610315417
 21
1.745188680834
 31
0.0
  0
LINE
  5
178
330
30
100
AcDbEntity
  8
1
100
AcDbLine
 10
68.45610315417
 20
1.745188680834
 30
0.0
 11
68.55610315417
 21
1.745188680834
 31
0.0
  0
LINE
  5
179
330
30
100
AcDbEntity
  8
1
100
AcDbLine
 10
68.55610315417
 20
1.745188680834
 30
0.0
 11
68.65610315417
 21
1.745188680834
 31
0.0
  0
LINE
  5
17A
330
30
100
AcDbEntity
  8
1
100
AcDbLine
 10
68.65610315417
 20
1.745188680834
 30
0.0
 11
68.75610315417
 21
1.745188680834
 31
0.0
  0
LINE
  5
17B
330
30
100
AcDbEntity
  8
1
100
AcDbLine
 10
68.75610315417
 20
1.745188680834
 30
0.0
 11
68.85610315417
 21
1.745188680834
 31
0.0
  0
LINE
  5
17C
330
30
100
AcDbEntity
  8
1
100
AcDbLine
 10
68.85610315417
 20
1.745188680834
 30
0.0
 11
68.95610315417
 21
1.745188680834
 31
0.0
  0
LINE
  5
17D
330
30
100
AcDbEntity
  8
1
100
AcDbLine
 10
68.95610315417
 20
1.745188680834
 30
0.0
 11
69.05610315417
 21
1.745188680834
 31
0.0
  0
LINE
  5
17E
330
30
100
AcDbEntity
  8
1
100
AcDbLine
 10
69.05610315417
 20
1.745188680834
 30
0.0
 11
69.15610315417
 21
1.745188680834
 31
0.0
  0
LINE
  5
17F
330
30
100
AcDbEntity
  8
1
100
AcDbLine
 10
69.15610315417
 20
1.745188680834
 30
0.0
 11
69.25610315417
 21
1.745188680834
 31
0.0
  0
LINE
  5
180
330
30
100
AcDbEntity
  8
1
100
AcDbLine
 10
69.25610315417
 20
1.745188680834
 30
0.0
 11
69.35610315417
 21
1.745188680834
 31
0.0
  0
LINE
  5
181
330
30
100
AcDbEntity
  8
1
100
AcDbLine
 10
69.35610315417
 20
1.745188680834
 30
0.0
 11
69.45610315417
 21
1.745188680834
 31
0.0
  0
LINE
  5
182
330
30
100
AcDbEntity
  8
1
100
AcDbLine
 10
69.45610315417
 20
1.745188680834
 30
0.0
 11
69.55610315417
 21
1.745188680834
 31
0.0
  0
LINE
  5
183
330
30
100
AcDbEntity
  8
1
100
AcDbLine
 10
69.55610315417
 20
1.745188680834
 30
0.0
 11
69.65610315417
 21
1.745188680834
 31
0.0
  0
LINE
  5
184
330
30
100
AcDbEntity
  8
1
100
AcDbLine
 10
69.65610315417
 20
1.745188680834
 30
0.0
 11
69.75610315417
 21
1.745188680834
 31
0.0
  0
LINE
  5
185
330
30
100
AcDbEntity
  8
1
100
AcDbLine
 10
69.75610315417
 20
1.745188680834
 30
0.0
 11
69.85610315417
 21
1.745188680834
 31
0.0
  0
LINE
  5
186
330
30
100
AcDbEntity
  8
1
100
AcDbLine
 10
69.85610315417
 20
1.745188680834
 30
0.0
 11
69.95610315417
 21
1.745188680834
 31
0.0
  0
LINE
  5
187
330
30
100
AcDbEntity
  8
1
100
AcDbLine
 10
69.95610315417
 20
1.745188680834
 30
0.0
 11
70.05610315417
 21
1.745188680834
 31
0.0
  0
LINE
  5
188
330
30
100
AcDbEntity
  8
1
100
AcDbLine
 10
70.05610315417
 20
1.745188680834
 30
0.0
 11
70.15610315417
 21
1.745188680834
 31
0.0
  0
LINE
  5
189
330
30
100
AcDbEntity
  8
1
100
AcDbLine
 10
70.15610315417
 20
1.745188680834
 30
0.0
 11
70.25610315417
 21
1.745188680834
 31
0.0
  0
LINE
  5
18A
330
30
100
AcDbEntity
  8
1
100
AcDbLine
 10
70.25610315417
 20
1.745188680834
 30
0.0
 11
70.35610315417
 21
1.745188680834
 31
0.0
  0
LINE
  5
18B
330
30
100
AcDbEntity
  8
1
100
AcDbLine
 10
70.35610315417
 20
1.745188680834
 30
0.0
 11
70.45610315417
 21
1.745188680834
 31
0.0
  0
LINE
  5
18C
330
30
100
AcDbEntity
  8
1
100
AcDbLine
 10
70.45610315417
 20
1.745188680834
 30
0.0
 11
70.55610315417
 21
1.745188680834
 31
0.0
  0
LINE
  5
18D
330
30
100
AcDbEntity
  8
1
100
AcDbLine
 10
70.55610315417
 20
1.745188680834
 30
0.0
 11
70.65610315417
 21
1.745188680834
 31
0.0
  0
LINE
  5
18E
330
30
100
AcDbEntity
  8
1
100
AcDbLine
 10
70.65610315417
 20
1.745188680834
 30
0.0
 11
70.75610315417
 21
1.745188680834
 31
0.0
  0
LINE
  5
18F
330
30
100
AcDbEntity
  8
1
100
AcDbLine
 10
70.75610315417
 20
1.745188680834
 30
0.0
 11
70.85610315417
 21
1.745188680834
 31
0.0
  0
LINE
  5
190
330
30
100
AcDbEntity
  8
1
100
AcDbLine
 10
70.85610315417
 20
1.745188680834
 30
0.0
 11
70.95610315417
 21
1.745188680834
 31
0.0
  0
LINE
  5
191
330
30
100
AcDbEntity
  8
1
100
AcDbLine
 10
70.95610315417
 20
1.745188680834
 30
0.0
 11
71.05610315417
 21
1.745188680834
 31
0.0
  0
LINE
  5
192
330
30
100
AcDbEntity
  8
1
100
AcDbLine
 10
71.05610315417
 20
1.745188680834
 30
0.0
 11
71.15610315417
 21
1.745188680834
 31
0.0
  0
LINE
  5
193
330
30
100
AcDbEntity
  8
1
100
AcDbLine
 10
71.15610315417
 20
1.745188680834
 30
0.0
 11
71.25610315417
 21
1.745188680834
 31
0.0
  0
LINE
  5
194
330
30
100
AcDbEntity
  8
1
100
AcDbLine
 10
71.25610315417
 20
1.745188680834
 30
0.0
 11
71.35610315417
 21
1.745188680834
 31
0.0
  0
LINE
  5
195
330
30
100
AcDbEntity
  8
1
100
AcDbLine
 10
71.35610315417
 20
1.745188680834
 30
0.0
 11
71.45610315417
 21
1.745188680834
 31
0.0
  0
LINE
  5
196
330
30
100
AcDbEntity
  8
1
100
AcDbLine
 10
71.45610315417
 20
1.745188680834
 30
0.0
 11
71.55610315417
 21
1.745188680834
 31
0.0
  0
LINE
  5
197
330
30
100
AcDbEntity
  8
1
100
AcDbLine
 10
71.55610315417
 20
1.745188680834
 30
0.0
 11
71.65610315417
 21
1.745188680834
 31
0.0
  0
LINE
  5
198
330
30
100
AcDbEntity
  8
1
100
AcDbLine
 10
71.65610315417
 20
1.745188680834
 30
0.0
 11
71.75610315417
 21
1.745188680834
 31
0.0
  0
LINE
  5
199
330
30
100
AcDbEntity
  8
1
100
AcDbLine
 10
71.75610315417
 20
1.745188680834
 30
0.0
 11
71.85610315417
 21
1.745188680834
 31
0.0
  0
LINE
  5
19A
330
30
100
AcDbEntity
  8
1
100
AcDbLine
 10
71.85610315417
 20
1.745188680834
 30
0.0
 11
71.95610315417
 21
1.745188680834
 31
0.0
  0
LINE
  5
19B
330
30
100
AcDbEntity
  8
1
100
AcDbLine
 10
71.95610315417
 20
1.745188680834
 30
0.0
 11
72.05610315417
 21
1.745188680834
 31
0.0
  0
LINE
  5
19C
330
30
100
AcDbEntity
  8
1
100
AcDbLine
 10
72.05610315417
 20
1.745188680834
 30
0.0
 11
72.15610315417
 21
1.745188680834
 31
0.0
  0
LINE
  5
19D
330
30
100
AcDbEntity
  8
1
100
AcDbLine
 10
72.15610315417
 20
1.745188680834
 30
0.0
 11
72.25610315417
 21
1.745188680834
 31
0.0
  0
LINE
  5
19E
330
30
100
AcDbEntity
  8
1
100
AcDbLine
 10
72.25610315417
 20
1.745188680834
 30
0.0
 11
72.35610315417
 21
1.745188680834
 31
0.0
  0
LINE
  5
19F
330
30
100
AcDbEntity
  8
1
100
AcDbLine
 10
72.35610315417
 20
1.745188680834
 30
0.0
 11
72.45610315417
 21
1.745188680834
 31
0.0
  0
LINE
  5
1A0
330
30
100
AcDbEntity
  8
1
100
AcDbLine
 10
72.45610315417
 20
1.745188680834
 30
0.0
 11
72.55610315417
 21
1.745188680834
 31
0.0
  0
LINE
  5
1A1
330
30
100
AcDbEntity
  8
1
100
AcDbLine
 10
72.55610315417
 20
1.745188680834
 30
0.0
 11
72.65610315417
 21
1.745188680834
 31
0.0
  0
LINE
  5
1A2
330
30
100
AcDbEntity
  8
1
100
AcDbLine
 10
72.65610315417
 20
1.745188680834
 30
0.0
 11
72.75610315417
 21
1.745188680834
 31
0.0
  0
LINE
  5
1A3
330
30
100
AcDbEntity
  8
1
100
AcDbLine
 10
72.75610315417
 20
1.745188680834
 30
0.0
 11
72.85610315417
 21
1.745188680834
 31
0.0
  0
LINE
  5
1A4
330
30
100
AcDbEntity
  8
1
100
AcDbLine
 10
72.85610315417
 20
1.745188680834
 30
0.0
 11
72.95610315417
 21
1.745188680834
 31
0.0
  0
LINE
  5
1A5
330
30
100
AcDbEntity
  8
1
100
AcDbLine
 10
72.95610315417
 20
1.745188680834
 30
0.0
 11
73.05610315417
 21
1.745188680834
 31
0.0
  0
LINE
  5
1A6
330
30
100
AcDbEntity
  8
1
100
AcDbLine
 10
73.05610315417
 20
1.745188680834
 30
0.0
 11
73.15610315417
 21
1.745188680834
 31
0.0
  0
LINE
  5
1A7
330
30
100
AcDbEntity
  8
1
100
AcDbLine
 10
73.15610315417
 20
1.745188680834
 30
0.0
 11
73.25610315417
 21
1.745188680834
 31
0.0
  0
LINE
  5
1A8
330
30
100
AcDbEntity
  8
1
100
AcDbLine
 10
73.25610315417
 20
1.745188680834
 30
0.0
 11
73.35610315417
 21
1.745188680834
 31
0.0
  0
LINE
  5
1A9
330
30
100
AcDbEntity
  8
1
100
AcDbLine
 10
73.35610315417
 20
1.745188680834
 30
0.0
 11
73.45610315417
 21
1.750033337711
 31
0.0
  0
LINE
  5
1AA
330
30
100
AcDbEntity
  8
1
100
AcDbLine
 10
73.45610315417
 20
1.750033337711
 30
0.0
 11
73.55610315417
 21
1.782439253632
 31
0.0
  0
LINE
  5
1AB
330
30
100
AcDbEntity
  8
1
100
AcDbLine
 10
73.55610315417
 20
1.782439253632
 30
0.0
 11
73.65610315417
 21
1.814841400523
 31
0.0
  0
LINE
  5
1AC
330
30
100
AcDbEntity
  8
1
100
AcDbLine
 10
73.65610315417
 20
1.814841400523
 30
0.0
 11
73.75610315417
 21
1.847239952231
 31
0.0
  0
LINE
  5
1AD
330
30
100
AcDbEntity
  8
1
100
AcDbLine
 10
73.75610315417
 20
1.847239952231
 30
0.0
 11
73.85610315417
 21
1.879635072053
 31
0.0
  0
LINE
  5
1AE
330
30
100
AcDbEntity
  8
1
100
AcDbLine
 10
73.85610315417
 20
1.879635072053
 30
0.0
 11
73.95610315417
 21
1.912026913527
 31
0.0
  0
LINE
  5
1AF
330
30
100
AcDbEntity
  8
1
100
AcDbLine
 10
73.95610315417
 20
1.912026913527
 30
0.0
 11
74.05610315417
 21
1.944415621156
 31
0.0
  0
LINE
  5
1B0
330
30
100
AcDbEntity
  8
1
100
AcDbLine
 10
74.05610315417
 20
1.944415621156
 30
0.0
 11
74.15610315417
 21
1.976801331059
 31
0.0
  0
LINE
  5
1B1
330
30
100
AcDbEntity
  8
1
100
AcDbLine
 10
74.15610315417
 20
1.976801331059
 30
0.0
 11
74.25610315417
 21
2.009184171572
 31
0.0
  0
LINE
  5
1B2
330
30
100
AcDbEntity
  8
1
100
AcDbLine
 10
74.25610315417
 20
2.009184171572
 30
0.0
 11
74.35610315417
 21
2.041564263799
 31
0.0
  0
LINE
  5
1B3
330
30
100
AcDbEntity
  8
1
100
AcDbLine
 10
74.35610315417
 20
2.041564263799
 30
0.0
 11
74.45610315417
 21
2.073941722114
 31
0.0
  0
LINE
  5
1B4
330
30
100
AcDbEntity
  8
1
100
AcDbLine
 10
74.45610315417
 20
2.073941722114
 30
0.0
 11
74.55610315417
 21
2.106316654622
 31
0.0
  0
LINE
  5
1B5
330
30
100
AcDbEntity
  8
1
100
AcDbLine
 10
74.55610315417
 20
2.106316654622
 30
0.0
 11
74.65610315417
 21
2.138689163586
 31
0.0
  0
LINE
  5
1B6
330
30
100
AcDbEntity
  8
1
100
AcDbLine
 10
74.65610315417
 20
2.138689163586
 30
0.0
 11
74.75610315417
 21
2.171059345814
 31
0.0
  0
LINE
  5
1B7
330
30
100
AcDbEntity
  8
1
100
AcDbLine
 10
74.75610315417
 20
2.171059345814
 30
0.0
 11
74.85610315417
 21
2.203427293018
 31
0.0
  0
LINE
  5
1B8
330
30
100
AcDbEntity
  8
1
100
AcDbLine
 10
74.85610315417
 20
2.203427293018
 30
0.0
 11
74.95610315417
 21
2.235793092148
 31
0.0
  0
LINE
  5
1B9
330
30
100
AcDbEntity
  8
1
100
AcDbLine
 10
74.95610315417
 20
2.235793092148
 30
0.0
 11
75.05610315417
 21
2.25
 31
0.0
  0
LINE
  5
1BA
330
30
100
AcDbEntity
  8
1
100
AcDbLine
 10
75.05610315417
 20
2.25
 30
0.0
 11
75.15610315417
 21
2.25
 31
0.0
  0
LINE
  5
1BB
330
30
100
AcDbEntity
  8
1
100
AcDbLine
 10
75.15610315417
 20
2.25
 30
0.0
 11
75.25610315417
 21
2.25
 31
0.0
  0
LINE
  5
1BC
330
30
100
AcDbEntity
  8
1
100
AcDbLine
 10
75.25610315417
 20
2.25
 30
0.0
 11
75.35610315417
 21
2.25
 31
0.0
  0
LINE
  5
1BD
330
30
100
AcDbEntity
  8
1
100
AcDbLine
 10
75.35610315417
 20
2.25
 30
0.0
 11
75.45610315417
 21
2.25
 31
0.0
  0
LINE
  5
1BE
330
30
100
AcDbEntity
  8
1
100
AcDbLine
 10
75.45610315417
 20
2.25
 30
0.0
 11
75.55610315417
 21
2.25
 31
0.0
  0
LINE
  5
1BF
330
30
100
AcDbEntity
  8
1
100
AcDbLine
 10
75.55610315417
 20
2.25
 30
0.0
 11
75.65610315417
 21
2.25
 31
0.0
  0
LINE
  5
1C0
330
30
100
AcDbEntity
  8
1
100
AcDbLine
 10
75.65610315417
 20
2.25
 30
0.0
 11
75.75610315417
 21
2.25
 31
0.0
  0
LINE
  5
1C1
330
30
100
AcDbEntity
  8
1
100
AcDbLine
 10
75.75610315417
 20
2.25
 30
0.0
 11
75.85610315417
 21
2.25
 31
0.0
  0
LINE
  5
1C2
330
30
100
AcDbEntity
  8
1
100
AcDbLine
 10
75.85610315417
 20
2.25
 30
0.0
 11
75.95610315417
 21
2.25
 31
0.0
  0
LINE
  5
1C3
330
30
100
AcDbEntity
  8
1
100
AcDbLine
 10
75.95610315417
 20
2.25
 30
0.0
 11
76.05610315417
 21
2.25
 31
0.0
  0
LINE
  5
1C4
330
30
100
AcDbEntity
  8
1
100
AcDbLine
 10
76.05610315417
 20
2.25
 30
0.0
 11
76.15610315417
 21
2.25
 31
0.0
  0
LINE
  5
1C5
330
30
100
AcDbEntity
  8
1
100
AcDbLine
 10
76.15610315417
 20
2.25
 30
0.0
 11
76.25610315417
 21
2.25
 31
0.0
  0
LINE
  5
1C6
330
30
100
AcDbEntity
  8
1
100
AcDbLine
 10
76.25610315417
 20
2.25
 30
0.0
 11
76.35610315417
 21
2.25
 31
0.0
  0
LINE
  5
1C7
330
30
100
AcDbEntity
  8
1
100
AcDbLine
 10
76.35610315417
 20
2.25
 30
0.0
 11
76.45610315417
 21
2.25
 31
0.0
  0
LINE
  5
1C8
330
30
100
AcDbEntity
  8
1
100
AcDbLine
 10
76.45610315417
 20
2.25
 30
0.0
 11
76.55610315417
 21
2.25
 31
0.0
  0
LINE
  5
1C9
330
30
100
AcDbEntity
  8
1
100
AcDbLine
 10
76.55610315417
 20
2.25
 30
0.0
 11
76.65610315417
 21
2.25
 31
0.0
  0
LINE
  5
1CA
330
30
100
AcDbEntity
  8
1
100
AcDbLine
 10
76.65610315417
 20
2.25
 30
0.0
 11
76.75610315417
 21
2.25
 31
0.0
  0
LINE
  5
1CB
330
30
100
AcDbEntity
  8
1
100
AcDbLine
 10
76.75610315417
 20
2.25
 30
0.0
 11
76.85610315417
 21
2.25
 31
0.0
  0
LINE
  5
1CC
330
30
100
AcDbEntity
  8
1
100
AcDbLine
 10
76.85610315417
 20
2.25
 30
0.0
 11
76.95610315417
 21
2.25
 31
0.0
  0
LINE
  5
1CD
330
30
100
AcDbEntity
  8
1
100
AcDbLine
 10
76.95610315417
 20
2.25
 30
0.0
 11
77.05610315417
 21
2.25
 31
0.0
  0
LINE
  5
1CE
330
30
100
AcDbEntity
  8
1
100
AcDbLine
 10
77.05610315417
 20
2.25
 30
0.0
 11
77.15610315417
 21
2.25
 31
0.0
  0
LINE
  5
1CF
330
30
100
AcDbEntity
  8
1
100
AcDbLine
 10
77.15610315417
 20
2.25
 30
0.0
 11
77.25610315417
 21
2.25
 31
0.0
  0
LINE
  5
1D0
330
30
100
AcDbEntity
  8
1
100
AcDbLine
 10
77.25610315417
 20
2.25
 30
0.0
 11
77.35610315417
 21
2.25
 31
0.0
  0
LINE
  5
1D1
330
30
100
AcDbEntity
  8
1
100
AcDbLine
 10
77.35610315417
 20
2.25
 30
0.0
 11
77.45610315417
 21
2.25
 31
0.0
  0
LINE
  5
1D2
330
30
100
AcDbEntity
  8
1
100
AcDbLine
 10
77.45610315417
 20
2.25
 30
0.0
 11
77.55610315417
 21
2.25
 31
0.0
  0
LINE
  5
1D3
330
30
100
AcDbEntity
  8
1
100
AcDbLine
 10
77.55610315417
 20
2.25
 30
0.0
 11
77.65610315417
 21
2.25
 31
0.0
  0
LINE
  5
1D4
330
30
100
AcDbEntity
  8
1
100
AcDbLine
 10
77.65610315417
 20
2.25
 30
0.0
 11
77.75610315417
 21
2.25
 31
0.0
  0
LINE
  5
1D5
330
30
100
AcDbEntity
  8
1
100
AcDbLine
 10
77.75610315417
 20
2.25
 30
0.0
 11
77.85610315417
 21
2.25
 31
0.0
  0
LINE
  5
1D6
330
30
100
AcDbEntity
  8
1
100
AcDbLine
 10
77.85610315417
 20
2.25
 30
0.0
 11
77.95610315417
 21
2.25
 31
0.0
  0
LINE
  5
1D7
330
30
100
AcDbEntity
  8
1
100
AcDbLine
 10
77.95610315417
 20
2.25
 30
0.0
 11
78.05610315417
 21
2.25
 31
0.0
  0
LINE
  5
1D8
330
30
100
AcDbEntity
  8
1
100
AcDbLine
 10
78.05610315417
 20
2.25
 30
0.0
 11
78.15610315417
 21
2.25
 31
0.0
  0
LINE
  5
1D9
330
30
100
AcDbEntity
  8
1
100
AcDbLine
 10
78.15610315417
 20
2.25
 30
0.0
 11
78.25610315417
 21
2.25
 31
0.0
  0
LINE
  5
1DA
330
30
100
AcDbEntity
  8
1
100
AcDbLine
 10
78.25610315417
 20
2.25
 30
0.0
 11
78.35610315417
 21
2.25
 31
0.0
  0
LINE
  5
1DB
330
30
100
AcDbEntity
  8
1
100
AcDbLine
 10
78.35610315417
 20
2.25
 30
0.0
 11
78.45610315417
 21
2.25
 31
0.0
  0
LINE
  5
1DC
330
30
100
AcDbEntity
  8
1
100
AcDbLine
 10
78.45610315417
 20
2.25
 30
0.0
 11
78.55610315417
 21
2.25
 31
0.0
  0
LINE
  5
1DD
330
30
100
AcDbEntity
  8
1
100
AcDbLine
 10
78.55610315417
 20
2.25
 30
0.0
 11
78.65610315417
 21
2.25
 31
0.0
  0
LINE
  5
1DE
330
30
100
AcDbEntity
  8
1
100
AcDbLine
 10
78.65610315417
 20
2.25
 30
0.0
 11
78.75610315417
 21
2.25
 31
0.0
  0
LINE
  5
1DF
330
30
100
AcDbEntity
  8
1
100
AcDbLine
 10
78.75610315417
 20
2.25
 30
0.0
 11
78.85610315417
 21
2.25
 31
0.0
  0
LINE
  5
1E0
330
30
100
AcDbEntity
  8
1
100
AcDbLine
 10
78.85610315417
 20
2.25
 30
0.0
 11
78.95610315417
 21
2.25
 31
0.0
  0
LINE
  5
1E1
330
30
100
AcDbEntity
  8
1
100
AcDbLine
 10
78.95610315417
 20
2.25
 30
0.0
 11
79.05610315417
 21
2.25
 31
0.0
  0
LINE
  5
1E2
330
30
100
AcDbEntity
  8
1
100
AcDbLine
 10
79.05610315417
 20
2.25
 30
0.0
 11
79.15610315417
 21
2.25
 31
0.0
  0
LINE
  5
1E3
330
30
100
AcDbEntity
  8
1
100
AcDbLine
 10
79.15610315417
 20
2.25
 30
0.0
 11
79.25610315417
 21
2.25
 31
0.0
  0
LINE
  5
1E4
330
30
100
AcDbEntity
  8
1
100
AcDbLine
 10
79.25610315417
 20
2.25
 30
0.0
 11
79.35610315417
 21
2.25
 31
0.0
  0
LINE
  5
1E5
330
30
100
AcDbEntity
  8
1
100
AcDbLine
 10
79.35610315417
 20
2.25
 30
0.0
 11
79.45610315417
 21
2.25
 31
0.0
  0
LINE
  5
1E6
330
30
100
AcDbEntity
  8
1
100
AcDbLine
 10
79.45610315417
 20
2.25
 30
0.0
 11
79.55610315417
 21
2.25
 31
0.0
  0
LINE
  5
1E7
330
30
100
AcDbEntity
  8
1
100
AcDbLine
 10
79.55610315417
 20
2.25
 30
0.0
 11
79.65610315417
 21
2.25
 31
0.0
  0
LINE
  5
1E8
330
30
100
AcDbEntity
  8
1
100
AcDbLine
 10
79.65610315417
 20
2.25
 30
0.0
 11
79.75610315417
 21
2.25
 31
0.0
  0
LINE
  5
1E9
330
30
100
AcDbEntity
  8
1
100
AcDbLine
 10
79.75610315417
 20
2.25
 30
0.0
 11
79.85610315417
 21
2.25
 31
0.0
  0
LINE
  5
1EA
330
30
100
AcDbEntity
  8
1
100
AcDbLine
 10
79.85610315417
 20
2.25
 30
0.0
 11
79.95610315417
 21
2.25
 31
0.0
  0
LINE
  5
1EB
330
30
100
AcDbEntity
  8
1
100
AcDbLine
 10
79.95610315417
 20
2.25
 30
0.0
 11
80.05610315417
 21
2.25
 31
0.0
  0
LINE
  5
1EC
330
30
100
AcDbEntity
  8
1
100
AcDbLine
 10
80.05610315417
 20
2.25
 30
0.0
 11
80.15610315417
 21
2.25
 31
0.0
  0
LINE
  5
1ED
330
30
100
AcDbEntity
  8
1
100
AcDbLine
 10
80.15610315417
 20
2.25
 30
0.0
 11
80.25610315417
 21
2.25
 31
0.0
  0
LINE
  5
1EE
330
30
100
AcDbEntity
  8
1
100
AcDbLine
 10
80.25610315417
 20
2.25
 30
0.0
 11
80.35610315417
 21
2.25
 31
0.0
  0
LINE
  5
1EF
330
30
100
AcDbEntity
  8
1
100
AcDbLine
 10
80.35610315417
 20
2.25
 30
0.0
 11
80.45610315417
 21
2.25
 31
0.0
  0
LINE
  5
1F0
330
30
100
AcDbEntity
  8
1
100
AcDbLine
 10
80.45610315417
 20
2.25
 30
0.0
 11
80.55610315417
 21
2.25
 31
0.0
  0
LINE
  5
1F1
330
30
100
AcDbEntity
  8
1
100
AcDbLine
 10
80.55610315417
 20
2.25
 30
0.0
 11
80.65610315417
 21
2.25
 31
0.0
  0
LINE
  5
1F2
330
30
100
AcDbEntity
  8
1
100
AcDbLine
 10
80.65610315417
 20
2.25
 30
0.0
 11
80.75610315417
 21
2.25
 31
0.0
  0
LINE
  5
1F3
330
30
100
AcDbEntity
  8
1
100
AcDbLine
 10
80.75610315417
 20
2.25
 30
0.0
 11
80.85610315417
 21
2.25
 31
0.0
  0
LINE
  5
1F4
330
30
100
AcDbEntity
  8
1
100
AcDbLine
 10
80.85610315417
 20
2.25
 30
0.0
 11
80.95610315417
 21
2.25
 31
0.0
  0
LINE
  5
1F5
330
30
100
AcDbEntity
  8
1
100
AcDbLine
 10
80.95610315417
 20
2.25
 30
0.0
 11
81.05610315417
 21
2.25
 31
0.0
  0
LINE
  5
1F6
330
30
100
AcDbEntity
  8
1
100
AcDbLine
 10
81.05610315417
 20
2.25
 30
0.0
 11
81.15610315417
 21
2.25
 31
0.0
  0
LINE
  5
1F7
330
30
100
AcDbEntity
  8
1
100
AcDbLine
 10
81.15610315417
 20
2.25
 30
0.0
 11
81.25610315417
 21
2.25
 31
0.0
  0
LINE
  5
1F8
330
30
100
AcDbEntity
  8
1
100
AcDbLine
 10
81.25610315417
 20
2.25
 30
0.0
 11
81.35610315417
 21
2.25
 31
0.0
  0
LINE
  5
1F9
330
30
100
AcDbEntity
  8
1
100
AcDbLine
 10
81.35610315417
 20
2.25
 30
0.0
 11
81.45610315417
 21
2.25
 31
0.0
  0
LINE
  5
1FA
330
30
100
AcDbEntity
  8
1
100
AcDbLine
 10
81.45610315417
 20
2.25
 30
0.0
 11
81.55610315417
 21
2.25
 31
0.0
  0
LINE
  5
1FB
330
30
100
AcDbEntity
  8
1
100
AcDbLine
 10
81.55610315417
 20
2.25
 30
0.0
 11
81.65610315417
 21
2.25
 31
0.0
  0
LINE
  5
1FC
330
30
100
AcDbEntity
  8
1
100
AcDbLine
 10
81.65610315417
 20
2.25
 30
0.0
 11
81.75610315417
 21
2.25
 31
0.0
  0
LINE
  5
1FD
330
30
100
AcDbEntity
  8
1
100
AcDbLine
 10
81.75610315417
 20
2.25
 30
0.0
 11
81.85610315417
 21
2.25
 31
0.0
  0
LINE
  5
1FE
330
30
100
AcDbEntity
  8
1
100
AcDbLine
 10
81.85610315417
 20
2.25
 30
0.0
 11
81.95610315417
 21
2.25
 31
0.0
  0
LINE
  5
1FF
330
30
100
AcDbEntity
  8
1
100
AcDbLine
 10
81.95610315417
 20
2.25
 30
0.0
 11
82.05610315417
 21
2.25
 31
0.0
  0
LINE
  5
200
330
30
100
AcDbEntity
  8
1
100
AcDbLine
 10
82.05610315417
 20
2.25
 30
0.0
 11
82.15610315417
 21
2.25
 31
0.0
  0
LINE
  5
201
330
30
100
AcDbEntity
  8
1
100
AcDbLine
 10
82.15610315417
 20
2.25
 30
0.0
 11
82.25610315417
 21
2.25
 31
0.0
  0
LINE
  5
202
330
30
100
AcDbEntity
  8
1
100
AcDbLine
 10
82.25610315417
 20
2.25
 30
0.0
 11
82.35610315417
 21
2.25
 31
0.0
  0
LINE
  5
203
330
30
100
AcDbEntity
  8
1
100
AcDbLine
 10
82.35610315417
 20
2.25
 30
0.0
 11
82.45610315417
 21
2.25
 31
0.0
  0
LINE
  5
204
330
30
100
AcDbEntity
  8
1
100
AcDbLine
 10
82.45610315417
 20
2.25
 30
0.0
 11
82.55610315417
 21
2.25
 31
0.0
  0
LINE
  5
205
330
30
100
AcDbEntity
  8
1
100
AcDbLine
 10
82.55610315417
 20
2.25
 30
0.0
 11
82.65610315417
 21
2.25
 31
0.0
  0
LINE
  5
206
330
30
100
AcDbEntity
  8
1
100
AcDbLine
 10
82.65610315417
 20
2.25
 30
0.0
 11
82.75610315417
 21
2.25
 31
0.0
  0
LINE
  5
207
330
30
100
AcDbEntity
  8
1
100
AcDbLine
 10
82.75610315417
 20
2.25
 30
0.0
 11
82.85610315417
 21
2.25
 31
0.0
  0
LINE
  5
208
330
30
100
AcDbEntity
  8
1
100
AcDbLine
 10
82.85610315417
 20
2.25
 30
0.0
 11
82.95610315417
 21
2.25
 31
0.0
  0
LINE
  5
209
330
30
100
AcDbEntity
  8
1
100
AcDbLine
 10
82.95610315417
 20
2.25
 30
0.0
 11
83.05610315417
 21
2.25
 31
0.0
  0
LINE
  5
20A
330
30
100
AcDbEntity
  8
1
100
AcDbLine
 10
83.05610315417
 20
2.25
 30
0.0
 11
83.15610315417
 21
2.25
 31
0.0
  0
LINE
  5
20B
330
30
100
AcDbEntity
  8
1
100
AcDbLine
 10
83.15610315417
 20
2.25
 30
0.0
 11
83.25610315417
 21
2.25
 31
0.0
  0
LINE
  5
20C
330
30
100
AcDbEntity
  8
1
100
AcDbLine
 10
83.25610315417
 20
2.25
 30
0.0
 11
83.35610315417
 21
2.25
 31
0.0
  0
LINE
  5
20D
330
30
100
AcDbEntity
  8
1
100
AcDbLine
 10
83.35610315417
 20
2.25
 30
0.0
 11
83.45610315417
 21
2.25
 31
0.0
  0
LINE
  5
20E
330
30
100
AcDbEntity
  8
1
100
AcDbLine
 10
83.45610315417
 20
2.25
 30
0.0
 11
83.55610315417
 21
2.25
 31
0.0
  0
LINE
  5
20F
330
30
100
AcDbEntity
  8
1
100
AcDbLine
 10
83.55610315417
 20
2.25
 30
0.0
 11
83.65610315417
 21
2.25
 31
0.0
  0
LINE
  5
210
330
30
100
AcDbEntity
  8
1
100
AcDbLine
 10
83.65610315417
 20
2.25
 30
0.0
 11
83.75610315417
 21
2.25
 31
0.0
  0
LINE
  5
211
330
30
100
AcDbEntity
  8
1
100
AcDbLine
 10
83.75610315417
 20
2.25
 30
0.0
 11
83.85610315417
 21
2.25
 31
0.0
  0
LINE
  5
212
330
30
100
AcDbEntity
  8
1
100
AcDbLine
 10
83.85610315417
 20
2.25
 30
0.0
 11
83.95610315417
 21
2.25
 31
0.0
  0
LINE
  5
213
330
30
100
AcDbEntity
  8
1
100
AcDbLine
 10
83.95610315417
 20
2.25
 30
0.0
 11
84.05610315417
 21
2.25
 31
0.0
  0
LINE
  5
214
330
30
100
AcDbEntity
  8
1
100
AcDbLine
 10
84.05610315417
 20
2.25
 30
0.0
 11
84.15610315417
 21
2.25
 31
0.0
  0
LINE
  5
215
330
30
100
AcDbEntity
  8
1
100
AcDbLine
 10
84.15610315417
 20
2.25
 30
0.0
 11
84.25610315417
 21
2.25
 31
0.0
  0
LINE
  5
216
330
30
100
AcDbEntity
  8
1
100
AcDbLine
 10
84.25610315417
 20
2.25
 30
0.0
 11
84.35610315417
 21
2.25
 31
0.0
  0
LINE
  5
217
330
30
100
AcDbEntity
  8
1
100
AcDbLine
 10
84.35610315417
 20
2.25
 30
0.0
 11
84.45610315417
 21
2.25
 31
0.0
  0
LINE
  5
218
330
30
100
AcDbEntity
  8
1
100
AcDbLine
 10
84.45610315417
 20
2.25
 30
0.0
 11
84.55610315417
 21
2.25
 31
0.0
  0
LINE
  5
219
330
30
100
AcDbEntity
  8
1
100
AcDbLine
 10
84.55610315417
 20
2.25
 30
0.0
 11
84.65610315417
 21
2.25
 31
0.0
  0
LINE
  5
21A
330
30
100
AcDbEntity
  8
1
100
AcDbLine
 10
84.65610315417
 20
2.25
 30
0.0
 11
84.75610315417
 21
2.25
 31
0.0
  0
LINE
  5
21B
330
30
100
AcDbEntity
  8
1
100
AcDbLine
 10
84.75610315417
 20
2.25
 30
0.0
 11
84.85610315417
 21
2.25
 31
0.0
  0
LINE
  5
21C
330
30
100
AcDbEntity
  8
1
100
AcDbLine
 10
84.85610315417
 20
2.25
 30
0.0
 11
84.95610315417
 21
2.25
 31
0.0
  0
LINE
  5
21D
330
30
100
AcDbEntity
  8
1
100
AcDbLine
 10
84.95610315417
 20
2.25
 30
0.0
 11
85.05610315417
 21
2.25
 31
0.0
  0
LINE
  5
21E
330
30
100
AcDbEntity
  8
1
100
AcDbLine
 10
85.05610315417
 20
2.25
 30
0.0
 11
85.15610315417
 21
2.25
 31
0.0
  0
LINE
  5
21F
330
30
100
AcDbEntity
  8
1
100
AcDbLine
 10
85.15610315417
 20
2.25
 30
0.0
 11
85.25610315417
 21
2.25
 31
0.0
  0
LINE
  5
220
330
30
100
AcDbEntity
  8
1
100
AcDbLine
 10
85.25610315417
 20
2.25
 30
0.0
 11
85.35610315417
 21
2.25
 31
0.0
  0
LINE
  5
221
330
30
100
AcDbEntity
  8
1
100
AcDbLine
 10
85.35610315417
 20
2.25
 30
0.0
 11
85.45610315417
 21
2.25
 31
0.0
  0
LINE
  5
222
330
30
100
AcDbEntity
  8
1
100
AcDbLine
 10
85.45610315417
 20
2.25
 30
0.0
 11
85.55610315417
 21
2.25
 31
0.0
  0
LINE
  5
223
330
30
100
AcDbEntity
  8
1
100
AcDbLine
 10
85.55610315417
 20
2.25
 30
0.0
 11
85.65610315417
 21
2.25
 31
0.0
  0
LINE
  5
224
330
30
100
AcDbEntity
  8
1
100
AcDbLine
 10
85.65610315417
 20
2.25
 30
0.0
 11
85.75610315417
 21
2.25
 31
0.0
  0
LINE
  5
225
330
30
100
AcDbEntity
  8
1
100
AcDbLine
 10
85.75610315417
 20
2.25
 30
0.0
 11
85.85610315417
 21
2.25
 31
0.0
  0
LINE
  5
226
330
30
100
AcDbEntity
  8
1
100
AcDbLine
 10
85.85610315417
 20
2.25
 30
0.0
 11
85.95610315417
 21
2.25
 31
0.0
  0
LINE
  5
227
330
30
100
AcDbEntity
  8
1
100
AcDbLine
 10
85.95610315417
 20
2.25
 30
0.0
 11
86.05610315417
 21
2.245282614278
 31
0.0
  0
LINE
  5
228
330
30
100
AcDbEntity
  8
1
100
AcDbLine
 10
86.05610315417
 20
2.245282614278
 30
0.0
 11
86.15610315417
 21
2.236874092093
 31
0.0
  0
LINE
  5
229
330
30
100
AcDbEntity
  8
1
100
AcDbLine
 10
86.15610315417
 20
2.236874092093
 30
0.0
 11
86.25610315417
 21
2.228465430685
 31
0.0
  0
LINE
  5
22A
330
30
100
AcDbEntity
  8
1
100
AcDbLine
 10
86.25610315417
 20
2.228465430685
 30
0.0
 11
86.35610315417
 21
2.220056628637
 31
0.0
  0
LINE
  5
22B
330
30
100
AcDbEntity
  8
1
100
AcDbLine
 10
86.35610315417
 20
2.220056628637
 30
0.0
 11
86.45610315417
 21
2.211647684513
 31
0.0
  0
LINE
  5
22C
330
30
100
AcDbEntity
  8
1
100
AcDbLine
 10
86.45610315417
 20
2.211647684513
 30
0.0
 11
86.55610315417
 21
2.20323859686
 31
0.0
  0
LINE
  5
22D
330
30
100
AcDbEntity
  8
1
100
AcDbLine
 10
86.55610315417
 20
2.20323859686
 30
0.0
 11
86.65610315417
 21
2.194829364201
 31
0.0
  0
LINE
  5
22E
330
30
100
AcDbEntity
  8
1
100
AcDbLine
 10
86.65610315417
 20
2.194829364201
 30
0.0
 11
86.75610315417
 21
2.186419985042
 31
0.0
  0
LINE
  5
22F
330
30
100
AcDbEntity
  8
1
100
AcDbLine
 10
86.75610315417
 20
2.186419985042
 30
0.0
 11
86.85610315417
 21
2.178010457868
 31
0.0
  0
LINE
  5
230
330
30
100
AcDbEntity
  8
1
100
AcDbLine
 10
86.85610315417
 20
2.178010457868
 30
0.0
 11
86.95610315417
 21
2.169600781141
 31
0.0
  0
LINE
  5
231
330
30
100
AcDbEntity
  8
1
100
AcDbLine
 10
86.95610315417
 20
2.169600781141
 30
0.0
 11
87.05610315417
 21
2.161190953303
 31
0.0
  0
LINE
  5
232
330
30
100
AcDbEntity
  8
1
100
AcDbLine
 10
87.05610315417
 20
2.161190953303
 30
0.0
 11
87.15610315417
 21
2.152780972774
 31
0.0
  0
LINE
  5
233
330
30
100
AcDbEntity
  8
1
100
AcDbLine
 10
87.15610315417
 20
2.152780972774
 30
0.0
 11
87.25610315417
 21
2.144370837952
 31
0.0
  0
LINE
  5
234
330
30
100
AcDbEntity
  8
1
100
AcDbLine
 10
87.25610315417
 20
2.144370837952
 30
0.0
 11
87.35610315417
 21
2.135960547212
 31
0.0
  0
LINE
  5
235
330
30
100
AcDbEntity
  8
1
100
AcDbLine
 10
87.35610315417
 20
2.135960547212
 30
0.0
 11
87.45610315417
 21
2.127550098908
 31
0.0
  0
LINE
  5
236
330
30
100
AcDbEntity
  8
1
100
AcDbLine
 10
87.45610315417
 20
2.127550098908
 30
0.0
 11
87.55610315417
 21
2.119139491367
 31
0.0
  0
LINE
  5
237
330
30
100
AcDbEntity
  8
1
100
AcDbLine
 10
87.55610315417
 20
2.119139491367
 30
0.0
 11
87.65610315417
 21
2.110728722896
 31
0.0
  0
LINE
  5
238
330
30
100
AcDbEntity
  8
1
100
AcDbLine
 10
87.65610315417
 20
2.110728722896
 30
0.0
 11
87.75610315417
 21
2.102317791776
 31
0.0
  0
LINE
  5
239
330
30
100
AcDbEntity
  8
1
100
AcDbLine
 10
87.75610315417
 20
2.102317791776
 30
0.0
 11
87.85610315417
 21
2.093906696263
 31
0.0
  0
LINE
  5
23A
330
30
100
AcDbEntity
  8
1
100
AcDbLine
 10
87.85610315417
 20
2.093906696263
 30
0.0
 11
87.95610315417
 21
2.085495434589
 31
0.0
  0
LINE
  5
23B
330
30
100
AcDbEntity
  8
1
100
AcDbLine
 10
87.95610315417
 20
2.085495434589
 30
0.0
 11
88.05610315417
 21
2.077084004961
 31
0.0
  0
LINE
  5
23C
330
30
100
AcDbEntity
  8
1
100
AcDbLine
 10
88.05610315417
 20
2.077084004961
 30
0.0
 11
88.15610315417
 21
2.068672405557
 31
0.0
  0
LINE
  5
23D
330
30
100
AcDbEntity
  8
1
100
AcDbLine
 10
88.15610315417
 20
2.068672405557
 30
0.0
 11
88.25610315417
 21
2.060260634533
 31
0.0
  0
LINE
  5
23E
330
30
100
AcDbEntity
  8
1
100
AcDbLine
 10
88.25610315417
 20
2.060260634533
 30
0.0
 11
88.35610315417
 21
2.051848690014
 31
0.0
  0
LINE
  5
23F
330
30
100
AcDbEntity
  8
1
100
AcDbLine
 10
88.35610315417
 20
2.051848690014
 30
0.0
 11
88.45610315417
 21
2.043436570101
 31
0.0
  0
LINE
  5
240
330
30
100
AcDbEntity
  8
1
100
AcDbLine
 10
88.45610315417
 20
2.043436570101
 30
0.0
 11
88.55610315417
 21
2.035024272865
 31
0.0
  0
LINE
  5
241
330
30
100
AcDbEntity
  8
1
100
AcDbLine
 10
88.55610315417
 20
2.035024272865
 30
0.0
 11
88.65610315417
 21
2.026611796348
 31
0.0
  0
LINE
  5
242
330
30
100
AcDbEntity
  8
1
100
AcDbLine
 10
88.65610315417
 20
2.026611796348
 30
0.0
 11
88.75610315417
 21
2.018199138566
 31
0.0
  0
LINE
  5
243
330
30
100
AcDbEntity
  8
1
100
AcDbLine
 10
88.75610315417
 20
2.018199138566
 30
0.0
 11
88.85610315417
 21
2.009786297503
 31
0.0
  0
LINE
  5
244
330
30
100
AcDbEntity
  8
1
100
AcDbLine
 10
88.85610315417
 20
2.009786297503
 30
0.0
 11
88.95610315417
 21
2.001373271113
 31
0.0
  0
LINE
  5
245
330
30
100
AcDbEntity
  8
1
100
AcDbLine
 10
88.95610315417
 20
2.001373271113
 30
0.0
 11
89.05610315417
 21
1.99296005732
 31
0.0
  0
LINE
  5
246
330
30
100
AcDbEntity
  8
1
100
AcDbLine
 10
89.05610315417
 20
1.99296005732
 30
0.0
 11
89.15610315417
 21
1.984546654019
 31
0.0
  0
LINE
  5
247
330
30
100
AcDbEntity
  8
1
100
AcDbLine
 10
89.15610315417
 20
1.984546654019
 30
0.0
 11
89.25610315417
 21
1.976133059069
 31
0.0
  0
LINE
  5
248
330
30
100
AcDbEntity
  8
1
100
AcDbLine
 10
89.25610315417
 20
1.976133059069
 30
0.0
 11
89.35610315417
 21
1.967719270299
 31
0.0
  0
LINE
  5
249
330
30
100
AcDbEntity
  8
1
100
AcDbLine
 10
89.35610315417
 20
1.967719270299
 30
0.0
 11
89.45610315417
 21
1.959305285506
 31
0.0
  0
LINE
  5
24A
330
30
100
AcDbEntity
  8
1
100
AcDbLine
 10
89.45610315417
 20
1.959305285506
 30
0.0
 11
89.55610315417
 21
1.950891102451
 31
0.0
  0
LINE
  5
24B
330
30
100
AcDbEntity
  8
1
100
AcDbLine
 10
89.55610315417
 20
1.950891102451
 30
0.0
 11
89.65610315417
 21
1.942476718862
 31
0.0
  0
LINE
  5
24C
330
30
100
AcDbEntity
  8
1
100
AcDbLine
 10
89.65610315417
 20
1.942476718862
 30
0.0
 11
89.75610315417
 21
1.934062132434
 31
0.0
  0
LINE
  5
24D
330
30
100
AcDbEntity
  8
1
100
AcDbLine
 10
89.75610315417
 20
1.934062132434
 30
0.0
 11
89.85610315417
 21
1.925647340822
 31
0.0
  0
LINE
  5
24E
330
30
100
AcDbEntity
  8
1
100
AcDbLine
 10
89.85610315417
 20
1.925647340822
 30
0.0
 11
89.95610315417
 21
1.917232341648
 31
0.0
  0
LINE
  5
24F
330
30
100
AcDbEntity
  8
1
100
AcDbLine
 10
89.95610315417
 20
1.917232341648
 30
0.0
 11
90.05610315417
 21
1.884695940011
 31
0.0
  0
LINE
  5
250
330
30
100
AcDbEntity
  8
1
100
AcDbLine
 10
90.05610315417
 20
1.884695940011
 30
0.0
 11
90.15610315417
 21
1.833279855027
 31
0.0
  0
LINE
  5
251
330
30
100
AcDbEntity
  8
1
100
AcDbLine
 10
90.15610315417
 20
1.833279855027
 30
0.0
 11
90.25610315417
 21
1.781854947822
 31
0.0
  0
LINE
  5
252
330
30
100
AcDbEntity
  8
1
100
AcDbLine
 10
90.25610315417
 20
1.781854947822
 30
0.0
 11
90.35610315417
 21
1.730420534681
 31
0.0
  0
LINE
  5
253
330
30
100
AcDbEntity
  8
1
100
AcDbLine
 10
90.35610315417
 20
1.730420534681
 30
0.0
 11
90.45610315417
 21
1.678975859215
 31
0.0
  0
LINE
  5
254
330
30
100
AcDbEntity
  8
1
100
AcDbLine
 10
90.45610315417
 20
1.678975859215
 30
0.0
 11
90.55610315417
 21
1.627520082427
 31
0.0
  0
LINE
  5
255
330
30
100
AcDbEntity
  8
1
100
AcDbLine
 10
90.55610315417
 20
1.627520082427
 30
0.0
 11
90.65610315417
 21
1.576052271088
 31
0.0
  0
LINE
  5
256
330
30
100
AcDbEntity
  8
1
100
AcDbLine
 10
90.65610315417
 20
1.576052271088
 30
0.0
 11
90.75610315417
 21
1.524571384092
 31
0.0
  0
LINE
  5
257
330
30
100
AcDbEntity
  8
1
100
AcDbLine
 10
90.75610315417
 20
1.524571384092
 30
0.0
 11
90.85610315417
 21
1.473076256364
 31
0.0
  0
LINE
  5
258
330
30
100
AcDbEntity
  8
1
100
AcDbLine
 10
90.85610315417
 20
1.473076256364
 30
0.0
 11
90.95610315417
 21
1.421565579797
 31
0.0
  0
LINE
  5
259
330
30
100
AcDbEntity
  8
1
100
AcDbLine
 10
90.95610315417
 20
1.421565579797
 30
0.0
 11
91.05610315417
 21
1.370037880532
 31
0.0
  0
LINE
  5
25A
330
30
100
AcDbEntity
  8
1
100
AcDbLine
 10
91.05610315417
 20
1.370037880532
 30
0.0
 11
91.15610315417
 21
1.318491491776
 31
0.0
  0
LINE
  5
25B
330
30
100
AcDbEntity
  8
1
100
AcDbLine
 10
91.15610315417
 20
1.318491491776
 30
0.0
 11
91.25610315417
 21
1.266924521047
 31
0.0
  0
LINE
  5
25C
330
30
100
AcDbEntity
  8
1
100
AcDbLine
 10
91.25610315417
 20
1.266924521047
 30
0.0
 11
91.35610315417
 21
1.215334810507
 31
0.0
  0
LINE
  5
25D
330
30
100
AcDbEntity
  8
1
100
AcDbLine
 10
91.35610315417
 20
1.215334810507
 30
0.0
 11
91.45610315417
 21
1.163719888584
 31
0.0
  0
LINE
  5
25E
330
30
100
AcDbEntity
  8
1
100
AcDbLine
 10
91.45610315417
 20
1.163719888584
 30
0.0
 11
91.55610315417
 21
1.11207691056
 31
0.0
  0
LINE
  5
25F
330
30
100
AcDbEntity
  8
1
100
AcDbLine
 10
91.55610315417
 20
1.11207691056
 30
0.0
 11
91.65610315417
 21
1.060402585083
 31
0.0
  0
LINE
  5
260
330
30
100
AcDbEntity
  8
1
100
AcDbLine
 10
91.65610315417
 20
1.060402585083
 30
0.0
 11
91.75610315417
 21
1.008693082499
 31
0.0
  0
LINE
  5
261
330
30
100
AcDbEntity
  8
1
100
AcDbLine
 10
91.75610315417
 20
1.008693082499
 30
0.0
 11
91.85610315417
 21
0.956943919532
 31
0.0
  0
LINE
  5
262
330
30
100
AcDbEntity
  8
1
100
AcDbLine
 10
91.85610315417
 20
0.956943919532
 30
0.0
 11
91.95610315417
 21
0.905149812827
 31
0.0
  0
LINE
  5
263
330
30
100
AcDbEntity
  8
1
100
AcDbLine
 10
91.95610315417
 20
0.905149812827
 30
0.0
 11
92.05610315417
 21
0.85330449101
 31
0.0
  0
LINE
  5
264
330
30
100
AcDbEntity
  8
1
100
AcDbLine
 10
92.05610315417
 20
0.85330449101
 30
0.0
 11
92.15610315417
 21
0.80140045081
 31
0.0
  0
LINE
  5
265
330
30
100
AcDbEntity
  8
1
100
AcDbLine
 10
92.15610315417
 20
0.80140045081
 30
0.0
 11
92.25610315417
 21
0.749428636644
 31
0.0
  0
LINE
  5
266
330
30
100
AcDbEntity
  8
1
100
AcDbLine
 10
92.25610315417
 20
0.749428636644
 30
0.0
 11
92.35610315417
 21
0.697378013877
 31
0.0
  0
LINE
  5
267
330
30
100
AcDbEntity
  8
1
100
AcDbLine
 10
92.35610315417
 20
0.697378013877
 30
0.0
 11
92.45610315417
 21
0.645234991806
 31
0.0
  0
LINE
  5
268
330
30
100
AcDbEntity
  8
1
100
AcDbLine
 10
92.45610315417
 20
0.645234991806
 30
0.0
 11
92.55610315417
 21
0.592982630162
 31
0.0
  0
LINE
  5
269
330
30
100
AcDbEntity
  8
1
100
AcDbLine
 10
92.55610315417
 20
0.592982630162
 30
0.0
 11
92.65610315417
 21
0.540599526954
 31
0.0
  0
LINE
  5
26A
330
30
100
AcDbEntity
  8
1
100
AcDbLine
 10
92.65610315417
 20
0.540599526954
 30
0.0
 11
92.75610315417
 21
0.488058225729
 31
0.0
  0
LINE
  5
26B
330
30
100
AcDbEntity
  8
1
100
AcDbLine
 10
92.75610315417
 20
0.488058225729
 30
0.0
 11
92.85610315417
 21
0.435322877524
 31
0.0
  0
LINE
  5
26C
330
30
100
AcDbEntity
  8
1
100
AcDbLine
 10
92.85610315417
 20
0.435322877524
 30
0.0
 11
92.95610315417
 21
0.38234570919
 31
0.0
  0
LINE
  5
26D
330
30
100
AcDbEntity
  8
1
100
AcDbLine
 10
92.95610315417
 20
0.38234570919
 30
0.0
 11
93.05610315417
 21
0.324966934027
 31
0.0
  0
LINE
  5
26E
330
30
100
AcDbEntity
  8
1
100
AcDbLine
 10
93.05610315417
 20
0.324966934027
 30
0.0
 11
93.15610315417
 21
0.242789011612
 31
0.0
  0
LINE
  5
26F
330
30
100
AcDbEntity
  8
1
100
AcDbLine
 10
93.15610315417
 20
0.242789011612
 30
0.0
 11
93.25610315417
 21
0.091287649117
 31
0.0
  0
LINE
  5
270
330
30
100
AcDbEntity
  8
1
100
AcDbLine
 10
93.25610315417
 20
0.091287649117
 30
0.0
 11
93.25610315417
 21
-0.105964001796
 31
0.0
  0
LINE
  5
271
330
30
100
AcDbEntity
  8
1
100
AcDbLine
 10
93.25610315417
 20
-0.105964001796
 30
0.0
 11
93.15610315417
 21
-0.258474099378
 31
0.0
  0
LINE
  5
272
330
30
100
AcDbEntity
  8
1
100
AcDbLine
 10
93.15610315417
 20
-0.258474099378
 30
0.0
 11
93.05610315417
 21
-0.341812861493
 31
0.0
  0
LINE
  5
273
330
30
100
AcDbEntity
  8
1
100
AcDbLine
 10
93.05610315417
 20
-0.341812861493
 30
0.0
 11
92.95610315417
 21
-0.399826037235
 31
0.0
  0
LINE
  5
274
330
30
100
AcDbEntity
  8
1
100
AcDbLine
 10
92.95610315417
 20
-0.399826037235
 30
0.0
 11
92.85610315417
 21
-0.452115894147
 31
0.0
  0
LINE
  5
275
330
30
100
AcDbEntity
  8
1
100
AcDbLine
 10
92.85610315417
 20
-0.452115894147
 30
0.0
 11
92.75610315417
 21
-0.504204128395
 31
0.0
  0
LINE
  5
276
330
30
100
AcDbEntity
  8
1
100
AcDbLine
 10
92.75610315417
 20
-0.504204128395
 30
0.0
 11
92.65610315417
 21
-0.556130258999
 31
0.0
  0
LINE
  5
277
330
30
100
AcDbEntity
  8
1
100
AcDbLine
 10
92.65610315417
 20
-0.556130258999
 30
0.0
 11
92.55610315417
 21
-0.6079240278
 31
0.0
  0
LINE
  5
278
330
30
100
AcDbEntity
  8
1
100
AcDbLine
 10
92.55610315417
 20
-0.6079240278
 30
0.0
 11
92.45610315417
 21
-0.659608267862
 31
0.0
  0
LINE
  5
279
330
30
100
AcDbEntity
  8
1
100
AcDbLine
 10
92.45610315417
 20
-0.659608267862
 30
0.0
 11
92.35610315417
 21
-0.711200811992
 31
0.0
  0
LINE
  5
27A
330
30
100
AcDbEntity
  8
1
100
AcDbLine
 10
92.35610315417
 20
-0.711200811992
 30
0.0
 11
92.25610315417
 21
-0.762715798277
 31
0.0
  0
LINE
  5
27B
330
30
100
AcDbEntity
  8
1
100
AcDbLine
 10
92.25610315417
 20
-0.762715798277
 30
0.0
 11
92.15610315417
 21
-0.814164584815
 31
0.0
  0
LINE
  5
27C
330
30
100
AcDbEntity
  8
1
100
AcDbLine
 10
92.15610315417
 20
-0.814164584815
 30
0.0
 11
92.05610315417
 21
-0.86555640426
 31
0.0
  0
LINE
  5
27D
330
30
100
AcDbEntity
  8
1
100
AcDbLine
 10
92.05610315417
 20
-0.86555640426
 30
0.0
 11
91.95610315417
 21
-0.916898840958
 31
0.0
  0
LINE
  5
27E
330
30
100
AcDbEntity
  8
1
100
AcDbLine
 10
91.95610315417
 20
-0.916898840958
 30
0.0
 11
91.85610315417
 21
-0.968198184563
 31
0.0
  0
LINE
  5
27F
330
30
100
AcDbEntity
  8
1
100
AcDbLine
 10
91.85610315417
 20
-0.968198184563
 30
0.0
 11
91.75610315417
 21
-1.019459696035
 31
0.0
  0
LINE
  5
280
330
30
100
AcDbEntity
  8
1
100
AcDbLine
 10
91.75610315417
 20
-1.019459696035
 30
0.0
 11
91.65610315417
 21
-1.070687810417
 31
0.0
  0
LINE
  5
281
330
30
100
AcDbEntity
  8
1
100
AcDbLine
 10
91.65610315417
 20
-1.070687810417
 30
0.0
 11
91.55610315417
 21
-1.121886293316
 31
0.0
  0
LINE
  5
282
330
30
100
AcDbEntity
  8
1
100
AcDbLine
 10
91.55610315417
 20
-1.121886293316
 30
0.0
 11
91.45610315417
 21
-1.173058363001
 31
0.0
  0
LINE
  5
283
330
30
100
AcDbEntity
  8
1
100
AcDbLine
 10
91.45610315417
 20
-1.173058363001
 30
0.0
 11
91.35610315417
 21
-1.224206786642
 31
0.0
  0
LINE
  5
284
330
30
100
AcDbEntity
  8
1
100
AcDbLine
 10
91.35610315417
 20
-1.224206786642
 30
0.0
 11
91.25610315417
 21
-1.275333956882
 31
0.0
  0
LINE
  5
285
330
30
100
AcDbEntity
  8
1
100
AcDbLine
 10
91.25610315417
 20
-1.275333956882
 30
0.0
 11
91.15610315417
 21
-1.326441953282
 31
0.0
  0
LINE
  5
286
330
30
100
AcDbEntity
  8
1
100
AcDbLine
 10
91.15610315417
 20
-1.326441953282
 30
0.0
 11
91.05610315417
 21
-1.37753259203
 31
0.0
  0
LINE
  5
287
330
30
100
AcDbEntity
  8
1
100
AcDbLine
 10
91.05610315417
 20
-1.37753259203
 30
0.0
 11
90.95610315417
 21
-1.428607466448
 31
0.0
  0
LINE
  5
288
330
30
100
AcDbEntity
  8
1
100
AcDbLine
 10
90.95610315417
 20
-1.428607466448
 30
0.0
 11
90.85610315417
 21
-1.479667980229
 31
0.0
  0
LINE
  5
289
330
30
100
AcDbEntity
  8
1
100
AcDbLine
 10
90.85610315417
 20
-1.479667980229
 30
0.0
 11
90.75610315417
 21
-1.530715374889
 31
0.0
  0
LINE
  5
28A
330
30
100
AcDbEntity
  8
1
100
AcDbLine
 10
90.75610315417
 20
-1.530715374889
 30
0.0
 11
90.65610315417
 21
-1.581750752575
 31
0.0
  0
LINE
  5
28B
330
30
100
AcDbEntity
  8
1
100
AcDbLine
 10
90.65610315417
 20
-1.581750752575
 30
0.0
 11
90.55610315417
 21
-1.63277509512
 31
0.0
  0
LINE
  5
28C
330
30
100
AcDbEntity
  8
1
100
AcDbLine
 10
90.55610315417
 20
-1.63277509512
 30
0.0
 11
90.45610315417
 21
-1.683789280056
 31
0.0
  0
LINE
  5
28D
330
30
100
AcDbEntity
  8
1
100
AcDbLine
 10
90.45610315417
 20
-1.683789280056
 30
0.0
 11
90.35610315417
 21
-1.734794094123
 31
0.0
  0
LINE
  5
28E
330
30
100
AcDbEntity
  8
1
100
AcDbLine
 10
90.35610315417
 20
-1.734794094123
 30
0.0
 11
90.25610315417
 21
-1.785790244735
 31
0.0
  0
LINE
  5
28F
330
30
100
AcDbEntity
  8
1
100
AcDbLine
 10
90.25610315417
 20
-1.785790244735
 30
0.0
 11
90.15610315417
 21
-1.836778369747
 31
0.0
  0
LINE
  5
290
330
30
100
AcDbEntity
  8
1
100
AcDbLine
 10
90.15610315417
 20
-1.836778369747
 30
0.0
 11
90.05610315417
 21
-1.88775904581
 31
0.0
  0
LINE
  5
291
330
30
100
AcDbEntity
  8
1
100
AcDbLine
 10
90.05610315417
 20
-1.88775904581
 30
0.0
 11
89.95610315417
 21
-1.920020547155
 31
0.0
  0
LINE
  5
292
330
30
100
AcDbEntity
  8
1
100
AcDbLine
 10
89.95610315417
 20
-1.920020547155
 30
0.0
 11
89.85610315417
 21
-1.928364523949
 31
0.0
  0
LINE
  5
293
330
30
100
AcDbEntity
  8
1
100
AcDbLine
 10
89.85610315417
 20
-1.928364523949
 30
0.0
 11
89.75610315417
 21
-1.936708325467
 31
0.0
  0
LINE
  5
294
330
30
100
AcDbEntity
  8
1
100
AcDbLine
 10
89.75610315417
 20
-1.936708325467
 30
0.0
 11
89.65610315417
 21
-1.945051953717
 31
0.0
  0
LINE
  5
295
330
30
100
AcDbEntity
  8
1
100
AcDbLine
 10
89.65610315417
 20
-1.945051953717
 30
0.0
 11
89.55610315417
 21
-1.953395410675
 31
0.0
  0
LINE
  5
296
330
30
100
AcDbEntity
  8
1
100
AcDbLine
 10
89.55610315417
 20
-1.953395410675
 30
0.0
 11
89.45610315417
 21
-1.961738698287
 31
0.0
  0
LINE
  5
297
330
30
100
AcDbEntity
  8
1
100
AcDbLine
 10
89.45610315417
 20
-1.961738698287
 30
0.0
 11
89.35610315417
 21
-1.97008181847
 31
0.0
  0
LINE
  5
298
330
30
100
AcDbEntity
  8
1
100
AcDbLine
 10
89.35610315417
 20
-1.97008181847
 30
0.0
 11
89.25610315417
 21
-1.978424773113
 31
0.0
  0
LINE
  5
299
330
30
100
AcDbEntity
  8
1
100
AcDbLine
 10
89.25610315417
 20
-1.978424773113
 30
0.0
 11
89.15610315417
 21
-1.986767564073
 31
0.0
  0
LINE
  5
29A
330
30
100
AcDbEntity
  8
1
100
AcDbLine
 10
89.15610315417
 20
-1.986767564073
 30
0.0
 11
89.05610315417
 21
-1.995110193185
 31
0.0
  0
LINE
  5
29B
330
30
100
AcDbEntity
  8
1
100
AcDbLine
 10
89.05610315417
 20
-1.995110193185
 30
0.0
 11
88.95610315417
 21
-2.003452662252
 31
0.0
  0
LINE
  5
29C
330
30
100
AcDbEntity
  8
1
100
AcDbLine
 10
88.95610315417
 20
-2.003452662252
 30
0.0
 11
88.85610315417
 21
-2.011794973053
 31
0.0
  0
LINE
  5
29D
330
30
100
AcDbEntity
  8
1
100
AcDbLine
 10
88.85610315417
 20
-2.011794973053
 30
0.0
 11
88.75610315417
 21
-2.020137127338
 31
0.0
  0
LINE
  5
29E
330
30
100
AcDbEntity
  8
1
100
AcDbLine
 10
88.75610315417
 20
-2.020137127338
 30
0.0
 11
88.65610315417
 21
-2.028479126835
 31
0.0
  0
LINE
  5
29F
330
30
100
AcDbEntity
  8
1
100
AcDbLine
 10
88.65610315417
 20
-2.028479126835
 30
0.0
 11
88.55610315417
 21
-2.036820973242
 31
0.0
  0
LINE
  5
2A0
330
30
100
AcDbEntity
  8
1
100
AcDbLine
 10
88.55610315417
 20
-2.036820973242
 30
0.0
 11
88.45610315417
 21
-2.045162668237
 31
0.0
  0
LINE
  5
2A1
330
30
100
AcDbEntity
  8
1
100
AcDbLine
 10
88.45610315417
 20
-2.045162668237
 30
0.0
 11
88.35610315417
 21
-2.05350421347
 31
0.0
  0
LINE
  5
2A2
330
30
100
AcDbEntity
  8
1
100
AcDbLine
 10
88.35610315417
 20
-2.05350421347
 30
0.0
 11
88.25610315417
 21
-2.061845610569
 31
0.0
  0
LINE
  5
2A3
330
30
100
AcDbEntity
  8
1
100
AcDbLine
 10
88.25610315417
 20
-2.061845610569
 30
0.0
 11
88.15610315417
 21
-2.070186861137
 31
0.0
  0
LINE
  5
2A4
330
30
100
AcDbEntity
  8
1
100
AcDbLine
 10
88.15610315417
 20
-2.070186861137
 30
0.0
 11
88.05610315417
 21
-2.078527966755
 31
0.0
  0
LINE
  5
2A5
330
30
100
AcDbEntity
  8
1
100
AcDbLine
 10
88.05610315417
 20
-2.078527966755
 30
0.0
 11
87.95610315417
 21
-2.086868928982
 31
0.0
  0
LINE
  5
2A6
330
30
100
AcDbEntity
  8
1
100
AcDbLine
 10
87.95610315417
 20
-2.086868928982
 30
0.0
 11
87.85610315417
 21
-2.095209749352
 31
0.0
  0
LINE
  5
2A7
330
30
100
AcDbEntity
  8
1
100
AcDbLine
 10
87.85610315417
 20
-2.095209749352
 30
0.0
 11
87.75610315417
 21
-2.103550429381
 31
0.0
  0
LINE
  5
2A8
330
30
100
AcDbEntity
  8
1
100
AcDbLine
 10
87.75610315417
 20
-2.103550429381
 30
0.0
 11
87.65610315417
 21
-2.11189097056
 31
0.0
  0
LINE
  5
2A9
330
30
100
AcDbEntity
  8
1
100
AcDbLine
 10
87.65610315417
 20
-2.11189097056
 30
0.0
 11
87.55610315417
 21
-2.12023137436
 31
0.0
  0
LINE
  5
2AA
330
30
100
AcDbEntity
  8
1
100
AcDbLine
 10
87.55610315417
 20
-2.12023137436
 30
0.0
 11
87.45610315417
 21
-2.128571642233
 31
0.0
  0
LINE
  5
2AB
330
30
100
AcDbEntity
  8
1
100
AcDbLine
 10
87.45610315417
 20
-2.128571642233
 30
0.0
 11
87.35610315417
 21
-2.136911775608
 31
0.0
  0
LINE
  5
2AC
330
30
100
AcDbEntity
  8
1
100
AcDbLine
 10
87.35610315417
 20
-2.136911775608
 30
0.0
 11
87.25610315417
 21
-2.145251775895
 31
0.0
  0
LINE
  5
2AD
330
30
100
AcDbEntity
  8
1
100
AcDbLine
 10
87.25610315417
 20
-2.145251775895
 30
0.0
 11
87.15610315417
 21
-2.153591644485
 31
0.0
  0
LINE
  5
2AE
330
30
100
AcDbEntity
  8
1
100
AcDbLine
 10
87.15610315417
 20
-2.153591644485
 30
0.0
 11
87.05610315417
 21
-2.161931382749
 31
0.0
  0
LINE
  5
2AF
330
30
100
AcDbEntity
  8
1
100
AcDbLine
 10
87.05610315417
 20
-2.161931382749
 30
0.0
 11
86.95610315417
 21
-2.17027099204
 31
0.0
  0
LINE
  5
2B0
330
30
100
AcDbEntity
  8
1
100
AcDbLine
 10
86.95610315417
 20
-2.17027099204
 30
0.0
 11
86.85610315417
 21
-2.17861047369
 31
0.0
  0
LINE
  5
2B1
330
30
100
AcDbEntity
  8
1
100
AcDbLine
 10
86.85610315417
 20
-2.17861047369
 30
0.0
 11
86.75610315417
 21
-2.186949829015
 31
0.0
  0
LINE
  5
2B2
330
30
100
AcDbEntity
  8
1
100
AcDbLine
 10
86.75610315417
 20
-2.186949829015
 30
0.0
 11
86.65610315417
 21
-2.195289059313
 31
0.0
  0
LINE
  5
2B3
330
30
100
AcDbEntity
  8
1
100
AcDbLine
 10
86.65610315417
 20
-2.195289059313
 30
0.0
 11
86.55610315417
 21
-2.203628165862
 31
0.0
  0
LINE
  5
2B4
330
30
100
AcDbEntity
  8
1
100
AcDbLine
 10
86.55610315417
 20
-2.203628165862
 30
0.0
 11
86.45610315417
 21
-2.211967149924
 31
0.0
  0
LINE
  5
2B5
330
30
100
AcDbEntity
  8
1
100
AcDbLine
 10
86.45610315417
 20
-2.211967149924
 30
0.0
 11
86.35610315417
 21
-2.220306012745
 31
0.0
  0
LINE
  5
2B6
330
30
100
AcDbEntity
  8
1
100
AcDbLine
 10
86.35610315417
 20
-2.220306012745
 30
0.0
 11
86.25610315417
 21
-2.228644755553
 31
0.0
  0
LINE
  5
2B7
330
30
100
AcDbEntity
  8
1
100
AcDbLine
 10
86.25610315417
 20
-2.228644755553
 30
0.0
 11
86.15610315417
 21
-2.236983379559
 31
0.0
  0
LINE
  5
2B8
330
30
100
AcDbEntity
  8
1
100
AcDbLine
 10
86.15610315417
 20
-2.236983379559
 30
0.0
 11
86.05610315417
 21
-2.245321885957
 31
0.0
  0
LINE
  5
2B9
330
30
100
AcDbEntity
  8
1
100
AcDbLine
 10
86.05610315417
 20
-2.245321885957
 30
0.0
 11
85.95610315417
 21
-2.25
 31
0.0
  0
LINE
  5
2BA
330
30
100
AcDbEntity
  8
1
100
AcDbLine
 10
85.95610315417
 20
-2.25
 30
0.0
 11
85.85610315417
 21
-2.25
 31
0.0
  0
LINE
  5
2BB
330
30
100
AcDbEntity
  8
1
100
AcDbLine
 10
85.85610315417
 20
-2.25
 30
0.0
 11
85.75610315417
 21
-2.25
 31
0.0
  0
LINE
  5
2BC
330
30
100
AcDbEntity
  8
1
100
AcDbLine
 10
85.75610315417
 20
-2.25
 30
0.0
 11
85.65610315417
 21
-2.25
 31
0.0
  0
LINE
  5
2BD
330
30
100
AcDbEntity
  8
1
100
AcDbLine
 10
85.65610315417
 20
-2.25
 30
0.0
 11
85.55610315417
 21
-2.25
 31
0.0
  0
LINE
  5
2BE
330
30
100
AcDbEntity
  8
1
100
AcDbLine
 10
85.55610315417
 20
-2.25
 30
0.0
 11
85.45610315417
 21
-2.25
 31
0.0
  0
LINE
  5
2BF
330
30
100
AcDbEntity
  8
1
100
AcDbLine
 10
85.45610315417
 20
-2.25
 30
0.0
 11
85.35610315417
 21
-2.25
 31
0.0
  0
LINE
  5
2C0
330
30
100
AcDbEntity
  8
1
100
AcDbLine
 10
85.35610315417
 20
-2.25
 30
0.0
 11
85.25610315417
 21
-2.25
 31
0.0
  0
LINE
  5
2C1
330
30
100
AcDbEntity
  8
1
100
AcDbLine
 10
85.25610315417
 20
-2.25
 30
0.0
 11
85.15610315417
 21
-2.25
 31
0.0
  0
LINE
  5
2C2
330
30
100
AcDbEntity
  8
1
100
AcDbLine
 10
85.15610315417
 20
-2.25
 30
0.0
 11
85.05610315417
 21
-2.25
 31
0.0
  0
LINE
  5
2C3
330
30
100
AcDbEntity
  8
1
100
AcDbLine
 10
85.05610315417
 20
-2.25
 30
0.0
 11
84.95610315417
 21
-2.25
 31
0.0
  0
LINE
  5
2C4
330
30
100
AcDbEntity
  8
1
100
AcDbLine
 10
84.95610315417
 20
-2.25
 30
0.0
 11
84.85610315417
 21
-2.25
 31
0.0
  0
LINE
  5
2C5
330
30
100
AcDbEntity
  8
1
100
AcDbLine
 10
84.85610315417
 20
-2.25
 30
0.0
 11
84.75610315417
 21
-2.25
 31
0.0
  0
LINE
  5
2C6
330
30
100
AcDbEntity
  8
1
100
AcDbLine
 10
84.75610315417
 20
-2.25
 30
0.0
 11
84.65610315417
 21
-2.25
 31
0.0
  0
LINE
  5
2C7
330
30
100
AcDbEntity
  8
1
100
AcDbLine
 10
84.65610315417
 20
-2.25
 30
0.0
 11
84.55610315417
 21
-2.25
 31
0.0
  0
LINE
  5
2C8
330
30
100
AcDbEntity
  8
1
100
AcDbLine
 10
84.55610315417
 20
-2.25
 30
0.0
 11
84.45610315417
 21
-2.25
 31
0.0
  0
LINE
  5
2C9
330
30
100
AcDbEntity
  8
1
100
AcDbLine
 10
84.45610315417
 20
-2.25
 30
0.0
 11
84.35610315417
 21
-2.25
 31
0.0
  0
LINE
  5
2CA
330
30
100
AcDbEntity
  8
1
100
AcDbLine
 10
84.35610315417
 20
-2.25
 30
0.0
 11
84.25610315417
 21
-2.25
 31
0.0
  0
LINE
  5
2CB
330
30
100
AcDbEntity
  8
1
100
AcDbLine
 10
84.25610315417
 20
-2.25
 30
0.0
 11
84.15610315417
 21
-2.25
 31
0.0
  0
LINE
  5
2CC
330
30
100
AcDbEntity
  8
1
100
AcDbLine
 10
84.15610315417
 20
-2.25
 30
0.0
 11
84.05610315417
 21
-2.25
 31
0.0
  0
LINE
  5
2CD
330
30
100
AcDbEntity
  8
1
100
AcDbLine
 10
84.05610315417
 20
-2.25
 30
0.0
 11
83.95610315417
 21
-2.25
 31
0.0
  0
LINE
  5
2CE
330
30
100
AcDbEntity
  8
1
100
AcDbLine
 10
83.95610315417
 20
-2.25
 30
0.0
 11
83.85610315417
 21
-2.25
 31
0.0
  0
LINE
  5
2CF
330
30
100
AcDbEntity
  8
1
100
AcDbLine
 10
83.85610315417
 20
-2.25
 30
0.0
 11
83.75610315417
 21
-2.25
 31
0.0
  0
LINE
  5
2D0
330
30
100
AcDbEntity
  8
1
100
AcDbLine
 10
83.75610315417
 20
-2.25
 30
0.0
 11
83.65610315417
 21
-2.25
 31
0.0
  0
LINE
  5
2D1
330
30
100
AcDbEntity
  8
1
100
AcDbLine
 10
83.65610315417
 20
-2.25
 30
0.0
 11
83.55610315417
 21
-2.25
 31
0.0
  0
LINE
  5
2D2
330
30
100
AcDbEntity
  8
1
100
AcDbLine
 10
83.55610315417
 20
-2.25
 30
0.0
 11
83.45610315417
 21
-2.25
 31
0.0
  0
LINE
  5
2D3
330
30
100
AcDbEntity
  8
1
100
AcDbLine
 10
83.45610315417
 20
-2.25
 30
0.0
 11
83.35610315417
 21
-2.25
 31
0.0
  0
LINE
  5
2D4
330
30
100
AcDbEntity
  8
1
100
AcDbLine
 10
83.35610315417
 20
-2.25
 30
0.0
 11
83.25610315417
 21
-2.25
 31
0.0
  0
LINE
  5
2D5
330
30
100
AcDbEntity
  8
1
100
AcDbLine
 10
83.25610315417
 20
-2.25
 30
0.0
 11
83.15610315417
 21
-2.25
 31
0.0
  0
LINE
  5
2D6
330
30
100
AcDbEntity
  8
1
100
AcDbLine
 10
83.15610315417
 20
-2.25
 30
0.0
 11
83.05610315417
 21
-2.25
 31
0.0
  0
LINE
  5
2D7
330
30
100
AcDbEntity
  8
1
100
AcDbLine
 10
83.05610315417
 20
-2.25
 30
0.0
 11
82.95610315417
 21
-2.25
 31
0.0
  0
LINE
  5
2D8
330
30
100
AcDbEntity
  8
1
100
AcDbLine
 10
82.95610315417
 20
-2.25
 30
0.0
 11
82.85610315417
 21
-2.25
 31
0.0
  0
LINE
  5
2D9
330
30
100
AcDbEntity
  8
1
100
AcDbLine
 10
82.85610315417
 20
-2.25
 30
0.0
 11
82.75610315417
 21
-2.25
 31
0.0
  0
LINE
  5
2DA
330
30
100
AcDbEntity
  8
1
100
AcDbLine
 10
82.75610315417
 20
-2.25
 30
0.0
 11
82.65610315417
 21
-2.25
 31
0.0
  0
LINE
  5
2DB
330
30
100
AcDbEntity
  8
1
100
AcDbLine
 10
82.65610315417
 20
-2.25
 30
0.0
 11
82.55610315417
 21
-2.25
 31
0.0
  0
LINE
  5
2DC
330
30
100
AcDbEntity
  8
1
100
AcDbLine
 10
82.55610315417
 20
-2.25
 30
0.0
 11
82.45610315417
 21
-2.25
 31
0.0
  0
LINE
  5
2DD
330
30
100
AcDbEntity
  8
1
100
AcDbLine
 10
82.45610315417
 20
-2.25
 30
0.0
 11
82.35610315417
 21
-2.25
 31
0.0
  0
LINE
  5
2DE
330
30
100
AcDbEntity
  8
1
100
AcDbLine
 10
82.35610315417
 20
-2.25
 30
0.0
 11
82.25610315417
 21
-2.25
 31
0.0
  0
LINE
  5
2DF
330
30
100
AcDbEntity
  8
1
100
AcDbLine
 10
82.25610315417
 20
-2.25
 30
0.0
 11
82.15610315417
 21
-2.25
 31
0.0
  0
LINE
  5
2E0
330
30
100
AcDbEntity
  8
1
100
AcDbLine
 10
82.15610315417
 20
-2.25
 30
0.0
 11
82.05610315417
 21
-2.25
 31
0.0
  0
LINE
  5
2E1
330
30
100
AcDbEntity
  8
1
100
AcDbLine
 10
82.05610315417
 20
-2.25
 30
0.0
 11
81.95610315417
 21
-2.25
 31
0.0
  0
LINE
  5
2E2
330
30
100
AcDbEntity
  8
1
100
AcDbLine
 10
81.95610315417
 20
-2.25
 30
0.0
 11
81.85610315417
 21
-2.25
 31
0.0
  0
LINE
  5
2E3
330
30
100
AcDbEntity
  8
1
100
AcDbLine
 10
81.85610315417
 20
-2.25
 30
0.0
 11
81.75610315417
 21
-2.25
 31
0.0
  0
LINE
  5
2E4
330
30
100
AcDbEntity
  8
1
100
AcDbLine
 10
81.75610315417
 20
-2.25
 30
0.0
 11
81.65610315417
 21
-2.25
 31
0.0
  0
LINE
  5
2E5
330
30
100
AcDbEntity
  8
1
100
AcDbLine
 10
81.65610315417
 20
-2.25
 30
0.0
 11
81.55610315417
 21
-2.25
 31
0.0
  0
LINE
  5
2E6
330
30
100
AcDbEntity
  8
1
100
AcDbLine
 10
81.55610315417
 20
-2.25
 30
0.0
 11
81.45610315417
 21
-2.25
 31
0.0
  0
LINE
  5
2E7
330
30
100
AcDbEntity
  8
1
100
AcDbLine
 10
81.45610315417
 20
-2.25
 30
0.0
 11
81.35610315417
 21
-2.25
 31
0.0
  0
LINE
  5
2E8
330
30
100
AcDbEntity
  8
1
100
AcDbLine
 10
81.35610315417
 20
-2.25
 30
0.0
 11
81.25610315417
 21
-2.25
 31
0.0
  0
LINE
  5
2E9
330
30
100
AcDbEntity
  8
1
100
AcDbLine
 10
81.25610315417
 20
-2.25
 30
0.0
 11
81.15610315417
 21
-2.25
 31
0.0
  0
LINE
  5
2EA
330
30
100
AcDbEntity
  8
1
100
AcDbLine
 10
81.15610315417
 20
-2.25
 30
0.0
 11
81.05610315417
 21
-2.25
 31
0.0
  0
LINE
  5
2EB
330
30
100
AcDbEntity
  8
1
100
AcDbLine
 10
81.05610315417
 20
-2.25
 30
0.0
 11
80.95610315417
 21
-2.25
 31
0.0
  0
LINE
  5
2EC
330
30
100
AcDbEntity
  8
1
100
AcDbLine
 10
80.95610315417
 20
-2.25
 30
0.0
 11
80.85610315417
 21
-2.25
 31
0.0
  0
LINE
  5
2ED
330
30
100
AcDbEntity
  8
1
100
AcDbLine
 10
80.85610315417
 20
-2.25
 30
0.0
 11
80.75610315417
 21
-2.25
 31
0.0
  0
LINE
  5
2EE
330
30
100
AcDbEntity
  8
1
100
AcDbLine
 10
80.75610315417
 20
-2.25
 30
0.0
 11
80.65610315417
 21
-2.25
 31
0.0
  0
LINE
  5
2EF
330
30
100
AcDbEntity
  8
1
100
AcDbLine
 10
80.65610315417
 20
-2.25
 30
0.0
 11
80.55610315417
 21
-2.25
 31
0.0
  0
LINE
  5
2F0
330
30
100
AcDbEntity
  8
1
100
AcDbLine
 10
80.55610315417
 20
-2.25
 30
0.0
 11
80.45610315417
 21
-2.25
 31
0.0
  0
LINE
  5
2F1
330
30
100
AcDbEntity
  8
1
100
AcDbLine
 10
80.45610315417
 20
-2.25
 30
0.0
 11
80.35610315417
 21
-2.25
 31
0.0
  0
LINE
  5
2F2
330
30
100
AcDbEntity
  8
1
100
AcDbLine
 10
80.35610315417
 20
-2.25
 30
0.0
 11
80.25610315417
 21
-2.25
 31
0.0
  0
LINE
  5
2F3
330
30
100
AcDbEntity
  8
1
100
AcDbLine
 10
80.25610315417
 20
-2.25
 30
0.0
 11
80.15610315417
 21
-2.25
 31
0.0
  0
LINE
  5
2F4
330
30
100
AcDbEntity
  8
1
100
AcDbLine
 10
80.15610315417
 20
-2.25
 30
0.0
 11
80.05610315417
 21
-2.25
 31
0.0
  0
LINE
  5
2F5
330
30
100
AcDbEntity
  8
1
100
AcDbLine
 10
80.05610315417
 20
-2.25
 30
0.0
 11
79.95610315417
 21
-2.25
 31
0.0
  0
LINE
  5
2F6
330
30
100
AcDbEntity
  8
1
100
AcDbLine
 10
79.95610315417
 20
-2.25
 30
0.0
 11
79.85610315417
 21
-2.25
 31
0.0
  0
LINE
  5
2F7
330
30
100
AcDbEntity
  8
1
100
AcDbLine
 10
79.85610315417
 20
-2.25
 30
0.0
 11
79.75610315417
 21
-2.25
 31
0.0
  0
LINE
  5
2F8
330
30
100
AcDbEntity
  8
1
100
AcDbLine
 10
79.75610315417
 20
-2.25
 30
0.0
 11
79.65610315417
 21
-2.25
 31
0.0
  0
LINE
  5
2F9
330
30
100
AcDbEntity
  8
1
100
AcDbLine
 10
79.65610315417
 20
-2.25
 30
0.0
 11
79.55610315417
 21
-2.25
 31
0.0
  0
LINE
  5
2FA
330
30
100
AcDbEntity
  8
1
100
AcDbLine
 10
79.55610315417
 20
-2.25
 30
0.0
 11
79.45610315417
 21
-2.25
 31
0.0
  0
LINE
  5
2FB
330
30
100
AcDbEntity
  8
1
100
AcDbLine
 10
79.45610315417
 20
-2.25
 30
0.0
 11
79.35610315417
 21
-2.25
 31
0.0
  0
LINE
  5
2FC
330
30
100
AcDbEntity
  8
1
100
AcDbLine
 10
79.35610315417
 20
-2.25
 30
0.0
 11
79.25610315417
 21
-2.25
 31
0.0
  0
LINE
  5
2FD
330
30
100
AcDbEntity
  8
1
100
AcDbLine
 10
79.25610315417
 20
-2.25
 30
0.0
 11
79.15610315417
 21
-2.25
 31
0.0
  0
LINE
  5
2FE
330
30
100
AcDbEntity
  8
1
100
AcDbLine
 10
79.15610315417
 20
-2.25
 30
0.0
 11
79.05610315417
 21
-2.25
 31
0.0
  0
LINE
  5
2FF
330
30
100
AcDbEntity
  8
1
100
AcDbLine
 10
79.05610315417
 20
-2.25
 30
0.0
 11
78.95610315417
 21
-2.25
 31
0.0
  0
LINE
  5
300
330
30
100
AcDbEntity
  8
1
100
AcDbLine
 10
78.95610315417
 20
-2.25
 30
0.0
 11
78.85610315417
 21
-2.25
 31
0.0
  0
LINE
  5
301
330
30
100
AcDbEntity
  8
1
100
AcDbLine
 10
78.85610315417
 20
-2.25
 30
0.0
 11
78.75610315417
 21
-2.25
 31
0.0
  0
LINE
  5
302
330
30
100
AcDbEntity
  8
1
100
AcDbLine
 10
78.75610315417
 20
-2.25
 30
0.0
 11
78.65610315417
 21
-2.25
 31
0.0
  0
LINE
  5
303
330
30
100
AcDbEntity
  8
1
100
AcDbLine
 10
78.65610315417
 20
-2.25
 30
0.0
 11
78.55610315417
 21
-2.25
 31
0.0
  0
LINE
  5
304
330
30
100
AcDbEntity
  8
1
100
AcDbLine
 10
78.55610315417
 20
-2.25
 30
0.0
 11
78.45610315417
 21
-2.25
 31
0.0
  0
LINE
  5
305
330
30
100
AcDbEntity
  8
1
100
AcDbLine
 10
78.45610315417
 20
-2.25
 30
0.0
 11
78.35610315417
 21
-2.25
 31
0.0
  0
LINE
  5
306
330
30
100
AcDbEntity
  8
1
100
AcDbLine
 10
78.35610315417
 20
-2.25
 30
0.0
 11
78.25610315417
 21
-2.25
 31
0.0
  0
LINE
  5
307
330
30
100
AcDbEntity
  8
1
100
AcDbLine
 10
78.25610315417
 20
-2.25
 30
0.0
 11
78.15610315417
 21
-2.25
 31
0.0
  0
LINE
  5
308
330
30
100
AcDbEntity
  8
1
100
AcDbLine
 10
78.15610315417
 20
-2.25
 30
0.0
 11
78.05610315417
 21
-2.25
 31
0.0
  0
LINE
  5
309
330
30
100
AcDbEntity
  8
1
100
AcDbLine
 10
78.05610315417
 20
-2.25
 30
0.0
 11
77.95610315417
 21
-2.25
 31
0.0
  0
LINE
  5
30A
330
30
100
AcDbEntity
  8
1
100
AcDbLine
 10
77.95610315417
 20
-2.25
 30
0.0
 11
77.85610315417
 21
-2.25
 31
0.0
  0
LINE
  5
30B
330
30
100
AcDbEntity
  8
1
100
AcDbLine
 10
77.85610315417
 20
-2.25
 30
0.0
 11
77.75610315417
 21
-2.25
 31
0.0
  0
LINE
  5
30C
330
30
100
AcDbEntity
  8
1
100
AcDbLine
 10
77.75610315417
 20
-2.25
 30
0.0
 11
77.65610315417
 21
-2.25
 31
0.0
  0
LINE
  5
30D
330
30
100
AcDbEntity
  8
1
100
AcDbLine
 10
77.65610315417
 20
-2.25
 30
0.0
 11
77.55610315417
 21
-2.25
 31
0.0
  0
LINE
  5
30E
330
30
100
AcDbEntity
  8
1
100
AcDbLine
 10
77.55610315417
 20
-2.25
 30
0.0
 11
77.45610315417
 21
-2.25
 31
0.0
  0
LINE
  5
30F
330
30
100
AcDbEntity
  8
1
100
AcDbLine
 10
77.45610315417
 20
-2.25
 30
0.0
 11
77.35610315417
 21
-2.25
 31
0.0
  0
LINE
  5
310
330
30
100
AcDbEntity
  8
1
100
AcDbLine
 10
77.35610315417
 20
-2.25
 30
0.0
 11
77.25610315417
 21
-2.25
 31
0.0
  0
LINE
  5
311
330
30
100
AcDbEntity
  8
1
100
AcDbLine
 10
77.25610315417
 20
-2.25
 30
0.0
 11
77.15610315417
 21
-2.25
 31
0.0
  0
LINE
  5
312
330
30
100
AcDbEntity
  8
1
100
AcDbLine
 10
77.15610315417
 20
-2.25
 30
0.0
 11
77.05610315417
 21
-2.25
 31
0.0
  0
LINE
  5
313
330
30
100
AcDbEntity
  8
1
100
AcDbLine
 10
77.05610315417
 20
-2.25
 30
0.0
 11
76.95610315417
 21
-2.25
 31
0.0
  0
LINE
  5
314
330
30
100
AcDbEntity
  8
1
100
AcDbLine
 10
76.95610315417
 20
-2.25
 30
0.0
 11
76.85610315417
 21
-2.25
 31
0.0
  0
LINE
  5
315
330
30
100
AcDbEntity
  8
1
100
AcDbLine
 10
76.85610315417
 20
-2.25
 30
0.0
 11
76.75610315417
 21
-2.25
 31
0.0
  0
LINE
  5
316
330
30
100
AcDbEntity
  8
1
100
AcDbLine
 10
76.75610315417
 20
-2.25
 30
0.0
 11
76.65610315417
 21
-2.25
 31
0.0
  0
LINE
  5
317
330
30
100
AcDbEntity
  8
1
100
AcDbLine
 10
76.65610315417
 20
-2.25
 30
0.0
 11
76.55610315417
 21
-2.25
 31
0.0
  0
LINE
  5
318
330
30
100
AcDbEntity
  8
1
100
AcDbLine
 10
76.55610315417
 20
-2.25
 30
0.0
 11
76.45610315417
 21
-2.25
 31
0.0
  0
LINE
  5
319
330
30
100
AcDbEntity
  8
1
100
AcDbLine
 10
76.45610315417
 20
-2.25
 30
0.0
 11
76.35610315417
 21
-2.25
 31
0.0
  0
LINE
  5
31A
330
30
100
AcDbEntity
  8
1
100
AcDbLine
 10
76.35610315417
 20
-2.25
 30
0.0
 11
76.25610315417
 21
-2.25
 31
0.0
  0
LINE
  5
31B
330
30
100
AcDbEntity
  8
1
100
AcDbLine
 10
76.25610315417
 20
-2.25
 30
0.0
 11
76.15610315417
 21
-2.25
 31
0.0
  0
LINE
  5
31C
330
30
100
AcDbEntity
  8
1
100
AcDbLine
 10
76.15610315417
 20
-2.25
 30
0.0
 11
76.05610315417
 21
-2.25
 31
0.0
  0
LINE
  5
31D
330
30
100
AcDbEntity
  8
1
100
AcDbLine
 10
76.05610315417
 20
-2.25
 30
0.0
 11
75.95610315417
 21
-2.25
 31
0.0
  0
LINE
  5
31E
330
30
100
AcDbEntity
  8
1
100
AcDbLine
 10
75.95610315417
 20
-2.25
 30
0.0
 11
75.85610315417
 21
-2.25
 31
0.0
  0
LINE
  5
31F
330
30
100
AcDbEntity
  8
1
100
AcDbLine
 10
75.85610315417
 20
-2.25
 30
0.0
 11
75.75610315417
 21
-2.25
 31
0.0
  0
LINE
  5
320
330
30
100
AcDbEntity
  8
1
100
AcDbLine
 10
75.75610315417
 20
-2.25
 30
0.0
 11
75.65610315417
 21
-2.25
 31
0.0
  0
LINE
  5
321
330
30
100
AcDbEntity
  8
1
100
AcDbLine
 10
75.65610315417
 20
-2.25
 30
0.0
 11
75.55610315417
 21
-2.25
 31
0.0
  0
LINE
  5
322
330
30
100
AcDbEntity
  8
1
100
AcDbLine
 10
75.55610315417
 20
-2.25
 30
0.0
 11
75.45610315417
 21
-2.25
 31
0.0
  0
LINE
  5
323
330
30
100
AcDbEntity
  8
1
100
AcDbLine
 10
75.45610315417
 20
-2.25
 30
0.0
 11
75.35610315417
 21
-2.25
 31
0.0
  0
LINE
  5
324
330
30
100
AcDbEntity
  8
1
100
AcDbLine
 10
75.35610315417
 20
-2.25
 30
0.0
 11
75.25610315417
 21
-2.25
 31
0.0
  0
LINE
  5
325
330
30
100
AcDbEntity
  8
1
100
AcDbLine
 10
75.25610315417
 20
-2.25
 30
0.0
 11
75.15610315417
 21
-2.25
 31
0.0
  0
LINE
  5
326
330
30
100
AcDbEntity
  8
1
100
AcDbLine
 10
75.15610315417
 20
-2.25
 30
0.0
 11
75.05610315417
 21
-2.25
 31
0.0
  0
LINE
  5
327
330
30
100
AcDbEntity
  8
1
100
AcDbLine
 10
75.05610315417
 20
-2.25
 30
0.0
 11
74.95610315417
 21
-2.235911382325
 31
0.0
  0
LINE
  5
328
330
30
100
AcDbEntity
  8
1
100
AcDbLine
 10
74.95610315417
 20
-2.235911382325
 30
0.0
 11
74.85610315417
 21
-2.203815288694
 31
0.0
  0
LINE
  5
329
330
30
100
AcDbEntity
  8
1
100
AcDbLine
 10
74.85610315417
 20
-2.203815288694
 30
0.0
 11
74.75610315417
 21
-2.171717380574
 31
0.0
  0
LINE
  5
32A
330
30
100
AcDbEntity
  8
1
100
AcDbLine
 10
74.75610315417
 20
-2.171717380574
 30
0.0
 11
74.65610315417
 21
-2.139617584574
 31
0.0
  0
LINE
  5
32B
330
30
100
AcDbEntity
  8
1
100
AcDbLine
 10
74.65610315417
 20
-2.139617584574
 30
0.0
 11
74.55610315417
 21
-2.107515823289
 31
0.0
  0
LINE
  5
32C
330
30
100
AcDbEntity
  8
1
100
AcDbLine
 10
74.55610315417
 20
-2.107515823289
 30
0.0
 11
74.45610315417
 21
-2.075412015015
 31
0.0
  0
LINE
  5
32D
330
30
100
AcDbEntity
  8
1
100
AcDbLine
 10
74.45610315417
 20
-2.075412015015
 30
0.0
 11
74.35610315417
 21
-2.043306073453
 31
0.0
  0
LINE
  5
32E
330
30
100
AcDbEntity
  8
1
100
AcDbLine
 10
74.35610315417
 20
-2.043306073453
 30
0.0
 11
74.25610315417
 21
-2.011197907375
 31
0.0
  0
LINE
  5
32F
330
30
100
AcDbEntity
  8
1
100
AcDbLine
 10
74.25610315417
 20
-2.011197907375
 30
0.0
 11
74.15610315417
 21
-1.979087420271
 31
0.0
  0
LINE
  5
330
330
30
100
AcDbEntity
  8
1
100
AcDbLine
 10
74.15610315417
 20
-1.979087420271
 30
0.0
 11
74.05610315417
 21
-1.946974509958
 31
0.0
  0
LINE
  5
331
330
30
100
AcDbEntity
  8
1
100
AcDbLine
 10
74.05610315417
 20
-1.946974509958
 30
0.0
 11
73.95610315417
 21
-1.914859068157
 31
0.0
  0
LINE
  5
332
330
30
100
AcDbEntity
  8
1
100
AcDbLine
 10
73.95610315417
 20
-1.914859068157
 30
0.0
 11
73.85610315417
 21
-1.882740980032
 31
0.0
  0
LINE
  5
333
330
30
100
AcDbEntity
  8
1
100
AcDbLine
 10
73.85610315417
 20
-1.882740980032
 30
0.0
 11
73.75610315417
 21
-1.850620123682
 31
0.0
  0
LINE
  5
334
330
30
100
AcDbEntity
  8
1
100
AcDbLine
 10
73.75610315417
 20
-1.850620123682
 30
0.0
 11
73.65610315417
 21
-1.818496369593
 31
0.0
  0
LINE
  5
335
330
30
100
AcDbEntity
  8
1
100
AcDbLine
 10
73.65610315417
 20
-1.818496369593
 30
0.0
 11
73.55610315417
 21
-1.78636958003
 31
0.0
  0
LINE
  5
336
330
30
100
AcDbEntity
  8
1
100
AcDbLine
 10
73.55610315417
 20
-1.78636958003
 30
0.0
 11
73.45610315417
 21
-1.754239608374
 31
0.0
  0
LINE
  5
337
330
30
100
AcDbEntity
  8
1
100
AcDbLine
 10
73.45610315417
 20
-1.754239608374
 30
0.0
 11
73.35610315417
 21
-1.749436254268
 31
0.0
  0
LINE
  5
338
330
30
100
AcDbEntity
  8
1
100
AcDbLine
 10
73.35610315417
 20
-1.749436254268
 30
0.0
 11
73.25610315417
 21
-1.749436254268
 31
0.0
  0
LINE
  5
339
330
30
100
AcDbEntity
  8
1
100
AcDbLine
 10
73.25610315417
 20
-1.749436254268
 30
0.0
 11
73.15610315417
 21
-1.749436254268
 31
0.0
  0
LINE
  5
33A
330
30
100
AcDbEntity
  8
1
100
AcDbLine
 10
73.15610315417
 20
-1.749436254268
 30
0.0
 11
73.05610315417
 21
-1.749436254268
 31
0.0
  0
LINE
  5
33B
330
30
100
AcDbEntity
  8
1
100
AcDbLine
 10
73.05610315417
 20
-1.749436254268
 30
0.0
 11
72.95610315417
 21
-1.749436254268
 31
0.0
  0
LINE
  5
33C
330
30
100
AcDbEntity
  8
1
100
AcDbLine
 10
72.95610315417
 20
-1.749436254268
 30
0.0
 11
72.85610315417
 21
-1.749436254268
 31
0.0
  0
LINE
  5
33D
330
30
100
AcDbEntity
  8
1
100
AcDbLine
 10
72.85610315417
 20
-1.749436254268
 30
0.0
 11
72.75610315417
 21
-1.749436254268
 31
0.0
  0
LINE
  5
33E
330
30
100
AcDbEntity
  8
1
100
AcDbLine
 10
72.75610315417
 20
-1.749436254268
 30
0.0
 11
72.65610315417
 21
-1.749436254268
 31
0.0
  0
LINE
  5
33F
330
30
100
AcDbEntity
  8
1
100
AcDbLine
 10
72.65610315417
 20
-1.749436254268
 30
0.0
 11
72.55610315417
 21
-1.749436254268
 31
0.0
  0
LINE
  5
340
330
30
100
AcDbEntity
  8
1
100
AcDbLine
 10
72.55610315417
 20
-1.749436254268
 30
0.0
 11
72.45610315417
 21
-1.749436254268
 31
0.0
  0
LINE
  5
341
330
30
100
AcDbEntity
  8
1
100
AcDbLine
 10
72.45610315417
 20
-1.749436254268
 30
0.0
 11
72.35610315417
 21
-1.749436254268
 31
0.0
  0
LINE
  5
342
330
30
100
AcDbEntity
  8
1
100
AcDbLine
 10
72.35610315417
 20
-1.749436254268
 30
0.0
 11
72.25610315417
 21
-1.749436254268
 31
0.0
  0
LINE
  5
343
330
30
100
AcDbEntity
  8
1
100
AcDbLine
 10
72.25610315417
 20
-1.749436254268
 30
0.0
 11
72.15610315417
 21
-1.749436254268
 31
0.0
  0
LINE
  5
344
330
30
100
AcDbEntity
  8
1
100
AcDbLine
 10
72.15610315417
 20
-1.749436254268
 30
0.0
 11
72.05610315417
 21
-1.749436254268
 31
0.0
  0
LINE
  5
345
330
30
100
AcDbEntity
  8
1
100
AcDbLine
 10
72.05610315417
 20
-1.749436254268
 30
0.0
 11
71.95610315417
 21
-1.749436254268
 31
0.0
  0
LINE
  5
346
330
30
100
AcDbEntity
  8
1
100
AcDbLine
 10
71.95610315417
 20
-1.749436254268
 30
0.0
 11
71.85610315417
 21
-1.749436254268
 31
0.0
  0
LINE
  5
347
330
30
100
AcDbEntity
  8
1
100
AcDbLine
 10
71.85610315417
 20
-1.749436254268
 30
0.0
 11
71.75610315417
 21
-1.749436254268
 31
0.0
  0
LINE
  5
348
330
30
100
AcDbEntity
  8
1
100
AcDbLine
 10
71.75610315417
 20
-1.749436254268
 30
0.0
 11
71.65610315417
 21
-1.749436254268
 31
0.0
  0
LINE
  5
349
330
30
100
AcDbEntity
  8
1
100
AcDbLine
 10
71.65610315417
 20
-1.749436254268
 30
0.0
 11
71.55610315417
 21
-1.749436254268
 31
0.0
  0
LINE
  5
34A
330
30
100
AcDbEntity
  8
1
100
AcDbLine
 10
71.55610315417
 20
-1.749436254268
 30
0.0
 11
71.45610315417
 21
-1.749436254268
 31
0.0
  0
LINE
  5
34B
330
30
100
AcDbEntity
  8
1
100
AcDbLine
 10
71.45610315417
 20
-1.749436254268
 30
0.0
 11
71.35610315417
 21
-1.749436254268
 31
0.0
  0
LINE
  5
34C
330
30
100
AcDbEntity
  8
1
100
AcDbLine
 10
71.35610315417
 20
-1.749436254268
 30
0.0
 11
71.25610315417
 21
-1.749436254268
 31
0.0
  0
LINE
  5
34D
330
30
100
AcDbEntity
  8
1
100
AcDbLine
 10
71.25610315417
 20
-1.749436254268
 30
0.0
 11
71.15610315417
 21
-1.749436254268
 31
0.0
  0
LINE
  5
34E
330
30
100
AcDbEntity
  8
1
100
AcDbLine
 10
71.15610315417
 20
-1.749436254268
 30
0.0
 11
71.05610315417
 21
-1.749436254268
 31
0.0
  0
LINE
  5
34F
330
30
100
AcDbEntity
  8
1
100
AcDbLine
 10
71.05610315417
 20
-1.749436254268
 30
0.0
 11
70.95610315417
 21
-1.749436254268
 31
0.0
  0
LINE
  5
350
330
30
100
AcDbEntity
  8
1
100
AcDbLine
 10
70.95610315417
 20
-1.749436254268
 30
0.0
 11
70.85610315417
 21
-1.749436254268
 31
0.0
  0
LINE
  5
351
330
30
100
AcDbEntity
  8
1
100
AcDbLine
 10
70.85610315417
 20
-1.749436254268
 30
0.0
 11
70.75610315417
 21
-1.749436254268
 31
0.0
  0
LINE
  5
352
330
30
100
AcDbEntity
  8
1
100
AcDbLine
 10
70.75610315417
 20
-1.749436254268
 30
0.0
 11
70.65610315417
 21
-1.749436254268
 31
0.0
  0
LINE
  5
353
330
30
100
AcDbEntity
  8
1
100
AcDbLine
 10
70.65610315417
 20
-1.749436254268
 30
0.0
 11
70.55610315417
 21
-1.749436254268
 31
0.0
  0
LINE
  5
354
330
30
100
AcDbEntity
  8
1
100
AcDbLine
 10
70.55610315417
 20
-1.749436254268
 30
0.0
 11
70.45610315417
 21
-1.749436254268
 31
0.0
  0
LINE
  5
355
330
30
100
AcDbEntity
  8
1
100
AcDbLine
 10
70.45610315417
 20
-1.749436254268
 30
0.0
 11
70.35610315417
 21
-1.749436254268
 31
0.0
  0
LINE
  5
356
330
30
100
AcDbEntity
  8
1
100
AcDbLine
 10
70.35610315417
 20
-1.749436254268
 30
0.0
 11
70.25610315417
 21
-1.749436254268
 31
0.0
  0
LINE
  5
357
330
30
100
AcDbEntity
  8
1
100
AcDbLine
 10
70.25610315417
 20
-1.749436254268
 30
0.0
 11
70.15610315417
 21
-1.749436254268
 31
0.0
  0
LINE
  5
358
330
30
100
AcDbEntity
  8
1
100
AcDbLine
 10
70.15610315417
 20
-1.749436254268
 30
0.0
 11
70.05610315417
 21
-1.749436254268
 31
0.0
  0
LINE
  5
359
330
30
100
AcDbEntity
  8
1
100
AcDbLine
 10
70.05610315417
 20
-1.749436254268
 30
0.0
 11
69.95610315417
 21
-1.749436254268
 31
0.0
  0
LINE
  5
35A
330
30
100
AcDbEntity
  8
1
100
AcDbLine
 10
69.95610315417
 20
-1.749436254268
 30
0.0
 11
69.85610315417
 21
-1.749436254268
 31
0.0
  0
LINE
  5
35B
330
30
100
AcDbEntity
  8
1
100
AcDbLine
 10
69.85610315417
 20
-1.749436254268
 30
0.0
 11
69.75610315417
 21
-1.749436254268
 31
0.0
  0
LINE
  5
35C
330
30
100
AcDbEntity
  8
1
100
AcDbLine
 10
69.75610315417
 20
-1.749436254268
 30
0.0
 11
69.65610315417
 21
-1.749436254268
 31
0.0
  0
LINE
  5
35D
330
30
100
AcDbEntity
  8
1
100
AcDbLine
 10
69.65610315417
 20
-1.749436254268
 30
0.0
 11
69.55610315417
 21
-1.749436254268
 31
0.0
  0
LINE
  5
35E
330
30
100
AcDbEntity
  8
1
100
AcDbLine
 10
69.55610315417
 20
-1.749436254268
 30
0.0
 11
69.45610315417
 21
-1.749436254268
 31
0.0
  0
LINE
  5
35F
330
30
100
AcDbEntity
  8
1
100
AcDbLine
 10
69.45610315417
 20
-1.749436254268
 30
0.0
 11
69.35610315417
 21
-1.749436254268
 31
0.0
  0
LINE
  5
360
330
30
100
AcDbEntity
  8
1
100
AcDbLine
 10
69.35610315417
 20
-1.749436254268
 30
0.0
 11
69.25610315417
 21
-1.749436254268
 31
0.0
  0
LINE
  5
361
330
30
100
AcDbEntity
  8
1
100
AcDbLine
 10
69.25610315417
 20
-1.749436254268
 30
0.0
 11
69.15610315417
 21
-1.749436254268
 31
0.0
  0
LINE
  5
362
330
30
100
AcDbEntity
  8
1
100
AcDbLine
 10
69.15610315417
 20
-1.749436254268
 30
0.0
 11
69.05610315417
 21
-1.749436254268
 31
0.0
  0
LINE
  5
363
330
30
100
AcDbEntity
  8
1
100
AcDbLine
 10
69.05610315417
 20
-1.749436254268
 30
0.0
 11
68.95610315417
 21
-1.749436254268
 31
0.0
  0
LINE
  5
364
330
30
100
AcDbEntity
  8
1
100
AcDbLine
 10
68.95610315417
 20
-1.749436254268
 30
0.0
 11
68.85610315417
 21
-1.749436254268
 31
0.0
  0
LINE
  5
365
330
30
100
AcDbEntity
  8
1
100
AcDbLine
 10
68.85610315417
 20
-1.749436254268
 30
0.0
 11
68.75610315417
 21
-1.749436254268
 31
0.0
  0
LINE
  5
366
330
30
100
AcDbEntity
  8
1
100
AcDbLine
 10
68.75610315417
 20
-1.749436254268
 30
0.0
 11
68.65610315417
 21
-1.749436254268
 31
0.0
  0
LINE
  5
367
330
30
100
AcDbEntity
  8
1
100
AcDbLine
 10
68.65610315417
 20
-1.749436254268
 30
0.0
 11
68.55610315417
 21
-1.749436254268
 31
0.0
  0
LINE
  5
368
330
30
100
AcDbEntity
  8
1
100
AcDbLine
 10
68.55610315417
 20
-1.749436254268
 30
0.0
 11
68.45610315417
 21
-1.749436254268
 31
0.0
  0
LINE
  5
369
330
30
100
AcDbEntity
  8
1
100
AcDbLine
 10
68.45610315417
 20
-1.749436254268
 30
0.0
 11
68.35610315417
 21
-1.749436254268
 31
0.0
  0
LINE
  5
36A
330
30
100
AcDbEntity
  8
1
100
AcDbLine
 10
68.35610315417
 20
-1.749436254268
 30
0.0
 11
68.25610315417
 21
-1.749436254268
 31
0.0
  0
LINE
  5
36B
330
30
100
AcDbEntity
  8
1
100
AcDbLine
 10
68.25610315417
 20
-1.749436254268
 30
0.0
 11
68.15610315417
 21
-1.749436254268
 31
0.0
  0
LINE
  5
36C
330
30
100
AcDbEntity
  8
1
100
AcDbLine
 10
68.15610315417
 20
-1.749436254268
 30
0.0
 11
68.05610315417
 21
-1.749436254268
 31
0.0
  0
LINE
  5
36D
330
30
100
AcDbEntity
  8
1
100
AcDbLine
 10
68.05610315417
 20
-1.749436254268
 30
0.0
 11
67.95610315417
 21
-1.749436254268
 31
0.0
  0
LINE
  5
36E
330
30
100
AcDbEntity
  8
1
100
AcDbLine
 10
67.95610315417
 20
-1.749436254268
 30
0.0
 11
67.85610315417
 21
-1.749436254268
 31
0.0
  0
LINE
  5
36F
330
30
100
AcDbEntity
  8
1
100
AcDbLine
 10
67.85610315417
 20
-1.749436254268
 30
0.0
 11
67.75610315417
 21
-1.749436254268
 31
0.0
  0
LINE
  5
370
330
30
100
AcDbEntity
  8
1
100
AcDbLine
 10
67.75610315417
 20
-1.749436254268
 30
0.0
 11
67.65610315417
 21
-1.749436254268
 31
0.0
  0
LINE
  5
371
330
30
100
AcDbEntity
  8
1
100
AcDbLine
 10
67.65610315417
 20
-1.749436254268
 30
0.0
 11
67.55610315417
 21
-1.749436254268
 31
0.0
  0
LINE
  5
372
330
30
100
AcDbEntity
  8
1
100
AcDbLine
 10
67.55610315417
 20
-1.749436254268
 30
0.0
 11
67.45610315417
 21
-1.749436254268
 31
0.0
  0
LINE
  5
373
330
30
100
AcDbEntity
  8
1
100
AcDbLine
 10
67.45610315417
 20
-1.749436254268
 30
0.0
 11
67.35610315417
 21
-1.749436254268
 31
0.0
  0
LINE
  5
374
330
30
100
AcDbEntity
  8
1
100
AcDbLine
 10
67.35610315417
 20
-1.749436254268
 30
0.0
 11
67.25610315417
 21
-1.749436254268
 31
0.0
  0
LINE
  5
375
330
30
100
AcDbEntity
  8
1
100
AcDbLine
 10
67.25610315417
 20
-1.749436254268
 30
0.0
 11
67.15610315417
 21
-1.749436254268
 31
0.0
  0
LINE
  5
376
330
30
100
AcDbEntity
  8
1
100
AcDbLine
 10
67.15610315417
 20
-1.749436254268
 30
0.0
 11
67.05610315417
 21
-1.749436254268
 31
0.0
  0
LINE
  5
377
330
30
100
AcDbEntity
  8
1
100
AcDbLine
 10
67.05610315417
 20
-1.749436254268
 30
0.0
 11
66.95610315417
 21
-1.749436254268
 31
0.0
  0
LINE
  5
378
330
30
100
AcDbEntity
  8
1
100
AcDbLine
 10
66.95610315417
 20
-1.749436254268
 30
0.0
 11
66.85610315417
 21
-1.749436254268
 31
0.0
  0
LINE
  5
379
330
30
100
AcDbEntity
  8
1
100
AcDbLine
 10
66.85610315417
 20
-1.749436254268
 30
0.0
 11
66.75610315417
 21
-1.749436254268
 31
0.0
  0
LINE
  5
37A
330
30
100
AcDbEntity
  8
1
100
AcDbLine
 10
66.75610315417
 20
-1.749436254268
 30
0.0
 11
66.65610315417
 21
-1.749436254268
 31
0.0
  0
LINE
  5
37B
330
30
100
AcDbEntity
  8
1
100
AcDbLine
 10
66.65610315417
 20
-1.749436254268
 30
0.0
 11
66.55610315417
 21
-1.749436254268
 31
0.0
  0
LINE
  5
37C
330
30
100
AcDbEntity
  8
1
100
AcDbLine
 10
66.55610315417
 20
-1.749436254268
 30
0.0
 11
66.45610315417
 21
-1.749436254268
 31
0.0
  0
LINE
  5
37D
330
30
100
AcDbEntity
  8
1
100
AcDbLine
 10
66.45610315417
 20
-1.749436254268
 30
0.0
 11
66.35610315417
 21
-1.749436254268
 31
0.0
  0
LINE
  5
37E
330
30
100
AcDbEntity
  8
1
100
AcDbLine
 10
66.35610315417
 20
-1.749436254268
 30
0.0
 11
66.25610315417
 21
-1.749436254268
 31
0.0
  0
LINE
  5
37F
330
30
100
AcDbEntity
  8
1
100
AcDbLine
 10
66.25610315417
 20
-1.749436254268
 30
0.0
 11
66.15610315417
 21
-1.749436254268
 31
0.0
  0
LINE
  5
380
330
30
100
AcDbEntity
  8
1
100
AcDbLine
 10
66.15610315417
 20
-1.749436254268
 30
0.0
 11
66.05610315417
 21
-1.749436254268
 31
0.0
  0
LINE
  5
381
330
30
100
AcDbEntity
  8
1
100
AcDbLine
 10
66.05610315417
 20
-1.749436254268
 30
0.0
 11
65.95610315417
 21
-1.749436254268
 31
0.0
  0
LINE
  5
382
330
30
100
AcDbEntity
  8
1
100
AcDbLine
 10
65.95610315417
 20
-1.749436254268
 30
0.0
 11
65.85610315417
 21
-1.749436254268
 31
0.0
  0
LINE
  5
383
330
30
100
AcDbEntity
  8
1
100
AcDbLine
 10
65.85610315417
 20
-1.749436254268
 30
0.0
 11
65.75610315417
 21
-1.749436254268
 31
0.0
  0
LINE
  5
384
330
30
100
AcDbEntity
  8
1
100
AcDbLine
 10
65.75610315417
 20
-1.749436254268
 30
0.0
 11
65.65610315417
 21
-1.749436254268
 31
0.0
  0
LINE
  5
385
330
30
100
AcDbEntity
  8
1
100
AcDbLine
 10
65.65610315417
 20
-1.749436254268
 30
0.0
 11
65.55610315417
 21
-1.749436254268
 31
0.0
  0
LINE
  5
386
330
30
100
AcDbEntity
  8
1
100
AcDbLine
 10
65.55610315417
 20
-1.749436254268
 30
0.0
 11
65.45610315417
 21
-1.749436254268
 31
0.0
  0
LINE
  5
387
330
30
100
AcDbEntity
  8
1
100
AcDbLine
 10
65.45610315417
 20
-1.749436254268
 30
0.0
 11
65.35610315417
 21
-1.749436254268
 31
0.0
  0
LINE
  5
388
330
30
100
AcDbEntity
  8
1
100
AcDbLine
 10
65.35610315417
 20
-1.749436254268
 30
0.0
 11
65.25610315417
 21
-1.749436254268
 31
0.0
  0
LINE
  5
389
330
30
100
AcDbEntity
  8
1
100
AcDbLine
 10
65.25610315417
 20
-1.749436254268
 30
0.0
 11
65.15610315417
 21
-1.749436254268
 31
0.0
  0
LINE
  5
38A
330
30
100
AcDbEntity
  8
1
100
AcDbLine
 10
65.15610315417
 20
-1.749436254268
 30
0.0
 11
65.05610315417
 21
-1.749436254268
 31
0.0
  0
LINE
  5
38B
330
30
100
AcDbEntity
  8
1
100
AcDbLine
 10
65.05610315417
 20
-1.749436254268
 30
0.0
 11
64.95610315417
 21
-1.749436254268
 31
0.0
  0
LINE
  5
38C
330
30
100
AcDbEntity
  8
1
100
AcDbLine
 10
64.95610315417
 20
-1.749436254268
 30
0.0
 11
64.85610315417
 21
-1.749436254268
 31
0.0
  0
LINE
  5
38D
330
30
100
AcDbEntity
  8
1
100
AcDbLine
 10
64.85610315417
 20
-1.749436254268
 30
0.0
 11
64.75610315417
 21
-1.749436254268
 31
0.0
  0
LINE
  5
38E
330
30
100
AcDbEntity
  8
1
100
AcDbLine
 10
64.75610315417
 20
-1.749436254268
 30
0.0
 11
64.65610315417
 21
-1.749436254268
 31
0.0
  0
LINE
  5
38F
330
30
100
AcDbEntity
  8
1
100
AcDbLine
 10
64.65610315417
 20
-1.749436254268
 30
0.0
 11
64.55610315417
 21
-1.749436254268
 31
0.0
  0
LINE
  5
390
330
30
100
AcDbEntity
  8
1
100
AcDbLine
 10
64.55610315417
 20
-1.749436254268
 30
0.0
 11
64.45610315417
 21
-1.749436254268
 31
0.0
  0
LINE
  5
391
330
30
100
AcDbEntity
  8
1
100
AcDbLine
 10
64.45610315417
 20
-1.749436254268
 30
0.0
 11
64.35610315417
 21
-1.748684922379
 31
0.0
  0
LINE
  5
392
330
30
100
AcDbEntity
  8
1
100
AcDbLine
 10
64.35610315417
 20
-1.748684922379
 30
0.0
 11
64.25610315417
 21
-1.744357250698
 31
0.0
  0
LINE
  5
393
330
30
100
AcDbEntity
  8
1
100
AcDbLine
 10
64.25610315417
 20
-1.744357250698
 30
0.0
 11
64.15610315417
 21
-1.736182759747
 31
0.0
  0
LINE
  5
394
330
30
100
AcDbEntity
  8
1
100
AcDbLine
 10
64.15610315417
 20
-1.736182759747
 30
0.0
 11
64.05610315417
 21
-1.724161449524
 31
0.0
  0
LINE
  5
395
330
30
100
AcDbEntity
  8
1
100
AcDbLine
 10
64.05610315417
 20
-1.724161449524
 30
0.0
 11
63.95610315417
 21
-1.708293320029
 31
0.0
  0
LINE
  5
396
330
30
100
AcDbEntity
  8
1
100
AcDbLine
 10
63.95610315417
 20
-1.708293320029
 30
0.0
 11
63.85610315417
 21
-1.688578371264
 31
0.0
  0
LINE
  5
397
330
30
100
AcDbEntity
  8
1
100
AcDbLine
 10
63.85610315417
 20
-1.688578371264
 30
0.0
 11
63.75610315417
 21
-1.665016603226
 31
0.0
  0
LINE
  5
398
330
30
100
AcDbEntity
  8
1
100
AcDbLine
 10
63.75610315417
 20
-1.665016603226
 30
0.0
 11
63.65610315417
 21
-1.637608015918
 31
0.0
  0
LINE
  5
399
330
30
100
AcDbEntity
  8
1
100
AcDbLine
 10
63.65610315417
 20
-1.637608015918
 30
0.0
 11
63.55610315417
 21
-1.606352609338
 31
0.0
  0
LINE
  5
39A
330
30
100
AcDbEntity
  8
1
100
AcDbLine
 10
63.55610315417
 20
-1.606352609338
 30
0.0
 11
63.45610315417
 21
-1.571250383487
 31
0.0
  0
LINE
  5
39B
330
30
100
AcDbEntity
  8
1
100
AcDbLine
 10
63.45610315417
 20
-1.571250383487
 30
0.0
 11
63.35610315417
 21
-1.532301338364
 31
0.0
  0
LINE
  5
39C
330
30
100
AcDbEntity
  8
1
100
AcDbLine
 10
63.35610315417
 20
-1.532301338364
 30
0.0
 11
63.25610315417
 21
-1.489505473971
 31
0.0
  0
LINE
  5
39D
330
30
100
AcDbEntity
  8
1
100
AcDbLine
 10
63.25610315417
 20
-1.489505473971
 30
0.0
 11
63.15610315417
 21
-1.442862790305
 31
0.0
  0
LINE
  5
39E
330
30
100
AcDbEntity
  8
1
100
AcDbLine
 10
63.15610315417
 20
-1.442862790305
 30
0.0
 11
63.05610315417
 21
-1.392373287369
 31
0.0
  0
LINE
  5
39F
330
30
100
AcDbEntity
  8
1
100
AcDbLine
 10
63.05610315417
 20
-1.392373287369
 30
0.0
 11
62.95610315417
 21
-1.338036965161
 31
0.0
  0
LINE
  5
3A0
330
30
100
AcDbEntity
  8
1
100
AcDbLine
 10
62.95610315417
 20
-1.338036965161
 30
0.0
 11
62.85610315417
 21
-1.279853823681
 31
0.0
  0
LINE
  5
3A1
330
30
100
AcDbEntity
  8
1
100
AcDbLine
 10
62.85610315417
 20
-1.279853823681
 30
0.0
 11
62.75610315417
 21
-1.217823862931
 31
0.0
  0
LINE
  5
3A2
330
30
100
AcDbEntity
  8
1
100
AcDbLine
 10
62.75610315417
 20
-1.217823862931
 30
0.0
 11
62.65610315417
 21
-1.151947082909
 31
0.0
  0
LINE
  5
3A3
330
30
100
AcDbEntity
  8
1
100
AcDbLine
 10
62.65610315417
 20
-1.151947082909
 30
0.0
 11
62.55610315417
 21
-1.082223483615
 31
0.0
  0
LINE
  5
3A4
330
30
100
AcDbEntity
  8
1
100
AcDbLine
 10
62.55610315417
 20
-1.082223483615
 30
0.0
 11
62.45610315417
 21
-1.008653065051
 31
0.0
  0
LINE
  5
3A5
330
30
100
AcDbEntity
  8
1
100
AcDbLine
 10
62.45610315417
 20
-1.008653065051
 30
0.0
 11
62.35610315417
 21
-0.931235827214
 31
0.0
  0
LINE
  5
3A6
330
30
100
AcDbEntity
  8
1
100
AcDbLine
 10
62.35610315417
 20
-0.931235827214
 30
0.0
 11
62.25610315417
 21
-0.849971770107
 31
0.0
  0
LINE
  5
3A7
330
30
100
AcDbEntity
  8
1
100
AcDbLine
 10
62.25610315417
 20
-0.849971770107
 30
0.0
 11
62.15610315417
 21
-0.764860893728
 31
0.0
  0
LINE
  5
3A8
330
30
100
AcDbEntity
  8
1
100
AcDbLine
 10
62.15610315417
 20
-0.764860893728
 30
0.0
 11
62.05610315417
 21
-0.675903198078
 31
0.0
  0
LINE
  5
3A9
330
30
100
AcDbEntity
  8
1
100
AcDbLine
 10
62.05610315417
 20
-0.675903198078
 30
0.0
 11
61.95610315417
 21
-0.583098683156
 31
0.0
  0
LINE
  5
3AA
330
30
100
AcDbEntity
  8
1
100
AcDbLine
 10
61.95610315417
 20
-0.583098683156
 30
0.0
 11
61.85610315417
 21
-0.486447348963
 31
0.0
  0
LINE
  5
3AB
330
30
100
AcDbEntity
  8
1
100
AcDbLine
 10
61.85610315417
 20
-0.486447348963
 30
0.0
 11
61.75610315417
 21
-0.385949195499
 31
0.0
  0
LINE
  5
3AC
330
30
100
AcDbEntity
  8
1
100
AcDbLine
 10
61.75610315417
 20
-0.385949195499
 30
0.0
 11
61.65610315417
 21
-0.281604222763
 31
0.0
  0
LINE
  5
3AD
330
30
100
AcDbEntity
  8
1
100
AcDbLine
 10
61.65610315417
 20
-0.281604222763
 30
0.0
 11
61.55610315417
 21
-0.173412430756
 31
0.0
  0
LINE
  5
3AE
330
30
100
AcDbEntity
  8
1
100
AcDbLine
 10
61.55610315417
 20
-0.173412430756
 30
0.0
 11
61.45610315417
 21
-0.061373819478
 31
0.0
  0
LINE
  5
3AF
330
30
100
AcDbEntity
  8
1
100
AcDbLine
 10
61.45610315417
 20
-0.061373819478
 30
0.0
 11
61.35610315417
 21
0.054511611072
 31
0.0
  0
LINE
  5
3B0
330
30
100
AcDbEntity
  8
1
100
AcDbLine
 10
61.35610315417
 20
0.054511611072
 30
0.0
 11
61.25610315417
 21
0.174243860893
 31
0.0
  0
LINE
  5
3B1
330
30
100
AcDbEntity
  8
1
100
AcDbLine
 10
61.25610315417
 20
0.174243860893
 30
0.0
 11
61.15610315417
 21
0.297822929985
 31
0.0
  0
LINE
  5
3B2
330
30
100
AcDbEntity
  8
1
100
AcDbLine
 10
61.15610315417
 20
0.297822929985
 30
0.0
 11
61.05610315417
 21
0.425248818349
 31
0.0
  0
LINE
  5
3B3
330
30
100
AcDbEntity
  8
1
100
AcDbLine
 10
61.05610315417
 20
0.425248818349
 30
0.0
 11
60.95610315417
 21
0.556521525984
 31
0.0
  0
LINE
  5
3B4
330
30
100
AcDbEntity
  8
1
100
AcDbLine
 10
60.95610315417
 20
0.556521525984
 30
0.0
 11
60.85610315417
 21
0.691641052891
 31
0.0
  0
LINE
  5
3B5
330
30
100
AcDbEntity
  8
1
100
AcDbLine
 10
60.85610315417
 20
0.691641052891
 30
0.0
 11
60.75610315417
 21
0.830607399069
 31
0.0
  0
LINE
  5
3B6
330
30
100
AcDbEntity
  8
1
100
AcDbLine
 10
60.75610315417
 20
0.830607399069
 30
0.0
 11
60.65610315417
 21
0.973420564518
 31
0.0
  0
LINE
  5
3B7
330
30
100
AcDbEntity
  8
1
100
AcDbLine
 10
60.65610315417
 20
0.973420564518
 30
0.0
 11
60.55610315417
 21
1.120080549239
 31
0.0
  0
LINE
  5
3B8
330
30
100
AcDbEntity
  8
1
100
AcDbLine
 10
60.55610315417
 20
1.120080549239
 30
0.0
 11
60.45610315417
 21
1.270587353231
 31
0.0
  0
LINE
  5
3B9
330
30
100
AcDbEntity
  8
1
100
AcDbLine
 10
60.45610315417
 20
1.270587353231
 30
0.0
 11
60.35610315417
 21
1.424940976494
 31
0.0
  0
LINE
  5
3BA
330
30
100
AcDbEntity
  8
1
100
AcDbLine
 10
60.35610315417
 20
1.424940976494
 30
0.0
 11
60.25610315417
 21
1.583141419029
 31
0.0
  0
LINE
  5
3BB
330
30
100
AcDbEntity
  8
1
100
AcDbLine
 10
60.25610315417
 20
1.583141419029
 30
0.0
 11
60.15610315417
 21
1.745188680834
 31
0.0
  0
LINE
  5
3BC
330
30
100
AcDbEntity
  8
1
100
AcDbLine
 10
55.0
 20
3.6
 30
0.0
 11
55.0
 21
-3.6
 31
0.0
  0
LINE
  5
3BD
330
30
100
AcDbEntity
  8
1
100
AcDbLine
 10
48.000052832448
 20
-4.8385
 30
0.0
 11
48.000052832448
 21
4.8385
 31
0.0
  0
LINE
  5
3BE
330
30
100
AcDbEntity
  8
1
100
AcDbLine
 10
48.000052832448
 20
4.8385
 30
0.0
 11
48.000052832448
 21
-4.8385
 31
0.0
  0
LINE
  5
3BF
330
30
100
AcDbEntity
  8
SK1
100
AcDbLine
 10
44.35610315417
 20
4.8385
 30
0.0
 11
1.0
 21
4.8385
 31
0.0
  0
LINE
  5
3C0
330
30
100
AcDbEntity
  8
SK1
100
AcDbLine
 10
1.0
 20
4.8385
 30
0.0
 11
0.0
 21
3.922168825983
 31
0.0
  0
LINE
  5
3C1
330
30
100
AcDbEntity
  8
SK1
100
AcDbLine
 10
44.35610315417
 20
-4.8385
 30
0.0
 11
1.0
 21
-4.8385
 31
0.0
  0
LINE
  5
3C2
330
30
100
AcDbEntity
  8
SK1
100
AcDbLine
 10
1.0
 20
-4.8385
 30
0.0
 11
0.0
 21
-3.922168825983
 31
0.0
  0
LINE
  5
3C3
330
30
100
AcDbEntity
  8
SK1
100
AcDbLine
 10
1.0
 20
4.8385
 30
0.0
 11
1.0
 21
-4.8385
 31
0.0
  0
LINE
  5
3C4
330
30
100
AcDbEntity
  8
SK1
100
AcDbLine
 10
0.0
 20
3.922168825983
 30
0.0
 11
0.0
 21
-3.922168825983
 31
0.0
  0
LINE
  5
3C5
330
30
100
AcDbEntity
  8
SK1
100
AcDbLine
 10
45.39620315417
 20
1.40688
 30
0.0
 11
45.76300315417
 21
1.0401
 31
0.0
  0
LINE
  5
3C6
330
30
100
AcDbEntity
  8
SK1
100
AcDbLine
 10
44.88890315417
 20
1.66666
 30
0.0
 11
46.02280315417
 21
0.532833
 31
0.0
  0
LINE
  5
3C7
330
30
100
AcDbEntity
  8
SK1
100
AcDbLine
 10
44.57150315417
 20
1.73657
 30
0.0
 11
46.09270315417
 21
0.215434
 31
0.0
  0
LINE
  5
3C8
330
30
100
AcDbEntity
  8
SK1
100
AcDbLine
 10
44.35610315417
 20
1.70452
 30
0.0
 11
46.06060315417
 21
0.0
 31
0.0
  0
LINE
  5
3C9
330
30
100
AcDbEntity
  8
SK1
100
AcDbLine
 10
44.35610315417
 20
1.45703
 30
0.0
 11
45.81310315417
 21
0.0
 31
0.0
  0
LINE
  5
3CA
330
30
100
AcDbEntity
  8
SK1
100
AcDbLine
 10
44.35610315417
 20
1.20954
 30
0.0
 11
45.56560315417
 21
0.0
 31
0.0
  0
LINE
  5
3CB
330
30
100
AcDbEntity
  8
SK1
100
AcDbLine
 10
44.35610315417
 20
0.962054
 30
0.0
 11
45.31820315417
 21
0.0
 31
0.0
  0
LINE
  5
3CC
330
30
100
AcDbEntity
  8
SK1
100
AcDbLine
 10
44.35610315417
 20
0.714566
 30
0.0
 11
45.07070315417
 21
0.0
 31
0.0
  0
LINE
  5
3CD
330
30
100
AcDbEntity
  8
SK1
100
AcDbLine
 10
44.35610315417
 20
0.467079
 30
0.0
 11
44.82320315417
 21
0.0
 31
0.0
  0
LINE
  5
3CE
330
30
100
AcDbEntity
  8
SK1
100
AcDbLine
 10
44.35610315417
 20
0.219592
 30
0.0
 11
44.57570315417
 21
0.0
 31
0.0
  0
LINE
  5
3CF
330
30
100
AcDbEntity
  8
SK1
100
AcDbLine
 10
44.35610315417
 20
1.70452
 30
0.0
 11
44.40020315417
 21
1.74861
 31
0.0
  0
LINE
  5
3D0
330
30
100
AcDbEntity
  8
SK1
100
AcDbLine
 10
44.35610315417
 20
1.45703
 30
0.0
 11
44.62710315417
 21
1.72802
 31
0.0
  0
LINE
  5
3D1
330
30
100
AcDbEntity
  8
SK1
100
AcDbLine
 10
44.35610315417
 20
1.20954
 30
0.0
 11
44.83030315417
 21
1.6837
 31
0.0
  0
LINE
  5
3D2
330
30
100
AcDbEntity
  8
SK1
100
AcDbLine
 10
44.35610315417
 20
0.962054
 30
0.0
 11
45.01490315417
 21
1.62082
 31
0.0
  0
LINE
  5
3D3
330
30
100
AcDbEntity
  8
SK1
100
AcDbLine
 10
44.35610315417
 20
0.714566
 30
0.0
 11
45.18320315417
 21
1.54167
 31
0.0
  0
LINE
  5
3D4
330
30
100
AcDbEntity
  8
SK1
100
AcDbLine
 10
44.35610315417
 20
0.467079
 30
0.0
 11
45.33710315417
 21
1.44812
 31
0.0
  0
LINE
  5
3D5
330
30
100
AcDbEntity
  8
SK1
100
AcDbLine
 10
44.35610315417
 20
0.219592
 30
0.0
 11
45.47870315417
 21
1.34216
 31
0.0
  0
LINE
  5
3D6
330
30
100
AcDbEntity
  8
SK1
100
AcDbLine
 10
44.38400315417
 20
0.0
 30
0.0
 11
45.60690315417
 21
1.22288
 31
0.0
  0
LINE
  5
3D7
330
30
100
AcDbEntity
  8
SK1
100
AcDbLine
 10
44.63150315417
 20
0.0
 30
0.0
 11
45.72310315417
 21
1.09157
 31
0.0
  0
LINE
  5
3D8
330
30
100
AcDbEntity
  8
SK1
100
AcDbLine
 10
44.87900315417
 20
0.0
 30
0.0
 11
45.82680315417
 21
0.947822
 31
0.0
  0
LINE
  5
3D9
330
30
100
AcDbEntity
  8
SK1
100
AcDbLine
 10
45.12650315417
 20
0.0
 30
0.0
 11
45.91660315417
 21
0.790145
 31
0.0
  0
LINE
  5
3DA
330
30
100
AcDbEntity
  8
SK1
100
AcDbLine
 10
45.37390315417
 20
0.0
 30
0.0
 11
45.99250315417
 21
0.618517
 31
0.0
  0
LINE
  5
3DB
330
30
100
AcDbEntity
  8
SK1
100
AcDbLine
 10
45.62140315417
 20
0.0
 30
0.0
 11
46.05210315417
 21
0.430696
 31
0.0
  0
LINE
  5
3DC
330
30
100
AcDbEntity
  8
SK1
100
AcDbLine
 10
45.86890315417
 20
0.0
 30
0.0
 11
46.09170315417
 21
0.222827
 31
0.0
  0
LINE
  5
3DD
330
30
100
AcDbEntity
  8
SK1
100
AcDbLine
 10
44.35610315417
 20
0.0
 30
0.0
 11
44.35610315417
 21
1.75
 31
0.0
  0
LINE
  5
3DE
330
30
100
AcDbEntity
  8
SK1
100
AcDbLine
 10
44.35610315417
 20
0.0
 30
0.0
 11
46.10610315417
 21
0.0
 31
0.0
  0
ARC
  5
3DF
330
30
100
AcDbEntity
  8
SK1
100
AcDbCircle
 10
44.35610315417
 20
0.0
 30
0.0
 40
1.75
100
AcDbArc
 50
0.0
 51
90.0
  0
ARC
  5
3E0
330
30
100
AcDbEntity
  8
SK1
100
AcDbCircle
 10
44.35610315417
 20
0.0
 30
0.0
 40
1.75
100
AcDbArc
 50
90.0
 51
180.0
  0
LINE
  5
3E1
330
30
100
AcDbEntity
  8
SK1
100
AcDbLine
 10
44.32820315417
 20
0.0
 30
0.0
 11
44.35610315417
 21
-0.0278958
 31
0.0
  0
LINE
  5
3E2
330
30
100
AcDbEntity
  8
SK1
100
AcDbLine
 10
44.08070315417
 20
0.0
 30
0.0
 11
44.35610315417
 21
-0.275383
 31
0.0
  0
LINE
  5
3E3
330
30
100
AcDbEntity
  8
SK1
100
AcDbLine
 10
43.83320315417
 20
0.0
 30
0.0
 11
44.35610315417
 21
-0.522871
 31
0.0
  0
LINE
  5
3E4
330
30
100
AcDbEntity
  8
SK1
100
AcDbLine
 10
43.58570315417
 20
0.0
 30
0.0
 11
44.35610315417
 21
-0.770358
 31
0.0
  0
LINE
  5
3E5
330
30
100
AcDbEntity
  8
SK1
100
AcDbLine
 10
43.33830315417
 20
0.0
 30
0.0
 11
44.35610315417
 21
-1.01785
 31
0.0
  0
LINE
  5
3E6
330
30
100
AcDbEntity
  8
SK1
100
AcDbLine
 10
43.09080315417
 20
0.0
 30
0.0
 11
44.35610315417
 21
-1.26533
 31
0.0
  0
LINE
  5
3E7
330
30
100
AcDbEntity
  8
SK1
100
AcDbLine
 10
42.84330315417
 20
0.0
 30
0.0
 11
44.35610315417
 21
-1.51282
 31
0.0
  0
LINE
  5
3E8
330
30
100
AcDbEntity
  8
SK1
100
AcDbLine
 10
42.60640315417
 20
-0.0106419
 30
0.0
 11
44.34550315417
 21
-1.74967
 31
0.0
  0
LINE
  5
3E9
330
30
100
AcDbEntity
  8
SK1
100
AcDbLine
 10
42.62970315417
 20
-0.281429
 30
0.0
 11
44.07470315417
 21
-1.72637
 31
0.0
  0
LINE
  5
3EA
330
30
100
AcDbEntity
  8
SK1
100
AcDbLine
 10
42.72000315417
 20
-0.619147
 30
0.0
 11
43.73700315417
 21
-1.63613
 31
0.0
  0
LINE
  5
3EB
330
30
100
AcDbEntity
  8
SK1
100
AcDbLine
 10
42.60750315417
 20
-0.0440984
 30
0.0
 11
42.65160315417
 21
0.0
 31
0.0
  0
LINE
  5
3EC
330
30
100
AcDbEntity
  8
SK1
100
AcDbLine
 10
42.62810315417
 20
-0.270991
 30
0.0
 11
42.89910315417
 21
0.0
 31
0.0
  0
LINE
  5
3ED
330
30
100
AcDbEntity
  8
SK1
100
AcDbLine
 10
42.67240315417
 20
-0.474162
 30
0.0
 11
43.14660315417
 21
0.0
 31
0.0
  0
LINE
  5
3EE
330
30
100
AcDbEntity
  8
SK1
100
AcDbLine
 10
42.73530315417
 20
-0.658762
 30
0.0
 11
43.39400315417
 21
0.0
 31
0.0
  0
LINE
  5
3EF
330
30
100
AcDbEntity
  8
SK1
100
AcDbLine
 10
42.81440315417
 20
-0.827105
 30
0.0
 11
43.64150315417
 21
0.0
 31
0.0
  0
LINE
  5
3F0
330
30
100
AcDbEntity
  8
SK1
100
AcDbLine
 10
42.90800315417
 20
-0.981039
 30
0.0
 11
43.88900315417
 21
0.0
 31
0.0
  0
LINE
  5
3F1
330
30
100
AcDbEntity
  8
SK1
100
AcDbLine
 10
43.01390315417
 20
-1.12257
 30
0.0
 11
44.13650315417
 21
0.0
 31
0.0
  0
LINE
  5
3F2
330
30
100
AcDbEntity
  8
SK1
100
AcDbLine
 10
43.13320315417
 20
-1.25077
 30
0.0
 11
44.35610315417
 21
-0.0278958
 31
0.0
  0
LINE
  5
3F3
330
30
100
AcDbEntity
  8
SK1
100
AcDbLine
 10
43.26450315417
 20
-1.36695
 30
0.0
 11
44.35610315417
 21
-0.275383
 31
0.0
  0
LINE
  5
3F4
330
30
100
AcDbEntity
  8
SK1
100
AcDbLine
 10
43.40830315417
 20
-1.47069
 30
0.0
 11
44.35610315417
 21
-0.522871
 31
0.0
  0
LINE
  5
3F5
330
30
100
AcDbEntity
  8
SK1
100
AcDbLine
 10
43.56600315417
 20
-1.5605
 30
0.0
 11
44.35610315417
 21
-0.770358
 31
0.0
  0
LINE
  5
3F6
330
30
100
AcDbEntity
  8
SK1
100
AcDbLine
 10
43.73760315417
 20
-1.63636
 30
0.0
 11
44.35610315417
 21
-1.01785
 31
0.0
  0
LINE
  5
3F7
330
30
100
AcDbEntity
  8
SK1
100
AcDbLine
 10
43.92540315417
 20
-1.69603
 30
0.0
 11
44.35610315417
 21
-1.26533
 31
0.0
  0
LINE
  5
3F8
330
30
100
AcDbEntity
  8
SK1
100
AcDbLine
 10
44.13330315417
 20
-1.73565
 30
0.0
 11
44.35610315417
 21
-1.51282
 31
0.0
  0
LINE
  5
3F9
330
30
100
AcDbEntity
  8
SK1
100
AcDbLine
 10
44.35610315417
 20
0.0
 30
0.0
 11
42.60610315417
 21
0.0
 31
0.0
  0
LINE
  5
3FA
330
30
100
AcDbEntity
  8
SK1
100
AcDbLine
 10
44.35610315417
 20
-1.75
 30
0.0
 11
44.35610315417
 21
0.0
 31
0.0
  0
ARC
  5
3FB
330
30
100
AcDbEntity
  8
SK1
100
AcDbCircle
 10
44.35610315417
 20
0.0
 30
0.0
 40
1.75
100
AcDbArc
 50
180.0
 51
270.0
  0
ARC
  5
3FC
330
30
100
AcDbEntity
  8
SK1
100
AcDbCircle
 10
44.35610315417
 20
0.0
 30
0.0
 40
1.75
100
AcDbArc
 50
270.0
 51
0.0
  0
LINE
  5
46B
330
30
100
AcDbEntity
  8
NOCUT
100
AcDbLine
 10
75.0
 20
0.0
 30
0.0
 11
75.0
 21
4.5
 31
0.0
  0
LINE
  5
46C
330
30
100
AcDbEntity
  8
NOCUT
100
AcDbLine
 10
75.0
 20
4.5
 30
0.0
 11
73.441154273188
 21
3.6
 31
0.0
  0
LINE
  5
46D
330
30
100
AcDbEntity
  8
NOCUT
100
AcDbLine
 10
73.441154273188
 20
3.6
 30
0.0
 11
55.0
 21
3.6
 31
0.0
  0
LINE
  5
46E
330
30
100
AcDbEntity
  8
NOCUT
100
AcDbLine
 10
55.0
 20
3.6
 30
0.0
 11
48.000052832448
 21
4.8385
 31
0.0
  0
LINE
  5
46F
330
30
100
AcDbEntity
  8
NOCUT
100
AcDbLine
 10
48.000052832448
 20
4.8385
 30
0.0
 11
44.35610315417
 21
4.8385
 31
0.0
  0
LINE
  5
470
330
30
100
AcDbEntity
  8
NOCUT
100
AcDbLine
 10
44.35610315417
 20
4.8385
 30
0.0
 11
44.35610315417
 21
0.0
 31
0.0
  0
LINE
  5
471
330
30
100
AcDbEntity
  8
NOCUT
100
AcDbLine
 10
44.35610315417
 20
0.0
 30
0.0
 11
75.0
 21
0.0
 31
0.0
  0
LINE
  5
472
330
30
100
AcDbEntity
  8
CUT
100
AcDbLine
 10
94.25610315417
 20
0.0
 30
0.0
 11
90.0
 21
3.9
 31
0.0
  0
LINE
  5
473
330
30
100
AcDbEntity
  8
CUT
100
AcDbLine
 10
90.0
 20
3.9
 30
0.0
 11
86.0
 21
4.5
 31
0.0
  0
LINE
  5
474
330
30
100
AcDbEntity
  8
CUT
100
AcDbLine
 10
86.0
 20
4.5
 30
0.0
 11
75.0
 21
4.5
 31
0.0
  0
LINE
  5
475
330
30
100
AcDbEntity
  8
CUT
100
AcDbLine
 10
75.0
 20
4.5
 30
0.0
 11
75.0
 21
0.0
 31
0.0
  0
LINE
  5
476
330
30
100
AcDbEntity
  8
CUT
100
AcDbLine
 10
75.0
 20
0.0
 30
0.0
 11
94.25610315417
 21
0.0
 31
0.0
  0
LINE
  5
477
330
30
100
AcDbEntity
  8
4
100
AcDbLine
 10
44.35610315417
 20
0.0
 30
0.0
 11
94.25610315417
 21
0.0
 31
0.0
  0
LINE
  5
478
330
30
100
AcDbEntity
  8
SK4
100
AcDbLine
 10
-1.0
 20
0.0
 30
0.0
 11
95.25610315417
 21
0.0
 31
0.0
  0
LINE
  5
479
330
30
100
AcDbEntity
  8
1
100
AcDbLine
 10
89.61
 20
3.9585
 30
0.0
 11
75.0
 21
3.9585
 31
0.0
  0
LINE
  5
47A
330
30
100
AcDbEntity
  8
1
100
AcDbLine
 10
89.154543509637
 20
4.026818473554
 30
0.0
 11
89.11509982054
 21
3.9585
 31
0.0
  0
LINE
  5
47B
330
30
100
AcDbEntity
  8
1
100
AcDbLine
 10
89.11509982054
 20
3.9585
 30
0.0
 11
89.05754991027
 21
3.9585
 31
0.0
  0
LINE
  5
47C
330
30
100
AcDbEntity
  8
1
100
AcDbLine
 10
89.05754991027
 20
3.9585
 30
0.0
 11
89.0
 21
3.9585
 31
0.0
  0
LINE
  5
47D
330
30
100
AcDbEntity
  8
1
100
AcDbLine
 10
89.0
 20
3.9585
 30
0.0
 11
88.942163677954
 21
4.058675448307
 31
0.0
  0
LINE
  5
47E
330
30
100
AcDbEntity
  8
1
100
AcDbLine
 10
88.23424380221
 20
4.164863429668
 30
0.0
 11
88.11509982054
 21
3.9585
 31
0.0
  0
LINE
  5
47F
330
30
100
AcDbEntity
  8
1
100
AcDbLine
 10
88.11509982054
 20
3.9585
 30
0.0
 11
88.05754991027
 21
3.9585
 31
0.0
  0
LINE
  5
480
330
30
100
AcDbEntity
  8
1
100
AcDbLine
 10
88.05754991027
 20
3.9585
 30
0.0
 11
88.0
 21
3.9585
 31
0.0
  0
LINE
  5
481
330
30
100
AcDbEntity
  8
1
100
AcDbLine
 10
88.0
 20
3.9585
 30
0.0
 11
87.847350035255
 21
4.222897494712
 31
0.0
  0
LINE
  5
482
330
30
100
AcDbEntity
  8
1
100
AcDbLine
 10
87.313944094783
 20
4.302908385783
 30
0.0
 11
87.11509982054
 21
3.9585
 31
0.0
  0
LINE
  5
483
330
30
100
AcDbEntity
  8
1
100
AcDbLine
 10
87.11509982054
 20
3.9585
 30
0.0
 11
87.05754991027
 21
3.9585
 31
0.0
  0
LINE
  5
484
330
30
100
AcDbEntity
  8
1
100
AcDbLine
 10
87.05754991027
 20
3.9585
 30
0.0
 11
87.0
 21
3.9585
 31
0.0
  0
LINE
  5
485
330
30
100
AcDbEntity
  8
1
100
AcDbLine
 10
87.0
 20
3.9585
 30
0.0
 11
86.752536392556
 21
4.387119541117
 31
0.0
  0
LINE
  5
486
330
30
100
AcDbEntity
  8
1
100
AcDbLine
 10
86.393644387356
 20
4.440953341897
 30
0.0
 11
86.11509982054
 21
3.9585
 31
0.0
  0
LINE
  5
487
330
30
100
AcDbEntity
  8
1
100
AcDbLine
 10
86.11509982054
 20
3.9585
 30
0.0
 11
86.05754991027
 21
3.9585
 31
0.0
  0
LINE
  5
488
330
30
100
AcDbEntity
  8
1
100
AcDbLine
 10
86.05754991027
 20
3.9585
 30
0.0
 11
86.0
 21
3.9585
 31
0.0
  0
LINE
  5
489
330
30
100
AcDbEntity
  8
1
100
AcDbLine
 10
86.0
 20
3.9585
 30
0.0
 11
85.687364829234
 21
4.5
 31
0.0
  0
LINE
  5
48A
330
30
100
AcDbEntity
  8
1
100
AcDbLine
 10
85.687364829234
 20
4.5
 30
0.0
 11
85.55754991027
 21
4.5
 31
0.0
  0
LINE
  5
48B
330
30
100
AcDbEntity
  8
1
100
AcDbLine
 10
85.55754991027
 20
4.5
 30
0.0
 11
85.427734991306
 21
4.5
 31
0.0
  0
LINE
  5
48C
330
30
100
AcDbEntity
  8
1
100
AcDbLine
 10
85.427734991306
 20
4.5
 30
0.0
 11
85.11509982054
 21
3.9585
 31
0.0
  0
LINE
  5
48D
330
30
100
AcDbEntity
  8
1
100
AcDbLine
 10
85.11509982054
 20
3.9585
 30
0.0
 11
85.05754991027
 21
3.9585
 31
0.0
  0
LINE
  5
48E
330
30
100
AcDbEntity
  8
1
100
AcDbLine
 10
85.05754991027
 20
3.9585
 30
0.0
 11
85.0
 21
3.9585
 31
0.0
  0
LINE
  5
48F
330
30
100
AcDbEntity
  8
1
100
AcDbLine
 10
85.0
 20
3.9585
 30
0.0
 11
84.687364829234
 21
4.5
 31
0.0
  0
LINE
  5
490
330
30
100
AcDbEntity
  8
1
100
AcDbLine
 10
84.687364829234
 20
4.5
 30
0.0
 11
84.55754991027
 21
4.5
 31
0.0
  0
LINE
  5
491
330
30
100
AcDbEntity
  8
1
100
AcDbLine
 10
84.55754991027
 20
4.5
 30
0.0
 11
84.427734991306
 21
4.5
 31
0.0
  0
LINE
  5
492
330
30
100
AcDbEntity
  8
1
100
AcDbLine
 10
84.427734991306
 20
4.5
 30
0.0
 11
84.11509982054
 21
3.9585
 31
0.0
  0
LINE
  5
493
330
30
100
AcDbEntity
  8
1
100
AcDbLine
 10
84.11509982054
 20
3.9585
 30
0.0
 11
84.05754991027
 21
3.9585
 31
0.0
  0
LINE
  5
494
330
30
100
AcDbEntity
  8
1
100
AcDbLine
 10
84.05754991027
 20
3.9585
 30
0.0
 11
84.0
 21
3.9585
 31
0.0
  0
LINE
  5
495
330
30
100
AcDbEntity
  8
1
100
AcDbLine
 10
84.0
 20
3.9585
 30
0.0
 11
83.687364829234
 21
4.5
 31
0.0
  0
LINE
  5
496
330
30
100
AcDbEntity
  8
1
100
AcDbLine
 10
83.687364829234
 20
4.5
 30
0.0
 11
83.55754991027
 21
4.5
 31
0.0
  0
LINE
  5
497
330
30
100
AcDbEntity
  8
1
100
AcDbLine
 10
83.55754991027
 20
4.5
 30
0.0
 11
83.427734991306
 21
4.5
 31
0.0
  0
LINE
  5
498
330
30
100
AcDbEntity
  8
1
100
AcDbLine
 10
83.427734991306
 20
4.5
 30
0.0
 11
83.11509982054
 21
3.9585
 31
0.0
  0
LINE
  5
499
330
30
100
AcDbEntity
  8
1
100
AcDbLine
 10
83.11509982054
 20
3.9585
 30
0.0
 11
83.05754991027
 21
3.9585
 31
0.0
  0
LINE
  5
49A
330
30
100
AcDbEntity
  8
1
100
AcDbLine
 10
83.05754991027
 20
3.9585
 30
0.0
 11
83.0
 21
3.9585
 31
0.0
  0
LINE
  5
49B
330
30
100
AcDbEntity
  8
1
100
AcDbLine
 10
83.0
 20
3.9585
 30
0.0
 11
82.687364829234
 21
4.5
 31
0.0
  0
LINE
  5
49C
330
30
100
AcDbEntity
  8
1
100
AcDbLine
 10
82.687364829234
 20
4.5
 30
0.0
 11
82.55754991027
 21
4.5
 31
0.0
  0
LINE
  5
49D
330
30
100
AcDbEntity
  8
1
100
AcDbLine
 10
82.55754991027
 20
4.5
 30
0.0
 11
82.427734991306
 21
4.5
 31
0.0
  0
LINE
  5
49E
330
30
100
AcDbEntity
  8
1
100
AcDbLine
 10
82.427734991306
 20
4.5
 30
0.0
 11
82.11509982054
 21
3.9585
 31
0.0
  0
LINE
  5
49F
330
30
100
AcDbEntity
  8
1
100
AcDbLine
 10
82.11509982054
 20
3.9585
 30
0.0
 11
82.05754991027
 21
3.9585
 31
0.0
  0
LINE
  5
4A0
330
30
100
AcDbEntity
  8
1
100
AcDbLine
 10
82.05754991027
 20
3.9585
 30
0.0
 11
82.0
 21
3.9585
 31
0.0
  0
LINE
  5
4A1
330
30
100
AcDbEntity
  8
1
100
AcDbLine
 10
82.0
 20
3.9585
 30
0.0
 11
81.687364829234
 21
4.5
 31
0.0
  0
LINE
  5
4A2
330
30
100
AcDbEntity
  8
1
100
AcDbLine
 10
81.687364829234
 20
4.5
 30
0.0
 11
81.55754991027
 21
4.5
 31
0.0
  0
LINE
  5
4A3
330
30
100
AcDbEntity
  8
1
100
AcDbLine
 10
81.55754991027
 20
4.5
 30
0.0
 11
81.427734991306
 21
4.5
 31
0.0
  0
LINE
  5
4A4
330
30
100
AcDbEntity
  8
1
100
AcDbLine
 10
81.427734991306
 20
4.5
 30
0.0
 11
81.11509982054
 21
3.9585
 31
0.0
  0
LINE
  5
4A5
330
30
100
AcDbEntity
  8
1
100
AcDbLine
 10
81.11509982054
 20
3.9585
 30
0.0
 11
81.05754991027
 21
3.9585
 31
0.0
  0
LINE
  5
4A6
330
30
100
AcDbEntity
  8
1
100
AcDbLine
 10
81.05754991027
 20
3.9585
 30
0.0
 11
81.0
 21
3.9585
 31
0.0
  0
LINE
  5
4A7
330
30
100
AcDbEntity
  8
1
100
AcDbLine
 10
81.0
 20
3.9585
 30
0.0
 11
80.687364829234
 21
4.5
 31
0.0
  0
LINE
  5
4A8
330
30
100
AcDbEntity
  8
1
100
AcDbLine
 10
80.687364829234
 20
4.5
 30
0.0
 11
80.55754991027
 21
4.5
 31
0.0
  0
LINE
  5
4A9
330
30
100
AcDbEntity
  8
1
100
AcDbLine
 10
80.55754991027
 20
4.5
 30
0.0
 11
80.427734991306
 21
4.5
 31
0.0
  0
LINE
  5
4AA
330
30
100
AcDbEntity
  8
1
100
AcDbLine
 10
80.427734991306
 20
4.5
 30
0.0
 11
80.11509982054
 21
3.9585
 31
0.0
  0
LINE
  5
4AB
330
30
100
AcDbEntity
  8
1
100
AcDbLine
 10
80.11509982054
 20
3.9585
 30
0.0
 11
80.05754991027
 21
3.9585
 31
0.0
  0
LINE
  5
4AC
330
30
100
AcDbEntity
  8
1
100
AcDbLine
 10
80.05754991027
 20
3.9585
 30
0.0
 11
80.0
 21
3.9585
 31
0.0
  0
LINE
  5
4AD
330
30
100
AcDbEntity
  8
1
100
AcDbLine
 10
80.0
 20
3.9585
 30
0.0
 11
79.687364829234
 21
4.5
 31
0.0
  0
LINE
  5
4AE
330
30
100
AcDbEntity
  8
1
100
AcDbLine
 10
79.687364829234
 20
4.5
 30
0.0
 11
79.55754991027
 21
4.5
 31
0.0
  0
LINE
  5
4AF
330
30
100
AcDbEntity
  8
1
100
AcDbLine
 10
79.55754991027
 20
4.5
 30
0.0
 11
79.427734991306
 21
4.5
 31
0.0
  0
LINE
  5
4B0
330
30
100
AcDbEntity
  8
1
100
AcDbLine
 10
79.427734991306
 20
4.5
 30
0.0
 11
79.11509982054
 21
3.9585
 31
0.0
  0
LINE
  5
4B1
330
30
100
AcDbEntity
  8
1
100
AcDbLine
 10
79.11509982054
 20
3.9585
 30
0.0
 11
79.05754991027
 21
3.9585
 31
0.0
  0
LINE
  5
4B2
330
30
100
AcDbEntity
  8
1
100
AcDbLine
 10
79.05754991027
 20
3.9585
 30
0.0
 11
79.0
 21
3.9585
 31
0.0
  0
LINE
  5
4B3
330
30
100
AcDbEntity
  8
1
100
AcDbLine
 10
79.0
 20
3.9585
 30
0.0
 11
78.687364829234
 21
4.5
 31
0.0
  0
LINE
  5
4B4
330
30
100
AcDbEntity
  8
1
100
AcDbLine
 10
78.687364829234
 20
4.5
 30
0.0
 11
78.55754991027
 21
4.5
 31
0.0
  0
LINE
  5
4B5
330
30
100
AcDbEntity
  8
1
100
AcDbLine
 10
78.55754991027
 20
4.5
 30
0.0
 11
78.427734991306
 21
4.5
 31
0.0
  0
LINE
  5
4B6
330
30
100
AcDbEntity
  8
1
100
AcDbLine
 10
78.427734991306
 20
4.5
 30
0.0
 11
78.11509982054
 21
3.9585
 31
0.0
  0
LINE
  5
4B7
330
30
100
AcDbEntity
  8
1
100
AcDbLine
 10
78.11509982054
 20
3.9585
 30
0.0
 11
78.05754991027
 21
3.9585
 31
0.0
  0
LINE
  5
4B8
330
30
100
AcDbEntity
  8
1
100
AcDbLine
 10
78.05754991027
 20
3.9585
 30
0.0
 11
78.0
 21
3.9585
 31
0.0
  0
LINE
  5
4B9
330
30
100
AcDbEntity
  8
1
100
AcDbLine
 10
78.0
 20
3.9585
 30
0.0
 11
77.687364829234
 21
4.5
 31
0.0
  0
LINE
  5
4BA
330
30
100
AcDbEntity
  8
1
100
AcDbLine
 10
77.687364829234
 20
4.5
 30
0.0
 11
77.55754991027
 21
4.5
 31
0.0
  0
LINE
  5
4BB
330
30
100
AcDbEntity
  8
1
100
AcDbLine
 10
77.55754991027
 20
4.5
 30
0.0
 11
77.427734991306
 21
4.5
 31
0.0
  0
LINE
  5
4BC
330
30
100
AcDbEntity
  8
1
100
AcDbLine
 10
77.427734991306
 20
4.5
 30
0.0
 11
77.11509982054
 21
3.9585
 31
0.0
  0
LINE
  5
4BD
330
30
100
AcDbEntity
  8
1
100
AcDbLine
 10
77.11509982054
 20
3.9585
 30
0.0
 11
77.05754991027
 21
3.9585
 31
0.0
  0
LINE
  5
4BE
330
30
100
AcDbEntity
  8
1
100
AcDbLine
 10
77.05754991027
 20
3.9585
 30
0.0
 11
77.0
 21
3.9585
 31
0.0
  0
LINE
  5
4BF
330
30
100
AcDbEntity
  8
1
100
AcDbLine
 10
77.0
 20
3.9585
 30
0.0
 11
76.687364829234
 21
4.5
 31
0.0
  0
LINE
  5
4C0
330
30
100
AcDbEntity
  8
1
100
AcDbLine
 10
76.687364829234
 20
4.5
 30
0.0
 11
76.55754991027
 21
4.5
 31
0.0
  0
LINE
  5
4C1
330
30
100
AcDbEntity
  8
1
100
AcDbLine
 10
76.55754991027
 20
4.5
 30
0.0
 11
76.427734991306
 21
4.5
 31
0.0
  0
LINE
  5
4C2
330
30
100
AcDbEntity
  8
1
100
AcDbLine
 10
76.427734991306
 20
4.5
 30
0.0
 11
76.11509982054
 21
3.9585
 31
0.0
  0
LINE
  5
4C3
330
30
100
AcDbEntity
  8
1
100
AcDbLine
 10
76.11509982054
 20
3.9585
 30
0.0
 11
76.05754991027
 21
3.9585
 31
0.0
  0
LINE
  5
4C4
330
30
100
AcDbEntity
  8
1
100
AcDbLine
 10
76.05754991027
 20
3.9585
 30
0.0
 11
76.0
 21
3.9585
 31
0.0
  0
LINE
  5
4C5
330
30
100
AcDbEntity
  8
1
100
AcDbLine
 10
76.0
 20
3.9585
 30
0.0
 11
75.687364829234
 21
4.5
 31
0.0
  0
LINE
  5
4C6
330
30
100
AcDbEntity
  8
1
100
AcDbLine
 10
75.687364829234
 20
4.5
 30
0.0
 11
75.55754991027
 21
4.5
 31
0.0
  0
LINE
  5
4C7
330
30
100
AcDbEntity
  8
1
100
AcDbLine
 10
75.55754991027
 20
4.5
 30
0.0
 11
75.427734991306
 21
4.5
 31
0.0
  0
LINE
  5
4C8
330
30
100
AcDbEntity
  8
1
100
AcDbLine
 10
75.427734991306
 20
4.5
 30
0.0
 11
75.11509982054
 21
3.9585
 31
0.0
  0
LINE
  5
4C9
330
30
100
AcDbEntity
  8
1
100
AcDbLine
 10
75.11509982054
 20
3.9585
 30
0.0
 11
75.05754991027
 21
3.9585
 31
0.0
  0
LINE
  5
4CA
330
30
100
AcDbEntity
  8
1
100
AcDbLine
 10
75.05754991027
 20
3.9585
 30
0.0
 11
75.0
 21
3.9585
 31
0.0
  0
LINE
  5
4CB
330
30
100
AcDbEntity
  8
1
100
AcDbLine
 10
89.61
 20
-3.9585
 30
0.0
 11
75.0
 21
-3.9585
 31
0.0
  0
LINE
  5
4CC
330
30
100
AcDbEntity
  8
1
100
AcDbLine
 10
89.154543509637
 20
-4.026818473554
 30
0.0
 11
89.11509982054
 21
-3.9585
 31
0.0
  0
LINE
  5
4CD
330
30
100
AcDbEntity
  8
1
100
AcDbLine
 10
89.11509982054
 20
-3.9585
 30
0.0
 11
89.05754991027
 21
-3.9585
 31
0.0
  0
LINE
  5
4CE
330
30
100
AcDbEntity
  8
1
100
AcDbLine
 10
89.05754991027
 20
-3.9585
 30
0.0
 11
89.0
 21
-3.9585
 31
0.0
  0
LINE
  5
4CF
330
30
100
AcDbEntity
  8
1
100
AcDbLine
 10
89.0
 20
-3.9585
 30
0.0
 11
88.942163677954
 21
-4.058675448307
 31
0.0
  0
LINE
  5
4D0
330
30
100
AcDbEntity
  8
1
100
AcDbLine
 10
88.23424380221
 20
-4.164863429668
 30
0.0
 11
88.11509982054
 21
-3.9585
 31
0.0
  0
LINE
  5
4D1
330
30
100
AcDbEntity
  8
1
100
AcDbLine
 10
88.11509982054
 20
-3.9585
 30
0.0
 11
88.05754991027
 21
-3.9585
 31
0.0
  0
LINE
  5
4D2
330
30
100
AcDbEntity
  8
1
100
AcDbLine
 10
88.05754991027
 20
-3.9585
 30
0.0
 11
88.0
 21
-3.9585
 31
0.0
  0
LINE
  5
4D3
330
30
100
AcDbEntity
  8
1
100
AcDbLine
 10
88.0
 20
-3.9585
 30
0.0
 11
87.847350035255
 21
-4.222897494712
 31
0.0
  0
LINE
  5
4D4
330
30
100
AcDbEntity
  8
1
100
AcDbLine
 10
87.313944094783
 20
-4.302908385783
 30
0.0
 11
87.11509982054
 21
-3.9585
 31
0.0
  0
LINE
  5
4D5
330
30
100
AcDbEntity
  8
1
100
AcDbLine
 10
87.11509982054
 20
-3.9585
 30
0.0
 11
87.05754991027
 21
-3.9585
 31
0.0
  0
LINE
  5
4D6
330
30
100
AcDbEntity
  8
1
100
AcDbLine
 10
87.05754991027
 20
-3.9585
 30
0.0
 11
87.0
 21
-3.9585
 31
0.0
  0
LINE
  5
4D7
330
30
100
AcDbEntity
  8
1
100
AcDbLine
 10
87.0
 20
-3.9585
 30
0.0
 11
86.752536392556
 21
-4.387119541117
 31
0.0
  0
LINE
  5
4D8
330
30
100
AcDbEntity
  8
1
100
AcDbLine
 10
86.393644387356
 20
-4.440953341897
 30
0.0
 11
86.11509982054
 21
-3.9585
 31
0.0
  0
LINE
  5
4D9
330
30
100
AcDbEntity
  8
1
100
AcDbLine
 10
86.11509982054
 20
-3.9585
 30
0.0
 11
86.05754991027
 21
-3.9585
 31
0.0
  0
LINE
  5
4DA
330
30
100
AcDbEntity
  8
1
100
AcDbLine
 10
86.05754991027
 20
-3.9585
 30
0.0
 11
86.0
 21
-3.9585
 31
0.0
  0
LINE
  5
4DB
330
30
100
AcDbEntity
  8
1
100
AcDbLine
 10
86.0
 20
-3.9585
 30
0.0
 11
85.687364829234
 21
-4.5
 31
0.0
  0
LINE
  5
4DC
330
30
100
AcDbEntity
  8
1
100
AcDbLine
 10
85.687364829234
 20
-4.5
 30
0.0
 11
85.55754991027
 21
-4.5
 31
0.0
  0
LINE
  5
4DD
330
30
100
AcDbEntity
  8
1
100
AcDbLine
 10
85.55754991027
 20
-4.5
 30
0.0
 11
85.427734991306
 21
-4.5
 31
0.0
  0
LINE
  5
4DE
330
30
100
AcDbEntity
  8
1
100
AcDbLine
 10
85.427734991306
 20
-4.5
 30
0.0
 11
85.11509982054
 21
-3.9585
 31
0.0
  0
LINE
  5
4DF
330
30
100
AcDbEntity
  8
1
100
AcDbLine
 10
85.11509982054
 20
-3.9585
 30
0.0
 11
85.05754991027
 21
-3.9585
 31
0.0
  0
LINE
  5
4E0
330
30
100
AcDbEntity
  8
1
100
AcDbLine
 10
85.05754991027
 20
-3.9585
 30
0.0
 11
85.0
 21
-3.9585
 31
0.0
  0
LINE
  5
4E1
330
30
100
AcDbEntity
  8
1
100
AcDbLine
 10
85.0
 20
-3.9585
 30
0.0
 11
84.687364829234
 21
-4.5
 31
0.0
  0
LINE
  5
4E2
330
30
100
AcDbEntity
  8
1
100
AcDbLine
 10
84.687364829234
 20
-4.5
 30
0.0
 11
84.55754991027
 21
-4.5
 31
0.0
  0
LINE
  5
4E3
330
30
100
AcDbEntity
  8
1
100
AcDbLine
 10
84.55754991027
 20
-4.5
 30
0.0
 11
84.427734991306
 21
-4.5
 31
0.0
  0
LINE
  5
4E4
330
30
100
AcDbEntity
  8
1
100
AcDbLine
 10
84.427734991306
 20
-4.5
 30
0.0
 11
84.11509982054
 21
-3.9585
 31
0.0
  0
LINE
  5
4E5
330
30
100
AcDbEntity
  8
1
100
AcDbLine
 10
84.11509982054
 20
-3.9585
 30
0.0
 11
84.05754991027
 21
-3.9585
 31
0.0
  0
LINE
  5
4E6
330
30
100
AcDbEntity
  8
1
100
AcDbLine
 10
84.05754991027
 20
-3.9585
 30
0.0
 11
84.0
 21
-3.9585
 31
0.0
  0
LINE
  5
4E7
330
30
100
AcDbEntity
  8
1
100
AcDbLine
 10
84.0
 20
-3.9585
 30
0.0
 11
83.687364829234
 21
-4.5
 31
0.0
  0
LINE
  5
4E8
330
30
100
AcDbEntity
  8
1
100
AcDbLine
 10
83.687364829234
 20
-4.5
 30
0.0
 11
83.55754991027
 21
-4.5
 31
0.0
  0
LINE
  5
4E9
330
30
100
AcDbEntity
  8
1
100
AcDbLine
 10
83.55754991027
 20
-4.5
 30
0.0
 11
83.427734991306
 21
-4.5
 31
0.0
  0
LINE
  5
4EA
330
30
100
AcDbEntity
  8
1
100
AcDbLine
 10
83.427734991306
 20
-4.5
 30
0.0
 11
83.11509982054
 21
-3.9585
 31
0.0
  0
LINE
  5
4EB
330
30
100
AcDbEntity
  8
1
100
AcDbLine
 10
83.11509982054
 20
-3.9585
 30
0.0
 11
83.05754991027
 21
-3.9585
 31
0.0
  0
LINE
  5
4EC
330
30
100
AcDbEntity
  8
1
100
AcDbLine
 10
83.05754991027
 20
-3.9585
 30
0.0
 11
83.0
 21
-3.9585
 31
0.0
  0
LINE
  5
4ED
330
30
100
AcDbEntity
  8
1
100
AcDbLine
 10
83.0
 20
-3.9585
 30
0.0
 11
82.687364829234
 21
-4.5
 31
0.0
  0
LINE
  5
4EE
330
30
100
AcDbEntity
  8
1
100
AcDbLine
 10
82.687364829234
 20
-4.5
 30
0.0
 11
82.55754991027
 21
-4.5
 31
0.0
  0
LINE
  5
4EF
330
30
100
AcDbEntity
  8
1
100
AcDbLine
 10
82.55754991027
 20
-4.5
 30
0.0
 11
82.427734991306
 21
-4.5
 31
0.0
  0
LINE
  5
4F0
330
30
100
AcDbEntity
  8
1
100
AcDbLine
 10
82.427734991306
 20
-4.5
 30
0.0
 11
82.11509982054
 21
-3.9585
 31
0.0
  0
LINE
  5
4F1
330
30
100
AcDbEntity
  8
1
100
AcDbLine
 10
82.11509982054
 20
-3.9585
 30
0.0
 11
82.05754991027
 21
-3.9585
 31
0.0
  0
LINE
  5
4F2
330
30
100
AcDbEntity
  8
1
100
AcDbLine
 10
82.05754991027
 20
-3.9585
 30
0.0
 11
82.0
 21
-3.9585
 31
0.0
  0
LINE
  5
4F3
330
30
100
AcDbEntity
  8
1
100
AcDbLine
 10
82.0
 20
-3.9585
 30
0.0
 11
81.687364829234
 21
-4.5
 31
0.0
  0
LINE
  5
4F4
330
30
100
AcDbEntity
  8
1
100
AcDbLine
 10
81.687364829234
 20
-4.5
 30
0.0
 11
81.55754991027
 21
-4.5
 31
0.0
  0
LINE
  5
4F5
330
30
100
AcDbEntity
  8
1
100
AcDbLine
 10
81.55754991027
 20
-4.5
 30
0.0
 11
81.427734991306
 21
-4.5
 31
0.0
  0
LINE
  5
4F6
330
30
100
AcDbEntity
  8
1
100
AcDbLine
 10
81.427734991306
 20
-4.5
 30
0.0
 11
81.11509982054
 21
-3.9585
 31
0.0
  0
LINE
  5
4F7
330
30
100
AcDbEntity
  8
1
100
AcDbLine
 10
81.11509982054
 20
-3.9585
 30
0.0
 11
81.05754991027
 21
-3.9585
 31
0.0
  0
LINE
  5
4F8
330
30
100
AcDbEntity
  8
1
100
AcDbLine
 10
81.05754991027
 20
-3.9585
 30
0.0
 11
81.0
 21
-3.9585
 31
0.0
  0
LINE
  5
4F9
330
30
100
AcDbEntity
  8
1
100
AcDbLine
 10
81.0
 20
-3.9585
 30
0.0
 11
80.687364829234
 21
-4.5
 31
0.0
  0
LINE
  5
4FA
330
30
100
AcDbEntity
  8
1
100
AcDbLine
 10
80.687364829234
 20
-4.5
 30
0.0
 11
80.55754991027
 21
-4.5
 31
0.0
  0
LINE
  5
4FB
330
30
100
AcDbEntity
  8
1
100
AcDbLine
 10
80.55754991027
 20
-4.5
 30
0.0
 11
80.427734991306
 21
-4.5
 31
0.0
  0
LINE
  5
4FC
330
30
100
AcDbEntity
  8
1
100
AcDbLine
 10
80.427734991306
 20
-4.5
 30
0.0
 11
80.11509982054
 21
-3.9585
 31
0.0
  0
LINE
  5
4FD
330
30
100
AcDbEntity
  8
1
100
AcDbLine
 10
80.11509982054
 20
-3.9585
 30
0.0
 11
80.05754991027
 21
-3.9585
 31
0.0
  0
LINE
  5
4FE
330
30
100
AcDbEntity
  8
1
100
AcDbLine
 10
80.05754991027
 20
-3.9585
 30
0.0
 11
80.0
 21
-3.9585
 31
0.0
  0
LINE
  5
4FF
330
30
100
AcDbEntity
  8
1
100
AcDbLine
 10
80.0
 20
-3.9585
 30
0.0
 11
79.687364829234
 21
-4.5
 31
0.0
  0
LINE
  5
500
330
30
100
AcDbEntity
  8
1
100
AcDbLine
 10
79.687364829234
 20
-4.5
 30
0.0
 11
79.55754991027
 21
-4.5
 31
0.0
  0
LINE
  5
501
330
30
100
AcDbEntity
  8
1
100
AcDbLine
 10
79.55754991027
 20
-4.5
 30
0.0
 11
79.427734991306
 21
-4.5
 31
0.0
  0
LINE
  5
502
330
30
100
AcDbEntity
  8
1
100
AcDbLine
 10
79.427734991306
 20
-4.5
 30
0.0
 11
79.11509982054
 21
-3.9585
 31
0.0
  0
LINE
  5
503
330
30
100
AcDbEntity
  8
1
100
AcDbLine
 10
79.11509982054
 20
-3.9585
 30
0.0
 11
79.05754991027
 21
-3.9585
 31
0.0
  0
LINE
  5
504
330
30
100
AcDbEntity
  8
1
100
AcDbLine
 10
79.05754991027
 20
-3.9585
 30
0.0
 11
79.0
 21
-3.9585
 31
0.0
  0
LINE
  5
505
330
30
100
AcDbEntity
  8
1
100
AcDbLine
 10
79.0
 20
-3.9585
 30
0.0
 11
78.687364829234
 21
-4.5
 31
0.0
  0
LINE
  5
506
330
30
100
AcDbEntity
  8
1
100
AcDbLine
 10
78.687364829234
 20
-4.5
 30
0.0
 11
78.55754991027
 21
-4.5
 31
0.0
  0
LINE
  5
507
330
30
100
AcDbEntity
  8
1
100
AcDbLine
 10
78.55754991027
 20
-4.5
 30
0.0
 11
78.427734991306
 21
-4.5
 31
0.0
  0
LINE
  5
508
330
30
100
AcDbEntity
  8
1
100
AcDbLine
 10
78.427734991306
 20
-4.5
 30
0.0
 11
78.11509982054
 21
-3.9585
 31
0.0
  0
LINE
  5
509
330
30
100
AcDbEntity
  8
1
100
AcDbLine
 10
78.11509982054
 20
-3.9585
 30
0.0
 11
78.05754991027
 21
-3.9585
 31
0.0
  0
LINE
  5
50A
330
30
100
AcDbEntity
  8
1
100
AcDbLine
 10
78.05754991027
 20
-3.9585
 30
0.0
 11
78.0
 21
-3.9585
 31
0.0
  0
LINE
  5
50B
330
30
100
AcDbEntity
  8
1
100
AcDbLine
 10
78.0
 20
-3.9585
 30
0.0
 11
77.687364829234
 21
-4.5
 31
0.0
  0
LINE
  5
50C
330
30
100
AcDbEntity
  8
1
100
AcDbLine
 10
77.687364829234
 20
-4.5
 30
0.0
 11
77.55754991027
 21
-4.5
 31
0.0
  0
LINE
  5
50D
330
30
100
AcDbEntity
  8
1
100
AcDbLine
 10
77.55754991027
 20
-4.5
 30
0.0
 11
77.427734991306
 21
-4.5
 31
0.0
  0
LINE
  5
50E
330
30
100
AcDbEntity
  8
1
100
AcDbLine
 10
77.427734991306
 20
-4.5
 30
0.0
 11
77.11509982054
 21
-3.9585
 31
0.0
  0
LINE
  5
50F
330
30
100
AcDbEntity
  8
1
100
AcDbLine
 10
77.11509982054
 20
-3.9585
 30
0.0
 11
77.05754991027
 21
-3.9585
 31
0.0
  0
LINE
  5
510
330
30
100
AcDbEntity
  8
1
100
AcDbLine
 10
77.05754991027
 20
-3.9585
 30
0.0
 11
77.0
 21
-3.9585
 31
0.0
  0
LINE
  5
511
330
30
100
AcDbEntity
  8
1
100
AcDbLine
 10
77.0
 20
-3.9585
 30
0.0
 11
76.687364829234
 21
-4.5
 31
0.0
  0
LINE
  5
512
330
30
100
AcDbEntity
  8
1
100
AcDbLine
 10
76.687364829234
 20
-4.5
 30
0.0
 11
76.55754991027
 21
-4.5
 31
0.0
  0
LINE
  5
513
330
30
100
AcDbEntity
  8
1
100
AcDbLine
 10
76.55754991027
 20
-4.5
 30
0.0
 11
76.427734991306
 21
-4.5
 31
0.0
  0
LINE
  5
514
330
30
100
AcDbEntity
  8
1
100
AcDbLine
 10
76.427734991306
 20
-4.5
 30
0.0
 11
76.11509982054
 21
-3.9585
 31
0.0
  0
LINE
  5
515
330
30
100
AcDbEntity
  8
1
100
AcDbLine
 10
76.11509982054
 20
-3.9585
 30
0.0
 11
76.05754991027
 21
-3.9585
 31
0.0
  0
LINE
  5
516
330
30
100
AcDbEntity
  8
1
100
AcDbLine
 10
76.05754991027
 20
-3.9585
 30
0.0
 11
76.0
 21
-3.9585
 31
0.0
  0
LINE
  5
517
330
30
100
AcDbEntity
  8
1
100
AcDbLine
 10
76.0
 20
-3.9585
 30
0.0
 11
75.687364829234
 21
-4.5
 31
0.0
  0
LINE
  5
518
330
30
100
AcDbEntity
  8
1
100
AcDbLine
 10
75.687364829234
 20
-4.5
 30
0.0
 11
75.55754991027
 21
-4.5
 31
0.0
  0
LINE
  5
519
330
30
100
AcDbEntity
  8
1
100
AcDbLine
 10
75.55754991027
 20
-4.5
 30
0.0
 11
75.427734991306
 21
-4.5
 31
0.0
  0
LINE
  5
51A
330
30
100
AcDbEntity
  8
1
100
AcDbLine
 10
75.427734991306
 20
-4.5
 30
0.0
 11
75.11509982054
 21
-3.9585
 31
0.0
  0
LINE
  5
51B
330
30
100
AcDbEntity
  8
1
100
AcDbLine
 10
75.11509982054
 20
-3.9585
 30
0.0
 11
75.05754991027
 21
-3.9585
 31
0.0
  0
LINE
  5
51C
330
30
100
AcDbEntity
  8
1
100
AcDbLine
 10
75.05754991027
 20
-3.9585
 30
0.0
 11
75.0
 21
-3.9585
 31
0.0
  0
LINE
  5
51D
330
30
100
AcDbEntity
  8
SK1
100
AcDbLine
 10
11.1
 20
2.271702384293
 30
0.0
 11
11.1
 21
4.8385
 31
0.0
  0
LINE
  5
51E
330
30
100
AcDbEntity
  8
SK1
100
AcDbLine
 10
11.1
 20
4.8385
 30
0.0
 11
1.0
 21
4.8385
 31
0.0
  0
LINE
  5
51F
330
30
100
AcDbEntity
  8
SK1
100
AcDbLine
 10
1.0
 20
4.8385
 30
0.0
 11
0.0
 21
3.922168825983
 31
0.0
  0
LINE
  5
520
330
30
100
AcDbEntity
  8
SK1
100
AcDbLine
 10
0.0
 20
3.922168825983
 30
0.0
 11
0.0
 21
2.271702384293
 31
0.0
  0
LINE
  5
521
330
30
100
AcDbEntity
  8
SK1
100
AcDbLine
 10
0.0
 20
2.271702384293
 30
0.0
 11
11.1
 21
2.271702384293
 31
0.0
  0
LINE
  5
522
330
30
100
AcDbEntity
  8
SK1
100
AcDbLine
 10
11.1
 20
2.271702384293
 30
0.0
 11
1.0
 21
4.8385
 31
0.0
  0
LINE
  5
523
330
30
100
AcDbEntity
  8
SK1
100
AcDbLine
 10
11.1
 20
4.8385
 30
0.0
 11
1.0
 21
2.271702384293
 31
0.0
  0
LINE
  5
524
330
30
100
AcDbEntity
  8
SK1
100
AcDbLine
 10
11.1
 20
-2.271702384293
 30
0.0
 11
11.1
 21
-4.8385
 31
0.0
  0
LINE
  5
525
330
30
100
AcDbEntity
  8
SK1
100
AcDbLine
 10
11.1
 20
-4.8385
 30
0.0
 11
1.0
 21
-4.8385
 31
0.0
  0
LINE
  5
526
330
30
100
AcDbEntity
  8
SK1
100
AcDbLine
 10
1.0
 20
-4.8385
 30
0.0
 11
0.0
 21
-3.922168825983
 31
0.0
  0
LINE
  5
527
330
30
100
AcDbEntity
  8
SK1
100
AcDbLine
 10
0.0
 20
-3.922168825983
 30
0.0
 11
0.0
 21
-2.271702384293
 31
0.0
  0
LINE
  5
528
330
30
100
AcDbEntity
  8
SK1
100
AcDbLine
 10
0.0
 20
-2.271702384293
 30
0.0
 11
11.1
 21
-2.271702384293
 31
0.0
  0
LINE
  5
529
330
30
100
AcDbEntity
  8
SK1
100
AcDbLine
 10
11.1
 20
-2.271702384293
 30
0.0
 11
1.0
 21
-4.8385
 31
0.0
  0
LINE
  5
52A
330
30
100
AcDbEntity
  8
SK1
100
AcDbLine
 10
11.1
 20
-4.8385
 30
0.0
 11
1.0
 21
-2.271702384293
 31
0.0
  0
LINE
  5
52B
330
30
100
AcDbEntity
  8
INFTOTAL
100
AcDbLine
 10
-20.0
 20
45.0
 30
0.0
 11
140.0
 21
45.0
 31
0.0
  0
LINE
  5
52C
330
30
100
AcDbEntity
  8
INFTOTAL
100
AcDbLine
 10
140.0
 20
45.0
 30
0.0
 11
140.0
 21
-45.0
 31
0.0
  0
LINE
  5
52D
330
30
100
AcDbEntity
  8
INFTOTAL
100
AcDbLine
 10
140.0
 20
-45.0
 30
0.0
 11
-20.0
 21
-45.0
 31
0.0
  0
LINE
  5
52E
330
30
100
AcDbEntity
  8
INFTOTAL
100
AcDbLine
 10
-20.0
 20
-45.0
 30
0.0
 11
-20.0
 21
45.0
 31
0.0
  0
DIMENSION
  5
106AC06
330
30
100
AcDbEntity
  8
2
100
AcDbDimension
  2
*D9
 10
86.0
 20
-16.0
 30
0.0
 11
98.04424999999999
 21
-16.0
 31
0.0
 70
   160
  1
<>
 71
     5
 42
4.0
  3
STANDARD
100
AcDbAlignedDimension
 13
90.0
 23
-3.9
 33
0.0
 14
86.0
 24
-4.5
 34
0.0
100
AcDbRotatedDimension
1001
ACAD
1000
DSTYLE
1002
{
1070
   271
1070
     0
1070
   279
1070
     0
1070
    74
1070
     0
1002
}
  0
DIMENSION
  5
106AC36
330
30
100
AcDbEntity
  8
2
100
AcDbDimension
  2
*D12
 10
120.0
 20
3.900000000000002
 30
0.0
 11
120.0
 21
15.0
 31
0.0
 70
   160
  1
%%c<>
 71
     5
 42
7.8
  3
STANDARD
100
AcDbAlignedDimension
 13
90.0
 23
-3.9
 33
0.0
 14
90.0
 24
3.9
 34
0.0
 50
-90.0
100
AcDbRotatedDimension
1001
ACAD
1000
DSTYLE
1002
{
1070
   271
1070
     1
1070
   279
1070
     0
1070
    74
1070
     0
1002
}
1001
ACAD_DSTYLE_DIMFLIPARROW_SYMBOL
1070
   385
1070
     0
1001
ACAD_DSTYLE_DIMFLIPARROW_WHICH_SYMBOL
1070
   386
1070
     3
  0
DIMENSION
  5
106AC66
330
30
100
AcDbEntity
  8
2
100
AcDbDimension
  2
*D15
 10
128.0
 20
4.5
 30
0.0
 11
128.0
 21
15.0
 31
0.0
 70
   160
  1
M9X1
 71
     5
 42
9.0
  3
STANDARD
100
AcDbAlignedDimension
 13
86.0
 23
-4.5
 33
0.0
 14
86.0
 24
4.5
 34
0.0
 50
-90.0
100
AcDbRotatedDimension
1001
ACAD
1000
DSTYLE
1002
{
1070
   271
1070
     1
1070
   279
1070
     0
1070
    74
1070
     0
1002
}
1001
ACAD_DSTYLE_DIMFLIPARROW_SYMBOL
1070
   385
1070
     0
1001
ACAD_DSTYLE_DIMFLIPARROW_WHICH_SYMBOL
1070
   386
1070
     3
  0
DIMENSION
  5
106AC91
330
30
100
AcDbEntity
  8
SK2
100
AcDbDimension
  2
*D18
 10
0.0
 20
35.0
 30
0.0
 11
22.178051577085
 21
35.0
 31
0.0
 70
   160
  1
<>
 71
     5
 42
44.35610315417
  3
STANDARD
100
AcDbAlignedDimension
 13
44.35610315417
 23
4.8385
 33
0.0
 14
0.0
 24
3.922168825983
 34
0.0
100
AcDbRotatedDimension
1001
ACAD
1000
DSTYLE
1002
{
1070
   271
1070
     1
1070
   279
1070
     0
1070
    74
1070
     0
1002
}
  0
ENDSEC
  0
SECTION
  2
OBJECTS
  0
DICTIONARY
  5
52F
330
0
100
AcDbDictionary
281
     1
  3
ACAD_GROUP
350
530
  3
ACAD_IMAGE_VARS
350
106ABDF
  3
ACAD_LAYOUT
350
106AB97
  3
ACAD_MATERIAL
350
106ABBC
  3
ACAD_MLEADERSTYLE
350
106ABDB
  3
ACAD_MLINESTYLE
350
106AB92
  3
ACAD_PLOTSETTINGS
350
106AB94
  3
ACAD_PLOTSTYLENAME
350
106AB95
  3
ACAD_SCALELIST
350
106AB9A
  3
ACAD_TABLESTYLE
350
106ABD9
  3
ACAD_VISUALSTYLE
350
106ABC0
  3
AcDbVariableDictionary
350
106ACA0
  3
APPDATA
350
106ABDD
  3
DWGPROPS
350
106ACE7
  3
FX_DICT_DIMENSION_PALETTE
350
106AC16
  3
PRINTCONFIG
350
106ABE0
  0
DICTIONARY
  5
106ACEA
330
2
100
AcDbDictionary
280
     1
281
     1
  3
ACAD_XREC_ROUNDTRIP
360
106ACEB
  0
DICTIONARY
  5
106AC9E
330
30
100
AcDbDictionary
280
     1
281
     1
  3
DIM_BOUNDING_BOXES_V1
360
106AC9F
  0
DICTIONARY
  5
530
102
{ACAD_REACTORS
330
52F
102
}
330
52F
100
AcDbDictionary
281
     1
  0
RASTERVARIABLES
  5
106ABDF
102
{ACAD_REACTORS
330
52F
102
}
330
52F
100
AcDbRasterVariables
 90
        0
 70
     1
 71
     1
 72
     0
  0
DICTIONARY
  5
106AB97
102
{ACAD_REACTORS
330
52F
102
}
330
52F
100
AcDbDictionary
281
     1
  3
Model
350
106AB98
  3
シート 1
350
106AB99
  0
DICTIONARY
  5
106ABBC
102
{ACAD_REACTORS
330
52F
102
}
330
52F
100
AcDbDictionary
281
     1
  3
ByBlock
350
106ABBE
  3
ByLayer
350
106ABBD
  3
Global
350
106ABBF
  0
DICTIONARY
  5
106ABDB
102
{ACAD_REACTORS
330
52F
102
}
330
52F
100
AcDbDictionary
281
     1
  3
Standard
350
106ABDC
  0
DICTIONARY
  5
106AB92
102
{ACAD_REACTORS
330
52F
102
}
330
52F
100
AcDbDictionary
281
     1
  3
Standard
350
106AB93
  0
DICTIONARY
  5
106AB94
102
{ACAD_REACTORS
330
52F
102
}
330
52F
100
AcDbDictionary
281
     1
  0
ACDBDICTIONARYWDFLT
  5
106AB95
102
{ACAD_REACTORS
330
52F
102
}
330
52F
100
AcDbDictionary
281
     1
  3
Normal
350
106AB96
100
AcDbDictionaryWithDefault
340
106AB96
  0
DICTIONARY
  5
106AB9A
102
{ACAD_REACTORS
330
52F
102
}
330
52F
100
AcDbDictionary
281
     1
  3
A0
350
106AB9B
  3
A1
350
106AB9C
  3
A2
350
106AB9D
  3
A3
350
106AB9E
  3
A4
350
106AB9F
  3
A5
350
106ABA0
  3
A6
350
106ABA1
  3
A7
350
106ABA2
  3
A8
350
106ABA3
  3
A9
350
106ABA4
  3
B0
350
106ABA5
  3
B1
350
106ABA6
  3
B2
350
106ABA7
  3
B3
350
106ABA8
  3
B4
350
106ABA9
  3
B5
350
106ABAA
  3
B6
350
106ABAB
  3
B7
350
106ABAC
  3
B8
350
106ABAD
  3
B9
350
106ABAE
  3
C0
350
106ABAF
  3
C1
350
106ABB0
  3
C2
350
106ABB1
  3
C3
350
106ABB2
  3
C4
350
106ABB3
  3
C5
350
106ABB4
  3
C6
350
106ABB5
  3
C7
350
106ABB6
  3
C8
350
106ABB7
  3
C9
350
106ABB8
  3
D0
350
106ABB9
  3
D1
350
106ABBA
  3
D2
350
106ABBB
  0
DICTIONARY
  5
106ABD9
102
{ACAD_REACTORS
330
52F
102
}
330
52F
100
AcDbDictionary
281
     1
  3
Standard
350
106ABDA
  0
DICTIONARY
  5
106ABC0
102
{ACAD_REACTORS
330
52F
102
}
330
52F
100
AcDbDictionary
281
     1
  3
2dWireframe
350
106ABC5
  3
Basic
350
106ABC8
  3
Brighten
350
106ABCC
  3
ColorChange
350
106ABD0
  3
Conceptual
350
106ABCA
  3
Dim
350
106ABCB
  3
EdgeColorOff
350
106ABD3
  3
Facepattern
350
106ABCF
  3
Flat
350
106ABC1
  3
FlatWithEdges
350
106ABC2
  3
Gouraud
350
106ABC3
  3
GouraudWithEdges
350
106ABC4
  3
Hidden
350
106ABC7
  3
JitterOff
350
106ABD1
  3
Linepattern
350
106ABCE
  3
OverhangOff
350
106ABD2
  3
Realistic
350
106ABC9
  3
Shaded
350
106ABD8
  3
Shaded with edges
350
106ABD7
  3
Shades of Gray
350
106ABD4
  3
Sketchy
350
106ABD5
  3
Thicken
350
106ABCD
  3
Wireframe
350
106ABC6
  3
X-Ray
350
106ABD6
  0
DICTIONARY
  5
106ACA0
102
{ACAD_REACTORS
330
52F
102
}
330
52F
100
AcDbDictionary
281
     1
  3
CANNOSCALE
350
106ACAC
  3
CMLEADERSTYLE
350
106ACA2
  3
CTABLESTYLE
350
106ACA1
  3
DIMASSOC
350
106ACA5
  3
HIDETEXT
350
106ACA6
  3
MSLTSCALE
350
106ACAD
  0
DICTIONARY
  5
106ABDD
102
{ACAD_REACTORS
330
52F
102
}
330
52F
100
AcDbDictionary
281
     1
  0
XRECORD
  5
106ACE7
102
{ACAD_REACTORS
330
52F
102
}
330
52F
100
AcDbXrecord
280
     1
  1
DWGPROPS COOKIE
  2

  3

  4

  6

  7

  8
usr2460
  9

300
=
301
=
302
=
303
=
304
=
305
=
306
=
307
=
308
=
309
=
 40
0.0
 41
0.0
 42
2460864.291988947
  1

 90
        0
  0
DICTIONARY
  5
106AC16
102
{ACAD_REACTORS
330
52F
102
}
330
52F
100
AcDbDictionary
281
     1
1001
FX_DIMP_FAV_VERSION
1071
        1
  0
DICTIONARYVAR
  5
106ABE0
102
{ACAD_REACTORS
330
52F
102
}
330
52F
100
DictionaryVariables
280
     0
  1
0
  0
XRECORD
  5
106ACEB
102
{ACAD_REACTORS
330
106ACEA
102
}
330
106ACEA
100
AcDbXrecord
280
     1
102
VTR_0.000_0.000_1.000_1.000_GRIDDISPLAY
 70
     3
102
VTR_0.000_0.000_1.000_1.000_GRIDMAJOR
 70
     5
102
VTR_0.000_0.000_1.000_1.000_DEFAULTLIGHTING
280
     1
102
VTR_0.000_0.000_1.000_1.000_DEFAULTLIGHTINGTYPE
 70
     1
102
VTR_0.000_0.000_1.000_1.000_BRIGHTNESS
141
0.0
102
VTR_0.000_0.000_1.000_1.000_CONTRAST
142
0.0
  0
DICTIONARY
  5
106AC9F
102
{ACAD_REACTORS
330
106AC9E
102
}
330
106AC9E
100
AcDbDictionary
281
     1
  0
LAYOUT
  5
106AB98
102
{ACAD_REACTORS
330
106AB97
102
}
330
106AB97
100
AcDbPlotSettings
  1

  2
none_device
  4
Letter_(8.50_x_11.00_Inches)
  6

 40
6.35
 41
6.35
 42
6.35
 43
6.35
 44
215.9
 45
279.4
 46
0.0
 47
0.0
 48
0.0
 49
0.0
140
0.0
141
0.0
142
1.0
143
2.21959459445662
 70
  1712
 72
     0
 73
     0
 74
     0
  7

 75
     0
147
0.4505327245333333
148
-39.40881537143161
149
0.0
100
AcDbLayout
  1
Model
 70
     1
 71
     0
 10
0.0
 20
0.0
 11
12.0
 21
9.0
 12
0.0
 22
0.0
 32
0.0
 14
-20.0
 24
-45.0
 34
0.0
 15
140.0
 25
45.0
 35
0.0
146
0.0
 13
0.0
 23
0.0
 33
0.0
 16
1.0
 26
0.0
 36
0.0
 17
0.0
 27
1.0
 37
0.0
 76
     0
330
30
331
106AB91
  0
LAYOUT
  5
106AB99
102
{ACAD_REACTORS
330
106AB97
102
}
330
106AB97
100
AcDbPlotSettings
  1

  2
none_device
  4

  6

 40
0.0
 41
0.0
 42
0.0
 43
0.0
 44
0.0
 45
0.0
 46
0.0
 47
0.0
 48
0.0
 49
0.0
140
0.0
141
0.0
142
1.0
143
1.0
 70
   688
 72
     0
 73
     0
 74
     5
  7

 75
    16
147
1.0
148
0.0
149
0.0
100
AcDbLayout
  1
シート 1
 70
     1
 71
     1
 10
0.0
 20
0.0
 11
0.0
 21
0.0
 12
0.0
 22
0.0
 32
0.0
 14
1.000000000000000E+20
 24
1.000000000000000E+20
 34
1.000000000000000E+20
 15
-1.000000000000000E+20
 25
-1.000000000000000E+20
 35
-1.000000000000000E+20
146
0.0
 13
0.0
 23
0.0
 33
0.0
 16
1.0
 26
0.0
 36
0.0
 17
0.0
 27
1.0
 37
0.0
 76
     0
330
31
  0
MATERIAL
  5
106ABBE
102
{ACAD_REACTORS
330
106ABBC
102
}
102
{ACAD_XDICTIONARY
360
106ACEE
102
}
330
106ABBC
100
AcDbMaterial
  1
ByBlock
  0
MATERIAL
  5
106ABBD
102
{ACAD_REACTORS
330
106ABBC
102
}
102
{ACAD_XDICTIONARY
360
106ACEC
102
}
330
106ABBC
100
AcDbMaterial
  1
ByLayer
  0
MATERIAL
  5
106ABBF
102
{ACAD_REACTORS
330
106ABBC
102
}
102
{ACAD_XDICTIONARY
360
106ACF0
102
}
330
106ABBC
100
AcDbMaterial
  1
Global
  0
MLEADERSTYLE
  5
106ABDC
102
{ACAD_REACTORS
330
106ABDB
102
}
102
{ACAD_XDICTIONARY
360
106AD23
102
}
330
106ABDB
100
AcDbMLeaderStyle
170
     2
171
     1
172
     0
 90
        2
 40
0.0
 41
0.0
173
     1
 91
-1056964608
340
4
 92
       -2
290
     1
 42
0.09
291
     1
 43
0.36
  3
Standard
341
0
 44
0.18
300

342
28
174
     1
178
     1
175
     1
176
     0
 93
-1056964608
 45
0.18
292
     0
297
     0
 46
0.18
343
0
 94
-1056964608
 47
1.0
 49
1.0
140
1.0
293
     1
141
0.0
294
     1
177
     0
142
1.0
295
     0
296
     0
143
0.125
1001
ACAD_MLEADERVER
1070
     2
  0
MLINESTYLE
  5
106AB93
102
{ACAD_REACTORS
330
106AB92
102
}
330
106AB92
100
AcDbMlineStyle
  2
Standard
 70
     0
  3

 62
   256
 51
90.0
 52
90.0
 71
     2
 49
0.5
 62
   256
  6
BYLAYER
 49
-0.5
 62
   256
  6
BYLAYER
  0
ACDBPLACEHOLDER
  5
106AB96
102
{ACAD_REACTORS
330
106AB95
102
}
330
106AB95
  0
SCALE
  5
106AB9B
102
{ACAD_REACTORS
330
106AB9A
102
}
330
106AB9A
100
AcDbScale
 70
     0
300
1:1
140
1.0
141
1.0
290
     1
  0
SCALE
  5
106AB9C
102
{ACAD_REACTORS
330
106AB9A
102
}
330
106AB9A
100
AcDbScale
 70
     0
300
1:2
140
1.0
141
2.0
290
     0
  0
SCALE
  5
106AB9D
102
{ACAD_REACTORS
330
106AB9A
102
}
330
106AB9A
100
AcDbScale
 70
     0
300
1:4
140
1.0
141
4.0
290
     0
  0
SCALE
  5
106AB9E
102
{ACAD_REACTORS
330
106AB9A
102
}
330
106AB9A
100
AcDbScale
 70
     0
300
1:5
140
1.0
141
5.0
290
     0
  0
SCALE
  5
106AB9F
102
{ACAD_REACTORS
330
106AB9A
102
}
330
106AB9A
100
AcDbScale
 70
     0
300
1:8
140
1.0
141
8.0
290
     0
  0
SCALE
  5
106ABA0
102
{ACAD_REACTORS
330
106AB9A
102
}
330
106AB9A
100
AcDbScale
 70
     0
300
1:10
140
1.0
141
10.0
290
     0
  0
SCALE
  5
106ABA1
102
{ACAD_REACTORS
330
106AB9A
102
}
330
106AB9A
100
AcDbScale
 70
     0
300
1:16
140
1.0
141
16.0
290
     0
  0
SCALE
  5
106ABA2
102
{ACAD_REACTORS
330
106AB9A
102
}
330
106AB9A
100
AcDbScale
 70
     0
300
1:20
140
1.0
141
20.0
290
     0
  0
SCALE
  5
106ABA3
102
{ACAD_REACTORS
330
106AB9A
102
}
330
106AB9A
100
AcDbScale
 70
     0
300
1:30
140
1.0
141
30.0
290
     0
  0
SCALE
  5
106ABA4
102
{ACAD_REACTORS
330
106AB9A
102
}
330
106AB9A
100
AcDbScale
 70
     0
300
1:40
140
1.0
141
40.0
290
     0
  0
SCALE
  5
106ABA5
102
{ACAD_REACTORS
330
106AB9A
102
}
330
106AB9A
100
AcDbScale
 70
     0
300
1:50
140
1.0
141
50.0
290
     0
  0
SCALE
  5
106ABA6
102
{ACAD_REACTORS
330
106AB9A
102
}
330
106AB9A
100
AcDbScale
 70
     0
300
1:100
140
1.0
141
100.0
290
     0
  0
SCALE
  5
106ABA7
102
{ACAD_REACTORS
330
106AB9A
102
}
330
106AB9A
100
AcDbScale
 70
     0
300
2:1
140
2.0
141
1.0
290
     0
  0
SCALE
  5
106ABA8
102
{ACAD_REACTORS
330
106AB9A
102
}
330
106AB9A
100
AcDbScale
 70
     0
300
4:1
140
4.0
141
1.0
290
     0
  0
SCALE
  5
106ABA9
102
{ACAD_REACTORS
330
106AB9A
102
}
330
106AB9A
100
AcDbScale
 70
     0
300
8:1
140
8.0
141
1.0
290
     0
  0
SCALE
  5
106ABAA
102
{ACAD_REACTORS
330
106AB9A
102
}
330
106AB9A
100
AcDbScale
 70
     0
300
10:1
140
10.0
141
1.0
290
     0
  0
SCALE
  5
106ABAB
102
{ACAD_REACTORS
330
106AB9A
102
}
330
106AB9A
100
AcDbScale
 70
     0
300
100:1
140
100.0
141
1.0
290
     0
  0
SCALE
  5
106ABAC
102
{ACAD_REACTORS
330
106AB9A
102
}
330
106AB9A
100
AcDbScale
 70
     0
300
1/128" = 1'-0"
140
0.0078125
141
12.0
290
     0
  0
SCALE
  5
106ABAD
102
{ACAD_REACTORS
330
106AB9A
102
}
330
106AB9A
100
AcDbScale
 70
     0
300
1/64" = 1'-0"
140
0.015625
141
12.0
290
     0
  0
SCALE
  5
106ABAE
102
{ACAD_REACTORS
330
106AB9A
102
}
330
106AB9A
100
AcDbScale
 70
     0
300
1/32" = 1'-0"
140
0.03125
141
12.0
290
     0
  0
SCALE
  5
106ABAF
102
{ACAD_REACTORS
330
106AB9A
102
}
330
106AB9A
100
AcDbScale
 70
     0
300
1/16" = 1'-0"
140
0.0625
141
12.0
290
     0
  0
SCALE
  5
106ABB0
102
{ACAD_REACTORS
330
106AB9A
102
}
330
106AB9A
100
AcDbScale
 70
     0
300
3/32" = 1'-0"
140
0.09375
141
12.0
290
     0
  0
SCALE
  5
106ABB1
102
{ACAD_REACTORS
330
106AB9A
102
}
330
106AB9A
100
AcDbScale
 70
     0
300
1/8" = 1'-0"
140
0.125
141
12.0
290
     0
  0
SCALE
  5
106ABB2
102
{ACAD_REACTORS
330
106AB9A
102
}
330
106AB9A
100
AcDbScale
 70
     0
300
3/16" = 1'-0"
140
0.1875
141
12.0
290
     0
  0
SCALE
  5
106ABB3
102
{ACAD_REACTORS
330
106AB9A
102
}
330
106AB9A
100
AcDbScale
 70
     0
300
1/4" = 1'-0"
140
0.25
141
12.0
290
     0
  0
SCALE
  5
106ABB4
102
{ACAD_REACTORS
330
106AB9A
102
}
330
106AB9A
100
AcDbScale
 70
     0
300
3/8" = 1'-0"
140
0.375
141
12.0
290
     0
  0
SCALE
  5
106ABB5
102
{ACAD_REACTORS
330
106AB9A
102
}
330
106AB9A
100
AcDbScale
 70
     0
300
1/2" = 1'-0"
140
0.5
141
12.0
290
     0
  0
SCALE
  5
106ABB6
102
{ACAD_REACTORS
330
106AB9A
102
}
330
106AB9A
100
AcDbScale
 70
     0
300
3/4" = 1'-0"
140
0.75
141
12.0
290
     0
  0
SCALE
  5
106ABB7
102
{ACAD_REACTORS
330
106AB9A
102
}
330
106AB9A
100
AcDbScale
 70
     0
300
1" = 1'-0"
140
1.0
141
12.0
290
     0
  0
SCALE
  5
106ABB8
102
{ACAD_REACTORS
330
106AB9A
102
}
330
106AB9A
100
AcDbScale
 70
     0
300
1-1/2" = 1'-0"
140
1.5
141
12.0
290
     0
  0
SCALE
  5
106ABB9
102
{ACAD_REACTORS
330
106AB9A
102
}
330
106AB9A
100
AcDbScale
 70
     0
300
3" = 1'-0"
140
3.0
141
12.0
290
     0
  0
SCALE
  5
106ABBA
102
{ACAD_REACTORS
330
106AB9A
102
}
330
106AB9A
100
AcDbScale
 70
     0
300
6" = 1'-0"
140
6.0
141
12.0
290
     0
  0
SCALE
  5
106ABBB
102
{ACAD_REACTORS
330
106AB9A
102
}
330
106AB9A
100
AcDbScale
 70
     0
300
1'-0" = 1'-0"
140
12.0
141
12.0
290
     0
  0
TABLESTYLE
  5
106ABDA
102
{ACAD_REACTORS
330
106ABD9
102
}
330
106ABD9
100
AcDbTableStyle
  3
Standard
 70
     0
 71
     0
 40
0.06
 41
0.06
280
     0
281
     0
  7
Monospac821 BT
140
0.18
170
     2
 62
     0
 63
   257
283
     0
274
    -2
284
     1
 64
     0
275
    -2
285
     1
 65
     0
276
    -2
286
     1
 66
     0
277
    -2
287
     1
 67
     0
278
    -2
288
     1
 68
     0
279
    -2
289
     1
 69
     0
  7
Monospac821 BT
140
0.25
170
     5
 62
     0
 63
   257
283
     0
274
    -2
284
     1
 64
     0
275
    -2
285
     1
 65
     0
276
    -2
286
     1
 66
     0
277
    -2
287
     1
 67
     0
278
    -2
288
     1
 68
     0
279
    -2
289
     1
 69
     0
  7
Monospac821 BT
140
0.18
170
     5
 62
     0
 63
   257
283
     0
274
    -2
284
     1
 64
     0
275
    -2
285
     1
 65
     0
276
    -2
286
     1
 66
     0
277
    -2
287
     1
 67
     0
278
    -2
288
     1
 68
     0
279
    -2
289
     1
 69
     0
  0
VISUALSTYLE
  5
106ABC5
102
{ACAD_REACTORS
330
106ABC0
102
}
102
{ACAD_XDICTIONARY
360
106ACFA
102
}
330
106ABC0
100
AcDbVisualStyle
  2
2dWireframe
 70
     4
 71
     0
 72
     2
 73
     0
 90
        0
 40
0.6
 41
30.0
 62
     5
 63
     7
 74
     1
 91
        4
 64
     7
 65
   257
 75
     1
175
     1
 42
1.0
 92
        0
 66
   257
 43
1.0
 76
     1
 77
     6
 78
     2
 67
     7
 79
     5
170
     0
171
     0
290
     0
174
     0
 93
        1
 44
0.0
173
     0
291
     0
 45
0.0
1001
ACAD
1000
AcDbSavedByObjectVersion
1070
     0
  0
VISUALSTYLE
  5
106ABC8
102
{ACAD_REACTORS
330
106ABC0
102
}
102
{ACAD_XDICTIONARY
360
106AD00
102
}
330
106ABC0
100
AcDbVisualStyle
  2
Basic
 70
     7
 71
     1
 72
     0
 73
     1
 90
        0
 40
0.6
 41
30.0
 62
     5
 63
     7
 74
     0
 91
        4
 64
     7
 65
   257
 75
     1
175
     1
 42
1.0
 92
        8
 66
     7
 43
1.0
 76
     1
 77
     6
 78
     2
 67
     7
 79
     5
170
     0
171
     0
290
     0
174
     0
 93
        1
 44
0.0
173
     0
291
     1
 45
0.0
1001
ACAD
1000
AcDbSavedByObjectVersion
1070
     0
  0
VISUALSTYLE
  5
106ABCC
102
{ACAD_REACTORS
330
106ABC0
102
}
102
{ACAD_XDICTIONARY
360
106AD08
102
}
330
106ABC0
100
AcDbVisualStyle
  2
Brighten
 70
    12
 71
     2
 72
     2
 73
     0
 90
        0
 40
0.6
 41
30.0
 62
     5
 63
     7
 74
     1
 91
        4
 64
     7
 65
   257
 75
     1
175
     1
 42
1.0
 92
        8
 66
     7
 43
1.0
 76
     1
 77
     6
 78
     2
 67
     7
 79
     5
170
     0
171
     0
290
     0
174
     0
 93
        1
 44
50.0
173
     0
291
     1
 45
0.0
1001
ACAD
1000
AcDbSavedByObjectVersion
1070
     0
  0
VISUALSTYLE
  5
106ABD0
102
{ACAD_REACTORS
330
106ABC0
102
}
102
{ACAD_XDICTIONARY
360
106AD10
102
}
330
106ABC0
100
AcDbVisualStyle
  2
ColorChange
 70
    16
 71
     2
 72
     2
 73
     3
 90
        0
 40
0.6
 41
30.0
 62
     5
 63
     8
 74
     1
 91
        4
 64
     7
 65
   257
 75
     1
175
     1
 42
1.0
 92
        8
 66
     8
 43
1.0
 76
     1
 77
     6
 78
     2
 67
     7
 79
     5
170
     0
171
     0
290
     0
174
     0
 93
        1
 44
0.0
173
     0
291
     1
 45
0.0
1001
ACAD
1000
AcDbSavedByObjectVersion
1070
     0
  0
VISUALSTYLE
  5
106ABCA
102
{ACAD_REACTORS
330
106ABC0
102
}
102
{ACAD_XDICTIONARY
360
106AD04
102
}
330
106ABC0
100
AcDbVisualStyle
  2
Conceptual
 70
     9
 71
     3
 72
     2
 73
     0
 90
        0
 40
0.6
 41
30.0
 62
     5
 63
     7
 74
     2
 91
        2
 64
     7
 65
   257
 75
     1
175
     1
 42
179.0
 92
        8
 66
     7
 43
1.0
 76
     1
 77
     6
 78
     2
 67
     7
 79
     3
170
     0
171
     0
290
     0
174
     0
 93
        1
 44
0.0
173
     0
291
     0
 45
0.0
1001
ACAD
1000
AcDbSavedByObjectVersion
1070
     0
  0
VISUALSTYLE
  5
106ABCB
102
{ACAD_REACTORS
330
106ABC0
102
}
102
{ACAD_XDICTIONARY
360
106AD06
102
}
330
106ABC0
100
AcDbVisualStyle
  2
Dim
 70
    11
 71
     2
 72
     2
 73
     0
 90
        0
 40
0.6
 41
30.0
 62
     5
 63
     7
 74
     1
 91
        4
 64
     7
 65
   257
 75
     1
175
     1
 42
1.0
 92
        8
 66
     7
 43
1.0
 76
     1
 77
     6
 78
     2
 67
     7
 79
     5
170
     0
171
     0
290
     0
174
     0
 93
        1
 44
-50.0
173
     0
291
     1
 45
0.0
1001
ACAD
1000
AcDbSavedByObjectVersion
1070
     0
  0
VISUALSTYLE
  5
106ABD3
102
{ACAD_REACTORS
330
106ABC0
102
}
102
{ACAD_XDICTIONARY
360
106AD16
102
}
330
106ABC0
100
AcDbVisualStyle
  2
EdgeColorOff
 70
    22
 71
     2
 72
     2
 73
     0
 90
        0
 40
0.6
 41
30.0
 62
     5
 63
     7
 74
     1
 91
        4
 64
     7
 65
   257
 75
     1
175
     1
 42
1.0
 92
        8
 66
     7
 43
1.0
 76
     1
 77
     6
 78
     2
 67
     7
 79
     5
170
     0
171
     0
290
     0
174
     0
 93
        1
 44
0.0
173
     0
291
     1
 45
0.0
1001
ACAD
1000
AcDbSavedByObjectVersion
1070
     0
  0
VISUALSTYLE
  5
106ABCF
102
{ACAD_REACTORS
330
106ABC0
102
}
102
{ACAD_XDICTIONARY
360
106AD0E
102
}
330
106ABC0
100
AcDbVisualStyle
  2
Facepattern
 70
    15
 71
     2
 72
     2
 73
     0
 90
        0
 40
0.6
 41
30.0
 62
     5
 63
     7
 74
     1
 91
        4
 64
     7
 65
   257
 75
     1
175
     1
 42
1.0
 92
        8
 66
     7
 43
1.0
 76
     1
 77
     6
 78
     2
 67
     7
 79
     5
170
     0
171
     0
290
     0
174
     0
 93
        1
 44
0.0
173
     0
291
     1
 45
0.0
1001
ACAD
1000
AcDbSavedByObjectVersion
1070
     0
  0
VISUALSTYLE
  5
106ABC1
102
{ACAD_REACTORS
330
106ABC0
102
}
102
{ACAD_XDICTIONARY
360
106ACF2
102
}
330
106ABC0
100
AcDbVisualStyle
  2
Flat
 70
     0
 71
     2
 72
     1
 73
     1
 90
        2
 40
0.6
 41
30.0
 62
     5
 63
     7
 74
     0
 91
        0
 64
     7
 65
   257
 75
     1
175
     1
 42
1.0
 92
        8
 66
     7
 43
1.0
 76
     1
 77
     6
 78
     2
 67
     7
 79
     5
170
     0
171
     0
290
     0
174
     0
 93
       13
 44
0.0
173
     0
291
     1
 45
0.0
1001
ACAD
1000
AcDbSavedByObjectVersion
1070
     0
  0
VISUALSTYLE
  5
106ABC2
102
{ACAD_REACTORS
330
106ABC0
102
}
102
{ACAD_XDICTIONARY
360
106ACF4
102
}
330
106ABC0
100
AcDbVisualStyle
  2
FlatWithEdges
 70
     1
 71
     2
 72
     1
 73
     1
 90
        2
 40
0.6
 41
30.0
 62
     5
 63
     7
 74
     1
 91
        0
 64
     7
 65
   257
 75
     1
175
     1
 42
1.0
 92
        0
 66
   257
 43
1.0
 76
     1
 77
     6
 78
     2
 67
     7
 79
     5
170
     0
171
     0
290
     0
174
     0
 93
       13
 44
0.0
173
     0
291
     1
 45
0.0
1001
ACAD
1000
AcDbSavedByObjectVersion
1070
     0
  0
VISUALSTYLE
  5
106ABC3
102
{ACAD_REACTORS
330
106ABC0
102
}
102
{ACAD_XDICTIONARY
360
106ACF6
102
}
330
106ABC0
100
AcDbVisualStyle
  2
Gouraud
 70
     2
 71
     2
 72
     2
 73
     1
 90
        2
 40
0.6
 41
30.0
 62
     5
 63
     7
 74
     0
 91
        0
 64
     7
 65
   257
 75
     1
175
     1
 42
1.0
 92
        0
 66
     7
 43
1.0
 76
     1
 77
     6
 78
     2
 67
     7
 79
     5
170
     0
171
     0
290
     0
174
     0
 93
       13
 44
0.0
173
     0
291
     1
 45
0.0
1001
ACAD
1000
AcDbSavedByObjectVersion
1070
     0
  0
VISUALSTYLE
  5
106ABC4
102
{ACAD_REACTORS
330
106ABC0
102
}
102
{ACAD_XDICTIONARY
360
106ACF8
102
}
330
106ABC0
100
AcDbVisualStyle
  2
GouraudWithEdges
 70
     3
 71
     2
 72
     2
 73
     1
 90
        2
 40
0.6
 41
30.0
 62
     5
 63
     7
 74
     1
 91
        0
 64
     7
 65
   257
 75
     1
175
     1
 42
1.0
 92
        0
 66
   257
 43
1.0
 76
     1
 77
     6
 78
     2
 67
     7
 79
     5
170
     0
171
     0
290
     0
174
     0
 93
       13
 44
0.0
173
     0
291
     1
 45
0.0
1001
ACAD
1000
AcDbSavedByObjectVersion
1070
     0
  0
VISUALSTYLE
  5
106ABC7
102
{ACAD_REACTORS
330
106ABC0
102
}
102
{ACAD_XDICTIONARY
360
106ACFE
102
}
330
106ABC0
100
AcDbVisualStyle
  2
Hidden
 70
     6
 71
     1
 72
     2
 73
     2
 90
        0
 40
0.6
 41
30.0
 62
     5
 63
     7
 74
     2
 91
        2
 64
     7
 65
   257
 75
     2
175
     1
 42
40.0
 92
        0
 66
   257
 43
1.0
 76
     1
 77
     6
 78
     2
 67
     7
 79
     3
170
     0
171
     0
290
     0
174
     0
 93
        1
 44
0.0
173
     0
291
     0
 45
0.0
1001
ACAD
1000
AcDbSavedByObjectVersion
1070
     0
  0
VISUALSTYLE
  5
106ABD1
102
{ACAD_REACTORS
330
106ABC0
102
}
102
{ACAD_XDICTIONARY
360
106AD12
102
}
330
106ABC0
100
AcDbVisualStyle
  2
JitterOff
 70
    20
 71
     2
 72
     2
 73
     0
 90
        0
 40
0.6
 41
30.0
 62
     5
 63
     7
 74
     1
 91
        4
 64
     7
 65
   257
 75
     1
175
     1
 42
1.0
 92
       10
 66
     7
 43
1.0
 76
     1
 77
     6
 78
     2
 67
     7
 79
     5
170
     0
171
     0
290
     0
174
     0
 93
        1
 44
0.0
173
     0
291
     1
 45
0.0
1001
ACAD
1000
AcDbSavedByObjectVersion
1070
     0
  0
VISUALSTYLE
  5
106ABCE
102
{ACAD_REACTORS
330
106ABC0
102
}
102
{ACAD_XDICTIONARY
360
106AD0C
102
}
330
106ABC0
100
AcDbVisualStyle
  2
Linepattern
 70
    14
 71
     2
 72
     2
 73
     0
 90
        0
 40
0.6
 41
30.0
 62
     5
 63
     7
 74
     1
 91
        4
 64
     7
 65
   257
 75
     7
175
     7
 42
1.0
 92
        8
 66
     7
 43
1.0
 76
     1
 77
     6
 78
     2
 67
     7
 79
     5
170
     0
171
     0
290
     0
174
     0
 93
        1
 44
0.0
173
     0
291
     1
 45
0.0
1001
ACAD
1000
AcDbSavedByObjectVersion
1070
     0
  0
VISUALSTYLE
  5
106ABD2
102
{ACAD_REACTORS
330
106ABC0
102
}
102
{ACAD_XDICTIONARY
360
106AD14
102
}
330
106ABC0
100
AcDbVisualStyle
  2
OverhangOff
 70
    21
 71
     2
 72
     2
 73
     0
 90
        0
 40
0.6
 41
30.0
 62
     5
 63
     7
 74
     1
 91
        4
 64
     7
 65
   257
 75
     1
175
     1
 42
1.0
 92
        9
 66
     7
 43
1.0
 76
     1
 77
     6
 78
     2
 67
     7
 79
     5
170
     0
171
     0
290
     0
174
     0
 93
        1
 44
0.0
173
     0
291
     1
 45
0.0
1001
ACAD
1000
AcDbSavedByObjectVersion
1070
     0
  0
VISUALSTYLE
  5
106ABC9
102
{ACAD_REACTORS
330
106ABC0
102
}
102
{ACAD_XDICTIONARY
360
106AD02
102
}
330
106ABC0
100
AcDbVisualStyle
  2
Realistic
 70
     8
 71
     2
 72
     3
 73
     0
 90
        2
 40
0.6
 41
30.0
 62
     5
 63
     7
 74
     0
 91
        0
 64
     7
 65
   257
 75
     1
175
     1
 42
1.0
 92
        8
 66
   257
 43
1.0
 76
     1
 77
     6
 78
     2
 67
     7
 79
     3
170
     0
171
     0
290
     0
174
     0
 93
       13
 44
0.0
173
     0
291
     0
 45
0.0
1001
ACAD
1000
AcDbSavedByObjectVersion
1070
     0
  0
VISUALSTYLE
  5
106ABD8
102
{ACAD_REACTORS
330
106ABC0
102
}
102
{ACAD_XDICTIONARY
360
106AD20
102
}
330
106ABC0
100
AcDbVisualStyle
  2
Shaded
 70
    27
 71
     2
 72
     2
 73
     1
 90
        2
 40
0.6
 41
30.0
 62
     5
 63
     7
 74
     0
 91
        4
 64
     7
 65
   257
 75
     1
175
     1
 42
1.0
 92
        8
 66
   257
 43
1.0
 76
     1
 77
     6
 78
     2
 67
     8
 79
     3
170
     0
171
     0
290
     0
174
     0
 93
        5
 44
0.0
173
     0
291
     0
 45
0.0
1001
ACAD
1000
AcDbSavedByObjectVersion
1070
     0
  0
VISUALSTYLE
  5
106ABD7
102
{ACAD_REACTORS
330
106ABC0
102
}
102
{ACAD_XDICTIONARY
360
106AD1E
102
}
330
106ABC0
100
AcDbVisualStyle
  2
Shaded with edges
 70
    26
 71
     2
 72
     2
 73
     1
 90
        2
 40
0.6
 41
30.0
 62
     5
 63
     7
 74
     1
 91
       10
 64
     7
 65
   257
 75
     2
175
     1
 42
1.0
 92
        8
 66
   257
 43
1.0
 76
     1
 77
     6
 78
     2
 67
     7
 79
     3
170
     0
171
     0
290
     0
174
     0
 93
        5
 44
0.0
173
     0
291
     0
 45
0.0
1001
ACAD
1000
AcDbSavedByObjectVersion
1070
     0
  0
VISUALSTYLE
  5
106ABD4
102
{ACAD_REACTORS
330
106ABC0
102
}
102
{ACAD_XDICTIONARY
360
106AD18
102
}
330
106ABC0
100
AcDbVisualStyle
  2
Shades of Gray
 70
    23
 71
     2
 72
     2
 73
     3
 90
        0
 40
0.6
 41
30.0
 62
     5
 63
     7
 74
     2
 91
        2
 64
     7
 65
     7
 75
     1
175
     1
 42
40.0
 92
        8
 66
     7
 43
1.0
 76
     1
 77
     6
 78
     2
 67
     7
 79
     3
170
     0
171
     0
290
     0
174
     0
 93
        1
 44
0.0
173
     0
291
     0
 45
0.0
1001
ACAD
1000
AcDbSavedByObjectVersion
1070
     0
  0
VISUALSTYLE
  5
106ABD5
102
{ACAD_REACTORS
330
106ABC0
102
}
102
{ACAD_XDICTIONARY
360
106AD1A
102
}
330
106ABC0
100
AcDbVisualStyle
  2
Sketchy
 70
    24
 71
     1
 72
     2
 73
     2
 90
        0
 40
0.6
 41
30.0
 62
     5
 63
     7
 74
     2
 91
        2
 64
     7
 65
     7
 75
     1
175
     1
 42
40.0
 92
       11
 66
     7
 43
1.0
 76
     1
 77
     6
 78
     2
 67
     7
 79
     6
170
     0
171
     0
290
     0
174
     0
 93
        1
 44
0.0
173
     0
291
     0
 45
0.0
1001
ACAD
1000
AcDbSavedByObjectVersion
1070
     0
  0
VISUALSTYLE
  5
106ABCD
102
{ACAD_REACTORS
330
106ABC0
102
}
102
{ACAD_XDICTIONARY
360
106AD0A
102
}
330
106ABC0
100
AcDbVisualStyle
  2
Thicken
 70
    13
 71
     2
 72
     2
 73
     0
 90
        0
 40
0.6
 41
30.0
 62
     5
 63
     7
 74
     1
 91
        4
 64
     7
 65
   257
 75
     1
175
     1
 42
1.0
 92
       12
 66
     7
 43
1.0
 76
     1
 77
     6
 78
     2
 67
     7
 79
     5
170
     0
171
     0
290
     0
174
     0
 93
        1
 44
0.0
173
     0
291
     1
 45
0.0
1001
ACAD
1000
AcDbSavedByObjectVersion
1070
     0
  0
VISUALSTYLE
  5
106ABC6
102
{ACAD_REACTORS
330
106ABC0
102
}
102
{ACAD_XDICTIONARY
360
106ACFC
102
}
330
106ABC0
100
AcDbVisualStyle
  2
Wireframe
 70
     5
 71
     0
 72
     2
 73
     0
 90
        0
 40
0.6
 41
30.0
 62
     5
 63
     7
 74
     1
 91
        4
 64
     7
 65
   257
 75
     1
175
     1
 42
1.0
 92
        0
 66
   257
 43
1.0
 76
     1
 77
     6
 78
     2
 67
     7
 79
     3
170
     0
171
     0
290
     0
174
     0
 93
        1
 44
0.0
173
     0
291
     0
 45
0.0
1001
ACAD
1000
AcDbSavedByObjectVersion
1070
     0
  0
VISUALSTYLE
  5
106ABD6
102
{ACAD_REACTORS
330
106ABC0
102
}
102
{ACAD_XDICTIONARY
360
106AD1C
102
}
330
106ABC0
100
AcDbVisualStyle
  2
X-Ray
 70
    25
 71
     2
 72
     2
 73
     1
 90
        1
 40
0.5
 41
30.0
 62
     5
 63
     7
 74
     1
 91
        0
 64
     7
 65
   257
 75
     1
175
     1
 42
1.0
 92
        8
 66
     7
 43
1.0
 76
     1
 77
     6
 78
     2
 67
     7
 79
     3
170
     0
171
     0
290
     0
174
     0
 93
       13
 44
0.0
173
     0
291
     0
 45
0.0
1001
ACAD
1000
AcDbSavedByObjectVersion
1070
     0
  0
DICTIONARYVAR
  5
106ACAC
102
{ACAD_REACTORS
330
106ACA0
102
}
330
106ACA0
100
DictionaryVariables
280
     0
  1
1:1
  0
DICTIONARYVAR
  5
106ACA2
102
{ACAD_REACTORS
330
106ACA0
102
}
330
106ACA0
100
DictionaryVariables
280
     0
  1
Standard
  0
DICTIONARYVAR
  5
106ACA1
102
{ACAD_REACTORS
330
106ACA0
102
}
330
106ACA0
100
DictionaryVariables
280
     0
  1
Standard
  0
DICTIONARYVAR
  5
106ACA5
102
{ACAD_REACTORS
330
106ACA0
102
}
330
106ACA0
100
DictionaryVariables
280
     0
  1
2
  0
DICTIONARYVAR
  5
106ACA6
102
{ACAD_REACTORS
330
106ACA0
102
}
330
106ACA0
100
DictionaryVariables
280
     0
  1
1
  0
DICTIONARYVAR
  5
106ACAD
102
{ACAD_REACTORS
330
106ACA0
102
}
330
106ACA0
100
DictionaryVariables
280
     0
  1
1
  0
DICTIONARY
  5
106ACEE
330
106ABBE
100
AcDbDictionary
280
     1
281
     1
  3
ACAD_XREC_ROUNDTRIP
360
106ACEF
  0
DICTIONARY
  5
106ACEC
330
106ABBD
100
AcDbDictionary
280
     1
281
     1
  3
ACAD_XREC_ROUNDTRIP
360
106ACED
  0
DICTIONARY
  5
106ACF0
330
106ABBF
100
AcDbDictionary
280
     1
281
     1
  3
ACAD_XREC_ROUNDTRIP
360
106ACF1
  0
DICTIONARY
  5
106AD23
330
106ABDC
100
AcDbDictionary
280
     1
281
     1
  3
ACAD_XREC_ROUNDTRIP
360
106AD24
  0
DICTIONARY
  5
106ACFA
330
106ABC5
100
AcDbDictionary
280
     1
281
     1
  3
ACAD_XREC_ROUNDTRIP
360
106ACFB
  0
DICTIONARY
  5
106AD00
330
106ABC8
100
AcDbDictionary
280
     1
281
     1
  3
ACAD_XREC_ROUNDTRIP
360
106AD01
  0
DICTIONARY
  5
106AD08
330
106ABCC
100
AcDbDictionary
280
     1
281
     1
  3
ACAD_XREC_ROUNDTRIP
360
106AD09
  0
DICTIONARY
  5
106AD10
330
106ABD0
100
AcDbDictionary
280
     1
281
     1
  3
ACAD_XREC_ROUNDTRIP
360
106AD11
  0
DICTIONARY
  5
106AD04
330
106ABCA
100
AcDbDictionary
280
     1
281
     1
  3
ACAD_XREC_ROUNDTRIP
360
106AD05
  0
DICTIONARY
  5
106AD06
330
106ABCB
100
AcDbDictionary
280
     1
281
     1
  3
ACAD_XREC_ROUNDTRIP
360
106AD07
  0
DICTIONARY
  5
106AD16
330
106ABD3
100
AcDbDictionary
280
     1
281
     1
  3
ACAD_XREC_ROUNDTRIP
360
106AD17
  0
DICTIONARY
  5
106AD0E
330
106ABCF
100
AcDbDictionary
280
     1
281
     1
  3
ACAD_XREC_ROUNDTRIP
360
106AD0F
  0
DICTIONARY
  5
106ACF2
330
106ABC1
100
AcDbDictionary
280
     1
281
     1
  3
ACAD_XREC_ROUNDTRIP
360
106ACF3
  0
DICTIONARY
  5
106ACF4
330
106ABC2
100
AcDbDictionary
280
     1
281
     1
  3
ACAD_XREC_ROUNDTRIP
360
106ACF5
  0
DICTIONARY
  5
106ACF6
330
106ABC3
100
AcDbDictionary
280
     1
281
     1
  3
ACAD_XREC_ROUNDTRIP
360
106ACF7
  0
DICTIONARY
  5
106ACF8
330
106ABC4
100
AcDbDictionary
280
     1
281
     1
  3
ACAD_XREC_ROUNDTRIP
360
106ACF9
  0
DICTIONARY
  5
106ACFE
330
106ABC7
100
AcDbDictionary
280
     1
281
     1
  3
ACAD_XREC_ROUNDTRIP
360
106ACFF
  0
DICTIONARY
  5
106AD12
330
106ABD1
100
AcDbDictionary
280
     1
281
     1
  3
ACAD_XREC_ROUNDTRIP
360
106AD13
  0
DICTIONARY
  5
106AD0C
330
106ABCE
100
AcDbDictionary
280
     1
281
     1
  3
ACAD_XREC_ROUNDTRIP
360
106AD0D
  0
DICTIONARY
  5
106AD14
330
106ABD2
100
AcDbDictionary
280
     1
281
     1
  3
ACAD_XREC_ROUNDTRIP
360
106AD15
  0
DICTIONARY
  5
106AD02
330
106ABC9
100
AcDbDictionary
280
     1
281
     1
  3
ACAD_XREC_ROUNDTRIP
360
106AD03
  0
DICTIONARY
  5
106AD20
330
106ABD8
100
AcDbDictionary
280
     1
281
     1
  3
ACAD_XREC_ROUNDTRIP
360
106AD21
  0
DICTIONARY
  5
106AD1E
330
106ABD7
100
AcDbDictionary
280
     1
281
     1
  3
ACAD_XREC_ROUNDTRIP
360
106AD1F
  0
DICTIONARY
  5
106AD18
330
106ABD4
100
AcDbDictionary
280
     1
281
     1
  3
ACAD_XREC_ROUNDTRIP
360
106AD19
  0
DICTIONARY
  5
106AD1A
330
106ABD5
100
AcDbDictionary
280
     1
281
     1
  3
ACAD_XREC_ROUNDTRIP
360
106AD1B
  0
DICTIONARY
  5
106AD0A
330
106ABCD
100
AcDbDictionary
280
     1
281
     1
  3
ACAD_XREC_ROUNDTRIP
360
106AD0B
  0
DICTIONARY
  5
106ACFC
330
106ABC6
100
AcDbDictionary
280
     1
281
     1
  3
ACAD_XREC_ROUNDTRIP
360
106ACFD
  0
DICTIONARY
  5
106AD1C
330
106ABD6
100
AcDbDictionary
280
     1
281
     1
  3
ACAD_XREC_ROUNDTRIP
360
106AD1D
  0
XRECORD
  5
106ACEF
102
{ACAD_REACTORS
330
106ACEE
102
}
330
106ACEE
100
AcDbXrecord
280
     1
102
MATERIAL
148
0.0
149
0.0
149
0.0
 93
        0
 94
      127
282
     0
 72
     1
 77
     1
171
     1
175
     1
179
     1
273
     0
  0
XRECORD
  5
106ACED
102
{ACAD_REACTORS
330
106ACEC
102
}
330
106ACEC
100
AcDbXrecord
280
     1
102
MATERIAL
148
0.0
149
0.0
149
0.0
 93
        0
 94
      127
282
     0
 72
     1
 77
     1
171
     1
175
     1
179
     1
273
     0
  0
XRECORD
  5
106ACF1
102
{ACAD_REACTORS
330
106ACF0
102
}
330
106ACF0
100
AcDbXrecord
280
     1
102
MATERIAL
148
0.0
149
0.0
149
0.0
 93
        0
 94
      127
282
     0
 72
     1
 77
     1
171
     1
175
     1
179
     1
273
     0
  0
XRECORD
  5
106AD24
102
{ACAD_REACTORS
330
106AD23
102
}
330
106AD23
100
AcDbXrecord
280
     1
102
ACAD_ROUNDTRIP_2010_MLEADER_STYLE
  0
XRECORD
  5
106ACFB
102
{ACAD_REACTORS
330
106ACFA
102
}
330
106ACFA
100
AcDbXrecord
280
     1
102
RTVSPropertyOp0
 70
     1
102
RTVSPropertyOp1
 70
     1
102
RTVSPropertyOp2
 70
     1
102
RTVSPropertyOp3
 70
     1
102
RTVSPropertyOp4
 70
     1
102
RTVSPropertyOp5
 70
     1
102
RTVSPropertyOp6
 70
     1
102
RTVSPropertyOp7
 70
     1
102
RTVSPropertyOp8
 70
     1
102
RTVSPropertyOp9
 70
     1
102
RTVSPropertyOp10
 70
     1
102
RTVSPropertyOp11
 70
     1
102
RTVSPropertyOp12
 70
     1
102
RTVSPropertyOp13
 70
     1
102
RTVSPropertyOp14
 70
     1
102
RTVSPropertyOp15
 70
     1
102
RTVSPropertyOp16
 70
     1
102
RTVSPropertyOp17
 70
     1
102
RTVSPropertyOp18
 70
     1
102
RTVSPropertyOp19
 70
     1
102
RTVSPropertyOp20
 70
     1
102
RTVSPropertyOp21
 70
     1
102
RTVSPropertyOp22
 70
     1
102
RTVSPropertyOp23
 70
     1
102
RTVSPropertyOp24
 70
     1
102
RTVSPropertyOp25
 70
     1
102
RTVSPropertyOp26
 70
     1
102
RTVSPropertyOp27
 70
     1
102
RTVSPropertyOp28
 70
     1
102
RTVSPropertyOp29
 70
     1
102
RTVSPropertyOp30
 70
     1
102
RTVSPropertyOp31
 70
     1
102
RTVSPropertyOp32
 70
     1
102
RTVSPropertyOp33
 70
     1
102
RTVSPropertyOp34
 70
     1
102
RTVSPropertyOp35
 70
     1
102
RTVSPropertyOp36
 70
     1
102
RTVSPropertyOp37
 70
     1
102
RTVSPropertyOp38
 70
     1
102
RTVSPropertyOp39
 70
     1
102
RTVSPropertyOp40
 70
     1
102
RTVSPropertyOp41
 70
     1
102
RTVSPropertyOp42
 70
     1
102
RTVSPropertyOp43
 70
     1
102
RTVSPropertyOp44
 70
     1
102
RTVSPropertyOp45
 70
     1
102
RTVSPropertyOp46
 70
     1
102
RTVSPropertyOp47
 70
     1
102
RTVSPropertyOp48
 70
     1
102
RTVSPropertyOp49
 70
     1
102
RTVSPropertyOp50
 70
     1
102
RTVSPropertyOp51
 70
     0
102
RTVSPropertyOp52
 70
     0
102
RTVSPropertyOp53
 70
     1
102
RTVSPropertyOp54
 70
     1
102
RTVSPropertyOp55
 70
     1
102
RTVSPropertyOp56
 70
     1
102
RTVSPropertyOp57
 70
     1
102
RTVSPost2010Prop28
280
     1
102
RTVSPost2010PropOp28
 70
     1
102
RTVSPost2010Prop29
280
     1
102
RTVSPost2010PropOp29
 70
     1
102
RTVSPost2010Prop30
280
     0
102
RTVSPost2010PropOp30
 70
     1
102
RTVSPost2010Prop31
280
     0
102
RTVSPost2010PropOp31
 70
     1
102
RTVSPost2010Prop32
280
     0
102
RTVSPost2010PropOp32
 70
     1
102
RTVSPost2010Prop33
280
     0
102
RTVSPost2010PropOp33
 70
     1
102
RTVSPost2010Prop34
280
     0
102
RTVSPost2010PropOp34
 70
     1
102
RTVSPost2010Prop35
280
     0
102
RTVSPost2010PropOp35
 70
     1
102
RTVSPost2010Prop36
280
     0
102
RTVSPost2010PropOp36
 70
     1
102
RTVSPost2010Prop37
 90
       50
102
RTVSPost2010PropOp37
 70
     1
102
RTVSPost2010Prop38
140
0.0
102
RTVSPost2010PropOp38
 70
     1
102
RTVSPost2010Prop39
140
1.0
102
RTVSPost2010PropOp39
 70
     1
102
RTVSPost2010Prop40
 90
        0
102
RTVSPost2010PropOp40
 70
     1
102
RTVSPost2010Prop41ColorIndex
 90
       18
102
RTVSPost2010Prop41ColorRGB
 90
        0
102
RTVSPost2010PropOp41
 70
     1
102
RTVSPost2010Prop42
 90
       50
102
RTVSPost2010PropOp42
 70
     1
102
RTVSPost2010Prop43
 90
        3
102
RTVSPost2010PropOp43
 70
     1
102
RTVSPost2010Prop44ColorIndex
 90
        5
102
RTVSPost2010Prop44ColorRGB
 90
      255
102
RTVSPost2010PropOp44
 70
     1
102
RTVSPost2010Prop45
280
     0
102
RTVSPost2010PropOp45
 70
     1
102
RTVSPost2010Prop46
 90
       50
102
RTVSPost2010PropOp46
 70
     1
102
RTVSPost2010Prop47
 90
       50
102
RTVSPost2010PropOp47
 70
     1
102
RTVSPost2010Prop48
 90
       50
102
RTVSPost2010PropOp48
 70
     1
102
RTVSPost2010Prop49
280
     0
102
RTVSPost2010PropOp49
 70
     1
102
RTVSPost2010Prop50
 90
       50
102
RTVSPost2010PropOp50
 70
     1
102
RTVSPost2010Prop51ColorIndex
 90
      256
102
RTVSPost2010Prop51ColorRGB
 90
-16777216
102
RTVSPost2010PropOp51
 70
     0
102
RTVSPost2010Prop52
140
1.0
102
RTVSPost2010PropOp52
 70
     0
102
RTVSPost2010Prop53
 90
        2
102
RTVSPost2010PropOp53
 70
     1
102
RTVSPost2010Prop54
  1
strokes_ogs.tif
102
RTVSPost2010PropOp54
 70
     1
102
RTVSPost2010Prop55
280
     0
102
RTVSPost2010PropOp55
 70
     1
102
RTVSPost2010Prop56
140
1.0
102
RTVSPost2010PropOp56
 70
     1
102
RTVSPost2010Prop57
140
1.0
102
RTVSPost2010PropOp57
 70
     1
  0
XRECORD
  5
106AD01
102
{ACAD_REACTORS
330
106AD00
102
}
330
106AD00
100
AcDbXrecord
280
     1
102
RTVSPropertyOp0
 70
     1
102
RTVSPropertyOp1
 70
     1
102
RTVSPropertyOp2
 70
     1
102
RTVSPropertyOp3
 70
     1
102
RTVSPropertyOp4
 70
     1
102
RTVSPropertyOp5
 70
     1
102
RTVSPropertyOp6
 70
     1
102
RTVSPropertyOp7
 70
     1
102
RTVSPropertyOp8
 70
     1
102
RTVSPropertyOp9
 70
     1
102
RTVSPropertyOp10
 70
     1
102
RTVSPropertyOp11
 70
     1
102
RTVSPropertyOp12
 70
     1
102
RTVSPropertyOp13
 70
     1
102
RTVSPropertyOp14
 70
     1
102
RTVSPropertyOp15
 70
     1
102
RTVSPropertyOp16
 70
     1
102
RTVSPropertyOp17
 70
     1
102
RTVSPropertyOp18
 70
     1
102
RTVSPropertyOp19
 70
     1
102
RTVSPropertyOp20
 70
     1
102
RTVSPropertyOp21
 70
     1
102
RTVSPropertyOp22
 70
     1
102
RTVSPropertyOp23
 70
     1
102
RTVSPropertyOp24
 70
     1
102
RTVSPropertyOp25
 70
     1
102
RTVSPropertyOp26
 70
     1
102
RTVSPropertyOp27
 70
     1
102
RTVSPropertyOp28
 70
     1
102
RTVSPropertyOp29
 70
     1
102
RTVSPropertyOp30
 70
     1
102
RTVSPropertyOp31
 70
     1
102
RTVSPropertyOp32
 70
     1
102
RTVSPropertyOp33
 70
     1
102
RTVSPropertyOp34
 70
     1
102
RTVSPropertyOp35
 70
     1
102
RTVSPropertyOp36
 70
     1
102
RTVSPropertyOp37
 70
     1
102
RTVSPropertyOp38
 70
     1
102
RTVSPropertyOp39
 70
     1
102
RTVSPropertyOp40
 70
     1
102
RTVSPropertyOp41
 70
     1
102
RTVSPropertyOp42
 70
     1
102
RTVSPropertyOp43
 70
     1
102
RTVSPropertyOp44
 70
     1
102
RTVSPropertyOp45
 70
     1
102
RTVSPropertyOp46
 70
     1
102
RTVSPropertyOp47
 70
     1
102
RTVSPropertyOp48
 70
     1
102
RTVSPropertyOp49
 70
     1
102
RTVSPropertyOp50
 70
     1
102
RTVSPropertyOp51
 70
     0
102
RTVSPropertyOp52
 70
     0
102
RTVSPropertyOp53
 70
     1
102
RTVSPropertyOp54
 70
     1
102
RTVSPropertyOp55
 70
     1
102
RTVSPropertyOp56
 70
     1
102
RTVSPropertyOp57
 70
     1
102
RTVSPost2010Prop28
280
     0
102
RTVSPost2010PropOp28
 70
     1
102
RTVSPost2010Prop29
280
     1
102
RTVSPost2010PropOp29
 70
     1
102
RTVSPost2010Prop30
280
     1
102
RTVSPost2010PropOp30
 70
     1
102
RTVSPost2010Prop31
280
     0
102
RTVSPost2010PropOp31
 70
     1
102
RTVSPost2010Prop32
280
     0
102
RTVSPost2010PropOp32
 70
     1
102
RTVSPost2010Prop33
280
     0
102
RTVSPost2010PropOp33
 70
     1
102
RTVSPost2010Prop34
280
     0
102
RTVSPost2010PropOp34
 70
     1
102
RTVSPost2010Prop35
280
     0
102
RTVSPost2010PropOp35
 70
     1
102
RTVSPost2010Prop36
280
     0
102
RTVSPost2010PropOp36
 70
     1
102
RTVSPost2010Prop37
 90
       50
102
RTVSPost2010PropOp37
 70
     1
102
RTVSPost2010Prop38
140
0.0
102
RTVSPost2010PropOp38
 70
     1
102
RTVSPost2010Prop39
140
1.0
102
RTVSPost2010PropOp39
 70
     1
102
RTVSPost2010Prop40
 90
        0
102
RTVSPost2010PropOp40
 70
     1
102
RTVSPost2010Prop41ColorIndex
 90
       18
102
RTVSPost2010Prop41ColorRGB
 90
        0
102
RTVSPost2010PropOp41
 70
     1
102
RTVSPost2010Prop42
 90
       50
102
RTVSPost2010PropOp42
 70
     1
102
RTVSPost2010Prop43
 90
        3
102
RTVSPost2010PropOp43
 70
     1
102
RTVSPost2010Prop44ColorIndex
 90
        5
102
RTVSPost2010Prop44ColorRGB
 90
      255
102
RTVSPost2010PropOp44
 70
     1
102
RTVSPost2010Prop45
280
     0
102
RTVSPost2010PropOp45
 70
     1
102
RTVSPost2010Prop46
 90
       50
102
RTVSPost2010PropOp46
 70
     1
102
RTVSPost2010Prop47
 90
       50
102
RTVSPost2010PropOp47
 70
     1
102
RTVSPost2010Prop48
 90
       50
102
RTVSPost2010PropOp48
 70
     1
102
RTVSPost2010Prop49
280
     0
102
RTVSPost2010PropOp49
 70
     1
102
RTVSPost2010Prop50
 90
       50
102
RTVSPost2010PropOp50
 70
     1
102
RTVSPost2010Prop51ColorIndex
 90
      256
102
RTVSPost2010Prop51ColorRGB
 90
-16777216
102
RTVSPost2010PropOp51
 70
     0
102
RTVSPost2010Prop52
140
1.0
102
RTVSPost2010PropOp52
 70
     0
102
RTVSPost2010Prop53
 90
        2
102
RTVSPost2010PropOp53
 70
     1
102
RTVSPost2010Prop54
  1
strokes_ogs.tif
102
RTVSPost2010PropOp54
 70
     1
102
RTVSPost2010Prop55
280
     0
102
RTVSPost2010PropOp55
 70
     1
102
RTVSPost2010Prop56
140
1.0
102
RTVSPost2010PropOp56
 70
     1
102
RTVSPost2010Prop57
140
1.0
102
RTVSPost2010PropOp57
 70
     1
  0
XRECORD
  5
106AD09
102
{ACAD_REACTORS
330
106AD08
102
}
330
106AD08
100
AcDbXrecord
280
     1
102
RTVSPropertyOp0
 70
     1
102
RTVSPropertyOp1
 70
     1
102
RTVSPropertyOp2
 70
     1
102
RTVSPropertyOp3
 70
     1
102
RTVSPropertyOp4
 70
     1
102
RTVSPropertyOp5
 70
     1
102
RTVSPropertyOp6
 70
     1
102
RTVSPropertyOp7
 70
     1
102
RTVSPropertyOp8
 70
     1
102
RTVSPropertyOp9
 70
     1
102
RTVSPropertyOp10
 70
     1
102
RTVSPropertyOp11
 70
     1
102
RTVSPropertyOp12
 70
     1
102
RTVSPropertyOp13
 70
     1
102
RTVSPropertyOp14
 70
     1
102
RTVSPropertyOp15
 70
     1
102
RTVSPropertyOp16
 70
     1
102
RTVSPropertyOp17
 70
     1
102
RTVSPropertyOp18
 70
     1
102
RTVSPropertyOp19
 70
     1
102
RTVSPropertyOp20
 70
     1
102
RTVSPropertyOp21
 70
     1
102
RTVSPropertyOp22
 70
     1
102
RTVSPropertyOp23
 70
     1
102
RTVSPropertyOp24
 70
     1
102
RTVSPropertyOp25
 70
     1
102
RTVSPropertyOp26
 70
     1
102
RTVSPropertyOp27
 70
     1
102
RTVSPropertyOp28
 70
     1
102
RTVSPropertyOp29
 70
     1
102
RTVSPropertyOp30
 70
     1
102
RTVSPropertyOp31
 70
     1
102
RTVSPropertyOp32
 70
     1
102
RTVSPropertyOp33
 70
     1
102
RTVSPropertyOp34
 70
     1
102
RTVSPropertyOp35
 70
     1
102
RTVSPropertyOp36
 70
     1
102
RTVSPropertyOp37
 70
     1
102
RTVSPropertyOp38
 70
     1
102
RTVSPropertyOp39
 70
     1
102
RTVSPropertyOp40
 70
     1
102
RTVSPropertyOp41
 70
     1
102
RTVSPropertyOp42
 70
     1
102
RTVSPropertyOp43
 70
     1
102
RTVSPropertyOp44
 70
     1
102
RTVSPropertyOp45
 70
     1
102
RTVSPropertyOp46
 70
     1
102
RTVSPropertyOp47
 70
     1
102
RTVSPropertyOp48
 70
     1
102
RTVSPropertyOp49
 70
     1
102
RTVSPropertyOp50
 70
     1
102
RTVSPropertyOp51
 70
     0
102
RTVSPropertyOp52
 70
     0
102
RTVSPropertyOp53
 70
     1
102
RTVSPropertyOp54
 70
     1
102
RTVSPropertyOp55
 70
     1
102
RTVSPropertyOp56
 70
     1
102
RTVSPropertyOp57
 70
     1
102
RTVSPost2010Prop28
280
     0
102
RTVSPost2010PropOp28
 70
     1
102
RTVSPost2010Prop29
280
     1
102
RTVSPost2010PropOp29
 70
     1
102
RTVSPost2010Prop30
280
     1
102
RTVSPost2010PropOp30
 70
     1
102
RTVSPost2010Prop31
280
     0
102
RTVSPost2010PropOp31
 70
     1
102
RTVSPost2010Prop32
280
     0
102
RTVSPost2010PropOp32
 70
     1
102
RTVSPost2010Prop33
280
     0
102
RTVSPost2010PropOp33
 70
     1
102
RTVSPost2010Prop34
280
     0
102
RTVSPost2010PropOp34
 70
     1
102
RTVSPost2010Prop35
280
     0
102
RTVSPost2010PropOp35
 70
     1
102
RTVSPost2010Prop36
280
     0
102
RTVSPost2010PropOp36
 70
     1
102
RTVSPost2010Prop37
 90
       50
102
RTVSPost2010PropOp37
 70
     1
102
RTVSPost2010Prop38
140
0.0
102
RTVSPost2010PropOp38
 70
     1
102
RTVSPost2010Prop39
140
1.0
102
RTVSPost2010PropOp39
 70
     1
102
RTVSPost2010Prop40
 90
        0
102
RTVSPost2010PropOp40
 70
     1
102
RTVSPost2010Prop41ColorIndex
 90
       18
102
RTVSPost2010Prop41ColorRGB
 90
        0
102
RTVSPost2010PropOp41
 70
     1
102
RTVSPost2010Prop42
 90
       50
102
RTVSPost2010PropOp42
 70
     1
102
RTVSPost2010Prop43
 90
        3
102
RTVSPost2010PropOp43
 70
     1
102
RTVSPost2010Prop44ColorIndex
 90
        5
102
RTVSPost2010Prop44ColorRGB
 90
      255
102
RTVSPost2010PropOp44
 70
     1
102
RTVSPost2010Prop45
280
     0
102
RTVSPost2010PropOp45
 70
     1
102
RTVSPost2010Prop46
 90
       50
102
RTVSPost2010PropOp46
 70
     1
102
RTVSPost2010Prop47
 90
       50
102
RTVSPost2010PropOp47
 70
     1
102
RTVSPost2010Prop48
 90
       50
102
RTVSPost2010PropOp48
 70
     1
102
RTVSPost2010Prop49
280
     0
102
RTVSPost2010PropOp49
 70
     1
102
RTVSPost2010Prop50
 90
       50
102
RTVSPost2010PropOp50
 70
     1
102
RTVSPost2010Prop51ColorIndex
 90
      256
102
RTVSPost2010Prop51ColorRGB
 90
-16777216
102
RTVSPost2010PropOp51
 70
     0
102
RTVSPost2010Prop52
140
1.0
102
RTVSPost2010PropOp52
 70
     0
102
RTVSPost2010Prop53
 90
        2
102
RTVSPost2010PropOp53
 70
     1
102
RTVSPost2010Prop54
  1
strokes_ogs.tif
102
RTVSPost2010PropOp54
 70
     1
102
RTVSPost2010Prop55
280
     0
102
RTVSPost2010PropOp55
 70
     1
102
RTVSPost2010Prop56
140
1.0
102
RTVSPost2010PropOp56
 70
     1
102
RTVSPost2010Prop57
140
1.0
102
RTVSPost2010PropOp57
 70
     1
  0
XRECORD
  5
106AD11
102
{ACAD_REACTORS
330
106AD10
102
}
330
106AD10
100
AcDbXrecord
280
     1
102
RTVSPropertyOp0
 70
     1
102
RTVSPropertyOp1
 70
     1
102
RTVSPropertyOp2
 70
     1
102
RTVSPropertyOp3
 70
     1
102
RTVSPropertyOp4
 70
     1
102
RTVSPropertyOp5
 70
     1
102
RTVSPropertyOp6
 70
     1
102
RTVSPropertyOp7
 70
     1
102
RTVSPropertyOp8
 70
     1
102
RTVSPropertyOp9
 70
     1
102
RTVSPropertyOp10
 70
     1
102
RTVSPropertyOp11
 70
     1
102
RTVSPropertyOp12
 70
     1
102
RTVSPropertyOp13
 70
     1
102
RTVSPropertyOp14
 70
     1
102
RTVSPropertyOp15
 70
     1
102
RTVSPropertyOp16
 70
     1
102
RTVSPropertyOp17
 70
     1
102
RTVSPropertyOp18
 70
     1
102
RTVSPropertyOp19
 70
     1
102
RTVSPropertyOp20
 70
     1
102
RTVSPropertyOp21
 70
     1
102
RTVSPropertyOp22
 70
     1
102
RTVSPropertyOp23
 70
     1
102
RTVSPropertyOp24
 70
     1
102
RTVSPropertyOp25
 70
     1
102
RTVSPropertyOp26
 70
     1
102
RTVSPropertyOp27
 70
     1
102
RTVSPropertyOp28
 70
     1
102
RTVSPropertyOp29
 70
     1
102
RTVSPropertyOp30
 70
     1
102
RTVSPropertyOp31
 70
     1
102
RTVSPropertyOp32
 70
     1
102
RTVSPropertyOp33
 70
     1
102
RTVSPropertyOp34
 70
     1
102
RTVSPropertyOp35
 70
     1
102
RTVSPropertyOp36
 70
     1
102
RTVSPropertyOp37
 70
     1
102
RTVSPropertyOp38
 70
     1
102
RTVSPropertyOp39
 70
     1
102
RTVSPropertyOp40
 70
     1
102
RTVSPropertyOp41
 70
     1
102
RTVSPropertyOp42
 70
     1
102
RTVSPropertyOp43
 70
     1
102
RTVSPropertyOp44
 70
     1
102
RTVSPropertyOp45
 70
     1
102
RTVSPropertyOp46
 70
     1
102
RTVSPropertyOp47
 70
     1
102
RTVSPropertyOp48
 70
     1
102
RTVSPropertyOp49
 70
     1
102
RTVSPropertyOp50
 70
     1
102
RTVSPropertyOp51
 70
     0
102
RTVSPropertyOp52
 70
     0
102
RTVSPropertyOp53
 70
     1
102
RTVSPropertyOp54
 70
     1
102
RTVSPropertyOp55
 70
     1
102
RTVSPropertyOp56
 70
     1
102
RTVSPropertyOp57
 70
     1
102
RTVSPost2010Prop28
280
     0
102
RTVSPost2010PropOp28
 70
     1
102
RTVSPost2010Prop29
280
     1
102
RTVSPost2010PropOp29
 70
     1
102
RTVSPost2010Prop30
280
     1
102
RTVSPost2010PropOp30
 70
     1
102
RTVSPost2010Prop31
280
     0
102
RTVSPost2010PropOp31
 70
     1
102
RTVSPost2010Prop32
280
     0
102
RTVSPost2010PropOp32
 70
     1
102
RTVSPost2010Prop33
280
     0
102
RTVSPost2010PropOp33
 70
     1
102
RTVSPost2010Prop34
280
     0
102
RTVSPost2010PropOp34
 70
     1
102
RTVSPost2010Prop35
280
     0
102
RTVSPost2010PropOp35
 70
     1
102
RTVSPost2010Prop36
280
     0
102
RTVSPost2010PropOp36
 70
     1
102
RTVSPost2010Prop37
 90
       50
102
RTVSPost2010PropOp37
 70
     1
102
RTVSPost2010Prop38
140
0.0
102
RTVSPost2010PropOp38
 70
     1
102
RTVSPost2010Prop39
140
1.0
102
RTVSPost2010PropOp39
 70
     1
102
RTVSPost2010Prop40
 90
        0
102
RTVSPost2010PropOp40
 70
     1
102
RTVSPost2010Prop41ColorIndex
 90
       18
102
RTVSPost2010Prop41ColorRGB
 90
        0
102
RTVSPost2010PropOp41
 70
     1
102
RTVSPost2010Prop42
 90
       50
102
RTVSPost2010PropOp42
 70
     1
102
RTVSPost2010Prop43
 90
        3
102
RTVSPost2010PropOp43
 70
     1
102
RTVSPost2010Prop44ColorIndex
 90
        5
102
RTVSPost2010Prop44ColorRGB
 90
      255
102
RTVSPost2010PropOp44
 70
     1
102
RTVSPost2010Prop45
280
     0
102
RTVSPost2010PropOp45
 70
     1
102
RTVSPost2010Prop46
 90
       50
102
RTVSPost2010PropOp46
 70
     1
102
RTVSPost2010Prop47
 90
       50
102
RTVSPost2010PropOp47
 70
     1
102
RTVSPost2010Prop48
 90
       50
102
RTVSPost2010PropOp48
 70
     1
102
RTVSPost2010Prop49
280
     0
102
RTVSPost2010PropOp49
 70
     1
102
RTVSPost2010Prop50
 90
       50
102
RTVSPost2010PropOp50
 70
     1
102
RTVSPost2010Prop51ColorIndex
 90
      256
102
RTVSPost2010Prop51ColorRGB
 90
-16777216
102
RTVSPost2010PropOp51
 70
     0
102
RTVSPost2010Prop52
140
1.0
102
RTVSPost2010PropOp52
 70
     0
102
RTVSPost2010Prop53
 90
        2
102
RTVSPost2010PropOp53
 70
     1
102
RTVSPost2010Prop54
  1
strokes_ogs.tif
102
RTVSPost2010PropOp54
 70
     1
102
RTVSPost2010Prop55
280
     0
102
RTVSPost2010PropOp55
 70
     1
102
RTVSPost2010Prop56
140
1.0
102
RTVSPost2010PropOp56
 70
     1
102
RTVSPost2010Prop57
140
1.0
102
RTVSPost2010PropOp57
 70
     1
  0
XRECORD
  5
106AD05
102
{ACAD_REACTORS
330
106AD04
102
}
330
106AD04
100
AcDbXrecord
280
     1
102
RTVSPropertyOp0
 70
     1
102
RTVSPropertyOp1
 70
     1
102
RTVSPropertyOp2
 70
     1
102
RTVSPropertyOp3
 70
     1
102
RTVSPropertyOp4
 70
     1
102
RTVSPropertyOp5
 70
     1
102
RTVSPropertyOp6
 70
     1
102
RTVSPropertyOp7
 70
     1
102
RTVSPropertyOp8
 70
     1
102
RTVSPropertyOp9
 70
     1
102
RTVSPropertyOp10
 70
     1
102
RTVSPropertyOp11
 70
     1
102
RTVSPropertyOp12
 70
     1
102
RTVSPropertyOp13
 70
     1
102
RTVSPropertyOp14
 70
     1
102
RTVSPropertyOp15
 70
     1
102
RTVSPropertyOp16
 70
     1
102
RTVSPropertyOp17
 70
     1
102
RTVSPropertyOp18
 70
     1
102
RTVSPropertyOp19
 70
     1
102
RTVSPropertyOp20
 70
     1
102
RTVSPropertyOp21
 70
     1
102
RTVSPropertyOp22
 70
     1
102
RTVSPropertyOp23
 70
     1
102
RTVSPropertyOp24
 70
     1
102
RTVSPropertyOp25
 70
     1
102
RTVSPropertyOp26
 70
     1
102
RTVSPropertyOp27
 70
     1
102
RTVSPropertyOp28
 70
     1
102
RTVSPropertyOp29
 70
     1
102
RTVSPropertyOp30
 70
     1
102
RTVSPropertyOp31
 70
     1
102
RTVSPropertyOp32
 70
     1
102
RTVSPropertyOp33
 70
     1
102
RTVSPropertyOp34
 70
     1
102
RTVSPropertyOp35
 70
     1
102
RTVSPropertyOp36
 70
     1
102
RTVSPropertyOp37
 70
     1
102
RTVSPropertyOp38
 70
     1
102
RTVSPropertyOp39
 70
     1
102
RTVSPropertyOp40
 70
     1
102
RTVSPropertyOp41
 70
     1
102
RTVSPropertyOp42
 70
     1
102
RTVSPropertyOp43
 70
     1
102
RTVSPropertyOp44
 70
     1
102
RTVSPropertyOp45
 70
     1
102
RTVSPropertyOp46
 70
     1
102
RTVSPropertyOp47
 70
     1
102
RTVSPropertyOp48
 70
     1
102
RTVSPropertyOp49
 70
     1
102
RTVSPropertyOp50
 70
     1
102
RTVSPropertyOp51
 70
     0
102
RTVSPropertyOp52
 70
     0
102
RTVSPropertyOp53
 70
     1
102
RTVSPropertyOp54
 70
     1
102
RTVSPropertyOp55
 70
     1
102
RTVSPropertyOp56
 70
     1
102
RTVSPropertyOp57
 70
     1
102
RTVSPost2010Prop28
280
     0
102
RTVSPost2010PropOp28
 70
     1
102
RTVSPost2010Prop29
280
     1
102
RTVSPost2010PropOp29
 70
     1
102
RTVSPost2010Prop30
280
     1
102
RTVSPost2010PropOp30
 70
     1
102
RTVSPost2010Prop31
280
     0
102
RTVSPost2010PropOp31
 70
     1
102
RTVSPost2010Prop32
280
     0
102
RTVSPost2010PropOp32
 70
     1
102
RTVSPost2010Prop33
280
     0
102
RTVSPost2010PropOp33
 70
     1
102
RTVSPost2010Prop34
280
     0
102
RTVSPost2010PropOp34
 70
     1
102
RTVSPost2010Prop35
280
     0
102
RTVSPost2010PropOp35
 70
     1
102
RTVSPost2010Prop36
280
     0
102
RTVSPost2010PropOp36
 70
     1
102
RTVSPost2010Prop37
 90
       50
102
RTVSPost2010PropOp37
 70
     1
102
RTVSPost2010Prop38
140
0.0
102
RTVSPost2010PropOp38
 70
     1
102
RTVSPost2010Prop39
140
1.0
102
RTVSPost2010PropOp39
 70
     1
102
RTVSPost2010Prop40
 90
        0
102
RTVSPost2010PropOp40
 70
     1
102
RTVSPost2010Prop41ColorIndex
 90
       18
102
RTVSPost2010Prop41ColorRGB
 90
        0
102
RTVSPost2010PropOp41
 70
     1
102
RTVSPost2010Prop42
 90
       50
102
RTVSPost2010PropOp42
 70
     1
102
RTVSPost2010Prop43
 90
        3
102
RTVSPost2010PropOp43
 70
     1
102
RTVSPost2010Prop44ColorIndex
 90
        5
102
RTVSPost2010Prop44ColorRGB
 90
      255
102
RTVSPost2010PropOp44
 70
     1
102
RTVSPost2010Prop45
280
     0
102
RTVSPost2010PropOp45
 70
     1
102
RTVSPost2010Prop46
 90
       50
102
RTVSPost2010PropOp46
 70
     1
102
RTVSPost2010Prop47
 90
       50
102
RTVSPost2010PropOp47
 70
     1
102
RTVSPost2010Prop48
 90
       50
102
RTVSPost2010PropOp48
 70
     1
102
RTVSPost2010Prop49
280
     0
102
RTVSPost2010PropOp49
 70
     1
102
RTVSPost2010Prop50
 90
       50
102
RTVSPost2010PropOp50
 70
     1
102
RTVSPost2010Prop51ColorIndex
 90
      256
102
RTVSPost2010Prop51ColorRGB
 90
-16777216
102
RTVSPost2010PropOp51
 70
     0
102
RTVSPost2010Prop52
140
1.0
102
RTVSPost2010PropOp52
 70
     0
102
RTVSPost2010Prop53
 90
        2
102
RTVSPost2010PropOp53
 70
     1
102
RTVSPost2010Prop54
  1
strokes_ogs.tif
102
RTVSPost2010PropOp54
 70
     1
102
RTVSPost2010Prop55
280
     0
102
RTVSPost2010PropOp55
 70
     1
102
RTVSPost2010Prop56
140
1.0
102
RTVSPost2010PropOp56
 70
     1
102
RTVSPost2010Prop57
140
1.0
102
RTVSPost2010PropOp57
 70
     1
  0
XRECORD
  5
106AD07
102
{ACAD_REACTORS
330
106AD06
102
}
330
106AD06
100
AcDbXrecord
280
     1
102
RTVSPropertyOp0
 70
     1
102
RTVSPropertyOp1
 70
     1
102
RTVSPropertyOp2
 70
     1
102
RTVSPropertyOp3
 70
     1
102
RTVSPropertyOp4
 70
     1
102
RTVSPropertyOp5
 70
     1
102
RTVSPropertyOp6
 70
     1
102
RTVSPropertyOp7
 70
     1
102
RTVSPropertyOp8
 70
     1
102
RTVSPropertyOp9
 70
     1
102
RTVSPropertyOp10
 70
     1
102
RTVSPropertyOp11
 70
     1
102
RTVSPropertyOp12
 70
     1
102
RTVSPropertyOp13
 70
     1
102
RTVSPropertyOp14
 70
     1
102
RTVSPropertyOp15
 70
     1
102
RTVSPropertyOp16
 70
     1
102
RTVSPropertyOp17
 70
     1
102
RTVSPropertyOp18
 70
     1
102
RTVSPropertyOp19
 70
     1
102
RTVSPropertyOp20
 70
     1
102
RTVSPropertyOp21
 70
     1
102
RTVSPropertyOp22
 70
     1
102
RTVSPropertyOp23
 70
     1
102
RTVSPropertyOp24
 70
     1
102
RTVSPropertyOp25
 70
     1
102
RTVSPropertyOp26
 70
     1
102
RTVSPropertyOp27
 70
     1
102
RTVSPropertyOp28
 70
     1
102
RTVSPropertyOp29
 70
     1
102
RTVSPropertyOp30
 70
     1
102
RTVSPropertyOp31
 70
     1
102
RTVSPropertyOp32
 70
     1
102
RTVSPropertyOp33
 70
     1
102
RTVSPropertyOp34
 70
     1
102
RTVSPropertyOp35
 70
     1
102
RTVSPropertyOp36
 70
     1
102
RTVSPropertyOp37
 70
     1
102
RTVSPropertyOp38
 70
     1
102
RTVSPropertyOp39
 70
     1
102
RTVSPropertyOp40
 70
     1
102
RTVSPropertyOp41
 70
     1
102
RTVSPropertyOp42
 70
     1
102
RTVSPropertyOp43
 70
     1
102
RTVSPropertyOp44
 70
     1
102
RTVSPropertyOp45
 70
     1
102
RTVSPropertyOp46
 70
     1
102
RTVSPropertyOp47
 70
     1
102
RTVSPropertyOp48
 70
     1
102
RTVSPropertyOp49
 70
     1
102
RTVSPropertyOp50
 70
     1
102
RTVSPropertyOp51
 70
     0
102
RTVSPropertyOp52
 70
     0
102
RTVSPropertyOp53
 70
     1
102
RTVSPropertyOp54
 70
     1
102
RTVSPropertyOp55
 70
     1
102
RTVSPropertyOp56
 70
     1
102
RTVSPropertyOp57
 70
     1
102
RTVSPost2010Prop28
280
     0
102
RTVSPost2010PropOp28
 70
     1
102
RTVSPost2010Prop29
280
     1
102
RTVSPost2010PropOp29
 70
     1
102
RTVSPost2010Prop30
280
     1
102
RTVSPost2010PropOp30
 70
     1
102
RTVSPost2010Prop31
280
     0
102
RTVSPost2010PropOp31
 70
     1
102
RTVSPost2010Prop32
280
     0
102
RTVSPost2010PropOp32
 70
     1
102
RTVSPost2010Prop33
280
     0
102
RTVSPost2010PropOp33
 70
     1
102
RTVSPost2010Prop34
280
     0
102
RTVSPost2010PropOp34
 70
     1
102
RTVSPost2010Prop35
280
     0
102
RTVSPost2010PropOp35
 70
     1
102
RTVSPost2010Prop36
280
     0
102
RTVSPost2010PropOp36
 70
     1
102
RTVSPost2010Prop37
 90
       50
102
RTVSPost2010PropOp37
 70
     1
102
RTVSPost2010Prop38
140
0.0
102
RTVSPost2010PropOp38
 70
     1
102
RTVSPost2010Prop39
140
1.0
102
RTVSPost2010PropOp39
 70
     1
102
RTVSPost2010Prop40
 90
        0
102
RTVSPost2010PropOp40
 70
     1
102
RTVSPost2010Prop41ColorIndex
 90
       18
102
RTVSPost2010Prop41ColorRGB
 90
        0
102
RTVSPost2010PropOp41
 70
     1
102
RTVSPost2010Prop42
 90
       50
102
RTVSPost2010PropOp42
 70
     1
102
RTVSPost2010Prop43
 90
        3
102
RTVSPost2010PropOp43
 70
     1
102
RTVSPost2010Prop44ColorIndex
 90
        5
102
RTVSPost2010Prop44ColorRGB
 90
      255
102
RTVSPost2010PropOp44
 70
     1
102
RTVSPost2010Prop45
280
     0
102
RTVSPost2010PropOp45
 70
     1
102
RTVSPost2010Prop46
 90
       50
102
RTVSPost2010PropOp46
 70
     1
102
RTVSPost2010Prop47
 90
       50
102
RTVSPost2010PropOp47
 70
     1
102
RTVSPost2010Prop48
 90
       50
102
RTVSPost2010PropOp48
 70
     1
102
RTVSPost2010Prop49
280
     0
102
RTVSPost2010PropOp49
 70
     1
102
RTVSPost2010Prop50
 90
       50
102
RTVSPost2010PropOp50
 70
     1
102
RTVSPost2010Prop51ColorIndex
 90
      256
102
RTVSPost2010Prop51ColorRGB
 90
-16777216
102
RTVSPost2010PropOp51
 70
     0
102
RTVSPost2010Prop52
140
1.0
102
RTVSPost2010PropOp52
 70
     0
102
RTVSPost2010Prop53
 90
        2
102
RTVSPost2010PropOp53
 70
     1
102
RTVSPost2010Prop54
  1
strokes_ogs.tif
102
RTVSPost2010PropOp54
 70
     1
102
RTVSPost2010Prop55
280
     0
102
RTVSPost2010PropOp55
 70
     1
102
RTVSPost2010Prop56
140
1.0
102
RTVSPost2010PropOp56
 70
     1
102
RTVSPost2010Prop57
140
1.0
102
RTVSPost2010PropOp57
 70
     1
  0
XRECORD
  5
106AD17
102
{ACAD_REACTORS
330
106AD16
102
}
330
106AD16
100
AcDbXrecord
280
     1
102
RTVSPropertyOp0
 70
     0
102
RTVSPropertyOp1
 70
     0
102
RTVSPropertyOp2
 70
     0
102
RTVSPropertyOp3
 70
     0
102
RTVSPropertyOp4
 70
     0
102
RTVSPropertyOp5
 70
     0
102
RTVSPropertyOp6
 70
     0
102
RTVSPropertyOp7
 70
     0
102
RTVSPropertyOp8
 70
     0
102
RTVSPropertyOp9
 70
     0
102
RTVSPropertyOp10
 70
     0
102
RTVSPropertyOp11
 70
     0
102
RTVSPropertyOp12
 70
     0
102
RTVSPropertyOp13
 70
     0
102
RTVSPropertyOp14
 70
     2
102
RTVSPropertyOp15
 70
     0
102
RTVSPropertyOp16
 70
     0
102
RTVSPropertyOp17
 70
     0
102
RTVSPropertyOp18
 70
     0
102
RTVSPropertyOp19
 70
     0
102
RTVSPropertyOp20
 70
     0
102
RTVSPropertyOp21
 70
     0
102
RTVSPropertyOp22
 70
     0
102
RTVSPropertyOp23
 70
     0
102
RTVSPropertyOp24
 70
     0
102
RTVSPropertyOp25
 70
     0
102
RTVSPropertyOp26
 70
     0
102
RTVSPropertyOp27
 70
     0
102
RTVSPropertyOp28
 70
     0
102
RTVSPropertyOp29
 70
     0
102
RTVSPropertyOp30
 70
     0
102
RTVSPropertyOp31
 70
     0
102
RTVSPropertyOp32
 70
     0
102
RTVSPropertyOp33
 70
     0
102
RTVSPropertyOp34
 70
     0
102
RTVSPropertyOp35
 70
     0
102
RTVSPropertyOp36
 70
     0
102
RTVSPropertyOp37
 70
     0
102
RTVSPropertyOp38
 70
     0
102
RTVSPropertyOp39
 70
     0
102
RTVSPropertyOp40
 70
     0
102
RTVSPropertyOp41
 70
     0
102
RTVSPropertyOp42
 70
     0
102
RTVSPropertyOp43
 70
     0
102
RTVSPropertyOp44
 70
     0
102
RTVSPropertyOp45
 70
     0
102
RTVSPropertyOp46
 70
     0
102
RTVSPropertyOp47
 70
     0
102
RTVSPropertyOp48
 70
     0
102
RTVSPropertyOp49
 70
     0
102
RTVSPropertyOp50
 70
     0
102
RTVSPropertyOp51
 70
     0
102
RTVSPropertyOp52
 70
     0
102
RTVSPropertyOp53
 70
     0
102
RTVSPropertyOp54
 70
     0
102
RTVSPropertyOp55
 70
     0
102
RTVSPropertyOp56
 70
     0
102
RTVSPropertyOp57
 70
     0
102
RTVSPost2010Prop28
280
     0
102
RTVSPost2010PropOp28
 70
     0
102
RTVSPost2010Prop29
280
     1
102
RTVSPost2010PropOp29
 70
     0
102
RTVSPost2010Prop30
280
     1
102
RTVSPost2010PropOp30
 70
     0
102
RTVSPost2010Prop31
280
     0
102
RTVSPost2010PropOp31
 70
     0
102
RTVSPost2010Prop32
280
     0
102
RTVSPost2010PropOp32
 70
     0
102
RTVSPost2010Prop33
280
     0
102
RTVSPost2010PropOp33
 70
     0
102
RTVSPost2010Prop34
280
     0
102
RTVSPost2010PropOp34
 70
     0
102
RTVSPost2010Prop35
280
     0
102
RTVSPost2010PropOp35
 70
     0
102
RTVSPost2010Prop36
280
     0
102
RTVSPost2010PropOp36
 70
     0
102
RTVSPost2010Prop37
 90
       50
102
RTVSPost2010PropOp37
 70
     0
102
RTVSPost2010Prop38
140
0.0
102
RTVSPost2010PropOp38
 70
     0
102
RTVSPost2010Prop39
140
1.0
102
RTVSPost2010PropOp39
 70
     0
102
RTVSPost2010Prop40
 90
        0
102
RTVSPost2010PropOp40
 70
     0
102
RTVSPost2010Prop41ColorIndex
 90
       18
102
RTVSPost2010Prop41ColorRGB
 90
        0
102
RTVSPost2010PropOp41
 70
     0
102
RTVSPost2010Prop42
 90
       50
102
RTVSPost2010PropOp42
 70
     0
102
RTVSPost2010Prop43
 90
        3
102
RTVSPost2010PropOp43
 70
     0
102
RTVSPost2010Prop44ColorIndex
 90
        5
102
RTVSPost2010Prop44ColorRGB
 90
      255
102
RTVSPost2010PropOp44
 70
     0
102
RTVSPost2010Prop45
280
     0
102
RTVSPost2010PropOp45
 70
     0
102
RTVSPost2010Prop46
 90
       50
102
RTVSPost2010PropOp46
 70
     0
102
RTVSPost2010Prop47
 90
       50
102
RTVSPost2010PropOp47
 70
     0
102
RTVSPost2010Prop48
 90
       50
102
RTVSPost2010PropOp48
 70
     0
102
RTVSPost2010Prop49
280
     0
102
RTVSPost2010PropOp49
 70
     0
102
RTVSPost2010Prop50
 90
       50
102
RTVSPost2010PropOp50
 70
     0
102
RTVSPost2010Prop51ColorIndex
 90
      256
102
RTVSPost2010Prop51ColorRGB
 90
-16777216
102
RTVSPost2010PropOp51
 70
     0
102
RTVSPost2010Prop52
140
1.0
102
RTVSPost2010PropOp52
 70
     0
102
RTVSPost2010Prop53
 90
        2
102
RTVSPost2010PropOp53
 70
     0
102
RTVSPost2010Prop54
  1
strokes_ogs.tif
102
RTVSPost2010PropOp54
 70
     0
102
RTVSPost2010Prop55
280
     0
102
RTVSPost2010PropOp55
 70
     0
102
RTVSPost2010Prop56
140
1.0
102
RTVSPost2010PropOp56
 70
     0
102
RTVSPost2010Prop57
140
1.0
102
RTVSPost2010PropOp57
 70
     0
  0
XRECORD
  5
106AD0F
102
{ACAD_REACTORS
330
106AD0E
102
}
330
106AD0E
100
AcDbXrecord
280
     1
102
RTVSPropertyOp0
 70
     1
102
RTVSPropertyOp1
 70
     1
102
RTVSPropertyOp2
 70
     1
102
RTVSPropertyOp3
 70
     1
102
RTVSPropertyOp4
 70
     1
102
RTVSPropertyOp5
 70
     1
102
RTVSPropertyOp6
 70
     1
102
RTVSPropertyOp7
 70
     1
102
RTVSPropertyOp8
 70
     1
102
RTVSPropertyOp9
 70
     1
102
RTVSPropertyOp10
 70
     1
102
RTVSPropertyOp11
 70
     1
102
RTVSPropertyOp12
 70
     1
102
RTVSPropertyOp13
 70
     1
102
RTVSPropertyOp14
 70
     1
102
RTVSPropertyOp15
 70
     1
102
RTVSPropertyOp16
 70
     1
102
RTVSPropertyOp17
 70
     1
102
RTVSPropertyOp18
 70
     1
102
RTVSPropertyOp19
 70
     1
102
RTVSPropertyOp20
 70
     1
102
RTVSPropertyOp21
 70
     1
102
RTVSPropertyOp22
 70
     1
102
RTVSPropertyOp23
 70
     1
102
RTVSPropertyOp24
 70
     1
102
RTVSPropertyOp25
 70
     1
102
RTVSPropertyOp26
 70
     1
102
RTVSPropertyOp27
 70
     1
102
RTVSPropertyOp28
 70
     1
102
RTVSPropertyOp29
 70
     1
102
RTVSPropertyOp30
 70
     1
102
RTVSPropertyOp31
 70
     1
102
RTVSPropertyOp32
 70
     1
102
RTVSPropertyOp33
 70
     1
102
RTVSPropertyOp34
 70
     1
102
RTVSPropertyOp35
 70
     1
102
RTVSPropertyOp36
 70
     1
102
RTVSPropertyOp37
 70
     1
102
RTVSPropertyOp38
 70
     1
102
RTVSPropertyOp39
 70
     1
102
RTVSPropertyOp40
 70
     1
102
RTVSPropertyOp41
 70
     1
102
RTVSPropertyOp42
 70
     1
102
RTVSPropertyOp43
 70
     1
102
RTVSPropertyOp44
 70
     1
102
RTVSPropertyOp45
 70
     1
102
RTVSPropertyOp46
 70
     1
102
RTVSPropertyOp47
 70
     1
102
RTVSPropertyOp48
 70
     1
102
RTVSPropertyOp49
 70
     1
102
RTVSPropertyOp50
 70
     1
102
RTVSPropertyOp51
 70
     0
102
RTVSPropertyOp52
 70
     0
102
RTVSPropertyOp53
 70
     1
102
RTVSPropertyOp54
 70
     1
102
RTVSPropertyOp55
 70
     1
102
RTVSPropertyOp56
 70
     1
102
RTVSPropertyOp57
 70
     1
102
RTVSPost2010Prop28
280
     0
102
RTVSPost2010PropOp28
 70
     1
102
RTVSPost2010Prop29
280
     1
102
RTVSPost2010PropOp29
 70
     1
102
RTVSPost2010Prop30
280
     1
102
RTVSPost2010PropOp30
 70
     1
102
RTVSPost2010Prop31
280
     0
102
RTVSPost2010PropOp31
 70
     1
102
RTVSPost2010Prop32
280
     0
102
RTVSPost2010PropOp32
 70
     1
102
RTVSPost2010Prop33
280
     0
102
RTVSPost2010PropOp33
 70
     1
102
RTVSPost2010Prop34
280
     0
102
RTVSPost2010PropOp34
 70
     1
102
RTVSPost2010Prop35
280
     0
102
RTVSPost2010PropOp35
 70
     1
102
RTVSPost2010Prop36
280
     0
102
RTVSPost2010PropOp36
 70
     1
102
RTVSPost2010Prop37
 90
       50
102
RTVSPost2010PropOp37
 70
     1
102
RTVSPost2010Prop38
140
0.0
102
RTVSPost2010PropOp38
 70
     1
102
RTVSPost2010Prop39
140
1.0
102
RTVSPost2010PropOp39
 70
     1
102
RTVSPost2010Prop40
 90
        0
102
RTVSPost2010PropOp40
 70
     1
102
RTVSPost2010Prop41ColorIndex
 90
       18
102
RTVSPost2010Prop41ColorRGB
 90
        0
102
RTVSPost2010PropOp41
 70
     1
102
RTVSPost2010Prop42
 90
       50
102
RTVSPost2010PropOp42
 70
     1
102
RTVSPost2010Prop43
 90
        3
102
RTVSPost2010PropOp43
 70
     1
102
RTVSPost2010Prop44ColorIndex
 90
        5
102
RTVSPost2010Prop44ColorRGB
 90
      255
102
RTVSPost2010PropOp44
 70
     1
102
RTVSPost2010Prop45
280
     0
102
RTVSPost2010PropOp45
 70
     1
102
RTVSPost2010Prop46
 90
       50
102
RTVSPost2010PropOp46
 70
     1
102
RTVSPost2010Prop47
 90
       50
102
RTVSPost2010PropOp47
 70
     1
102
RTVSPost2010Prop48
 90
       50
102
RTVSPost2010PropOp48
 70
     1
102
RTVSPost2010Prop49
280
     0
102
RTVSPost2010PropOp49
 70
     1
102
RTVSPost2010Prop50
 90
       50
102
RTVSPost2010PropOp50
 70
     1
102
RTVSPost2010Prop51ColorIndex
 90
      256
102
RTVSPost2010Prop51ColorRGB
 90
-16777216
102
RTVSPost2010PropOp51
 70
     0
102
RTVSPost2010Prop52
140
1.0
102
RTVSPost2010PropOp52
 70
     0
102
RTVSPost2010Prop53
 90
        2
102
RTVSPost2010PropOp53
 70
     1
102
RTVSPost2010Prop54
  1
strokes_ogs.tif
102
RTVSPost2010PropOp54
 70
     1
102
RTVSPost2010Prop55
280
     0
102
RTVSPost2010PropOp55
 70
     1
102
RTVSPost2010Prop56
140
1.0
102
RTVSPost2010PropOp56
 70
     1
102
RTVSPost2010Prop57
140
1.0
102
RTVSPost2010PropOp57
 70
     1
  0
XRECORD
  5
106ACF3
102
{ACAD_REACTORS
330
106ACF2
102
}
330
106ACF2
100
AcDbXrecord
280
     1
102
RTVSPropertyOp0
 70
     1
102
RTVSPropertyOp1
 70
     1
102
RTVSPropertyOp2
 70
     1
102
RTVSPropertyOp3
 70
     1
102
RTVSPropertyOp4
 70
     1
102
RTVSPropertyOp5
 70
     1
102
RTVSPropertyOp6
 70
     1
102
RTVSPropertyOp7
 70
     1
102
RTVSPropertyOp8
 70
     1
102
RTVSPropertyOp9
 70
     1
102
RTVSPropertyOp10
 70
     1
102
RTVSPropertyOp11
 70
     1
102
RTVSPropertyOp12
 70
     1
102
RTVSPropertyOp13
 70
     1
102
RTVSPropertyOp14
 70
     1
102
RTVSPropertyOp15
 70
     1
102
RTVSPropertyOp16
 70
     1
102
RTVSPropertyOp17
 70
     1
102
RTVSPropertyOp18
 70
     1
102
RTVSPropertyOp19
 70
     1
102
RTVSPropertyOp20
 70
     1
102
RTVSPropertyOp21
 70
     1
102
RTVSPropertyOp22
 70
     1
102
RTVSPropertyOp23
 70
     1
102
RTVSPropertyOp24
 70
     1
102
RTVSPropertyOp25
 70
     1
102
RTVSPropertyOp26
 70
     1
102
RTVSPropertyOp27
 70
     1
102
RTVSPropertyOp28
 70
     1
102
RTVSPropertyOp29
 70
     1
102
RTVSPropertyOp30
 70
     1
102
RTVSPropertyOp31
 70
     1
102
RTVSPropertyOp32
 70
     1
102
RTVSPropertyOp33
 70
     1
102
RTVSPropertyOp34
 70
     1
102
RTVSPropertyOp35
 70
     1
102
RTVSPropertyOp36
 70
     1
102
RTVSPropertyOp37
 70
     1
102
RTVSPropertyOp38
 70
     1
102
RTVSPropertyOp39
 70
     1
102
RTVSPropertyOp40
 70
     1
102
RTVSPropertyOp41
 70
     1
102
RTVSPropertyOp42
 70
     1
102
RTVSPropertyOp43
 70
     1
102
RTVSPropertyOp44
 70
     1
102
RTVSPropertyOp45
 70
     1
102
RTVSPropertyOp46
 70
     1
102
RTVSPropertyOp47
 70
     1
102
RTVSPropertyOp48
 70
     1
102
RTVSPropertyOp49
 70
     1
102
RTVSPropertyOp50
 70
     1
102
RTVSPropertyOp51
 70
     0
102
RTVSPropertyOp52
 70
     0
102
RTVSPropertyOp53
 70
     1
102
RTVSPropertyOp54
 70
     1
102
RTVSPropertyOp55
 70
     1
102
RTVSPropertyOp56
 70
     1
102
RTVSPropertyOp57
 70
     1
102
RTVSPost2010Prop28
280
     0
102
RTVSPost2010PropOp28
 70
     1
102
RTVSPost2010Prop29
280
     1
102
RTVSPost2010PropOp29
 70
     1
102
RTVSPost2010Prop30
280
     1
102
RTVSPost2010PropOp30
 70
     1
102
RTVSPost2010Prop31
280
     0
102
RTVSPost2010PropOp31
 70
     1
102
RTVSPost2010Prop32
280
     0
102
RTVSPost2010PropOp32
 70
     1
102
RTVSPost2010Prop33
280
     0
102
RTVSPost2010PropOp33
 70
     1
102
RTVSPost2010Prop34
280
     0
102
RTVSPost2010PropOp34
 70
     1
102
RTVSPost2010Prop35
280
     0
102
RTVSPost2010PropOp35
 70
     1
102
RTVSPost2010Prop36
280
     0
102
RTVSPost2010PropOp36
 70
     1
102
RTVSPost2010Prop37
 90
       50
102
RTVSPost2010PropOp37
 70
     1
102
RTVSPost2010Prop38
140
0.0
102
RTVSPost2010PropOp38
 70
     1
102
RTVSPost2010Prop39
140
1.0
102
RTVSPost2010PropOp39
 70
     1
102
RTVSPost2010Prop40
 90
        0
102
RTVSPost2010PropOp40
 70
     1
102
RTVSPost2010Prop41ColorIndex
 90
       18
102
RTVSPost2010Prop41ColorRGB
 90
        0
102
RTVSPost2010PropOp41
 70
     1
102
RTVSPost2010Prop42
 90
       50
102
RTVSPost2010PropOp42
 70
     1
102
RTVSPost2010Prop43
 90
        3
102
RTVSPost2010PropOp43
 70
     1
102
RTVSPost2010Prop44ColorIndex
 90
        5
102
RTVSPost2010Prop44ColorRGB
 90
      255
102
RTVSPost2010PropOp44
 70
     1
102
RTVSPost2010Prop45
280
     0
102
RTVSPost2010PropOp45
 70
     1
102
RTVSPost2010Prop46
 90
       50
102
RTVSPost2010PropOp46
 70
     1
102
RTVSPost2010Prop47
 90
       50
102
RTVSPost2010PropOp47
 70
     1
102
RTVSPost2010Prop48
 90
       50
102
RTVSPost2010PropOp48
 70
     1
102
RTVSPost2010Prop49
280
     0
102
RTVSPost2010PropOp49
 70
     1
102
RTVSPost2010Prop50
 90
       50
102
RTVSPost2010PropOp50
 70
     1
102
RTVSPost2010Prop51ColorIndex
 90
      256
102
RTVSPost2010Prop51ColorRGB
 90
-16777216
102
RTVSPost2010PropOp51
 70
     0
102
RTVSPost2010Prop52
140
1.0
102
RTVSPost2010PropOp52
 70
     0
102
RTVSPost2010Prop53
 90
        2
102
RTVSPost2010PropOp53
 70
     1
102
RTVSPost2010Prop54
  1
strokes_ogs.tif
102
RTVSPost2010PropOp54
 70
     1
102
RTVSPost2010Prop55
280
     0
102
RTVSPost2010PropOp55
 70
     1
102
RTVSPost2010Prop56
140
1.0
102
RTVSPost2010PropOp56
 70
     1
102
RTVSPost2010Prop57
140
1.0
102
RTVSPost2010PropOp57
 70
     1
  0
XRECORD
  5
106ACF5
102
{ACAD_REACTORS
330
106ACF4
102
}
330
106ACF4
100
AcDbXrecord
280
     1
102
RTVSPropertyOp0
 70
     1
102
RTVSPropertyOp1
 70
     1
102
RTVSPropertyOp2
 70
     1
102
RTVSPropertyOp3
 70
     1
102
RTVSPropertyOp4
 70
     1
102
RTVSPropertyOp5
 70
     1
102
RTVSPropertyOp6
 70
     1
102
RTVSPropertyOp7
 70
     1
102
RTVSPropertyOp8
 70
     1
102
RTVSPropertyOp9
 70
     1
102
RTVSPropertyOp10
 70
     1
102
RTVSPropertyOp11
 70
     1
102
RTVSPropertyOp12
 70
     1
102
RTVSPropertyOp13
 70
     1
102
RTVSPropertyOp14
 70
     1
102
RTVSPropertyOp15
 70
     1
102
RTVSPropertyOp16
 70
     1
102
RTVSPropertyOp17
 70
     1
102
RTVSPropertyOp18
 70
     1
102
RTVSPropertyOp19
 70
     1
102
RTVSPropertyOp20
 70
     1
102
RTVSPropertyOp21
 70
     1
102
RTVSPropertyOp22
 70
     1
102
RTVSPropertyOp23
 70
     1
102
RTVSPropertyOp24
 70
     1
102
RTVSPropertyOp25
 70
     1
102
RTVSPropertyOp26
 70
     1
102
RTVSPropertyOp27
 70
     1
102
RTVSPropertyOp28
 70
     1
102
RTVSPropertyOp29
 70
     1
102
RTVSPropertyOp30
 70
     1
102
RTVSPropertyOp31
 70
     1
102
RTVSPropertyOp32
 70
     1
102
RTVSPropertyOp33
 70
     1
102
RTVSPropertyOp34
 70
     1
102
RTVSPropertyOp35
 70
     1
102
RTVSPropertyOp36
 70
     1
102
RTVSPropertyOp37
 70
     1
102
RTVSPropertyOp38
 70
     1
102
RTVSPropertyOp39
 70
     1
102
RTVSPropertyOp40
 70
     1
102
RTVSPropertyOp41
 70
     1
102
RTVSPropertyOp42
 70
     1
102
RTVSPropertyOp43
 70
     1
102
RTVSPropertyOp44
 70
     1
102
RTVSPropertyOp45
 70
     1
102
RTVSPropertyOp46
 70
     1
102
RTVSPropertyOp47
 70
     1
102
RTVSPropertyOp48
 70
     1
102
RTVSPropertyOp49
 70
     1
102
RTVSPropertyOp50
 70
     1
102
RTVSPropertyOp51
 70
     0
102
RTVSPropertyOp52
 70
     0
102
RTVSPropertyOp53
 70
     1
102
RTVSPropertyOp54
 70
     1
102
RTVSPropertyOp55
 70
     1
102
RTVSPropertyOp56
 70
     1
102
RTVSPropertyOp57
 70
     1
102
RTVSPost2010Prop28
280
     0
102
RTVSPost2010PropOp28
 70
     1
102
RTVSPost2010Prop29
280
     1
102
RTVSPost2010PropOp29
 70
     1
102
RTVSPost2010Prop30
280
     1
102
RTVSPost2010PropOp30
 70
     1
102
RTVSPost2010Prop31
280
     0
102
RTVSPost2010PropOp31
 70
     1
102
RTVSPost2010Prop32
280
     0
102
RTVSPost2010PropOp32
 70
     1
102
RTVSPost2010Prop33
280
     0
102
RTVSPost2010PropOp33
 70
     1
102
RTVSPost2010Prop34
280
     0
102
RTVSPost2010PropOp34
 70
     1
102
RTVSPost2010Prop35
280
     0
102
RTVSPost2010PropOp35
 70
     1
102
RTVSPost2010Prop36
280
     0
102
RTVSPost2010PropOp36
 70
     1
102
RTVSPost2010Prop37
 90
       50
102
RTVSPost2010PropOp37
 70
     1
102
RTVSPost2010Prop38
140
0.0
102
RTVSPost2010PropOp38
 70
     1
102
RTVSPost2010Prop39
140
1.0
102
RTVSPost2010PropOp39
 70
     1
102
RTVSPost2010Prop40
 90
        0
102
RTVSPost2010PropOp40
 70
     1
102
RTVSPost2010Prop41ColorIndex
 90
       18
102
RTVSPost2010Prop41ColorRGB
 90
        0
102
RTVSPost2010PropOp41
 70
     1
102
RTVSPost2010Prop42
 90
       50
102
RTVSPost2010PropOp42
 70
     1
102
RTVSPost2010Prop43
 90
        3
102
RTVSPost2010PropOp43
 70
     1
102
RTVSPost2010Prop44ColorIndex
 90
        5
102
RTVSPost2010Prop44ColorRGB
 90
      255
102
RTVSPost2010PropOp44
 70
     1
102
RTVSPost2010Prop45
280
     0
102
RTVSPost2010PropOp45
 70
     1
102
RTVSPost2010Prop46
 90
       50
102
RTVSPost2010PropOp46
 70
     1
102
RTVSPost2010Prop47
 90
       50
102
RTVSPost2010PropOp47
 70
     1
102
RTVSPost2010Prop48
 90
       50
102
RTVSPost2010PropOp48
 70
     1
102
RTVSPost2010Prop49
280
     0
102
RTVSPost2010PropOp49
 70
     1
102
RTVSPost2010Prop50
 90
       50
102
RTVSPost2010PropOp50
 70
     1
102
RTVSPost2010Prop51ColorIndex
 90
      256
102
RTVSPost2010Prop51ColorRGB
 90
-16777216
102
RTVSPost2010PropOp51
 70
     0
102
RTVSPost2010Prop52
140
1.0
102
RTVSPost2010PropOp52
 70
     0
102
RTVSPost2010Prop53
 90
        2
102
RTVSPost2010PropOp53
 70
     1
102
RTVSPost2010Prop54
  1
strokes_ogs.tif
102
RTVSPost2010PropOp54
 70
     1
102
RTVSPost2010Prop55
280
     0
102
RTVSPost2010PropOp55
 70
     1
102
RTVSPost2010Prop56
140
1.0
102
RTVSPost2010PropOp56
 70
     1
102
RTVSPost2010Prop57
140
1.0
102
RTVSPost2010PropOp57
 70
     1
  0
XRECORD
  5
106ACF7
102
{ACAD_REACTORS
330
106ACF6
102
}
330
106ACF6
100
AcDbXrecord
280
     1
102
RTVSPropertyOp0
 70
     1
102
RTVSPropertyOp1
 70
     1
102
RTVSPropertyOp2
 70
     1
102
RTVSPropertyOp3
 70
     1
102
RTVSPropertyOp4
 70
     1
102
RTVSPropertyOp5
 70
     1
102
RTVSPropertyOp6
 70
     1
102
RTVSPropertyOp7
 70
     1
102
RTVSPropertyOp8
 70
     1
102
RTVSPropertyOp9
 70
     1
102
RTVSPropertyOp10
 70
     1
102
RTVSPropertyOp11
 70
     1
102
RTVSPropertyOp12
 70
     1
102
RTVSPropertyOp13
 70
     1
102
RTVSPropertyOp14
 70
     1
102
RTVSPropertyOp15
 70
     1
102
RTVSPropertyOp16
 70
     1
102
RTVSPropertyOp17
 70
     1
102
RTVSPropertyOp18
 70
     1
102
RTVSPropertyOp19
 70
     1
102
RTVSPropertyOp20
 70
     1
102
RTVSPropertyOp21
 70
     1
102
RTVSPropertyOp22
 70
     1
102
RTVSPropertyOp23
 70
     1
102
RTVSPropertyOp24
 70
     1
102
RTVSPropertyOp25
 70
     1
102
RTVSPropertyOp26
 70
     1
102
RTVSPropertyOp27
 70
     1
102
RTVSPropertyOp28
 70
     1
102
RTVSPropertyOp29
 70
     1
102
RTVSPropertyOp30
 70
     1
102
RTVSPropertyOp31
 70
     1
102
RTVSPropertyOp32
 70
     1
102
RTVSPropertyOp33
 70
     1
102
RTVSPropertyOp34
 70
     1
102
RTVSPropertyOp35
 70
     1
102
RTVSPropertyOp36
 70
     1
102
RTVSPropertyOp37
 70
     1
102
RTVSPropertyOp38
 70
     1
102
RTVSPropertyOp39
 70
     1
102
RTVSPropertyOp40
 70
     1
102
RTVSPropertyOp41
 70
     1
102
RTVSPropertyOp42
 70
     1
102
RTVSPropertyOp43
 70
     1
102
RTVSPropertyOp44
 70
     1
102
RTVSPropertyOp45
 70
     1
102
RTVSPropertyOp46
 70
     1
102
RTVSPropertyOp47
 70
     1
102
RTVSPropertyOp48
 70
     1
102
RTVSPropertyOp49
 70
     1
102
RTVSPropertyOp50
 70
     1
102
RTVSPropertyOp51
 70
     0
102
RTVSPropertyOp52
 70
     0
102
RTVSPropertyOp53
 70
     1
102
RTVSPropertyOp54
 70
     1
102
RTVSPropertyOp55
 70
     1
102
RTVSPropertyOp56
 70
     1
102
RTVSPropertyOp57
 70
     1
102
RTVSPost2010Prop28
280
     0
102
RTVSPost2010PropOp28
 70
     1
102
RTVSPost2010Prop29
280
     1
102
RTVSPost2010PropOp29
 70
     1
102
RTVSPost2010Prop30
280
     1
102
RTVSPost2010PropOp30
 70
     1
102
RTVSPost2010Prop31
280
     0
102
RTVSPost2010PropOp31
 70
     1
102
RTVSPost2010Prop32
280
     0
102
RTVSPost2010PropOp32
 70
     1
102
RTVSPost2010Prop33
280
     0
102
RTVSPost2010PropOp33
 70
     1
102
RTVSPost2010Prop34
280
     0
102
RTVSPost2010PropOp34
 70
     1
102
RTVSPost2010Prop35
280
     0
102
RTVSPost2010PropOp35
 70
     1
102
RTVSPost2010Prop36
280
     0
102
RTVSPost2010PropOp36
 70
     1
102
RTVSPost2010Prop37
 90
       50
102
RTVSPost2010PropOp37
 70
     1
102
RTVSPost2010Prop38
140
0.0
102
RTVSPost2010PropOp38
 70
     1
102
RTVSPost2010Prop39
140
1.0
102
RTVSPost2010PropOp39
 70
     1
102
RTVSPost2010Prop40
 90
        0
102
RTVSPost2010PropOp40
 70
     1
102
RTVSPost2010Prop41ColorIndex
 90
       18
102
RTVSPost2010Prop41ColorRGB
 90
        0
102
RTVSPost2010PropOp41
 70
     1
102
RTVSPost2010Prop42
 90
       50
102
RTVSPost2010PropOp42
 70
     1
102
RTVSPost2010Prop43
 90
        3
102
RTVSPost2010PropOp43
 70
     1
102
RTVSPost2010Prop44ColorIndex
 90
        5
102
RTVSPost2010Prop44ColorRGB
 90
      255
102
RTVSPost2010PropOp44
 70
     1
102
RTVSPost2010Prop45
280
     0
102
RTVSPost2010PropOp45
 70
     1
102
RTVSPost2010Prop46
 90
       50
102
RTVSPost2010PropOp46
 70
     1
102
RTVSPost2010Prop47
 90
       50
102
RTVSPost2010PropOp47
 70
     1
102
RTVSPost2010Prop48
 90
       50
102
RTVSPost2010PropOp48
 70
     1
102
RTVSPost2010Prop49
280
     0
102
RTVSPost2010PropOp49
 70
     1
102
RTVSPost2010Prop50
 90
       50
102
RTVSPost2010PropOp50
 70
     1
102
RTVSPost2010Prop51ColorIndex
 90
      256
102
RTVSPost2010Prop51ColorRGB
 90
-16777216
102
RTVSPost2010PropOp51
 70
     0
102
RTVSPost2010Prop52
140
1.0
102
RTVSPost2010PropOp52
 70
     0
102
RTVSPost2010Prop53
 90
        2
102
RTVSPost2010PropOp53
 70
     1
102
RTVSPost2010Prop54
  1
strokes_ogs.tif
102
RTVSPost2010PropOp54
 70
     1
102
RTVSPost2010Prop55
280
     0
102
RTVSPost2010PropOp55
 70
     1
102
RTVSPost2010Prop56
140
1.0
102
RTVSPost2010PropOp56
 70
     1
102
RTVSPost2010Prop57
140
1.0
102
RTVSPost2010PropOp57
 70
     1
  0
XRECORD
  5
106ACF9
102
{ACAD_REACTORS
330
106ACF8
102
}
330
106ACF8
100
AcDbXrecord
280
     1
102
RTVSPropertyOp0
 70
     1
102
RTVSPropertyOp1
 70
     1
102
RTVSPropertyOp2
 70
     1
102
RTVSPropertyOp3
 70
     1
102
RTVSPropertyOp4
 70
     1
102
RTVSPropertyOp5
 70
     1
102
RTVSPropertyOp6
 70
     1
102
RTVSPropertyOp7
 70
     1
102
RTVSPropertyOp8
 70
     1
102
RTVSPropertyOp9
 70
     1
102
RTVSPropertyOp10
 70
     1
102
RTVSPropertyOp11
 70
     1
102
RTVSPropertyOp12
 70
     1
102
RTVSPropertyOp13
 70
     1
102
RTVSPropertyOp14
 70
     1
102
RTVSPropertyOp15
 70
     1
102
RTVSPropertyOp16
 70
     1
102
RTVSPropertyOp17
 70
     1
102
RTVSPropertyOp18
 70
     1
102
RTVSPropertyOp19
 70
     1
102
RTVSPropertyOp20
 70
     1
102
RTVSPropertyOp21
 70
     1
102
RTVSPropertyOp22
 70
     1
102
RTVSPropertyOp23
 70
     1
102
RTVSPropertyOp24
 70
     1
102
RTVSPropertyOp25
 70
     1
102
RTVSPropertyOp26
 70
     1
102
RTVSPropertyOp27
 70
     1
102
RTVSPropertyOp28
 70
     1
102
RTVSPropertyOp29
 70
     1
102
RTVSPropertyOp30
 70
     1
102
RTVSPropertyOp31
 70
     1
102
RTVSPropertyOp32
 70
     1
102
RTVSPropertyOp33
 70
     1
102
RTVSPropertyOp34
 70
     1
102
RTVSPropertyOp35
 70
     1
102
RTVSPropertyOp36
 70
     1
102
RTVSPropertyOp37
 70
     1
102
RTVSPropertyOp38
 70
     1
102
RTVSPropertyOp39
 70
     1
102
RTVSPropertyOp40
 70
     1
102
RTVSPropertyOp41
 70
     1
102
RTVSPropertyOp42
 70
     1
102
RTVSPropertyOp43
 70
     1
102
RTVSPropertyOp44
 70
     1
102
RTVSPropertyOp45
 70
     1
102
RTVSPropertyOp46
 70
     1
102
RTVSPropertyOp47
 70
     1
102
RTVSPropertyOp48
 70
     1
102
RTVSPropertyOp49
 70
     1
102
RTVSPropertyOp50
 70
     1
102
RTVSPropertyOp51
 70
     0
102
RTVSPropertyOp52
 70
     0
102
RTVSPropertyOp53
 70
     1
102
RTVSPropertyOp54
 70
     1
102
RTVSPropertyOp55
 70
     1
102
RTVSPropertyOp56
 70
     1
102
RTVSPropertyOp57
 70
     1
102
RTVSPost2010Prop28
280
     0
102
RTVSPost2010PropOp28
 70
     1
102
RTVSPost2010Prop29
280
     1
102
RTVSPost2010PropOp29
 70
     1
102
RTVSPost2010Prop30
280
     1
102
RTVSPost2010PropOp30
 70
     1
102
RTVSPost2010Prop31
280
     0
102
RTVSPost2010PropOp31
 70
     1
102
RTVSPost2010Prop32
280
     0
102
RTVSPost2010PropOp32
 70
     1
102
RTVSPost2010Prop33
280
     0
102
RTVSPost2010PropOp33
 70
     1
102
RTVSPost2010Prop34
280
     0
102
RTVSPost2010PropOp34
 70
     1
102
RTVSPost2010Prop35
280
     0
102
RTVSPost2010PropOp35
 70
     1
102
RTVSPost2010Prop36
280
     0
102
RTVSPost2010PropOp36
 70
     1
102
RTVSPost2010Prop37
 90
       50
102
RTVSPost2010PropOp37
 70
     1
102
RTVSPost2010Prop38
140
0.0
102
RTVSPost2010PropOp38
 70
     1
102
RTVSPost2010Prop39
140
1.0
102
RTVSPost2010PropOp39
 70
     1
102
RTVSPost2010Prop40
 90
        0
102
RTVSPost2010PropOp40
 70
     1
102
RTVSPost2010Prop41ColorIndex
 90
       18
102
RTVSPost2010Prop41ColorRGB
 90
        0
102
RTVSPost2010PropOp41
 70
     1
102
RTVSPost2010Prop42
 90
       50
102
RTVSPost2010PropOp42
 70
     1
102
RTVSPost2010Prop43
 90
        3
102
RTVSPost2010PropOp43
 70
     1
102
RTVSPost2010Prop44ColorIndex
 90
        5
102
RTVSPost2010Prop44ColorRGB
 90
      255
102
RTVSPost2010PropOp44
 70
     1
102
RTVSPost2010Prop45
280
     0
102
RTVSPost2010PropOp45
 70
     1
102
RTVSPost2010Prop46
 90
       50
102
RTVSPost2010PropOp46
 70
     1
102
RTVSPost2010Prop47
 90
       50
102
RTVSPost2010PropOp47
 70
     1
102
RTVSPost2010Prop48
 90
       50
102
RTVSPost2010PropOp48
 70
     1
102
RTVSPost2010Prop49
280
     0
102
RTVSPost2010PropOp49
 70
     1
102
RTVSPost2010Prop50
 90
       50
102
RTVSPost2010PropOp50
 70
     1
102
RTVSPost2010Prop51ColorIndex
 90
      256
102
RTVSPost2010Prop51ColorRGB
 90
-16777216
102
RTVSPost2010PropOp51
 70
     0
102
RTVSPost2010Prop52
140
1.0
102
RTVSPost2010PropOp52
 70
     0
102
RTVSPost2010Prop53
 90
        2
102
RTVSPost2010PropOp53
 70
     1
102
RTVSPost2010Prop54
  1
strokes_ogs.tif
102
RTVSPost2010PropOp54
 70
     1
102
RTVSPost2010Prop55
280
     0
102
RTVSPost2010PropOp55
 70
     1
102
RTVSPost2010Prop56
140
1.0
102
RTVSPost2010PropOp56
 70
     1
102
RTVSPost2010Prop57
140
1.0
102
RTVSPost2010PropOp57
 70
     1
  0
XRECORD
  5
106ACFF
102
{ACAD_REACTORS
330
106ACFE
102
}
330
106ACFE
100
AcDbXrecord
280
     1
102
RTVSPropertyOp0
 70
     1
102
RTVSPropertyOp1
 70
     1
102
RTVSPropertyOp2
 70
     1
102
RTVSPropertyOp3
 70
     1
102
RTVSPropertyOp4
 70
     1
102
RTVSPropertyOp5
 70
     1
102
RTVSPropertyOp6
 70
     1
102
RTVSPropertyOp7
 70
     1
102
RTVSPropertyOp8
 70
     1
102
RTVSPropertyOp9
 70
     1
102
RTVSPropertyOp10
 70
     1
102
RTVSPropertyOp11
 70
     1
102
RTVSPropertyOp12
 70
     1
102
RTVSPropertyOp13
 70
     1
102
RTVSPropertyOp14
 70
     1
102
RTVSPropertyOp15
 70
     1
102
RTVSPropertyOp16
 70
     1
102
RTVSPropertyOp17
 70
     1
102
RTVSPropertyOp18
 70
     1
102
RTVSPropertyOp19
 70
     1
102
RTVSPropertyOp20
 70
     1
102
RTVSPropertyOp21
 70
     1
102
RTVSPropertyOp22
 70
     1
102
RTVSPropertyOp23
 70
     1
102
RTVSPropertyOp24
 70
     1
102
RTVSPropertyOp25
 70
     1
102
RTVSPropertyOp26
 70
     1
102
RTVSPropertyOp27
 70
     1
102
RTVSPropertyOp28
 70
     1
102
RTVSPropertyOp29
 70
     1
102
RTVSPropertyOp30
 70
     1
102
RTVSPropertyOp31
 70
     1
102
RTVSPropertyOp32
 70
     1
102
RTVSPropertyOp33
 70
     1
102
RTVSPropertyOp34
 70
     1
102
RTVSPropertyOp35
 70
     1
102
RTVSPropertyOp36
 70
     1
102
RTVSPropertyOp37
 70
     1
102
RTVSPropertyOp38
 70
     1
102
RTVSPropertyOp39
 70
     1
102
RTVSPropertyOp40
 70
     1
102
RTVSPropertyOp41
 70
     1
102
RTVSPropertyOp42
 70
     1
102
RTVSPropertyOp43
 70
     1
102
RTVSPropertyOp44
 70
     1
102
RTVSPropertyOp45
 70
     1
102
RTVSPropertyOp46
 70
     1
102
RTVSPropertyOp47
 70
     1
102
RTVSPropertyOp48
 70
     1
102
RTVSPropertyOp49
 70
     1
102
RTVSPropertyOp50
 70
     1
102
RTVSPropertyOp51
 70
     0
102
RTVSPropertyOp52
 70
     0
102
RTVSPropertyOp53
 70
     1
102
RTVSPropertyOp54
 70
     1
102
RTVSPropertyOp55
 70
     1
102
RTVSPropertyOp56
 70
     1
102
RTVSPropertyOp57
 70
     1
102
RTVSPost2010Prop28
280
     0
102
RTVSPost2010PropOp28
 70
     1
102
RTVSPost2010Prop29
280
     1
102
RTVSPost2010PropOp29
 70
     1
102
RTVSPost2010Prop30
280
     1
102
RTVSPost2010PropOp30
 70
     1
102
RTVSPost2010Prop31
280
     0
102
RTVSPost2010PropOp31
 70
     1
102
RTVSPost2010Prop32
280
     0
102
RTVSPost2010PropOp32
 70
     1
102
RTVSPost2010Prop33
280
     0
102
RTVSPost2010PropOp33
 70
     1
102
RTVSPost2010Prop34
280
     0
102
RTVSPost2010PropOp34
 70
     1
102
RTVSPost2010Prop35
280
     0
102
RTVSPost2010PropOp35
 70
     1
102
RTVSPost2010Prop36
280
     0
102
RTVSPost2010PropOp36
 70
     1
102
RTVSPost2010Prop37
 90
       50
102
RTVSPost2010PropOp37
 70
     1
102
RTVSPost2010Prop38
140
0.0
102
RTVSPost2010PropOp38
 70
     1
102
RTVSPost2010Prop39
140
1.0
102
RTVSPost2010PropOp39
 70
     1
102
RTVSPost2010Prop40
 90
        0
102
RTVSPost2010PropOp40
 70
     1
102
RTVSPost2010Prop41ColorIndex
 90
       18
102
RTVSPost2010Prop41ColorRGB
 90
        0
102
RTVSPost2010PropOp41
 70
     1
102
RTVSPost2010Prop42
 90
       50
102
RTVSPost2010PropOp42
 70
     1
102
RTVSPost2010Prop43
 90
        3
102
RTVSPost2010PropOp43
 70
     1
102
RTVSPost2010Prop44ColorIndex
 90
        5
102
RTVSPost2010Prop44ColorRGB
 90
      255
102
RTVSPost2010PropOp44
 70
     1
102
RTVSPost2010Prop45
280
     0
102
RTVSPost2010PropOp45
 70
     1
102
RTVSPost2010Prop46
 90
       50
102
RTVSPost2010PropOp46
 70
     1
102
RTVSPost2010Prop47
 90
       50
102
RTVSPost2010PropOp47
 70
     1
102
RTVSPost2010Prop48
 90
       50
102
RTVSPost2010PropOp48
 70
     1
102
RTVSPost2010Prop49
280
     0
102
RTVSPost2010PropOp49
 70
     1
102
RTVSPost2010Prop50
 90
       50
102
RTVSPost2010PropOp50
 70
     1
102
RTVSPost2010Prop51ColorIndex
 90
      256
102
RTVSPost2010Prop51ColorRGB
 90
-16777216
102
RTVSPost2010PropOp51
 70
     0
102
RTVSPost2010Prop52
140
1.0
102
RTVSPost2010PropOp52
 70
     0
102
RTVSPost2010Prop53
 90
        2
102
RTVSPost2010PropOp53
 70
     1
102
RTVSPost2010Prop54
  1
strokes_ogs.tif
102
RTVSPost2010PropOp54
 70
     1
102
RTVSPost2010Prop55
280
     0
102
RTVSPost2010PropOp55
 70
     1
102
RTVSPost2010Prop56
140
1.0
102
RTVSPost2010PropOp56
 70
     1
102
RTVSPost2010Prop57
140
1.0
102
RTVSPost2010PropOp57
 70
     1
  0
XRECORD
  5
106AD13
102
{ACAD_REACTORS
330
106AD12
102
}
330
106AD12
100
AcDbXrecord
280
     1
102
RTVSPropertyOp0
 70
     0
102
RTVSPropertyOp1
 70
     0
102
RTVSPropertyOp2
 70
     0
102
RTVSPropertyOp3
 70
     0
102
RTVSPropertyOp4
 70
     0
102
RTVSPropertyOp5
 70
     0
102
RTVSPropertyOp6
 70
     0
102
RTVSPropertyOp7
 70
     0
102
RTVSPropertyOp8
 70
     0
102
RTVSPropertyOp9
 70
     0
102
RTVSPropertyOp10
 70
     0
102
RTVSPropertyOp11
 70
     0
102
RTVSPropertyOp12
 70
     0
102
RTVSPropertyOp13
 70
     0
102
RTVSPropertyOp14
 70
     2
102
RTVSPropertyOp15
 70
     0
102
RTVSPropertyOp16
 70
     0
102
RTVSPropertyOp17
 70
     0
102
RTVSPropertyOp18
 70
     0
102
RTVSPropertyOp19
 70
     0
102
RTVSPropertyOp20
 70
     0
102
RTVSPropertyOp21
 70
     0
102
RTVSPropertyOp22
 70
     0
102
RTVSPropertyOp23
 70
     0
102
RTVSPropertyOp24
 70
     0
102
RTVSPropertyOp25
 70
     0
102
RTVSPropertyOp26
 70
     0
102
RTVSPropertyOp27
 70
     0
102
RTVSPropertyOp28
 70
     0
102
RTVSPropertyOp29
 70
     0
102
RTVSPropertyOp30
 70
     0
102
RTVSPropertyOp31
 70
     0
102
RTVSPropertyOp32
 70
     0
102
RTVSPropertyOp33
 70
     0
102
RTVSPropertyOp34
 70
     0
102
RTVSPropertyOp35
 70
     0
102
RTVSPropertyOp36
 70
     0
102
RTVSPropertyOp37
 70
     0
102
RTVSPropertyOp38
 70
     0
102
RTVSPropertyOp39
 70
     0
102
RTVSPropertyOp40
 70
     0
102
RTVSPropertyOp41
 70
     0
102
RTVSPropertyOp42
 70
     0
102
RTVSPropertyOp43
 70
     0
102
RTVSPropertyOp44
 70
     0
102
RTVSPropertyOp45
 70
     0
102
RTVSPropertyOp46
 70
     0
102
RTVSPropertyOp47
 70
     0
102
RTVSPropertyOp48
 70
     0
102
RTVSPropertyOp49
 70
     0
102
RTVSPropertyOp50
 70
     0
102
RTVSPropertyOp51
 70
     0
102
RTVSPropertyOp52
 70
     0
102
RTVSPropertyOp53
 70
     0
102
RTVSPropertyOp54
 70
     0
102
RTVSPropertyOp55
 70
     0
102
RTVSPropertyOp56
 70
     0
102
RTVSPropertyOp57
 70
     0
102
RTVSPost2010Prop28
280
     0
102
RTVSPost2010PropOp28
 70
     0
102
RTVSPost2010Prop29
280
     1
102
RTVSPost2010PropOp29
 70
     0
102
RTVSPost2010Prop30
280
     1
102
RTVSPost2010PropOp30
 70
     0
102
RTVSPost2010Prop31
280
     0
102
RTVSPost2010PropOp31
 70
     0
102
RTVSPost2010Prop32
280
     0
102
RTVSPost2010PropOp32
 70
     0
102
RTVSPost2010Prop33
280
     0
102
RTVSPost2010PropOp33
 70
     0
102
RTVSPost2010Prop34
280
     0
102
RTVSPost2010PropOp34
 70
     0
102
RTVSPost2010Prop35
280
     0
102
RTVSPost2010PropOp35
 70
     0
102
RTVSPost2010Prop36
280
     0
102
RTVSPost2010PropOp36
 70
     0
102
RTVSPost2010Prop37
 90
       50
102
RTVSPost2010PropOp37
 70
     0
102
RTVSPost2010Prop38
140
0.0
102
RTVSPost2010PropOp38
 70
     0
102
RTVSPost2010Prop39
140
1.0
102
RTVSPost2010PropOp39
 70
     0
102
RTVSPost2010Prop40
 90
        0
102
RTVSPost2010PropOp40
 70
     0
102
RTVSPost2010Prop41ColorIndex
 90
       18
102
RTVSPost2010Prop41ColorRGB
 90
        0
102
RTVSPost2010PropOp41
 70
     0
102
RTVSPost2010Prop42
 90
       50
102
RTVSPost2010PropOp42
 70
     0
102
RTVSPost2010Prop43
 90
        3
102
RTVSPost2010PropOp43
 70
     0
102
RTVSPost2010Prop44ColorIndex
 90
        5
102
RTVSPost2010Prop44ColorRGB
 90
      255
102
RTVSPost2010PropOp44
 70
     0
102
RTVSPost2010Prop45
280
     0
102
RTVSPost2010PropOp45
 70
     0
102
RTVSPost2010Prop46
 90
       50
102
RTVSPost2010PropOp46
 70
     0
102
RTVSPost2010Prop47
 90
       50
102
RTVSPost2010PropOp47
 70
     0
102
RTVSPost2010Prop48
 90
       50
102
RTVSPost2010PropOp48
 70
     0
102
RTVSPost2010Prop49
280
     0
102
RTVSPost2010PropOp49
 70
     0
102
RTVSPost2010Prop50
 90
       50
102
RTVSPost2010PropOp50
 70
     0
102
RTVSPost2010Prop51ColorIndex
 90
      256
102
RTVSPost2010Prop51ColorRGB
 90
-16777216
102
RTVSPost2010PropOp51
 70
     0
102
RTVSPost2010Prop52
140
1.0
102
RTVSPost2010PropOp52
 70
     0
102
RTVSPost2010Prop53
 90
        2
102
RTVSPost2010PropOp53
 70
     0
102
RTVSPost2010Prop54
  1
strokes_ogs.tif
102
RTVSPost2010PropOp54
 70
     0
102
RTVSPost2010Prop55
280
     0
102
RTVSPost2010PropOp55
 70
     0
102
RTVSPost2010Prop56
140
1.0
102
RTVSPost2010PropOp56
 70
     0
102
RTVSPost2010Prop57
140
1.0
102
RTVSPost2010PropOp57
 70
     0
  0
XRECORD
  5
106AD0D
102
{ACAD_REACTORS
330
106AD0C
102
}
330
106AD0C
100
AcDbXrecord
280
     1
102
RTVSPropertyOp0
 70
     1
102
RTVSPropertyOp1
 70
     1
102
RTVSPropertyOp2
 70
     1
102
RTVSPropertyOp3
 70
     1
102
RTVSPropertyOp4
 70
     1
102
RTVSPropertyOp5
 70
     1
102
RTVSPropertyOp6
 70
     1
102
RTVSPropertyOp7
 70
     1
102
RTVSPropertyOp8
 70
     1
102
RTVSPropertyOp9
 70
     1
102
RTVSPropertyOp10
 70
     1
102
RTVSPropertyOp11
 70
     1
102
RTVSPropertyOp12
 70
     1
102
RTVSPropertyOp13
 70
     1
102
RTVSPropertyOp14
 70
     1
102
RTVSPropertyOp15
 70
     1
102
RTVSPropertyOp16
 70
     1
102
RTVSPropertyOp17
 70
     1
102
RTVSPropertyOp18
 70
     1
102
RTVSPropertyOp19
 70
     1
102
RTVSPropertyOp20
 70
     1
102
RTVSPropertyOp21
 70
     1
102
RTVSPropertyOp22
 70
     1
102
RTVSPropertyOp23
 70
     1
102
RTVSPropertyOp24
 70
     1
102
RTVSPropertyOp25
 70
     1
102
RTVSPropertyOp26
 70
     1
102
RTVSPropertyOp27
 70
     1
102
RTVSPropertyOp28
 70
     1
102
RTVSPropertyOp29
 70
     1
102
RTVSPropertyOp30
 70
     1
102
RTVSPropertyOp31
 70
     1
102
RTVSPropertyOp32
 70
     1
102
RTVSPropertyOp33
 70
     1
102
RTVSPropertyOp34
 70
     1
102
RTVSPropertyOp35
 70
     1
102
RTVSPropertyOp36
 70
     1
102
RTVSPropertyOp37
 70
     1
102
RTVSPropertyOp38
 70
     1
102
RTVSPropertyOp39
 70
     1
102
RTVSPropertyOp40
 70
     1
102
RTVSPropertyOp41
 70
     1
102
RTVSPropertyOp42
 70
     1
102
RTVSPropertyOp43
 70
     1
102
RTVSPropertyOp44
 70
     1
102
RTVSPropertyOp45
 70
     1
102
RTVSPropertyOp46
 70
     1
102
RTVSPropertyOp47
 70
     1
102
RTVSPropertyOp48
 70
     1
102
RTVSPropertyOp49
 70
     1
102
RTVSPropertyOp50
 70
     1
102
RTVSPropertyOp51
 70
     0
102
RTVSPropertyOp52
 70
     0
102
RTVSPropertyOp53
 70
     1
102
RTVSPropertyOp54
 70
     1
102
RTVSPropertyOp55
 70
     1
102
RTVSPropertyOp56
 70
     1
102
RTVSPropertyOp57
 70
     1
102
RTVSPost2010Prop28
280
     0
102
RTVSPost2010PropOp28
 70
     1
102
RTVSPost2010Prop29
280
     1
102
RTVSPost2010PropOp29
 70
     1
102
RTVSPost2010Prop30
280
     1
102
RTVSPost2010PropOp30
 70
     1
102
RTVSPost2010Prop31
280
     0
102
RTVSPost2010PropOp31
 70
     1
102
RTVSPost2010Prop32
280
     0
102
RTVSPost2010PropOp32
 70
     1
102
RTVSPost2010Prop33
280
     0
102
RTVSPost2010PropOp33
 70
     1
102
RTVSPost2010Prop34
280
     0
102
RTVSPost2010PropOp34
 70
     1
102
RTVSPost2010Prop35
280
     0
102
RTVSPost2010PropOp35
 70
     1
102
RTVSPost2010Prop36
280
     0
102
RTVSPost2010PropOp36
 70
     1
102
RTVSPost2010Prop37
 90
       50
102
RTVSPost2010PropOp37
 70
     1
102
RTVSPost2010Prop38
140
0.0
102
RTVSPost2010PropOp38
 70
     1
102
RTVSPost2010Prop39
140
1.0
102
RTVSPost2010PropOp39
 70
     1
102
RTVSPost2010Prop40
 90
        0
102
RTVSPost2010PropOp40
 70
     1
102
RTVSPost2010Prop41ColorIndex
 90
       18
102
RTVSPost2010Prop41ColorRGB
 90
        0
102
RTVSPost2010PropOp41
 70
     1
102
RTVSPost2010Prop42
 90
       50
102
RTVSPost2010PropOp42
 70
     1
102
RTVSPost2010Prop43
 90
        3
102
RTVSPost2010PropOp43
 70
     1
102
RTVSPost2010Prop44ColorIndex
 90
        5
102
RTVSPost2010Prop44ColorRGB
 90
      255
102
RTVSPost2010PropOp44
 70
     1
102
RTVSPost2010Prop45
280
     0
102
RTVSPost2010PropOp45
 70
     1
102
RTVSPost2010Prop46
 90
       50
102
RTVSPost2010PropOp46
 70
     1
102
RTVSPost2010Prop47
 90
       50
102
RTVSPost2010PropOp47
 70
     1
102
RTVSPost2010Prop48
 90
       50
102
RTVSPost2010PropOp48
 70
     1
102
RTVSPost2010Prop49
280
     0
102
RTVSPost2010PropOp49
 70
     1
102
RTVSPost2010Prop50
 90
       50
102
RTVSPost2010PropOp50
 70
     1
102
RTVSPost2010Prop51ColorIndex
 90
      256
102
RTVSPost2010Prop51ColorRGB
 90
-16777216
102
RTVSPost2010PropOp51
 70
     0
102
RTVSPost2010Prop52
140
1.0
102
RTVSPost2010PropOp52
 70
     0
102
RTVSPost2010Prop53
 90
        2
102
RTVSPost2010PropOp53
 70
     1
102
RTVSPost2010Prop54
  1
strokes_ogs.tif
102
RTVSPost2010PropOp54
 70
     1
102
RTVSPost2010Prop55
280
     0
102
RTVSPost2010PropOp55
 70
     1
102
RTVSPost2010Prop56
140
1.0
102
RTVSPost2010PropOp56
 70
     1
102
RTVSPost2010Prop57
140
1.0
102
RTVSPost2010PropOp57
 70
     1
  0
XRECORD
  5
106AD15
102
{ACAD_REACTORS
330
106AD14
102
}
330
106AD14
100
AcDbXrecord
280
     1
102
RTVSPropertyOp0
 70
     0
102
RTVSPropertyOp1
 70
     0
102
RTVSPropertyOp2
 70
     0
102
RTVSPropertyOp3
 70
     0
102
RTVSPropertyOp4
 70
     0
102
RTVSPropertyOp5
 70
     0
102
RTVSPropertyOp6
 70
     0
102
RTVSPropertyOp7
 70
     0
102
RTVSPropertyOp8
 70
     0
102
RTVSPropertyOp9
 70
     0
102
RTVSPropertyOp10
 70
     0
102
RTVSPropertyOp11
 70
     0
102
RTVSPropertyOp12
 70
     0
102
RTVSPropertyOp13
 70
     0
102
RTVSPropertyOp14
 70
     2
102
RTVSPropertyOp15
 70
     0
102
RTVSPropertyOp16
 70
     0
102
RTVSPropertyOp17
 70
     0
102
RTVSPropertyOp18
 70
     0
102
RTVSPropertyOp19
 70
     0
102
RTVSPropertyOp20
 70
     0
102
RTVSPropertyOp21
 70
     0
102
RTVSPropertyOp22
 70
     0
102
RTVSPropertyOp23
 70
     0
102
RTVSPropertyOp24
 70
     0
102
RTVSPropertyOp25
 70
     0
102
RTVSPropertyOp26
 70
     0
102
RTVSPropertyOp27
 70
     0
102
RTVSPropertyOp28
 70
     0
102
RTVSPropertyOp29
 70
     0
102
RTVSPropertyOp30
 70
     0
102
RTVSPropertyOp31
 70
     0
102
RTVSPropertyOp32
 70
     0
102
RTVSPropertyOp33
 70
     0
102
RTVSPropertyOp34
 70
     0
102
RTVSPropertyOp35
 70
     0
102
RTVSPropertyOp36
 70
     0
102
RTVSPropertyOp37
 70
     0
102
RTVSPropertyOp38
 70
     0
102
RTVSPropertyOp39
 70
     0
102
RTVSPropertyOp40
 70
     0
102
RTVSPropertyOp41
 70
     0
102
RTVSPropertyOp42
 70
     0
102
RTVSPropertyOp43
 70
     0
102
RTVSPropertyOp44
 70
     0
102
RTVSPropertyOp45
 70
     0
102
RTVSPropertyOp46
 70
     0
102
RTVSPropertyOp47
 70
     0
102
RTVSPropertyOp48
 70
     0
102
RTVSPropertyOp49
 70
     0
102
RTVSPropertyOp50
 70
     0
102
RTVSPropertyOp51
 70
     0
102
RTVSPropertyOp52
 70
     0
102
RTVSPropertyOp53
 70
     0
102
RTVSPropertyOp54
 70
     0
102
RTVSPropertyOp55
 70
     0
102
RTVSPropertyOp56
 70
     0
102
RTVSPropertyOp57
 70
     0
102
RTVSPost2010Prop28
280
     0
102
RTVSPost2010PropOp28
 70
     0
102
RTVSPost2010Prop29
280
     1
102
RTVSPost2010PropOp29
 70
     0
102
RTVSPost2010Prop30
280
     1
102
RTVSPost2010PropOp30
 70
     0
102
RTVSPost2010Prop31
280
     0
102
RTVSPost2010PropOp31
 70
     0
102
RTVSPost2010Prop32
280
     0
102
RTVSPost2010PropOp32
 70
     0
102
RTVSPost2010Prop33
280
     0
102
RTVSPost2010PropOp33
 70
     0
102
RTVSPost2010Prop34
280
     0
102
RTVSPost2010PropOp34
 70
     0
102
RTVSPost2010Prop35
280
     0
102
RTVSPost2010PropOp35
 70
     0
102
RTVSPost2010Prop36
280
     0
102
RTVSPost2010PropOp36
 70
     0
102
RTVSPost2010Prop37
 90
       50
102
RTVSPost2010PropOp37
 70
     0
102
RTVSPost2010Prop38
140
0.0
102
RTVSPost2010PropOp38
 70
     0
102
RTVSPost2010Prop39
140
1.0
102
RTVSPost2010PropOp39
 70
     0
102
RTVSPost2010Prop40
 90
        0
102
RTVSPost2010PropOp40
 70
     0
102
RTVSPost2010Prop41ColorIndex
 90
       18
102
RTVSPost2010Prop41ColorRGB
 90
        0
102
RTVSPost2010PropOp41
 70
     0
102
RTVSPost2010Prop42
 90
       50
102
RTVSPost2010PropOp42
 70
     0
102
RTVSPost2010Prop43
 90
        3
102
RTVSPost2010PropOp43
 70
     0
102
RTVSPost2010Prop44ColorIndex
 90
        5
102
RTVSPost2010Prop44ColorRGB
 90
      255
102
RTVSPost2010PropOp44
 70
     0
102
RTVSPost2010Prop45
280
     0
102
RTVSPost2010PropOp45
 70
     0
102
RTVSPost2010Prop46
 90
       50
102
RTVSPost2010PropOp46
 70
     0
102
RTVSPost2010Prop47
 90
       50
102
RTVSPost2010PropOp47
 70
     0
102
RTVSPost2010Prop48
 90
       50
102
RTVSPost2010PropOp48
 70
     0
102
RTVSPost2010Prop49
280
     0
102
RTVSPost2010PropOp49
 70
     0
102
RTVSPost2010Prop50
 90
       50
102
RTVSPost2010PropOp50
 70
     0
102
RTVSPost2010Prop51ColorIndex
 90
      256
102
RTVSPost2010Prop51ColorRGB
 90
-16777216
102
RTVSPost2010PropOp51
 70
     0
102
RTVSPost2010Prop52
140
1.0
102
RTVSPost2010PropOp52
 70
     0
102
RTVSPost2010Prop53
 90
        2
102
RTVSPost2010PropOp53
 70
     0
102
RTVSPost2010Prop54
  1
strokes_ogs.tif
102
RTVSPost2010PropOp54
 70
     0
102
RTVSPost2010Prop55
280
     0
102
RTVSPost2010PropOp55
 70
     0
102
RTVSPost2010Prop56
140
1.0
102
RTVSPost2010PropOp56
 70
     0
102
RTVSPost2010Prop57
140
1.0
102
RTVSPost2010PropOp57
 70
     0
  0
XRECORD
  5
106AD03
102
{ACAD_REACTORS
330
106AD02
102
}
330
106AD02
100
AcDbXrecord
280
     1
102
RTVSPropertyOp0
 70
     1
102
RTVSPropertyOp1
 70
     1
102
RTVSPropertyOp2
 70
     1
102
RTVSPropertyOp3
 70
     1
102
RTVSPropertyOp4
 70
     1
102
RTVSPropertyOp5
 70
     1
102
RTVSPropertyOp6
 70
     1
102
RTVSPropertyOp7
 70
     1
102
RTVSPropertyOp8
 70
     1
102
RTVSPropertyOp9
 70
     1
102
RTVSPropertyOp10
 70
     1
102
RTVSPropertyOp11
 70
     1
102
RTVSPropertyOp12
 70
     1
102
RTVSPropertyOp13
 70
     1
102
RTVSPropertyOp14
 70
     1
102
RTVSPropertyOp15
 70
     1
102
RTVSPropertyOp16
 70
     1
102
RTVSPropertyOp17
 70
     1
102
RTVSPropertyOp18
 70
     1
102
RTVSPropertyOp19
 70
     1
102
RTVSPropertyOp20
 70
     1
102
RTVSPropertyOp21
 70
     1
102
RTVSPropertyOp22
 70
     1
102
RTVSPropertyOp23
 70
     1
102
RTVSPropertyOp24
 70
     1
102
RTVSPropertyOp25
 70
     1
102
RTVSPropertyOp26
 70
     1
102
RTVSPropertyOp27
 70
     1
102
RTVSPropertyOp28
 70
     1
102
RTVSPropertyOp29
 70
     1
102
RTVSPropertyOp30
 70
     1
102
RTVSPropertyOp31
 70
     1
102
RTVSPropertyOp32
 70
     1
102
RTVSPropertyOp33
 70
     1
102
RTVSPropertyOp34
 70
     1
102
RTVSPropertyOp35
 70
     1
102
RTVSPropertyOp36
 70
     1
102
RTVSPropertyOp37
 70
     1
102
RTVSPropertyOp38
 70
     1
102
RTVSPropertyOp39
 70
     1
102
RTVSPropertyOp40
 70
     1
102
RTVSPropertyOp41
 70
     1
102
RTVSPropertyOp42
 70
     1
102
RTVSPropertyOp43
 70
     1
102
RTVSPropertyOp44
 70
     1
102
RTVSPropertyOp45
 70
     1
102
RTVSPropertyOp46
 70
     1
102
RTVSPropertyOp47
 70
     1
102
RTVSPropertyOp48
 70
     1
102
RTVSPropertyOp49
 70
     1
102
RTVSPropertyOp50
 70
     1
102
RTVSPropertyOp51
 70
     0
102
RTVSPropertyOp52
 70
     0
102
RTVSPropertyOp53
 70
     1
102
RTVSPropertyOp54
 70
     1
102
RTVSPropertyOp55
 70
     1
102
RTVSPropertyOp56
 70
     1
102
RTVSPropertyOp57
 70
     1
102
RTVSPost2010Prop28
280
     0
102
RTVSPost2010PropOp28
 70
     1
102
RTVSPost2010Prop29
280
     1
102
RTVSPost2010PropOp29
 70
     1
102
RTVSPost2010Prop30
280
     1
102
RTVSPost2010PropOp30
 70
     1
102
RTVSPost2010Prop31
280
     0
102
RTVSPost2010PropOp31
 70
     1
102
RTVSPost2010Prop32
280
     0
102
RTVSPost2010PropOp32
 70
     1
102
RTVSPost2010Prop33
280
     0
102
RTVSPost2010PropOp33
 70
     1
102
RTVSPost2010Prop34
280
     0
102
RTVSPost2010PropOp34
 70
     1
102
RTVSPost2010Prop35
280
     0
102
RTVSPost2010PropOp35
 70
     1
102
RTVSPost2010Prop36
280
     0
102
RTVSPost2010PropOp36
 70
     1
102
RTVSPost2010Prop37
 90
       50
102
RTVSPost2010PropOp37
 70
     1
102
RTVSPost2010Prop38
140
0.0
102
RTVSPost2010PropOp38
 70
     1
102
RTVSPost2010Prop39
140
1.0
102
RTVSPost2010PropOp39
 70
     1
102
RTVSPost2010Prop40
 90
        0
102
RTVSPost2010PropOp40
 70
     1
102
RTVSPost2010Prop41ColorIndex
 90
       18
102
RTVSPost2010Prop41ColorRGB
 90
        0
102
RTVSPost2010PropOp41
 70
     1
102
RTVSPost2010Prop42
 90
       50
102
RTVSPost2010PropOp42
 70
     1
102
RTVSPost2010Prop43
 90
        3
102
RTVSPost2010PropOp43
 70
     1
102
RTVSPost2010Prop44ColorIndex
 90
        5
102
RTVSPost2010Prop44ColorRGB
 90
      255
102
RTVSPost2010PropOp44
 70
     1
102
RTVSPost2010Prop45
280
     0
102
RTVSPost2010PropOp45
 70
     1
102
RTVSPost2010Prop46
 90
       50
102
RTVSPost2010PropOp46
 70
     1
102
RTVSPost2010Prop47
 90
       50
102
RTVSPost2010PropOp47
 70
     1
102
RTVSPost2010Prop48
 90
       50
102
RTVSPost2010PropOp48
 70
     1
102
RTVSPost2010Prop49
280
     0
102
RTVSPost2010PropOp49
 70
     1
102
RTVSPost2010Prop50
 90
       50
102
RTVSPost2010PropOp50
 70
     1
102
RTVSPost2010Prop51ColorIndex
 90
      256
102
RTVSPost2010Prop51ColorRGB
 90
-16777216
102
RTVSPost2010PropOp51
 70
     0
102
RTVSPost2010Prop52
140
1.0
102
RTVSPost2010PropOp52
 70
     0
102
RTVSPost2010Prop53
 90
        2
102
RTVSPost2010PropOp53
 70
     1
102
RTVSPost2010Prop54
  1
strokes_ogs.tif
102
RTVSPost2010PropOp54
 70
     1
102
RTVSPost2010Prop55
280
     0
102
RTVSPost2010PropOp55
 70
     1
102
RTVSPost2010Prop56
140
1.0
102
RTVSPost2010PropOp56
 70
     1
102
RTVSPost2010Prop57
140
1.0
102
RTVSPost2010PropOp57
 70
     1
  0
XRECORD
  5
106AD21
102
{ACAD_REACTORS
330
106AD20
102
}
330
106AD20
100
AcDbXrecord
280
     1
102
RTVSPropertyOp0
 70
     1
102
RTVSPropertyOp1
 70
     1
102
RTVSPropertyOp2
 70
     1
102
RTVSPropertyOp3
 70
     1
102
RTVSPropertyOp4
 70
     1
102
RTVSPropertyOp5
 70
     1
102
RTVSPropertyOp6
 70
     1
102
RTVSPropertyOp7
 70
     1
102
RTVSPropertyOp8
 70
     1
102
RTVSPropertyOp9
 70
     1
102
RTVSPropertyOp10
 70
     1
102
RTVSPropertyOp11
 70
     1
102
RTVSPropertyOp12
 70
     1
102
RTVSPropertyOp13
 70
     1
102
RTVSPropertyOp14
 70
     1
102
RTVSPropertyOp15
 70
     1
102
RTVSPropertyOp16
 70
     1
102
RTVSPropertyOp17
 70
     1
102
RTVSPropertyOp18
 70
     1
102
RTVSPropertyOp19
 70
     1
102
RTVSPropertyOp20
 70
     1
102
RTVSPropertyOp21
 70
     1
102
RTVSPropertyOp22
 70
     1
102
RTVSPropertyOp23
 70
     1
102
RTVSPropertyOp24
 70
     1
102
RTVSPropertyOp25
 70
     1
102
RTVSPropertyOp26
 70
     1
102
RTVSPropertyOp27
 70
     1
102
RTVSPropertyOp28
 70
     1
102
RTVSPropertyOp29
 70
     1
102
RTVSPropertyOp30
 70
     1
102
RTVSPropertyOp31
 70
     1
102
RTVSPropertyOp32
 70
     1
102
RTVSPropertyOp33
 70
     1
102
RTVSPropertyOp34
 70
     1
102
RTVSPropertyOp35
 70
     1
102
RTVSPropertyOp36
 70
     1
102
RTVSPropertyOp37
 70
     1
102
RTVSPropertyOp38
 70
     1
102
RTVSPropertyOp39
 70
     1
102
RTVSPropertyOp40
 70
     1
102
RTVSPropertyOp41
 70
     1
102
RTVSPropertyOp42
 70
     1
102
RTVSPropertyOp43
 70
     1
102
RTVSPropertyOp44
 70
     1
102
RTVSPropertyOp45
 70
     1
102
RTVSPropertyOp46
 70
     1
102
RTVSPropertyOp47
 70
     1
102
RTVSPropertyOp48
 70
     1
102
RTVSPropertyOp49
 70
     1
102
RTVSPropertyOp50
 70
     1
102
RTVSPropertyOp51
 70
     0
102
RTVSPropertyOp52
 70
     0
102
RTVSPropertyOp53
 70
     1
102
RTVSPropertyOp54
 70
     1
102
RTVSPropertyOp55
 70
     1
102
RTVSPropertyOp56
 70
     1
102
RTVSPropertyOp57
 70
     1
102
RTVSPost2010Prop28
280
     0
102
RTVSPost2010PropOp28
 70
     1
102
RTVSPost2010Prop29
280
     1
102
RTVSPost2010PropOp29
 70
     1
102
RTVSPost2010Prop30
280
     1
102
RTVSPost2010PropOp30
 70
     1
102
RTVSPost2010Prop31
280
     0
102
RTVSPost2010PropOp31
 70
     1
102
RTVSPost2010Prop32
280
     0
102
RTVSPost2010PropOp32
 70
     1
102
RTVSPost2010Prop33
280
     0
102
RTVSPost2010PropOp33
 70
     1
102
RTVSPost2010Prop34
280
     0
102
RTVSPost2010PropOp34
 70
     1
102
RTVSPost2010Prop35
280
     0
102
RTVSPost2010PropOp35
 70
     1
102
RTVSPost2010Prop36
280
     0
102
RTVSPost2010PropOp36
 70
     1
102
RTVSPost2010Prop37
 90
       50
102
RTVSPost2010PropOp37
 70
     1
102
RTVSPost2010Prop38
140
0.0
102
RTVSPost2010PropOp38
 70
     1
102
RTVSPost2010Prop39
140
1.0
102
RTVSPost2010PropOp39
 70
     1
102
RTVSPost2010Prop40
 90
        0
102
RTVSPost2010PropOp40
 70
     1
102
RTVSPost2010Prop41ColorIndex
 90
       18
102
RTVSPost2010Prop41ColorRGB
 90
        0
102
RTVSPost2010PropOp41
 70
     1
102
RTVSPost2010Prop42
 90
       50
102
RTVSPost2010PropOp42
 70
     1
102
RTVSPost2010Prop43
 90
        3
102
RTVSPost2010PropOp43
 70
     1
102
RTVSPost2010Prop44ColorIndex
 90
        5
102
RTVSPost2010Prop44ColorRGB
 90
      255
102
RTVSPost2010PropOp44
 70
     1
102
RTVSPost2010Prop45
280
     0
102
RTVSPost2010PropOp45
 70
     1
102
RTVSPost2010Prop46
 90
       50
102
RTVSPost2010PropOp46
 70
     1
102
RTVSPost2010Prop47
 90
       50
102
RTVSPost2010PropOp47
 70
     1
102
RTVSPost2010Prop48
 90
       50
102
RTVSPost2010PropOp48
 70
     1
102
RTVSPost2010Prop49
280
     0
102
RTVSPost2010PropOp49
 70
     1
102
RTVSPost2010Prop50
 90
       50
102
RTVSPost2010PropOp50
 70
     1
102
RTVSPost2010Prop51ColorIndex
 90
      256
102
RTVSPost2010Prop51ColorRGB
 90
-16777216
102
RTVSPost2010PropOp51
 70
     0
102
RTVSPost2010Prop52
140
1.0
102
RTVSPost2010PropOp52
 70
     0
102
RTVSPost2010Prop53
 90
        2
102
RTVSPost2010PropOp53
 70
     1
102
RTVSPost2010Prop54
  1
strokes_ogs.tif
102
RTVSPost2010PropOp54
 70
     1
102
RTVSPost2010Prop55
280
     0
102
RTVSPost2010PropOp55
 70
     1
102
RTVSPost2010Prop56
140
1.0
102
RTVSPost2010PropOp56
 70
     1
102
RTVSPost2010Prop57
140
1.0
102
RTVSPost2010PropOp57
 70
     1
  0
XRECORD
  5
106AD1F
102
{ACAD_REACTORS
330
106AD1E
102
}
330
106AD1E
100
AcDbXrecord
280
     1
102
RTVSPropertyOp0
 70
     1
102
RTVSPropertyOp1
 70
     1
102
RTVSPropertyOp2
 70
     1
102
RTVSPropertyOp3
 70
     1
102
RTVSPropertyOp4
 70
     1
102
RTVSPropertyOp5
 70
     1
102
RTVSPropertyOp6
 70
     1
102
RTVSPropertyOp7
 70
     1
102
RTVSPropertyOp8
 70
     1
102
RTVSPropertyOp9
 70
     1
102
RTVSPropertyOp10
 70
     1
102
RTVSPropertyOp11
 70
     1
102
RTVSPropertyOp12
 70
     1
102
RTVSPropertyOp13
 70
     1
102
RTVSPropertyOp14
 70
     1
102
RTVSPropertyOp15
 70
     1
102
RTVSPropertyOp16
 70
     1
102
RTVSPropertyOp17
 70
     1
102
RTVSPropertyOp18
 70
     1
102
RTVSPropertyOp19
 70
     1
102
RTVSPropertyOp20
 70
     1
102
RTVSPropertyOp21
 70
     1
102
RTVSPropertyOp22
 70
     1
102
RTVSPropertyOp23
 70
     1
102
RTVSPropertyOp24
 70
     1
102
RTVSPropertyOp25
 70
     1
102
RTVSPropertyOp26
 70
     1
102
RTVSPropertyOp27
 70
     1
102
RTVSPropertyOp28
 70
     1
102
RTVSPropertyOp29
 70
     1
102
RTVSPropertyOp30
 70
     1
102
RTVSPropertyOp31
 70
     1
102
RTVSPropertyOp32
 70
     1
102
RTVSPropertyOp33
 70
     1
102
RTVSPropertyOp34
 70
     1
102
RTVSPropertyOp35
 70
     1
102
RTVSPropertyOp36
 70
     1
102
RTVSPropertyOp37
 70
     1
102
RTVSPropertyOp38
 70
     1
102
RTVSPropertyOp39
 70
     1
102
RTVSPropertyOp40
 70
     1
102
RTVSPropertyOp41
 70
     1
102
RTVSPropertyOp42
 70
     1
102
RTVSPropertyOp43
 70
     1
102
RTVSPropertyOp44
 70
     1
102
RTVSPropertyOp45
 70
     1
102
RTVSPropertyOp46
 70
     1
102
RTVSPropertyOp47
 70
     1
102
RTVSPropertyOp48
 70
     1
102
RTVSPropertyOp49
 70
     1
102
RTVSPropertyOp50
 70
     1
102
RTVSPropertyOp51
 70
     0
102
RTVSPropertyOp52
 70
     0
102
RTVSPropertyOp53
 70
     1
102
RTVSPropertyOp54
 70
     1
102
RTVSPropertyOp55
 70
     1
102
RTVSPropertyOp56
 70
     1
102
RTVSPropertyOp57
 70
     1
102
RTVSPost2010Prop28
280
     0
102
RTVSPost2010PropOp28
 70
     1
102
RTVSPost2010Prop29
280
     1
102
RTVSPost2010PropOp29
 70
     1
102
RTVSPost2010Prop30
280
     1
102
RTVSPost2010PropOp30
 70
     1
102
RTVSPost2010Prop31
280
     0
102
RTVSPost2010PropOp31
 70
     1
102
RTVSPost2010Prop32
280
     0
102
RTVSPost2010PropOp32
 70
     1
102
RTVSPost2010Prop33
280
     0
102
RTVSPost2010PropOp33
 70
     1
102
RTVSPost2010Prop34
280
     0
102
RTVSPost2010PropOp34
 70
     1
102
RTVSPost2010Prop35
280
     0
102
RTVSPost2010PropOp35
 70
     1
102
RTVSPost2010Prop36
280
     0
102
RTVSPost2010PropOp36
 70
     1
102
RTVSPost2010Prop37
 90
       50
102
RTVSPost2010PropOp37
 70
     1
102
RTVSPost2010Prop38
140
0.0
102
RTVSPost2010PropOp38
 70
     1
102
RTVSPost2010Prop39
140
1.0
102
RTVSPost2010PropOp39
 70
     1
102
RTVSPost2010Prop40
 90
        0
102
RTVSPost2010PropOp40
 70
     1
102
RTVSPost2010Prop41ColorIndex
 90
       18
102
RTVSPost2010Prop41ColorRGB
 90
        0
102
RTVSPost2010PropOp41
 70
     1
102
RTVSPost2010Prop42
 90
       50
102
RTVSPost2010PropOp42
 70
     1
102
RTVSPost2010Prop43
 90
        3
102
RTVSPost2010PropOp43
 70
     1
102
RTVSPost2010Prop44ColorIndex
 90
        5
102
RTVSPost2010Prop44ColorRGB
 90
      255
102
RTVSPost2010PropOp44
 70
     1
102
RTVSPost2010Prop45
280
     0
102
RTVSPost2010PropOp45
 70
     1
102
RTVSPost2010Prop46
 90
       50
102
RTVSPost2010PropOp46
 70
     1
102
RTVSPost2010Prop47
 90
       50
102
RTVSPost2010PropOp47
 70
     1
102
RTVSPost2010Prop48
 90
       50
102
RTVSPost2010PropOp48
 70
     1
102
RTVSPost2010Prop49
280
     0
102
RTVSPost2010PropOp49
 70
     1
102
RTVSPost2010Prop50
 90
       50
102
RTVSPost2010PropOp50
 70
     1
102
RTVSPost2010Prop51ColorIndex
 90
      256
102
RTVSPost2010Prop51ColorRGB
 90
-16777216
102
RTVSPost2010PropOp51
 70
     0
102
RTVSPost2010Prop52
140
1.0
102
RTVSPost2010PropOp52
 70
     0
102
RTVSPost2010Prop53
 90
        2
102
RTVSPost2010PropOp53
 70
     1
102
RTVSPost2010Prop54
  1
strokes_ogs.tif
102
RTVSPost2010PropOp54
 70
     1
102
RTVSPost2010Prop55
280
     0
102
RTVSPost2010PropOp55
 70
     1
102
RTVSPost2010Prop56
140
1.0
102
RTVSPost2010PropOp56
 70
     1
102
RTVSPost2010Prop57
140
1.0
102
RTVSPost2010PropOp57
 70
     1
  0
XRECORD
  5
106AD19
102
{ACAD_REACTORS
330
106AD18
102
}
330
106AD18
100
AcDbXrecord
280
     1
102
RTVSPropertyOp0
 70
     1
102
RTVSPropertyOp1
 70
     1
102
RTVSPropertyOp2
 70
     1
102
RTVSPropertyOp3
 70
     1
102
RTVSPropertyOp4
 70
     1
102
RTVSPropertyOp5
 70
     1
102
RTVSPropertyOp6
 70
     1
102
RTVSPropertyOp7
 70
     1
102
RTVSPropertyOp8
 70
     1
102
RTVSPropertyOp9
 70
     1
102
RTVSPropertyOp10
 70
     1
102
RTVSPropertyOp11
 70
     1
102
RTVSPropertyOp12
 70
     1
102
RTVSPropertyOp13
 70
     1
102
RTVSPropertyOp14
 70
     1
102
RTVSPropertyOp15
 70
     1
102
RTVSPropertyOp16
 70
     1
102
RTVSPropertyOp17
 70
     1
102
RTVSPropertyOp18
 70
     1
102
RTVSPropertyOp19
 70
     1
102
RTVSPropertyOp20
 70
     1
102
RTVSPropertyOp21
 70
     1
102
RTVSPropertyOp22
 70
     1
102
RTVSPropertyOp23
 70
     1
102
RTVSPropertyOp24
 70
     1
102
RTVSPropertyOp25
 70
     1
102
RTVSPropertyOp26
 70
     1
102
RTVSPropertyOp27
 70
     1
102
RTVSPropertyOp28
 70
     1
102
RTVSPropertyOp29
 70
     1
102
RTVSPropertyOp30
 70
     1
102
RTVSPropertyOp31
 70
     1
102
RTVSPropertyOp32
 70
     1
102
RTVSPropertyOp33
 70
     1
102
RTVSPropertyOp34
 70
     1
102
RTVSPropertyOp35
 70
     1
102
RTVSPropertyOp36
 70
     1
102
RTVSPropertyOp37
 70
     1
102
RTVSPropertyOp38
 70
     1
102
RTVSPropertyOp39
 70
     1
102
RTVSPropertyOp40
 70
     1
102
RTVSPropertyOp41
 70
     1
102
RTVSPropertyOp42
 70
     1
102
RTVSPropertyOp43
 70
     1
102
RTVSPropertyOp44
 70
     1
102
RTVSPropertyOp45
 70
     1
102
RTVSPropertyOp46
 70
     1
102
RTVSPropertyOp47
 70
     1
102
RTVSPropertyOp48
 70
     1
102
RTVSPropertyOp49
 70
     1
102
RTVSPropertyOp50
 70
     1
102
RTVSPropertyOp51
 70
     0
102
RTVSPropertyOp52
 70
     0
102
RTVSPropertyOp53
 70
     1
102
RTVSPropertyOp54
 70
     1
102
RTVSPropertyOp55
 70
     1
102
RTVSPropertyOp56
 70
     1
102
RTVSPropertyOp57
 70
     1
102
RTVSPost2010Prop28
280
     0
102
RTVSPost2010PropOp28
 70
     1
102
RTVSPost2010Prop29
280
     1
102
RTVSPost2010PropOp29
 70
     1
102
RTVSPost2010Prop30
280
     1
102
RTVSPost2010PropOp30
 70
     1
102
RTVSPost2010Prop31
280
     0
102
RTVSPost2010PropOp31
 70
     1
102
RTVSPost2010Prop32
280
     0
102
RTVSPost2010PropOp32
 70
     1
102
RTVSPost2010Prop33
280
     0
102
RTVSPost2010PropOp33
 70
     1
102
RTVSPost2010Prop34
280
     0
102
RTVSPost2010PropOp34
 70
     1
102
RTVSPost2010Prop35
280
     0
102
RTVSPost2010PropOp35
 70
     1
102
RTVSPost2010Prop36
280
     0
102
RTVSPost2010PropOp36
 70
     1
102
RTVSPost2010Prop37
 90
       50
102
RTVSPost2010PropOp37
 70
     1
102
RTVSPost2010Prop38
140
0.0
102
RTVSPost2010PropOp38
 70
     1
102
RTVSPost2010Prop39
140
1.0
102
RTVSPost2010PropOp39
 70
     1
102
RTVSPost2010Prop40
 90
        0
102
RTVSPost2010PropOp40
 70
     1
102
RTVSPost2010Prop41ColorIndex
 90
       18
102
RTVSPost2010Prop41ColorRGB
 90
        0
102
RTVSPost2010PropOp41
 70
     1
102
RTVSPost2010Prop42
 90
       50
102
RTVSPost2010PropOp42
 70
     1
102
RTVSPost2010Prop43
 90
        3
102
RTVSPost2010PropOp43
 70
     1
102
RTVSPost2010Prop44ColorIndex
 90
        5
102
RTVSPost2010Prop44ColorRGB
 90
      255
102
RTVSPost2010PropOp44
 70
     1
102
RTVSPost2010Prop45
280
     0
102
RTVSPost2010PropOp45
 70
     1
102
RTVSPost2010Prop46
 90
       50
102
RTVSPost2010PropOp46
 70
     1
102
RTVSPost2010Prop47
 90
       50
102
RTVSPost2010PropOp47
 70
     1
102
RTVSPost2010Prop48
 90
       50
102
RTVSPost2010PropOp48
 70
     1
102
RTVSPost2010Prop49
280
     0
102
RTVSPost2010PropOp49
 70
     1
102
RTVSPost2010Prop50
 90
       50
102
RTVSPost2010PropOp50
 70
     1
102
RTVSPost2010Prop51ColorIndex
 90
      256
102
RTVSPost2010Prop51ColorRGB
 90
-16777216
102
RTVSPost2010PropOp51
 70
     0
102
RTVSPost2010Prop52
140
1.0
102
RTVSPost2010PropOp52
 70
     0
102
RTVSPost2010Prop53
 90
        2
102
RTVSPost2010PropOp53
 70
     1
102
RTVSPost2010Prop54
  1
strokes_ogs.tif
102
RTVSPost2010PropOp54
 70
     1
102
RTVSPost2010Prop55
280
     0
102
RTVSPost2010PropOp55
 70
     1
102
RTVSPost2010Prop56
140
1.0
102
RTVSPost2010PropOp56
 70
     1
102
RTVSPost2010Prop57
140
1.0
102
RTVSPost2010PropOp57
 70
     1
  0
XRECORD
  5
106AD1B
102
{ACAD_REACTORS
330
106AD1A
102
}
330
106AD1A
100
AcDbXrecord
280
     1
102
RTVSPropertyOp0
 70
     1
102
RTVSPropertyOp1
 70
     1
102
RTVSPropertyOp2
 70
     1
102
RTVSPropertyOp3
 70
     1
102
RTVSPropertyOp4
 70
     1
102
RTVSPropertyOp5
 70
     1
102
RTVSPropertyOp6
 70
     1
102
RTVSPropertyOp7
 70
     1
102
RTVSPropertyOp8
 70
     1
102
RTVSPropertyOp9
 70
     1
102
RTVSPropertyOp10
 70
     1
102
RTVSPropertyOp11
 70
     1
102
RTVSPropertyOp12
 70
     1
102
RTVSPropertyOp13
 70
     1
102
RTVSPropertyOp14
 70
     1
102
RTVSPropertyOp15
 70
     1
102
RTVSPropertyOp16
 70
     1
102
RTVSPropertyOp17
 70
     1
102
RTVSPropertyOp18
 70
     1
102
RTVSPropertyOp19
 70
     1
102
RTVSPropertyOp20
 70
     1
102
RTVSPropertyOp21
 70
     1
102
RTVSPropertyOp22
 70
     1
102
RTVSPropertyOp23
 70
     1
102
RTVSPropertyOp24
 70
     1
102
RTVSPropertyOp25
 70
     1
102
RTVSPropertyOp26
 70
     1
102
RTVSPropertyOp27
 70
     1
102
RTVSPropertyOp28
 70
     1
102
RTVSPropertyOp29
 70
     1
102
RTVSPropertyOp30
 70
     1
102
RTVSPropertyOp31
 70
     1
102
RTVSPropertyOp32
 70
     1
102
RTVSPropertyOp33
 70
     1
102
RTVSPropertyOp34
 70
     1
102
RTVSPropertyOp35
 70
     1
102
RTVSPropertyOp36
 70
     1
102
RTVSPropertyOp37
 70
     1
102
RTVSPropertyOp38
 70
     1
102
RTVSPropertyOp39
 70
     1
102
RTVSPropertyOp40
 70
     1
102
RTVSPropertyOp41
 70
     1
102
RTVSPropertyOp42
 70
     1
102
RTVSPropertyOp43
 70
     1
102
RTVSPropertyOp44
 70
     1
102
RTVSPropertyOp45
 70
     1
102
RTVSPropertyOp46
 70
     1
102
RTVSPropertyOp47
 70
     1
102
RTVSPropertyOp48
 70
     1
102
RTVSPropertyOp49
 70
     1
102
RTVSPropertyOp50
 70
     1
102
RTVSPropertyOp51
 70
     0
102
RTVSPropertyOp52
 70
     0
102
RTVSPropertyOp53
 70
     1
102
RTVSPropertyOp54
 70
     1
102
RTVSPropertyOp55
 70
     1
102
RTVSPropertyOp56
 70
     1
102
RTVSPropertyOp57
 70
     1
102
RTVSPost2010Prop28
280
     0
102
RTVSPost2010PropOp28
 70
     1
102
RTVSPost2010Prop29
280
     1
102
RTVSPost2010PropOp29
 70
     1
102
RTVSPost2010Prop30
280
     1
102
RTVSPost2010PropOp30
 70
     1
102
RTVSPost2010Prop31
280
     0
102
RTVSPost2010PropOp31
 70
     1
102
RTVSPost2010Prop32
280
     0
102
RTVSPost2010PropOp32
 70
     1
102
RTVSPost2010Prop33
280
     0
102
RTVSPost2010PropOp33
 70
     1
102
RTVSPost2010Prop34
280
     0
102
RTVSPost2010PropOp34
 70
     1
102
RTVSPost2010Prop35
280
     0
102
RTVSPost2010PropOp35
 70
     1
102
RTVSPost2010Prop36
280
     0
102
RTVSPost2010PropOp36
 70
     1
102
RTVSPost2010Prop37
 90
       50
102
RTVSPost2010PropOp37
 70
     1
102
RTVSPost2010Prop38
140
0.0
102
RTVSPost2010PropOp38
 70
     1
102
RTVSPost2010Prop39
140
1.0
102
RTVSPost2010PropOp39
 70
     1
102
RTVSPost2010Prop40
 90
        0
102
RTVSPost2010PropOp40
 70
     1
102
RTVSPost2010Prop41ColorIndex
 90
       18
102
RTVSPost2010Prop41ColorRGB
 90
        0
102
RTVSPost2010PropOp41
 70
     1
102
RTVSPost2010Prop42
 90
       50
102
RTVSPost2010PropOp42
 70
     1
102
RTVSPost2010Prop43
 90
        3
102
RTVSPost2010PropOp43
 70
     1
102
RTVSPost2010Prop44ColorIndex
 90
        5
102
RTVSPost2010Prop44ColorRGB
 90
      255
102
RTVSPost2010PropOp44
 70
     1
102
RTVSPost2010Prop45
280
     0
102
RTVSPost2010PropOp45
 70
     1
102
RTVSPost2010Prop46
 90
       50
102
RTVSPost2010PropOp46
 70
     1
102
RTVSPost2010Prop47
 90
       50
102
RTVSPost2010PropOp47
 70
     1
102
RTVSPost2010Prop48
 90
       50
102
RTVSPost2010PropOp48
 70
     1
102
RTVSPost2010Prop49
280
     0
102
RTVSPost2010PropOp49
 70
     1
102
RTVSPost2010Prop50
 90
       50
102
RTVSPost2010PropOp50
 70
     1
102
RTVSPost2010Prop51ColorIndex
 90
      256
102
RTVSPost2010Prop51ColorRGB
 90
-16777216
102
RTVSPost2010PropOp51
 70
     0
102
RTVSPost2010Prop52
140
1.0
102
RTVSPost2010PropOp52
 70
     0
102
RTVSPost2010Prop53
 90
        2
102
RTVSPost2010PropOp53
 70
     1
102
RTVSPost2010Prop54
  1
strokes_ogs.tif
102
RTVSPost2010PropOp54
 70
     1
102
RTVSPost2010Prop55
280
     0
102
RTVSPost2010PropOp55
 70
     1
102
RTVSPost2010Prop56
140
1.0
102
RTVSPost2010PropOp56
 70
     1
102
RTVSPost2010Prop57
140
1.0
102
RTVSPost2010PropOp57
 70
     1
  0
XRECORD
  5
106AD0B
102
{ACAD_REACTORS
330
106AD0A
102
}
330
106AD0A
100
AcDbXrecord
280
     1
102
RTVSPropertyOp0
 70
     1
102
RTVSPropertyOp1
 70
     1
102
RTVSPropertyOp2
 70
     1
102
RTVSPropertyOp3
 70
     1
102
RTVSPropertyOp4
 70
     1
102
RTVSPropertyOp5
 70
     1
102
RTVSPropertyOp6
 70
     1
102
RTVSPropertyOp7
 70
     1
102
RTVSPropertyOp8
 70
     1
102
RTVSPropertyOp9
 70
     1
102
RTVSPropertyOp10
 70
     1
102
RTVSPropertyOp11
 70
     1
102
RTVSPropertyOp12
 70
     1
102
RTVSPropertyOp13
 70
     1
102
RTVSPropertyOp14
 70
     1
102
RTVSPropertyOp15
 70
     1
102
RTVSPropertyOp16
 70
     1
102
RTVSPropertyOp17
 70
     1
102
RTVSPropertyOp18
 70
     1
102
RTVSPropertyOp19
 70
     1
102
RTVSPropertyOp20
 70
     1
102
RTVSPropertyOp21
 70
     1
102
RTVSPropertyOp22
 70
     1
102
RTVSPropertyOp23
 70
     1
102
RTVSPropertyOp24
 70
     1
102
RTVSPropertyOp25
 70
     1
102
RTVSPropertyOp26
 70
     1
102
RTVSPropertyOp27
 70
     1
102
RTVSPropertyOp28
 70
     1
102
RTVSPropertyOp29
 70
     1
102
RTVSPropertyOp30
 70
     1
102
RTVSPropertyOp31
 70
     1
102
RTVSPropertyOp32
 70
     1
102
RTVSPropertyOp33
 70
     1
102
RTVSPropertyOp34
 70
     1
102
RTVSPropertyOp35
 70
     1
102
RTVSPropertyOp36
 70
     1
102
RTVSPropertyOp37
 70
     1
102
RTVSPropertyOp38
 70
     1
102
RTVSPropertyOp39
 70
     1
102
RTVSPropertyOp40
 70
     1
102
RTVSPropertyOp41
 70
     1
102
RTVSPropertyOp42
 70
     1
102
RTVSPropertyOp43
 70
     1
102
RTVSPropertyOp44
 70
     1
102
RTVSPropertyOp45
 70
     1
102
RTVSPropertyOp46
 70
     1
102
RTVSPropertyOp47
 70
     1
102
RTVSPropertyOp48
 70
     1
102
RTVSPropertyOp49
 70
     1
102
RTVSPropertyOp50
 70
     1
102
RTVSPropertyOp51
 70
     0
102
RTVSPropertyOp52
 70
     0
102
RTVSPropertyOp53
 70
     1
102
RTVSPropertyOp54
 70
     1
102
RTVSPropertyOp55
 70
     1
102
RTVSPropertyOp56
 70
     1
102
RTVSPropertyOp57
 70
     1
102
RTVSPost2010Prop28
280
     0
102
RTVSPost2010PropOp28
 70
     1
102
RTVSPost2010Prop29
280
     1
102
RTVSPost2010PropOp29
 70
     1
102
RTVSPost2010Prop30
280
     1
102
RTVSPost2010PropOp30
 70
     1
102
RTVSPost2010Prop31
280
     0
102
RTVSPost2010PropOp31
 70
     1
102
RTVSPost2010Prop32
280
     0
102
RTVSPost2010PropOp32
 70
     1
102
RTVSPost2010Prop33
280
     0
102
RTVSPost2010PropOp33
 70
     1
102
RTVSPost2010Prop34
280
     0
102
RTVSPost2010PropOp34
 70
     1
102
RTVSPost2010Prop35
280
     0
102
RTVSPost2010PropOp35
 70
     1
102
RTVSPost2010Prop36
280
     0
102
RTVSPost2010PropOp36
 70
     1
102
RTVSPost2010Prop37
 90
       50
102
RTVSPost2010PropOp37
 70
     1
102
RTVSPost2010Prop38
140
0.0
102
RTVSPost2010PropOp38
 70
     1
102
RTVSPost2010Prop39
140
1.0
102
RTVSPost2010PropOp39
 70
     1
102
RTVSPost2010Prop40
 90
        0
102
RTVSPost2010PropOp40
 70
     1
102
RTVSPost2010Prop41ColorIndex
 90
       18
102
RTVSPost2010Prop41ColorRGB
 90
        0
102
RTVSPost2010PropOp41
 70
     1
102
RTVSPost2010Prop42
 90
       50
102
RTVSPost2010PropOp42
 70
     1
102
RTVSPost2010Prop43
 90
        3
102
RTVSPost2010PropOp43
 70
     1
102
RTVSPost2010Prop44ColorIndex
 90
        5
102
RTVSPost2010Prop44ColorRGB
 90
      255
102
RTVSPost2010PropOp44
 70
     1
102
RTVSPost2010Prop45
280
     0
102
RTVSPost2010PropOp45
 70
     1
102
RTVSPost2010Prop46
 90
       50
102
RTVSPost2010PropOp46
 70
     1
102
RTVSPost2010Prop47
 90
       50
102
RTVSPost2010PropOp47
 70
     1
102
RTVSPost2010Prop48
 90
       50
102
RTVSPost2010PropOp48
 70
     1
102
RTVSPost2010Prop49
280
     0
102
RTVSPost2010PropOp49
 70
     1
102
RTVSPost2010Prop50
 90
       50
102
RTVSPost2010PropOp50
 70
     1
102
RTVSPost2010Prop51ColorIndex
 90
      256
102
RTVSPost2010Prop51ColorRGB
 90
-16777216
102
RTVSPost2010PropOp51
 70
     0
102
RTVSPost2010Prop52
140
1.0
102
RTVSPost2010PropOp52
 70
     0
102
RTVSPost2010Prop53
 90
        2
102
RTVSPost2010PropOp53
 70
     1
102
RTVSPost2010Prop54
  1
strokes_ogs.tif
102
RTVSPost2010PropOp54
 70
     1
102
RTVSPost2010Prop55
280
     0
102
RTVSPost2010PropOp55
 70
     1
102
RTVSPost2010Prop56
140
1.0
102
RTVSPost2010PropOp56
 70
     1
102
RTVSPost2010Prop57
140
1.0
102
RTVSPost2010PropOp57
 70
     1
  0
XRECORD
  5
106ACFD
102
{ACAD_REACTORS
330
106ACFC
102
}
330
106ACFC
100
AcDbXrecord
280
     1
102
RTVSPropertyOp0
 70
     1
102
RTVSPropertyOp1
 70
     1
102
RTVSPropertyOp2
 70
     1
102
RTVSPropertyOp3
 70
     1
102
RTVSPropertyOp4
 70
     1
102
RTVSPropertyOp5
 70
     1
102
RTVSPropertyOp6
 70
     1
102
RTVSPropertyOp7
 70
     1
102
RTVSPropertyOp8
 70
     1
102
RTVSPropertyOp9
 70
     1
102
RTVSPropertyOp10
 70
     1
102
RTVSPropertyOp11
 70
     1
102
RTVSPropertyOp12
 70
     1
102
RTVSPropertyOp13
 70
     1
102
RTVSPropertyOp14
 70
     1
102
RTVSPropertyOp15
 70
     1
102
RTVSPropertyOp16
 70
     1
102
RTVSPropertyOp17
 70
     1
102
RTVSPropertyOp18
 70
     1
102
RTVSPropertyOp19
 70
     1
102
RTVSPropertyOp20
 70
     1
102
RTVSPropertyOp21
 70
     1
102
RTVSPropertyOp22
 70
     1
102
RTVSPropertyOp23
 70
     1
102
RTVSPropertyOp24
 70
     1
102
RTVSPropertyOp25
 70
     1
102
RTVSPropertyOp26
 70
     1
102
RTVSPropertyOp27
 70
     1
102
RTVSPropertyOp28
 70
     1
102
RTVSPropertyOp29
 70
     1
102
RTVSPropertyOp30
 70
     1
102
RTVSPropertyOp31
 70
     1
102
RTVSPropertyOp32
 70
     1
102
RTVSPropertyOp33
 70
     1
102
RTVSPropertyOp34
 70
     1
102
RTVSPropertyOp35
 70
     1
102
RTVSPropertyOp36
 70
     1
102
RTVSPropertyOp37
 70
     1
102
RTVSPropertyOp38
 70
     1
102
RTVSPropertyOp39
 70
     1
102
RTVSPropertyOp40
 70
     1
102
RTVSPropertyOp41
 70
     1
102
RTVSPropertyOp42
 70
     1
102
RTVSPropertyOp43
 70
     1
102
RTVSPropertyOp44
 70
     1
102
RTVSPropertyOp45
 70
     1
102
RTVSPropertyOp46
 70
     1
102
RTVSPropertyOp47
 70
     1
102
RTVSPropertyOp48
 70
     1
102
RTVSPropertyOp49
 70
     1
102
RTVSPropertyOp50
 70
     1
102
RTVSPropertyOp51
 70
     0
102
RTVSPropertyOp52
 70
     0
102
RTVSPropertyOp53
 70
     1
102
RTVSPropertyOp54
 70
     1
102
RTVSPropertyOp55
 70
     1
102
RTVSPropertyOp56
 70
     1
102
RTVSPropertyOp57
 70
     1
102
RTVSPost2010Prop28
280
     0
102
RTVSPost2010PropOp28
 70
     1
102
RTVSPost2010Prop29
280
     1
102
RTVSPost2010PropOp29
 70
     1
102
RTVSPost2010Prop30
280
     1
102
RTVSPost2010PropOp30
 70
     1
102
RTVSPost2010Prop31
280
     0
102
RTVSPost2010PropOp31
 70
     1
102
RTVSPost2010Prop32
280
     0
102
RTVSPost2010PropOp32
 70
     1
102
RTVSPost2010Prop33
280
     0
102
RTVSPost2010PropOp33
 70
     1
102
RTVSPost2010Prop34
280
     0
102
RTVSPost2010PropOp34
 70
     1
102
RTVSPost2010Prop35
280
     0
102
RTVSPost2010PropOp35
 70
     1
102
RTVSPost2010Prop36
280
     0
102
RTVSPost2010PropOp36
 70
     1
102
RTVSPost2010Prop37
 90
       50
102
RTVSPost2010PropOp37
 70
     1
102
RTVSPost2010Prop38
140
0.0
102
RTVSPost2010PropOp38
 70
     1
102
RTVSPost2010Prop39
140
1.0
102
RTVSPost2010PropOp39
 70
     1
102
RTVSPost2010Prop40
 90
        0
102
RTVSPost2010PropOp40
 70
     1
102
RTVSPost2010Prop41ColorIndex
 90
       18
102
RTVSPost2010Prop41ColorRGB
 90
        0
102
RTVSPost2010PropOp41
 70
     1
102
RTVSPost2010Prop42
 90
       50
102
RTVSPost2010PropOp42
 70
     1
102
RTVSPost2010Prop43
 90
        3
102
RTVSPost2010PropOp43
 70
     1
102
RTVSPost2010Prop44ColorIndex
 90
        5
102
RTVSPost2010Prop44ColorRGB
 90
      255
102
RTVSPost2010PropOp44
 70
     1
102
RTVSPost2010Prop45
280
     0
102
RTVSPost2010PropOp45
 70
     1
102
RTVSPost2010Prop46
 90
       50
102
RTVSPost2010PropOp46
 70
     1
102
RTVSPost2010Prop47
 90
       50
102
RTVSPost2010PropOp47
 70
     1
102
RTVSPost2010Prop48
 90
       50
102
RTVSPost2010PropOp48
 70
     1
102
RTVSPost2010Prop49
280
     0
102
RTVSPost2010PropOp49
 70
     1
102
RTVSPost2010Prop50
 90
       50
102
RTVSPost2010PropOp50
 70
     1
102
RTVSPost2010Prop51ColorIndex
 90
      256
102
RTVSPost2010Prop51ColorRGB
 90
-16777216
102
RTVSPost2010PropOp51
 70
     0
102
RTVSPost2010Prop52
140
1.0
102
RTVSPost2010PropOp52
 70
     0
102
RTVSPost2010Prop53
 90
        2
102
RTVSPost2010PropOp53
 70
     1
102
RTVSPost2010Prop54
  1
strokes_ogs.tif
102
RTVSPost2010PropOp54
 70
     1
102
RTVSPost2010Prop55
280
     0
102
RTVSPost2010PropOp55
 70
     1
102
RTVSPost2010Prop56
140
1.0
102
RTVSPost2010PropOp56
 70
     1
102
RTVSPost2010Prop57
140
1.0
102
RTVSPost2010PropOp57
 70
     1
  0
XRECORD
  5
106AD1D
102
{ACAD_REACTORS
330
106AD1C
102
}
330
106AD1C
100
AcDbXrecord
280
     1
102
RTVSPropertyOp0
 70
     1
102
RTVSPropertyOp1
 70
     1
102
RTVSPropertyOp2
 70
     1
102
RTVSPropertyOp3
 70
     1
102
RTVSPropertyOp4
 70
     1
102
RTVSPropertyOp5
 70
     1
102
RTVSPropertyOp6
 70
     1
102
RTVSPropertyOp7
 70
     1
102
RTVSPropertyOp8
 70
     1
102
RTVSPropertyOp9
 70
     1
102
RTVSPropertyOp10
 70
     1
102
RTVSPropertyOp11
 70
     1
102
RTVSPropertyOp12
 70
     1
102
RTVSPropertyOp13
 70
     1
102
RTVSPropertyOp14
 70
     1
102
RTVSPropertyOp15
 70
     1
102
RTVSPropertyOp16
 70
     1
102
RTVSPropertyOp17
 70
     1
102
RTVSPropertyOp18
 70
     1
102
RTVSPropertyOp19
 70
     1
102
RTVSPropertyOp20
 70
     1
102
RTVSPropertyOp21
 70
     1
102
RTVSPropertyOp22
 70
     1
102
RTVSPropertyOp23
 70
     1
102
RTVSPropertyOp24
 70
     1
102
RTVSPropertyOp25
 70
     1
102
RTVSPropertyOp26
 70
     1
102
RTVSPropertyOp27
 70
     1
102
RTVSPropertyOp28
 70
     1
102
RTVSPropertyOp29
 70
     1
102
RTVSPropertyOp30
 70
     1
102
RTVSPropertyOp31
 70
     1
102
RTVSPropertyOp32
 70
     1
102
RTVSPropertyOp33
 70
     1
102
RTVSPropertyOp34
 70
     1
102
RTVSPropertyOp35
 70
     1
102
RTVSPropertyOp36
 70
     1
102
RTVSPropertyOp37
 70
     1
102
RTVSPropertyOp38
 70
     1
102
RTVSPropertyOp39
 70
     1
102
RTVSPropertyOp40
 70
     1
102
RTVSPropertyOp41
 70
     1
102
RTVSPropertyOp42
 70
     1
102
RTVSPropertyOp43
 70
     1
102
RTVSPropertyOp44
 70
     1
102
RTVSPropertyOp45
 70
     1
102
RTVSPropertyOp46
 70
     1
102
RTVSPropertyOp47
 70
     1
102
RTVSPropertyOp48
 70
     1
102
RTVSPropertyOp49
 70
     1
102
RTVSPropertyOp50
 70
     1
102
RTVSPropertyOp51
 70
     0
102
RTVSPropertyOp52
 70
     0
102
RTVSPropertyOp53
 70
     1
102
RTVSPropertyOp54
 70
     1
102
RTVSPropertyOp55
 70
     1
102
RTVSPropertyOp56
 70
     1
102
RTVSPropertyOp57
 70
     1
102
RTVSPost2010Prop28
280
     0
102
RTVSPost2010PropOp28
 70
     1
102
RTVSPost2010Prop29
280
     1
102
RTVSPost2010PropOp29
 70
     1
102
RTVSPost2010Prop30
280
     1
102
RTVSPost2010PropOp30
 70
     1
102
RTVSPost2010Prop31
280
     0
102
RTVSPost2010PropOp31
 70
     1
102
RTVSPost2010Prop32
280
     0
102
RTVSPost2010PropOp32
 70
     1
102
RTVSPost2010Prop33
280
     0
102
RTVSPost2010PropOp33
 70
     1
102
RTVSPost2010Prop34
280
     0
102
RTVSPost2010PropOp34
 70
     1
102
RTVSPost2010Prop35
280
     0
102
RTVSPost2010PropOp35
 70
     1
102
RTVSPost2010Prop36
280
     0
102
RTVSPost2010PropOp36
 70
     1
102
RTVSPost2010Prop37
 90
       50
102
RTVSPost2010PropOp37
 70
     1
102
RTVSPost2010Prop38
140
0.0
102
RTVSPost2010PropOp38
 70
     1
102
RTVSPost2010Prop39
140
1.0
102
RTVSPost2010PropOp39
 70
     1
102
RTVSPost2010Prop40
 90
        0
102
RTVSPost2010PropOp40
 70
     1
102
RTVSPost2010Prop41ColorIndex
 90
       18
102
RTVSPost2010Prop41ColorRGB
 90
        0
102
RTVSPost2010PropOp41
 70
     1
102
RTVSPost2010Prop42
 90
       50
102
RTVSPost2010PropOp42
 70
     1
102
RTVSPost2010Prop43
 90
        3
102
RTVSPost2010PropOp43
 70
     1
102
RTVSPost2010Prop44ColorIndex
 90
        5
102
RTVSPost2010Prop44ColorRGB
 90
      255
102
RTVSPost2010PropOp44
 70
     1
102
RTVSPost2010Prop45
280
     0
102
RTVSPost2010PropOp45
 70
     1
102
RTVSPost2010Prop46
 90
       50
102
RTVSPost2010PropOp46
 70
     1
102
RTVSPost2010Prop47
 90
       50
102
RTVSPost2010PropOp47
 70
     1
102
RTVSPost2010Prop48
 90
       50
102
RTVSPost2010PropOp48
 70
     1
102
RTVSPost2010Prop49
280
     0
102
RTVSPost2010PropOp49
 70
     1
102
RTVSPost2010Prop50
 90
       50
102
RTVSPost2010PropOp50
 70
     1
102
RTVSPost2010Prop51ColorIndex
 90
      256
102
RTVSPost2010Prop51ColorRGB
 90
-16777216
102
RTVSPost2010PropOp51
 70
     0
102
RTVSPost2010Prop52
140
1.0
102
RTVSPost2010PropOp52
 70
     0
102
RTVSPost2010Prop53
 90
        2
102
RTVSPost2010PropOp53
 70
     1
102
RTVSPost2010Prop54
  1
strokes_ogs.tif
102
RTVSPost2010PropOp54
 70
     1
102
RTVSPost2010Prop55
280
     0
102
RTVSPost2010PropOp55
 70
     1
102
RTVSPost2010Prop56
140
1.0
102
RTVSPost2010PropOp56
 70
     1
102
RTVSPost2010Prop57
140
1.0
102
RTVSPost2010PropOp57
 70
     1
  0
ENDSEC
  0
EOF
