  0
SECTION
  2
HEADER
  9
$ACADVER
  1
AC1015
  9
$ACADMAINTVER
 70
     6
  9
$DWGCODEPAGE
  3
ANSI_932
  9
$INSBASE
 10
0.0
 20
0.0
 30
0.0
  9
$EXTMIN
 10
-19.2
 20
-25.0
 30
0.0
  9
$EXTMAX
 10
110.0
 20
40.0
 30
0.0
  9
$LIMMIN
 10
0.0
 20
0.0
  9
$LIMMAX
 10
12.0
 20
9.0
  9
$ORTHOMODE
 70
     0
  9
$REGENMODE
 70
     1
  9
$FILLMODE
 70
     1
  9
$QTEXTMODE
 70
     0
  9
$MIRRTEXT
 70
     1
  9
$LTSCALE
 40
1.0
  9
$ATTMODE
 70
     1
  9
$TEXTSIZE
 40
0.2
  9
$TRACEWID
 40
0.05
  9
$TEXTSTYLE
  7
Standard
  9
$CLAYER
  8
0
  9
$CELTYPE
  6
ByBlock
  9
$CECOLOR
 62
   256
  9
$CELTSCALE
 40
1.0
  9
$DISPSILH
 70
     0
  9
$DIMSCALE
 40
1.0
  9
$DIMASZ
 40
0.18
  9
$DIMEXO
 40
0.0625
  9
$DIMDLI
 40
0.38
  9
$DIMRND
 40
0.0
  9
$DIMDLE
 40
0.0
  9
$DIMEXE
 40
0.18
  9
$DIMTP
 40
0.0
  9
$DIMTM
 40
0.0
  9
$DIMTXT
 40
0.18
  9
$DIMCEN
 40
0.09
  9
$DIMTSZ
 40
0.0
  9
$DIMTOL
 70
     0
  9
$DIMLIM
 70
     0
  9
$DIMTIH
 70
     1
  9
$DIMTOH
 70
     1
  9
$DIMSE1
 70
     0
  9
$DIMSE2
 70
     0
  9
$DIMTAD
 70
     0
  9
$DIMZIN
 70
     0
  9
$DIMBLK
  1

  9
$DIMASO
 70
     1
  9
$DIMSHO
 70
     1
  9
$DIMPOST
  1

  9
$DIMAPOST
  1

  9
$DIMALT
 70
     0
  9
$DIMALTD
 70
     2
  9
$DIMALTF
 40
25.4
  9
$DIMLFAC
 40
1.0
  9
$DIMTOFL
 70
     0
  9
$DIMTVP
 40
0.0
  9
$DIMTIX
 70
     0
  9
$DIMSOXD
 70
     0
  9
$DIMSAH
 70
     0
  9
$DIMBLK1
  1

  9
$DIMBLK2
  1

  9
$DIMSTYLE
  2
STANDARD
  9
$DIMCLRD
 70
     0
  9
$DIMCLRE
 70
     0
  9
$DIMCLRT
 70
     0
  9
$DIMTFAC
 40
1.0
  9
$DIMGAP
 40
0.09
  9
$DIMJUST
 70
     0
  9
$DIMSD1
 70
     0
  9
$DIMSD2
 70
     0
  9
$DIMTOLJ
 70
     1
  9
$DIMTZIN
 70
     0
  9
$DIMALTZ
 70
     0
  9
$DIMALTTZ
 70
     0
  9
$DIMUPT
 70
     0
  9
$DIMDEC
 70
     4
  9
$DIMTDEC
 70
     4
  9
$DIMALTU
 70
     2
  9
$DIMALTTD
 70
     2
  9
$DIMTXSTY
  7
Standard
  9
$DIMAUNIT
 70
     0
  9
$DIMADEC
 70
     0
  9
$DIMALTRND
 40
0.0
  9
$DIMAZIN
 70
     0
  9
$DIMDSEP
 70
    46
  9
$DIMATFIT
 70
     3
  9
$DIMFRAC
 70
     0
  9
$DIMLDRBLK
  1

  9
$DIMLUNIT
 70
     2
  9
$DIMLWD
 70
    -2
  9
$DIMLWE
 70
    -2
  9
$DIMTMOVE
 70
     0
  9
$LUNITS
 70
     2
  9
$LUPREC
 70
     4
  9
$SKETCHINC
 40
0.1
  9
$FILLETRAD
 40
0.5
  9
$AUNITS
 70
     0
  9
$AUPREC
 70
     0
  9
$MENU
  1
.
  9
$ELEVATION
 40
0.0
  9
$PELEVATION
 40
0.0
  9
$THICKNESS
 40
0.0
  9
$LIMCHECK
 70
     0
  9
$CHAMFERA
 40
0.0
  9
$CHAMFERB
 40
0.0
  9
$CHAMFERC
 40
0.0
  9
$CHAMFERD
 40
0.0
  9
$SKPOLY
 70
     0
  9
$TDCREATE
 40
2447893.375
  9
$TDUCREATE
 40
0.0
  9
$TDUPDATE
 40
2460643.494818345
  9
$TDUUPDATE
 40
2460643.119818345
  9
$TDINDWG
 40
0.0027390856
  9
$TDUSRTIMER
 40
0.0027390856
  9
$USRTIMER
 70
     1
  9
$ANGBASE
 50
0.0
  9
$ANGDIR
 70
     0
  9
$PDMODE
 70
     0
  9
$PDSIZE
 40
0.0
  9
$PLINEWID
 40
0.0
  9
$SPLFRAME
 70
     0
  9
$SPLINETYPE
 70
     6
  9
$SPLINESEGS
 70
     8
  9
$HANDSEED
  5
106AC61
  9
$SURFTAB1
 70
     6
  9
$SURFTAB2
 70
     6
  9
$SURFTYPE
 70
     6
  9
$SURFU
 70
     6
  9
$SURFV
 70
     6
  9
$UCSBASE
  2

  9
$UCSNAME
  2

  9
$UCSORG
 10
0.0
 20
0.0
 30
0.0
  9
$UCSXDIR
 10
1.0
 20
0.0
 30
0.0
  9
$UCSYDIR
 10
0.0
 20
1.0
 30
0.0
  9
$UCSORTHOREF
  2

  9
$UCSORTHOVIEW
 70
     0
  9
$UCSORGTOP
 10
0.0
 20
0.0
 30
0.0
  9
$UCSORGBOTTOM
 10
0.0
 20
0.0
 30
0.0
  9
$UCSORGLEFT
 10
0.0
 20
0.0
 30
0.0
  9
$UCSORGRIGHT
 10
0.0
 20
0.0
 30
0.0
  9
$UCSORGFRONT
 10
0.0
 20
0.0
 30
0.0
  9
$UCSORGBACK
 10
0.0
 20
0.0
 30
0.0
  9
$PUCSBASE
  2

  9
$PUCSNAME
  2

  9
$PUCSORG
 10
0.0
 20
0.0
 30
0.0
  9
$PUCSXDIR
 10
1.0
 20
0.0
 30
0.0
  9
$PUCSYDIR
 10
0.0
 20
1.0
 30
0.0
  9
$PUCSORTHOREF
  2

  9
$PUCSORTHOVIEW
 70
     0
  9
$PUCSORGTOP
 10
0.0
 20
0.0
 30
0.0
  9
$PUCSORGBOTTOM
 10
0.0
 20
0.0
 30
0.0
  9
$PUCSORGLEFT
 10
0.0
 20
0.0
 30
0.0
  9
$PUCSORGRIGHT
 10
0.0
 20
0.0
 30
0.0
  9
$PUCSORGFRONT
 10
0.0
 20
0.0
 30
0.0
  9
$PUCSORGBACK
 10
0.0
 20
0.0
 30
0.0
  9
$USERI1
 70
     0
  9
$USERI2
 70
     0
  9
$USERI3
 70
     0
  9
$USERI4
 70
     0
  9
$USERI5
 70
     0
  9
$USERR1
 40
0.0
  9
$USERR2
 40
0.0
  9
$USERR3
 40
0.0
  9
$USERR4
 40
0.0
  9
$USERR5
 40
0.0
  9
$WORLDVIEW
 70
     1
  9
$SHADEDGE
 70
     3
  9
$SHADEDIF
 70
    70
  9
$TILEMODE
 70
     1
  9
$MAXACTVP
 70
    64
  9
$PINSBASE
 10
0.0
 20
0.0
 30
0.0
  9
$PLIMCHECK
 70
     0
  9
$PEXTMIN
 10
1.000000000000000E+20
 20
1.000000000000000E+20
 30
1.000000000000000E+20
  9
$PEXTMAX
 10
-1.000000000000000E+20
 20
-1.000000000000000E+20
 30
-1.000000000000000E+20
  9
$PLIMMIN
 10
0.0
 20
0.0
  9
$PLIMMAX
 10
0.0
 20
0.0
  9
$UNITMODE
 70
     0
  9
$VISRETAIN
 70
     1
  9
$PLINEGEN
 70
     0
  9
$PSLTSCALE
 70
     1
  9
$TREEDEPTH
 70
  3020
  9
$CMLSTYLE
  2
Standard
  9
$CMLJUST
 70
     0
  9
$CMLSCALE
 40
1.0
  9
$PROXYGRAPHICS
 70
     1
  9
$MEASUREMENT
 70
     0
  9
$CELWEIGHT
370
    -1
  9
$ENDCAPS
280
     0
  9
$JOINSTYLE
280
     0
  9
$LWDISPLAY
290
     0
  9
$INSUNITS
 70
     0
  9
$HYPERLINKBASE
  1

  9
$STYLESHEET
  1

  9
$XEDIT
290
     1
  9
$CEPSNTYPE
380
     0
  9
$PSTYLEMODE
290
     1
  9
$FINGERPRINTGUID
  2
{eac452a2-defa-48ed-8915-6f54d7c1d1a9}
  9
$VERSIONGUID
  2
{FAEB1C32-E019-11D5-929B-00C0DF256EC4}
  9
$EXTNAMES
290
     1
  9
$PSVPSCALE
 40
0.0
  9
$OLESTARTUP
290
     0
  0
ENDSEC
  0
SECTION
  2
CLASSES
  0
CLASS
  1
IMAGEDEF
  2
AcDbRasterImageDef
  3
ISM
 90
        0
280
     0
281
     0
  0
CLASS
  1
IMAGE
  2
AcDbRasterImage
  3
ISM
 90
      127
280
     0
281
     1
  0
CLASS
  1
IMAGEDEF_REACTOR
  2
AcDbRasterImageDefReactor
  3
ISM
 90
        1
280
     0
281
     0
  0
CLASS
  1
ACDBDICTIONARYWDFLT
  2
AcDbDictionaryWithDefault
  3
ObjectDBX Classes
 90
        0
280
     0
281
     0
  0
CLASS
  1
SCALE
  2
AcDbScale
  3
ObjectDBX Classes
 90
     1153
280
     0
281
     0
  0
CLASS
  1
MATERIAL
  2
AcDbMaterial
  3
ObjectDBX Classes
 90
     1153
280
     0
281
     0
  0
CLASS
  1
VISUALSTYLE
  2
AcDbVisualStyle
  3
ObjectDBX Classes
 90
     4095
280
     0
281
     0
  0
CLASS
  1
TABLESTYLE
  2
AcDbTableStyle
  3
ObjectDBX Classes
 90
     4095
280
     0
281
     0
  0
CLASS
  1
MLEADERSTYLE
  2
AcDbMLeaderStyle
  3
ACDB_MLEADERSTYLE_CLASS
 90
     4095
280
     0
281
     0
  0
CLASS
  1
SUN
  2
AcDbSun
  3
SCENEOE
 90
     1153
280
     0
281
     0
  0
CLASS
  1
RASTERVARIABLES
  2
AcDbRasterVariables
  3
ISM
 90
        0
280
     0
281
     0
  0
CLASS
  1
DICTIONARYVAR
  2
AcDbDictionaryVar
  3
ObjectDBX Classes
 90
        0
280
     0
281
     0
  0
CLASS
  1
ACDBPLACEHOLDER
  2
AcDbPlaceHolder
  3
ObjectDBX Classes
 90
        0
280
     0
281
     0
  0
CLASS
  1
LAYOUT
  2
AcDbLayout
  3
ObjectDBX Classes
 90
        0
280
     0
281
     0
  0
ENDSEC
  0
SECTION
  2
TABLES
  0
TABLE
  2
VPORT
  5
2
102
{ACAD_XDICTIONARY
360
106AC24
102
}
330
0
100
AcDbSymbolTable
 70
     1
  0
VPORT
  5
106AB91
330
2
100
AcDbSymbolTableRecord
100
AcDbViewportTableRecord
  2
*Active
 70
     0
 10
0.0
 20
0.0
 11
1.0
 21
1.0
 12
45.39999999999999
 22
7.5
 13
0.0
 23
0.0
 14
0.5
 24
0.5
 15
0.5
 25
0.5
 16
0.0
 26
0.0
 36
1.0
 17
0.0
 27
0.0
 37
0.0
 40
66.3
 41
2.13061797752809
 42
50.0
 43
0.0
 44
0.0
 50
0.0
 51
0.0
 71
    16
 72
   100
 73
     1
 74
     3
 75
     0
 76
     0
 77
     0
 78
     0
281
     0
 65
     1
110
0.0
120
0.0
130
0.0
111
1.0
121
0.0
131
0.0
112
0.0
122
1.0
132
0.0
 79
     0
146
0.0
  0
ENDTAB
  0
TABLE
  2
LTYPE
  5
3
330
0
100
AcDbSymbolTable
 70
     3
  0
LTYPE
  5
4
330
3
100
AcDbSymbolTableRecord
100
AcDbLinetypeTableRecord
  2
ByBlock
 70
     0
  3

 72
    65
 73
     0
 40
0.0
  0
LTYPE
  5
5
330
3
100
AcDbSymbolTableRecord
100
AcDbLinetypeTableRecord
  2
ByLayer
 70
     0
  3

 72
    65
 73
     0
 40
0.0
  0
LTYPE
  5
6
330
3
100
AcDbSymbolTableRecord
100
AcDbLinetypeTableRecord
  2
CONTINUOUS
 70
     0
  3
Solid Line
 72
    65
 73
     0
 40
0.0
  0
LTYPE
  5
7
330
3
100
AcDbSymbolTableRecord
100
AcDbLinetypeTableRecord
  2
DASH
 70
     0
  3
Hidden
 72
    65
 73
     2
 40
2.5
 49
1.5
 74
     0
 49
-1.0
 74
     0
  0
LTYPE
  5
8
330
3
100
AcDbSymbolTableRecord
100
AcDbLinetypeTableRecord
  2
LONGDASHDASH
 70
     0
  3
__ . __
 72
    65
 73
     4
 40
7.0
 49
4.0
 74
     0
 49
-1.0
 74
     0
 49
1.0
 74
     0
 49
-1.0
 74
     0
  0
ENDTAB
  0
TABLE
  2
LAYER
  5
9
330
0
100
AcDbSymbolTable
 70
    11
  0
LAYER
  5
A
330
9
100
AcDbSymbolTableRecord
100
AcDbLayerTableRecord
  2
0
 70
     0
 62
     7
  6
CONTINUOUS
370
    -3
390
106AB96
  0
LAYER
  5
C
330
9
100
AcDbSymbolTableRecord
100
AcDbLayerTableRecord
  2
1
 70
     0
 62
     4
  6
CONTINUOUS
370
    50
390
106AB96
  0
LAYER
  5
D
330
9
100
AcDbSymbolTableRecord
100
AcDbLayerTableRecord
  2
2
 70
     0
 62
     7
  6
CONTINUOUS
370
    25
390
106AB96
  0
LAYER
  5
F
330
9
100
AcDbSymbolTableRecord
100
AcDbLayerTableRecord
  2
4
 70
     0
 62
     2
  6
LONGDASHDASH
370
    25
390
106AB96
  0
LAYER
  5
13
330
9
100
AcDbSymbolTableRecord
100
AcDbLayerTableRecord
  2
SK1
 70
     0
 62
     4
  6
CONTINUOUS
370
    50
390
106AB96
  0
LAYER
  5
14
330
9
100
AcDbSymbolTableRecord
100
AcDbLayerTableRecord
  2
SK2
 70
     0
 62
     7
  6
CONTINUOUS
370
    25
390
106AB96
  0
LAYER
  5
16
330
9
100
AcDbSymbolTableRecord
100
AcDbLayerTableRecord
  2
SK4
 70
     0
 62
     2
  6
LONGDASHDASH
370
    25
390
106AB96
  0
LAYER
  5
21
330
9
100
AcDbSymbolTableRecord
100
AcDbLayerTableRecord
  2
NOCUT
 70
     0
 62
     7
  6
CONTINUOUS
370
    25
390
106AB96
  0
LAYER
  5
22
330
9
100
AcDbSymbolTableRecord
100
AcDbLayerTableRecord
  2
CUT
 70
     0
 62
     1
  6
CONTINUOUS
370
    25
390
106AB96
  0
LAYER
  5
26
330
9
100
AcDbSymbolTableRecord
100
AcDbLayerTableRecord
  2
INFTOTAL
 70
     0
 62
     9
  6
CONTINUOUS
370
    18
390
106AB96
  0
LAYER
  5
106ABE1
330
9
100
AcDbSymbolTableRecord
100
AcDbLayerTableRecord
  2
Defpoints
 70
     0
 62
     7
  6
CONTINUOUS
290
     0
370
    -3
390
106AB96
  0
ENDTAB
  0
TABLE
  2
STYLE
  5
27
330
0
100
AcDbSymbolTable
 70
     2
  0
STYLE
  5
28
330
27
100
AcDbSymbolTableRecord
100
AcDbTextStyleTableRecord
  2
Monospac821 BT
 70
     0
 40
3.5
 41
1.0
 50
0.0
 71
     0
 42
3.0
  3

  4

1001
ACAD
1000
Monospac821 BT
1071
      256
  0
STYLE
  5
106AB90
330
27
100
AcDbSymbolTableRecord
100
AcDbTextStyleTableRecord
  2
Standard
 70
     0
 40
0.0
 41
1.0
 50
0.0
 71
     0
 42
0.2
  3
txt
  4

  0
ENDTAB
  0
TABLE
  2
VIEW
  5
29
330
0
100
AcDbSymbolTable
 70
     0
  0
ENDTAB
  0
TABLE
  2
UCS
  5
2A
330
0
100
AcDbSymbolTable
 70
     0
  0
ENDTAB
  0
TABLE
  2
APPID
  5
2B
330
0
100
AcDbSymbolTable
 70
     3
  0
APPID
  5
2C
330
2B
100
AcDbSymbolTableRecord
100
AcDbRegAppTableRecord
  2
ACAD
 70
     0
  0
APPID
  5
106ABEE
330
2B
100
AcDbSymbolTableRecord
100
AcDbRegAppTableRecord
  2
FX_DIMP_FAV_VERSION
 70
     0
  0
APPID
  5
106AC5E
330
2B
100
AcDbSymbolTableRecord
100
AcDbRegAppTableRecord
  2
ACAD_MLEADERVER
 70
     0
  0
ENDTAB
  0
TABLE
  2
DIMSTYLE
  5
2D
330
0
100
AcDbSymbolTable
 70
     1
100
AcDbDimStyleTable
  0
DIMSTYLE
105
2E
102
{ACAD_REACTORS
330
106ABFD
330
106AC0D
102
}
330
2D
100
AcDbSymbolTableRecord
100
AcDbDimStyleTableRecord
  2
STANDARD
 70
     0
 41
3.0
 42
0.5
 44
1.0
 73
     0
 77
     1
 78
     1
140
3.5
141
2.5
143
0.03937007874
147
0.8
172
     1
174
     1
178
     0
179
     1
271
     2
279
     1
284
     1
340
28
  0
ENDTAB
  0
TABLE
  2
BLOCK_RECORD
  5
2F
330
0
100
AcDbSymbolTable
 70
    11
  0
BLOCK_RECORD
  5
30
102
{ACAD_XDICTIONARY
360
106AC1A
102
}
330
2F
100
AcDbSymbolTableRecord
100
AcDbBlockTableRecord
  2
*Model_Space
340
106AB98
  0
BLOCK_RECORD
  5
31
330
2F
100
AcDbSymbolTableRecord
100
AcDbBlockTableRecord
  2
*Paper_Space
340
106AB99
  0
BLOCK_RECORD
  5
374
330
2F
100
AcDbSymbolTableRecord
100
AcDbBlockTableRecord
  2
*D0
340
0
  0
BLOCK_RECORD
  5
382
330
2F
100
AcDbSymbolTableRecord
100
AcDbBlockTableRecord
  2
*D1
340
0
  0
BLOCK_RECORD
  5
392
330
2F
100
AcDbSymbolTableRecord
100
AcDbBlockTableRecord
  2
*D2
340
0
  0
BLOCK_RECORD
  5
3A0
330
2F
100
AcDbSymbolTableRecord
100
AcDbBlockTableRecord
  2
*D3
340
0
  0
BLOCK_RECORD
  5
3AE
330
2F
100
AcDbSymbolTableRecord
100
AcDbBlockTableRecord
  2
*D4
340
0
  0
BLOCK_RECORD
  5
3BC
330
2F
100
AcDbSymbolTableRecord
100
AcDbBlockTableRecord
  2
*D5
340
0
  0
BLOCK_RECORD
  5
3C6
330
2F
100
AcDbSymbolTableRecord
100
AcDbBlockTableRecord
  2
*D6
340
0
  0
BLOCK_RECORD
  5
3D4
330
2F
100
AcDbSymbolTableRecord
100
AcDbBlockTableRecord
  2
*D7
340
0
  0
BLOCK_RECORD
  5
3E2
330
2F
100
AcDbSymbolTableRecord
100
AcDbBlockTableRecord
  2
*D8
340
0
  0
BLOCK_RECORD
  5
106ABFE
330
2F
100
AcDbSymbolTableRecord
100
AcDbBlockTableRecord
  2
*D10
340
0
  0
BLOCK_RECORD
  5
106AC0E
330
2F
100
AcDbSymbolTableRecord
100
AcDbBlockTableRecord
  2
*D11
340
0
  0
ENDTAB
  0
ENDSEC
  0
SECTION
  2
BLOCKS
  0
BLOCK
  5
32
330
30
100
AcDbEntity
  8
0
100
AcDbBlockBegin
  2
*Model_Space
 70
     0
 10
0.0
 20
0.0
 30
0.0
  3
*Model_Space
  1

  0
ENDBLK
  5
33
330
30
100
AcDbEntity
  8
0
100
AcDbBlockEnd
  0
BLOCK
  5
34
330
31
100
AcDbEntity
 67
     1
  8
0
100
AcDbBlockBegin
  2
*Paper_Space
 70
     0
 10
0.0
 20
0.0
 30
0.0
  3
*Paper_Space
  1

  0
ENDBLK
  5
35
330
31
100
AcDbEntity
 67
     1
  8
0
100
AcDbBlockEnd
  0
BLOCK
  5
372
330
374
100
AcDbEntity
  8
SK2
100
AcDbBlockBegin
  2
*D0
 70
     1
 10
0.0
 20
0.0
 30
0.0
  3
*D0
  1

  0
LINE
  5
375
330
374
100
AcDbEntity
  8
SK2
 62
     0
370
    -2
100
AcDbLine
 10
0.0
 20
2.8
 30
0.0
 11
0.0
 21
35.0
 31
0.0
  0
LINE
  5
376
330
374
100
AcDbEntity
  8
SK2
 62
     0
370
    -2
100
AcDbLine
 10
70.0
 20
1.7
 30
0.0
 11
70.0
 21
35.0
 31
0.0
  0
LINE
  5
377
330
374
100
AcDbEntity
  8
SK2
 62
     0
370
    -2
100
AcDbLine
 10
3.0
 20
34.0
 30
0.0
 11
67.0
 21
34.0
 31
0.0
  0
SOLID
  5
378
330
374
100
AcDbEntity
  8
SK2
 62
     0
100
AcDbTrace
 10
3.0
 20
34.5
 30
0.0
 11
3.0
 21
33.5
 31
0.0
 12
0.0
 22
34.0
 32
0.0
 13
0.0
 23
34.0
 33
0.0
  0
SOLID
  5
379
330
374
100
AcDbEntity
  8
SK2
 62
     0
100
AcDbTrace
 10
67.0
 20
33.5
 30
0.0
 11
67.0
 21
34.5
 31
0.0
 12
70.0
 22
34.0
 32
0.0
 13
70.0
 23
34.0
 33
0.0
  0
MTEXT
  5
37A
330
374
100
AcDbEntity
  8
SK2
  6
ByBlock
 62
     0
100
AcDbMText
 10
35.0
 20
36.61125
 30
0.0
 40
3.5
 41
0.0
 71
     5
 72
     1
  1
\A1;70
 73
     1
 44
1.0
  0
POINT
  5
37B
330
374
100
AcDbEntity
  8
Defpoints
 62
     0
100
AcDbPoint
 10
0.0
 20
2.3
 30
0.0
  0
POINT
  5
37C
330
374
100
AcDbEntity
  8
Defpoints
 62
     0
100
AcDbPoint
 10
70.0
 20
1.2
 30
0.0
  0
POINT
  5
37D
330
374
100
AcDbEntity
  8
Defpoints
 62
     0
100
AcDbPoint
 10
70.0
 20
34.0
 30
0.0
  0
ENDBLK
  5
37E
330
374
100
AcDbEntity
  8
SK2
100
AcDbBlockEnd
  0
BLOCK
  5
380
330
382
100
AcDbEntity
  8
SK2
100
AcDbBlockBegin
  2
*D1
 70
     1
 10
0.0
 20
0.0
 30
0.0
  3
*D1
  1

  0
LINE
  5
383
330
382
100
AcDbEntity
  8
SK2
100
AcDbLine
 10
36.435630018772
 20
5.07055236082
 30
0.0
 11
44.163036629084
 21
3.0
 31
0.0
  0
LINE
  5
384
330
382
100
AcDbEntity
  8
SK2
100
AcDbLine
 10
43.363036629084
 20
3.0
 30
0.0
 11
36.163036629084
 21
3.0
 31
0.0
  0
ARC
  5
385
330
382
100
AcDbEntity
  8
SK2
100
AcDbCircle
 10
44.163036629084
 20
3.0
 30
0.0
 40
6.0
100
AcDbArc
 50
102.454869220097
 51
180.0
  0
SOLID
  5
386
330
382
100
AcDbEntity
  8
SK2
100
AcDbTrace
 10
38.36748167135
 20
4.552914270615
 30
0.0
 11
38.0411661908
 21
2.074302117181
 31
0.0
 12
37.410773090437
 22
2.243215439337
 32
0.0
 13
37.410773090437
 23
2.243215439337
 33
0.0
  0
SOLID
  5
387
330
382
100
AcDbEntity
  8
SK2
100
AcDbTrace
 10
38.163036629084
 20
3.0
 30
0.0
 11
37.836721148534
 21
5.478612153435
 31
0.0
 12
38.489352109634
 22
5.478612153435
 32
0.0
 13
38.489352109634
 23
5.478612153435
 33
0.0
  0
MTEXT
  5
388
330
382
100
AcDbEntity
  8
SK2
100
AcDbMText
 10
38.36748167135
 20
4.552914270615
 30
0.0
 40
3.5
 41
0.0
 71
     8
 72
     1
  1
15°
 11
0.258819045103
 21
0.965925826289
 31
0.0
 73
     1
 44
1.0
  0
POINT
  5
389
330
382
100
AcDbEntity
  8
SK2
 62
     0
100
AcDbPoint
 10
38.2635071837
 20
4.093413152953
 30
0.0
  0
POINT
  5
38A
330
382
100
AcDbEntity
  8
SK2
 62
     0
100
AcDbPoint
 10
44.163036629084
 20
3.0
 30
0.0
  0
POINT
  5
38B
330
382
100
AcDbEntity
  8
SK2
 62
     0
100
AcDbPoint
 10
36.435630018772
 20
5.07055236082
 30
0.0
  0
POINT
  5
38C
330
382
100
AcDbEntity
  8
SK2
 62
     0
100
AcDbPoint
 10
44.163036629084
 20
3.0
 30
0.0
  0
POINT
  5
38D
330
382
100
AcDbEntity
  8
SK2
 62
     0
100
AcDbPoint
 10
43.363036629084
 20
3.0
 30
0.0
  0
ENDBLK
  5
38E
330
382
100
AcDbEntity
  8
SK2
100
AcDbBlockEnd
  0
BLOCK
  5
390
330
392
100
AcDbEntity
  8
SK2
100
AcDbBlockBegin
  2
*D2
 70
     1
 10
0.0
 20
0.0
 30
0.0
  3
*D2
  1

  0
LINE
  5
393
330
392
100
AcDbEntity
  8
SK2
 62
     0
370
    -2
100
AcDbLine
 10
0.2
 20
-3.0
 30
0.0
 11
-9.0
 21
-3.0
 31
0.0
  0
LINE
  5
394
330
392
100
AcDbEntity
  8
SK2
 62
     0
370
    -2
100
AcDbLine
 10
0.2
 20
3.0
 30
0.0
 11
-9.0
 21
3.0
 31
0.0
  0
LINE
  5
395
330
392
100
AcDbEntity
  8
SK2
 62
     0
370
    -2
100
AcDbLine
 10
-8.0
 20
3.0
 30
0.0
 11
-8.0
 21
16.2525
 31
0.0
  0
LINE
  5
396
330
392
100
AcDbEntity
  8
SK2
 62
     0
370
    -2
100
AcDbLine
 10
-8.0
 20
-3.0
 30
0.0
 11
-8.0
 21
3.0
 31
0.0
  0
LINE
  5
397
330
392
100
AcDbEntity
  8
SK2
 62
     0
370
    -2
100
AcDbLine
 10
-8.0
 20
-6.0
 30
0.0
 11
-8.0
 21
-9.0
 31
0.0
  0
LINE
  5
398
330
392
100
AcDbEntity
  8
SK2
 62
     0
370
    -2
100
AcDbLine
 10
-8.0
 20
5.999999999999999
 30
0.0
 11
-8.0
 21
8.999999999999998
 31
0.0
  0
SOLID
  5
399
330
392
100
AcDbEntity
  8
SK2
 62
     0
100
AcDbTrace
 10
-7.5
 20
-6.0
 30
0.0
 11
-8.5
 21
-6.0
 31
0.0
 12
-8.0
 22
-3.0
 32
0.0
 13
-8.0
 23
-3.0
 33
0.0
  0
SOLID
  5
39A
330
392
100
AcDbEntity
  8
SK2
 62
     0
100
AcDbTrace
 10
-8.5
 20
5.999999999999999
 30
0.0
 11
-7.5
 21
5.999999999999999
 31
0.0
 12
-8.0
 22
3.0
 32
0.0
 13
-8.0
 23
3.0
 33
0.0
  0
MTEXT
  5
39B
330
392
100
AcDbEntity
  8
SK2
  6
ByBlock
 62
     0
100
AcDbMText
 10
-10.662
 20
12.62625
 30
0.0
 40
3.5
 41
0.0
 71
     5
 72
     1
  1
\A1;%%c6
 11
0.0
 21
1.0
 31
0.0
 73
     1
 44
1.0
  0
POINT
  5
106ABE2
330
392
100
AcDbEntity
  8
Defpoints
 62
     0
100
AcDbPoint
 10
0.7
 20
-3.0
 30
0.0
  0
POINT
  5
106ABE3
330
392
100
AcDbEntity
  8
Defpoints
 62
     0
100
AcDbPoint
 10
0.7
 20
3.0
 30
0.0
  0
POINT
  5
106ABEA
330
392
100
AcDbEntity
  8
Defpoints
 62
     0
100
AcDbPoint
 10
-8.0
 20
3.0
 30
0.0
  0
ENDBLK
  5
39C
330
392
100
AcDbEntity
  8
SK2
100
AcDbBlockEnd
  0
BLOCK
  5
39E
330
3A0
100
AcDbEntity
  8
SK2
100
AcDbBlockBegin
  2
*D3
 70
     1
 10
0.0
 20
0.0
 30
0.0
  3
*D3
  1

  0
LINE
  5
3A1
330
3A0
100
AcDbEntity
  8
SK2
 62
     0
370
    -2
100
AcDbLine
 10
44.0
 20
3.5
 30
0.0
 11
44.0
 21
29.0
 31
0.0
  0
LINE
  5
3A2
330
3A0
100
AcDbEntity
  8
SK2
 62
     0
370
    -2
100
AcDbLine
 10
0.0
 20
2.8
 30
0.0
 11
0.0
 21
29.0
 31
0.0
  0
LINE
  5
3A3
330
3A0
100
AcDbEntity
  8
SK2
 62
     0
370
    -2
100
AcDbLine
 10
41.0
 20
28.0
 30
0.0
 11
3.0
 21
28.0
 31
0.0
  0
SOLID
  5
3A4
330
3A0
100
AcDbEntity
  8
SK2
 62
     0
100
AcDbTrace
 10
41.0
 20
27.5
 30
0.0
 11
41.0
 21
28.5
 31
0.0
 12
44.0
 22
28.0
 32
0.0
 13
44.0
 23
28.0
 33
0.0
  0
SOLID
  5
3A5
330
3A0
100
AcDbEntity
  8
SK2
 62
     0
100
AcDbTrace
 10
3.0
 20
28.5
 30
0.0
 11
3.0
 21
27.5
 31
0.0
 12
0.0
 22
28.0
 32
0.0
 13
0.0
 23
28.0
 33
0.0
  0
MTEXT
  5
3A6
330
3A0
100
AcDbEntity
  8
SK2
  6
ByBlock
 62
     0
100
AcDbMText
 10
22.0
 20
30.55
 30
0.0
 40
3.5
 41
0.0
 71
     5
 72
     1
  1
\A1;44
 73
     1
 44
1.0
  0
POINT
  5
3A7
330
3A0
100
AcDbEntity
  8
Defpoints
 62
     0
100
AcDbPoint
 10
44.0
 20
3.0
 30
0.0
  0
POINT
  5
3A8
330
3A0
100
AcDbEntity
  8
Defpoints
 62
     0
100
AcDbPoint
 10
0.0
 20
2.3
 30
0.0
  0
POINT
  5
3A9
330
3A0
100
AcDbEntity
  8
Defpoints
 62
     0
100
AcDbPoint
 10
0.0
 20
28.0
 30
0.0
  0
ENDBLK
  5
3AA
330
3A0
100
AcDbEntity
  8
SK2
100
AcDbBlockEnd
  0
BLOCK
  5
3AC
330
3AE
100
AcDbEntity
  8
2
100
AcDbBlockBegin
  2
*D4
 70
     1
 10
0.0
 20
0.0
 30
0.0
  3
*D4
  1

  0
LINE
  5
3AF
330
3AE
100
AcDbEntity
  8
2
 62
     0
370
    -2
100
AcDbLine
 10
70.2
 20
-1.5
 30
0.0
 11
108.0
 21
-1.499999999999997
 31
0.0
  0
LINE
  5
3B0
330
3AE
100
AcDbEntity
  8
2
 62
     0
370
    -2
100
AcDbLine
 10
70.2
 20
1.5
 30
0.0
 11
108.0
 21
1.500000000000002
 31
0.0
  0
LINE
  5
3B1
330
3AE
100
AcDbEntity
  8
2
 62
     0
370
    -2
100
AcDbLine
 10
107.0
 20
1.500000000000002
 30
0.0
 11
107.0
 21
14.68600000000001
 31
0.0
  0
LINE
  5
3B2
330
3AE
100
AcDbEntity
  8
2
 62
     0
370
    -2
100
AcDbLine
 10
107.0
 20
-1.499999999999997
 30
0.0
 11
107.0
 21
1.500000000000002
 31
0.0
  0
LINE
  5
3B3
330
3AE
100
AcDbEntity
  8
2
 62
     0
370
    -2
100
AcDbLine
 10
107.0
 20
-4.499999999999997
 30
0.0
 11
107.0
 21
-7.499999999999997
 31
0.0
  0
LINE
  5
3B4
330
3AE
100
AcDbEntity
  8
2
 62
     0
370
    -2
100
AcDbLine
 10
107.0
 20
4.500000000000002
 30
0.0
 11
107.0
 21
7.500000000000002
 31
0.0
  0
SOLID
  5
3B5
330
3AE
100
AcDbEntity
  8
2
 62
     0
100
AcDbTrace
 10
107.5
 20
-4.499999999999997
 30
0.0
 11
106.5
 21
-4.499999999999997
 31
0.0
 12
107.0
 22
-1.499999999999997
 32
0.0
 13
107.0
 23
-1.499999999999997
 33
0.0
  0
SOLID
  5
3B6
330
3AE
100
AcDbEntity
  8
2
 62
     0
100
AcDbTrace
 10
106.5
 20
4.500000000000002
 30
0.0
 11
107.5
 21
4.500000000000002
 31
0.0
 12
107.0
 22
1.500000000000002
 32
0.0
 13
107.0
 23
1.500000000000002
 33
0.0
  0
MTEXT
  5
3B7
330
3AE
100
AcDbEntity
  8
2
  6
ByBlock
 62
     0
100
AcDbMText
 10
104.338
 20
11.09300000000001
 30
0.0
 40
3.5
 41
0.0
 71
     5
 72
     1
  1
\A1;%%c3
 11
0.0
 21
1.0
 31
0.0
 73
     1
 44
1.0
  0
POINT
  5
106ABE4
330
3AE
100
AcDbEntity
  8
Defpoints
 62
     0
100
AcDbPoint
 10
69.7
 20
-1.5
 30
0.0
  0
POINT
  5
106ABE5
330
3AE
100
AcDbEntity
  8
Defpoints
 62
     0
100
AcDbPoint
 10
69.7
 20
1.5
 30
0.0
  0
POINT
  5
106ABEB
330
3AE
100
AcDbEntity
  8
Defpoints
 62
     0
100
AcDbPoint
 10
107.0
 20
1.500000000000002
 30
0.0
  0
ENDBLK
  5
3B8
330
3AE
100
AcDbEntity
  8
2
100
AcDbBlockEnd
  0
BLOCK
  5
3BA
330
3BC
100
AcDbEntity
  8
2
100
AcDbBlockBegin
  2
*D5
 70
     1
 10
0.0
 20
0.0
 30
0.0
  3
*D5
  1

  0
LINE
  5
3BD
330
3BC
100
AcDbEntity
  8
2
 62
     0
370
    -2
100
AcDbLine
 10
87.69490255859077
 20
7.0
 30
0.0
 11
75.50590255859076
 21
7.0
 31
0.0
  0
LINE
  5
3BE
330
3BC
100
AcDbEntity
  8
2
 62
     0
370
    -2
100
AcDbLine
 10
75.50590255859076
 20
7.0
 30
0.0
 11
72.03463882895531
 21
3.532265323313922
 31
0.0
  0
MTEXT
  5
3BF
330
3BC
100
AcDbEntity
  8
2
  6
ByBlock
 62
     0
100
AcDbMText
 10
82.00040255859076
 20
9.61125
 30
0.0
 40
3.5
 41
0.0
 71
     5
 72
     1
  1
\A1;R0.3
 73
     1
 44
1.0
  0
LINE
  5
3C0
330
3BC
100
AcDbEntity
  8
2
 62
     0
370
    -2
100
AcDbLine
 10
69.7
 20
1.2
 30
0.0
 11
69.91223989354124
 21
1.412024120301112
 31
0.0
  0
SOLID
  5
3C1
330
3BC
100
AcDbEntity
  8
2
 62
     0
100
AcDbTrace
 10
71.68126529511984
 20
3.885998479216267
 30
0.0
 11
72.38801236279078
 21
3.178532167411577
 31
0.0
 12
69.91223989354124
 22
1.412024120301112
 32
0.0
 13
69.91223989354124
 23
1.412024120301112
 33
0.0
  0
POINT
  5
106ABEF
330
3BC
100
AcDbEntity
  8
Defpoints
 62
     0
100
AcDbPoint
 10
69.91223989354124
 20
1.412024120301112
 30
0.0
  0
POINT
  5
106ABF0
330
3BC
100
AcDbEntity
  8
Defpoints
 62
     0
100
AcDbPoint
 10
69.7
 20
1.2
 30
0.0
  0
ENDBLK
  5
3C2
330
3BC
100
AcDbEntity
  8
2
100
AcDbBlockEnd
  0
BLOCK
  5
3C4
330
3C6
100
AcDbEntity
  8
2
100
AcDbBlockBegin
  2
*D6
 70
     1
 10
0.0
 20
0.0
 30
0.0
  3
*D6
  1

  0
LINE
  5
3C7
330
3C6
100
AcDbEntity
  8
2
 62
     0
370
    -2
100
AcDbLine
 10
70.0
 20
-1.7
 30
0.0
 11
70.0
 21
-16.0
 31
0.0
  0
LINE
  5
3C8
330
3C6
100
AcDbEntity
  8
2
 62
     0
370
    -2
100
AcDbLine
 10
67.5
 20
-1.925
 30
0.0
 11
67.5
 21
-16.0
 31
0.0
  0
LINE
  5
3C9
330
3C6
100
AcDbEntity
  8
2
 62
     0
370
    -2
100
AcDbLine
 10
70.0
 20
-15.0
 30
0.0
 11
86.0805
 21
-15.0
 31
0.0
  0
LINE
  5
3CA
330
3C6
100
AcDbEntity
  8
2
 62
     0
370
    -2
100
AcDbLine
 10
70.0
 20
-15.0
 30
0.0
 11
67.5
 21
-15.0
 31
0.0
  0
LINE
  5
3CB
330
3C6
100
AcDbEntity
  8
2
 62
     0
370
    -2
100
AcDbLine
 10
73.0
 20
-15.0
 30
0.0
 11
76.0
 21
-15.0
 31
0.0
  0
LINE
  5
3CC
330
3C6
100
AcDbEntity
  8
2
 62
     0
370
    -2
100
AcDbLine
 10
64.5
 20
-15.0
 30
0.0
 11
61.5
 21
-15.0
 31
0.0
  0
SOLID
  5
3CD
330
3C6
100
AcDbEntity
  8
2
 62
     0
100
AcDbTrace
 10
73.0
 20
-14.5
 30
0.0
 11
73.0
 21
-15.5
 31
0.0
 12
70.0
 22
-15.0
 32
0.0
 13
70.0
 23
-15.0
 33
0.0
  0
SOLID
  5
3CE
330
3C6
100
AcDbEntity
  8
2
 62
     0
100
AcDbTrace
 10
64.5
 20
-15.5
 30
0.0
 11
64.5
 21
-14.5
 31
0.0
 12
67.5
 22
-15.0
 32
0.0
 13
67.5
 23
-15.0
 33
0.0
  0
MTEXT
  5
3CF
330
3C6
100
AcDbEntity
  8
2
  6
ByBlock
 62
     0
100
AcDbMText
 10
81.04025
 20
-12.38875
 30
0.0
 40
3.5
 41
0.0
 71
     5
 72
     1
  1
\A1;2.5
 73
     1
 44
1.0
  0
POINT
  5
106ABE6
330
3C6
100
AcDbEntity
  8
Defpoints
 62
     0
100
AcDbPoint
 10
70.0
 20
-1.2
 30
0.0
  0
POINT
  5
106ABE7
330
3C6
100
AcDbEntity
  8
Defpoints
 62
     0
100
AcDbPoint
 10
67.5
 20
-1.425
 30
0.0
  0
POINT
  5
106ABF1
330
3C6
100
AcDbEntity
  8
Defpoints
 62
     0
100
AcDbPoint
 10
67.5
 20
-15.0
 30
0.0
  0
ENDBLK
  5
3D0
330
3C6
100
AcDbEntity
  8
2
100
AcDbBlockEnd
  0
BLOCK
  5
3D2
330
3D4
100
AcDbEntity
  8
2
100
AcDbBlockBegin
  2
*D7
 70
     1
 10
0.0
 20
0.0
 30
0.0
  3
*D7
  1

  0
LINE
  5
3D5
330
3D4
100
AcDbEntity
  8
2
 62
     0
370
    -2
100
AcDbLine
 10
59.064
 20
1.425000000000001
 30
0.0
 11
59.064
 21
23.7215
 31
0.0
  0
LINE
  5
3D6
330
3D4
100
AcDbEntity
  8
2
 62
     0
370
    -2
100
AcDbLine
 10
59.064
 20
-1.425000000000001
 30
0.0
 11
59.064
 21
1.425000000000001
 31
0.0
  0
LINE
  5
3D7
330
3D4
100
AcDbEntity
  8
2
 62
     0
370
    -2
100
AcDbLine
 10
59.064
 20
-4.425000000000001
 30
0.0
 11
59.064
 21
-7.425000000000001
 31
0.0
  0
LINE
  5
3D8
330
3D4
100
AcDbEntity
  8
2
 62
     0
370
    -2
100
AcDbLine
 10
59.064
 20
4.425000000000001
 30
0.0
 11
59.064
 21
7.425000000000001
 31
0.0
  0
SOLID
  5
3D9
330
3D4
100
AcDbEntity
  8
2
 62
     0
100
AcDbTrace
 10
59.564
 20
-4.425000000000001
 30
0.0
 11
58.564
 21
-4.425000000000001
 31
0.0
 12
59.064
 22
-1.425000000000001
 32
0.0
 13
59.064
 23
-1.425000000000001
 33
0.0
  0
SOLID
  5
3DA
330
3D4
100
AcDbEntity
  8
2
 62
     0
100
AcDbTrace
 10
58.564
 20
4.425000000000001
 30
0.0
 11
59.564
 21
4.425000000000001
 31
0.0
 12
59.064
 22
1.425000000000001
 32
0.0
 13
59.064
 23
1.425000000000001
 33
0.0
  0
MTEXT
  5
3DB
330
3D4
100
AcDbEntity
  8
2
  6
ByBlock
 62
     0
100
AcDbMText
 10
56.402
 20
15.57325
 30
0.0
 40
3.5
 41
0.0
 71
     5
 72
     1
  1
\A1;%%c2.85
 11
0.0
 21
1.0
 31
0.0
 73
     1
 44
1.0
  0
POINT
  5
3DC
330
3D4
100
AcDbEntity
  8
Defpoints
 62
     0
100
AcDbPoint
 10
50.628
 20
-1.425
 30
0.0
  0
POINT
  5
3DD
330
3D4
100
AcDbEntity
  8
Defpoints
 62
     0
100
AcDbPoint
 10
50.628
 20
1.425
 30
0.0
  0
POINT
  5
106ABE8
330
3D4
100
AcDbEntity
  8
Defpoints
 62
     0
100
AcDbPoint
 10
59.064
 20
1.425
 30
0.0
  0
ENDBLK
  5
3DE
330
3D4
100
AcDbEntity
  8
2
100
AcDbBlockEnd
  0
BLOCK
  5
3E0
330
3E2
100
AcDbEntity
  8
2
100
AcDbBlockBegin
  2
*D8
 70
     1
 10
0.0
 20
0.0
 30
0.0
  3
*D8
  1

  0
LINE
  5
3E3
330
3E2
100
AcDbEntity
  8
2
 62
     0
370
    -2
100
AcDbLine
 10
70.0
 20
-1.7
 30
0.0
 11
70.0
 21
-23.0
 31
0.0
  0
LINE
  5
3E4
330
3E2
100
AcDbEntity
  8
2
 62
     0
370
    -2
100
AcDbLine
 10
50.000131071657
 20
-2.0
 30
0.0
 11
50.000131071657
 21
-23.0
 31
0.0
  0
LINE
  5
3E5
330
3E2
100
AcDbEntity
  8
2
 62
     0
370
    -2
100
AcDbLine
 10
67.0
 20
-22.0
 30
0.0
 11
53.000131071657
 21
-22.0
 31
0.0
  0
SOLID
  5
3E6
330
3E2
100
AcDbEntity
  8
2
 62
     0
100
AcDbTrace
 10
67.0
 20
-22.5
 30
0.0
 11
67.0
 21
-21.5
 31
0.0
 12
70.0
 22
-22.0
 32
0.0
 13
70.0
 23
-22.0
 33
0.0
  0
SOLID
  5
3E7
330
3E2
100
AcDbEntity
  8
2
 62
     0
100
AcDbTrace
 10
53.000131071657
 20
-21.5
 30
0.0
 11
53.000131071657
 21
-22.5
 31
0.0
 12
50.000131071657
 22
-22.0
 32
0.0
 13
50.000131071657
 23
-22.0
 33
0.0
  0
MTEXT
  5
3E8
330
3E2
100
AcDbEntity
  8
2
  6
ByBlock
 62
     0
100
AcDbMText
 10
60.0
 20
-19.38875
 30
0.0
 40
3.5
 41
0.0
 71
     5
 72
     1
  1
\A1;20
 73
     1
 44
1.0
  0
POINT
  5
3E9
330
3E2
100
AcDbEntity
  8
Defpoints
 62
     0
100
AcDbPoint
 10
70.0
 20
-1.2
 30
0.0
  0
POINT
  5
3EA
330
3E2
100
AcDbEntity
  8
Defpoints
 62
     0
100
AcDbPoint
 10
50.000131071657
 20
-1.5
 30
0.0
  0
POINT
  5
3EB
330
3E2
100
AcDbEntity
  8
Defpoints
 62
     0
100
AcDbPoint
 10
50.000131071657
 20
-22.0
 30
0.0
  0
ENDBLK
  5
3EC
330
3E2
100
AcDbEntity
  8
2
100
AcDbBlockEnd
  0
BLOCK
  5
106ABFF
330
106ABFE
100
AcDbEntity
  8
SK2
100
AcDbBlockBegin
  2
*D10
 70
     1
 10
0.0
 20
0.0
 30
0.0
  3
*D10
  1

  0
LINE
  5
106AC00
330
106ABFE
100
AcDbEntity
  8
SK2
 62
     0
370
    -2
100
AcDbLine
 10
44.0
 20
1.2
 30
0.0
 11
44.0
 21
26.7
 31
0.0
  0
LINE
  5
106AC01
330
106ABFE
100
AcDbEntity
  8
SK2
 62
     0
370
    -2
100
AcDbLine
 10
0.0000000000000036
 20
0.5
 30
0.0
 11
0.0000000000000036
 21
26.7
 31
0.0
  0
LINE
  5
106AC02
330
106ABFE
100
AcDbEntity
  8
SK2
 62
     0
370
    -2
100
AcDbLine
 10
41.0
 20
25.7
 30
0.0
 11
3.000000000000004
 21
25.7
 31
0.0
  0
SOLID
  5
106AC03
330
106ABFE
100
AcDbEntity
  8
SK2
 62
     0
100
AcDbTrace
 10
41.0
 20
25.2
 30
0.0
 11
41.0
 21
26.2
 31
0.0
 12
44.0
 22
25.7
 32
0.0
 13
44.0
 23
25.7
 33
0.0
  0
SOLID
  5
106AC04
330
106ABFE
100
AcDbEntity
  8
SK2
 62
     0
100
AcDbTrace
 10
3.000000000000004
 20
26.2
 30
0.0
 11
3.000000000000004
 21
25.2
 31
0.0
 12
0.0000000000000036
 22
25.7
 32
0.0
 13
0.0000000000000036
 23
25.7
 33
0.0
  0
MTEXT
  5
106AC05
330
106ABFE
100
AcDbEntity
  8
SK2
  6
ByBlock
 62
     0
100
AcDbMText
 10
22.0
 20
28.25
 30
0.0
 40
3.5
 41
0.0
 71
     5
 72
     1
  1
\A1;44
 73
     1
 44
1.0
  0
POINT
  5
106AC06
330
106ABFE
100
AcDbEntity
  8
Defpoints
 62
     0
100
AcDbPoint
 10
44.0
 20
0.7000000000000002
 30
0.0
  0
POINT
  5
106AC07
330
106ABFE
100
AcDbEntity
  8
Defpoints
 62
     0
100
AcDbPoint
 10
0.0000000000000036
 20
0.0
 30
0.0
  0
POINT
  5
106AC08
330
106ABFE
100
AcDbEntity
  8
Defpoints
 62
     0
100
AcDbPoint
 10
0.0000000000000036
 20
25.7
 30
0.0
  0
ENDBLK
  5
106AC09
330
106ABFE
100
AcDbEntity
  8
SK2
100
AcDbBlockEnd
  0
BLOCK
  5
106AC0F
330
106AC0E
100
AcDbEntity
  8
0
100
AcDbBlockBegin
  2
*D11
 70
     1
 10
0.0
 20
0.0
 30
0.0
  3
*D11
  1

  0
LINE
  5
106AC11
330
106AC0E
100
AcDbEntity
  8
2
 62
     0
370
    -2
100
AcDbLine
 10
70.0
 20
1.7
 30
0.0
 11
70.0
 21
29.0
 31
0.0
  0
LINE
  5
106AC12
330
106AC0E
100
AcDbEntity
  8
2
 62
     0
370
    -2
100
AcDbLine
 10
44.0
 20
3.5
 30
0.0
 11
44.0
 21
29.0
 31
0.0
  0
LINE
  5
106AC13
330
106AC0E
100
AcDbEntity
  8
2
 62
     0
370
    -2
100
AcDbLine
 10
67.0
 20
28.0
 30
0.0
 11
47.0
 21
28.0
 31
0.0
  0
SOLID
  5
106AC14
330
106AC0E
100
AcDbEntity
  8
2
 62
     0
100
AcDbTrace
 10
67.0
 20
27.5
 30
0.0
 11
67.0
 21
28.5
 31
0.0
 12
70.0
 22
28.0
 32
0.0
 13
70.0
 23
28.0
 33
0.0
  0
SOLID
  5
106AC15
330
106AC0E
100
AcDbEntity
  8
2
 62
     0
100
AcDbTrace
 10
47.0
 20
28.5
 30
0.0
 11
47.0
 21
27.5
 31
0.0
 12
44.0
 22
28.0
 32
0.0
 13
44.0
 23
28.0
 33
0.0
  0
MTEXT
  5
106AC16
330
106AC0E
100
AcDbEntity
  8
2
  6
ByBlock
 62
     0
100
AcDbMText
 10
57.0
 20
30.61125
 30
0.0
 40
3.5
 41
0.0
 71
     5
 72
     1
  1
\A1;26
 73
     1
 44
1.0
  0
POINT
  5
106AC17
330
106AC0E
100
AcDbEntity
  8
Defpoints
 62
     0
100
AcDbPoint
 10
70.0
 20
1.2
 30
0.0
  0
POINT
  5
106AC18
330
106AC0E
100
AcDbEntity
  8
Defpoints
 62
     0
100
AcDbPoint
 10
44.0
 20
3.0
 30
0.0
  0
POINT
  5
106AC19
330
106AC0E
100
AcDbEntity
  8
Defpoints
 62
     0
100
AcDbPoint
 10
44.0
 20
28.0
 30
0.0
  0
ENDBLK
  5
106AC10
330
106AC0E
100
AcDbEntity
  8
0
100
AcDbBlockEnd
  0
ENDSEC
  0
SECTION
  2
ENTITIES
  0
DIMENSION
  5
37F
330
30
100
AcDbEntity
  8
SK2
100
AcDbDimension
  2
*D0
 10
70.0
 20
34.0
 30
0.0
 11
35.0
 21
34.0
 31
0.0
 70
   160
  1
<>
 71
     5
 42
70.0
  3
STANDARD
100
AcDbAlignedDimension
 13
0.0
 23
2.3
 33
0.0
 14
70.0
 24
1.2
 34
0.0
100
AcDbRotatedDimension
1001
ACAD
1000
DSTYLE
1002
{
1070
   271
1070
     0
1070
   279
1070
     0
1070
    74
1070
     0
1002
}
  0
DIMENSION
  5
39D
330
30
100
AcDbEntity
  8
SK2
100
AcDbDimension
  2
*D2
 10
-8.0
 20
3.0
 30
0.0
 11
-8.0
 21
12.62625
 31
0.0
 70
   160
  1
%%c<>
 71
     5
 42
6.0
  3
STANDARD
100
AcDbAlignedDimension
 13
0.7
 23
-3.0
 33
0.0
 14
0.7
 24
3.0
 34
0.0
 50
-90.0
100
AcDbRotatedDimension
1001
ACAD
1000
DSTYLE
1002
{
1070
   271
1070
     0
1070
   279
1070
     0
1070
    74
1070
     0
1002
}
  0
DIMENSION
  5
3AB
330
30
100
AcDbEntity
  8
SK2
100
AcDbDimension
  2
*D3
 10
0.0
 20
28.0
 30
0.0
 11
22.0
 21
28.0
 31
0.0
 70
   160
  1
<>
 71
     5
 42
44.0
  3
STANDARD
100
AcDbAlignedDimension
 13
44.0
 23
3.0
 33
0.0
 14
0.0
 24
2.3
 34
0.0
100
AcDbRotatedDimension
1001
ACAD
1000
DSTYLE
1002
{
1070
   271
1070
     0
1070
   279
1070
     0
1070
    74
1070
     0
1002
}
  0
DIMENSION
  5
3B9
330
30
100
AcDbEntity
  8
2
100
AcDbDimension
  2
*D4
 10
107.0
 20
1.500000000000002
 30
0.0
 11
107.0
 21
11.09300000000001
 31
0.0
 70
   160
  1
%%c<>
 71
     5
 42
3.0
  3
STANDARD
100
AcDbAlignedDimension
 13
69.7
 23
-1.5
 33
0.0
 14
69.7
 24
1.5
 34
0.0
 50
-90.0
100
AcDbRotatedDimension
1001
ACAD
1000
DSTYLE
1002
{
1070
   271
1070
     0
1070
   279
1070
     0
1070
    74
1070
     0
1002
}
  0
DIMENSION
  5
3C3
330
30
100
AcDbEntity
  8
2
100
AcDbDimension
  2
*D5
 10
69.7
 20
1.2
 30
0.0
 11
82.00040255859076
 21
7.0
 31
0.0
 70
   164
 71
     5
 42
0.2999999999997603
  3
STANDARD
100
AcDbRadialDimension
 15
69.91223989354124
 25
1.412024120301112
 35
0.0
 40
0.0
1001
ACAD
1000
DSTYLE
1002
{
1070
   279
1070
     0
1070
   271
1070
     1
1002
}
  0
DIMENSION
  5
3D1
330
30
100
AcDbEntity
  8
2
100
AcDbDimension
  2
*D6
 10
67.5
 20
-15.0
 30
0.0
 11
81.04025
 21
-15.0
 31
0.0
 70
   160
  1
<>
 71
     5
 42
2.5
  3
STANDARD
100
AcDbAlignedDimension
 13
70.0
 23
-1.2
 33
0.0
 14
67.5
 24
-1.425
 34
0.0
100
AcDbRotatedDimension
1001
ACAD
1000
DSTYLE
1002
{
1070
   271
1070
     1
1070
   279
1070
     0
1070
    74
1070
     0
1002
}
  0
DIMENSION
  5
3DF
330
30
100
AcDbEntity
  8
2
100
AcDbDimension
  2
*D7
 10
59.064
 20
1.425000000000001
 30
0.0
 11
59.064
 21
15.57325
 31
0.0
 70
   160
  1
%%c<>
 71
     5
 42
2.85
  3
STANDARD
100
AcDbAlignedDimension
 13
50.628
 23
-1.425
 33
0.0
 14
50.628
 24
1.425
 34
0.0
 50
-90.0
100
AcDbRotatedDimension
1001
ACAD
1000
DSTYLE
1002
{
1070
    76
1070
     1
1070
    75
1070
     1
1070
   279
1070
     0
1070
    74
1070
     0
1002
}
  0
DIMENSION
  5
3ED
330
30
100
AcDbEntity
  8
2
100
AcDbDimension
  2
*D8
 10
50.000131071657
 20
-22.0
 30
0.0
 11
60.0
 21
-22.0
 31
0.0
 70
   160
  1
<>
 71
     5
 42
19.999868928343
  3
STANDARD
100
AcDbAlignedDimension
 13
70.0
 23
-1.2
 33
0.0
 14
50.000131071657
 24
-1.5
 34
0.0
100
AcDbRotatedDimension
1001
ACAD
1000
DSTYLE
1002
{
1070
   271
1070
     0
1070
   279
1070
     0
1070
    74
1070
     0
1002
}
  0
LINE
  5
36
330
30
100
AcDbEntity
  8
1
100
AcDbLine
 10
70.0
 20
0.0
 30
0.0
 11
70.0
 21
1.2
 31
0.0
  0
ARC
  5
37
330
30
100
AcDbEntity
  8
1
100
AcDbCircle
 10
69.7
 20
1.2
 30
0.0
 40
0.3
100
AcDbArc
 50
0.0
 51
90.0
  0
LINE
  5
38
330
30
100
AcDbEntity
  8
1
100
AcDbLine
 10
69.7
 20
1.5
 30
0.0
 11
67.5
 21
1.5
 31
0.0
  0
LINE
  5
39
330
30
100
AcDbEntity
  8
1
100
AcDbLine
 10
67.5
 20
1.5
 30
0.0
 11
67.5
 21
1.425
 31
0.0
  0
LINE
  5
3A
330
30
100
AcDbEntity
  8
1
100
AcDbLine
 10
67.5
 20
1.425
 30
0.0
 11
50.628
 21
1.425
 31
0.0
  0
ARC
  5
3B
330
30
100
AcDbEntity
  8
1
100
AcDbCircle
 10
51.499557427477
 20
11.386946980917
 30
0.0
 40
10.0
100
AcDbArc
 50
255.0
 51
265.0
  0
LINE
  5
3C
330
30
100
AcDbEntity
  8
1
100
AcDbLine
 10
48.911366976451
 20
1.727688718027
 30
0.0
 11
44.163036629084
 21
3.0
 31
0.0
  0
LINE
  5
3D
330
30
100
AcDbEntity
  8
1
100
AcDbLine
 10
44.163036629084
 20
3.0
 30
0.0
 11
44.0
 21
3.0
 31
0.0
  0
LINE
  5
3E
330
30
100
AcDbEntity
  8
1
100
AcDbLine
 10
44.0
 20
3.0
 30
0.0
 11
44.0
 21
-3.0
 31
0.0
  0
LINE
  5
3F
330
30
100
AcDbEntity
  8
1
100
AcDbLine
 10
44.0
 20
-3.0
 30
0.0
 11
44.163036629084
 21
-3.0
 31
0.0
  0
LINE
  5
40
330
30
100
AcDbEntity
  8
1
100
AcDbLine
 10
44.163036629084
 20
-3.0
 30
0.0
 11
48.911366976451
 21
-1.727688718027
 31
0.0
  0
ARC
  5
41
330
30
100
AcDbEntity
  8
1
100
AcDbCircle
 10
51.499557427477
 20
-11.386946980917
 30
0.0
 40
10.0
100
AcDbArc
 50
95.0
 51
105.0
  0
LINE
  5
42
330
30
100
AcDbEntity
  8
1
100
AcDbLine
 10
50.628
 20
-1.425
 30
0.0
 11
67.5
 21
-1.425
 31
0.0
  0
LINE
  5
43
330
30
100
AcDbEntity
  8
1
100
AcDbLine
 10
67.5
 20
-1.425
 30
0.0
 11
67.5
 21
-1.5
 31
0.0
  0
LINE
  5
44
330
30
100
AcDbEntity
  8
1
100
AcDbLine
 10
67.5
 20
-1.5
 30
0.0
 11
69.7
 21
-1.5
 31
0.0
  0
ARC
  5
45
330
30
100
AcDbEntity
  8
1
100
AcDbCircle
 10
69.7
 20
-1.2
 30
0.0
 40
0.3
100
AcDbArc
 50
270.0
 51
0.0
  0
LINE
  5
46
330
30
100
AcDbEntity
  8
1
100
AcDbLine
 10
70.0
 20
-1.2
 30
0.0
 11
70.0
 21
0.0
 31
0.0
  0
LINE
  5
47
330
30
100
AcDbEntity
  8
1
100
AcDbLine
 10
64.842300731232
 20
1.425
 30
0.0
 11
64.848333333333
 21
1.424875241813
 31
0.0
  0
LINE
  5
48
330
30
100
AcDbEntity
  8
1
100
AcDbLine
 10
64.848333333333
 20
1.424875241813
 30
0.0
 11
64.866666666667
 21
1.423049851844
 31
0.0
  0
LINE
  5
49
330
30
100
AcDbEntity
  8
1
100
AcDbLine
 10
64.866666666667
 20
1.423049851844
 30
0.0
 11
64.885
 21
1.419191962177
 31
0.0
  0
LINE
  5
4A
330
30
100
AcDbEntity
  8
1
100
AcDbLine
 10
64.885
 20
1.419191962177
 30
0.0
 11
64.903333333333
 21
1.41347914079
 31
0.0
  0
LINE
  5
4B
330
30
100
AcDbEntity
  8
1
100
AcDbLine
 10
64.903333333333
 20
1.41347914079
 30
0.0
 11
64.921666666667
 21
1.406079505023
 31
0.0
  0
LINE
  5
4C
330
30
100
AcDbEntity
  8
1
100
AcDbLine
 10
64.921666666667
 20
1.406079505023
 30
0.0
 11
64.94
 21
1.397151717085
 31
0.0
  0
LINE
  5
4D
330
30
100
AcDbEntity
  8
1
100
AcDbLine
 10
64.94
 20
1.397151717085
 30
0.0
 11
64.958333333333
 21
1.386845066475
 31
0.0
  0
LINE
  5
4E
330
30
100
AcDbEntity
  8
1
100
AcDbLine
 10
64.958333333333
 20
1.386845066475
 30
0.0
 11
64.976666666667
 21
1.375299624135
 31
0.0
  0
LINE
  5
4F
330
30
100
AcDbEntity
  8
1
100
AcDbLine
 10
64.976666666667
 20
1.375299624135
 30
0.0
 11
64.995
 21
1.36264645494
 31
0.0
  0
LINE
  5
50
330
30
100
AcDbEntity
  8
1
100
AcDbLine
 10
64.995
 20
1.36264645494
 30
0.0
 11
65.013333333333
 21
1.349007876775
 31
0.0
  0
LINE
  5
51
330
30
100
AcDbEntity
  8
1
100
AcDbLine
 10
65.013333333333
 20
1.349007876775
 30
0.0
 11
65.031666666667
 21
1.334497755954
 31
0.0
  0
LINE
  5
52
330
30
100
AcDbEntity
  8
1
100
AcDbLine
 10
65.031666666667
 20
1.334497755954
 30
0.0
 11
65.05
 21
1.319221830071
 31
0.0
  0
LINE
  5
53
330
30
100
AcDbEntity
  8
1
100
AcDbLine
 10
65.05
 20
1.319221830071
 30
0.0
 11
65.068333333333
 21
1.303278050651
 31
0.0
  0
LINE
  5
54
330
30
100
AcDbEntity
  8
1
100
AcDbLine
 10
65.068333333333
 20
1.303278050651
 30
0.0
 11
65.086666666667
 21
1.286756939027
 31
0.0
  0
LINE
  5
55
330
30
100
AcDbEntity
  8
1
100
AcDbLine
 10
65.086666666667
 20
1.286756939027
 30
0.0
 11
65.105
 21
1.269741949895
 31
0.0
  0
LINE
  5
56
330
30
100
AcDbEntity
  8
1
100
AcDbLine
 10
65.105
 20
1.269741949895
 30
0.0
 11
65.123333333333
 21
1.252309837857
 31
0.0
  0
LINE
  5
57
330
30
100
AcDbEntity
  8
1
100
AcDbLine
 10
65.123333333333
 20
1.252309837857
 30
0.0
 11
65.141666666667
 21
1.234531023041
 31
0.0
  0
LINE
  5
58
330
30
100
AcDbEntity
  8
1
100
AcDbLine
 10
65.141666666667
 20
1.234531023041
 30
0.0
 11
65.16
 21
1.216469952588
 31
0.0
  0
LINE
  5
59
330
30
100
AcDbEntity
  8
1
100
AcDbLine
 10
65.16
 20
1.216469952588
 30
0.0
 11
65.178333333333
 21
1.198185455361
 31
0.0
  0
LINE
  5
5A
330
30
100
AcDbEntity
  8
1
100
AcDbLine
 10
65.178333333333
 20
1.198185455361
 30
0.0
 11
65.196666666667
 21
1.179731087796
 31
0.0
  0
LINE
  5
5B
330
30
100
AcDbEntity
  8
1
100
AcDbLine
 10
65.196666666667
 20
1.179731087796
 30
0.0
 11
65.215
 21
1.161155469228
 31
0.0
  0
LINE
  5
5C
330
30
100
AcDbEntity
  8
1
100
AcDbLine
 10
65.215
 20
1.161155469228
 30
0.0
 11
65.233333333333
 21
1.142502605434
 31
0.0
  0
LINE
  5
5D
330
30
100
AcDbEntity
  8
1
100
AcDbLine
 10
65.233333333333
 20
1.142502605434
 30
0.0
 11
65.251666666667
 21
1.12381219947
 31
0.0
  0
LINE
  5
5E
330
30
100
AcDbEntity
  8
1
100
AcDbLine
 10
65.251666666667
 20
1.12381219947
 30
0.0
 11
65.27
 21
1.10511994916
 31
0.0
  0
LINE
  5
5F
330
30
100
AcDbEntity
  8
1
100
AcDbLine
 10
65.27
 20
1.10511994916
 30
0.0
 11
65.288333333333
 21
1.086457830822
 31
0.0
  0
LINE
  5
60
330
30
100
AcDbEntity
  8
1
100
AcDbLine
 10
65.288333333333
 20
1.086457830822
 30
0.0
 11
65.306666666667
 21
1.067854369047
 31
0.0
  0
LINE
  5
61
330
30
100
AcDbEntity
  8
1
100
AcDbLine
 10
65.306666666667
 20
1.067854369047
 30
0.0
 11
65.325
 21
1.049334892486
 31
0.0
  0
LINE
  5
62
330
30
100
AcDbEntity
  8
1
100
AcDbLine
 10
65.325
 20
1.049334892486
 30
0.0
 11
65.343333333333
 21
1.030921775754
 31
0.0
  0
LINE
  5
63
330
30
100
AcDbEntity
  8
1
100
AcDbLine
 10
65.343333333333
 20
1.030921775754
 30
0.0
 11
65.361666666667
 21
1.01263466767
 31
0.0
  0
LINE
  5
64
330
30
100
AcDbEntity
  8
1
100
AcDbLine
 10
65.361666666667
 20
1.01263466767
 30
0.0
 11
65.38
 21
0.994490706135
 31
0.0
  0
LINE
  5
65
330
30
100
AcDbEntity
  8
1
100
AcDbLine
 10
65.38
 20
0.994490706135
 30
0.0
 11
65.398333333333
 21
0.976504720037
 31
0.0
  0
LINE
  5
66
330
30
100
AcDbEntity
  8
1
100
AcDbLine
 10
65.398333333333
 20
0.976504720037
 30
0.0
 11
65.416666666667
 21
0.958689418597
 31
0.0
  0
LINE
  5
67
330
30
100
AcDbEntity
  8
1
100
AcDbLine
 10
65.416666666667
 20
0.958689418597
 30
0.0
 11
65.435
 21
0.941055568661
 31
0.0
  0
LINE
  5
68
330
30
100
AcDbEntity
  8
1
100
AcDbLine
 10
65.435
 20
0.941055568661
 30
0.0
 11
65.453333333333
 21
0.923612160394
 31
0.0
  0
LINE
  5
69
330
30
100
AcDbEntity
  8
1
100
AcDbLine
 10
65.453333333333
 20
0.923612160394
 30
0.0
 11
65.471666666667
 21
0.906366561946
 31
0.0
  0
LINE
  5
6A
330
30
100
AcDbEntity
  8
1
100
AcDbLine
 10
65.471666666667
 20
0.906366561946
 30
0.0
 11
65.49
 21
0.889324663581
 31
0.0
  0
LINE
  5
6B
330
30
100
AcDbEntity
  8
1
100
AcDbLine
 10
65.49
 20
0.889324663581
 30
0.0
 11
65.508333333333
 21
0.872491011818
 31
0.0
  0
LINE
  5
6C
330
30
100
AcDbEntity
  8
1
100
AcDbLine
 10
65.508333333333
 20
0.872491011818
 30
0.0
 11
65.526666666667
 21
0.855868934119
 31
0.0
  0
LINE
  5
6D
330
30
100
AcDbEntity
  8
1
100
AcDbLine
 10
65.526666666667
 20
0.855868934119
 30
0.0
 11
65.545
 21
0.839460654631
 31
0.0
  0
LINE
  5
6E
330
30
100
AcDbEntity
  8
1
100
AcDbLine
 10
65.545
 20
0.839460654631
 30
0.0
 11
65.563333333333
 21
0.823267401514
 31
0.0
  0
LINE
  5
6F
330
30
100
AcDbEntity
  8
1
100
AcDbLine
 10
65.563333333333
 20
0.823267401514
 30
0.0
 11
65.581666666667
 21
0.807289506328
 31
0.0
  0
LINE
  5
70
330
30
100
AcDbEntity
  8
1
100
AcDbLine
 10
65.581666666667
 20
0.807289506328
 30
0.0
 11
65.6
 21
0.791526495989
 31
0.0
  0
LINE
  5
71
330
30
100
AcDbEntity
  8
1
100
AcDbLine
 10
65.6
 20
0.791526495989
 30
0.0
 11
65.618333333333
 21
0.775977177729
 31
0.0
  0
LINE
  5
72
330
30
100
AcDbEntity
  8
1
100
AcDbLine
 10
65.618333333333
 20
0.775977177729
 30
0.0
 11
65.636666666667
 21
0.760639717531
 31
0.0
  0
LINE
  5
73
330
30
100
AcDbEntity
  8
1
100
AcDbLine
 10
65.636666666667
 20
0.760639717531
 30
0.0
 11
65.655
 21
0.745511712436
 31
0.0
  0
LINE
  5
74
330
30
100
AcDbEntity
  8
1
100
AcDbLine
 10
65.655
 20
0.745511712436
 30
0.0
 11
65.673333333333
 21
0.730590257161
 31
0.0
  0
LINE
  5
75
330
30
100
AcDbEntity
  8
1
100
AcDbLine
 10
65.673333333333
 20
0.730590257161
 30
0.0
 11
65.691666666667
 21
0.715872005369
 31
0.0
  0
LINE
  5
76
330
30
100
AcDbEntity
  8
1
100
AcDbLine
 10
65.691666666667
 20
0.715872005369
 30
0.0
 11
65.71
 21
0.701353225999
 31
0.0
  0
LINE
  5
77
330
30
100
AcDbEntity
  8
1
100
AcDbLine
 10
65.71
 20
0.701353225999
 30
0.0
 11
65.728333333333
 21
0.687029854966
 31
0.0
  0
LINE
  5
78
330
30
100
AcDbEntity
  8
1
100
AcDbLine
 10
65.728333333333
 20
0.687029854966
 30
0.0
 11
65.746666666667
 21
0.672897542567
 31
0.0
  0
LINE
  5
79
330
30
100
AcDbEntity
  8
1
100
AcDbLine
 10
65.746666666667
 20
0.672897542567
 30
0.0
 11
65.765
 21
0.658951696908
 31
0.0
  0
LINE
  5
7A
330
30
100
AcDbEntity
  8
1
100
AcDbLine
 10
65.765
 20
0.658951696908
 30
0.0
 11
65.783333333333
 21
0.645187523619
 31
0.0
  0
LINE
  5
7B
330
30
100
AcDbEntity
  8
1
100
AcDbLine
 10
65.783333333333
 20
0.645187523619
 30
0.0
 11
65.801666666667
 21
0.631600062136
 31
0.0
  0
LINE
  5
7C
330
30
100
AcDbEntity
  8
1
100
AcDbLine
 10
65.801666666667
 20
0.631600062136
 30
0.0
 11
65.82
 21
0.618184218806
 31
0.0
  0
LINE
  5
7D
330
30
100
AcDbEntity
  8
1
100
AcDbLine
 10
65.82
 20
0.618184218806
 30
0.0
 11
65.838333333333
 21
0.604934797037
 31
0.0
  0
LINE
  5
7E
330
30
100
AcDbEntity
  8
1
100
AcDbLine
 10
65.838333333333
 20
0.604934797037
 30
0.0
 11
65.856666666667
 21
0.591846524725
 31
0.0
  0
LINE
  5
7F
330
30
100
AcDbEntity
  8
1
100
AcDbLine
 10
65.856666666667
 20
0.591846524725
 30
0.0
 11
65.875
 21
0.578914079154
 31
0.0
  0
LINE
  5
80
330
30
100
AcDbEntity
  8
1
100
AcDbLine
 10
65.875
 20
0.578914079154
 30
0.0
 11
65.893333333333
 21
0.566132109571
 31
0.0
  0
LINE
  5
81
330
30
100
AcDbEntity
  8
1
100
AcDbLine
 10
65.893333333333
 20
0.566132109571
 30
0.0
 11
65.911666666667
 21
0.553495257593
 31
0.0
  0
LINE
  5
82
330
30
100
AcDbEntity
  8
1
100
AcDbLine
 10
65.911666666667
 20
0.553495257593
 30
0.0
 11
65.93
 21
0.540998175639
 31
0.0
  0
LINE
  5
83
330
30
100
AcDbEntity
  8
1
100
AcDbLine
 10
65.93
 20
0.540998175639
 30
0.0
 11
65.948333333333
 21
0.528635543516
 31
0.0
  0
LINE
  5
84
330
30
100
AcDbEntity
  8
1
100
AcDbLine
 10
65.948333333333
 20
0.528635543516
 30
0.0
 11
65.966666666667
 21
0.516402083316
 31
0.0
  0
LINE
  5
85
330
30
100
AcDbEntity
  8
1
100
AcDbLine
 10
65.966666666667
 20
0.516402083316
 30
0.0
 11
65.985
 21
0.504292572753
 31
0.0
  0
LINE
  5
86
330
30
100
AcDbEntity
  8
1
100
AcDbLine
 10
65.985
 20
0.504292572753
 30
0.0
 11
66.003333333333
 21
0.49230185706
 31
0.0
  0
LINE
  5
87
330
30
100
AcDbEntity
  8
1
100
AcDbLine
 10
66.003333333333
 20
0.49230185706
 30
0.0
 11
66.021666666667
 21
0.48042485956
 31
0.0
  0
LINE
  5
88
330
30
100
AcDbEntity
  8
1
100
AcDbLine
 10
66.021666666667
 20
0.48042485956
 30
0.0
 11
66.04
 21
0.468656591021
 31
0.0
  0
LINE
  5
89
330
30
100
AcDbEntity
  8
1
100
AcDbLine
 10
66.04
 20
0.468656591021
 30
0.0
 11
66.058333333333
 21
0.456992157891
 31
0.0
  0
LINE
  5
8A
330
30
100
AcDbEntity
  8
1
100
AcDbLine
 10
66.058333333333
 20
0.456992157891
 30
0.0
 11
66.076666666667
 21
0.445426769495
 31
0.0
  0
LINE
  5
8B
330
30
100
AcDbEntity
  8
1
100
AcDbLine
 10
66.076666666667
 20
0.445426769495
 30
0.0
 11
66.095
 21
0.43395574429
 31
0.0
  0
LINE
  5
8C
330
30
100
AcDbEntity
  8
1
100
AcDbLine
 10
66.095
 20
0.43395574429
 30
0.0
 11
66.113333333333
 21
0.422574515251
 31
0.0
  0
LINE
  5
8D
330
30
100
AcDbEntity
  8
1
100
AcDbLine
 10
66.113333333333
 20
0.422574515251
 30
0.0
 11
66.131666666667
 21
0.411278634446
 31
0.0
  0
LINE
  5
8E
330
30
100
AcDbEntity
  8
1
100
AcDbLine
 10
66.131666666667
 20
0.411278634446
 30
0.0
 11
66.15
 21
0.400063776892
 31
0.0
  0
LINE
  5
8F
330
30
100
AcDbEntity
  8
1
100
AcDbLine
 10
66.15
 20
0.400063776892
 30
0.0
 11
66.168333333333
 21
0.388925743731
 31
0.0
  0
LINE
  5
90
330
30
100
AcDbEntity
  8
1
100
AcDbLine
 10
66.168333333333
 20
0.388925743731
 30
0.0
 11
66.186666666667
 21
0.377860464786
 31
0.0
  0
LINE
  5
91
330
30
100
AcDbEntity
  8
1
100
AcDbLine
 10
66.186666666667
 20
0.377860464786
 30
0.0
 11
66.205
 21
0.366864000559
 31
0.0
  0
LINE
  5
92
330
30
100
AcDbEntity
  8
1
100
AcDbLine
 10
66.205
 20
0.366864000559
 30
0.0
 11
66.223333333333
 21
0.355932543708
 31
0.0
  0
LINE
  5
93
330
30
100
AcDbEntity
  8
1
100
AcDbLine
 10
66.223333333333
 20
0.355932543708
 30
0.0
 11
66.241666666667
 21
0.345062420052
 31
0.0
  0
LINE
  5
94
330
30
100
AcDbEntity
  8
1
100
AcDbLine
 10
66.241666666667
 20
0.345062420052
 30
0.0
 11
66.26
 21
0.334250089143
 31
0.0
  0
LINE
  5
95
330
30
100
AcDbEntity
  8
1
100
AcDbLine
 10
66.26
 20
0.334250089143
 30
0.0
 11
66.278333333333
 21
0.323492144447
 31
0.0
  0
LINE
  5
96
330
30
100
AcDbEntity
  8
1
100
AcDbLine
 10
66.278333333333
 20
0.323492144447
 30
0.0
 11
66.296666666667
 21
0.312785313157
 31
0.0
  0
LINE
  5
97
330
30
100
AcDbEntity
  8
1
100
AcDbLine
 10
66.296666666667
 20
0.312785313157
 30
0.0
 11
66.315
 21
0.302126455689
 31
0.0
  0
LINE
  5
98
330
30
100
AcDbEntity
  8
1
100
AcDbLine
 10
66.315
 20
0.302126455689
 30
0.0
 11
66.333333333333
 21
0.291512564868
 31
0.0
  0
LINE
  5
99
330
30
100
AcDbEntity
  8
1
100
AcDbLine
 10
66.333333333333
 20
0.291512564868
 30
0.0
 11
66.351666666667
 21
0.280940764853
 31
0.0
  0
LINE
  5
9A
330
30
100
AcDbEntity
  8
1
100
AcDbLine
 10
66.351666666667
 20
0.280940764853
 30
0.0
 11
66.37
 21
0.27040830981
 31
0.0
  0
LINE
  5
9B
330
30
100
AcDbEntity
  8
1
100
AcDbLine
 10
66.37
 20
0.27040830981
 30
0.0
 11
66.388333333333
 21
0.259912582362
 31
0.0
  0
LINE
  5
9C
330
30
100
AcDbEntity
  8
1
100
AcDbLine
 10
66.388333333333
 20
0.259912582362
 30
0.0
 11
66.406666666667
 21
0.249451091841
 31
0.0
  0
LINE
  5
9D
330
30
100
AcDbEntity
  8
1
100
AcDbLine
 10
66.406666666667
 20
0.249451091841
 30
0.0
 11
66.425
 21
0.239021472356
 31
0.0
  0
LINE
  5
9E
330
30
100
AcDbEntity
  8
1
100
AcDbLine
 10
66.425
 20
0.239021472356
 30
0.0
 11
66.443333333333
 21
0.228621480698
 31
0.0
  0
LINE
  5
9F
330
30
100
AcDbEntity
  8
1
100
AcDbLine
 10
66.443333333333
 20
0.228621480698
 30
0.0
 11
66.461666666667
 21
0.218248994101
 31
0.0
  0
LINE
  5
A0
330
30
100
AcDbEntity
  8
1
100
AcDbLine
 10
66.461666666667
 20
0.218248994101
 30
0.0
 11
66.48
 21
0.207902007869
 31
0.0
  0
LINE
  5
A1
330
30
100
AcDbEntity
  8
1
100
AcDbLine
 10
66.48
 20
0.207902007869
 30
0.0
 11
66.498333333333
 21
0.197578632889
 31
0.0
  0
LINE
  5
A2
330
30
100
AcDbEntity
  8
1
100
AcDbLine
 10
66.498333333333
 20
0.197578632889
 30
0.0
 11
66.516666666667
 21
0.187277093043
 31
0.0
  0
LINE
  5
A3
330
30
100
AcDbEntity
  8
1
100
AcDbLine
 10
66.516666666667
 20
0.187277093043
 30
0.0
 11
66.535
 21
0.176995722526
 31
0.0
  0
LINE
  5
A4
330
30
100
AcDbEntity
  8
1
100
AcDbLine
 10
66.535
 20
0.176995722526
 30
0.0
 11
66.553333333333
 21
0.166732963089
 31
0.0
  0
LINE
  5
A5
330
30
100
AcDbEntity
  8
1
100
AcDbLine
 10
66.553333333333
 20
0.166732963089
 30
0.0
 11
66.571666666667
 21
0.156487361217
 31
0.0
  0
LINE
  5
A6
330
30
100
AcDbEntity
  8
1
100
AcDbLine
 10
66.571666666667
 20
0.156487361217
 30
0.0
 11
66.59
 21
0.146257565242
 31
0.0
  0
LINE
  5
A7
330
30
100
AcDbEntity
  8
1
100
AcDbLine
 10
66.59
 20
0.146257565242
 30
0.0
 11
66.608333333333
 21
0.136042322416
 31
0.0
  0
LINE
  5
A8
330
30
100
AcDbEntity
  8
1
100
AcDbLine
 10
66.608333333333
 20
0.136042322416
 30
0.0
 11
66.626666666667
 21
0.125840475938
 31
0.0
  0
LINE
  5
A9
330
30
100
AcDbEntity
  8
1
100
AcDbLine
 10
66.626666666667
 20
0.125840475938
 30
0.0
 11
66.645
 21
0.115650961959
 31
0.0
  0
LINE
  5
AA
330
30
100
AcDbEntity
  8
1
100
AcDbLine
 10
66.645
 20
0.115650961959
 30
0.0
 11
66.663333333333
 21
0.105472806554
 31
0.0
  0
LINE
  5
AB
330
30
100
AcDbEntity
  8
1
100
AcDbLine
 10
66.663333333333
 20
0.105472806554
 30
0.0
 11
66.681666666667
 21
0.095305122685
 31
0.0
  0
LINE
  5
AC
330
30
100
AcDbEntity
  8
1
100
AcDbLine
 10
66.681666666667
 20
0.095305122685
 30
0.0
 11
66.7
 21
0.085147107152
 31
0.0
  0
LINE
  5
AD
330
30
100
AcDbEntity
  8
1
100
AcDbLine
 10
66.7
 20
0.085147107152
 30
0.0
 11
66.718333333333
 21
0.074998037542
 31
0.0
  0
LINE
  5
AE
330
30
100
AcDbEntity
  8
1
100
AcDbLine
 10
66.718333333333
 20
0.074998037542
 30
0.0
 11
66.736666666667
 21
0.064857269178
 31
0.0
  0
LINE
  5
AF
330
30
100
AcDbEntity
  8
1
100
AcDbLine
 10
66.736666666667
 20
0.064857269178
 30
0.0
 11
66.755
 21
0.054724232084
 31
0.0
  0
LINE
  5
B0
330
30
100
AcDbEntity
  8
1
100
AcDbLine
 10
66.755
 20
0.054724232084
 30
0.0
 11
66.773333333333
 21
0.04459842796
 31
0.0
  0
LINE
  5
B1
330
30
100
AcDbEntity
  8
1
100
AcDbLine
 10
66.773333333333
 20
0.04459842796
 30
0.0
 11
66.791666666667
 21
0.034479427171
 31
0.0
  0
LINE
  5
B2
330
30
100
AcDbEntity
  8
1
100
AcDbLine
 10
66.791666666667
 20
0.034479427171
 30
0.0
 11
66.81
 21
0.024366865771
 31
0.0
  0
LINE
  5
B3
330
30
100
AcDbEntity
  8
1
100
AcDbLine
 10
66.81
 20
0.024366865771
 30
0.0
 11
66.828333333333
 21
0.014260442548
 31
0.0
  0
LINE
  5
B4
330
30
100
AcDbEntity
  8
1
100
AcDbLine
 10
66.828333333333
 20
0.014260442548
 30
0.0
 11
66.846666666667
 21
0.004159916101
 31
0.0
  0
LINE
  5
B5
330
30
100
AcDbEntity
  8
1
100
AcDbLine
 10
66.846666666667
 20
0.004159916101
 30
0.0
 11
66.865
 21
-0.005934898038
 31
0.0
  0
LINE
  5
B6
330
30
100
AcDbEntity
  8
1
100
AcDbLine
 10
66.865
 20
-0.005934898038
 30
0.0
 11
66.883333333333
 21
-0.016024130249
 31
0.0
  0
LINE
  5
B7
330
30
100
AcDbEntity
  8
1
100
AcDbLine
 10
66.883333333333
 20
-0.016024130249
 30
0.0
 11
66.901666666667
 21
-0.026107859623
 31
0.0
  0
LINE
  5
B8
330
30
100
AcDbEntity
  8
1
100
AcDbLine
 10
66.901666666667
 20
-0.026107859623
 30
0.0
 11
66.92
 21
-0.036186116711
 31
0.0
  0
LINE
  5
B9
330
30
100
AcDbEntity
  8
1
100
AcDbLine
 10
66.92
 20
-0.036186116711
 30
0.0
 11
66.938333333333
 21
-0.046258886221
 31
0.0
  0
LINE
  5
BA
330
30
100
AcDbEntity
  8
1
100
AcDbLine
 10
66.938333333333
 20
-0.046258886221
 30
0.0
 11
66.956666666667
 21
-0.056326109661
 31
0.0
  0
LINE
  5
BB
330
30
100
AcDbEntity
  8
1
100
AcDbLine
 10
66.956666666667
 20
-0.056326109661
 30
0.0
 11
66.975
 21
-0.066387687929
 31
0.0
  0
LINE
  5
BC
330
30
100
AcDbEntity
  8
1
100
AcDbLine
 10
66.975
 20
-0.066387687929
 30
0.0
 11
66.993333333333
 21
-0.076443483837
 31
0.0
  0
LINE
  5
BD
330
30
100
AcDbEntity
  8
1
100
AcDbLine
 10
66.993333333333
 20
-0.076443483837
 30
0.0
 11
67.011666666667
 21
-0.086493324571
 31
0.0
  0
LINE
  5
BE
330
30
100
AcDbEntity
  8
1
100
AcDbLine
 10
67.011666666667
 20
-0.086493324571
 30
0.0
 11
67.03
 21
-0.096537004094
 31
0.0
  0
LINE
  5
BF
330
30
100
AcDbEntity
  8
1
100
AcDbLine
 10
67.03
 20
-0.096537004094
 30
0.0
 11
67.048333333333
 21
-0.106574285467
 31
0.0
  0
LINE
  5
C0
330
30
100
AcDbEntity
  8
1
100
AcDbLine
 10
67.048333333333
 20
-0.106574285467
 30
0.0
 11
67.066666666667
 21
-0.116604903115
 31
0.0
  0
LINE
  5
C1
330
30
100
AcDbEntity
  8
1
100
AcDbLine
 10
67.066666666667
 20
-0.116604903115
 30
0.0
 11
67.085
 21
-0.126628565007
 31
0.0
  0
LINE
  5
C2
330
30
100
AcDbEntity
  8
1
100
AcDbLine
 10
67.085
 20
-0.126628565007
 30
0.0
 11
67.103333333333
 21
-0.136644954771
 31
0.0
  0
LINE
  5
C3
330
30
100
AcDbEntity
  8
1
100
AcDbLine
 10
67.103333333333
 20
-0.136644954771
 30
0.0
 11
67.121666666667
 21
-0.146653733728
 31
0.0
  0
LINE
  5
C4
330
30
100
AcDbEntity
  8
1
100
AcDbLine
 10
67.121666666667
 20
-0.146653733728
 30
0.0
 11
67.14
 21
-0.156654542845
 31
0.0
  0
LINE
  5
C5
330
30
100
AcDbEntity
  8
1
100
AcDbLine
 10
67.14
 20
-0.156654542845
 30
0.0
 11
67.158333333333
 21
-0.166647004617
 31
0.0
  0
LINE
  5
C6
330
30
100
AcDbEntity
  8
1
100
AcDbLine
 10
67.158333333333
 20
-0.166647004617
 30
0.0
 11
67.176666666667
 21
-0.176630724857
 31
0.0
  0
LINE
  5
C7
330
30
100
AcDbEntity
  8
1
100
AcDbLine
 10
67.176666666667
 20
-0.176630724857
 30
0.0
 11
67.195
 21
-0.186605294411
 31
0.0
  0
LINE
  5
C8
330
30
100
AcDbEntity
  8
1
100
AcDbLine
 10
67.195
 20
-0.186605294411
 30
0.0
 11
67.213333333333
 21
-0.196570290784
 31
0.0
  0
LINE
  5
C9
330
30
100
AcDbEntity
  8
1
100
AcDbLine
 10
67.213333333333
 20
-0.196570290784
 30
0.0
 11
67.231666666667
 21
-0.206525279684
 31
0.0
  0
LINE
  5
CA
330
30
100
AcDbEntity
  8
1
100
AcDbLine
 10
67.231666666667
 20
-0.206525279684
 30
0.0
 11
67.25
 21
-0.216469816478
 31
0.0
  0
LINE
  5
CB
330
30
100
AcDbEntity
  8
1
100
AcDbLine
 10
67.25
 20
-0.216469816478
 30
0.0
 11
67.268333333333
 21
-0.226403447559
 31
0.0
  0
LINE
  5
CC
330
30
100
AcDbEntity
  8
1
100
AcDbLine
 10
67.268333333333
 20
-0.226403447559
 30
0.0
 11
67.286666666667
 21
-0.236325711631
 31
0.0
  0
LINE
  5
CD
330
30
100
AcDbEntity
  8
1
100
AcDbLine
 10
67.286666666667
 20
-0.236325711631
 30
0.0
 11
67.305
 21
-0.246236140898
 31
0.0
  0
LINE
  5
CE
330
30
100
AcDbEntity
  8
1
100
AcDbLine
 10
67.305
 20
-0.246236140898
 30
0.0
 11
67.323333333333
 21
-0.256134262167
 31
0.0
  0
LINE
  5
CF
330
30
100
AcDbEntity
  8
1
100
AcDbLine
 10
67.323333333333
 20
-0.256134262167
 30
0.0
 11
67.341666666667
 21
-0.266019597865
 31
0.0
  0
LINE
  5
D0
330
30
100
AcDbEntity
  8
1
100
AcDbLine
 10
67.341666666667
 20
-0.266019597865
 30
0.0
 11
67.36
 21
-0.275891666958
 31
0.0
  0
LINE
  5
D1
330
30
100
AcDbEntity
  8
1
100
AcDbLine
 10
67.36
 20
-0.275891666958
 30
0.0
 11
67.378333333333
 21
-0.285749985788
 31
0.0
  0
LINE
  5
D2
330
30
100
AcDbEntity
  8
1
100
AcDbLine
 10
67.378333333333
 20
-0.285749985788
 30
0.0
 11
67.396666666667
 21
-0.295594068816
 31
0.0
  0
LINE
  5
D3
330
30
100
AcDbEntity
  8
1
100
AcDbLine
 10
67.396666666667
 20
-0.295594068816
 30
0.0
 11
67.415
 21
-0.305423429274
 31
0.0
  0
LINE
  5
D4
330
30
100
AcDbEntity
  8
1
100
AcDbLine
 10
67.415
 20
-0.305423429274
 30
0.0
 11
67.433333333333
 21
-0.315237579729
 31
0.0
  0
LINE
  5
D5
330
30
100
AcDbEntity
  8
1
100
AcDbLine
 10
67.433333333333
 20
-0.315237579729
 30
0.0
 11
67.451666666667
 21
-0.325036032559
 31
0.0
  0
LINE
  5
D6
330
30
100
AcDbEntity
  8
1
100
AcDbLine
 10
67.451666666667
 20
-0.325036032559
 30
0.0
 11
67.47
 21
-0.334818300336
 31
0.0
  0
LINE
  5
D7
330
30
100
AcDbEntity
  8
1
100
AcDbLine
 10
67.47
 20
-0.334818300336
 30
0.0
 11
67.488333333333
 21
-0.344583896125
 31
0.0
  0
LINE
  5
D8
330
30
100
AcDbEntity
  8
1
100
AcDbLine
 10
67.488333333333
 20
-0.344583896125
 30
0.0
 11
67.506666666667
 21
-0.388585911418
 31
0.0
  0
LINE
  5
D9
330
30
100
AcDbEntity
  8
1
100
AcDbLine
 10
67.506666666667
 20
-0.388585911418
 30
0.0
 11
67.525
 21
-0.398799564107
 31
0.0
  0
LINE
  5
DA
330
30
100
AcDbEntity
  8
1
100
AcDbLine
 10
67.525
 20
-0.398799564107
 30
0.0
 11
67.543333333333
 21
-0.408993358959
 31
0.0
  0
LINE
  5
DB
330
30
100
AcDbEntity
  8
1
100
AcDbLine
 10
67.543333333333
 20
-0.408993358959
 30
0.0
 11
67.561666666667
 21
-0.419166788382
 31
0.0
  0
LINE
  5
DC
330
30
100
AcDbEntity
  8
1
100
AcDbLine
 10
67.561666666667
 20
-0.419166788382
 30
0.0
 11
67.58
 21
-0.4293193458
 31
0.0
  0
LINE
  5
DD
330
30
100
AcDbEntity
  8
1
100
AcDbLine
 10
67.58
 20
-0.4293193458
 30
0.0
 11
67.598333333333
 21
-0.439450525677
 31
0.0
  0
LINE
  5
DE
330
30
100
AcDbEntity
  8
1
100
AcDbLine
 10
67.598333333333
 20
-0.439450525677
 30
0.0
 11
67.616666666667
 21
-0.44955982354
 31
0.0
  0
LINE
  5
DF
330
30
100
AcDbEntity
  8
1
100
AcDbLine
 10
67.616666666667
 20
-0.44955982354
 30
0.0
 11
67.635
 21
-0.459646736008
 31
0.0
  0
LINE
  5
E0
330
30
100
AcDbEntity
  8
1
100
AcDbLine
 10
67.635
 20
-0.459646736008
 30
0.0
 11
67.653333333333
 21
-0.469710760811
 31
0.0
  0
LINE
  5
E1
330
30
100
AcDbEntity
  8
1
100
AcDbLine
 10
67.653333333333
 20
-0.469710760811
 30
0.0
 11
67.671666666667
 21
-0.479751396821
 31
0.0
  0
LINE
  5
E2
330
30
100
AcDbEntity
  8
1
100
AcDbLine
 10
67.671666666667
 20
-0.479751396821
 30
0.0
 11
67.69
 21
-0.489768144075
 31
0.0
  0
LINE
  5
E3
330
30
100
AcDbEntity
  8
1
100
AcDbLine
 10
67.69
 20
-0.489768144075
 30
0.0
 11
67.708333333333
 21
-0.499760503798
 31
0.0
  0
LINE
  5
E4
330
30
100
AcDbEntity
  8
1
100
AcDbLine
 10
67.708333333333
 20
-0.499760503798
 30
0.0
 11
67.726666666667
 21
-0.50972797843
 31
0.0
  0
LINE
  5
E5
330
30
100
AcDbEntity
  8
1
100
AcDbLine
 10
67.726666666667
 20
-0.50972797843
 30
0.0
 11
67.745
 21
-0.519670071652
 31
0.0
  0
LINE
  5
E6
330
30
100
AcDbEntity
  8
1
100
AcDbLine
 10
67.745
 20
-0.519670071652
 30
0.0
 11
67.763333333333
 21
-0.529586288405
 31
0.0
  0
LINE
  5
E7
330
30
100
AcDbEntity
  8
1
100
AcDbLine
 10
67.763333333333
 20
-0.529586288405
 30
0.0
 11
67.781666666667
 21
-0.539476134921
 31
0.0
  0
LINE
  5
E8
330
30
100
AcDbEntity
  8
1
100
AcDbLine
 10
67.781666666667
 20
-0.539476134921
 30
0.0
 11
67.8
 21
-0.549339118746
 31
0.0
  0
LINE
  5
E9
330
30
100
AcDbEntity
  8
1
100
AcDbLine
 10
67.8
 20
-0.549339118746
 30
0.0
 11
67.818333333333
 21
-0.55917474876
 31
0.0
  0
LINE
  5
EA
330
30
100
AcDbEntity
  8
1
100
AcDbLine
 10
67.818333333333
 20
-0.55917474876
 30
0.0
 11
67.836666666667
 21
-0.56898253521
 31
0.0
  0
LINE
  5
EB
330
30
100
AcDbEntity
  8
1
100
AcDbLine
 10
67.836666666667
 20
-0.56898253521
 30
0.0
 11
67.855
 21
-0.578761989725
 31
0.0
  0
LINE
  5
EC
330
30
100
AcDbEntity
  8
1
100
AcDbLine
 10
67.855
 20
-0.578761989725
 30
0.0
 11
67.873333333333
 21
-0.588512625346
 31
0.0
  0
LINE
  5
ED
330
30
100
AcDbEntity
  8
1
100
AcDbLine
 10
67.873333333333
 20
-0.588512625346
 30
0.0
 11
67.891666666667
 21
-0.598233956552
 31
0.0
  0
LINE
  5
EE
330
30
100
AcDbEntity
  8
1
100
AcDbLine
 10
67.891666666667
 20
-0.598233956552
 30
0.0
 11
67.91
 21
-0.607925499276
 31
0.0
  0
LINE
  5
EF
330
30
100
AcDbEntity
  8
1
100
AcDbLine
 10
67.91
 20
-0.607925499276
 30
0.0
 11
67.928333333333
 21
-0.617586770939
 31
0.0
  0
LINE
  5
F0
330
30
100
AcDbEntity
  8
1
100
AcDbLine
 10
67.928333333333
 20
-0.617586770939
 30
0.0
 11
67.946666666667
 21
-0.627217290466
 31
0.0
  0
LINE
  5
F1
330
30
100
AcDbEntity
  8
1
100
AcDbLine
 10
67.946666666667
 20
-0.627217290466
 30
0.0
 11
67.965
 21
-0.636816578315
 31
0.0
  0
LINE
  5
F2
330
30
100
AcDbEntity
  8
1
100
AcDbLine
 10
67.965
 20
-0.636816578315
 30
0.0
 11
67.983333333333
 21
-0.646384156499
 31
0.0
  0
LINE
  5
F3
330
30
100
AcDbEntity
  8
1
100
AcDbLine
 10
67.983333333333
 20
-0.646384156499
 30
0.0
 11
68.001666666667
 21
-0.65591954861
 31
0.0
  0
LINE
  5
F4
330
30
100
AcDbEntity
  8
1
100
AcDbLine
 10
68.001666666667
 20
-0.65591954861
 30
0.0
 11
68.02
 21
-0.665422279842
 31
0.0
  0
LINE
  5
F5
330
30
100
AcDbEntity
  8
1
100
AcDbLine
 10
68.02
 20
-0.665422279842
 30
0.0
 11
68.038333333333
 21
-0.674891877015
 31
0.0
  0
LINE
  5
F6
330
30
100
AcDbEntity
  8
1
100
AcDbLine
 10
68.038333333333
 20
-0.674891877015
 30
0.0
 11
68.056666666667
 21
-0.684327868601
 31
0.0
  0
LINE
  5
F7
330
30
100
AcDbEntity
  8
1
100
AcDbLine
 10
68.056666666667
 20
-0.684327868601
 30
0.0
 11
68.075
 21
-0.693729784742
 31
0.0
  0
LINE
  5
F8
330
30
100
AcDbEntity
  8
1
100
AcDbLine
 10
68.075
 20
-0.693729784742
 30
0.0
 11
68.093333333333
 21
-0.703097157281
 31
0.0
  0
LINE
  5
F9
330
30
100
AcDbEntity
  8
1
100
AcDbLine
 10
68.093333333333
 20
-0.703097157281
 30
0.0
 11
68.111666666667
 21
-0.712429519777
 31
0.0
  0
LINE
  5
FA
330
30
100
AcDbEntity
  8
1
100
AcDbLine
 10
68.111666666667
 20
-0.712429519777
 30
0.0
 11
68.13
 21
-0.721726407535
 31
0.0
  0
LINE
  5
FB
330
30
100
AcDbEntity
  8
1
100
AcDbLine
 10
68.13
 20
-0.721726407535
 30
0.0
 11
68.148333333333
 21
-0.730987357625
 31
0.0
  0
LINE
  5
FC
330
30
100
AcDbEntity
  8
1
100
AcDbLine
 10
68.148333333333
 20
-0.730987357625
 30
0.0
 11
68.166666666667
 21
-0.740211908907
 31
0.0
  0
LINE
  5
FD
330
30
100
AcDbEntity
  8
1
100
AcDbLine
 10
68.166666666667
 20
-0.740211908907
 30
0.0
 11
68.185
 21
-0.749399602054
 31
0.0
  0
LINE
  5
FE
330
30
100
AcDbEntity
  8
1
100
AcDbLine
 10
68.185
 20
-0.749399602054
 30
0.0
 11
68.203333333333
 21
-0.758549979572
 31
0.0
  0
LINE
  5
FF
330
30
100
AcDbEntity
  8
1
100
AcDbLine
 10
68.203333333333
 20
-0.758549979572
 30
0.0
 11
68.221666666667
 21
-0.767662585829
 31
0.0
  0
LINE
  5
100
330
30
100
AcDbEntity
  8
1
100
AcDbLine
 10
68.221666666667
 20
-0.767662585829
 30
0.0
 11
68.24
 21
-0.776736967071
 31
0.0
  0
LINE
  5
101
330
30
100
AcDbEntity
  8
1
100
AcDbLine
 10
68.24
 20
-0.776736967071
 30
0.0
 11
68.258333333333
 21
-0.785772671446
 31
0.0
  0
LINE
  5
102
330
30
100
AcDbEntity
  8
1
100
AcDbLine
 10
68.258333333333
 20
-0.785772671446
 30
0.0
 11
68.276666666667
 21
-0.794769249033
 31
0.0
  0
LINE
  5
103
330
30
100
AcDbEntity
  8
1
100
AcDbLine
 10
68.276666666667
 20
-0.794769249033
 30
0.0
 11
68.295
 21
-0.803726251854
 31
0.0
  0
LINE
  5
104
330
30
100
AcDbEntity
  8
1
100
AcDbLine
 10
68.295
 20
-0.803726251854
 30
0.0
 11
68.313333333333
 21
-0.812643233904
 31
0.0
  0
LINE
  5
105
330
30
100
AcDbEntity
  8
1
100
AcDbLine
 10
68.313333333333
 20
-0.812643233904
 30
0.0
 11
68.331666666667
 21
-0.82151975117
 31
0.0
  0
LINE
  5
106
330
30
100
AcDbEntity
  8
1
100
AcDbLine
 10
68.331666666667
 20
-0.82151975117
 30
0.0
 11
68.35
 21
-0.830355361656
 31
0.0
  0
LINE
  5
107
330
30
100
AcDbEntity
  8
1
100
AcDbLine
 10
68.35
 20
-0.830355361656
 30
0.0
 11
68.368333333333
 21
-0.839149625401
 31
0.0
  0
LINE
  5
108
330
30
100
AcDbEntity
  8
1
100
AcDbLine
 10
68.368333333333
 20
-0.839149625401
 30
0.0
 11
68.386666666667
 21
-0.847902104502
 31
0.0
  0
LINE
  5
109
330
30
100
AcDbEntity
  8
1
100
AcDbLine
 10
68.386666666667
 20
-0.847902104502
 30
0.0
 11
68.405
 21
-0.856612363139
 31
0.0
  0
LINE
  5
10A
330
30
100
AcDbEntity
  8
1
100
AcDbLine
 10
68.405
 20
-0.856612363139
 30
0.0
 11
68.423333333333
 21
-0.865279967592
 31
0.0
  0
LINE
  5
10B
330
30
100
AcDbEntity
  8
1
100
AcDbLine
 10
68.423333333333
 20
-0.865279967592
 30
0.0
 11
68.441666666667
 21
-0.873904486266
 31
0.0
  0
LINE
  5
10C
330
30
100
AcDbEntity
  8
1
100
AcDbLine
 10
68.441666666667
 20
-0.873904486266
 30
0.0
 11
68.46
 21
-0.882485489713
 31
0.0
  0
LINE
  5
10D
330
30
100
AcDbEntity
  8
1
100
AcDbLine
 10
68.46
 20
-0.882485489713
 30
0.0
 11
68.478333333333
 21
-0.891022550649
 31
0.0
  0
LINE
  5
10E
330
30
100
AcDbEntity
  8
1
100
AcDbLine
 10
68.478333333333
 20
-0.891022550649
 30
0.0
 11
68.496666666667
 21
-0.899515243979
 31
0.0
  0
LINE
  5
10F
330
30
100
AcDbEntity
  8
1
100
AcDbLine
 10
68.496666666667
 20
-0.899515243979
 30
0.0
 11
68.515
 21
-0.907963146819
 31
0.0
  0
LINE
  5
110
330
30
100
AcDbEntity
  8
1
100
AcDbLine
 10
68.515
 20
-0.907963146819
 30
0.0
 11
68.533333333333
 21
-0.916365838512
 31
0.0
  0
LINE
  5
111
330
30
100
AcDbEntity
  8
1
100
AcDbLine
 10
68.533333333333
 20
-0.916365838512
 30
0.0
 11
68.551666666667
 21
-0.924722900656
 31
0.0
  0
LINE
  5
112
330
30
100
AcDbEntity
  8
1
100
AcDbLine
 10
68.551666666667
 20
-0.924722900656
 30
0.0
 11
68.57
 21
-0.933033917118
 31
0.0
  0
LINE
  5
113
330
30
100
AcDbEntity
  8
1
100
AcDbLine
 10
68.57
 20
-0.933033917118
 30
0.0
 11
68.588333333333
 21
-0.941298474059
 31
0.0
  0
LINE
  5
114
330
30
100
AcDbEntity
  8
1
100
AcDbLine
 10
68.588333333333
 20
-0.941298474059
 30
0.0
 11
68.606666666667
 21
-0.949516159953
 31
0.0
  0
LINE
  5
115
330
30
100
AcDbEntity
  8
1
100
AcDbLine
 10
68.606666666667
 20
-0.949516159953
 30
0.0
 11
68.625
 21
-0.95768656561
 31
0.0
  0
LINE
  5
116
330
30
100
AcDbEntity
  8
1
100
AcDbLine
 10
68.625
 20
-0.95768656561
 30
0.0
 11
68.643333333333
 21
-0.965809284191
 31
0.0
  0
LINE
  5
117
330
30
100
AcDbEntity
  8
1
100
AcDbLine
 10
68.643333333333
 20
-0.965809284191
 30
0.0
 11
68.661666666667
 21
-0.973883911233
 31
0.0
  0
LINE
  5
118
330
30
100
AcDbEntity
  8
1
100
AcDbLine
 10
68.661666666667
 20
-0.973883911233
 30
0.0
 11
68.68
 21
-0.981910044669
 31
0.0
  0
LINE
  5
119
330
30
100
AcDbEntity
  8
1
100
AcDbLine
 10
68.68
 20
-0.981910044669
 30
0.0
 11
68.698333333333
 21
-0.989887284845
 31
0.0
  0
LINE
  5
11A
330
30
100
AcDbEntity
  8
1
100
AcDbLine
 10
68.698333333333
 20
-0.989887284845
 30
0.0
 11
68.716666666667
 21
-0.997815234541
 31
0.0
  0
LINE
  5
11B
330
30
100
AcDbEntity
  8
1
100
AcDbLine
 10
68.716666666667
 20
-0.997815234541
 30
0.0
 11
68.735
 21
-1.005693498993
 31
0.0
  0
LINE
  5
11C
330
30
100
AcDbEntity
  8
1
100
AcDbLine
 10
68.735
 20
-1.005693498993
 30
0.0
 11
68.753333333333
 21
-1.013521685912
 31
0.0
  0
LINE
  5
11D
330
30
100
AcDbEntity
  8
1
100
AcDbLine
 10
68.753333333333
 20
-1.013521685912
 30
0.0
 11
68.771666666667
 21
-1.021299405499
 31
0.0
  0
LINE
  5
11E
330
30
100
AcDbEntity
  8
1
100
AcDbLine
 10
68.771666666667
 20
-1.021299405499
 30
0.0
 11
68.79
 21
-1.02902627047
 31
0.0
  0
LINE
  5
11F
330
30
100
AcDbEntity
  8
1
100
AcDbLine
 10
68.79
 20
-1.02902627047
 30
0.0
 11
68.808333333333
 21
-1.036701896075
 31
0.0
  0
LINE
  5
120
330
30
100
AcDbEntity
  8
1
100
AcDbLine
 10
68.808333333333
 20
-1.036701896075
 30
0.0
 11
68.826666666667
 21
-1.044325900112
 31
0.0
  0
LINE
  5
121
330
30
100
AcDbEntity
  8
1
100
AcDbLine
 10
68.826666666667
 20
-1.044325900112
 30
0.0
 11
68.845
 21
-1.051897902951
 31
0.0
  0
LINE
  5
122
330
30
100
AcDbEntity
  8
1
100
AcDbLine
 10
68.845
 20
-1.051897902951
 30
0.0
 11
68.863333333333
 21
-1.059417527553
 31
0.0
  0
LINE
  5
123
330
30
100
AcDbEntity
  8
1
100
AcDbLine
 10
68.863333333333
 20
-1.059417527553
 30
0.0
 11
68.881666666667
 21
-1.066884399484
 31
0.0
  0
LINE
  5
124
330
30
100
AcDbEntity
  8
1
100
AcDbLine
 10
68.881666666667
 20
-1.066884399484
 30
0.0
 11
68.9
 21
-1.07429814694
 31
0.0
  0
LINE
  5
125
330
30
100
AcDbEntity
  8
1
100
AcDbLine
 10
68.9
 20
-1.07429814694
 30
0.0
 11
68.918333333333
 21
-1.081658400759
 31
0.0
  0
LINE
  5
126
330
30
100
AcDbEntity
  8
1
100
AcDbLine
 10
68.918333333333
 20
-1.081658400759
 30
0.0
 11
68.936666666667
 21
-1.088964794445
 31
0.0
  0
LINE
  5
127
330
30
100
AcDbEntity
  8
1
100
AcDbLine
 10
68.936666666667
 20
-1.088964794445
 30
0.0
 11
68.955
 21
-1.096216964183
 31
0.0
  0
LINE
  5
128
330
30
100
AcDbEntity
  8
1
100
AcDbLine
 10
68.955
 20
-1.096216964183
 30
0.0
 11
68.973333333333
 21
-1.103414548858
 31
0.0
  0
LINE
  5
129
330
30
100
AcDbEntity
  8
1
100
AcDbLine
 10
68.973333333333
 20
-1.103414548858
 30
0.0
 11
68.991666666667
 21
-1.110557190074
 31
0.0
  0
LINE
  5
12A
330
30
100
AcDbEntity
  8
1
100
AcDbLine
 10
68.991666666667
 20
-1.110557190074
 30
0.0
 11
69.01
 21
-1.11764453217
 31
0.0
  0
LINE
  5
12B
330
30
100
AcDbEntity
  8
1
100
AcDbLine
 10
69.01
 20
-1.11764453217
 30
0.0
 11
69.028333333333
 21
-1.124676222238
 31
0.0
  0
LINE
  5
12C
330
30
100
AcDbEntity
  8
1
100
AcDbLine
 10
69.028333333333
 20
-1.124676222238
 30
0.0
 11
69.046666666667
 21
-1.131651910142
 31
0.0
  0
LINE
  5
12D
330
30
100
AcDbEntity
  8
1
100
AcDbLine
 10
69.046666666667
 20
-1.131651910142
 30
0.0
 11
69.065
 21
-1.138571248535
 31
0.0
  0
LINE
  5
12E
330
30
100
AcDbEntity
  8
1
100
AcDbLine
 10
69.065
 20
-1.138571248535
 30
0.0
 11
69.083333333333
 21
-1.145433892874
 31
0.0
  0
LINE
  5
12F
330
30
100
AcDbEntity
  8
1
100
AcDbLine
 10
69.083333333333
 20
-1.145433892874
 30
0.0
 11
69.101666666667
 21
-1.152239501441
 31
0.0
  0
LINE
  5
130
330
30
100
AcDbEntity
  8
1
100
AcDbLine
 10
69.101666666667
 20
-1.152239501441
 30
0.0
 11
69.12
 21
-1.158987735358
 31
0.0
  0
LINE
  5
131
330
30
100
AcDbEntity
  8
1
100
AcDbLine
 10
69.12
 20
-1.158987735358
 30
0.0
 11
69.138333333333
 21
-1.165678258602
 31
0.0
  0
LINE
  5
132
330
30
100
AcDbEntity
  8
1
100
AcDbLine
 10
69.138333333333
 20
-1.165678258602
 30
0.0
 11
69.156666666667
 21
-1.172310738026
 31
0.0
  0
LINE
  5
133
330
30
100
AcDbEntity
  8
1
100
AcDbLine
 10
69.156666666667
 20
-1.172310738026
 30
0.0
 11
69.175
 21
-1.178884843371
 31
0.0
  0
LINE
  5
134
330
30
100
AcDbEntity
  8
1
100
AcDbLine
 10
69.175
 20
-1.178884843371
 30
0.0
 11
69.193333333333
 21
-1.185400247287
 31
0.0
  0
LINE
  5
135
330
30
100
AcDbEntity
  8
1
100
AcDbLine
 10
69.193333333333
 20
-1.185400247287
 30
0.0
 11
69.211666666667
 21
-1.191856625344
 31
0.0
  0
LINE
  5
136
330
30
100
AcDbEntity
  8
1
100
AcDbLine
 10
69.211666666667
 20
-1.191856625344
 30
0.0
 11
69.23
 21
-1.198253656055
 31
0.0
  0
LINE
  5
137
330
30
100
AcDbEntity
  8
1
100
AcDbLine
 10
69.23
 20
-1.198253656055
 30
0.0
 11
69.248333333333
 21
-1.204591020884
 31
0.0
  0
LINE
  5
138
330
30
100
AcDbEntity
  8
1
100
AcDbLine
 10
69.248333333333
 20
-1.204591020884
 30
0.0
 11
69.266666666667
 21
-1.21086840427
 31
0.0
  0
LINE
  5
139
330
30
100
AcDbEntity
  8
1
100
AcDbLine
 10
69.266666666667
 20
-1.21086840427
 30
0.0
 11
69.285
 21
-1.217085493636
 31
0.0
  0
LINE
  5
13A
330
30
100
AcDbEntity
  8
1
100
AcDbLine
 10
69.285
 20
-1.217085493636
 30
0.0
 11
69.303333333333
 21
-1.223241979407
 31
0.0
  0
LINE
  5
13B
330
30
100
AcDbEntity
  8
1
100
AcDbLine
 10
69.303333333333
 20
-1.223241979407
 30
0.0
 11
69.321666666667
 21
-1.229337555028
 31
0.0
  0
LINE
  5
13C
330
30
100
AcDbEntity
  8
1
100
AcDbLine
 10
69.321666666667
 20
-1.229337555028
 30
0.0
 11
69.34
 21
-1.235371916976
 31
0.0
  0
LINE
  5
13D
330
30
100
AcDbEntity
  8
1
100
AcDbLine
 10
69.34
 20
-1.235371916976
 30
0.0
 11
69.358333333333
 21
-1.241344764774
 31
0.0
  0
LINE
  5
13E
330
30
100
AcDbEntity
  8
1
100
AcDbLine
 10
69.358333333333
 20
-1.241344764774
 30
0.0
 11
69.376666666667
 21
-1.247255801012
 31
0.0
  0
LINE
  5
13F
330
30
100
AcDbEntity
  8
1
100
AcDbLine
 10
69.376666666667
 20
-1.247255801012
 30
0.0
 11
69.395
 21
-1.253104731354
 31
0.0
  0
LINE
  5
140
330
30
100
AcDbEntity
  8
1
100
AcDbLine
 10
69.395
 20
-1.253104731354
 30
0.0
 11
69.413333333333
 21
-1.258891264559
 31
0.0
  0
LINE
  5
141
330
30
100
AcDbEntity
  8
1
100
AcDbLine
 10
69.413333333333
 20
-1.258891264559
 30
0.0
 11
69.431666666667
 21
-1.264615112493
 31
0.0
  0
LINE
  5
142
330
30
100
AcDbEntity
  8
1
100
AcDbLine
 10
69.431666666667
 20
-1.264615112493
 30
0.0
 11
69.45
 21
-1.27027599014
 31
0.0
  0
LINE
  5
143
330
30
100
AcDbEntity
  8
1
100
AcDbLine
 10
69.45
 20
-1.27027599014
 30
0.0
 11
69.468333333333
 21
-1.275873615625
 31
0.0
  0
LINE
  5
144
330
30
100
AcDbEntity
  8
1
100
AcDbLine
 10
69.468333333333
 20
-1.275873615625
 30
0.0
 11
69.486666666667
 21
-1.281407710217
 31
0.0
  0
LINE
  5
145
330
30
100
AcDbEntity
  8
1
100
AcDbLine
 10
69.486666666667
 20
-1.281407710217
 30
0.0
 11
69.505
 21
-1.286877998353
 31
0.0
  0
LINE
  5
146
330
30
100
AcDbEntity
  8
1
100
AcDbLine
 10
69.505
 20
-1.286877998353
 30
0.0
 11
69.523333333333
 21
-1.292284207645
 31
0.0
  0
LINE
  5
147
330
30
100
AcDbEntity
  8
1
100
AcDbLine
 10
69.523333333333
 20
-1.292284207645
 30
0.0
 11
69.541666666667
 21
-1.297626068895
 31
0.0
  0
LINE
  5
148
330
30
100
AcDbEntity
  8
1
100
AcDbLine
 10
69.541666666667
 20
-1.297626068895
 30
0.0
 11
69.56
 21
-1.302903316111
 31
0.0
  0
LINE
  5
149
330
30
100
AcDbEntity
  8
1
100
AcDbLine
 10
69.56
 20
-1.302903316111
 30
0.0
 11
69.578333333333
 21
-1.308115686518
 31
0.0
  0
LINE
  5
14A
330
30
100
AcDbEntity
  8
1
100
AcDbLine
 10
69.578333333333
 20
-1.308115686518
 30
0.0
 11
69.596666666667
 21
-1.313262920571
 31
0.0
  0
LINE
  5
14B
330
30
100
AcDbEntity
  8
1
100
AcDbLine
 10
69.596666666667
 20
-1.313262920571
 30
0.0
 11
69.615
 21
-1.318344761967
 31
0.0
  0
LINE
  5
14C
330
30
100
AcDbEntity
  8
1
100
AcDbLine
 10
69.615
 20
-1.318344761967
 30
0.0
 11
69.633333333333
 21
-1.323360957662
 31
0.0
  0
LINE
  5
14D
330
30
100
AcDbEntity
  8
1
100
AcDbLine
 10
69.633333333333
 20
-1.323360957662
 30
0.0
 11
69.651666666667
 21
-1.328311257879
 31
0.0
  0
LINE
  5
14E
330
30
100
AcDbEntity
  8
1
100
AcDbLine
 10
69.651666666667
 20
-1.328311257879
 30
0.0
 11
69.67
 21
-1.333195416123
 31
0.0
  0
LINE
  5
14F
330
30
100
AcDbEntity
  8
1
100
AcDbLine
 10
69.67
 20
-1.333195416123
 30
0.0
 11
69.688333333333
 21
-1.338013189191
 31
0.0
  0
LINE
  5
150
330
30
100
AcDbEntity
  8
1
100
AcDbLine
 10
69.688333333333
 20
-1.338013189191
 30
0.0
 11
69.706666666667
 21
-1.342691279434
 31
0.0
  0
LINE
  5
151
330
30
100
AcDbEntity
  8
1
100
AcDbLine
 10
69.706666666667
 20
-1.342691279434
 30
0.0
 11
69.725
 21
-1.346417661383
 31
0.0
  0
LINE
  5
152
330
30
100
AcDbEntity
  8
1
100
AcDbLine
 10
69.725
 20
-1.346417661383
 30
0.0
 11
69.743333333333
 21
-1.348951736801
 31
0.0
  0
LINE
  5
153
330
30
100
AcDbEntity
  8
1
100
AcDbLine
 10
69.743333333333
 20
-1.348951736801
 30
0.0
 11
69.761666666667
 21
-1.350263184758
 31
0.0
  0
LINE
  5
154
330
30
100
AcDbEntity
  8
1
100
AcDbLine
 10
69.761666666667
 20
-1.350263184758
 30
0.0
 11
69.78
 21
-1.350307024207
 31
0.0
  0
LINE
  5
155
330
30
100
AcDbEntity
  8
1
100
AcDbLine
 10
69.78
 20
-1.350307024207
 30
0.0
 11
69.798333333333
 21
-1.349021004492
 31
0.0
  0
LINE
  5
156
330
30
100
AcDbEntity
  8
1
100
AcDbLine
 10
69.798333333333
 20
-1.349021004492
 30
0.0
 11
69.816666666667
 21
-1.346321547244
 31
0.0
  0
LINE
  5
157
330
30
100
AcDbEntity
  8
1
100
AcDbLine
 10
69.816666666667
 20
-1.346321547244
 30
0.0
 11
69.835
 21
-1.342097524542
 31
0.0
  0
LINE
  5
158
330
30
100
AcDbEntity
  8
1
100
AcDbLine
 10
69.835
 20
-1.342097524542
 30
0.0
 11
69.853333333333
 21
-1.336200597491
 31
0.0
  0
LINE
  5
159
330
30
100
AcDbEntity
  8
1
100
AcDbLine
 10
69.853333333333
 20
-1.336200597491
 30
0.0
 11
69.871666666667
 21
-1.328429742918
 31
0.0
  0
LINE
  5
15A
330
30
100
AcDbEntity
  8
1
100
AcDbLine
 10
69.871666666667
 20
-1.328429742918
 30
0.0
 11
69.89
 21
-1.318505277488
 31
0.0
  0
LINE
  5
15B
330
30
100
AcDbEntity
  8
1
100
AcDbLine
 10
69.89
 20
-1.318505277488
 30
0.0
 11
69.908333333333
 21
-1.306022307485
 31
0.0
  0
LINE
  5
15C
330
30
100
AcDbEntity
  8
1
100
AcDbLine
 10
69.908333333333
 20
-1.306022307485
 30
0.0
 11
69.926666666667
 21
-1.290359461634
 31
0.0
  0
LINE
  5
15D
330
30
100
AcDbEntity
  8
1
100
AcDbLine
 10
69.926666666667
 20
-1.290359461634
 30
0.0
 11
69.945
 21
-1.270475478017
 31
0.0
  0
LINE
  5
15E
330
30
100
AcDbEntity
  8
1
100
AcDbLine
 10
69.945
 20
-1.270475478017
 30
0.0
 11
69.963333333333
 21
-1.244356682563
 31
0.0
  0
LINE
  5
15F
330
30
100
AcDbEntity
  8
1
100
AcDbLine
 10
69.963333333333
 20
-1.244356682563
 30
0.0
 11
69.981666666667
 21
-1.206864833482
 31
0.0
  0
LINE
  5
160
330
30
100
AcDbEntity
  8
1
100
AcDbLine
 10
69.981666666667
 20
-1.206864833482
 30
0.0
 11
69.993817831142
 21
-1.139410544623
 31
0.0
  0
LINE
  5
161
330
30
100
AcDbEntity
  8
1
100
AcDbLine
 10
69.993817831142
 20
-1.139410544623
 30
0.0
 11
70.0
 21
-1.105091710018
 31
0.0
  0
LINE
  5
162
330
30
100
AcDbEntity
  8
1
100
AcDbLine
 10
69.7
 20
-1.5
 30
0.0
 11
69.7
 21
1.5
 31
0.0
  0
LINE
  5
163
330
30
100
AcDbEntity
  8
1
100
AcDbLine
 10
69.7
 20
1.5
 30
0.0
 11
69.7
 21
-1.5
 31
0.0
  0
LINE
  5
164
330
30
100
AcDbEntity
  8
1
100
AcDbLine
 10
67.5
 20
-1.5
 30
0.0
 11
67.5
 21
1.5
 31
0.0
  0
LINE
  5
165
330
30
100
AcDbEntity
  8
1
100
AcDbLine
 10
67.5
 20
1.425
 30
0.0
 11
67.5
 21
-1.425
 31
0.0
  0
LINE
  5
166
330
30
100
AcDbEntity
  8
1
100
AcDbLine
 10
67.506666666667
 20
-0.724737154588
 30
0.0
 11
67.525
 21
-0.73383562878
 31
0.0
  0
LINE
  5
167
330
30
100
AcDbEntity
  8
1
100
AcDbLine
 10
67.525
 20
-0.73383562878
 30
0.0
 11
67.543333333333
 21
-0.742897562338
 31
0.0
  0
LINE
  5
168
330
30
100
AcDbEntity
  8
1
100
AcDbLine
 10
67.543333333333
 20
-0.742897562338
 30
0.0
 11
67.561666666667
 21
-0.751922504031
 31
0.0
  0
LINE
  5
169
330
30
100
AcDbEntity
  8
1
100
AcDbLine
 10
67.561666666667
 20
-0.751922504031
 30
0.0
 11
67.58
 21
-0.76091000447
 31
0.0
  0
LINE
  5
16A
330
30
100
AcDbEntity
  8
1
100
AcDbLine
 10
67.58
 20
-0.76091000447
 30
0.0
 11
67.598333333333
 21
-0.769859616132
 31
0.0
  0
LINE
  5
16B
330
30
100
AcDbEntity
  8
1
100
AcDbLine
 10
67.598333333333
 20
-0.769859616132
 30
0.0
 11
67.616666666667
 21
-0.77877089338
 31
0.0
  0
LINE
  5
16C
330
30
100
AcDbEntity
  8
1
100
AcDbLine
 10
67.616666666667
 20
-0.77877089338
 30
0.0
 11
67.635
 21
-0.787643392485
 31
0.0
  0
LINE
  5
16D
330
30
100
AcDbEntity
  8
1
100
AcDbLine
 10
67.635
 20
-0.787643392485
 30
0.0
 11
67.653333333333
 21
-0.79647667165
 31
0.0
  0
LINE
  5
16E
330
30
100
AcDbEntity
  8
1
100
AcDbLine
 10
67.653333333333
 20
-0.79647667165
 30
0.0
 11
67.671666666667
 21
-0.80527029103
 31
0.0
  0
LINE
  5
16F
330
30
100
AcDbEntity
  8
1
100
AcDbLine
 10
67.671666666667
 20
-0.80527029103
 30
0.0
 11
67.69
 21
-0.814023812755
 31
0.0
  0
LINE
  5
170
330
30
100
AcDbEntity
  8
1
100
AcDbLine
 10
67.69
 20
-0.814023812755
 30
0.0
 11
67.708333333333
 21
-0.822736800952
 31
0.0
  0
LINE
  5
171
330
30
100
AcDbEntity
  8
1
100
AcDbLine
 10
67.708333333333
 20
-0.822736800952
 30
0.0
 11
67.726666666667
 21
-0.831408821767
 31
0.0
  0
LINE
  5
172
330
30
100
AcDbEntity
  8
1
100
AcDbLine
 10
67.726666666667
 20
-0.831408821767
 30
0.0
 11
67.745
 21
-0.840039443384
 31
0.0
  0
LINE
  5
173
330
30
100
AcDbEntity
  8
1
100
AcDbLine
 10
67.745
 20
-0.840039443384
 30
0.0
 11
67.763333333333
 21
-0.84862823605
 31
0.0
  0
LINE
  5
174
330
30
100
AcDbEntity
  8
1
100
AcDbLine
 10
67.763333333333
 20
-0.84862823605
 30
0.0
 11
67.781666666667
 21
-0.857174772094
 31
0.0
  0
LINE
  5
175
330
30
100
AcDbEntity
  8
1
100
AcDbLine
 10
67.781666666667
 20
-0.857174772094
 30
0.0
 11
67.8
 21
-0.865678625951
 31
0.0
  0
LINE
  5
176
330
30
100
AcDbEntity
  8
1
100
AcDbLine
 10
67.8
 20
-0.865678625951
 30
0.0
 11
67.818333333333
 21
-0.874139374178
 31
0.0
  0
LINE
  5
177
330
30
100
AcDbEntity
  8
1
100
AcDbLine
 10
67.818333333333
 20
-0.874139374178
 30
0.0
 11
67.836666666667
 21
-0.882556595481
 31
0.0
  0
LINE
  5
178
330
30
100
AcDbEntity
  8
1
100
AcDbLine
 10
67.836666666667
 20
-0.882556595481
 30
0.0
 11
67.855
 21
-0.890929870733
 31
0.0
  0
LINE
  5
179
330
30
100
AcDbEntity
  8
1
100
AcDbLine
 10
67.855
 20
-0.890929870733
 30
0.0
 11
67.873333333333
 21
-0.899258782994
 31
0.0
  0
LINE
  5
17A
330
30
100
AcDbEntity
  8
1
100
AcDbLine
 10
67.873333333333
 20
-0.899258782994
 30
0.0
 11
67.891666666667
 21
-0.907542917535
 31
0.0
  0
LINE
  5
17B
330
30
100
AcDbEntity
  8
1
100
AcDbLine
 10
67.891666666667
 20
-0.907542917535
 30
0.0
 11
67.91
 21
-0.915781861854
 31
0.0
  0
LINE
  5
17C
330
30
100
AcDbEntity
  8
1
100
AcDbLine
 10
67.91
 20
-0.915781861854
 30
0.0
 11
67.928333333333
 21
-0.923975205702
 31
0.0
  0
LINE
  5
17D
330
30
100
AcDbEntity
  8
1
100
AcDbLine
 10
67.928333333333
 20
-0.923975205702
 30
0.0
 11
67.946666666667
 21
-0.932122541099
 31
0.0
  0
LINE
  5
17E
330
30
100
AcDbEntity
  8
1
100
AcDbLine
 10
67.946666666667
 20
-0.932122541099
 30
0.0
 11
67.965
 21
-0.940223462356
 31
0.0
  0
LINE
  5
17F
330
30
100
AcDbEntity
  8
1
100
AcDbLine
 10
67.965
 20
-0.940223462356
 30
0.0
 11
67.983333333333
 21
-0.948277566096
 31
0.0
  0
LINE
  5
180
330
30
100
AcDbEntity
  8
1
100
AcDbLine
 10
67.983333333333
 20
-0.948277566096
 30
0.0
 11
68.001666666667
 21
-0.956284451273
 31
0.0
  0
LINE
  5
181
330
30
100
AcDbEntity
  8
1
100
AcDbLine
 10
68.001666666667
 20
-0.956284451273
 30
0.0
 11
68.02
 21
-0.964243719191
 31
0.0
  0
LINE
  5
182
330
30
100
AcDbEntity
  8
1
100
AcDbLine
 10
68.02
 20
-0.964243719191
 30
0.0
 11
68.038333333333
 21
-0.972154973526
 31
0.0
  0
LINE
  5
183
330
30
100
AcDbEntity
  8
1
100
AcDbLine
 10
68.038333333333
 20
-0.972154973526
 30
0.0
 11
68.056666666667
 21
-0.980017820345
 31
0.0
  0
LINE
  5
184
330
30
100
AcDbEntity
  8
1
100
AcDbLine
 10
68.056666666667
 20
-0.980017820345
 30
0.0
 11
68.075
 21
-0.987831868126
 31
0.0
  0
LINE
  5
185
330
30
100
AcDbEntity
  8
1
100
AcDbLine
 10
68.075
 20
-0.987831868126
 30
0.0
 11
68.093333333333
 21
-0.995596727775
 31
0.0
  0
LINE
  5
186
330
30
100
AcDbEntity
  8
1
100
AcDbLine
 10
68.093333333333
 20
-0.995596727775
 30
0.0
 11
68.111666666667
 21
-1.003312012648
 31
0.0
  0
LINE
  5
187
330
30
100
AcDbEntity
  8
1
100
AcDbLine
 10
68.111666666667
 20
-1.003312012648
 30
0.0
 11
68.13
 21
-1.010977338571
 31
0.0
  0
LINE
  5
188
330
30
100
AcDbEntity
  8
1
100
AcDbLine
 10
68.13
 20
-1.010977338571
 30
0.0
 11
68.148333333333
 21
-1.018592323856
 31
0.0
  0
LINE
  5
189
330
30
100
AcDbEntity
  8
1
100
AcDbLine
 10
68.148333333333
 20
-1.018592323856
 30
0.0
 11
68.166666666667
 21
-1.026156589322
 31
0.0
  0
LINE
  5
18A
330
30
100
AcDbEntity
  8
1
100
AcDbLine
 10
68.166666666667
 20
-1.026156589322
 30
0.0
 11
68.185
 21
-1.033669758314
 31
0.0
  0
LINE
  5
18B
330
30
100
AcDbEntity
  8
1
100
AcDbLine
 10
68.185
 20
-1.033669758314
 30
0.0
 11
68.203333333333
 21
-1.041131456721
 31
0.0
  0
LINE
  5
18C
330
30
100
AcDbEntity
  8
1
100
AcDbLine
 10
68.203333333333
 20
-1.041131456721
 30
0.0
 11
68.221666666667
 21
-1.048541312995
 31
0.0
  0
LINE
  5
18D
330
30
100
AcDbEntity
  8
1
100
AcDbLine
 10
68.221666666667
 20
-1.048541312995
 30
0.0
 11
68.24
 21
-1.055898958169
 31
0.0
  0
LINE
  5
18E
330
30
100
AcDbEntity
  8
1
100
AcDbLine
 10
68.24
 20
-1.055898958169
 30
0.0
 11
68.258333333333
 21
-1.063204025876
 31
0.0
  0
LINE
  5
18F
330
30
100
AcDbEntity
  8
1
100
AcDbLine
 10
68.258333333333
 20
-1.063204025876
 30
0.0
 11
68.276666666667
 21
-1.070456152368
 31
0.0
  0
LINE
  5
190
330
30
100
AcDbEntity
  8
1
100
AcDbLine
 10
68.276666666667
 20
-1.070456152368
 30
0.0
 11
68.295
 21
-1.077654976532
 31
0.0
  0
LINE
  5
191
330
30
100
AcDbEntity
  8
1
100
AcDbLine
 10
68.295
 20
-1.077654976532
 30
0.0
 11
68.313333333333
 21
-1.08480013991
 31
0.0
  0
LINE
  5
192
330
30
100
AcDbEntity
  8
1
100
AcDbLine
 10
68.313333333333
 20
-1.08480013991
 30
0.0
 11
68.331666666667
 21
-1.091891286715
 31
0.0
  0
LINE
  5
193
330
30
100
AcDbEntity
  8
1
100
AcDbLine
 10
68.331666666667
 20
-1.091891286715
 30
0.0
 11
68.35
 21
-1.098928063849
 31
0.0
  0
LINE
  5
194
330
30
100
AcDbEntity
  8
1
100
AcDbLine
 10
68.35
 20
-1.098928063849
 30
0.0
 11
68.368333333333
 21
-1.105910120925
 31
0.0
  0
LINE
  5
195
330
30
100
AcDbEntity
  8
1
100
AcDbLine
 10
68.368333333333
 20
-1.105910120925
 30
0.0
 11
68.386666666667
 21
-1.112837110277
 31
0.0
  0
LINE
  5
196
330
30
100
AcDbEntity
  8
1
100
AcDbLine
 10
68.386666666667
 20
-1.112837110277
 30
0.0
 11
68.405
 21
-1.119708686982
 31
0.0
  0
LINE
  5
197
330
30
100
AcDbEntity
  8
1
100
AcDbLine
 10
68.405
 20
-1.119708686982
 30
0.0
 11
68.423333333333
 21
-1.126524508877
 31
0.0
  0
LINE
  5
198
330
30
100
AcDbEntity
  8
1
100
AcDbLine
 10
68.423333333333
 20
-1.126524508877
 30
0.0
 11
68.441666666667
 21
-1.133284236574
 31
0.0
  0
LINE
  5
199
330
30
100
AcDbEntity
  8
1
100
AcDbLine
 10
68.441666666667
 20
-1.133284236574
 30
0.0
 11
68.46
 21
-1.139987533479
 31
0.0
  0
LINE
  5
19A
330
30
100
AcDbEntity
  8
1
100
AcDbLine
 10
68.46
 20
-1.139987533479
 30
0.0
 11
68.478333333333
 21
-1.146634065809
 31
0.0
  0
LINE
  5
19B
330
30
100
AcDbEntity
  8
1
100
AcDbLine
 10
68.478333333333
 20
-1.146634065809
 30
0.0
 11
68.496666666667
 21
-1.153223502605
 31
0.0
  0
LINE
  5
19C
330
30
100
AcDbEntity
  8
1
100
AcDbLine
 10
68.496666666667
 20
-1.153223502605
 30
0.0
 11
68.515
 21
-1.159755515754
 31
0.0
  0
LINE
  5
19D
330
30
100
AcDbEntity
  8
1
100
AcDbLine
 10
68.515
 20
-1.159755515754
 30
0.0
 11
68.533333333333
 21
-1.166229779999
 31
0.0
  0
LINE
  5
19E
330
30
100
AcDbEntity
  8
1
100
AcDbLine
 10
68.533333333333
 20
-1.166229779999
 30
0.0
 11
68.551666666667
 21
-1.17264597296
 31
0.0
  0
LINE
  5
19F
330
30
100
AcDbEntity
  8
1
100
AcDbLine
 10
68.551666666667
 20
-1.17264597296
 30
0.0
 11
68.57
 21
-1.179003775151
 31
0.0
  0
LINE
  5
1A0
330
30
100
AcDbEntity
  8
1
100
AcDbLine
 10
68.57
 20
-1.179003775151
 30
0.0
 11
68.588333333333
 21
-1.18530286999
 31
0.0
  0
LINE
  5
1A1
330
30
100
AcDbEntity
  8
1
100
AcDbLine
 10
68.588333333333
 20
-1.18530286999
 30
0.0
 11
68.606666666667
 21
-1.19154294382
 31
0.0
  0
LINE
  5
1A2
330
30
100
AcDbEntity
  8
1
100
AcDbLine
 10
68.606666666667
 20
-1.19154294382
 30
0.0
 11
68.625
 21
-1.197723685922
 31
0.0
  0
LINE
  5
1A3
330
30
100
AcDbEntity
  8
1
100
AcDbLine
 10
68.625
 20
-1.197723685922
 30
0.0
 11
68.643333333333
 21
-1.203844788533
 31
0.0
  0
LINE
  5
1A4
330
30
100
AcDbEntity
  8
1
100
AcDbLine
 10
68.643333333333
 20
-1.203844788533
 30
0.0
 11
68.661666666667
 21
-1.209905946857
 31
0.0
  0
LINE
  5
1A5
330
30
100
AcDbEntity
  8
1
100
AcDbLine
 10
68.661666666667
 20
-1.209905946857
 30
0.0
 11
68.68
 21
-1.215906859087
 31
0.0
  0
LINE
  5
1A6
330
30
100
AcDbEntity
  8
1
100
AcDbLine
 10
68.68
 20
-1.215906859087
 30
0.0
 11
68.698333333333
 21
-1.221847226411
 31
0.0
  0
LINE
  5
1A7
330
30
100
AcDbEntity
  8
1
100
AcDbLine
 10
68.698333333333
 20
-1.221847226411
 30
0.0
 11
68.716666666667
 21
-1.227726753035
 31
0.0
  0
LINE
  5
1A8
330
30
100
AcDbEntity
  8
1
100
AcDbLine
 10
68.716666666667
 20
-1.227726753035
 30
0.0
 11
68.735
 21
-1.233545146193
 31
0.0
  0
LINE
  5
1A9
330
30
100
AcDbEntity
  8
1
100
AcDbLine
 10
68.735
 20
-1.233545146193
 30
0.0
 11
68.753333333333
 21
-1.239302116166
 31
0.0
  0
LINE
  5
1AA
330
30
100
AcDbEntity
  8
1
100
AcDbLine
 10
68.753333333333
 20
-1.239302116166
 30
0.0
 11
68.771666666667
 21
-1.244997376289
 31
0.0
  0
LINE
  5
1AB
330
30
100
AcDbEntity
  8
1
100
AcDbLine
 10
68.771666666667
 20
-1.244997376289
 30
0.0
 11
68.79
 21
-1.250630642972
 31
0.0
  0
LINE
  5
1AC
330
30
100
AcDbEntity
  8
1
100
AcDbLine
 10
68.79
 20
-1.250630642972
 30
0.0
 11
68.808333333333
 21
-1.256201635713
 31
0.0
  0
LINE
  5
1AD
330
30
100
AcDbEntity
  8
1
100
AcDbLine
 10
68.808333333333
 20
-1.256201635713
 30
0.0
 11
68.826666666667
 21
-1.26171007711
 31
0.0
  0
LINE
  5
1AE
330
30
100
AcDbEntity
  8
1
100
AcDbLine
 10
68.826666666667
 20
-1.26171007711
 30
0.0
 11
68.845
 21
-1.267155692875
 31
0.0
  0
LINE
  5
1AF
330
30
100
AcDbEntity
  8
1
100
AcDbLine
 10
68.845
 20
-1.267155692875
 30
0.0
 11
68.863333333333
 21
-1.272538211848
 31
0.0
  0
LINE
  5
1B0
330
30
100
AcDbEntity
  8
1
100
AcDbLine
 10
68.863333333333
 20
-1.272538211848
 30
0.0
 11
68.881666666667
 21
-1.277857366014
 31
0.0
  0
LINE
  5
1B1
330
30
100
AcDbEntity
  8
1
100
AcDbLine
 10
68.881666666667
 20
-1.277857366014
 30
0.0
 11
68.9
 21
-1.283112890508
 31
0.0
  0
LINE
  5
1B2
330
30
100
AcDbEntity
  8
1
100
AcDbLine
 10
68.9
 20
-1.283112890508
 30
0.0
 11
68.918333333333
 21
-1.288304523638
 31
0.0
  0
LINE
  5
1B3
330
30
100
AcDbEntity
  8
1
100
AcDbLine
 10
68.918333333333
 20
-1.288304523638
 30
0.0
 11
68.936666666667
 21
-1.293432006891
 31
0.0
  0
LINE
  5
1B4
330
30
100
AcDbEntity
  8
1
100
AcDbLine
 10
68.936666666667
 20
-1.293432006891
 30
0.0
 11
68.955
 21
-1.298495084949
 31
0.0
  0
LINE
  5
1B5
330
30
100
AcDbEntity
  8
1
100
AcDbLine
 10
68.955
 20
-1.298495084949
 30
0.0
 11
68.973333333333
 21
-1.303493505702
 31
0.0
  0
LINE
  5
1B6
330
30
100
AcDbEntity
  8
1
100
AcDbLine
 10
68.973333333333
 20
-1.303493505702
 30
0.0
 11
68.991666666667
 21
-1.308427020257
 31
0.0
  0
LINE
  5
1B7
330
30
100
AcDbEntity
  8
1
100
AcDbLine
 10
68.991666666667
 20
-1.308427020257
 30
0.0
 11
69.01
 21
-1.313295382955
 31
0.0
  0
LINE
  5
1B8
330
30
100
AcDbEntity
  8
1
100
AcDbLine
 10
69.01
 20
-1.313295382955
 30
0.0
 11
69.028333333333
 21
-1.318098351381
 31
0.0
  0
LINE
  5
1B9
330
30
100
AcDbEntity
  8
1
100
AcDbLine
 10
69.028333333333
 20
-1.318098351381
 30
0.0
 11
69.046666666667
 21
-1.322835686375
 31
0.0
  0
LINE
  5
1BA
330
30
100
AcDbEntity
  8
1
100
AcDbLine
 10
69.046666666667
 20
-1.322835686375
 30
0.0
 11
69.065
 21
-1.327507152046
 31
0.0
  0
LINE
  5
1BB
330
30
100
AcDbEntity
  8
1
100
AcDbLine
 10
69.065
 20
-1.327507152046
 30
0.0
 11
69.083333333333
 21
-1.332112515784
 31
0.0
  0
LINE
  5
1BC
330
30
100
AcDbEntity
  8
1
100
AcDbLine
 10
69.083333333333
 20
-1.332112515784
 30
0.0
 11
69.101666666667
 21
-1.336651548269
 31
0.0
  0
LINE
  5
1BD
330
30
100
AcDbEntity
  8
1
100
AcDbLine
 10
69.101666666667
 20
-1.336651548269
 30
0.0
 11
69.12
 21
-1.341124023483
 31
0.0
  0
LINE
  5
1BE
330
30
100
AcDbEntity
  8
1
100
AcDbLine
 10
69.12
 20
-1.341124023483
 30
0.0
 11
69.138333333333
 21
-1.345529718725
 31
0.0
  0
LINE
  5
1BF
330
30
100
AcDbEntity
  8
1
100
AcDbLine
 10
69.138333333333
 20
-1.345529718725
 30
0.0
 11
69.156666666667
 21
-1.349868414617
 31
0.0
  0
LINE
  5
1C0
330
30
100
AcDbEntity
  8
1
100
AcDbLine
 10
69.156666666667
 20
-1.349868414617
 30
0.0
 11
69.175
 21
-1.354139895118
 31
0.0
  0
LINE
  5
1C1
330
30
100
AcDbEntity
  8
1
100
AcDbLine
 10
69.175
 20
-1.354139895118
 30
0.0
 11
69.193333333333
 21
-1.358343947533
 31
0.0
  0
LINE
  5
1C2
330
30
100
AcDbEntity
  8
1
100
AcDbLine
 10
69.193333333333
 20
-1.358343947533
 30
0.0
 11
69.211666666667
 21
-1.362480362526
 31
0.0
  0
LINE
  5
1C3
330
30
100
AcDbEntity
  8
1
100
AcDbLine
 10
69.211666666667
 20
-1.362480362526
 30
0.0
 11
69.23
 21
-1.366548934129
 31
0.0
  0
LINE
  5
1C4
330
30
100
AcDbEntity
  8
1
100
AcDbLine
 10
69.23
 20
-1.366548934129
 30
0.0
 11
69.248333333333
 21
-1.37054945975
 31
0.0
  0
LINE
  5
1C5
330
30
100
AcDbEntity
  8
1
100
AcDbLine
 10
69.248333333333
 20
-1.37054945975
 30
0.0
 11
69.266666666667
 21
-1.374481740187
 31
0.0
  0
LINE
  5
1C6
330
30
100
AcDbEntity
  8
1
100
AcDbLine
 10
69.266666666667
 20
-1.374481740187
 30
0.0
 11
69.285
 21
-1.378345579637
 31
0.0
  0
LINE
  5
1C7
330
30
100
AcDbEntity
  8
1
100
AcDbLine
 10
69.285
 20
-1.378345579637
 30
0.0
 11
69.303333333333
 21
-1.382140785702
 31
0.0
  0
LINE
  5
1C8
330
30
100
AcDbEntity
  8
1
100
AcDbLine
 10
69.303333333333
 20
-1.382140785702
 30
0.0
 11
69.321666666667
 21
-1.385867169405
 31
0.0
  0
LINE
  5
1C9
330
30
100
AcDbEntity
  8
1
100
AcDbLine
 10
69.321666666667
 20
-1.385867169405
 30
0.0
 11
69.34
 21
-1.389524545194
 31
0.0
  0
LINE
  5
1CA
330
30
100
AcDbEntity
  8
1
100
AcDbLine
 10
69.34
 20
-1.389524545194
 30
0.0
 11
69.358333333333
 21
-1.393112730953
 31
0.0
  0
LINE
  5
1CB
330
30
100
AcDbEntity
  8
1
100
AcDbLine
 10
69.358333333333
 20
-1.393112730953
 30
0.0
 11
69.376666666667
 21
-1.396631548011
 31
0.0
  0
LINE
  5
1CC
330
30
100
AcDbEntity
  8
1
100
AcDbLine
 10
69.376666666667
 20
-1.396631548011
 30
0.0
 11
69.395
 21
-1.400080821154
 31
0.0
  0
LINE
  5
1CD
330
30
100
AcDbEntity
  8
1
100
AcDbLine
 10
69.395
 20
-1.400080821154
 30
0.0
 11
69.413333333333
 21
-1.403460378628
 31
0.0
  0
LINE
  5
1CE
330
30
100
AcDbEntity
  8
1
100
AcDbLine
 10
69.413333333333
 20
-1.403460378628
 30
0.0
 11
69.431666666667
 21
-1.40677005215
 31
0.0
  0
LINE
  5
1CF
330
30
100
AcDbEntity
  8
1
100
AcDbLine
 10
69.431666666667
 20
-1.40677005215
 30
0.0
 11
69.45
 21
-1.410009676919
 31
0.0
  0
LINE
  5
1D0
330
30
100
AcDbEntity
  8
1
100
AcDbLine
 10
69.45
 20
-1.410009676919
 30
0.0
 11
69.468333333333
 21
-1.413179091622
 31
0.0
  0
LINE
  5
1D1
330
30
100
AcDbEntity
  8
1
100
AcDbLine
 10
69.468333333333
 20
-1.413179091622
 30
0.0
 11
69.486666666667
 21
-1.416278138439
 31
0.0
  0
LINE
  5
1D2
330
30
100
AcDbEntity
  8
1
100
AcDbLine
 10
69.486666666667
 20
-1.416278138439
 30
0.0
 11
69.505
 21
-1.419306663057
 31
0.0
  0
LINE
  5
1D3
330
30
100
AcDbEntity
  8
1
100
AcDbLine
 10
69.505
 20
-1.419306663057
 30
0.0
 11
69.523333333333
 21
-1.422264514674
 31
0.0
  0
LINE
  5
1D4
330
30
100
AcDbEntity
  8
1
100
AcDbLine
 10
69.523333333333
 20
-1.422264514674
 30
0.0
 11
69.541666666667
 21
-1.425151546006
 31
0.0
  0
LINE
  5
1D5
330
30
100
AcDbEntity
  8
1
100
AcDbLine
 10
69.541666666667
 20
-1.425151546006
 30
0.0
 11
69.56
 21
-1.427967613296
 31
0.0
  0
LINE
  5
1D6
330
30
100
AcDbEntity
  8
1
100
AcDbLine
 10
69.56
 20
-1.427967613296
 30
0.0
 11
69.578333333333
 21
-1.430712576321
 31
0.0
  0
LINE
  5
1D7
330
30
100
AcDbEntity
  8
1
100
AcDbLine
 10
69.578333333333
 20
-1.430712576321
 30
0.0
 11
69.596666666667
 21
-1.433386298398
 31
0.0
  0
LINE
  5
1D8
330
30
100
AcDbEntity
  8
1
100
AcDbLine
 10
69.596666666667
 20
-1.433386298398
 30
0.0
 11
69.615
 21
-1.435988646392
 31
0.0
  0
LINE
  5
1D9
330
30
100
AcDbEntity
  8
1
100
AcDbLine
 10
69.615
 20
-1.435988646392
 30
0.0
 11
69.633333333333
 21
-1.438519490721
 31
0.0
  0
LINE
  5
1DA
330
30
100
AcDbEntity
  8
1
100
AcDbLine
 10
69.633333333333
 20
-1.438519490721
 30
0.0
 11
69.651666666667
 21
-1.440978705365
 31
0.0
  0
LINE
  5
1DB
330
30
100
AcDbEntity
  8
1
100
AcDbLine
 10
69.651666666667
 20
-1.440978705365
 30
0.0
 11
69.67
 21
-1.443366167868
 31
0.0
  0
LINE
  5
1DC
330
30
100
AcDbEntity
  8
1
100
AcDbLine
 10
69.67
 20
-1.443366167868
 30
0.0
 11
69.688333333333
 21
-1.445681759351
 31
0.0
  0
LINE
  5
1DD
330
30
100
AcDbEntity
  8
1
100
AcDbLine
 10
69.688333333333
 20
-1.445681759351
 30
0.0
 11
69.706666666667
 21
-1.447849581397
 31
0.0
  0
LINE
  5
1DE
330
30
100
AcDbEntity
  8
1
100
AcDbLine
 10
69.706666666667
 20
-1.447849581397
 30
0.0
 11
69.725
 21
-1.449029626965
 31
0.0
  0
LINE
  5
1DF
330
30
100
AcDbEntity
  8
1
100
AcDbLine
 10
69.725
 20
-1.449029626965
 30
0.0
 11
69.743333333333
 21
-1.448979046749
 31
0.0
  0
LINE
  5
1E0
330
30
100
AcDbEntity
  8
1
100
AcDbLine
 10
69.743333333333
 20
-1.448979046749
 30
0.0
 11
69.761666666667
 21
-1.447673750416
 31
0.0
  0
LINE
  5
1E1
330
30
100
AcDbEntity
  8
1
100
AcDbLine
 10
69.761666666667
 20
-1.447673750416
 30
0.0
 11
69.78
 21
-1.44507475353
 31
0.0
  0
LINE
  5
1E2
330
30
100
AcDbEntity
  8
1
100
AcDbLine
 10
69.78
 20
-1.44507475353
 30
0.0
 11
69.798333333333
 21
-1.441125647917
 31
0.0
  0
LINE
  5
1E3
330
30
100
AcDbEntity
  8
1
100
AcDbLine
 10
69.798333333333
 20
-1.441125647917
 30
0.0
 11
69.816666666667
 21
-1.435748616995
 31
0.0
  0
LINE
  5
1E4
330
30
100
AcDbEntity
  8
1
100
AcDbLine
 10
69.816666666667
 20
-1.435748616995
 30
0.0
 11
69.835
 21
-1.428838284595
 31
0.0
  0
LINE
  5
1E5
330
30
100
AcDbEntity
  8
1
100
AcDbLine
 10
69.835
 20
-1.428838284595
 30
0.0
 11
69.853333333333
 21
-1.420252124385
 31
0.0
  0
LINE
  5
1E6
330
30
100
AcDbEntity
  8
1
100
AcDbLine
 10
69.853333333333
 20
-1.420252124385
 30
0.0
 11
69.871666666667
 21
-1.409795059567
 31
0.0
  0
LINE
  5
1E7
330
30
100
AcDbEntity
  8
1
100
AcDbLine
 10
69.871666666667
 20
-1.409795059567
 30
0.0
 11
69.89
 21
-1.397193561393
 31
0.0
  0
LINE
  5
1E8
330
30
100
AcDbEntity
  8
1
100
AcDbLine
 10
69.89
 20
-1.397193561393
 30
0.0
 11
69.908333333333
 21
-1.382049165561
 31
0.0
  0
LINE
  5
1E9
330
30
100
AcDbEntity
  8
1
100
AcDbLine
 10
69.908333333333
 20
-1.382049165561
 30
0.0
 11
69.926666666667
 21
-1.363747225542
 31
0.0
  0
LINE
  5
1EA
330
30
100
AcDbEntity
  8
1
100
AcDbLine
 10
69.926666666667
 20
-1.363747225542
 30
0.0
 11
69.945
 21
-1.341253323071
 31
0.0
  0
LINE
  5
1EB
330
30
100
AcDbEntity
  8
1
100
AcDbLine
 10
69.945
 20
-1.341253323071
 30
0.0
 11
69.963333333333
 21
-1.312559686737
 31
0.0
  0
LINE
  5
1EC
330
30
100
AcDbEntity
  8
1
100
AcDbLine
 10
69.963333333333
 20
-1.312559686737
 30
0.0
 11
69.981666666667
 21
-1.272526570273
 31
0.0
  0
LINE
  5
1ED
330
30
100
AcDbEntity
  8
1
100
AcDbLine
 10
69.981666666667
 20
-1.272526570273
 30
0.0
 11
69.998897604414
 21
-1.174305213064
 31
0.0
  0
LINE
  5
1EE
330
30
100
AcDbEntity
  8
1
100
AcDbLine
 10
69.998897604414
 20
-1.174305213064
 30
0.0
 11
70.0
 21
-1.168021237563
 31
0.0
  0
LINE
  5
1EF
330
30
100
AcDbEntity
  8
1
100
AcDbLine
 10
70.0
 20
-1.199255397896
 30
0.0
 11
69.999999088669
 21
-1.199260542211
 31
0.0
  0
LINE
  5
1F0
330
30
100
AcDbEntity
  8
1
100
AcDbLine
 10
69.999999088669
 20
-1.199260542211
 30
0.0
 11
69.981666666667
 21
-1.302744067478
 31
0.0
  0
LINE
  5
1F1
330
30
100
AcDbEntity
  8
1
100
AcDbLine
 10
69.981666666667
 20
-1.302744067478
 30
0.0
 11
69.963333333333
 21
-1.343096360543
 31
0.0
  0
LINE
  5
1F2
330
30
100
AcDbEntity
  8
1
100
AcDbLine
 10
69.963333333333
 20
-1.343096360543
 30
0.0
 11
69.945
 21
-1.372331504368
 31
0.0
  0
LINE
  5
1F3
330
30
100
AcDbEntity
  8
1
100
AcDbLine
 10
69.945
 20
-1.372331504368
 30
0.0
 11
69.926666666667
 21
-1.395482578057
 31
0.0
  0
LINE
  5
1F4
330
30
100
AcDbEntity
  8
1
100
AcDbLine
 10
69.926666666667
 20
-1.395482578057
 30
0.0
 11
69.908333333333
 21
-1.414515952452
 31
0.0
  0
LINE
  5
1F5
330
30
100
AcDbEntity
  8
1
100
AcDbLine
 10
69.908333333333
 20
-1.414515952452
 30
0.0
 11
69.89
 21
-1.43044483113
 31
0.0
  0
LINE
  5
1F6
330
30
100
AcDbEntity
  8
1
100
AcDbLine
 10
69.89
 20
-1.43044483113
 30
0.0
 11
69.871666666667
 21
-1.44387130761
 31
0.0
  0
LINE
  5
1F7
330
30
100
AcDbEntity
  8
1
100
AcDbLine
 10
69.871666666667
 20
-1.44387130761
 30
0.0
 11
69.853333333333
 21
-1.455185729755
 31
0.0
  0
LINE
  5
1F8
330
30
100
AcDbEntity
  8
1
100
AcDbLine
 10
69.853333333333
 20
-1.455185729755
 30
0.0
 11
69.835
 21
-1.464656058541
 31
0.0
  0
LINE
  5
1F9
330
30
100
AcDbEntity
  8
1
100
AcDbLine
 10
69.835
 20
-1.464656058541
 30
0.0
 11
69.816666666667
 21
-1.472473392724
 31
0.0
  0
LINE
  5
1FA
330
30
100
AcDbEntity
  8
1
100
AcDbLine
 10
69.816666666667
 20
-1.472473392724
 30
0.0
 11
69.798333333333
 21
-1.478777337386
 31
0.0
  0
LINE
  5
1FB
330
30
100
AcDbEntity
  8
1
100
AcDbLine
 10
69.798333333333
 20
-1.478777337386
 30
0.0
 11
69.78
 21
-1.483671088027
 31
0.0
  0
LINE
  5
1FC
330
30
100
AcDbEntity
  8
1
100
AcDbLine
 10
69.78
 20
-1.483671088027
 30
0.0
 11
69.761666666667
 21
-1.487230824425
 31
0.0
  0
LINE
  5
1FD
330
30
100
AcDbEntity
  8
1
100
AcDbLine
 10
69.761666666667
 20
-1.487230824425
 30
0.0
 11
69.743333333333
 21
-1.489511735539
 31
0.0
  0
LINE
  5
1FE
330
30
100
AcDbEntity
  8
1
100
AcDbLine
 10
69.743333333333
 20
-1.489511735539
 30
0.0
 11
69.725
 21
-1.49055192203
 31
0.0
  0
LINE
  5
1FF
330
30
100
AcDbEntity
  8
1
100
AcDbLine
 10
69.725
 20
-1.49055192203
 30
0.0
 11
69.706666666667
 21
-1.490374873145
 31
0.0
  0
LINE
  5
200
330
30
100
AcDbEntity
  8
1
100
AcDbLine
 10
69.706666666667
 20
-1.490374873145
 30
0.0
 11
69.688333333333
 21
-1.489220035527
 31
0.0
  0
LINE
  5
201
330
30
100
AcDbEntity
  8
1
100
AcDbLine
 10
69.688333333333
 20
-1.489220035527
 30
0.0
 11
69.67
 21
-1.487916259032
 31
0.0
  0
LINE
  5
202
330
30
100
AcDbEntity
  8
1
100
AcDbLine
 10
69.67
 20
-1.487916259032
 30
0.0
 11
69.651666666667
 21
-1.486538393187
 31
0.0
  0
LINE
  5
203
330
30
100
AcDbEntity
  8
1
100
AcDbLine
 10
69.651666666667
 20
-1.486538393187
 30
0.0
 11
69.633333333333
 21
-1.485086506601
 31
0.0
  0
LINE
  5
204
330
30
100
AcDbEntity
  8
1
100
AcDbLine
 10
69.633333333333
 20
-1.485086506601
 30
0.0
 11
69.615
 21
-1.483560671571
 31
0.0
  0
LINE
  5
205
330
30
100
AcDbEntity
  8
1
100
AcDbLine
 10
69.615
 20
-1.483560671571
 30
0.0
 11
69.596666666667
 21
-1.481960964072
 31
0.0
  0
LINE
  5
206
330
30
100
AcDbEntity
  8
1
100
AcDbLine
 10
69.596666666667
 20
-1.481960964072
 30
0.0
 11
69.578333333333
 21
-1.480287463762
 31
0.0
  0
LINE
  5
207
330
30
100
AcDbEntity
  8
1
100
AcDbLine
 10
69.578333333333
 20
-1.480287463762
 30
0.0
 11
69.56
 21
-1.478540253971
 31
0.0
  0
LINE
  5
208
330
30
100
AcDbEntity
  8
1
100
AcDbLine
 10
69.56
 20
-1.478540253971
 30
0.0
 11
69.541666666667
 21
-1.476719421698
 31
0.0
  0
LINE
  5
209
330
30
100
AcDbEntity
  8
1
100
AcDbLine
 10
69.541666666667
 20
-1.476719421698
 30
0.0
 11
69.523333333333
 21
-1.474825057612
 31
0.0
  0
LINE
  5
20A
330
30
100
AcDbEntity
  8
1
100
AcDbLine
 10
69.523333333333
 20
-1.474825057612
 30
0.0
 11
69.505
 21
-1.472857256039
 31
0.0
  0
LINE
  5
20B
330
30
100
AcDbEntity
  8
1
100
AcDbLine
 10
69.505
 20
-1.472857256039
 30
0.0
 11
69.486666666667
 21
-1.470816114965
 31
0.0
  0
LINE
  5
20C
330
30
100
AcDbEntity
  8
1
100
AcDbLine
 10
69.486666666667
 20
-1.470816114965
 30
0.0
 11
69.468333333333
 21
-1.468701736026
 31
0.0
  0
LINE
  5
20D
330
30
100
AcDbEntity
  8
1
100
AcDbLine
 10
69.468333333333
 20
-1.468701736026
 30
0.0
 11
69.45
 21
-1.466514224506
 31
0.0
  0
LINE
  5
20E
330
30
100
AcDbEntity
  8
1
100
AcDbLine
 10
69.45
 20
-1.466514224506
 30
0.0
 11
69.431666666667
 21
-1.464253689329
 31
0.0
  0
LINE
  5
20F
330
30
100
AcDbEntity
  8
1
100
AcDbLine
 10
69.431666666667
 20
-1.464253689329
 30
0.0
 11
69.413333333333
 21
-1.461920243058
 31
0.0
  0
LINE
  5
210
330
30
100
AcDbEntity
  8
1
100
AcDbLine
 10
69.413333333333
 20
-1.461920243058
 30
0.0
 11
69.395
 21
-1.459514001882
 31
0.0
  0
LINE
  5
211
330
30
100
AcDbEntity
  8
1
100
AcDbLine
 10
69.395
 20
-1.459514001882
 30
0.0
 11
69.376666666667
 21
-1.45703508562
 31
0.0
  0
LINE
  5
212
330
30
100
AcDbEntity
  8
1
100
AcDbLine
 10
69.376666666667
 20
-1.45703508562
 30
0.0
 11
69.358333333333
 21
-1.454483617706
 31
0.0
  0
LINE
  5
213
330
30
100
AcDbEntity
  8
1
100
AcDbLine
 10
69.358333333333
 20
-1.454483617706
 30
0.0
 11
69.34
 21
-1.451859725188
 31
0.0
  0
LINE
  5
214
330
30
100
AcDbEntity
  8
1
100
AcDbLine
 10
69.34
 20
-1.451859725188
 30
0.0
 11
69.321666666667
 21
-1.449163538721
 31
0.0
  0
LINE
  5
215
330
30
100
AcDbEntity
  8
1
100
AcDbLine
 10
69.321666666667
 20
-1.449163538721
 30
0.0
 11
69.303333333333
 21
-1.446395192558
 31
0.0
  0
LINE
  5
216
330
30
100
AcDbEntity
  8
1
100
AcDbLine
 10
69.303333333333
 20
-1.446395192558
 30
0.0
 11
69.285
 21
-1.443554824546
 31
0.0
  0
LINE
  5
217
330
30
100
AcDbEntity
  8
1
100
AcDbLine
 10
69.285
 20
-1.443554824546
 30
0.0
 11
69.266666666667
 21
-1.440642576119
 31
0.0
  0
LINE
  5
218
330
30
100
AcDbEntity
  8
1
100
AcDbLine
 10
69.266666666667
 20
-1.440642576119
 30
0.0
 11
69.248333333333
 21
-1.437658592289
 31
0.0
  0
LINE
  5
219
330
30
100
AcDbEntity
  8
1
100
AcDbLine
 10
69.248333333333
 20
-1.437658592289
 30
0.0
 11
69.23
 21
-1.434603021641
 31
0.0
  0
LINE
  5
21A
330
30
100
AcDbEntity
  8
1
100
AcDbLine
 10
69.23
 20
-1.434603021641
 30
0.0
 11
69.211666666667
 21
-1.431476016325
 31
0.0
  0
LINE
  5
21B
330
30
100
AcDbEntity
  8
1
100
AcDbLine
 10
69.211666666667
 20
-1.431476016325
 30
0.0
 11
69.193333333333
 21
-1.428277732045
 31
0.0
  0
LINE
  5
21C
330
30
100
AcDbEntity
  8
1
100
AcDbLine
 10
69.193333333333
 20
-1.428277732045
 30
0.0
 11
69.175
 21
-1.425008328059
 31
0.0
  0
LINE
  5
21D
330
30
100
AcDbEntity
  8
1
100
AcDbLine
 10
69.175
 20
-1.425008328059
 30
0.0
 11
69.156666666667
 21
-1.421667967162
 31
0.0
  0
LINE
  5
21E
330
30
100
AcDbEntity
  8
1
100
AcDbLine
 10
69.156666666667
 20
-1.421667967162
 30
0.0
 11
69.138333333333
 21
-1.418256815685
 31
0.0
  0
LINE
  5
21F
330
30
100
AcDbEntity
  8
1
100
AcDbLine
 10
69.138333333333
 20
-1.418256815685
 30
0.0
 11
69.12
 21
-1.414775043483
 31
0.0
  0
LINE
  5
220
330
30
100
AcDbEntity
  8
1
100
AcDbLine
 10
69.12
 20
-1.414775043483
 30
0.0
 11
69.101666666667
 21
-1.411222823926
 31
0.0
  0
LINE
  5
221
330
30
100
AcDbEntity
  8
1
100
AcDbLine
 10
69.101666666667
 20
-1.411222823926
 30
0.0
 11
69.083333333333
 21
-1.407600333895
 31
0.0
  0
LINE
  5
222
330
30
100
AcDbEntity
  8
1
100
AcDbLine
 10
69.083333333333
 20
-1.407600333895
 30
0.0
 11
69.065
 21
-1.403907753768
 31
0.0
  0
LINE
  5
223
330
30
100
AcDbEntity
  8
1
100
AcDbLine
 10
69.065
 20
-1.403907753768
 30
0.0
 11
69.046666666667
 21
-1.400145267414
 31
0.0
  0
LINE
  5
224
330
30
100
AcDbEntity
  8
1
100
AcDbLine
 10
69.046666666667
 20
-1.400145267414
 30
0.0
 11
69.028333333333
 21
-1.39631306218
 31
0.0
  0
LINE
  5
225
330
30
100
AcDbEntity
  8
1
100
AcDbLine
 10
69.028333333333
 20
-1.39631306218
 30
0.0
 11
69.01
 21
-1.39241132889
 31
0.0
  0
LINE
  5
226
330
30
100
AcDbEntity
  8
1
100
AcDbLine
 10
69.01
 20
-1.39241132889
 30
0.0
 11
68.991666666667
 21
-1.388440261825
 31
0.0
  0
LINE
  5
227
330
30
100
AcDbEntity
  8
1
100
AcDbLine
 10
68.991666666667
 20
-1.388440261825
 30
0.0
 11
68.973333333333
 21
-1.384400058721
 31
0.0
  0
LINE
  5
228
330
30
100
AcDbEntity
  8
1
100
AcDbLine
 10
68.973333333333
 20
-1.384400058721
 30
0.0
 11
68.955
 21
-1.380290920757
 31
0.0
  0
LINE
  5
229
330
30
100
AcDbEntity
  8
1
100
AcDbLine
 10
68.955
 20
-1.380290920757
 30
0.0
 11
68.936666666667
 21
-1.376113052542
 31
0.0
  0
LINE
  5
22A
330
30
100
AcDbEntity
  8
1
100
AcDbLine
 10
68.936666666667
 20
-1.376113052542
 30
0.0
 11
68.918333333333
 21
-1.371866662109
 31
0.0
  0
LINE
  5
22B
330
30
100
AcDbEntity
  8
1
100
AcDbLine
 10
68.918333333333
 20
-1.371866662109
 30
0.0
 11
68.9
 21
-1.367551960904
 31
0.0
  0
LINE
  5
22C
330
30
100
AcDbEntity
  8
1
100
AcDbLine
 10
68.9
 20
-1.367551960904
 30
0.0
 11
68.881666666667
 21
-1.363169163773
 31
0.0
  0
LINE
  5
22D
330
30
100
AcDbEntity
  8
1
100
AcDbLine
 10
68.881666666667
 20
-1.363169163773
 30
0.0
 11
68.863333333333
 21
-1.358718488953
 31
0.0
  0
LINE
  5
22E
330
30
100
AcDbEntity
  8
1
100
AcDbLine
 10
68.863333333333
 20
-1.358718488953
 30
0.0
 11
68.845
 21
-1.354200158061
 31
0.0
  0
LINE
  5
22F
330
30
100
AcDbEntity
  8
1
100
AcDbLine
 10
68.845
 20
-1.354200158061
 30
0.0
 11
68.826666666667
 21
-1.349614396082
 31
0.0
  0
LINE
  5
230
330
30
100
AcDbEntity
  8
1
100
AcDbLine
 10
68.826666666667
 20
-1.349614396082
 30
0.0
 11
68.808333333333
 21
-1.344961431361
 31
0.0
  0
LINE
  5
231
330
30
100
AcDbEntity
  8
1
100
AcDbLine
 10
68.808333333333
 20
-1.344961431361
 30
0.0
 11
68.79
 21
-1.340241495588
 31
0.0
  0
LINE
  5
232
330
30
100
AcDbEntity
  8
1
100
AcDbLine
 10
68.79
 20
-1.340241495588
 30
0.0
 11
68.771666666667
 21
-1.335454823786
 31
0.0
  0
LINE
  5
233
330
30
100
AcDbEntity
  8
1
100
AcDbLine
 10
68.771666666667
 20
-1.335454823786
 30
0.0
 11
68.753333333333
 21
-1.330601654305
 31
0.0
  0
LINE
  5
234
330
30
100
AcDbEntity
  8
1
100
AcDbLine
 10
68.753333333333
 20
-1.330601654305
 30
0.0
 11
68.735
 21
-1.325682228801
 31
0.0
  0
LINE
  5
235
330
30
100
AcDbEntity
  8
1
100
AcDbLine
 10
68.735
 20
-1.325682228801
 30
0.0
 11
68.716666666667
 21
-1.320696792235
 31
0.0
  0
LINE
  5
236
330
30
100
AcDbEntity
  8
1
100
AcDbLine
 10
68.716666666667
 20
-1.320696792235
 30
0.0
 11
68.698333333333
 21
-1.31564559285
 31
0.0
  0
LINE
  5
237
330
30
100
AcDbEntity
  8
1
100
AcDbLine
 10
68.698333333333
 20
-1.31564559285
 30
0.0
 11
68.68
 21
-1.310528882166
 31
0.0
  0
LINE
  5
238
330
30
100
AcDbEntity
  8
1
100
AcDbLine
 10
68.68
 20
-1.310528882166
 30
0.0
 11
68.661666666667
 21
-1.305346914965
 31
0.0
  0
LINE
  5
239
330
30
100
AcDbEntity
  8
1
100
AcDbLine
 10
68.661666666667
 20
-1.305346914965
 30
0.0
 11
68.643333333333
 21
-1.300099949277
 31
0.0
  0
LINE
  5
23A
330
30
100
AcDbEntity
  8
1
100
AcDbLine
 10
68.643333333333
 20
-1.300099949277
 30
0.0
 11
68.625
 21
-1.294788246372
 31
0.0
  0
LINE
  5
23B
330
30
100
AcDbEntity
  8
1
100
AcDbLine
 10
68.625
 20
-1.294788246372
 30
0.0
 11
68.606666666667
 21
-1.289412070738
 31
0.0
  0
LINE
  5
23C
330
30
100
AcDbEntity
  8
1
100
AcDbLine
 10
68.606666666667
 20
-1.289412070738
 30
0.0
 11
68.588333333333
 21
-1.283971690079
 31
0.0
  0
LINE
  5
23D
330
30
100
AcDbEntity
  8
1
100
AcDbLine
 10
68.588333333333
 20
-1.283971690079
 30
0.0
 11
68.57
 21
-1.278467375293
 31
0.0
  0
LINE
  5
23E
330
30
100
AcDbEntity
  8
1
100
AcDbLine
 10
68.57
 20
-1.278467375293
 30
0.0
 11
68.551666666667
 21
-1.27289940046
 31
0.0
  0
LINE
  5
23F
330
30
100
AcDbEntity
  8
1
100
AcDbLine
 10
68.551666666667
 20
-1.27289940046
 30
0.0
 11
68.533333333333
 21
-1.267268042835
 31
0.0
  0
LINE
  5
240
330
30
100
AcDbEntity
  8
1
100
AcDbLine
 10
68.533333333333
 20
-1.267268042835
 30
0.0
 11
68.515
 21
-1.261573582823
 31
0.0
  0
LINE
  5
241
330
30
100
AcDbEntity
  8
1
100
AcDbLine
 10
68.515
 20
-1.261573582823
 30
0.0
 11
68.496666666667
 21
-1.255816303977
 31
0.0
  0
LINE
  5
242
330
30
100
AcDbEntity
  8
1
100
AcDbLine
 10
68.496666666667
 20
-1.255816303977
 30
0.0
 11
68.478333333333
 21
-1.249996492973
 31
0.0
  0
LINE
  5
243
330
30
100
AcDbEntity
  8
1
100
AcDbLine
 10
68.478333333333
 20
-1.249996492973
 30
0.0
 11
68.46
 21
-1.244114439603
 31
0.0
  0
LINE
  5
244
330
30
100
AcDbEntity
  8
1
100
AcDbLine
 10
68.46
 20
-1.244114439603
 30
0.0
 11
68.441666666667
 21
-1.238170436759
 31
0.0
  0
LINE
  5
245
330
30
100
AcDbEntity
  8
1
100
AcDbLine
 10
68.441666666667
 20
-1.238170436759
 30
0.0
 11
68.423333333333
 21
-1.232164780417
 31
0.0
  0
LINE
  5
246
330
30
100
AcDbEntity
  8
1
100
AcDbLine
 10
68.423333333333
 20
-1.232164780417
 30
0.0
 11
68.405
 21
-1.226097769622
 31
0.0
  0
LINE
  5
247
330
30
100
AcDbEntity
  8
1
100
AcDbLine
 10
68.405
 20
-1.226097769622
 30
0.0
 11
68.386666666667
 21
-1.219969706476
 31
0.0
  0
LINE
  5
248
330
30
100
AcDbEntity
  8
1
100
AcDbLine
 10
68.386666666667
 20
-1.219969706476
 30
0.0
 11
68.368333333333
 21
-1.213780896119
 31
0.0
  0
LINE
  5
249
330
30
100
AcDbEntity
  8
1
100
AcDbLine
 10
68.368333333333
 20
-1.213780896119
 30
0.0
 11
68.35
 21
-1.207531646717
 31
0.0
  0
LINE
  5
24A
330
30
100
AcDbEntity
  8
1
100
AcDbLine
 10
68.35
 20
-1.207531646717
 30
0.0
 11
68.331666666667
 21
-1.201222269445
 31
0.0
  0
LINE
  5
24B
330
30
100
AcDbEntity
  8
1
100
AcDbLine
 10
68.331666666667
 20
-1.201222269445
 30
0.0
 11
68.313333333333
 21
-1.194853078474
 31
0.0
  0
LINE
  5
24C
330
30
100
AcDbEntity
  8
1
100
AcDbLine
 10
68.313333333333
 20
-1.194853078474
 30
0.0
 11
68.295
 21
-1.188424390949
 31
0.0
  0
LINE
  5
24D
330
30
100
AcDbEntity
  8
1
100
AcDbLine
 10
68.295
 20
-1.188424390949
 30
0.0
 11
68.276666666667
 21
-1.181936526983
 31
0.0
  0
LINE
  5
24E
330
30
100
AcDbEntity
  8
1
100
AcDbLine
 10
68.276666666667
 20
-1.181936526983
 30
0.0
 11
68.258333333333
 21
-1.175389809631
 31
0.0
  0
LINE
  5
24F
330
30
100
AcDbEntity
  8
1
100
AcDbLine
 10
68.258333333333
 20
-1.175389809631
 30
0.0
 11
68.24
 21
-1.168784564882
 31
0.0
  0
LINE
  5
250
330
30
100
AcDbEntity
  8
1
100
AcDbLine
 10
68.24
 20
-1.168784564882
 30
0.0
 11
68.221666666667
 21
-1.162121121636
 31
0.0
  0
LINE
  5
251
330
30
100
AcDbEntity
  8
1
100
AcDbLine
 10
68.221666666667
 20
-1.162121121636
 30
0.0
 11
68.203333333333
 21
-1.155399811694
 31
0.0
  0
LINE
  5
252
330
30
100
AcDbEntity
  8
1
100
AcDbLine
 10
68.203333333333
 20
-1.155399811694
 30
0.0
 11
68.185
 21
-1.148620969737
 31
0.0
  0
LINE
  5
253
330
30
100
AcDbEntity
  8
1
100
AcDbLine
 10
68.185
 20
-1.148620969737
 30
0.0
 11
68.166666666667
 21
-1.14178493331
 31
0.0
  0
LINE
  5
254
330
30
100
AcDbEntity
  8
1
100
AcDbLine
 10
68.166666666667
 20
-1.14178493331
 30
0.0
 11
68.148333333333
 21
-1.134892042808
 31
0.0
  0
LINE
  5
255
330
30
100
AcDbEntity
  8
1
100
AcDbLine
 10
68.148333333333
 20
-1.134892042808
 30
0.0
 11
68.13
 21
-1.127942641454
 31
0.0
  0
LINE
  5
256
330
30
100
AcDbEntity
  8
1
100
AcDbLine
 10
68.13
 20
-1.127942641454
 30
0.0
 11
68.111666666667
 21
-1.120937075289
 31
0.0
  0
LINE
  5
257
330
30
100
AcDbEntity
  8
1
100
AcDbLine
 10
68.111666666667
 20
-1.120937075289
 30
0.0
 11
68.093333333333
 21
-1.113875693148
 31
0.0
  0
LINE
  5
258
330
30
100
AcDbEntity
  8
1
100
AcDbLine
 10
68.093333333333
 20
-1.113875693148
 30
0.0
 11
68.075
 21
-1.106758846644
 31
0.0
  0
LINE
  5
259
330
30
100
AcDbEntity
  8
1
100
AcDbLine
 10
68.075
 20
-1.106758846644
 30
0.0
 11
68.056666666667
 21
-1.099586890154
 31
0.0
  0
LINE
  5
25A
330
30
100
AcDbEntity
  8
1
100
AcDbLine
 10
68.056666666667
 20
-1.099586890154
 30
0.0
 11
68.038333333333
 21
-1.0923601808
 31
0.0
  0
LINE
  5
25B
330
30
100
AcDbEntity
  8
1
100
AcDbLine
 10
68.038333333333
 20
-1.0923601808
 30
0.0
 11
68.02
 21
-1.085079078428
 31
0.0
  0
LINE
  5
25C
330
30
100
AcDbEntity
  8
1
100
AcDbLine
 10
68.02
 20
-1.085079078428
 30
0.0
 11
68.001666666667
 21
-1.077743945594
 31
0.0
  0
LINE
  5
25D
330
30
100
AcDbEntity
  8
1
100
AcDbLine
 10
68.001666666667
 20
-1.077743945594
 30
0.0
 11
67.983333333333
 21
-1.070355147543
 31
0.0
  0
LINE
  5
25E
330
30
100
AcDbEntity
  8
1
100
AcDbLine
 10
67.983333333333
 20
-1.070355147543
 30
0.0
 11
67.965
 21
-1.062913052193
 31
0.0
  0
LINE
  5
25F
330
30
100
AcDbEntity
  8
1
100
AcDbLine
 10
67.965
 20
-1.062913052193
 30
0.0
 11
67.946666666667
 21
-1.055418030117
 31
0.0
  0
LINE
  5
260
330
30
100
AcDbEntity
  8
1
100
AcDbLine
 10
67.946666666667
 20
-1.055418030117
 30
0.0
 11
67.928333333333
 21
-1.047870454522
 31
0.0
  0
LINE
  5
261
330
30
100
AcDbEntity
  8
1
100
AcDbLine
 10
67.928333333333
 20
-1.047870454522
 30
0.0
 11
67.91
 21
-1.040270701231
 31
0.0
  0
LINE
  5
262
330
30
100
AcDbEntity
  8
1
100
AcDbLine
 10
67.91
 20
-1.040270701231
 30
0.0
 11
67.891666666667
 21
-1.032619148668
 31
0.0
  0
LINE
  5
263
330
30
100
AcDbEntity
  8
1
100
AcDbLine
 10
67.891666666667
 20
-1.032619148668
 30
0.0
 11
67.873333333333
 21
-1.024916177834
 31
0.0
  0
LINE
  5
264
330
30
100
AcDbEntity
  8
1
100
AcDbLine
 10
67.873333333333
 20
-1.024916177834
 30
0.0
 11
67.855
 21
-1.017162172291
 31
0.0
  0
LINE
  5
265
330
30
100
AcDbEntity
  8
1
100
AcDbLine
 10
67.855
 20
-1.017162172291
 30
0.0
 11
67.836666666667
 21
-1.009357518143
 31
0.0
  0
LINE
  5
266
330
30
100
AcDbEntity
  8
1
100
AcDbLine
 10
67.836666666667
 20
-1.009357518143
 30
0.0
 11
67.818333333333
 21
-1.001502604013
 31
0.0
  0
LINE
  5
267
330
30
100
AcDbEntity
  8
1
100
AcDbLine
 10
67.818333333333
 20
-1.001502604013
 30
0.0
 11
67.8
 21
-0.993597821031
 31
0.0
  0
LINE
  5
268
330
30
100
AcDbEntity
  8
1
100
AcDbLine
 10
67.8
 20
-0.993597821031
 30
0.0
 11
67.781666666667
 21
-0.985643562807
 31
0.0
  0
LINE
  5
269
330
30
100
AcDbEntity
  8
1
100
AcDbLine
 10
67.781666666667
 20
-0.985643562807
 30
0.0
 11
67.763333333333
 21
-0.977640225416
 31
0.0
  0
LINE
  5
26A
330
30
100
AcDbEntity
  8
1
100
AcDbLine
 10
67.763333333333
 20
-0.977640225416
 30
0.0
 11
67.745
 21
-0.969588207376
 31
0.0
  0
LINE
  5
26B
330
30
100
AcDbEntity
  8
1
100
AcDbLine
 10
67.745
 20
-0.969588207376
 30
0.0
 11
67.726666666667
 21
-0.96148790963
 31
0.0
  0
LINE
  5
26C
330
30
100
AcDbEntity
  8
1
100
AcDbLine
 10
67.726666666667
 20
-0.96148790963
 30
0.0
 11
67.708333333333
 21
-0.953339735524
 31
0.0
  0
LINE
  5
26D
330
30
100
AcDbEntity
  8
1
100
AcDbLine
 10
67.708333333333
 20
-0.953339735524
 30
0.0
 11
67.69
 21
-0.945144090788
 31
0.0
  0
LINE
  5
26E
330
30
100
AcDbEntity
  8
1
100
AcDbLine
 10
67.69
 20
-0.945144090788
 30
0.0
 11
67.671666666667
 21
-0.936901383518
 31
0.0
  0
LINE
  5
26F
330
30
100
AcDbEntity
  8
1
100
AcDbLine
 10
67.671666666667
 20
-0.936901383518
 30
0.0
 11
67.653333333333
 21
-0.92861202415
 31
0.0
  0
LINE
  5
270
330
30
100
AcDbEntity
  8
1
100
AcDbLine
 10
67.653333333333
 20
-0.92861202415
 30
0.0
 11
67.635
 21
-0.920276425445
 31
0.0
  0
LINE
  5
271
330
30
100
AcDbEntity
  8
1
100
AcDbLine
 10
67.635
 20
-0.920276425445
 30
0.0
 11
67.616666666667
 21
-0.911895002466
 31
0.0
  0
LINE
  5
272
330
30
100
AcDbEntity
  8
1
100
AcDbLine
 10
67.616666666667
 20
-0.911895002466
 30
0.0
 11
67.598333333333
 21
-0.903468172558
 31
0.0
  0
LINE
  5
273
330
30
100
AcDbEntity
  8
1
100
AcDbLine
 10
67.598333333333
 20
-0.903468172558
 30
0.0
 11
67.58
 21
-0.894996355327
 31
0.0
  0
LINE
  5
274
330
30
100
AcDbEntity
  8
1
100
AcDbLine
 10
67.58
 20
-0.894996355327
 30
0.0
 11
67.561666666667
 21
-0.886479972619
 31
0.0
  0
LINE
  5
275
330
30
100
AcDbEntity
  8
1
100
AcDbLine
 10
67.561666666667
 20
-0.886479972619
 30
0.0
 11
67.543333333333
 21
-0.877919448499
 31
0.0
  0
LINE
  5
276
330
30
100
AcDbEntity
  8
1
100
AcDbLine
 10
67.543333333333
 20
-0.877919448499
 30
0.0
 11
67.525
 21
-0.869315209229
 31
0.0
  0
LINE
  5
277
330
30
100
AcDbEntity
  8
1
100
AcDbLine
 10
67.525
 20
-0.869315209229
 30
0.0
 11
67.506666666667
 21
-0.860667683251
 31
0.0
  0
LINE
  5
278
330
30
100
AcDbEntity
  8
1
100
AcDbLine
 10
67.506666666667
 20
-0.860667683251
 30
0.0
 11
67.488333333333
 21
-0.800676462522
 31
0.0
  0
LINE
  5
279
330
30
100
AcDbEntity
  8
1
100
AcDbLine
 10
67.488333333333
 20
-0.800676462522
 30
0.0
 11
67.47
 21
-0.792338472547
 31
0.0
  0
LINE
  5
27A
330
30
100
AcDbEntity
  8
1
100
AcDbLine
 10
67.47
 20
-0.792338472547
 30
0.0
 11
67.451666666667
 21
-0.783961028843
 31
0.0
  0
LINE
  5
27B
330
30
100
AcDbEntity
  8
1
100
AcDbLine
 10
67.451666666667
 20
-0.783961028843
 30
0.0
 11
67.433333333333
 21
-0.77554454856
 31
0.0
  0
LINE
  5
27C
330
30
100
AcDbEntity
  8
1
100
AcDbLine
 10
67.433333333333
 20
-0.77554454856
 30
0.0
 11
67.415
 21
-0.767089450786
 31
0.0
  0
LINE
  5
27D
330
30
100
AcDbEntity
  8
1
100
AcDbLine
 10
67.415
 20
-0.767089450786
 30
0.0
 11
67.396666666667
 21
-0.758596156535
 31
0.0
  0
LINE
  5
27E
330
30
100
AcDbEntity
  8
1
100
AcDbLine
 10
67.396666666667
 20
-0.758596156535
 30
0.0
 11
67.378333333333
 21
-0.750065088724
 31
0.0
  0
LINE
  5
27F
330
30
100
AcDbEntity
  8
1
100
AcDbLine
 10
67.378333333333
 20
-0.750065088724
 30
0.0
 11
67.36
 21
-0.741496672147
 31
0.0
  0
LINE
  5
280
330
30
100
AcDbEntity
  8
1
100
AcDbLine
 10
67.36
 20
-0.741496672147
 30
0.0
 11
67.341666666667
 21
-0.732891333461
 31
0.0
  0
LINE
  5
281
330
30
100
AcDbEntity
  8
1
100
AcDbLine
 10
67.341666666667
 20
-0.732891333461
 30
0.0
 11
67.323333333333
 21
-0.72424950116
 31
0.0
  0
LINE
  5
282
330
30
100
AcDbEntity
  8
1
100
AcDbLine
 10
67.323333333333
 20
-0.72424950116
 30
0.0
 11
67.305
 21
-0.715571605557
 31
0.0
  0
LINE
  5
283
330
30
100
AcDbEntity
  8
1
100
AcDbLine
 10
67.305
 20
-0.715571605557
 30
0.0
 11
67.286666666667
 21
-0.706858078758
 31
0.0
  0
LINE
  5
284
330
30
100
AcDbEntity
  8
1
100
AcDbLine
 10
67.286666666667
 20
-0.706858078758
 30
0.0
 11
67.268333333333
 21
-0.698109354645
 31
0.0
  0
LINE
  5
285
330
30
100
AcDbEntity
  8
1
100
AcDbLine
 10
67.268333333333
 20
-0.698109354645
 30
0.0
 11
67.25
 21
-0.689325868853
 31
0.0
  0
LINE
  5
286
330
30
100
AcDbEntity
  8
1
100
AcDbLine
 10
67.25
 20
-0.689325868853
 30
0.0
 11
67.231666666667
 21
-0.680508058746
 31
0.0
  0
LINE
  5
287
330
30
100
AcDbEntity
  8
1
100
AcDbLine
 10
67.231666666667
 20
-0.680508058746
 30
0.0
 11
67.213333333333
 21
-0.6716563634
 31
0.0
  0
LINE
  5
288
330
30
100
AcDbEntity
  8
1
100
AcDbLine
 10
67.213333333333
 20
-0.6716563634
 30
0.0
 11
67.195
 21
-0.662771223576
 31
0.0
  0
LINE
  5
289
330
30
100
AcDbEntity
  8
1
100
AcDbLine
 10
67.195
 20
-0.662771223576
 30
0.0
 11
67.176666666667
 21
-0.6538530817
 31
0.0
  0
LINE
  5
28A
330
30
100
AcDbEntity
  8
1
100
AcDbLine
 10
67.176666666667
 20
-0.6538530817
 30
0.0
 11
67.158333333333
 21
-0.644902381845
 31
0.0
  0
LINE
  5
28B
330
30
100
AcDbEntity
  8
1
100
AcDbLine
 10
67.158333333333
 20
-0.644902381845
 30
0.0
 11
67.14
 21
-0.635919569703
 31
0.0
  0
LINE
  5
28C
330
30
100
AcDbEntity
  8
1
100
AcDbLine
 10
67.14
 20
-0.635919569703
 30
0.0
 11
67.121666666667
 21
-0.626905092566
 31
0.0
  0
LINE
  5
28D
330
30
100
AcDbEntity
  8
1
100
AcDbLine
 10
67.121666666667
 20
-0.626905092566
 30
0.0
 11
67.103333333333
 21
-0.617859399303
 31
0.0
  0
LINE
  5
28E
330
30
100
AcDbEntity
  8
1
100
AcDbLine
 10
67.103333333333
 20
-0.617859399303
 30
0.0
 11
67.085
 21
-0.608782940342
 31
0.0
  0
LINE
  5
28F
330
30
100
AcDbEntity
  8
1
100
AcDbLine
 10
67.085
 20
-0.608782940342
 30
0.0
 11
67.066666666667
 21
-0.599676167641
 31
0.0
  0
LINE
  5
290
330
30
100
AcDbEntity
  8
1
100
AcDbLine
 10
67.066666666667
 20
-0.599676167641
 30
0.0
 11
67.048333333333
 21
-0.590539534675
 31
0.0
  0
LINE
  5
291
330
30
100
AcDbEntity
  8
1
100
AcDbLine
 10
67.048333333333
 20
-0.590539534675
 30
0.0
 11
67.03
 21
-0.581373496406
 31
0.0
  0
LINE
  5
292
330
30
100
AcDbEntity
  8
1
100
AcDbLine
 10
67.03
 20
-0.581373496406
 30
0.0
 11
67.011666666667
 21
-0.572178509271
 31
0.0
  0
LINE
  5
293
330
30
100
AcDbEntity
  8
1
100
AcDbLine
 10
67.011666666667
 20
-0.572178509271
 30
0.0
 11
66.993333333333
 21
-0.562955031155
 31
0.0
  0
LINE
  5
294
330
30
100
AcDbEntity
  8
1
100
AcDbLine
 10
66.993333333333
 20
-0.562955031155
 30
0.0
 11
66.975
 21
-0.553703521374
 31
0.0
  0
LINE
  5
295
330
30
100
AcDbEntity
  8
1
100
AcDbLine
 10
66.975
 20
-0.553703521374
 30
0.0
 11
66.956666666667
 21
-0.544424440657
 31
0.0
  0
LINE
  5
296
330
30
100
AcDbEntity
  8
1
100
AcDbLine
 10
66.956666666667
 20
-0.544424440657
 30
0.0
 11
66.938333333333
 21
-0.535118251127
 31
0.0
  0
LINE
  5
297
330
30
100
AcDbEntity
  8
1
100
AcDbLine
 10
66.938333333333
 20
-0.535118251127
 30
0.0
 11
66.92
 21
-0.525785416285
 31
0.0
  0
LINE
  5
298
330
30
100
AcDbEntity
  8
1
100
AcDbLine
 10
66.92
 20
-0.525785416285
 30
0.0
 11
66.901666666667
 21
-0.516426400999
 31
0.0
  0
LINE
  5
299
330
30
100
AcDbEntity
  8
1
100
AcDbLine
 10
66.901666666667
 20
-0.516426400999
 30
0.0
 11
66.883333333333
 21
-0.507041671487
 31
0.0
  0
LINE
  5
29A
330
30
100
AcDbEntity
  8
1
100
AcDbLine
 10
66.883333333333
 20
-0.507041671487
 30
0.0
 11
66.865
 21
-0.497631695312
 31
0.0
  0
LINE
  5
29B
330
30
100
AcDbEntity
  8
1
100
AcDbLine
 10
66.865
 20
-0.497631695312
 30
0.0
 11
66.846666666667
 21
-0.488196941371
 31
0.0
  0
LINE
  5
29C
330
30
100
AcDbEntity
  8
1
100
AcDbLine
 10
66.846666666667
 20
-0.488196941371
 30
0.0
 11
66.828333333333
 21
-0.478737879901
 31
0.0
  0
LINE
  5
29D
330
30
100
AcDbEntity
  8
1
100
AcDbLine
 10
66.828333333333
 20
-0.478737879901
 30
0.0
 11
66.81
 21
-0.469254982473
 31
0.0
  0
LINE
  5
29E
330
30
100
AcDbEntity
  8
1
100
AcDbLine
 10
66.81
 20
-0.469254982473
 30
0.0
 11
66.791666666667
 21
-0.459748722006
 31
0.0
  0
LINE
  5
29F
330
30
100
AcDbEntity
  8
1
100
AcDbLine
 10
66.791666666667
 20
-0.459748722006
 30
0.0
 11
66.773333333333
 21
-0.450219572783
 31
0.0
  0
LINE
  5
2A0
330
30
100
AcDbEntity
  8
1
100
AcDbLine
 10
66.773333333333
 20
-0.450219572783
 30
0.0
 11
66.755
 21
-0.440668010469
 31
0.0
  0
LINE
  5
2A1
330
30
100
AcDbEntity
  8
1
100
AcDbLine
 10
66.755
 20
-0.440668010469
 30
0.0
 11
66.736666666667
 21
-0.431094512148
 31
0.0
  0
LINE
  5
2A2
330
30
100
AcDbEntity
  8
1
100
AcDbLine
 10
66.736666666667
 20
-0.431094512148
 30
0.0
 11
66.718333333333
 21
-0.421499556365
 31
0.0
  0
LINE
  5
2A3
330
30
100
AcDbEntity
  8
1
100
AcDbLine
 10
66.718333333333
 20
-0.421499556365
 30
0.0
 11
66.7
 21
-0.411883623183
 31
0.0
  0
LINE
  5
2A4
330
30
100
AcDbEntity
  8
1
100
AcDbLine
 10
66.7
 20
-0.411883623183
 30
0.0
 11
66.681666666667
 21
-0.402247194251
 31
0.0
  0
LINE
  5
2A5
330
30
100
AcDbEntity
  8
1
100
AcDbLine
 10
66.681666666667
 20
-0.402247194251
 30
0.0
 11
66.663333333333
 21
-0.392590752897
 31
0.0
  0
LINE
  5
2A6
330
30
100
AcDbEntity
  8
1
100
AcDbLine
 10
66.663333333333
 20
-0.392590752897
 30
0.0
 11
66.645
 21
-0.38291478423
 31
0.0
  0
LINE
  5
2A7
330
30
100
AcDbEntity
  8
1
100
AcDbLine
 10
66.645
 20
-0.38291478423
 30
0.0
 11
66.626666666667
 21
-0.373219775274
 31
0.0
  0
LINE
  5
2A8
330
30
100
AcDbEntity
  8
1
100
AcDbLine
 10
66.626666666667
 20
-0.373219775274
 30
0.0
 11
66.608333333333
 21
-0.363506215119
 31
0.0
  0
LINE
  5
2A9
330
30
100
AcDbEntity
  8
1
100
AcDbLine
 10
66.608333333333
 20
-0.363506215119
 30
0.0
 11
66.59
 21
-0.353774595111
 31
0.0
  0
LINE
  5
2AA
330
30
100
AcDbEntity
  8
1
100
AcDbLine
 10
66.59
 20
-0.353774595111
 30
0.0
 11
66.571666666667
 21
-0.344025409064
 31
0.0
  0
LINE
  5
2AB
330
30
100
AcDbEntity
  8
1
100
AcDbLine
 10
66.571666666667
 20
-0.344025409064
 30
0.0
 11
66.553333333333
 21
-0.334259153521
 31
0.0
  0
LINE
  5
2AC
330
30
100
AcDbEntity
  8
1
100
AcDbLine
 10
66.553333333333
 20
-0.334259153521
 30
0.0
 11
66.535
 21
-0.324476328047
 31
0.0
  0
LINE
  5
2AD
330
30
100
AcDbEntity
  8
1
100
AcDbLine
 10
66.535
 20
-0.324476328047
 30
0.0
 11
66.516666666667
 21
-0.314677435576
 31
0.0
  0
LINE
  5
2AE
330
30
100
AcDbEntity
  8
1
100
AcDbLine
 10
66.516666666667
 20
-0.314677435576
 30
0.0
 11
66.498333333333
 21
-0.304862982812
 31
0.0
  0
LINE
  5
2AF
330
30
100
AcDbEntity
  8
1
100
AcDbLine
 10
66.498333333333
 20
-0.304862982812
 30
0.0
 11
66.48
 21
-0.295033480687
 31
0.0
  0
LINE
  5
2B0
330
30
100
AcDbEntity
  8
1
100
AcDbLine
 10
66.48
 20
-0.295033480687
 30
0.0
 11
66.461666666667
 21
-0.285189444888
 31
0.0
  0
LINE
  5
2B1
330
30
100
AcDbEntity
  8
1
100
AcDbLine
 10
66.461666666667
 20
-0.285189444888
 30
0.0
 11
66.443333333333
 21
-0.275331396458
 31
0.0
  0
LINE
  5
2B2
330
30
100
AcDbEntity
  8
1
100
AcDbLine
 10
66.443333333333
 20
-0.275331396458
 30
0.0
 11
66.425
 21
-0.265459862486
 31
0.0
  0
LINE
  5
2B3
330
30
100
AcDbEntity
  8
1
100
AcDbLine
 10
66.425
 20
-0.265459862486
 30
0.0
 11
66.406666666667
 21
-0.255575376883
 31
0.0
  0
LINE
  5
2B4
330
30
100
AcDbEntity
  8
1
100
AcDbLine
 10
66.406666666667
 20
-0.255575376883
 30
0.0
 11
66.388333333333
 21
-0.245678481266
 31
0.0
  0
LINE
  5
2B5
330
30
100
AcDbEntity
  8
1
100
AcDbLine
 10
66.388333333333
 20
-0.245678481266
 30
0.0
 11
66.37
 21
-0.235769725952
 31
0.0
  0
LINE
  5
2B6
330
30
100
AcDbEntity
  8
1
100
AcDbLine
 10
66.37
 20
-0.235769725952
 30
0.0
 11
66.351666666667
 21
-0.225849671086
 31
0.0
  0
LINE
  5
2B7
330
30
100
AcDbEntity
  8
1
100
AcDbLine
 10
66.351666666667
 20
-0.225849671086
 30
0.0
 11
66.333333333333
 21
-0.215918887902
 31
0.0
  0
LINE
  5
2B8
330
30
100
AcDbEntity
  8
1
100
AcDbLine
 10
66.333333333333
 20
-0.215918887902
 30
0.0
 11
66.315
 21
-0.205977960138
 31
0.0
  0
LINE
  5
2B9
330
30
100
AcDbEntity
  8
1
100
AcDbLine
 10
66.315
 20
-0.205977960138
 30
0.0
 11
66.296666666667
 21
-0.196027485621
 31
0.0
  0
LINE
  5
2BA
330
30
100
AcDbEntity
  8
1
100
AcDbLine
 10
66.296666666667
 20
-0.196027485621
 30
0.0
 11
66.278333333333
 21
-0.186068078039
 31
0.0
  0
LINE
  5
2BB
330
30
100
AcDbEntity
  8
1
100
AcDbLine
 10
66.278333333333
 20
-0.186068078039
 30
0.0
 11
66.26
 21
-0.176100368912
 31
0.0
  0
LINE
  5
2BC
330
30
100
AcDbEntity
  8
1
100
AcDbLine
 10
66.26
 20
-0.176100368912
 30
0.0
 11
66.241666666667
 21
-0.166125009785
 31
0.0
  0
LINE
  5
2BD
330
30
100
AcDbEntity
  8
1
100
AcDbLine
 10
66.241666666667
 20
-0.166125009785
 30
0.0
 11
66.223333333333
 21
-0.156142674666
 31
0.0
  0
LINE
  5
2BE
330
30
100
AcDbEntity
  8
1
100
AcDbLine
 10
66.223333333333
 20
-0.156142674666
 30
0.0
 11
66.205
 21
-0.146154062724
 31
0.0
  0
LINE
  5
2BF
330
30
100
AcDbEntity
  8
1
100
AcDbLine
 10
66.205
 20
-0.146154062724
 30
0.0
 11
66.186666666667
 21
-0.136159901277
 31
0.0
  0
LINE
  5
2C0
330
30
100
AcDbEntity
  8
1
100
AcDbLine
 10
66.186666666667
 20
-0.136159901277
 30
0.0
 11
66.168333333333
 21
-0.126160949089
 31
0.0
  0
LINE
  5
2C1
330
30
100
AcDbEntity
  8
1
100
AcDbLine
 10
66.168333333333
 20
-0.126160949089
 30
0.0
 11
66.15
 21
-0.116158000009
 31
0.0
  0
LINE
  5
2C2
330
30
100
AcDbEntity
  8
1
100
AcDbLine
 10
66.15
 20
-0.116158000009
 30
0.0
 11
66.131666666667
 21
-0.106151886976
 31
0.0
  0
LINE
  5
2C3
330
30
100
AcDbEntity
  8
1
100
AcDbLine
 10
66.131666666667
 20
-0.106151886976
 30
0.0
 11
66.113333333333
 21
-0.096143486419
 31
0.0
  0
LINE
  5
2C4
330
30
100
AcDbEntity
  8
1
100
AcDbLine
 10
66.113333333333
 20
-0.096143486419
 30
0.0
 11
66.095
 21
-0.086133723089
 31
0.0
  0
LINE
  5
2C5
330
30
100
AcDbEntity
  8
1
100
AcDbLine
 10
66.095
 20
-0.086133723089
 30
0.0
 11
66.076666666667
 21
-0.076123575356
 31
0.0
  0
LINE
  5
2C6
330
30
100
AcDbEntity
  8
1
100
AcDbLine
 10
66.076666666667
 20
-0.076123575356
 30
0.0
 11
66.058333333333
 21
-0.066114081003
 31
0.0
  0
LINE
  5
2C7
330
30
100
AcDbEntity
  8
1
100
AcDbLine
 10
66.058333333333
 20
-0.066114081003
 30
0.0
 11
66.04
 21
-0.056106343562
 31
0.0
  0
LINE
  5
2C8
330
30
100
AcDbEntity
  8
1
100
AcDbLine
 10
66.04
 20
-0.056106343562
 30
0.0
 11
66.021666666667
 21
-0.04610153923
 31
0.0
  0
LINE
  5
2C9
330
30
100
AcDbEntity
  8
1
100
AcDbLine
 10
66.021666666667
 20
-0.04610153923
 30
0.0
 11
66.003333333333
 21
-0.036100924405
 31
0.0
  0
LINE
  5
2CA
330
30
100
AcDbEntity
  8
1
100
AcDbLine
 10
66.003333333333
 20
-0.036100924405
 30
0.0
 11
65.985
 21
-0.026105843892
 31
0.0
  0
LINE
  5
2CB
330
30
100
AcDbEntity
  8
1
100
AcDbLine
 10
65.985
 20
-0.026105843892
 30
0.0
 11
65.966666666667
 21
-0.016117739831
 31
0.0
  0
LINE
  5
2CC
330
30
100
AcDbEntity
  8
1
100
AcDbLine
 10
65.966666666667
 20
-0.016117739831
 30
0.0
 11
65.948333333333
 21
-0.006138161389
 31
0.0
  0
LINE
  5
2CD
330
30
100
AcDbEntity
  8
1
100
AcDbLine
 10
65.948333333333
 20
-0.006138161389
 30
0.0
 11
65.93
 21
0.003831224726
 31
0.0
  0
LINE
  5
2CE
330
30
100
AcDbEntity
  8
1
100
AcDbLine
 10
65.93
 20
0.003831224726
 30
0.0
 11
65.911666666667
 21
0.013788622866
 31
0.0
  0
LINE
  5
2CF
330
30
100
AcDbEntity
  8
1
100
AcDbLine
 10
65.911666666667
 20
0.013788622866
 30
0.0
 11
65.893333333333
 21
0.023732096111
 31
0.0
  0
LINE
  5
2D0
330
30
100
AcDbEntity
  8
1
100
AcDbLine
 10
65.893333333333
 20
0.023732096111
 30
0.0
 11
65.875
 21
0.033659552925
 31
0.0
  0
LINE
  5
2D1
330
30
100
AcDbEntity
  8
1
100
AcDbLine
 10
65.875
 20
0.033659552925
 30
0.0
 11
65.856666666667
 21
0.043568732752
 31
0.0
  0
LINE
  5
2D2
330
30
100
AcDbEntity
  8
1
100
AcDbLine
 10
65.856666666667
 20
0.043568732752
 30
0.0
 11
65.838333333333
 21
0.053457190462
 31
0.0
  0
LINE
  5
2D3
330
30
100
AcDbEntity
  8
1
100
AcDbLine
 10
65.838333333333
 20
0.053457190462
 30
0.0
 11
65.82
 21
0.063322279592
 31
0.0
  0
LINE
  5
2D4
330
30
100
AcDbEntity
  8
1
100
AcDbLine
 10
65.82
 20
0.063322279592
 30
0.0
 11
65.801666666667
 21
0.07316113428
 31
0.0
  0
LINE
  5
2D5
330
30
100
AcDbEntity
  8
1
100
AcDbLine
 10
65.801666666667
 20
0.07316113428
 30
0.0
 11
65.783333333333
 21
0.082970649841
 31
0.0
  0
LINE
  5
2D6
330
30
100
AcDbEntity
  8
1
100
AcDbLine
 10
65.783333333333
 20
0.082970649841
 30
0.0
 11
65.765
 21
0.092747461864
 31
0.0
  0
LINE
  5
2D7
330
30
100
AcDbEntity
  8
1
100
AcDbLine
 10
65.765
 20
0.092747461864
 30
0.0
 11
65.746666666667
 21
0.102487923765
 31
0.0
  0
LINE
  5
2D8
330
30
100
AcDbEntity
  8
1
100
AcDbLine
 10
65.746666666667
 20
0.102487923765
 30
0.0
 11
65.728333333333
 21
0.112188082682
 31
0.0
  0
LINE
  5
2D9
330
30
100
AcDbEntity
  8
1
100
AcDbLine
 10
65.728333333333
 20
0.112188082682
 30
0.0
 11
65.71
 21
0.121843653618
 31
0.0
  0
LINE
  5
2DA
330
30
100
AcDbEntity
  8
1
100
AcDbLine
 10
65.71
 20
0.121843653618
 30
0.0
 11
65.691666666667
 21
0.131449991716
 31
0.0
  0
LINE
  5
2DB
330
30
100
AcDbEntity
  8
1
100
AcDbLine
 10
65.691666666667
 20
0.131449991716
 30
0.0
 11
65.673333333333
 21
0.141002062555
 31
0.0
  0
LINE
  5
2DC
330
30
100
AcDbEntity
  8
1
100
AcDbLine
 10
65.673333333333
 20
0.141002062555
 30
0.0
 11
65.655
 21
0.150494410342
 31
0.0
  0
LINE
  5
2DD
330
30
100
AcDbEntity
  8
1
100
AcDbLine
 10
65.655
 20
0.150494410342
 30
0.0
 11
65.636666666667
 21
0.159921123864
 31
0.0
  0
LINE
  5
2DE
330
30
100
AcDbEntity
  8
1
100
AcDbLine
 10
65.636666666667
 20
0.159921123864
 30
0.0
 11
65.618333333333
 21
0.169275800063
 31
0.0
  0
LINE
  5
2DF
330
30
100
AcDbEntity
  8
1
100
AcDbLine
 10
65.618333333333
 20
0.169275800063
 30
0.0
 11
65.6
 21
0.178551505081
 31
0.0
  0
LINE
  5
2E0
330
30
100
AcDbEntity
  8
1
100
AcDbLine
 10
65.6
 20
0.178551505081
 30
0.0
 11
65.581666666667
 21
0.187740732609
 31
0.0
  0
LINE
  5
2E1
330
30
100
AcDbEntity
  8
1
100
AcDbLine
 10
65.581666666667
 20
0.187740732609
 30
0.0
 11
65.563333333333
 21
0.196835359368
 31
0.0
  0
LINE
  5
2E2
330
30
100
AcDbEntity
  8
1
100
AcDbLine
 10
65.563333333333
 20
0.196835359368
 30
0.0
 11
65.545
 21
0.205826597521
 31
0.0
  0
LINE
  5
2E3
330
30
100
AcDbEntity
  8
1
100
AcDbLine
 10
65.545
 20
0.205826597521
 30
0.0
 11
65.526666666667
 21
0.21470494382
 31
0.0
  0
LINE
  5
2E4
330
30
100
AcDbEntity
  8
1
100
AcDbLine
 10
65.526666666667
 20
0.21470494382
 30
0.0
 11
65.508333333333
 21
0.223460125254
 31
0.0
  0
LINE
  5
2E5
330
30
100
AcDbEntity
  8
1
100
AcDbLine
 10
65.508333333333
 20
0.223460125254
 30
0.0
 11
65.49
 21
0.232081040941
 31
0.0
  0
LINE
  5
2E6
330
30
100
AcDbEntity
  8
1
100
AcDbLine
 10
65.49
 20
0.232081040941
 30
0.0
 11
65.471666666667
 21
0.240555700012
 31
0.0
  0
LINE
  5
2E7
330
30
100
AcDbEntity
  8
1
100
AcDbLine
 10
65.471666666667
 20
0.240555700012
 30
0.0
 11
65.453333333333
 21
0.248871155157
 31
0.0
  0
LINE
  5
2E8
330
30
100
AcDbEntity
  8
1
100
AcDbLine
 10
65.453333333333
 20
0.248871155157
 30
0.0
 11
65.435
 21
0.25701343153
 31
0.0
  0
LINE
  5
2E9
330
30
100
AcDbEntity
  8
1
100
AcDbLine
 10
65.435
 20
0.25701343153
 30
0.0
 11
65.416666666667
 21
0.264967450616
 31
0.0
  0
LINE
  5
2EA
330
30
100
AcDbEntity
  8
1
100
AcDbLine
 10
65.416666666667
 20
0.264967450616
 30
0.0
 11
65.398333333333
 21
0.272716948677
 31
0.0
  0
LINE
  5
2EB
330
30
100
AcDbEntity
  8
1
100
AcDbLine
 10
65.398333333333
 20
0.272716948677
 30
0.0
 11
65.38
 21
0.280244389305
 31
0.0
  0
LINE
  5
2EC
330
30
100
AcDbEntity
  8
1
100
AcDbLine
 10
65.38
 20
0.280244389305
 30
0.0
 11
65.361666666667
 21
0.287530869583
 31
0.0
  0
LINE
  5
2ED
330
30
100
AcDbEntity
  8
1
100
AcDbLine
 10
65.361666666667
 20
0.287530869583
 30
0.0
 11
65.343333333333
 21
0.294556019303
 31
0.0
  0
LINE
  5
2EE
330
30
100
AcDbEntity
  8
1
100
AcDbLine
 10
65.343333333333
 20
0.294556019303
 30
0.0
 11
65.325
 21
0.301297892593
 31
0.0
  0
LINE
  5
2EF
330
30
100
AcDbEntity
  8
1
100
AcDbLine
 10
65.325
 20
0.301297892593
 30
0.0
 11
65.306666666667
 21
0.307732851293
 31
0.0
  0
LINE
  5
2F0
330
30
100
AcDbEntity
  8
1
100
AcDbLine
 10
65.306666666667
 20
0.307732851293
 30
0.0
 11
65.288333333333
 21
0.31383543928
 31
0.0
  0
LINE
  5
2F1
330
30
100
AcDbEntity
  8
1
100
AcDbLine
 10
65.288333333333
 20
0.31383543928
 30
0.0
 11
65.27
 21
0.319578246914
 31
0.0
  0
LINE
  5
2F2
330
30
100
AcDbEntity
  8
1
100
AcDbLine
 10
65.27
 20
0.319578246914
 30
0.0
 11
65.251666666667
 21
0.324931764652
 31
0.0
  0
LINE
  5
2F3
330
30
100
AcDbEntity
  8
1
100
AcDbLine
 10
65.251666666667
 20
0.324931764652
 30
0.0
 11
65.233333333333
 21
0.329864224807
 31
0.0
  0
LINE
  5
2F4
330
30
100
AcDbEntity
  8
1
100
AcDbLine
 10
65.233333333333
 20
0.329864224807
 30
0.0
 11
65.215
 21
0.334341430324
 31
0.0
  0
LINE
  5
2F5
330
30
100
AcDbEntity
  8
1
100
AcDbLine
 10
65.215
 20
0.334341430324
 30
0.0
 11
65.196666666667
 21
0.338326569341
 31
0.0
  0
LINE
  5
2F6
330
30
100
AcDbEntity
  8
1
100
AcDbLine
 10
65.196666666667
 20
0.338326569341
 30
0.0
 11
65.178333333333
 21
0.341780014226
 31
0.0
  0
LINE
  5
2F7
330
30
100
AcDbEntity
  8
1
100
AcDbLine
 10
65.178333333333
 20
0.341780014226
 30
0.0
 11
65.16
 21
0.344659103683
 31
0.0
  0
LINE
  5
2F8
330
30
100
AcDbEntity
  8
1
100
AcDbLine
 10
65.16
 20
0.344659103683
 30
0.0
 11
65.141666666667
 21
0.346917906437
 31
0.0
  0
LINE
  5
2F9
330
30
100
AcDbEntity
  8
1
100
AcDbLine
 10
65.141666666667
 20
0.346917906437
 30
0.0
 11
65.123333333333
 21
0.34850696499
 31
0.0
  0
LINE
  5
2FA
330
30
100
AcDbEntity
  8
1
100
AcDbLine
 10
65.123333333333
 20
0.34850696499
 30
0.0
 11
65.105
 21
0.349373017882
 31
0.0
  0
LINE
  5
2FB
330
30
100
AcDbEntity
  8
1
100
AcDbLine
 10
65.105
 20
0.349373017882
 30
0.0
 11
65.086666666667
 21
0.349458698971
 31
0.0
  0
LINE
  5
2FC
330
30
100
AcDbEntity
  8
1
100
AcDbLine
 10
65.086666666667
 20
0.349458698971
 30
0.0
 11
65.068333333333
 21
0.348702212314
 31
0.0
  0
LINE
  5
2FD
330
30
100
AcDbEntity
  8
1
100
AcDbLine
 10
65.068333333333
 20
0.348702212314
 30
0.0
 11
65.05
 21
0.34703698146
 31
0.0
  0
LINE
  5
2FE
330
30
100
AcDbEntity
  8
1
100
AcDbLine
 10
65.05
 20
0.34703698146
 30
0.0
 11
65.031666666667
 21
0.344391272292
 31
0.0
  0
LINE
  5
2FF
330
30
100
AcDbEntity
  8
1
100
AcDbLine
 10
65.031666666667
 20
0.344391272292
 30
0.0
 11
65.013333333333
 21
0.340687789053
 31
0.0
  0
LINE
  5
300
330
30
100
AcDbEntity
  8
1
100
AcDbLine
 10
65.013333333333
 20
0.340687789053
 30
0.0
 11
64.995
 21
0.335843243944
 31
0.0
  0
LINE
  5
301
330
30
100
AcDbEntity
  8
1
100
AcDbLine
 10
64.995
 20
0.335843243944
 30
0.0
 11
64.976666666667
 21
0.329767901698
 31
0.0
  0
LINE
  5
302
330
30
100
AcDbEntity
  8
1
100
AcDbLine
 10
64.976666666667
 20
0.329767901698
 30
0.0
 11
64.958333333333
 21
0.322365101943
 31
0.0
  0
LINE
  5
303
330
30
100
AcDbEntity
  8
1
100
AcDbLine
 10
64.958333333333
 20
0.322365101943
 30
0.0
 11
64.94
 21
0.31353076408
 31
0.0
  0
LINE
  5
304
330
30
100
AcDbEntity
  8
1
100
AcDbLine
 10
64.94
 20
0.31353076408
 30
0.0
 11
64.921666666667
 21
0.3031528819
 31
0.0
  0
LINE
  5
305
330
30
100
AcDbEntity
  8
1
100
AcDbLine
 10
64.921666666667
 20
0.3031528819
 30
0.0
 11
64.903333333333
 21
0.291111018482
 31
0.0
  0
LINE
  5
306
330
30
100
AcDbEntity
  8
1
100
AcDbLine
 10
64.903333333333
 20
0.291111018482
 30
0.0
 11
64.885
 21
0.277275816178
 31
0.0
  0
LINE
  5
307
330
30
100
AcDbEntity
  8
1
100
AcDbLine
 10
64.885
 20
0.277275816178
 30
0.0
 11
64.866666666667
 21
0.261508542014
 31
0.0
  0
LINE
  5
308
330
30
100
AcDbEntity
  8
1
100
AcDbLine
 10
64.866666666667
 20
0.261508542014
 30
0.0
 11
64.848333333333
 21
0.243660695856
 31
0.0
  0
LINE
  5
309
330
30
100
AcDbEntity
  8
1
100
AcDbLine
 10
64.848333333333
 20
0.243660695856
 30
0.0
 11
64.83
 21
0.223573717587
 31
0.0
  0
LINE
  5
30A
330
30
100
AcDbEntity
  8
1
100
AcDbLine
 10
64.83
 20
0.223573717587
 30
0.0
 11
64.811666666667
 21
0.201078840768
 31
0.0
  0
LINE
  5
30B
330
30
100
AcDbEntity
  8
1
100
AcDbLine
 10
64.811666666667
 20
0.201078840768
 30
0.0
 11
64.793333333333
 21
0.175997154198
 31
0.0
  0
LINE
  5
30C
330
30
100
AcDbEntity
  8
1
100
AcDbLine
 10
64.793333333333
 20
0.175997154198
 30
0.0
 11
64.775
 21
0.148139950184
 31
0.0
  0
LINE
  5
30D
330
30
100
AcDbEntity
  8
1
100
AcDbLine
 10
64.775
 20
0.148139950184
 30
0.0
 11
64.756666666667
 21
0.117309459638
 31
0.0
  0
LINE
  5
30E
330
30
100
AcDbEntity
  8
1
100
AcDbLine
 10
64.756666666667
 20
0.117309459638
 30
0.0
 11
64.738333333333
 21
0.083300100223
 31
0.0
  0
LINE
  5
30F
330
30
100
AcDbEntity
  8
1
100
AcDbLine
 10
64.738333333333
 20
0.083300100223
 30
0.0
 11
64.72
 21
0.045900395276
 31
0.0
  0
LINE
  5
310
330
30
100
AcDbEntity
  8
1
100
AcDbLine
 10
64.72
 20
0.045900395276
 30
0.0
 11
64.701666666667
 21
0.004895759027
 31
0.0
  0
LINE
  5
311
330
30
100
AcDbEntity
  8
1
100
AcDbLine
 10
64.701666666667
 20
0.004895759027
 30
0.0
 11
64.683333333333
 21
-0.039927611736
 31
0.0
  0
LINE
  5
312
330
30
100
AcDbEntity
  8
1
100
AcDbLine
 10
64.683333333333
 20
-0.039927611736
 30
0.0
 11
64.665
 21
-0.08877744732
 31
0.0
  0
LINE
  5
313
330
30
100
AcDbEntity
  8
1
100
AcDbLine
 10
64.665
 20
-0.08877744732
 30
0.0
 11
64.646666666667
 21
-0.141848364353
 31
0.0
  0
LINE
  5
314
330
30
100
AcDbEntity
  8
1
100
AcDbLine
 10
64.646666666667
 20
-0.141848364353
 30
0.0
 11
64.628333333333
 21
-0.199312656349
 31
0.0
  0
LINE
  5
315
330
30
100
AcDbEntity
  8
1
100
AcDbLine
 10
64.628333333333
 20
-0.199312656349
 30
0.0
 11
64.61
 21
-0.261308425609
 31
0.0
  0
LINE
  5
316
330
30
100
AcDbEntity
  8
1
100
AcDbLine
 10
64.61
 20
-0.261308425609
 30
0.0
 11
64.591666666667
 21
-0.327924492575
 31
0.0
  0
LINE
  5
317
330
30
100
AcDbEntity
  8
1
100
AcDbLine
 10
64.591666666667
 20
-0.327924492575
 30
0.0
 11
64.573333333333
 21
-0.399181448516
 31
0.0
  0
LINE
  5
318
330
30
100
AcDbEntity
  8
1
100
AcDbLine
 10
64.573333333333
 20
-0.399181448516
 30
0.0
 11
64.555
 21
-0.47500815988
 31
0.0
  0
LINE
  5
319
330
30
100
AcDbEntity
  8
1
100
AcDbLine
 10
64.555
 20
-0.47500815988
 30
0.0
 11
64.536666666667
 21
-0.555213002041
 31
0.0
  0
LINE
  5
31A
330
30
100
AcDbEntity
  8
1
100
AcDbLine
 10
64.536666666667
 20
-0.555213002041
 30
0.0
 11
64.518333333333
 21
-0.639449117152
 31
0.0
  0
LINE
  5
31B
330
30
100
AcDbEntity
  8
1
100
AcDbLine
 10
64.518333333333
 20
-0.639449117152
 30
0.0
 11
64.5
 21
-0.727173085465
 31
0.0
  0
LINE
  5
31C
330
30
100
AcDbEntity
  8
1
100
AcDbLine
 10
64.5
 20
-0.727173085465
 30
0.0
 11
64.5
 21
-0.790475448048
 31
0.0
  0
LINE
  5
31D
330
30
100
AcDbEntity
  8
1
100
AcDbLine
 10
64.5
 20
-0.790475448048
 30
0.0
 11
64.518333333333
 21
-0.867575663935
 31
0.0
  0
LINE
  5
31E
330
30
100
AcDbEntity
  8
1
100
AcDbLine
 10
64.518333333333
 20
-0.867575663935
 30
0.0
 11
64.536666666667
 21
-0.938905227415
 31
0.0
  0
LINE
  5
31F
330
30
100
AcDbEntity
  8
1
100
AcDbLine
 10
64.536666666667
 20
-0.938905227415
 30
0.0
 11
64.555
 21
-1.004524911349
 31
0.0
  0
LINE
  5
320
330
30
100
AcDbEntity
  8
1
100
AcDbLine
 10
64.555
 20
-1.004524911349
 30
0.0
 11
64.573333333333
 21
-1.064537318839
 31
0.0
  0
LINE
  5
321
330
30
100
AcDbEntity
  8
1
100
AcDbLine
 10
64.573333333333
 20
-1.064537318839
 30
0.0
 11
64.591666666667
 21
-1.119079936209
 31
0.0
  0
LINE
  5
322
330
30
100
AcDbEntity
  8
1
100
AcDbLine
 10
64.591666666667
 20
-1.119079936209
 30
0.0
 11
64.61
 21
-1.168318812035
 31
0.0
  0
LINE
  5
323
330
30
100
AcDbEntity
  8
1
100
AcDbLine
 10
64.61
 20
-1.168318812035
 30
0.0
 11
64.628333333333
 21
-1.212442855046
 31
0.0
  0
LINE
  5
324
330
30
100
AcDbEntity
  8
1
100
AcDbLine
 10
64.628333333333
 20
-1.212442855046
 30
0.0
 11
64.646666666667
 21
-1.251658733122
 31
0.0
  0
LINE
  5
325
330
30
100
AcDbEntity
  8
1
100
AcDbLine
 10
64.646666666667
 20
-1.251658733122
 30
0.0
 11
64.665
 21
-1.286186347692
 31
0.0
  0
LINE
  5
326
330
30
100
AcDbEntity
  8
1
100
AcDbLine
 10
64.665
 20
-1.286186347692
 30
0.0
 11
64.683333333333
 21
-1.316254852144
 31
0.0
  0
LINE
  5
327
330
30
100
AcDbEntity
  8
1
100
AcDbLine
 10
64.683333333333
 20
-1.316254852144
 30
0.0
 11
64.701666666667
 21
-1.342099179063
 31
0.0
  0
LINE
  5
328
330
30
100
AcDbEntity
  8
1
100
AcDbLine
 10
64.701666666667
 20
-1.342099179063
 30
0.0
 11
64.72
 21
-1.363957038802
 31
0.0
  0
LINE
  5
329
330
30
100
AcDbEntity
  8
1
100
AcDbLine
 10
64.72
 20
-1.363957038802
 30
0.0
 11
64.738333333333
 21
-1.382066350922
 31
0.0
  0
LINE
  5
32A
330
30
100
AcDbEntity
  8
1
100
AcDbLine
 10
64.738333333333
 20
-1.382066350922
 30
0.0
 11
64.756666666667
 21
-1.396663069949
 31
0.0
  0
LINE
  5
32B
330
30
100
AcDbEntity
  8
1
100
AcDbLine
 10
64.756666666667
 20
-1.396663069949
 30
0.0
 11
64.775
 21
-1.40797936765
 31
0.0
  0
LINE
  5
32C
330
30
100
AcDbEntity
  8
1
100
AcDbLine
 10
64.775
 20
-1.40797936765
 30
0.0
 11
64.793333333333
 21
-1.416242135353
 31
0.0
  0
LINE
  5
32D
330
30
100
AcDbEntity
  8
1
100
AcDbLine
 10
64.793333333333
 20
-1.416242135353
 30
0.0
 11
64.811666666667
 21
-1.421671771529
 31
0.0
  0
LINE
  5
32E
330
30
100
AcDbEntity
  8
1
100
AcDbLine
 10
64.811666666667
 20
-1.421671771529
 30
0.0
 11
64.83
 21
-1.424481221941
 31
0.0
  0
LINE
  5
32F
330
30
100
AcDbEntity
  8
1
100
AcDbLine
 10
64.83
 20
-1.424481221941
 30
0.0
 11
64.842300731232
 21
-1.425
 31
0.0
  0
LINE
  5
330
330
30
100
AcDbEntity
  8
1
100
AcDbLine
 10
50.628
 20
-1.425
 30
0.0
 11
50.628
 21
1.425
 31
0.0
  0
LINE
  5
331
330
30
100
AcDbEntity
  8
1
100
AcDbLine
 10
48.911366976451
 20
1.727688718027
 30
0.0
 11
48.911366976451
 21
-1.727688718027
 31
0.0
  0
LINE
  5
332
330
30
100
AcDbEntity
  8
1
100
AcDbLine
 10
44.163036629084
 20
-3.0
 30
0.0
 11
44.163036629084
 21
3.0
 31
0.0
  0
LINE
  5
333
330
30
100
AcDbEntity
  8
1
100
AcDbLine
 10
44.163036629084
 20
3.0
 30
0.0
 11
44.163036629084
 21
-3.0
 31
0.0
  0
LINE
  5
334
330
30
100
AcDbEntity
  8
SK1
100
AcDbLine
 10
44.0
 20
3.0
 30
0.0
 11
0.7
 21
3.0
 31
0.0
  0
LINE
  5
335
330
30
100
AcDbEntity
  8
SK1
100
AcDbLine
 10
0.7
 20
3.0
 30
0.0
 11
0.0
 21
2.3
 31
0.0
  0
LINE
  5
336
330
30
100
AcDbEntity
  8
SK1
100
AcDbLine
 10
44.0
 20
-3.0
 30
0.0
 11
0.7
 21
-3.0
 31
0.0
  0
LINE
  5
337
330
30
100
AcDbEntity
  8
SK1
100
AcDbLine
 10
0.7
 20
-3.0
 30
0.0
 11
0.0
 21
-2.3
 31
0.0
  0
LINE
  5
338
330
30
100
AcDbEntity
  8
SK1
100
AcDbLine
 10
0.7
 20
3.0
 30
0.0
 11
0.7
 21
-3.0
 31
0.0
  0
LINE
  5
339
330
30
100
AcDbEntity
  8
SK1
100
AcDbLine
 10
0.0
 20
2.3
 30
0.0
 11
0.0
 21
-2.3
 31
0.0
  0
LINE
  5
33A
330
30
100
AcDbEntity
  8
SK1
100
AcDbLine
 10
45.0401
 20
1.40688
 30
0.0
 11
45.4069
 21
1.0401
 31
0.0
  0
LINE
  5
33B
330
30
100
AcDbEntity
  8
SK1
100
AcDbLine
 10
44.5328
 20
1.66666
 30
0.0
 11
45.6667
 21
0.532833
 31
0.0
  0
LINE
  5
33C
330
30
100
AcDbEntity
  8
SK1
100
AcDbLine
 10
44.2154
 20
1.73657
 30
0.0
 11
45.7366
 21
0.215434
 31
0.0
  0
LINE
  5
33D
330
30
100
AcDbEntity
  8
SK1
100
AcDbLine
 10
44.0
 20
1.70452
 30
0.0
 11
45.7045
 21
0.0
 31
0.0
  0
LINE
  5
33E
330
30
100
AcDbEntity
  8
SK1
100
AcDbLine
 10
44.0
 20
1.45703
 30
0.0
 11
45.457
 21
0.0
 31
0.0
  0
LINE
  5
33F
330
30
100
AcDbEntity
  8
SK1
100
AcDbLine
 10
44.0
 20
1.20954
 30
0.0
 11
45.2095
 21
0.0
 31
0.0
  0
LINE
  5
340
330
30
100
AcDbEntity
  8
SK1
100
AcDbLine
 10
44.0
 20
0.962054
 30
0.0
 11
44.9621
 21
0.0
 31
0.0
  0
LINE
  5
341
330
30
100
AcDbEntity
  8
SK1
100
AcDbLine
 10
44.0
 20
0.714566
 30
0.0
 11
44.7146
 21
0.0
 31
0.0
  0
LINE
  5
342
330
30
100
AcDbEntity
  8
SK1
100
AcDbLine
 10
44.0
 20
0.467079
 30
0.0
 11
44.4671
 21
0.0
 31
0.0
  0
LINE
  5
343
330
30
100
AcDbEntity
  8
SK1
100
AcDbLine
 10
44.0
 20
0.219592
 30
0.0
 11
44.2196
 21
0.0
 31
0.0
  0
LINE
  5
344
330
30
100
AcDbEntity
  8
SK1
100
AcDbLine
 10
44.0
 20
1.70452
 30
0.0
 11
44.0441
 21
1.74861
 31
0.0
  0
LINE
  5
345
330
30
100
AcDbEntity
  8
SK1
100
AcDbLine
 10
44.0
 20
1.45703
 30
0.0
 11
44.271
 21
1.72802
 31
0.0
  0
LINE
  5
346
330
30
100
AcDbEntity
  8
SK1
100
AcDbLine
 10
44.0
 20
1.20954
 30
0.0
 11
44.4742
 21
1.6837
 31
0.0
  0
LINE
  5
347
330
30
100
AcDbEntity
  8
SK1
100
AcDbLine
 10
44.0
 20
0.962054
 30
0.0
 11
44.6588
 21
1.62082
 31
0.0
  0
LINE
  5
348
330
30
100
AcDbEntity
  8
SK1
100
AcDbLine
 10
44.0
 20
0.714566
 30
0.0
 11
44.8271
 21
1.54167
 31
0.0
  0
LINE
  5
349
330
30
100
AcDbEntity
  8
SK1
100
AcDbLine
 10
44.0
 20
0.467079
 30
0.0
 11
44.981
 21
1.44812
 31
0.0
  0
LINE
  5
34A
330
30
100
AcDbEntity
  8
SK1
100
AcDbLine
 10
44.0
 20
0.219592
 30
0.0
 11
45.1226
 21
1.34216
 31
0.0
  0
LINE
  5
34B
330
30
100
AcDbEntity
  8
SK1
100
AcDbLine
 10
44.0279
 20
0.0
 30
0.0
 11
45.2508
 21
1.22288
 31
0.0
  0
LINE
  5
34C
330
30
100
AcDbEntity
  8
SK1
100
AcDbLine
 10
44.2754
 20
0.0
 30
0.0
 11
45.367
 21
1.09157
 31
0.0
  0
LINE
  5
34D
330
30
100
AcDbEntity
  8
SK1
100
AcDbLine
 10
44.5229
 20
0.0
 30
0.0
 11
45.4707
 21
0.947822
 31
0.0
  0
LINE
  5
34E
330
30
100
AcDbEntity
  8
SK1
100
AcDbLine
 10
44.7704
 20
0.0
 30
0.0
 11
45.5605
 21
0.790145
 31
0.0
  0
LINE
  5
34F
330
30
100
AcDbEntity
  8
SK1
100
AcDbLine
 10
45.0178
 20
0.0
 30
0.0
 11
45.6364
 21
0.618517
 31
0.0
  0
LINE
  5
350
330
30
100
AcDbEntity
  8
SK1
100
AcDbLine
 10
45.2653
 20
0.0
 30
0.0
 11
45.696
 21
0.430696
 31
0.0
  0
LINE
  5
351
330
30
100
AcDbEntity
  8
SK1
100
AcDbLine
 10
45.5128
 20
0.0
 30
0.0
 11
45.7356
 21
0.222827
 31
0.0
  0
LINE
  5
352
330
30
100
AcDbEntity
  8
SK1
100
AcDbLine
 10
44.0
 20
0.0
 30
0.0
 11
44.0
 21
1.75
 31
0.0
  0
LINE
  5
353
330
30
100
AcDbEntity
  8
SK1
100
AcDbLine
 10
44.0
 20
0.0
 30
0.0
 11
45.75
 21
0.0
 31
0.0
  0
ARC
  5
354
330
30
100
AcDbEntity
  8
SK1
100
AcDbCircle
 10
44.0
 20
0.0
 30
0.0
 40
1.75
100
AcDbArc
 50
0.0
 51
90.0
  0
ARC
  5
355
330
30
100
AcDbEntity
  8
SK1
100
AcDbCircle
 10
44.0
 20
0.0
 30
0.0
 40
1.75
100
AcDbArc
 50
90.0
 51
180.0
  0
LINE
  5
356
330
30
100
AcDbEntity
  8
SK1
100
AcDbLine
 10
43.9721
 20
0.0
 30
0.0
 11
44.0
 21
-0.0278958
 31
0.0
  0
LINE
  5
357
330
30
100
AcDbEntity
  8
SK1
100
AcDbLine
 10
43.7246
 20
0.0
 30
0.0
 11
44.0
 21
-0.275383
 31
0.0
  0
LINE
  5
358
330
30
100
AcDbEntity
  8
SK1
100
AcDbLine
 10
43.4771
 20
0.0
 30
0.0
 11
44.0
 21
-0.522871
 31
0.0
  0
LINE
  5
359
330
30
100
AcDbEntity
  8
SK1
100
AcDbLine
 10
43.2296
 20
0.0
 30
0.0
 11
44.0
 21
-0.770358
 31
0.0
  0
LINE
  5
35A
330
30
100
AcDbEntity
  8
SK1
100
AcDbLine
 10
42.9822
 20
0.0
 30
0.0
 11
44.0
 21
-1.01785
 31
0.0
  0
LINE
  5
35B
330
30
100
AcDbEntity
  8
SK1
100
AcDbLine
 10
42.7347
 20
0.0
 30
0.0
 11
44.0
 21
-1.26533
 31
0.0
  0
LINE
  5
35C
330
30
100
AcDbEntity
  8
SK1
100
AcDbLine
 10
42.4872
 20
0.0
 30
0.0
 11
44.0
 21
-1.51282
 31
0.0
  0
LINE
  5
35D
330
30
100
AcDbEntity
  8
SK1
100
AcDbLine
 10
42.2503
 20
-0.0106419
 30
0.0
 11
43.9894
 21
-1.74967
 31
0.0
  0
LINE
  5
35E
330
30
100
AcDbEntity
  8
SK1
100
AcDbLine
 10
42.2736
 20
-0.281429
 30
0.0
 11
43.7186
 21
-1.72637
 31
0.0
  0
LINE
  5
35F
330
30
100
AcDbEntity
  8
SK1
100
AcDbLine
 10
42.3639
 20
-0.619147
 30
0.0
 11
43.3809
 21
-1.63613
 31
0.0
  0
LINE
  5
360
330
30
100
AcDbEntity
  8
SK1
100
AcDbLine
 10
42.2514
 20
-0.0440984
 30
0.0
 11
42.2955
 21
0.0
 31
0.0
  0
LINE
  5
361
330
30
100
AcDbEntity
  8
SK1
100
AcDbLine
 10
42.272
 20
-0.270991
 30
0.0
 11
42.543
 21
0.0
 31
0.0
  0
LINE
  5
362
330
30
100
AcDbEntity
  8
SK1
100
AcDbLine
 10
42.3163
 20
-0.474162
 30
0.0
 11
42.7905
 21
0.0
 31
0.0
  0
LINE
  5
363
330
30
100
AcDbEntity
  8
SK1
100
AcDbLine
 10
42.3792
 20
-0.658762
 30
0.0
 11
43.0379
 21
0.0
 31
0.0
  0
LINE
  5
364
330
30
100
AcDbEntity
  8
SK1
100
AcDbLine
 10
42.4583
 20
-0.827105
 30
0.0
 11
43.2854
 21
0.0
 31
0.0
  0
LINE
  5
365
330
30
100
AcDbEntity
  8
SK1
100
AcDbLine
 10
42.5519
 20
-0.981039
 30
0.0
 11
43.5329
 21
0.0
 31
0.0
  0
LINE
  5
366
330
30
100
AcDbEntity
  8
SK1
100
AcDbLine
 10
42.6578
 20
-1.12257
 30
0.0
 11
43.7804
 21
0.0
 31
0.0
  0
LINE
  5
367
330
30
100
AcDbEntity
  8
SK1
100
AcDbLine
 10
42.7771
 20
-1.25077
 30
0.0
 11
44.0
 21
-0.0278958
 31
0.0
  0
LINE
  5
368
330
30
100
AcDbEntity
  8
SK1
100
AcDbLine
 10
42.9084
 20
-1.36695
 30
0.0
 11
44.0
 21
-0.275383
 31
0.0
  0
LINE
  5
369
330
30
100
AcDbEntity
  8
SK1
100
AcDbLine
 10
43.0522
 20
-1.47069
 30
0.0
 11
44.0
 21
-0.522871
 31
0.0
  0
LINE
  5
36A
330
30
100
AcDbEntity
  8
SK1
100
AcDbLine
 10
43.2099
 20
-1.5605
 30
0.0
 11
44.0
 21
-0.770358
 31
0.0
  0
LINE
  5
36B
330
30
100
AcDbEntity
  8
SK1
100
AcDbLine
 10
43.3815
 20
-1.63636
 30
0.0
 11
44.0
 21
-1.01785
 31
0.0
  0
LINE
  5
36C
330
30
100
AcDbEntity
  8
SK1
100
AcDbLine
 10
43.5693
 20
-1.69603
 30
0.0
 11
44.0
 21
-1.26533
 31
0.0
  0
LINE
  5
36D
330
30
100
AcDbEntity
  8
SK1
100
AcDbLine
 10
43.7772
 20
-1.73565
 30
0.0
 11
44.0
 21
-1.51282
 31
0.0
  0
LINE
  5
36E
330
30
100
AcDbEntity
  8
SK1
100
AcDbLine
 10
44.0
 20
0.0
 30
0.0
 11
42.25
 21
0.0
 31
0.0
  0
LINE
  5
36F
330
30
100
AcDbEntity
  8
SK1
100
AcDbLine
 10
44.0
 20
-1.75
 30
0.0
 11
44.0
 21
0.0
 31
0.0
  0
ARC
  5
370
330
30
100
AcDbEntity
  8
SK1
100
AcDbCircle
 10
44.0
 20
0.0
 30
0.0
 40
1.75
100
AcDbArc
 50
180.0
 51
270.0
  0
ARC
  5
371
330
30
100
AcDbEntity
  8
SK1
100
AcDbCircle
 10
44.0
 20
0.0
 30
0.0
 40
1.75
100
AcDbArc
 50
270.0
 51
0.0
  0
LINE
  5
3EE
330
30
100
AcDbEntity
  8
NOCUT
100
AcDbLine
 10
67.5
 20
0.0
 30
0.0
 11
67.5
 21
1.425
 31
0.0
  0
LINE
  5
3EF
330
30
100
AcDbEntity
  8
NOCUT
100
AcDbLine
 10
67.5
 20
1.425
 30
0.0
 11
50.628
 21
1.425
 31
0.0
  0
ARC
  5
3F0
330
30
100
AcDbEntity
  8
NOCUT
100
AcDbCircle
 10
51.499557427477
 20
11.386946980917
 30
0.0
 40
10.0
100
AcDbArc
 50
255.0
 51
265.0
  0
LINE
  5
3F1
330
30
100
AcDbEntity
  8
NOCUT
100
AcDbLine
 10
48.911366976451
 20
1.727688718027
 30
0.0
 11
44.163036629084
 21
3.0
 31
0.0
  0
LINE
  5
3F2
330
30
100
AcDbEntity
  8
NOCUT
100
AcDbLine
 10
44.163036629084
 20
3.0
 30
0.0
 11
44.0
 21
3.0
 31
0.0
  0
LINE
  5
3F3
330
30
100
AcDbEntity
  8
NOCUT
100
AcDbLine
 10
44.0
 20
3.0
 30
0.0
 11
44.0
 21
0.0
 31
0.0
  0
LINE
  5
3F4
330
30
100
AcDbEntity
  8
NOCUT
100
AcDbLine
 10
44.0
 20
0.0
 30
0.0
 11
67.5
 21
0.0
 31
0.0
  0
LINE
  5
3F5
330
30
100
AcDbEntity
  8
CUT
100
AcDbLine
 10
70.0
 20
0.0
 30
0.0
 11
70.0
 21
1.2
 31
0.0
  0
ARC
  5
3F6
330
30
100
AcDbEntity
  8
CUT
100
AcDbCircle
 10
69.7
 20
1.2
 30
0.0
 40
0.3
100
AcDbArc
 50
0.0
 51
90.0
  0
LINE
  5
3F7
330
30
100
AcDbEntity
  8
CUT
100
AcDbLine
 10
69.7
 20
1.5
 30
0.0
 11
67.5
 21
1.5
 31
0.0
  0
LINE
  5
3F8
330
30
100
AcDbEntity
  8
CUT
100
AcDbLine
 10
67.5
 20
1.5
 30
0.0
 11
67.5
 21
0.0
 31
0.0
  0
LINE
  5
3F9
330
30
100
AcDbEntity
  8
CUT
100
AcDbLine
 10
67.5
 20
0.0
 30
0.0
 11
70.0
 21
0.0
 31
0.0
  0
LINE
  5
3FA
330
30
100
AcDbEntity
  8
4
100
AcDbLine
 10
44.0
 20
0.0
 30
0.0
 11
70.0
 21
0.0
 31
0.0
  0
LINE
  5
3FB
330
30
100
AcDbEntity
  8
SK4
100
AcDbLine
 10
-1.0
 20
0.0
 30
0.0
 11
71.0
 21
0.0
 31
0.0
  0
LINE
  5
3FC
330
30
100
AcDbEntity
  8
INFTOTAL
100
AcDbLine
 10
-19.2
 20
40.0
 30
0.0
 11
110.0
 21
40.0
 31
0.0
  0
LINE
  5
3FD
330
30
100
AcDbEntity
  8
INFTOTAL
100
AcDbLine
 10
110.0
 20
40.0
 30
0.0
 11
110.0
 21
-25.0
 31
0.0
  0
LINE
  5
3FE
330
30
100
AcDbEntity
  8
INFTOTAL
100
AcDbLine
 10
110.0
 20
-25.0
 30
0.0
 11
-19.2
 21
-25.0
 31
0.0
  0
LINE
  5
3FF
330
30
100
AcDbEntity
  8
INFTOTAL
100
AcDbLine
 10
-19.2
 20
-25.0
 30
0.0
 11
-19.2
 21
40.0
 31
0.0
  0
DIMENSION
  5
106AC0D
330
30
100
AcDbEntity
  8
2
100
AcDbDimension
  2
*D11
 10
44.0
 20
28.0
 30
0.0
 11
57.0
 21
28.0
 31
0.0
 70
   160
  1
<>
 71
     5
 42
26.0
  3
STANDARD
100
AcDbAlignedDimension
 13
70.0
 23
1.2
 33
0.0
 14
44.0
 24
3.0
 34
0.0
100
AcDbRotatedDimension
1001
ACAD
1000
DSTYLE
1002
{
1070
   271
1070
     0
1070
   279
1070
     0
1070
    74
1070
     0
1002
}
  0
ENDSEC
  0
SECTION
  2
OBJECTS
  0
DICTIONARY
  5
400
330
0
100
AcDbDictionary
281
     1
  3
ACAD_GROUP
350
401
  3
ACAD_IMAGE_VARS
350
106ABDF
  3
ACAD_LAYOUT
350
106AB97
  3
ACAD_MATERIAL
350
106ABBC
  3
ACAD_MLEADERSTYLE
350
106ABDB
  3
ACAD_MLINESTYLE
350
106AB92
  3
ACAD_PLOTSETTINGS
350
106AB94
  3
ACAD_PLOTSTYLENAME
350
106AB95
  3
ACAD_SCALELIST
350
106AB9A
  3
ACAD_TABLESTYLE
350
106ABD9
  3
ACAD_VISUALSTYLE
350
106ABC0
  3
AcDbVariableDictionary
350
106AC1C
  3
APPDATA
350
106ABDD
  3
DWGPROPS
350
106AC23
  3
FX_DICT_DIMENSION_PALETTE
350
106ABED
  3
PRINTCONFIG
350
106ABE0
  0
DICTIONARY
  5
106AC24
330
2
100
AcDbDictionary
280
     1
281
     1
  3
ACAD_XREC_ROUNDTRIP
360
106AC25
  0
DICTIONARY
  5
106AC1A
330
30
100
AcDbDictionary
280
     1
281
     1
  3
DIM_BOUNDING_BOXES_V1
360
106AC1B
  0
DICTIONARY
  5
401
102
{ACAD_REACTORS
330
400
102
}
330
400
100
AcDbDictionary
281
     1
  0
RASTERVARIABLES
  5
106ABDF
102
{ACAD_REACTORS
330
400
102
}
330
400
100
AcDbRasterVariables
 90
        0
 70
     1
 71
     1
 72
     0
  0
DICTIONARY
  5
106AB97
102
{ACAD_REACTORS
330
400
102
}
330
400
100
AcDbDictionary
281
     1
  3
Model
350
106AB98
  3
シート 1
350
106AB99
  0
DICTIONARY
  5
106ABBC
102
{ACAD_REACTORS
330
400
102
}
330
400
100
AcDbDictionary
281
     1
  3
ByBlock
350
106ABBE
  3
ByLayer
350
106ABBD
  3
Global
350
106ABBF
  0
DICTIONARY
  5
106ABDB
102
{ACAD_REACTORS
330
400
102
}
330
400
100
AcDbDictionary
281
     1
  3
Standard
350
106ABDC
  0
DICTIONARY
  5
106AB92
102
{ACAD_REACTORS
330
400
102
}
330
400
100
AcDbDictionary
281
     1
  3
Standard
350
106AB93
  0
DICTIONARY
  5
106AB94
102
{ACAD_REACTORS
330
400
102
}
330
400
100
AcDbDictionary
281
     1
  0
ACDBDICTIONARYWDFLT
  5
106AB95
102
{ACAD_REACTORS
330
400
102
}
330
400
100
AcDbDictionary
281
     1
  3
Normal
350
106AB96
100
AcDbDictionaryWithDefault
340
106AB96
  0
DICTIONARY
  5
106AB9A
102
{ACAD_REACTORS
330
400
102
}
330
400
100
AcDbDictionary
281
     1
  3
A0
350
106AB9B
  3
A1
350
106AB9C
  3
A2
350
106AB9D
  3
A3
350
106AB9E
  3
A4
350
106AB9F
  3
A5
350
106ABA0
  3
A6
350
106ABA1
  3
A7
350
106ABA2
  3
A8
350
106ABA3
  3
A9
350
106ABA4
  3
B0
350
106ABA5
  3
B1
350
106ABA6
  3
B2
350
106ABA7
  3
B3
350
106ABA8
  3
B4
350
106ABA9
  3
B5
350
106ABAA
  3
B6
350
106ABAB
  3
B7
350
106ABAC
  3
B8
350
106ABAD
  3
B9
350
106ABAE
  3
C0
350
106ABAF
  3
C1
350
106ABB0
  3
C2
350
106ABB1
  3
C3
350
106ABB2
  3
C4
350
106ABB3
  3
C5
350
106ABB4
  3
C6
350
106ABB5
  3
C7
350
106ABB6
  3
C8
350
106ABB7
  3
C9
350
106ABB8
  3
D0
350
106ABB9
  3
D1
350
106ABBA
  3
D2
350
106ABBB
  0
DICTIONARY
  5
106ABD9
102
{ACAD_REACTORS
330
400
102
}
330
400
100
AcDbDictionary
281
     1
  3
Standard
350
106ABDA
  0
DICTIONARY
  5
106ABC0
102
{ACAD_REACTORS
330
400
102
}
330
400
100
AcDbDictionary
281
     1
  3
2dWireframe
350
106ABC5
  3
Basic
350
106ABC8
  3
Brighten
350
106ABCC
  3
ColorChange
350
106ABD0
  3
Conceptual
350
106ABCA
  3
Dim
350
106ABCB
  3
EdgeColorOff
350
106ABD3
  3
Facepattern
350
106ABCF
  3
Flat
350
106ABC1
  3
FlatWithEdges
350
106ABC2
  3
Gouraud
350
106ABC3
  3
GouraudWithEdges
350
106ABC4
  3
Hidden
350
106ABC7
  3
JitterOff
350
106ABD1
  3
Linepattern
350
106ABCE
  3
OverhangOff
350
106ABD2
  3
Realistic
350
106ABC9
  3
Shaded
350
106ABD8
  3
Shaded with edges
350
106ABD7
  3
Shades of Gray
350
106ABD4
  3
Sketchy
350
106ABD5
  3
Thicken
350
106ABCD
  3
Wireframe
350
106ABC6
  3
X-Ray
350
106ABD6
  0
DICTIONARY
  5
106AC1C
102
{ACAD_REACTORS
330
400
102
}
330
400
100
AcDbDictionary
281
     1
  3
CANNOSCALE
350
106AC26
  3
CMLEADERSTYLE
350
106AC1E
  3
CTABLESTYLE
350
106AC1D
  3
DIMASSOC
350
106AC21
  3
HIDETEXT
350
106AC22
  3
MSLTSCALE
350
106AC27
  0
DICTIONARY
  5
106ABDD
102
{ACAD_REACTORS
330
400
102
}
330
400
100
AcDbDictionary
281
     1
  0
XRECORD
  5
106AC23
102
{ACAD_REACTORS
330
400
102
}
330
400
100
AcDbXrecord
280
     1
  1
DWGPROPS COOKIE
  2

  3

  4

  6

  7

  8
usr2460
  9

300
=
301
=
302
=
303
=
304
=
305
=
306
=
307
=
308
=
309
=
 40
0.0
 41
0.0
 42
2460643.119818345
  1

 90
        0
  0
DICTIONARY
  5
106ABED
102
{ACAD_REACTORS
330
400
102
}
330
400
100
AcDbDictionary
281
     1
1001
FX_DIMP_FAV_VERSION
1071
        1
  0
DICTIONARYVAR
  5
106ABE0
102
{ACAD_REACTORS
330
400
102
}
330
400
100
DictionaryVariables
280
     0
  1
0
  0
XRECORD
  5
106AC25
102
{ACAD_REACTORS
330
106AC24
102
}
330
106AC24
100
AcDbXrecord
280
     1
102
VTR_0.000_0.000_1.000_1.000_GRIDDISPLAY
 70
     3
102
VTR_0.000_0.000_1.000_1.000_GRIDMAJOR
 70
     5
102
VTR_0.000_0.000_1.000_1.000_DEFAULTLIGHTING
280
     1
102
VTR_0.000_0.000_1.000_1.000_DEFAULTLIGHTINGTYPE
 70
     1
102
VTR_0.000_0.000_1.000_1.000_BRIGHTNESS
141
0.0
102
VTR_0.000_0.000_1.000_1.000_CONTRAST
142
0.0
  0
DICTIONARY
  5
106AC1B
102
{ACAD_REACTORS
330
106AC1A
102
}
330
106AC1A
100
AcDbDictionary
281
     1
  0
LAYOUT
  5
106AB98
102
{ACAD_REACTORS
330
106AB97
102
}
330
106AB97
100
AcDbPlotSettings
  1

  2
none_device
  4
Letter_(8.50_x_11.00_Inches)
  6

 40
6.35
 41
6.35
 42
6.35
 43
6.35
 44
215.9
 45
279.4
 46
0.0
 47
0.0
 48
0.0
 49
0.0
140
0.0
141
0.0
142
1.0
143
2.21959459445662
 70
  1712
 72
     0
 73
     0
 74
     0
  7

 75
     0
147
0.4505327245333333
148
-39.40881537143161
149
0.0
100
AcDbLayout
  1
Model
 70
     1
 71
     0
 10
0.0
 20
0.0
 11
12.0
 21
9.0
 12
0.0
 22
0.0
 32
0.0
 14
-19.2
 24
-25.0
 34
0.0
 15
110.0
 25
40.0
 35
0.0
146
0.0
 13
0.0
 23
0.0
 33
0.0
 16
1.0
 26
0.0
 36
0.0
 17
0.0
 27
1.0
 37
0.0
 76
     0
330
30
331
106AB91
  0
LAYOUT
  5
106AB99
102
{ACAD_REACTORS
330
106AB97
102
}
330
106AB97
100
AcDbPlotSettings
  1

  2
none_device
  4

  6

 40
0.0
 41
0.0
 42
0.0
 43
0.0
 44
0.0
 45
0.0
 46
0.0
 47
0.0
 48
0.0
 49
0.0
140
0.0
141
0.0
142
1.0
143
1.0
 70
   688
 72
     0
 73
     0
 74
     5
  7

 75
    16
147
1.0
148
0.0
149
0.0
100
AcDbLayout
  1
シート 1
 70
     1
 71
     1
 10
0.0
 20
0.0
 11
0.0
 21
0.0
 12
0.0
 22
0.0
 32
0.0
 14
1.000000000000000E+20
 24
1.000000000000000E+20
 34
1.000000000000000E+20
 15
-1.000000000000000E+20
 25
-1.000000000000000E+20
 35
-1.000000000000000E+20
146
0.0
 13
0.0
 23
0.0
 33
0.0
 16
1.0
 26
0.0
 36
0.0
 17
0.0
 27
1.0
 37
0.0
 76
     0
330
31
  0
MATERIAL
  5
106ABBE
102
{ACAD_REACTORS
330
106ABBC
102
}
102
{ACAD_XDICTIONARY
360
106AC2A
102
}
330
106ABBC
100
AcDbMaterial
  1
ByBlock
  0
MATERIAL
  5
106ABBD
102
{ACAD_REACTORS
330
106ABBC
102
}
102
{ACAD_XDICTIONARY
360
106AC28
102
}
330
106ABBC
100
AcDbMaterial
  1
ByLayer
  0
MATERIAL
  5
106ABBF
102
{ACAD_REACTORS
330
106ABBC
102
}
102
{ACAD_XDICTIONARY
360
106AC2C
102
}
330
106ABBC
100
AcDbMaterial
  1
Global
  0
MLEADERSTYLE
  5
106ABDC
102
{ACAD_REACTORS
330
106ABDB
102
}
102
{ACAD_XDICTIONARY
360
106AC5F
102
}
330
106ABDB
100
AcDbMLeaderStyle
170
     2
171
     1
172
     0
 90
        2
 40
0.0
 41
0.0
173
     1
 91
-1056964608
340
4
 92
       -2
290
     1
 42
0.09
291
     1
 43
0.36
  3
Standard
341
0
 44
0.18
300

342
28
174
     1
178
     1
175
     1
176
     0
 93
-1056964608
 45
0.18
292
     0
297
     0
 46
0.18
343
0
 94
-1056964608
 47
1.0
 49
1.0
140
1.0
293
     1
141
0.0
294
     1
177
     0
142
1.0
295
     0
296
     0
143
0.125
1001
ACAD_MLEADERVER
1070
     2
  0
MLINESTYLE
  5
106AB93
102
{ACAD_REACTORS
330
106AB92
102
}
330
106AB92
100
AcDbMlineStyle
  2
Standard
 70
     0
  3

 62
   256
 51
90.0
 52
90.0
 71
     2
 49
0.5
 62
   256
  6
BYLAYER
 49
-0.5
 62
   256
  6
BYLAYER
  0
ACDBPLACEHOLDER
  5
106AB96
102
{ACAD_REACTORS
330
106AB95
102
}
330
106AB95
  0
SCALE
  5
106AB9B
102
{ACAD_REACTORS
330
106AB9A
102
}
330
106AB9A
100
AcDbScale
 70
     0
300
1:1
140
1.0
141
1.0
290
     1
  0
SCALE
  5
106AB9C
102
{ACAD_REACTORS
330
106AB9A
102
}
330
106AB9A
100
AcDbScale
 70
     0
300
1:2
140
1.0
141
2.0
290
     0
  0
SCALE
  5
106AB9D
102
{ACAD_REACTORS
330
106AB9A
102
}
330
106AB9A
100
AcDbScale
 70
     0
300
1:4
140
1.0
141
4.0
290
     0
  0
SCALE
  5
106AB9E
102
{ACAD_REACTORS
330
106AB9A
102
}
330
106AB9A
100
AcDbScale
 70
     0
300
1:5
140
1.0
141
5.0
290
     0
  0
SCALE
  5
106AB9F
102
{ACAD_REACTORS
330
106AB9A
102
}
330
106AB9A
100
AcDbScale
 70
     0
300
1:8
140
1.0
141
8.0
290
     0
  0
SCALE
  5
106ABA0
102
{ACAD_REACTORS
330
106AB9A
102
}
330
106AB9A
100
AcDbScale
 70
     0
300
1:10
140
1.0
141
10.0
290
     0
  0
SCALE
  5
106ABA1
102
{ACAD_REACTORS
330
106AB9A
102
}
330
106AB9A
100
AcDbScale
 70
     0
300
1:16
140
1.0
141
16.0
290
     0
  0
SCALE
  5
106ABA2
102
{ACAD_REACTORS
330
106AB9A
102
}
330
106AB9A
100
AcDbScale
 70
     0
300
1:20
140
1.0
141
20.0
290
     0
  0
SCALE
  5
106ABA3
102
{ACAD_REACTORS
330
106AB9A
102
}
330
106AB9A
100
AcDbScale
 70
     0
300
1:30
140
1.0
141
30.0
290
     0
  0
SCALE
  5
106ABA4
102
{ACAD_REACTORS
330
106AB9A
102
}
330
106AB9A
100
AcDbScale
 70
     0
300
1:40
140
1.0
141
40.0
290
     0
  0
SCALE
  5
106ABA5
102
{ACAD_REACTORS
330
106AB9A
102
}
330
106AB9A
100
AcDbScale
 70
     0
300
1:50
140
1.0
141
50.0
290
     0
  0
SCALE
  5
106ABA6
102
{ACAD_REACTORS
330
106AB9A
102
}
330
106AB9A
100
AcDbScale
 70
     0
300
1:100
140
1.0
141
100.0
290
     0
  0
SCALE
  5
106ABA7
102
{ACAD_REACTORS
330
106AB9A
102
}
330
106AB9A
100
AcDbScale
 70
     0
300
2:1
140
2.0
141
1.0
290
     0
  0
SCALE
  5
106ABA8
102
{ACAD_REACTORS
330
106AB9A
102
}
330
106AB9A
100
AcDbScale
 70
     0
300
4:1
140
4.0
141
1.0
290
     0
  0
SCALE
  5
106ABA9
102
{ACAD_REACTORS
330
106AB9A
102
}
330
106AB9A
100
AcDbScale
 70
     0
300
8:1
140
8.0
141
1.0
290
     0
  0
SCALE
  5
106ABAA
102
{ACAD_REACTORS
330
106AB9A
102
}
330
106AB9A
100
AcDbScale
 70
     0
300
10:1
140
10.0
141
1.0
290
     0
  0
SCALE
  5
106ABAB
102
{ACAD_REACTORS
330
106AB9A
102
}
330
106AB9A
100
AcDbScale
 70
     0
300
100:1
140
100.0
141
1.0
290
     0
  0
SCALE
  5
106ABAC
102
{ACAD_REACTORS
330
106AB9A
102
}
330
106AB9A
100
AcDbScale
 70
     0
300
1/128" = 1'-0"
140
0.0078125
141
12.0
290
     0
  0
SCALE
  5
106ABAD
102
{ACAD_REACTORS
330
106AB9A
102
}
330
106AB9A
100
AcDbScale
 70
     0
300
1/64" = 1'-0"
140
0.015625
141
12.0
290
     0
  0
SCALE
  5
106ABAE
102
{ACAD_REACTORS
330
106AB9A
102
}
330
106AB9A
100
AcDbScale
 70
     0
300
1/32" = 1'-0"
140
0.03125
141
12.0
290
     0
  0
SCALE
  5
106ABAF
102
{ACAD_REACTORS
330
106AB9A
102
}
330
106AB9A
100
AcDbScale
 70
     0
300
1/16" = 1'-0"
140
0.0625
141
12.0
290
     0
  0
SCALE
  5
106ABB0
102
{ACAD_REACTORS
330
106AB9A
102
}
330
106AB9A
100
AcDbScale
 70
     0
300
3/32" = 1'-0"
140
0.09375
141
12.0
290
     0
  0
SCALE
  5
106ABB1
102
{ACAD_REACTORS
330
106AB9A
102
}
330
106AB9A
100
AcDbScale
 70
     0
300
1/8" = 1'-0"
140
0.125
141
12.0
290
     0
  0
SCALE
  5
106ABB2
102
{ACAD_REACTORS
330
106AB9A
102
}
330
106AB9A
100
AcDbScale
 70
     0
300
3/16" = 1'-0"
140
0.1875
141
12.0
290
     0
  0
SCALE
  5
106ABB3
102
{ACAD_REACTORS
330
106AB9A
102
}
330
106AB9A
100
AcDbScale
 70
     0
300
1/4" = 1'-0"
140
0.25
141
12.0
290
     0
  0
SCALE
  5
106ABB4
102
{ACAD_REACTORS
330
106AB9A
102
}
330
106AB9A
100
AcDbScale
 70
     0
300
3/8" = 1'-0"
140
0.375
141
12.0
290
     0
  0
SCALE
  5
106ABB5
102
{ACAD_REACTORS
330
106AB9A
102
}
330
106AB9A
100
AcDbScale
 70
     0
300
1/2" = 1'-0"
140
0.5
141
12.0
290
     0
  0
SCALE
  5
106ABB6
102
{ACAD_REACTORS
330
106AB9A
102
}
330
106AB9A
100
AcDbScale
 70
     0
300
3/4" = 1'-0"
140
0.75
141
12.0
290
     0
  0
SCALE
  5
106ABB7
102
{ACAD_REACTORS
330
106AB9A
102
}
330
106AB9A
100
AcDbScale
 70
     0
300
1" = 1'-0"
140
1.0
141
12.0
290
     0
  0
SCALE
  5
106ABB8
102
{ACAD_REACTORS
330
106AB9A
102
}
330
106AB9A
100
AcDbScale
 70
     0
300
1-1/2" = 1'-0"
140
1.5
141
12.0
290
     0
  0
SCALE
  5
106ABB9
102
{ACAD_REACTORS
330
106AB9A
102
}
330
106AB9A
100
AcDbScale
 70
     0
300
3" = 1'-0"
140
3.0
141
12.0
290
     0
  0
SCALE
  5
106ABBA
102
{ACAD_REACTORS
330
106AB9A
102
}
330
106AB9A
100
AcDbScale
 70
     0
300
6" = 1'-0"
140
6.0
141
12.0
290
     0
  0
SCALE
  5
106ABBB
102
{ACAD_REACTORS
330
106AB9A
102
}
330
106AB9A
100
AcDbScale
 70
     0
300
1'-0" = 1'-0"
140
12.0
141
12.0
290
     0
  0
TABLESTYLE
  5
106ABDA
102
{ACAD_REACTORS
330
106ABD9
102
}
330
106ABD9
100
AcDbTableStyle
  3
Standard
 70
     0
 71
     0
 40
0.06
 41
0.06
280
     0
281
     0
  7
Monospac821 BT
140
0.18
170
     2
 62
     0
 63
   257
283
     0
274
    -2
284
     1
 64
     0
275
    -2
285
     1
 65
     0
276
    -2
286
     1
 66
     0
277
    -2
287
     1
 67
     0
278
    -2
288
     1
 68
     0
279
    -2
289
     1
 69
     0
  7
Monospac821 BT
140
0.25
170
     5
 62
     0
 63
   257
283
     0
274
    -2
284
     1
 64
     0
275
    -2
285
     1
 65
     0
276
    -2
286
     1
 66
     0
277
    -2
287
     1
 67
     0
278
    -2
288
     1
 68
     0
279
    -2
289
     1
 69
     0
  7
Monospac821 BT
140
0.18
170
     5
 62
     0
 63
   257
283
     0
274
    -2
284
     1
 64
     0
275
    -2
285
     1
 65
     0
276
    -2
286
     1
 66
     0
277
    -2
287
     1
 67
     0
278
    -2
288
     1
 68
     0
279
    -2
289
     1
 69
     0
  0
VISUALSTYLE
  5
106ABC5
102
{ACAD_REACTORS
330
106ABC0
102
}
102
{ACAD_XDICTIONARY
360
106AC36
102
}
330
106ABC0
100
AcDbVisualStyle
  2
2dWireframe
 70
     4
 71
     0
 72
     2
 73
     0
 90
        0
 40
0.6
 41
30.0
 62
     5
 63
     7
 74
     1
 91
        4
 64
     7
 65
   257
 75
     1
175
     1
 42
1.0
 92
        0
 66
   257
 43
1.0
 76
     1
 77
     6
 78
     2
 67
     7
 79
     5
170
     0
171
     0
290
     0
174
     0
 93
        1
 44
0.0
173
     0
291
     0
 45
0.0
1001
ACAD
1000
AcDbSavedByObjectVersion
1070
     0
  0
VISUALSTYLE
  5
106ABC8
102
{ACAD_REACTORS
330
106ABC0
102
}
102
{ACAD_XDICTIONARY
360
106AC3C
102
}
330
106ABC0
100
AcDbVisualStyle
  2
Basic
 70
     7
 71
     1
 72
     0
 73
     1
 90
        0
 40
0.6
 41
30.0
 62
     5
 63
     7
 74
     0
 91
        4
 64
     7
 65
   257
 75
     1
175
     1
 42
1.0
 92
        8
 66
     7
 43
1.0
 76
     1
 77
     6
 78
     2
 67
     7
 79
     5
170
     0
171
     0
290
     0
174
     0
 93
        1
 44
0.0
173
     0
291
     1
 45
0.0
1001
ACAD
1000
AcDbSavedByObjectVersion
1070
     0
  0
VISUALSTYLE
  5
106ABCC
102
{ACAD_REACTORS
330
106ABC0
102
}
102
{ACAD_XDICTIONARY
360
106AC44
102
}
330
106ABC0
100
AcDbVisualStyle
  2
Brighten
 70
    12
 71
     2
 72
     2
 73
     0
 90
        0
 40
0.6
 41
30.0
 62
     5
 63
     7
 74
     1
 91
        4
 64
     7
 65
   257
 75
     1
175
     1
 42
1.0
 92
        8
 66
     7
 43
1.0
 76
     1
 77
     6
 78
     2
 67
     7
 79
     5
170
     0
171
     0
290
     0
174
     0
 93
        1
 44
50.0
173
     0
291
     1
 45
0.0
1001
ACAD
1000
AcDbSavedByObjectVersion
1070
     0
  0
VISUALSTYLE
  5
106ABD0
102
{ACAD_REACTORS
330
106ABC0
102
}
102
{ACAD_XDICTIONARY
360
106AC4C
102
}
330
106ABC0
100
AcDbVisualStyle
  2
ColorChange
 70
    16
 71
     2
 72
     2
 73
     3
 90
        0
 40
0.6
 41
30.0
 62
     5
 63
     8
 74
     1
 91
        4
 64
     7
 65
   257
 75
     1
175
     1
 42
1.0
 92
        8
 66
     8
 43
1.0
 76
     1
 77
     6
 78
     2
 67
     7
 79
     5
170
     0
171
     0
290
     0
174
     0
 93
        1
 44
0.0
173
     0
291
     1
 45
0.0
1001
ACAD
1000
AcDbSavedByObjectVersion
1070
     0
  0
VISUALSTYLE
  5
106ABCA
102
{ACAD_REACTORS
330
106ABC0
102
}
102
{ACAD_XDICTIONARY
360
106AC40
102
}
330
106ABC0
100
AcDbVisualStyle
  2
Conceptual
 70
     9
 71
     3
 72
     2
 73
     0
 90
        0
 40
0.6
 41
30.0
 62
     5
 63
     7
 74
     2
 91
        2
 64
     7
 65
   257
 75
     1
175
     1
 42
179.0
 92
        8
 66
     7
 43
1.0
 76
     1
 77
     6
 78
     2
 67
     7
 79
     3
170
     0
171
     0
290
     0
174
     0
 93
        1
 44
0.0
173
     0
291
     0
 45
0.0
1001
ACAD
1000
AcDbSavedByObjectVersion
1070
     0
  0
VISUALSTYLE
  5
106ABCB
102
{ACAD_REACTORS
330
106ABC0
102
}
102
{ACAD_XDICTIONARY
360
106AC42
102
}
330
106ABC0
100
AcDbVisualStyle
  2
Dim
 70
    11
 71
     2
 72
     2
 73
     0
 90
        0
 40
0.6
 41
30.0
 62
     5
 63
     7
 74
     1
 91
        4
 64
     7
 65
   257
 75
     1
175
     1
 42
1.0
 92
        8
 66
     7
 43
1.0
 76
     1
 77
     6
 78
     2
 67
     7
 79
     5
170
     0
171
     0
290
     0
174
     0
 93
        1
 44
-50.0
173
     0
291
     1
 45
0.0
1001
ACAD
1000
AcDbSavedByObjectVersion
1070
     0
  0
VISUALSTYLE
  5
106ABD3
102
{ACAD_REACTORS
330
106ABC0
102
}
102
{ACAD_XDICTIONARY
360
106AC52
102
}
330
106ABC0
100
AcDbVisualStyle
  2
EdgeColorOff
 70
    22
 71
     2
 72
     2
 73
     0
 90
        0
 40
0.6
 41
30.0
 62
     5
 63
     7
 74
     1
 91
        4
 64
     7
 65
   257
 75
     1
175
     1
 42
1.0
 92
        8
 66
     7
 43
1.0
 76
     1
 77
     6
 78
     2
 67
     7
 79
     5
170
     0
171
     0
290
     0
174
     0
 93
        1
 44
0.0
173
     0
291
     1
 45
0.0
1001
ACAD
1000
AcDbSavedByObjectVersion
1070
     0
  0
VISUALSTYLE
  5
106ABCF
102
{ACAD_REACTORS
330
106ABC0
102
}
102
{ACAD_XDICTIONARY
360
106AC4A
102
}
330
106ABC0
100
AcDbVisualStyle
  2
Facepattern
 70
    15
 71
     2
 72
     2
 73
     0
 90
        0
 40
0.6
 41
30.0
 62
     5
 63
     7
 74
     1
 91
        4
 64
     7
 65
   257
 75
     1
175
     1
 42
1.0
 92
        8
 66
     7
 43
1.0
 76
     1
 77
     6
 78
     2
 67
     7
 79
     5
170
     0
171
     0
290
     0
174
     0
 93
        1
 44
0.0
173
     0
291
     1
 45
0.0
1001
ACAD
1000
AcDbSavedByObjectVersion
1070
     0
  0
VISUALSTYLE
  5
106ABC1
102
{ACAD_REACTORS
330
106ABC0
102
}
102
{ACAD_XDICTIONARY
360
106AC2E
102
}
330
106ABC0
100
AcDbVisualStyle
  2
Flat
 70
     0
 71
     2
 72
     1
 73
     1
 90
        2
 40
0.6
 41
30.0
 62
     5
 63
     7
 74
     0
 91
        0
 64
     7
 65
   257
 75
     1
175
     1
 42
1.0
 92
        8
 66
     7
 43
1.0
 76
     1
 77
     6
 78
     2
 67
     7
 79
     5
170
     0
171
     0
290
     0
174
     0
 93
       13
 44
0.0
173
     0
291
     1
 45
0.0
1001
ACAD
1000
AcDbSavedByObjectVersion
1070
     0
  0
VISUALSTYLE
  5
106ABC2
102
{ACAD_REACTORS
330
106ABC0
102
}
102
{ACAD_XDICTIONARY
360
106AC30
102
}
330
106ABC0
100
AcDbVisualStyle
  2
FlatWithEdges
 70
     1
 71
     2
 72
     1
 73
     1
 90
        2
 40
0.6
 41
30.0
 62
     5
 63
     7
 74
     1
 91
        0
 64
     7
 65
   257
 75
     1
175
     1
 42
1.0
 92
        0
 66
   257
 43
1.0
 76
     1
 77
     6
 78
     2
 67
     7
 79
     5
170
     0
171
     0
290
     0
174
     0
 93
       13
 44
0.0
173
     0
291
     1
 45
0.0
1001
ACAD
1000
AcDbSavedByObjectVersion
1070
     0
  0
VISUALSTYLE
  5
106ABC3
102
{ACAD_REACTORS
330
106ABC0
102
}
102
{ACAD_XDICTIONARY
360
106AC32
102
}
330
106ABC0
100
AcDbVisualStyle
  2
Gouraud
 70
     2
 71
     2
 72
     2
 73
     1
 90
        2
 40
0.6
 41
30.0
 62
     5
 63
     7
 74
     0
 91
        0
 64
     7
 65
   257
 75
     1
175
     1
 42
1.0
 92
        0
 66
     7
 43
1.0
 76
     1
 77
     6
 78
     2
 67
     7
 79
     5
170
     0
171
     0
290
     0
174
     0
 93
       13
 44
0.0
173
     0
291
     1
 45
0.0
1001
ACAD
1000
AcDbSavedByObjectVersion
1070
     0
  0
VISUALSTYLE
  5
106ABC4
102
{ACAD_REACTORS
330
106ABC0
102
}
102
{ACAD_XDICTIONARY
360
106AC34
102
}
330
106ABC0
100
AcDbVisualStyle
  2
GouraudWithEdges
 70
     3
 71
     2
 72
     2
 73
     1
 90
        2
 40
0.6
 41
30.0
 62
     5
 63
     7
 74
     1
 91
        0
 64
     7
 65
   257
 75
     1
175
     1
 42
1.0
 92
        0
 66
   257
 43
1.0
 76
     1
 77
     6
 78
     2
 67
     7
 79
     5
170
     0
171
     0
290
     0
174
     0
 93
       13
 44
0.0
173
     0
291
     1
 45
0.0
1001
ACAD
1000
AcDbSavedByObjectVersion
1070
     0
  0
VISUALSTYLE
  5
106ABC7
102
{ACAD_REACTORS
330
106ABC0
102
}
102
{ACAD_XDICTIONARY
360
106AC3A
102
}
330
106ABC0
100
AcDbVisualStyle
  2
Hidden
 70
     6
 71
     1
 72
     2
 73
     2
 90
        0
 40
0.6
 41
30.0
 62
     5
 63
     7
 74
     2
 91
        2
 64
     7
 65
   257
 75
     2
175
     1
 42
40.0
 92
        0
 66
   257
 43
1.0
 76
     1
 77
     6
 78
     2
 67
     7
 79
     3
170
     0
171
     0
290
     0
174
     0
 93
        1
 44
0.0
173
     0
291
     0
 45
0.0
1001
ACAD
1000
AcDbSavedByObjectVersion
1070
     0
  0
VISUALSTYLE
  5
106ABD1
102
{ACAD_REACTORS
330
106ABC0
102
}
102
{ACAD_XDICTIONARY
360
106AC4E
102
}
330
106ABC0
100
AcDbVisualStyle
  2
JitterOff
 70
    20
 71
     2
 72
     2
 73
     0
 90
        0
 40
0.6
 41
30.0
 62
     5
 63
     7
 74
     1
 91
        4
 64
     7
 65
   257
 75
     1
175
     1
 42
1.0
 92
       10
 66
     7
 43
1.0
 76
     1
 77
     6
 78
     2
 67
     7
 79
     5
170
     0
171
     0
290
     0
174
     0
 93
        1
 44
0.0
173
     0
291
     1
 45
0.0
1001
ACAD
1000
AcDbSavedByObjectVersion
1070
     0
  0
VISUALSTYLE
  5
106ABCE
102
{ACAD_REACTORS
330
106ABC0
102
}
102
{ACAD_XDICTIONARY
360
106AC48
102
}
330
106ABC0
100
AcDbVisualStyle
  2
Linepattern
 70
    14
 71
     2
 72
     2
 73
     0
 90
        0
 40
0.6
 41
30.0
 62
     5
 63
     7
 74
     1
 91
        4
 64
     7
 65
   257
 75
     7
175
     7
 42
1.0
 92
        8
 66
     7
 43
1.0
 76
     1
 77
     6
 78
     2
 67
     7
 79
     5
170
     0
171
     0
290
     0
174
     0
 93
        1
 44
0.0
173
     0
291
     1
 45
0.0
1001
ACAD
1000
AcDbSavedByObjectVersion
1070
     0
  0
VISUALSTYLE
  5
106ABD2
102
{ACAD_REACTORS
330
106ABC0
102
}
102
{ACAD_XDICTIONARY
360
106AC50
102
}
330
106ABC0
100
AcDbVisualStyle
  2
OverhangOff
 70
    21
 71
     2
 72
     2
 73
     0
 90
        0
 40
0.6
 41
30.0
 62
     5
 63
     7
 74
     1
 91
        4
 64
     7
 65
   257
 75
     1
175
     1
 42
1.0
 92
        9
 66
     7
 43
1.0
 76
     1
 77
     6
 78
     2
 67
     7
 79
     5
170
     0
171
     0
290
     0
174
     0
 93
        1
 44
0.0
173
     0
291
     1
 45
0.0
1001
ACAD
1000
AcDbSavedByObjectVersion
1070
     0
  0
VISUALSTYLE
  5
106ABC9
102
{ACAD_REACTORS
330
106ABC0
102
}
102
{ACAD_XDICTIONARY
360
106AC3E
102
}
330
106ABC0
100
AcDbVisualStyle
  2
Realistic
 70
     8
 71
     2
 72
     3
 73
     0
 90
        2
 40
0.6
 41
30.0
 62
     5
 63
     7
 74
     0
 91
        0
 64
     7
 65
   257
 75
     1
175
     1
 42
1.0
 92
        8
 66
   257
 43
1.0
 76
     1
 77
     6
 78
     2
 67
     7
 79
     3
170
     0
171
     0
290
     0
174
     0
 93
       13
 44
0.0
173
     0
291
     0
 45
0.0
1001
ACAD
1000
AcDbSavedByObjectVersion
1070
     0
  0
VISUALSTYLE
  5
106ABD8
102
{ACAD_REACTORS
330
106ABC0
102
}
102
{ACAD_XDICTIONARY
360
106AC5C
102
}
330
106ABC0
100
AcDbVisualStyle
  2
Shaded
 70
    27
 71
     2
 72
     2
 73
     1
 90
        2
 40
0.6
 41
30.0
 62
     5
 63
     7
 74
     0
 91
        4
 64
     7
 65
   257
 75
     1
175
     1
 42
1.0
 92
        8
 66
   257
 43
1.0
 76
     1
 77
     6
 78
     2
 67
     8
 79
     3
170
     0
171
     0
290
     0
174
     0
 93
        5
 44
0.0
173
     0
291
     0
 45
0.0
1001
ACAD
1000
AcDbSavedByObjectVersion
1070
     0
  0
VISUALSTYLE
  5
106ABD7
102
{ACAD_REACTORS
330
106ABC0
102
}
102
{ACAD_XDICTIONARY
360
106AC5A
102
}
330
106ABC0
100
AcDbVisualStyle
  2
Shaded with edges
 70
    26
 71
     2
 72
     2
 73
     1
 90
        2
 40
0.6
 41
30.0
 62
     5
 63
     7
 74
     1
 91
       10
 64
     7
 65
   257
 75
     2
175
     1
 42
1.0
 92
        8
 66
   257
 43
1.0
 76
     1
 77
     6
 78
     2
 67
     7
 79
     3
170
     0
171
     0
290
     0
174
     0
 93
        5
 44
0.0
173
     0
291
     0
 45
0.0
1001
ACAD
1000
AcDbSavedByObjectVersion
1070
     0
  0
VISUALSTYLE
  5
106ABD4
102
{ACAD_REACTORS
330
106ABC0
102
}
102
{ACAD_XDICTIONARY
360
106AC54
102
}
330
106ABC0
100
AcDbVisualStyle
  2
Shades of Gray
 70
    23
 71
     2
 72
     2
 73
     3
 90
        0
 40
0.6
 41
30.0
 62
     5
 63
     7
 74
     2
 91
        2
 64
     7
 65
     7
 75
     1
175
     1
 42
40.0
 92
        8
 66
     7
 43
1.0
 76
     1
 77
     6
 78
     2
 67
     7
 79
     3
170
     0
171
     0
290
     0
174
     0
 93
        1
 44
0.0
173
     0
291
     0
 45
0.0
1001
ACAD
1000
AcDbSavedByObjectVersion
1070
     0
  0
VISUALSTYLE
  5
106ABD5
102
{ACAD_REACTORS
330
106ABC0
102
}
102
{ACAD_XDICTIONARY
360
106AC56
102
}
330
106ABC0
100
AcDbVisualStyle
  2
Sketchy
 70
    24
 71
     1
 72
     2
 73
     2
 90
        0
 40
0.6
 41
30.0
 62
     5
 63
     7
 74
     2
 91
        2
 64
     7
 65
     7
 75
     1
175
     1
 42
40.0
 92
       11
 66
     7
 43
1.0
 76
     1
 77
     6
 78
     2
 67
     7
 79
     6
170
     0
171
     0
290
     0
174
     0
 93
        1
 44
0.0
173
     0
291
     0
 45
0.0
1001
ACAD
1000
AcDbSavedByObjectVersion
1070
     0
  0
VISUALSTYLE
  5
106ABCD
102
{ACAD_REACTORS
330
106ABC0
102
}
102
{ACAD_XDICTIONARY
360
106AC46
102
}
330
106ABC0
100
AcDbVisualStyle
  2
Thicken
 70
    13
 71
     2
 72
     2
 73
     0
 90
        0
 40
0.6
 41
30.0
 62
     5
 63
     7
 74
     1
 91
        4
 64
     7
 65
   257
 75
     1
175
     1
 42
1.0
 92
       12
 66
     7
 43
1.0
 76
     1
 77
     6
 78
     2
 67
     7
 79
     5
170
     0
171
     0
290
     0
174
     0
 93
        1
 44
0.0
173
     0
291
     1
 45
0.0
1001
ACAD
1000
AcDbSavedByObjectVersion
1070
     0
  0
VISUALSTYLE
  5
106ABC6
102
{ACAD_REACTORS
330
106ABC0
102
}
102
{ACAD_XDICTIONARY
360
106AC38
102
}
330
106ABC0
100
AcDbVisualStyle
  2
Wireframe
 70
     5
 71
     0
 72
     2
 73
     0
 90
        0
 40
0.6
 41
30.0
 62
     5
 63
     7
 74
     1
 91
        4
 64
     7
 65
   257
 75
     1
175
     1
 42
1.0
 92
        0
 66
   257
 43
1.0
 76
     1
 77
     6
 78
     2
 67
     7
 79
     3
170
     0
171
     0
290
     0
174
     0
 93
        1
 44
0.0
173
     0
291
     0
 45
0.0
1001
ACAD
1000
AcDbSavedByObjectVersion
1070
     0
  0
VISUALSTYLE
  5
106ABD6
102
{ACAD_REACTORS
330
106ABC0
102
}
102
{ACAD_XDICTIONARY
360
106AC58
102
}
330
106ABC0
100
AcDbVisualStyle
  2
X-Ray
 70
    25
 71
     2
 72
     2
 73
     1
 90
        1
 40
0.5
 41
30.0
 62
     5
 63
     7
 74
     1
 91
        0
 64
     7
 65
   257
 75
     1
175
     1
 42
1.0
 92
        8
 66
     7
 43
1.0
 76
     1
 77
     6
 78
     2
 67
     7
 79
     3
170
     0
171
     0
290
     0
174
     0
 93
       13
 44
0.0
173
     0
291
     0
 45
0.0
1001
ACAD
1000
AcDbSavedByObjectVersion
1070
     0
  0
DICTIONARYVAR
  5
106AC26
102
{ACAD_REACTORS
330
106AC1C
102
}
330
106AC1C
100
DictionaryVariables
280
     0
  1
1:1
  0
DICTIONARYVAR
  5
106AC1E
102
{ACAD_REACTORS
330
106AC1C
102
}
330
106AC1C
100
DictionaryVariables
280
     0
  1
Standard
  0
DICTIONARYVAR
  5
106AC1D
102
{ACAD_REACTORS
330
106AC1C
102
}
330
106AC1C
100
DictionaryVariables
280
     0
  1
Standard
  0
DICTIONARYVAR
  5
106AC21
102
{ACAD_REACTORS
330
106AC1C
102
}
330
106AC1C
100
DictionaryVariables
280
     0
  1
2
  0
DICTIONARYVAR
  5
106AC22
102
{ACAD_REACTORS
330
106AC1C
102
}
330
106AC1C
100
DictionaryVariables
280
     0
  1
1
  0
DICTIONARYVAR
  5
106AC27
102
{ACAD_REACTORS
330
106AC1C
102
}
330
106AC1C
100
DictionaryVariables
280
     0
  1
1
  0
DICTIONARY
  5
106AC2A
330
106ABBE
100
AcDbDictionary
280
     1
281
     1
  3
ACAD_XREC_ROUNDTRIP
360
106AC2B
  0
DICTIONARY
  5
106AC28
330
106ABBD
100
AcDbDictionary
280
     1
281
     1
  3
ACAD_XREC_ROUNDTRIP
360
106AC29
  0
DICTIONARY
  5
106AC2C
330
106ABBF
100
AcDbDictionary
280
     1
281
     1
  3
ACAD_XREC_ROUNDTRIP
360
106AC2D
  0
DICTIONARY
  5
106AC5F
330
106ABDC
100
AcDbDictionary
280
     1
281
     1
  3
ACAD_XREC_ROUNDTRIP
360
106AC60
  0
DICTIONARY
  5
106AC36
330
106ABC5
100
AcDbDictionary
280
     1
281
     1
  3
ACAD_XREC_ROUNDTRIP
360
106AC37
  0
DICTIONARY
  5
106AC3C
330
106ABC8
100
AcDbDictionary
280
     1
281
     1
  3
ACAD_XREC_ROUNDTRIP
360
106AC3D
  0
DICTIONARY
  5
106AC44
330
106ABCC
100
AcDbDictionary
280
     1
281
     1
  3
ACAD_XREC_ROUNDTRIP
360
106AC45
  0
DICTIONARY
  5
106AC4C
330
106ABD0
100
AcDbDictionary
280
     1
281
     1
  3
ACAD_XREC_ROUNDTRIP
360
106AC4D
  0
DICTIONARY
  5
106AC40
330
106ABCA
100
AcDbDictionary
280
     1
281
     1
  3
ACAD_XREC_ROUNDTRIP
360
106AC41
  0
DICTIONARY
  5
106AC42
330
106ABCB
100
AcDbDictionary
280
     1
281
     1
  3
ACAD_XREC_ROUNDTRIP
360
106AC43
  0
DICTIONARY
  5
106AC52
330
106ABD3
100
AcDbDictionary
280
     1
281
     1
  3
ACAD_XREC_ROUNDTRIP
360
106AC53
  0
DICTIONARY
  5
106AC4A
330
106ABCF
100
AcDbDictionary
280
     1
281
     1
  3
ACAD_XREC_ROUNDTRIP
360
106AC4B
  0
DICTIONARY
  5
106AC2E
330
106ABC1
100
AcDbDictionary
280
     1
281
     1
  3
ACAD_XREC_ROUNDTRIP
360
106AC2F
  0
DICTIONARY
  5
106AC30
330
106ABC2
100
AcDbDictionary
280
     1
281
     1
  3
ACAD_XREC_ROUNDTRIP
360
106AC31
  0
DICTIONARY
  5
106AC32
330
106ABC3
100
AcDbDictionary
280
     1
281
     1
  3
ACAD_XREC_ROUNDTRIP
360
106AC33
  0
DICTIONARY
  5
106AC34
330
106ABC4
100
AcDbDictionary
280
     1
281
     1
  3
ACAD_XREC_ROUNDTRIP
360
106AC35
  0
DICTIONARY
  5
106AC3A
330
106ABC7
100
AcDbDictionary
280
     1
281
     1
  3
ACAD_XREC_ROUNDTRIP
360
106AC3B
  0
DICTIONARY
  5
106AC4E
330
106ABD1
100
AcDbDictionary
280
     1
281
     1
  3
ACAD_XREC_ROUNDTRIP
360
106AC4F
  0
DICTIONARY
  5
106AC48
330
106ABCE
100
AcDbDictionary
280
     1
281
     1
  3
ACAD_XREC_ROUNDTRIP
360
106AC49
  0
DICTIONARY
  5
106AC50
330
106ABD2
100
AcDbDictionary
280
     1
281
     1
  3
ACAD_XREC_ROUNDTRIP
360
106AC51
  0
DICTIONARY
  5
106AC3E
330
106ABC9
100
AcDbDictionary
280
     1
281
     1
  3
ACAD_XREC_ROUNDTRIP
360
106AC3F
  0
DICTIONARY
  5
106AC5C
330
106ABD8
100
AcDbDictionary
280
     1
281
     1
  3
ACAD_XREC_ROUNDTRIP
360
106AC5D
  0
DICTIONARY
  5
106AC5A
330
106ABD7
100
AcDbDictionary
280
     1
281
     1
  3
ACAD_XREC_ROUNDTRIP
360
106AC5B
  0
DICTIONARY
  5
106AC54
330
106ABD4
100
AcDbDictionary
280
     1
281
     1
  3
ACAD_XREC_ROUNDTRIP
360
106AC55
  0
DICTIONARY
  5
106AC56
330
106ABD5
100
AcDbDictionary
280
     1
281
     1
  3
ACAD_XREC_ROUNDTRIP
360
106AC57
  0
DICTIONARY
  5
106AC46
330
106ABCD
100
AcDbDictionary
280
     1
281
     1
  3
ACAD_XREC_ROUNDTRIP
360
106AC47
  0
DICTIONARY
  5
106AC38
330
106ABC6
100
AcDbDictionary
280
     1
281
     1
  3
ACAD_XREC_ROUNDTRIP
360
106AC39
  0
DICTIONARY
  5
106AC58
330
106ABD6
100
AcDbDictionary
280
     1
281
     1
  3
ACAD_XREC_ROUNDTRIP
360
106AC59
  0
XRECORD
  5
106AC2B
102
{ACAD_REACTORS
330
106AC2A
102
}
330
106AC2A
100
AcDbXrecord
280
     1
102
MATERIAL
148
0.0
149
0.0
149
0.0
 93
        0
 94
      127
282
     0
 72
     1
 77
     1
171
     1
175
     1
179
     1
273
     0
  0
XRECORD
  5
106AC29
102
{ACAD_REACTORS
330
106AC28
102
}
330
106AC28
100
AcDbXrecord
280
     1
102
MATERIAL
148
0.0
149
0.0
149
0.0
 93
        0
 94
      127
282
     0
 72
     1
 77
     1
171
     1
175
     1
179
     1
273
     0
  0
XRECORD
  5
106AC2D
102
{ACAD_REACTORS
330
106AC2C
102
}
330
106AC2C
100
AcDbXrecord
280
     1
102
MATERIAL
148
0.0
149
0.0
149
0.0
 93
        0
 94
      127
282
     0
 72
     1
 77
     1
171
     1
175
     1
179
     1
273
     0
  0
XRECORD
  5
106AC60
102
{ACAD_REACTORS
330
106AC5F
102
}
330
106AC5F
100
AcDbXrecord
280
     1
102
ACAD_ROUNDTRIP_2010_MLEADER_STYLE
  0
XRECORD
  5
106AC37
102
{ACAD_REACTORS
330
106AC36
102
}
330
106AC36
100
AcDbXrecord
280
     1
102
RTVSPropertyOp0
 70
     1
102
RTVSPropertyOp1
 70
     1
102
RTVSPropertyOp2
 70
     1
102
RTVSPropertyOp3
 70
     1
102
RTVSPropertyOp4
 70
     1
102
RTVSPropertyOp5
 70
     1
102
RTVSPropertyOp6
 70
     1
102
RTVSPropertyOp7
 70
     1
102
RTVSPropertyOp8
 70
     1
102
RTVSPropertyOp9
 70
     1
102
RTVSPropertyOp10
 70
     1
102
RTVSPropertyOp11
 70
     1
102
RTVSPropertyOp12
 70
     1
102
RTVSPropertyOp13
 70
     1
102
RTVSPropertyOp14
 70
     1
102
RTVSPropertyOp15
 70
     1
102
RTVSPropertyOp16
 70
     1
102
RTVSPropertyOp17
 70
     1
102
RTVSPropertyOp18
 70
     1
102
RTVSPropertyOp19
 70
     1
102
RTVSPropertyOp20
 70
     1
102
RTVSPropertyOp21
 70
     1
102
RTVSPropertyOp22
 70
     1
102
RTVSPropertyOp23
 70
     1
102
RTVSPropertyOp24
 70
     1
102
RTVSPropertyOp25
 70
     1
102
RTVSPropertyOp26
 70
     1
102
RTVSPropertyOp27
 70
     1
102
RTVSPropertyOp28
 70
     1
102
RTVSPropertyOp29
 70
     1
102
RTVSPropertyOp30
 70
     1
102
RTVSPropertyOp31
 70
     1
102
RTVSPropertyOp32
 70
     1
102
RTVSPropertyOp33
 70
     1
102
RTVSPropertyOp34
 70
     1
102
RTVSPropertyOp35
 70
     1
102
RTVSPropertyOp36
 70
     1
102
RTVSPropertyOp37
 70
     1
102
RTVSPropertyOp38
 70
     1
102
RTVSPropertyOp39
 70
     1
102
RTVSPropertyOp40
 70
     1
102
RTVSPropertyOp41
 70
     1
102
RTVSPropertyOp42
 70
     1
102
RTVSPropertyOp43
 70
     1
102
RTVSPropertyOp44
 70
     1
102
RTVSPropertyOp45
 70
     1
102
RTVSPropertyOp46
 70
     1
102
RTVSPropertyOp47
 70
     1
102
RTVSPropertyOp48
 70
     1
102
RTVSPropertyOp49
 70
     1
102
RTVSPropertyOp50
 70
     1
102
RTVSPropertyOp51
 70
     0
102
RTVSPropertyOp52
 70
     0
102
RTVSPropertyOp53
 70
     1
102
RTVSPropertyOp54
 70
     1
102
RTVSPropertyOp55
 70
     1
102
RTVSPropertyOp56
 70
     1
102
RTVSPropertyOp57
 70
     1
102
RTVSPost2010Prop28
280
     1
102
RTVSPost2010PropOp28
 70
     1
102
RTVSPost2010Prop29
280
     1
102
RTVSPost2010PropOp29
 70
     1
102
RTVSPost2010Prop30
280
     0
102
RTVSPost2010PropOp30
 70
     1
102
RTVSPost2010Prop31
280
     0
102
RTVSPost2010PropOp31
 70
     1
102
RTVSPost2010Prop32
280
     0
102
RTVSPost2010PropOp32
 70
     1
102
RTVSPost2010Prop33
280
     0
102
RTVSPost2010PropOp33
 70
     1
102
RTVSPost2010Prop34
280
     0
102
RTVSPost2010PropOp34
 70
     1
102
RTVSPost2010Prop35
280
     0
102
RTVSPost2010PropOp35
 70
     1
102
RTVSPost2010Prop36
280
     0
102
RTVSPost2010PropOp36
 70
     1
102
RTVSPost2010Prop37
 90
       50
102
RTVSPost2010PropOp37
 70
     1
102
RTVSPost2010Prop38
140
0.0
102
RTVSPost2010PropOp38
 70
     1
102
RTVSPost2010Prop39
140
1.0
102
RTVSPost2010PropOp39
 70
     1
102
RTVSPost2010Prop40
 90
        0
102
RTVSPost2010PropOp40
 70
     1
102
RTVSPost2010Prop41ColorIndex
 90
       18
102
RTVSPost2010Prop41ColorRGB
 90
        0
102
RTVSPost2010PropOp41
 70
     1
102
RTVSPost2010Prop42
 90
       50
102
RTVSPost2010PropOp42
 70
     1
102
RTVSPost2010Prop43
 90
        3
102
RTVSPost2010PropOp43
 70
     1
102
RTVSPost2010Prop44ColorIndex
 90
        5
102
RTVSPost2010Prop44ColorRGB
 90
      255
102
RTVSPost2010PropOp44
 70
     1
102
RTVSPost2010Prop45
280
     0
102
RTVSPost2010PropOp45
 70
     1
102
RTVSPost2010Prop46
 90
       50
102
RTVSPost2010PropOp46
 70
     1
102
RTVSPost2010Prop47
 90
       50
102
RTVSPost2010PropOp47
 70
     1
102
RTVSPost2010Prop48
 90
       50
102
RTVSPost2010PropOp48
 70
     1
102
RTVSPost2010Prop49
280
     0
102
RTVSPost2010PropOp49
 70
     1
102
RTVSPost2010Prop50
 90
       50
102
RTVSPost2010PropOp50
 70
     1
102
RTVSPost2010Prop51ColorIndex
 90
      256
102
RTVSPost2010Prop51ColorRGB
 90
-16777216
102
RTVSPost2010PropOp51
 70
     0
102
RTVSPost2010Prop52
140
1.0
102
RTVSPost2010PropOp52
 70
     0
102
RTVSPost2010Prop53
 90
        2
102
RTVSPost2010PropOp53
 70
     1
102
RTVSPost2010Prop54
  1
strokes_ogs.tif
102
RTVSPost2010PropOp54
 70
     1
102
RTVSPost2010Prop55
280
     0
102
RTVSPost2010PropOp55
 70
     1
102
RTVSPost2010Prop56
140
1.0
102
RTVSPost2010PropOp56
 70
     1
102
RTVSPost2010Prop57
140
1.0
102
RTVSPost2010PropOp57
 70
     1
  0
XRECORD
  5
106AC3D
102
{ACAD_REACTORS
330
106AC3C
102
}
330
106AC3C
100
AcDbXrecord
280
     1
102
RTVSPropertyOp0
 70
     1
102
RTVSPropertyOp1
 70
     1
102
RTVSPropertyOp2
 70
     1
102
RTVSPropertyOp3
 70
     1
102
RTVSPropertyOp4
 70
     1
102
RTVSPropertyOp5
 70
     1
102
RTVSPropertyOp6
 70
     1
102
RTVSPropertyOp7
 70
     1
102
RTVSPropertyOp8
 70
     1
102
RTVSPropertyOp9
 70
     1
102
RTVSPropertyOp10
 70
     1
102
RTVSPropertyOp11
 70
     1
102
RTVSPropertyOp12
 70
     1
102
RTVSPropertyOp13
 70
     1
102
RTVSPropertyOp14
 70
     1
102
RTVSPropertyOp15
 70
     1
102
RTVSPropertyOp16
 70
     1
102
RTVSPropertyOp17
 70
     1
102
RTVSPropertyOp18
 70
     1
102
RTVSPropertyOp19
 70
     1
102
RTVSPropertyOp20
 70
     1
102
RTVSPropertyOp21
 70
     1
102
RTVSPropertyOp22
 70
     1
102
RTVSPropertyOp23
 70
     1
102
RTVSPropertyOp24
 70
     1
102
RTVSPropertyOp25
 70
     1
102
RTVSPropertyOp26
 70
     1
102
RTVSPropertyOp27
 70
     1
102
RTVSPropertyOp28
 70
     1
102
RTVSPropertyOp29
 70
     1
102
RTVSPropertyOp30
 70
     1
102
RTVSPropertyOp31
 70
     1
102
RTVSPropertyOp32
 70
     1
102
RTVSPropertyOp33
 70
     1
102
RTVSPropertyOp34
 70
     1
102
RTVSPropertyOp35
 70
     1
102
RTVSPropertyOp36
 70
     1
102
RTVSPropertyOp37
 70
     1
102
RTVSPropertyOp38
 70
     1
102
RTVSPropertyOp39
 70
     1
102
RTVSPropertyOp40
 70
     1
102
RTVSPropertyOp41
 70
     1
102
RTVSPropertyOp42
 70
     1
102
RTVSPropertyOp43
 70
     1
102
RTVSPropertyOp44
 70
     1
102
RTVSPropertyOp45
 70
     1
102
RTVSPropertyOp46
 70
     1
102
RTVSPropertyOp47
 70
     1
102
RTVSPropertyOp48
 70
     1
102
RTVSPropertyOp49
 70
     1
102
RTVSPropertyOp50
 70
     1
102
RTVSPropertyOp51
 70
     0
102
RTVSPropertyOp52
 70
     0
102
RTVSPropertyOp53
 70
     1
102
RTVSPropertyOp54
 70
     1
102
RTVSPropertyOp55
 70
     1
102
RTVSPropertyOp56
 70
     1
102
RTVSPropertyOp57
 70
     1
102
RTVSPost2010Prop28
280
     0
102
RTVSPost2010PropOp28
 70
     1
102
RTVSPost2010Prop29
280
     1
102
RTVSPost2010PropOp29
 70
     1
102
RTVSPost2010Prop30
280
     1
102
RTVSPost2010PropOp30
 70
     1
102
RTVSPost2010Prop31
280
     0
102
RTVSPost2010PropOp31
 70
     1
102
RTVSPost2010Prop32
280
     0
102
RTVSPost2010PropOp32
 70
     1
102
RTVSPost2010Prop33
280
     0
102
RTVSPost2010PropOp33
 70
     1
102
RTVSPost2010Prop34
280
     0
102
RTVSPost2010PropOp34
 70
     1
102
RTVSPost2010Prop35
280
     0
102
RTVSPost2010PropOp35
 70
     1
102
RTVSPost2010Prop36
280
     0
102
RTVSPost2010PropOp36
 70
     1
102
RTVSPost2010Prop37
 90
       50
102
RTVSPost2010PropOp37
 70
     1
102
RTVSPost2010Prop38
140
0.0
102
RTVSPost2010PropOp38
 70
     1
102
RTVSPost2010Prop39
140
1.0
102
RTVSPost2010PropOp39
 70
     1
102
RTVSPost2010Prop40
 90
        0
102
RTVSPost2010PropOp40
 70
     1
102
RTVSPost2010Prop41ColorIndex
 90
       18
102
RTVSPost2010Prop41ColorRGB
 90
        0
102
RTVSPost2010PropOp41
 70
     1
102
RTVSPost2010Prop42
 90
       50
102
RTVSPost2010PropOp42
 70
     1
102
RTVSPost2010Prop43
 90
        3
102
RTVSPost2010PropOp43
 70
     1
102
RTVSPost2010Prop44ColorIndex
 90
        5
102
RTVSPost2010Prop44ColorRGB
 90
      255
102
RTVSPost2010PropOp44
 70
     1
102
RTVSPost2010Prop45
280
     0
102
RTVSPost2010PropOp45
 70
     1
102
RTVSPost2010Prop46
 90
       50
102
RTVSPost2010PropOp46
 70
     1
102
RTVSPost2010Prop47
 90
       50
102
RTVSPost2010PropOp47
 70
     1
102
RTVSPost2010Prop48
 90
       50
102
RTVSPost2010PropOp48
 70
     1
102
RTVSPost2010Prop49
280
     0
102
RTVSPost2010PropOp49
 70
     1
102
RTVSPost2010Prop50
 90
       50
102
RTVSPost2010PropOp50
 70
     1
102
RTVSPost2010Prop51ColorIndex
 90
      256
102
RTVSPost2010Prop51ColorRGB
 90
-16777216
102
RTVSPost2010PropOp51
 70
     0
102
RTVSPost2010Prop52
140
1.0
102
RTVSPost2010PropOp52
 70
     0
102
RTVSPost2010Prop53
 90
        2
102
RTVSPost2010PropOp53
 70
     1
102
RTVSPost2010Prop54
  1
strokes_ogs.tif
102
RTVSPost2010PropOp54
 70
     1
102
RTVSPost2010Prop55
280
     0
102
RTVSPost2010PropOp55
 70
     1
102
RTVSPost2010Prop56
140
1.0
102
RTVSPost2010PropOp56
 70
     1
102
RTVSPost2010Prop57
140
1.0
102
RTVSPost2010PropOp57
 70
     1
  0
XRECORD
  5
106AC45
102
{ACAD_REACTORS
330
106AC44
102
}
330
106AC44
100
AcDbXrecord
280
     1
102
RTVSPropertyOp0
 70
     1
102
RTVSPropertyOp1
 70
     1
102
RTVSPropertyOp2
 70
     1
102
RTVSPropertyOp3
 70
     1
102
RTVSPropertyOp4
 70
     1
102
RTVSPropertyOp5
 70
     1
102
RTVSPropertyOp6
 70
     1
102
RTVSPropertyOp7
 70
     1
102
RTVSPropertyOp8
 70
     1
102
RTVSPropertyOp9
 70
     1
102
RTVSPropertyOp10
 70
     1
102
RTVSPropertyOp11
 70
     1
102
RTVSPropertyOp12
 70
     1
102
RTVSPropertyOp13
 70
     1
102
RTVSPropertyOp14
 70
     1
102
RTVSPropertyOp15
 70
     1
102
RTVSPropertyOp16
 70
     1
102
RTVSPropertyOp17
 70
     1
102
RTVSPropertyOp18
 70
     1
102
RTVSPropertyOp19
 70
     1
102
RTVSPropertyOp20
 70
     1
102
RTVSPropertyOp21
 70
     1
102
RTVSPropertyOp22
 70
     1
102
RTVSPropertyOp23
 70
     1
102
RTVSPropertyOp24
 70
     1
102
RTVSPropertyOp25
 70
     1
102
RTVSPropertyOp26
 70
     1
102
RTVSPropertyOp27
 70
     1
102
RTVSPropertyOp28
 70
     1
102
RTVSPropertyOp29
 70
     1
102
RTVSPropertyOp30
 70
     1
102
RTVSPropertyOp31
 70
     1
102
RTVSPropertyOp32
 70
     1
102
RTVSPropertyOp33
 70
     1
102
RTVSPropertyOp34
 70
     1
102
RTVSPropertyOp35
 70
     1
102
RTVSPropertyOp36
 70
     1
102
RTVSPropertyOp37
 70
     1
102
RTVSPropertyOp38
 70
     1
102
RTVSPropertyOp39
 70
     1
102
RTVSPropertyOp40
 70
     1
102
RTVSPropertyOp41
 70
     1
102
RTVSPropertyOp42
 70
     1
102
RTVSPropertyOp43
 70
     1
102
RTVSPropertyOp44
 70
     1
102
RTVSPropertyOp45
 70
     1
102
RTVSPropertyOp46
 70
     1
102
RTVSPropertyOp47
 70
     1
102
RTVSPropertyOp48
 70
     1
102
RTVSPropertyOp49
 70
     1
102
RTVSPropertyOp50
 70
     1
102
RTVSPropertyOp51
 70
     0
102
RTVSPropertyOp52
 70
     0
102
RTVSPropertyOp53
 70
     1
102
RTVSPropertyOp54
 70
     1
102
RTVSPropertyOp55
 70
     1
102
RTVSPropertyOp56
 70
     1
102
RTVSPropertyOp57
 70
     1
102
RTVSPost2010Prop28
280
     0
102
RTVSPost2010PropOp28
 70
     1
102
RTVSPost2010Prop29
280
     1
102
RTVSPost2010PropOp29
 70
     1
102
RTVSPost2010Prop30
280
     1
102
RTVSPost2010PropOp30
 70
     1
102
RTVSPost2010Prop31
280
     0
102
RTVSPost2010PropOp31
 70
     1
102
RTVSPost2010Prop32
280
     0
102
RTVSPost2010PropOp32
 70
     1
102
RTVSPost2010Prop33
280
     0
102
RTVSPost2010PropOp33
 70
     1
102
RTVSPost2010Prop34
280
     0
102
RTVSPost2010PropOp34
 70
     1
102
RTVSPost2010Prop35
280
     0
102
RTVSPost2010PropOp35
 70
     1
102
RTVSPost2010Prop36
280
     0
102
RTVSPost2010PropOp36
 70
     1
102
RTVSPost2010Prop37
 90
       50
102
RTVSPost2010PropOp37
 70
     1
102
RTVSPost2010Prop38
140
0.0
102
RTVSPost2010PropOp38
 70
     1
102
RTVSPost2010Prop39
140
1.0
102
RTVSPost2010PropOp39
 70
     1
102
RTVSPost2010Prop40
 90
        0
102
RTVSPost2010PropOp40
 70
     1
102
RTVSPost2010Prop41ColorIndex
 90
       18
102
RTVSPost2010Prop41ColorRGB
 90
        0
102
RTVSPost2010PropOp41
 70
     1
102
RTVSPost2010Prop42
 90
       50
102
RTVSPost2010PropOp42
 70
     1
102
RTVSPost2010Prop43
 90
        3
102
RTVSPost2010PropOp43
 70
     1
102
RTVSPost2010Prop44ColorIndex
 90
        5
102
RTVSPost2010Prop44ColorRGB
 90
      255
102
RTVSPost2010PropOp44
 70
     1
102
RTVSPost2010Prop45
280
     0
102
RTVSPost2010PropOp45
 70
     1
102
RTVSPost2010Prop46
 90
       50
102
RTVSPost2010PropOp46
 70
     1
102
RTVSPost2010Prop47
 90
       50
102
RTVSPost2010PropOp47
 70
     1
102
RTVSPost2010Prop48
 90
       50
102
RTVSPost2010PropOp48
 70
     1
102
RTVSPost2010Prop49
280
     0
102
RTVSPost2010PropOp49
 70
     1
102
RTVSPost2010Prop50
 90
       50
102
RTVSPost2010PropOp50
 70
     1
102
RTVSPost2010Prop51ColorIndex
 90
      256
102
RTVSPost2010Prop51ColorRGB
 90
-16777216
102
RTVSPost2010PropOp51
 70
     0
102
RTVSPost2010Prop52
140
1.0
102
RTVSPost2010PropOp52
 70
     0
102
RTVSPost2010Prop53
 90
        2
102
RTVSPost2010PropOp53
 70
     1
102
RTVSPost2010Prop54
  1
strokes_ogs.tif
102
RTVSPost2010PropOp54
 70
     1
102
RTVSPost2010Prop55
280
     0
102
RTVSPost2010PropOp55
 70
     1
102
RTVSPost2010Prop56
140
1.0
102
RTVSPost2010PropOp56
 70
     1
102
RTVSPost2010Prop57
140
1.0
102
RTVSPost2010PropOp57
 70
     1
  0
XRECORD
  5
106AC4D
102
{ACAD_REACTORS
330
106AC4C
102
}
330
106AC4C
100
AcDbXrecord
280
     1
102
RTVSPropertyOp0
 70
     1
102
RTVSPropertyOp1
 70
     1
102
RTVSPropertyOp2
 70
     1
102
RTVSPropertyOp3
 70
     1
102
RTVSPropertyOp4
 70
     1
102
RTVSPropertyOp5
 70
     1
102
RTVSPropertyOp6
 70
     1
102
RTVSPropertyOp7
 70
     1
102
RTVSPropertyOp8
 70
     1
102
RTVSPropertyOp9
 70
     1
102
RTVSPropertyOp10
 70
     1
102
RTVSPropertyOp11
 70
     1
102
RTVSPropertyOp12
 70
     1
102
RTVSPropertyOp13
 70
     1
102
RTVSPropertyOp14
 70
     1
102
RTVSPropertyOp15
 70
     1
102
RTVSPropertyOp16
 70
     1
102
RTVSPropertyOp17
 70
     1
102
RTVSPropertyOp18
 70
     1
102
RTVSPropertyOp19
 70
     1
102
RTVSPropertyOp20
 70
     1
102
RTVSPropertyOp21
 70
     1
102
RTVSPropertyOp22
 70
     1
102
RTVSPropertyOp23
 70
     1
102
RTVSPropertyOp24
 70
     1
102
RTVSPropertyOp25
 70
     1
102
RTVSPropertyOp26
 70
     1
102
RTVSPropertyOp27
 70
     1
102
RTVSPropertyOp28
 70
     1
102
RTVSPropertyOp29
 70
     1
102
RTVSPropertyOp30
 70
     1
102
RTVSPropertyOp31
 70
     1
102
RTVSPropertyOp32
 70
     1
102
RTVSPropertyOp33
 70
     1
102
RTVSPropertyOp34
 70
     1
102
RTVSPropertyOp35
 70
     1
102
RTVSPropertyOp36
 70
     1
102
RTVSPropertyOp37
 70
     1
102
RTVSPropertyOp38
 70
     1
102
RTVSPropertyOp39
 70
     1
102
RTVSPropertyOp40
 70
     1
102
RTVSPropertyOp41
 70
     1
102
RTVSPropertyOp42
 70
     1
102
RTVSPropertyOp43
 70
     1
102
RTVSPropertyOp44
 70
     1
102
RTVSPropertyOp45
 70
     1
102
RTVSPropertyOp46
 70
     1
102
RTVSPropertyOp47
 70
     1
102
RTVSPropertyOp48
 70
     1
102
RTVSPropertyOp49
 70
     1
102
RTVSPropertyOp50
 70
     1
102
RTVSPropertyOp51
 70
     0
102
RTVSPropertyOp52
 70
     0
102
RTVSPropertyOp53
 70
     1
102
RTVSPropertyOp54
 70
     1
102
RTVSPropertyOp55
 70
     1
102
RTVSPropertyOp56
 70
     1
102
RTVSPropertyOp57
 70
     1
102
RTVSPost2010Prop28
280
     0
102
RTVSPost2010PropOp28
 70
     1
102
RTVSPost2010Prop29
280
     1
102
RTVSPost2010PropOp29
 70
     1
102
RTVSPost2010Prop30
280
     1
102
RTVSPost2010PropOp30
 70
     1
102
RTVSPost2010Prop31
280
     0
102
RTVSPost2010PropOp31
 70
     1
102
RTVSPost2010Prop32
280
     0
102
RTVSPost2010PropOp32
 70
     1
102
RTVSPost2010Prop33
280
     0
102
RTVSPost2010PropOp33
 70
     1
102
RTVSPost2010Prop34
280
     0
102
RTVSPost2010PropOp34
 70
     1
102
RTVSPost2010Prop35
280
     0
102
RTVSPost2010PropOp35
 70
     1
102
RTVSPost2010Prop36
280
     0
102
RTVSPost2010PropOp36
 70
     1
102
RTVSPost2010Prop37
 90
       50
102
RTVSPost2010PropOp37
 70
     1
102
RTVSPost2010Prop38
140
0.0
102
RTVSPost2010PropOp38
 70
     1
102
RTVSPost2010Prop39
140
1.0
102
RTVSPost2010PropOp39
 70
     1
102
RTVSPost2010Prop40
 90
        0
102
RTVSPost2010PropOp40
 70
     1
102
RTVSPost2010Prop41ColorIndex
 90
       18
102
RTVSPost2010Prop41ColorRGB
 90
        0
102
RTVSPost2010PropOp41
 70
     1
102
RTVSPost2010Prop42
 90
       50
102
RTVSPost2010PropOp42
 70
     1
102
RTVSPost2010Prop43
 90
        3
102
RTVSPost2010PropOp43
 70
     1
102
RTVSPost2010Prop44ColorIndex
 90
        5
102
RTVSPost2010Prop44ColorRGB
 90
      255
102
RTVSPost2010PropOp44
 70
     1
102
RTVSPost2010Prop45
280
     0
102
RTVSPost2010PropOp45
 70
     1
102
RTVSPost2010Prop46
 90
       50
102
RTVSPost2010PropOp46
 70
     1
102
RTVSPost2010Prop47
 90
       50
102
RTVSPost2010PropOp47
 70
     1
102
RTVSPost2010Prop48
 90
       50
102
RTVSPost2010PropOp48
 70
     1
102
RTVSPost2010Prop49
280
     0
102
RTVSPost2010PropOp49
 70
     1
102
RTVSPost2010Prop50
 90
       50
102
RTVSPost2010PropOp50
 70
     1
102
RTVSPost2010Prop51ColorIndex
 90
      256
102
RTVSPost2010Prop51ColorRGB
 90
-16777216
102
RTVSPost2010PropOp51
 70
     0
102
RTVSPost2010Prop52
140
1.0
102
RTVSPost2010PropOp52
 70
     0
102
RTVSPost2010Prop53
 90
        2
102
RTVSPost2010PropOp53
 70
     1
102
RTVSPost2010Prop54
  1
strokes_ogs.tif
102
RTVSPost2010PropOp54
 70
     1
102
RTVSPost2010Prop55
280
     0
102
RTVSPost2010PropOp55
 70
     1
102
RTVSPost2010Prop56
140
1.0
102
RTVSPost2010PropOp56
 70
     1
102
RTVSPost2010Prop57
140
1.0
102
RTVSPost2010PropOp57
 70
     1
  0
XRECORD
  5
106AC41
102
{ACAD_REACTORS
330
106AC40
102
}
330
106AC40
100
AcDbXrecord
280
     1
102
RTVSPropertyOp0
 70
     1
102
RTVSPropertyOp1
 70
     1
102
RTVSPropertyOp2
 70
     1
102
RTVSPropertyOp3
 70
     1
102
RTVSPropertyOp4
 70
     1
102
RTVSPropertyOp5
 70
     1
102
RTVSPropertyOp6
 70
     1
102
RTVSPropertyOp7
 70
     1
102
RTVSPropertyOp8
 70
     1
102
RTVSPropertyOp9
 70
     1
102
RTVSPropertyOp10
 70
     1
102
RTVSPropertyOp11
 70
     1
102
RTVSPropertyOp12
 70
     1
102
RTVSPropertyOp13
 70
     1
102
RTVSPropertyOp14
 70
     1
102
RTVSPropertyOp15
 70
     1
102
RTVSPropertyOp16
 70
     1
102
RTVSPropertyOp17
 70
     1
102
RTVSPropertyOp18
 70
     1
102
RTVSPropertyOp19
 70
     1
102
RTVSPropertyOp20
 70
     1
102
RTVSPropertyOp21
 70
     1
102
RTVSPropertyOp22
 70
     1
102
RTVSPropertyOp23
 70
     1
102
RTVSPropertyOp24
 70
     1
102
RTVSPropertyOp25
 70
     1
102
RTVSPropertyOp26
 70
     1
102
RTVSPropertyOp27
 70
     1
102
RTVSPropertyOp28
 70
     1
102
RTVSPropertyOp29
 70
     1
102
RTVSPropertyOp30
 70
     1
102
RTVSPropertyOp31
 70
     1
102
RTVSPropertyOp32
 70
     1
102
RTVSPropertyOp33
 70
     1
102
RTVSPropertyOp34
 70
     1
102
RTVSPropertyOp35
 70
     1
102
RTVSPropertyOp36
 70
     1
102
RTVSPropertyOp37
 70
     1
102
RTVSPropertyOp38
 70
     1
102
RTVSPropertyOp39
 70
     1
102
RTVSPropertyOp40
 70
     1
102
RTVSPropertyOp41
 70
     1
102
RTVSPropertyOp42
 70
     1
102
RTVSPropertyOp43
 70
     1
102
RTVSPropertyOp44
 70
     1
102
RTVSPropertyOp45
 70
     1
102
RTVSPropertyOp46
 70
     1
102
RTVSPropertyOp47
 70
     1
102
RTVSPropertyOp48
 70
     1
102
RTVSPropertyOp49
 70
     1
102
RTVSPropertyOp50
 70
     1
102
RTVSPropertyOp51
 70
     0
102
RTVSPropertyOp52
 70
     0
102
RTVSPropertyOp53
 70
     1
102
RTVSPropertyOp54
 70
     1
102
RTVSPropertyOp55
 70
     1
102
RTVSPropertyOp56
 70
     1
102
RTVSPropertyOp57
 70
     1
102
RTVSPost2010Prop28
280
     0
102
RTVSPost2010PropOp28
 70
     1
102
RTVSPost2010Prop29
280
     1
102
RTVSPost2010PropOp29
 70
     1
102
RTVSPost2010Prop30
280
     1
102
RTVSPost2010PropOp30
 70
     1
102
RTVSPost2010Prop31
280
     0
102
RTVSPost2010PropOp31
 70
     1
102
RTVSPost2010Prop32
280
     0
102
RTVSPost2010PropOp32
 70
     1
102
RTVSPost2010Prop33
280
     0
102
RTVSPost2010PropOp33
 70
     1
102
RTVSPost2010Prop34
280
     0
102
RTVSPost2010PropOp34
 70
     1
102
RTVSPost2010Prop35
280
     0
102
RTVSPost2010PropOp35
 70
     1
102
RTVSPost2010Prop36
280
     0
102
RTVSPost2010PropOp36
 70
     1
102
RTVSPost2010Prop37
 90
       50
102
RTVSPost2010PropOp37
 70
     1
102
RTVSPost2010Prop38
140
0.0
102
RTVSPost2010PropOp38
 70
     1
102
RTVSPost2010Prop39
140
1.0
102
RTVSPost2010PropOp39
 70
     1
102
RTVSPost2010Prop40
 90
        0
102
RTVSPost2010PropOp40
 70
     1
102
RTVSPost2010Prop41ColorIndex
 90
       18
102
RTVSPost2010Prop41ColorRGB
 90
        0
102
RTVSPost2010PropOp41
 70
     1
102
RTVSPost2010Prop42
 90
       50
102
RTVSPost2010PropOp42
 70
     1
102
RTVSPost2010Prop43
 90
        3
102
RTVSPost2010PropOp43
 70
     1
102
RTVSPost2010Prop44ColorIndex
 90
        5
102
RTVSPost2010Prop44ColorRGB
 90
      255
102
RTVSPost2010PropOp44
 70
     1
102
RTVSPost2010Prop45
280
     0
102
RTVSPost2010PropOp45
 70
     1
102
RTVSPost2010Prop46
 90
       50
102
RTVSPost2010PropOp46
 70
     1
102
RTVSPost2010Prop47
 90
       50
102
RTVSPost2010PropOp47
 70
     1
102
RTVSPost2010Prop48
 90
       50
102
RTVSPost2010PropOp48
 70
     1
102
RTVSPost2010Prop49
280
     0
102
RTVSPost2010PropOp49
 70
     1
102
RTVSPost2010Prop50
 90
       50
102
RTVSPost2010PropOp50
 70
     1
102
RTVSPost2010Prop51ColorIndex
 90
      256
102
RTVSPost2010Prop51ColorRGB
 90
-16777216
102
RTVSPost2010PropOp51
 70
     0
102
RTVSPost2010Prop52
140
1.0
102
RTVSPost2010PropOp52
 70
     0
102
RTVSPost2010Prop53
 90
        2
102
RTVSPost2010PropOp53
 70
     1
102
RTVSPost2010Prop54
  1
strokes_ogs.tif
102
RTVSPost2010PropOp54
 70
     1
102
RTVSPost2010Prop55
280
     0
102
RTVSPost2010PropOp55
 70
     1
102
RTVSPost2010Prop56
140
1.0
102
RTVSPost2010PropOp56
 70
     1
102
RTVSPost2010Prop57
140
1.0
102
RTVSPost2010PropOp57
 70
     1
  0
XRECORD
  5
106AC43
102
{ACAD_REACTORS
330
106AC42
102
}
330
106AC42
100
AcDbXrecord
280
     1
102
RTVSPropertyOp0
 70
     1
102
RTVSPropertyOp1
 70
     1
102
RTVSPropertyOp2
 70
     1
102
RTVSPropertyOp3
 70
     1
102
RTVSPropertyOp4
 70
     1
102
RTVSPropertyOp5
 70
     1
102
RTVSPropertyOp6
 70
     1
102
RTVSPropertyOp7
 70
     1
102
RTVSPropertyOp8
 70
     1
102
RTVSPropertyOp9
 70
     1
102
RTVSPropertyOp10
 70
     1
102
RTVSPropertyOp11
 70
     1
102
RTVSPropertyOp12
 70
     1
102
RTVSPropertyOp13
 70
     1
102
RTVSPropertyOp14
 70
     1
102
RTVSPropertyOp15
 70
     1
102
RTVSPropertyOp16
 70
     1
102
RTVSPropertyOp17
 70
     1
102
RTVSPropertyOp18
 70
     1
102
RTVSPropertyOp19
 70
     1
102
RTVSPropertyOp20
 70
     1
102
RTVSPropertyOp21
 70
     1
102
RTVSPropertyOp22
 70
     1
102
RTVSPropertyOp23
 70
     1
102
RTVSPropertyOp24
 70
     1
102
RTVSPropertyOp25
 70
     1
102
RTVSPropertyOp26
 70
     1
102
RTVSPropertyOp27
 70
     1
102
RTVSPropertyOp28
 70
     1
102
RTVSPropertyOp29
 70
     1
102
RTVSPropertyOp30
 70
     1
102
RTVSPropertyOp31
 70
     1
102
RTVSPropertyOp32
 70
     1
102
RTVSPropertyOp33
 70
     1
102
RTVSPropertyOp34
 70
     1
102
RTVSPropertyOp35
 70
     1
102
RTVSPropertyOp36
 70
     1
102
RTVSPropertyOp37
 70
     1
102
RTVSPropertyOp38
 70
     1
102
RTVSPropertyOp39
 70
     1
102
RTVSPropertyOp40
 70
     1
102
RTVSPropertyOp41
 70
     1
102
RTVSPropertyOp42
 70
     1
102
RTVSPropertyOp43
 70
     1
102
RTVSPropertyOp44
 70
     1
102
RTVSPropertyOp45
 70
     1
102
RTVSPropertyOp46
 70
     1
102
RTVSPropertyOp47
 70
     1
102
RTVSPropertyOp48
 70
     1
102
RTVSPropertyOp49
 70
     1
102
RTVSPropertyOp50
 70
     1
102
RTVSPropertyOp51
 70
     0
102
RTVSPropertyOp52
 70
     0
102
RTVSPropertyOp53
 70
     1
102
RTVSPropertyOp54
 70
     1
102
RTVSPropertyOp55
 70
     1
102
RTVSPropertyOp56
 70
     1
102
RTVSPropertyOp57
 70
     1
102
RTVSPost2010Prop28
280
     0
102
RTVSPost2010PropOp28
 70
     1
102
RTVSPost2010Prop29
280
     1
102
RTVSPost2010PropOp29
 70
     1
102
RTVSPost2010Prop30
280
     1
102
RTVSPost2010PropOp30
 70
     1
102
RTVSPost2010Prop31
280
     0
102
RTVSPost2010PropOp31
 70
     1
102
RTVSPost2010Prop32
280
     0
102
RTVSPost2010PropOp32
 70
     1
102
RTVSPost2010Prop33
280
     0
102
RTVSPost2010PropOp33
 70
     1
102
RTVSPost2010Prop34
280
     0
102
RTVSPost2010PropOp34
 70
     1
102
RTVSPost2010Prop35
280
     0
102
RTVSPost2010PropOp35
 70
     1
102
RTVSPost2010Prop36
280
     0
102
RTVSPost2010PropOp36
 70
     1
102
RTVSPost2010Prop37
 90
       50
102
RTVSPost2010PropOp37
 70
     1
102
RTVSPost2010Prop38
140
0.0
102
RTVSPost2010PropOp38
 70
     1
102
RTVSPost2010Prop39
140
1.0
102
RTVSPost2010PropOp39
 70
     1
102
RTVSPost2010Prop40
 90
        0
102
RTVSPost2010PropOp40
 70
     1
102
RTVSPost2010Prop41ColorIndex
 90
       18
102
RTVSPost2010Prop41ColorRGB
 90
        0
102
RTVSPost2010PropOp41
 70
     1
102
RTVSPost2010Prop42
 90
       50
102
RTVSPost2010PropOp42
 70
     1
102
RTVSPost2010Prop43
 90
        3
102
RTVSPost2010PropOp43
 70
     1
102
RTVSPost2010Prop44ColorIndex
 90
        5
102
RTVSPost2010Prop44ColorRGB
 90
      255
102
RTVSPost2010PropOp44
 70
     1
102
RTVSPost2010Prop45
280
     0
102
RTVSPost2010PropOp45
 70
     1
102
RTVSPost2010Prop46
 90
       50
102
RTVSPost2010PropOp46
 70
     1
102
RTVSPost2010Prop47
 90
       50
102
RTVSPost2010PropOp47
 70
     1
102
RTVSPost2010Prop48
 90
       50
102
RTVSPost2010PropOp48
 70
     1
102
RTVSPost2010Prop49
280
     0
102
RTVSPost2010PropOp49
 70
     1
102
RTVSPost2010Prop50
 90
       50
102
RTVSPost2010PropOp50
 70
     1
102
RTVSPost2010Prop51ColorIndex
 90
      256
102
RTVSPost2010Prop51ColorRGB
 90
-16777216
102
RTVSPost2010PropOp51
 70
     0
102
RTVSPost2010Prop52
140
1.0
102
RTVSPost2010PropOp52
 70
     0
102
RTVSPost2010Prop53
 90
        2
102
RTVSPost2010PropOp53
 70
     1
102
RTVSPost2010Prop54
  1
strokes_ogs.tif
102
RTVSPost2010PropOp54
 70
     1
102
RTVSPost2010Prop55
280
     0
102
RTVSPost2010PropOp55
 70
     1
102
RTVSPost2010Prop56
140
1.0
102
RTVSPost2010PropOp56
 70
     1
102
RTVSPost2010Prop57
140
1.0
102
RTVSPost2010PropOp57
 70
     1
  0
XRECORD
  5
106AC53
102
{ACAD_REACTORS
330
106AC52
102
}
330
106AC52
100
AcDbXrecord
280
     1
102
RTVSPropertyOp0
 70
     0
102
RTVSPropertyOp1
 70
     0
102
RTVSPropertyOp2
 70
     0
102
RTVSPropertyOp3
 70
     0
102
RTVSPropertyOp4
 70
     0
102
RTVSPropertyOp5
 70
     0
102
RTVSPropertyOp6
 70
     0
102
RTVSPropertyOp7
 70
     0
102
RTVSPropertyOp8
 70
     0
102
RTVSPropertyOp9
 70
     0
102
RTVSPropertyOp10
 70
     0
102
RTVSPropertyOp11
 70
     0
102
RTVSPropertyOp12
 70
     0
102
RTVSPropertyOp13
 70
     0
102
RTVSPropertyOp14
 70
     2
102
RTVSPropertyOp15
 70
     0
102
RTVSPropertyOp16
 70
     0
102
RTVSPropertyOp17
 70
     0
102
RTVSPropertyOp18
 70
     0
102
RTVSPropertyOp19
 70
     0
102
RTVSPropertyOp20
 70
     0
102
RTVSPropertyOp21
 70
     0
102
RTVSPropertyOp22
 70
     0
102
RTVSPropertyOp23
 70
     0
102
RTVSPropertyOp24
 70
     0
102
RTVSPropertyOp25
 70
     0
102
RTVSPropertyOp26
 70
     0
102
RTVSPropertyOp27
 70
     0
102
RTVSPropertyOp28
 70
     0
102
RTVSPropertyOp29
 70
     0
102
RTVSPropertyOp30
 70
     0
102
RTVSPropertyOp31
 70
     0
102
RTVSPropertyOp32
 70
     0
102
RTVSPropertyOp33
 70
     0
102
RTVSPropertyOp34
 70
     0
102
RTVSPropertyOp35
 70
     0
102
RTVSPropertyOp36
 70
     0
102
RTVSPropertyOp37
 70
     0
102
RTVSPropertyOp38
 70
     0
102
RTVSPropertyOp39
 70
     0
102
RTVSPropertyOp40
 70
     0
102
RTVSPropertyOp41
 70
     0
102
RTVSPropertyOp42
 70
     0
102
RTVSPropertyOp43
 70
     0
102
RTVSPropertyOp44
 70
     0
102
RTVSPropertyOp45
 70
     0
102
RTVSPropertyOp46
 70
     0
102
RTVSPropertyOp47
 70
     0
102
RTVSPropertyOp48
 70
     0
102
RTVSPropertyOp49
 70
     0
102
RTVSPropertyOp50
 70
     0
102
RTVSPropertyOp51
 70
     0
102
RTVSPropertyOp52
 70
     0
102
RTVSPropertyOp53
 70
     0
102
RTVSPropertyOp54
 70
     0
102
RTVSPropertyOp55
 70
     0
102
RTVSPropertyOp56
 70
     0
102
RTVSPropertyOp57
 70
     0
102
RTVSPost2010Prop28
280
     0
102
RTVSPost2010PropOp28
 70
     0
102
RTVSPost2010Prop29
280
     1
102
RTVSPost2010PropOp29
 70
     0
102
RTVSPost2010Prop30
280
     1
102
RTVSPost2010PropOp30
 70
     0
102
RTVSPost2010Prop31
280
     0
102
RTVSPost2010PropOp31
 70
     0
102
RTVSPost2010Prop32
280
     0
102
RTVSPost2010PropOp32
 70
     0
102
RTVSPost2010Prop33
280
     0
102
RTVSPost2010PropOp33
 70
     0
102
RTVSPost2010Prop34
280
     0
102
RTVSPost2010PropOp34
 70
     0
102
RTVSPost2010Prop35
280
     0
102
RTVSPost2010PropOp35
 70
     0
102
RTVSPost2010Prop36
280
     0
102
RTVSPost2010PropOp36
 70
     0
102
RTVSPost2010Prop37
 90
       50
102
RTVSPost2010PropOp37
 70
     0
102
RTVSPost2010Prop38
140
0.0
102
RTVSPost2010PropOp38
 70
     0
102
RTVSPost2010Prop39
140
1.0
102
RTVSPost2010PropOp39
 70
     0
102
RTVSPost2010Prop40
 90
        0
102
RTVSPost2010PropOp40
 70
     0
102
RTVSPost2010Prop41ColorIndex
 90
       18
102
RTVSPost2010Prop41ColorRGB
 90
        0
102
RTVSPost2010PropOp41
 70
     0
102
RTVSPost2010Prop42
 90
       50
102
RTVSPost2010PropOp42
 70
     0
102
RTVSPost2010Prop43
 90
        3
102
RTVSPost2010PropOp43
 70
     0
102
RTVSPost2010Prop44ColorIndex
 90
        5
102
RTVSPost2010Prop44ColorRGB
 90
      255
102
RTVSPost2010PropOp44
 70
     0
102
RTVSPost2010Prop45
280
     0
102
RTVSPost2010PropOp45
 70
     0
102
RTVSPost2010Prop46
 90
       50
102
RTVSPost2010PropOp46
 70
     0
102
RTVSPost2010Prop47
 90
       50
102
RTVSPost2010PropOp47
 70
     0
102
RTVSPost2010Prop48
 90
       50
102
RTVSPost2010PropOp48
 70
     0
102
RTVSPost2010Prop49
280
     0
102
RTVSPost2010PropOp49
 70
     0
102
RTVSPost2010Prop50
 90
       50
102
RTVSPost2010PropOp50
 70
     0
102
RTVSPost2010Prop51ColorIndex
 90
      256
102
RTVSPost2010Prop51ColorRGB
 90
-16777216
102
RTVSPost2010PropOp51
 70
     0
102
RTVSPost2010Prop52
140
1.0
102
RTVSPost2010PropOp52
 70
     0
102
RTVSPost2010Prop53
 90
        2
102
RTVSPost2010PropOp53
 70
     0
102
RTVSPost2010Prop54
  1
strokes_ogs.tif
102
RTVSPost2010PropOp54
 70
     0
102
RTVSPost2010Prop55
280
     0
102
RTVSPost2010PropOp55
 70
     0
102
RTVSPost2010Prop56
140
1.0
102
RTVSPost2010PropOp56
 70
     0
102
RTVSPost2010Prop57
140
1.0
102
RTVSPost2010PropOp57
 70
     0
  0
XRECORD
  5
106AC4B
102
{ACAD_REACTORS
330
106AC4A
102
}
330
106AC4A
100
AcDbXrecord
280
     1
102
RTVSPropertyOp0
 70
     1
102
RTVSPropertyOp1
 70
     1
102
RTVSPropertyOp2
 70
     1
102
RTVSPropertyOp3
 70
     1
102
RTVSPropertyOp4
 70
     1
102
RTVSPropertyOp5
 70
     1
102
RTVSPropertyOp6
 70
     1
102
RTVSPropertyOp7
 70
     1
102
RTVSPropertyOp8
 70
     1
102
RTVSPropertyOp9
 70
     1
102
RTVSPropertyOp10
 70
     1
102
RTVSPropertyOp11
 70
     1
102
RTVSPropertyOp12
 70
     1
102
RTVSPropertyOp13
 70
     1
102
RTVSPropertyOp14
 70
     1
102
RTVSPropertyOp15
 70
     1
102
RTVSPropertyOp16
 70
     1
102
RTVSPropertyOp17
 70
     1
102
RTVSPropertyOp18
 70
     1
102
RTVSPropertyOp19
 70
     1
102
RTVSPropertyOp20
 70
     1
102
RTVSPropertyOp21
 70
     1
102
RTVSPropertyOp22
 70
     1
102
RTVSPropertyOp23
 70
     1
102
RTVSPropertyOp24
 70
     1
102
RTVSPropertyOp25
 70
     1
102
RTVSPropertyOp26
 70
     1
102
RTVSPropertyOp27
 70
     1
102
RTVSPropertyOp28
 70
     1
102
RTVSPropertyOp29
 70
     1
102
RTVSPropertyOp30
 70
     1
102
RTVSPropertyOp31
 70
     1
102
RTVSPropertyOp32
 70
     1
102
RTVSPropertyOp33
 70
     1
102
RTVSPropertyOp34
 70
     1
102
RTVSPropertyOp35
 70
     1
102
RTVSPropertyOp36
 70
     1
102
RTVSPropertyOp37
 70
     1
102
RTVSPropertyOp38
 70
     1
102
RTVSPropertyOp39
 70
     1
102
RTVSPropertyOp40
 70
     1
102
RTVSPropertyOp41
 70
     1
102
RTVSPropertyOp42
 70
     1
102
RTVSPropertyOp43
 70
     1
102
RTVSPropertyOp44
 70
     1
102
RTVSPropertyOp45
 70
     1
102
RTVSPropertyOp46
 70
     1
102
RTVSPropertyOp47
 70
     1
102
RTVSPropertyOp48
 70
     1
102
RTVSPropertyOp49
 70
     1
102
RTVSPropertyOp50
 70
     1
102
RTVSPropertyOp51
 70
     0
102
RTVSPropertyOp52
 70
     0
102
RTVSPropertyOp53
 70
     1
102
RTVSPropertyOp54
 70
     1
102
RTVSPropertyOp55
 70
     1
102
RTVSPropertyOp56
 70
     1
102
RTVSPropertyOp57
 70
     1
102
RTVSPost2010Prop28
280
     0
102
RTVSPost2010PropOp28
 70
     1
102
RTVSPost2010Prop29
280
     1
102
RTVSPost2010PropOp29
 70
     1
102
RTVSPost2010Prop30
280
     1
102
RTVSPost2010PropOp30
 70
     1
102
RTVSPost2010Prop31
280
     0
102
RTVSPost2010PropOp31
 70
     1
102
RTVSPost2010Prop32
280
     0
102
RTVSPost2010PropOp32
 70
     1
102
RTVSPost2010Prop33
280
     0
102
RTVSPost2010PropOp33
 70
     1
102
RTVSPost2010Prop34
280
     0
102
RTVSPost2010PropOp34
 70
     1
102
RTVSPost2010Prop35
280
     0
102
RTVSPost2010PropOp35
 70
     1
102
RTVSPost2010Prop36
280
     0
102
RTVSPost2010PropOp36
 70
     1
102
RTVSPost2010Prop37
 90
       50
102
RTVSPost2010PropOp37
 70
     1
102
RTVSPost2010Prop38
140
0.0
102
RTVSPost2010PropOp38
 70
     1
102
RTVSPost2010Prop39
140
1.0
102
RTVSPost2010PropOp39
 70
     1
102
RTVSPost2010Prop40
 90
        0
102
RTVSPost2010PropOp40
 70
     1
102
RTVSPost2010Prop41ColorIndex
 90
       18
102
RTVSPost2010Prop41ColorRGB
 90
        0
102
RTVSPost2010PropOp41
 70
     1
102
RTVSPost2010Prop42
 90
       50
102
RTVSPost2010PropOp42
 70
     1
102
RTVSPost2010Prop43
 90
        3
102
RTVSPost2010PropOp43
 70
     1
102
RTVSPost2010Prop44ColorIndex
 90
        5
102
RTVSPost2010Prop44ColorRGB
 90
      255
102
RTVSPost2010PropOp44
 70
     1
102
RTVSPost2010Prop45
280
     0
102
RTVSPost2010PropOp45
 70
     1
102
RTVSPost2010Prop46
 90
       50
102
RTVSPost2010PropOp46
 70
     1
102
RTVSPost2010Prop47
 90
       50
102
RTVSPost2010PropOp47
 70
     1
102
RTVSPost2010Prop48
 90
       50
102
RTVSPost2010PropOp48
 70
     1
102
RTVSPost2010Prop49
280
     0
102
RTVSPost2010PropOp49
 70
     1
102
RTVSPost2010Prop50
 90
       50
102
RTVSPost2010PropOp50
 70
     1
102
RTVSPost2010Prop51ColorIndex
 90
      256
102
RTVSPost2010Prop51ColorRGB
 90
-16777216
102
RTVSPost2010PropOp51
 70
     0
102
RTVSPost2010Prop52
140
1.0
102
RTVSPost2010PropOp52
 70
     0
102
RTVSPost2010Prop53
 90
        2
102
RTVSPost2010PropOp53
 70
     1
102
RTVSPost2010Prop54
  1
strokes_ogs.tif
102
RTVSPost2010PropOp54
 70
     1
102
RTVSPost2010Prop55
280
     0
102
RTVSPost2010PropOp55
 70
     1
102
RTVSPost2010Prop56
140
1.0
102
RTVSPost2010PropOp56
 70
     1
102
RTVSPost2010Prop57
140
1.0
102
RTVSPost2010PropOp57
 70
     1
  0
XRECORD
  5
106AC2F
102
{ACAD_REACTORS
330
106AC2E
102
}
330
106AC2E
100
AcDbXrecord
280
     1
102
RTVSPropertyOp0
 70
     1
102
RTVSPropertyOp1
 70
     1
102
RTVSPropertyOp2
 70
     1
102
RTVSPropertyOp3
 70
     1
102
RTVSPropertyOp4
 70
     1
102
RTVSPropertyOp5
 70
     1
102
RTVSPropertyOp6
 70
     1
102
RTVSPropertyOp7
 70
     1
102
RTVSPropertyOp8
 70
     1
102
RTVSPropertyOp9
 70
     1
102
RTVSPropertyOp10
 70
     1
102
RTVSPropertyOp11
 70
     1
102
RTVSPropertyOp12
 70
     1
102
RTVSPropertyOp13
 70
     1
102
RTVSPropertyOp14
 70
     1
102
RTVSPropertyOp15
 70
     1
102
RTVSPropertyOp16
 70
     1
102
RTVSPropertyOp17
 70
     1
102
RTVSPropertyOp18
 70
     1
102
RTVSPropertyOp19
 70
     1
102
RTVSPropertyOp20
 70
     1
102
RTVSPropertyOp21
 70
     1
102
RTVSPropertyOp22
 70
     1
102
RTVSPropertyOp23
 70
     1
102
RTVSPropertyOp24
 70
     1
102
RTVSPropertyOp25
 70
     1
102
RTVSPropertyOp26
 70
     1
102
RTVSPropertyOp27
 70
     1
102
RTVSPropertyOp28
 70
     1
102
RTVSPropertyOp29
 70
     1
102
RTVSPropertyOp30
 70
     1
102
RTVSPropertyOp31
 70
     1
102
RTVSPropertyOp32
 70
     1
102
RTVSPropertyOp33
 70
     1
102
RTVSPropertyOp34
 70
     1
102
RTVSPropertyOp35
 70
     1
102
RTVSPropertyOp36
 70
     1
102
RTVSPropertyOp37
 70
     1
102
RTVSPropertyOp38
 70
     1
102
RTVSPropertyOp39
 70
     1
102
RTVSPropertyOp40
 70
     1
102
RTVSPropertyOp41
 70
     1
102
RTVSPropertyOp42
 70
     1
102
RTVSPropertyOp43
 70
     1
102
RTVSPropertyOp44
 70
     1
102
RTVSPropertyOp45
 70
     1
102
RTVSPropertyOp46
 70
     1
102
RTVSPropertyOp47
 70
     1
102
RTVSPropertyOp48
 70
     1
102
RTVSPropertyOp49
 70
     1
102
RTVSPropertyOp50
 70
     1
102
RTVSPropertyOp51
 70
     0
102
RTVSPropertyOp52
 70
     0
102
RTVSPropertyOp53
 70
     1
102
RTVSPropertyOp54
 70
     1
102
RTVSPropertyOp55
 70
     1
102
RTVSPropertyOp56
 70
     1
102
RTVSPropertyOp57
 70
     1
102
RTVSPost2010Prop28
280
     0
102
RTVSPost2010PropOp28
 70
     1
102
RTVSPost2010Prop29
280
     1
102
RTVSPost2010PropOp29
 70
     1
102
RTVSPost2010Prop30
280
     1
102
RTVSPost2010PropOp30
 70
     1
102
RTVSPost2010Prop31
280
     0
102
RTVSPost2010PropOp31
 70
     1
102
RTVSPost2010Prop32
280
     0
102
RTVSPost2010PropOp32
 70
     1
102
RTVSPost2010Prop33
280
     0
102
RTVSPost2010PropOp33
 70
     1
102
RTVSPost2010Prop34
280
     0
102
RTVSPost2010PropOp34
 70
     1
102
RTVSPost2010Prop35
280
     0
102
RTVSPost2010PropOp35
 70
     1
102
RTVSPost2010Prop36
280
     0
102
RTVSPost2010PropOp36
 70
     1
102
RTVSPost2010Prop37
 90
       50
102
RTVSPost2010PropOp37
 70
     1
102
RTVSPost2010Prop38
140
0.0
102
RTVSPost2010PropOp38
 70
     1
102
RTVSPost2010Prop39
140
1.0
102
RTVSPost2010PropOp39
 70
     1
102
RTVSPost2010Prop40
 90
        0
102
RTVSPost2010PropOp40
 70
     1
102
RTVSPost2010Prop41ColorIndex
 90
       18
102
RTVSPost2010Prop41ColorRGB
 90
        0
102
RTVSPost2010PropOp41
 70
     1
102
RTVSPost2010Prop42
 90
       50
102
RTVSPost2010PropOp42
 70
     1
102
RTVSPost2010Prop43
 90
        3
102
RTVSPost2010PropOp43
 70
     1
102
RTVSPost2010Prop44ColorIndex
 90
        5
102
RTVSPost2010Prop44ColorRGB
 90
      255
102
RTVSPost2010PropOp44
 70
     1
102
RTVSPost2010Prop45
280
     0
102
RTVSPost2010PropOp45
 70
     1
102
RTVSPost2010Prop46
 90
       50
102
RTVSPost2010PropOp46
 70
     1
102
RTVSPost2010Prop47
 90
       50
102
RTVSPost2010PropOp47
 70
     1
102
RTVSPost2010Prop48
 90
       50
102
RTVSPost2010PropOp48
 70
     1
102
RTVSPost2010Prop49
280
     0
102
RTVSPost2010PropOp49
 70
     1
102
RTVSPost2010Prop50
 90
       50
102
RTVSPost2010PropOp50
 70
     1
102
RTVSPost2010Prop51ColorIndex
 90
      256
102
RTVSPost2010Prop51ColorRGB
 90
-16777216
102
RTVSPost2010PropOp51
 70
     0
102
RTVSPost2010Prop52
140
1.0
102
RTVSPost2010PropOp52
 70
     0
102
RTVSPost2010Prop53
 90
        2
102
RTVSPost2010PropOp53
 70
     1
102
RTVSPost2010Prop54
  1
strokes_ogs.tif
102
RTVSPost2010PropOp54
 70
     1
102
RTVSPost2010Prop55
280
     0
102
RTVSPost2010PropOp55
 70
     1
102
RTVSPost2010Prop56
140
1.0
102
RTVSPost2010PropOp56
 70
     1
102
RTVSPost2010Prop57
140
1.0
102
RTVSPost2010PropOp57
 70
     1
  0
XRECORD
  5
106AC31
102
{ACAD_REACTORS
330
106AC30
102
}
330
106AC30
100
AcDbXrecord
280
     1
102
RTVSPropertyOp0
 70
     1
102
RTVSPropertyOp1
 70
     1
102
RTVSPropertyOp2
 70
     1
102
RTVSPropertyOp3
 70
     1
102
RTVSPropertyOp4
 70
     1
102
RTVSPropertyOp5
 70
     1
102
RTVSPropertyOp6
 70
     1
102
RTVSPropertyOp7
 70
     1
102
RTVSPropertyOp8
 70
     1
102
RTVSPropertyOp9
 70
     1
102
RTVSPropertyOp10
 70
     1
102
RTVSPropertyOp11
 70
     1
102
RTVSPropertyOp12
 70
     1
102
RTVSPropertyOp13
 70
     1
102
RTVSPropertyOp14
 70
     1
102
RTVSPropertyOp15
 70
     1
102
RTVSPropertyOp16
 70
     1
102
RTVSPropertyOp17
 70
     1
102
RTVSPropertyOp18
 70
     1
102
RTVSPropertyOp19
 70
     1
102
RTVSPropertyOp20
 70
     1
102
RTVSPropertyOp21
 70
     1
102
RTVSPropertyOp22
 70
     1
102
RTVSPropertyOp23
 70
     1
102
RTVSPropertyOp24
 70
     1
102
RTVSPropertyOp25
 70
     1
102
RTVSPropertyOp26
 70
     1
102
RTVSPropertyOp27
 70
     1
102
RTVSPropertyOp28
 70
     1
102
RTVSPropertyOp29
 70
     1
102
RTVSPropertyOp30
 70
     1
102
RTVSPropertyOp31
 70
     1
102
RTVSPropertyOp32
 70
     1
102
RTVSPropertyOp33
 70
     1
102
RTVSPropertyOp34
 70
     1
102
RTVSPropertyOp35
 70
     1
102
RTVSPropertyOp36
 70
     1
102
RTVSPropertyOp37
 70
     1
102
RTVSPropertyOp38
 70
     1
102
RTVSPropertyOp39
 70
     1
102
RTVSPropertyOp40
 70
     1
102
RTVSPropertyOp41
 70
     1
102
RTVSPropertyOp42
 70
     1
102
RTVSPropertyOp43
 70
     1
102
RTVSPropertyOp44
 70
     1
102
RTVSPropertyOp45
 70
     1
102
RTVSPropertyOp46
 70
     1
102
RTVSPropertyOp47
 70
     1
102
RTVSPropertyOp48
 70
     1
102
RTVSPropertyOp49
 70
     1
102
RTVSPropertyOp50
 70
     1
102
RTVSPropertyOp51
 70
     0
102
RTVSPropertyOp52
 70
     0
102
RTVSPropertyOp53
 70
     1
102
RTVSPropertyOp54
 70
     1
102
RTVSPropertyOp55
 70
     1
102
RTVSPropertyOp56
 70
     1
102
RTVSPropertyOp57
 70
     1
102
RTVSPost2010Prop28
280
     0
102
RTVSPost2010PropOp28
 70
     1
102
RTVSPost2010Prop29
280
     1
102
RTVSPost2010PropOp29
 70
     1
102
RTVSPost2010Prop30
280
     1
102
RTVSPost2010PropOp30
 70
     1
102
RTVSPost2010Prop31
280
     0
102
RTVSPost2010PropOp31
 70
     1
102
RTVSPost2010Prop32
280
     0
102
RTVSPost2010PropOp32
 70
     1
102
RTVSPost2010Prop33
280
     0
102
RTVSPost2010PropOp33
 70
     1
102
RTVSPost2010Prop34
280
     0
102
RTVSPost2010PropOp34
 70
     1
102
RTVSPost2010Prop35
280
     0
102
RTVSPost2010PropOp35
 70
     1
102
RTVSPost2010Prop36
280
     0
102
RTVSPost2010PropOp36
 70
     1
102
RTVSPost2010Prop37
 90
       50
102
RTVSPost2010PropOp37
 70
     1
102
RTVSPost2010Prop38
140
0.0
102
RTVSPost2010PropOp38
 70
     1
102
RTVSPost2010Prop39
140
1.0
102
RTVSPost2010PropOp39
 70
     1
102
RTVSPost2010Prop40
 90
        0
102
RTVSPost2010PropOp40
 70
     1
102
RTVSPost2010Prop41ColorIndex
 90
       18
102
RTVSPost2010Prop41ColorRGB
 90
        0
102
RTVSPost2010PropOp41
 70
     1
102
RTVSPost2010Prop42
 90
       50
102
RTVSPost2010PropOp42
 70
     1
102
RTVSPost2010Prop43
 90
        3
102
RTVSPost2010PropOp43
 70
     1
102
RTVSPost2010Prop44ColorIndex
 90
        5
102
RTVSPost2010Prop44ColorRGB
 90
      255
102
RTVSPost2010PropOp44
 70
     1
102
RTVSPost2010Prop45
280
     0
102
RTVSPost2010PropOp45
 70
     1
102
RTVSPost2010Prop46
 90
       50
102
RTVSPost2010PropOp46
 70
     1
102
RTVSPost2010Prop47
 90
       50
102
RTVSPost2010PropOp47
 70
     1
102
RTVSPost2010Prop48
 90
       50
102
RTVSPost2010PropOp48
 70
     1
102
RTVSPost2010Prop49
280
     0
102
RTVSPost2010PropOp49
 70
     1
102
RTVSPost2010Prop50
 90
       50
102
RTVSPost2010PropOp50
 70
     1
102
RTVSPost2010Prop51ColorIndex
 90
      256
102
RTVSPost2010Prop51ColorRGB
 90
-16777216
102
RTVSPost2010PropOp51
 70
     0
102
RTVSPost2010Prop52
140
1.0
102
RTVSPost2010PropOp52
 70
     0
102
RTVSPost2010Prop53
 90
        2
102
RTVSPost2010PropOp53
 70
     1
102
RTVSPost2010Prop54
  1
strokes_ogs.tif
102
RTVSPost2010PropOp54
 70
     1
102
RTVSPost2010Prop55
280
     0
102
RTVSPost2010PropOp55
 70
     1
102
RTVSPost2010Prop56
140
1.0
102
RTVSPost2010PropOp56
 70
     1
102
RTVSPost2010Prop57
140
1.0
102
RTVSPost2010PropOp57
 70
     1
  0
XRECORD
  5
106AC33
102
{ACAD_REACTORS
330
106AC32
102
}
330
106AC32
100
AcDbXrecord
280
     1
102
RTVSPropertyOp0
 70
     1
102
RTVSPropertyOp1
 70
     1
102
RTVSPropertyOp2
 70
     1
102
RTVSPropertyOp3
 70
     1
102
RTVSPropertyOp4
 70
     1
102
RTVSPropertyOp5
 70
     1
102
RTVSPropertyOp6
 70
     1
102
RTVSPropertyOp7
 70
     1
102
RTVSPropertyOp8
 70
     1
102
RTVSPropertyOp9
 70
     1
102
RTVSPropertyOp10
 70
     1
102
RTVSPropertyOp11
 70
     1
102
RTVSPropertyOp12
 70
     1
102
RTVSPropertyOp13
 70
     1
102
RTVSPropertyOp14
 70
     1
102
RTVSPropertyOp15
 70
     1
102
RTVSPropertyOp16
 70
     1
102
RTVSPropertyOp17
 70
     1
102
RTVSPropertyOp18
 70
     1
102
RTVSPropertyOp19
 70
     1
102
RTVSPropertyOp20
 70
     1
102
RTVSPropertyOp21
 70
     1
102
RTVSPropertyOp22
 70
     1
102
RTVSPropertyOp23
 70
     1
102
RTVSPropertyOp24
 70
     1
102
RTVSPropertyOp25
 70
     1
102
RTVSPropertyOp26
 70
     1
102
RTVSPropertyOp27
 70
     1
102
RTVSPropertyOp28
 70
     1
102
RTVSPropertyOp29
 70
     1
102
RTVSPropertyOp30
 70
     1
102
RTVSPropertyOp31
 70
     1
102
RTVSPropertyOp32
 70
     1
102
RTVSPropertyOp33
 70
     1
102
RTVSPropertyOp34
 70
     1
102
RTVSPropertyOp35
 70
     1
102
RTVSPropertyOp36
 70
     1
102
RTVSPropertyOp37
 70
     1
102
RTVSPropertyOp38
 70
     1
102
RTVSPropertyOp39
 70
     1
102
RTVSPropertyOp40
 70
     1
102
RTVSPropertyOp41
 70
     1
102
RTVSPropertyOp42
 70
     1
102
RTVSPropertyOp43
 70
     1
102
RTVSPropertyOp44
 70
     1
102
RTVSPropertyOp45
 70
     1
102
RTVSPropertyOp46
 70
     1
102
RTVSPropertyOp47
 70
     1
102
RTVSPropertyOp48
 70
     1
102
RTVSPropertyOp49
 70
     1
102
RTVSPropertyOp50
 70
     1
102
RTVSPropertyOp51
 70
     0
102
RTVSPropertyOp52
 70
     0
102
RTVSPropertyOp53
 70
     1
102
RTVSPropertyOp54
 70
     1
102
RTVSPropertyOp55
 70
     1
102
RTVSPropertyOp56
 70
     1
102
RTVSPropertyOp57
 70
     1
102
RTVSPost2010Prop28
280
     0
102
RTVSPost2010PropOp28
 70
     1
102
RTVSPost2010Prop29
280
     1
102
RTVSPost2010PropOp29
 70
     1
102
RTVSPost2010Prop30
280
     1
102
RTVSPost2010PropOp30
 70
     1
102
RTVSPost2010Prop31
280
     0
102
RTVSPost2010PropOp31
 70
     1
102
RTVSPost2010Prop32
280
     0
102
RTVSPost2010PropOp32
 70
     1
102
RTVSPost2010Prop33
280
     0
102
RTVSPost2010PropOp33
 70
     1
102
RTVSPost2010Prop34
280
     0
102
RTVSPost2010PropOp34
 70
     1
102
RTVSPost2010Prop35
280
     0
102
RTVSPost2010PropOp35
 70
     1
102
RTVSPost2010Prop36
280
     0
102
RTVSPost2010PropOp36
 70
     1
102
RTVSPost2010Prop37
 90
       50
102
RTVSPost2010PropOp37
 70
     1
102
RTVSPost2010Prop38
140
0.0
102
RTVSPost2010PropOp38
 70
     1
102
RTVSPost2010Prop39
140
1.0
102
RTVSPost2010PropOp39
 70
     1
102
RTVSPost2010Prop40
 90
        0
102
RTVSPost2010PropOp40
 70
     1
102
RTVSPost2010Prop41ColorIndex
 90
       18
102
RTVSPost2010Prop41ColorRGB
 90
        0
102
RTVSPost2010PropOp41
 70
     1
102
RTVSPost2010Prop42
 90
       50
102
RTVSPost2010PropOp42
 70
     1
102
RTVSPost2010Prop43
 90
        3
102
RTVSPost2010PropOp43
 70
     1
102
RTVSPost2010Prop44ColorIndex
 90
        5
102
RTVSPost2010Prop44ColorRGB
 90
      255
102
RTVSPost2010PropOp44
 70
     1
102
RTVSPost2010Prop45
280
     0
102
RTVSPost2010PropOp45
 70
     1
102
RTVSPost2010Prop46
 90
       50
102
RTVSPost2010PropOp46
 70
     1
102
RTVSPost2010Prop47
 90
       50
102
RTVSPost2010PropOp47
 70
     1
102
RTVSPost2010Prop48
 90
       50
102
RTVSPost2010PropOp48
 70
     1
102
RTVSPost2010Prop49
280
     0
102
RTVSPost2010PropOp49
 70
     1
102
RTVSPost2010Prop50
 90
       50
102
RTVSPost2010PropOp50
 70
     1
102
RTVSPost2010Prop51ColorIndex
 90
      256
102
RTVSPost2010Prop51ColorRGB
 90
-16777216
102
RTVSPost2010PropOp51
 70
     0
102
RTVSPost2010Prop52
140
1.0
102
RTVSPost2010PropOp52
 70
     0
102
RTVSPost2010Prop53
 90
        2
102
RTVSPost2010PropOp53
 70
     1
102
RTVSPost2010Prop54
  1
strokes_ogs.tif
102
RTVSPost2010PropOp54
 70
     1
102
RTVSPost2010Prop55
280
     0
102
RTVSPost2010PropOp55
 70
     1
102
RTVSPost2010Prop56
140
1.0
102
RTVSPost2010PropOp56
 70
     1
102
RTVSPost2010Prop57
140
1.0
102
RTVSPost2010PropOp57
 70
     1
  0
XRECORD
  5
106AC35
102
{ACAD_REACTORS
330
106AC34
102
}
330
106AC34
100
AcDbXrecord
280
     1
102
RTVSPropertyOp0
 70
     1
102
RTVSPropertyOp1
 70
     1
102
RTVSPropertyOp2
 70
     1
102
RTVSPropertyOp3
 70
     1
102
RTVSPropertyOp4
 70
     1
102
RTVSPropertyOp5
 70
     1
102
RTVSPropertyOp6
 70
     1
102
RTVSPropertyOp7
 70
     1
102
RTVSPropertyOp8
 70
     1
102
RTVSPropertyOp9
 70
     1
102
RTVSPropertyOp10
 70
     1
102
RTVSPropertyOp11
 70
     1
102
RTVSPropertyOp12
 70
     1
102
RTVSPropertyOp13
 70
     1
102
RTVSPropertyOp14
 70
     1
102
RTVSPropertyOp15
 70
     1
102
RTVSPropertyOp16
 70
     1
102
RTVSPropertyOp17
 70
     1
102
RTVSPropertyOp18
 70
     1
102
RTVSPropertyOp19
 70
     1
102
RTVSPropertyOp20
 70
     1
102
RTVSPropertyOp21
 70
     1
102
RTVSPropertyOp22
 70
     1
102
RTVSPropertyOp23
 70
     1
102
RTVSPropertyOp24
 70
     1
102
RTVSPropertyOp25
 70
     1
102
RTVSPropertyOp26
 70
     1
102
RTVSPropertyOp27
 70
     1
102
RTVSPropertyOp28
 70
     1
102
RTVSPropertyOp29
 70
     1
102
RTVSPropertyOp30
 70
     1
102
RTVSPropertyOp31
 70
     1
102
RTVSPropertyOp32
 70
     1
102
RTVSPropertyOp33
 70
     1
102
RTVSPropertyOp34
 70
     1
102
RTVSPropertyOp35
 70
     1
102
RTVSPropertyOp36
 70
     1
102
RTVSPropertyOp37
 70
     1
102
RTVSPropertyOp38
 70
     1
102
RTVSPropertyOp39
 70
     1
102
RTVSPropertyOp40
 70
     1
102
RTVSPropertyOp41
 70
     1
102
RTVSPropertyOp42
 70
     1
102
RTVSPropertyOp43
 70
     1
102
RTVSPropertyOp44
 70
     1
102
RTVSPropertyOp45
 70
     1
102
RTVSPropertyOp46
 70
     1
102
RTVSPropertyOp47
 70
     1
102
RTVSPropertyOp48
 70
     1
102
RTVSPropertyOp49
 70
     1
102
RTVSPropertyOp50
 70
     1
102
RTVSPropertyOp51
 70
     0
102
RTVSPropertyOp52
 70
     0
102
RTVSPropertyOp53
 70
     1
102
RTVSPropertyOp54
 70
     1
102
RTVSPropertyOp55
 70
     1
102
RTVSPropertyOp56
 70
     1
102
RTVSPropertyOp57
 70
     1
102
RTVSPost2010Prop28
280
     0
102
RTVSPost2010PropOp28
 70
     1
102
RTVSPost2010Prop29
280
     1
102
RTVSPost2010PropOp29
 70
     1
102
RTVSPost2010Prop30
280
     1
102
RTVSPost2010PropOp30
 70
     1
102
RTVSPost2010Prop31
280
     0
102
RTVSPost2010PropOp31
 70
     1
102
RTVSPost2010Prop32
280
     0
102
RTVSPost2010PropOp32
 70
     1
102
RTVSPost2010Prop33
280
     0
102
RTVSPost2010PropOp33
 70
     1
102
RTVSPost2010Prop34
280
     0
102
RTVSPost2010PropOp34
 70
     1
102
RTVSPost2010Prop35
280
     0
102
RTVSPost2010PropOp35
 70
     1
102
RTVSPost2010Prop36
280
     0
102
RTVSPost2010PropOp36
 70
     1
102
RTVSPost2010Prop37
 90
       50
102
RTVSPost2010PropOp37
 70
     1
102
RTVSPost2010Prop38
140
0.0
102
RTVSPost2010PropOp38
 70
     1
102
RTVSPost2010Prop39
140
1.0
102
RTVSPost2010PropOp39
 70
     1
102
RTVSPost2010Prop40
 90
        0
102
RTVSPost2010PropOp40
 70
     1
102
RTVSPost2010Prop41ColorIndex
 90
       18
102
RTVSPost2010Prop41ColorRGB
 90
        0
102
RTVSPost2010PropOp41
 70
     1
102
RTVSPost2010Prop42
 90
       50
102
RTVSPost2010PropOp42
 70
     1
102
RTVSPost2010Prop43
 90
        3
102
RTVSPost2010PropOp43
 70
     1
102
RTVSPost2010Prop44ColorIndex
 90
        5
102
RTVSPost2010Prop44ColorRGB
 90
      255
102
RTVSPost2010PropOp44
 70
     1
102
RTVSPost2010Prop45
280
     0
102
RTVSPost2010PropOp45
 70
     1
102
RTVSPost2010Prop46
 90
       50
102
RTVSPost2010PropOp46
 70
     1
102
RTVSPost2010Prop47
 90
       50
102
RTVSPost2010PropOp47
 70
     1
102
RTVSPost2010Prop48
 90
       50
102
RTVSPost2010PropOp48
 70
     1
102
RTVSPost2010Prop49
280
     0
102
RTVSPost2010PropOp49
 70
     1
102
RTVSPost2010Prop50
 90
       50
102
RTVSPost2010PropOp50
 70
     1
102
RTVSPost2010Prop51ColorIndex
 90
      256
102
RTVSPost2010Prop51ColorRGB
 90
-16777216
102
RTVSPost2010PropOp51
 70
     0
102
RTVSPost2010Prop52
140
1.0
102
RTVSPost2010PropOp52
 70
     0
102
RTVSPost2010Prop53
 90
        2
102
RTVSPost2010PropOp53
 70
     1
102
RTVSPost2010Prop54
  1
strokes_ogs.tif
102
RTVSPost2010PropOp54
 70
     1
102
RTVSPost2010Prop55
280
     0
102
RTVSPost2010PropOp55
 70
     1
102
RTVSPost2010Prop56
140
1.0
102
RTVSPost2010PropOp56
 70
     1
102
RTVSPost2010Prop57
140
1.0
102
RTVSPost2010PropOp57
 70
     1
  0
XRECORD
  5
106AC3B
102
{ACAD_REACTORS
330
106AC3A
102
}
330
106AC3A
100
AcDbXrecord
280
     1
102
RTVSPropertyOp0
 70
     1
102
RTVSPropertyOp1
 70
     1
102
RTVSPropertyOp2
 70
     1
102
RTVSPropertyOp3
 70
     1
102
RTVSPropertyOp4
 70
     1
102
RTVSPropertyOp5
 70
     1
102
RTVSPropertyOp6
 70
     1
102
RTVSPropertyOp7
 70
     1
102
RTVSPropertyOp8
 70
     1
102
RTVSPropertyOp9
 70
     1
102
RTVSPropertyOp10
 70
     1
102
RTVSPropertyOp11
 70
     1
102
RTVSPropertyOp12
 70
     1
102
RTVSPropertyOp13
 70
     1
102
RTVSPropertyOp14
 70
     1
102
RTVSPropertyOp15
 70
     1
102
RTVSPropertyOp16
 70
     1
102
RTVSPropertyOp17
 70
     1
102
RTVSPropertyOp18
 70
     1
102
RTVSPropertyOp19
 70
     1
102
RTVSPropertyOp20
 70
     1
102
RTVSPropertyOp21
 70
     1
102
RTVSPropertyOp22
 70
     1
102
RTVSPropertyOp23
 70
     1
102
RTVSPropertyOp24
 70
     1
102
RTVSPropertyOp25
 70
     1
102
RTVSPropertyOp26
 70
     1
102
RTVSPropertyOp27
 70
     1
102
RTVSPropertyOp28
 70
     1
102
RTVSPropertyOp29
 70
     1
102
RTVSPropertyOp30
 70
     1
102
RTVSPropertyOp31
 70
     1
102
RTVSPropertyOp32
 70
     1
102
RTVSPropertyOp33
 70
     1
102
RTVSPropertyOp34
 70
     1
102
RTVSPropertyOp35
 70
     1
102
RTVSPropertyOp36
 70
     1
102
RTVSPropertyOp37
 70
     1
102
RTVSPropertyOp38
 70
     1
102
RTVSPropertyOp39
 70
     1
102
RTVSPropertyOp40
 70
     1
102
RTVSPropertyOp41
 70
     1
102
RTVSPropertyOp42
 70
     1
102
RTVSPropertyOp43
 70
     1
102
RTVSPropertyOp44
 70
     1
102
RTVSPropertyOp45
 70
     1
102
RTVSPropertyOp46
 70
     1
102
RTVSPropertyOp47
 70
     1
102
RTVSPropertyOp48
 70
     1
102
RTVSPropertyOp49
 70
     1
102
RTVSPropertyOp50
 70
     1
102
RTVSPropertyOp51
 70
     0
102
RTVSPropertyOp52
 70
     0
102
RTVSPropertyOp53
 70
     1
102
RTVSPropertyOp54
 70
     1
102
RTVSPropertyOp55
 70
     1
102
RTVSPropertyOp56
 70
     1
102
RTVSPropertyOp57
 70
     1
102
RTVSPost2010Prop28
280
     0
102
RTVSPost2010PropOp28
 70
     1
102
RTVSPost2010Prop29
280
     1
102
RTVSPost2010PropOp29
 70
     1
102
RTVSPost2010Prop30
280
     1
102
RTVSPost2010PropOp30
 70
     1
102
RTVSPost2010Prop31
280
     0
102
RTVSPost2010PropOp31
 70
     1
102
RTVSPost2010Prop32
280
     0
102
RTVSPost2010PropOp32
 70
     1
102
RTVSPost2010Prop33
280
     0
102
RTVSPost2010PropOp33
 70
     1
102
RTVSPost2010Prop34
280
     0
102
RTVSPost2010PropOp34
 70
     1
102
RTVSPost2010Prop35
280
     0
102
RTVSPost2010PropOp35
 70
     1
102
RTVSPost2010Prop36
280
     0
102
RTVSPost2010PropOp36
 70
     1
102
RTVSPost2010Prop37
 90
       50
102
RTVSPost2010PropOp37
 70
     1
102
RTVSPost2010Prop38
140
0.0
102
RTVSPost2010PropOp38
 70
     1
102
RTVSPost2010Prop39
140
1.0
102
RTVSPost2010PropOp39
 70
     1
102
RTVSPost2010Prop40
 90
        0
102
RTVSPost2010PropOp40
 70
     1
102
RTVSPost2010Prop41ColorIndex
 90
       18
102
RTVSPost2010Prop41ColorRGB
 90
        0
102
RTVSPost2010PropOp41
 70
     1
102
RTVSPost2010Prop42
 90
       50
102
RTVSPost2010PropOp42
 70
     1
102
RTVSPost2010Prop43
 90
        3
102
RTVSPost2010PropOp43
 70
     1
102
RTVSPost2010Prop44ColorIndex
 90
        5
102
RTVSPost2010Prop44ColorRGB
 90
      255
102
RTVSPost2010PropOp44
 70
     1
102
RTVSPost2010Prop45
280
     0
102
RTVSPost2010PropOp45
 70
     1
102
RTVSPost2010Prop46
 90
       50
102
RTVSPost2010PropOp46
 70
     1
102
RTVSPost2010Prop47
 90
       50
102
RTVSPost2010PropOp47
 70
     1
102
RTVSPost2010Prop48
 90
       50
102
RTVSPost2010PropOp48
 70
     1
102
RTVSPost2010Prop49
280
     0
102
RTVSPost2010PropOp49
 70
     1
102
RTVSPost2010Prop50
 90
       50
102
RTVSPost2010PropOp50
 70
     1
102
RTVSPost2010Prop51ColorIndex
 90
      256
102
RTVSPost2010Prop51ColorRGB
 90
-16777216
102
RTVSPost2010PropOp51
 70
     0
102
RTVSPost2010Prop52
140
1.0
102
RTVSPost2010PropOp52
 70
     0
102
RTVSPost2010Prop53
 90
        2
102
RTVSPost2010PropOp53
 70
     1
102
RTVSPost2010Prop54
  1
strokes_ogs.tif
102
RTVSPost2010PropOp54
 70
     1
102
RTVSPost2010Prop55
280
     0
102
RTVSPost2010PropOp55
 70
     1
102
RTVSPost2010Prop56
140
1.0
102
RTVSPost2010PropOp56
 70
     1
102
RTVSPost2010Prop57
140
1.0
102
RTVSPost2010PropOp57
 70
     1
  0
XRECORD
  5
106AC4F
102
{ACAD_REACTORS
330
106AC4E
102
}
330
106AC4E
100
AcDbXrecord
280
     1
102
RTVSPropertyOp0
 70
     0
102
RTVSPropertyOp1
 70
     0
102
RTVSPropertyOp2
 70
     0
102
RTVSPropertyOp3
 70
     0
102
RTVSPropertyOp4
 70
     0
102
RTVSPropertyOp5
 70
     0
102
RTVSPropertyOp6
 70
     0
102
RTVSPropertyOp7
 70
     0
102
RTVSPropertyOp8
 70
     0
102
RTVSPropertyOp9
 70
     0
102
RTVSPropertyOp10
 70
     0
102
RTVSPropertyOp11
 70
     0
102
RTVSPropertyOp12
 70
     0
102
RTVSPropertyOp13
 70
     0
102
RTVSPropertyOp14
 70
     2
102
RTVSPropertyOp15
 70
     0
102
RTVSPropertyOp16
 70
     0
102
RTVSPropertyOp17
 70
     0
102
RTVSPropertyOp18
 70
     0
102
RTVSPropertyOp19
 70
     0
102
RTVSPropertyOp20
 70
     0
102
RTVSPropertyOp21
 70
     0
102
RTVSPropertyOp22
 70
     0
102
RTVSPropertyOp23
 70
     0
102
RTVSPropertyOp24
 70
     0
102
RTVSPropertyOp25
 70
     0
102
RTVSPropertyOp26
 70
     0
102
RTVSPropertyOp27
 70
     0
102
RTVSPropertyOp28
 70
     0
102
RTVSPropertyOp29
 70
     0
102
RTVSPropertyOp30
 70
     0
102
RTVSPropertyOp31
 70
     0
102
RTVSPropertyOp32
 70
     0
102
RTVSPropertyOp33
 70
     0
102
RTVSPropertyOp34
 70
     0
102
RTVSPropertyOp35
 70
     0
102
RTVSPropertyOp36
 70
     0
102
RTVSPropertyOp37
 70
     0
102
RTVSPropertyOp38
 70
     0
102
RTVSPropertyOp39
 70
     0
102
RTVSPropertyOp40
 70
     0
102
RTVSPropertyOp41
 70
     0
102
RTVSPropertyOp42
 70
     0
102
RTVSPropertyOp43
 70
     0
102
RTVSPropertyOp44
 70
     0
102
RTVSPropertyOp45
 70
     0
102
RTVSPropertyOp46
 70
     0
102
RTVSPropertyOp47
 70
     0
102
RTVSPropertyOp48
 70
     0
102
RTVSPropertyOp49
 70
     0
102
RTVSPropertyOp50
 70
     0
102
RTVSPropertyOp51
 70
     0
102
RTVSPropertyOp52
 70
     0
102
RTVSPropertyOp53
 70
     0
102
RTVSPropertyOp54
 70
     0
102
RTVSPropertyOp55
 70
     0
102
RTVSPropertyOp56
 70
     0
102
RTVSPropertyOp57
 70
     0
102
RTVSPost2010Prop28
280
     0
102
RTVSPost2010PropOp28
 70
     0
102
RTVSPost2010Prop29
280
     1
102
RTVSPost2010PropOp29
 70
     0
102
RTVSPost2010Prop30
280
     1
102
RTVSPost2010PropOp30
 70
     0
102
RTVSPost2010Prop31
280
     0
102
RTVSPost2010PropOp31
 70
     0
102
RTVSPost2010Prop32
280
     0
102
RTVSPost2010PropOp32
 70
     0
102
RTVSPost2010Prop33
280
     0
102
RTVSPost2010PropOp33
 70
     0
102
RTVSPost2010Prop34
280
     0
102
RTVSPost2010PropOp34
 70
     0
102
RTVSPost2010Prop35
280
     0
102
RTVSPost2010PropOp35
 70
     0
102
RTVSPost2010Prop36
280
     0
102
RTVSPost2010PropOp36
 70
     0
102
RTVSPost2010Prop37
 90
       50
102
RTVSPost2010PropOp37
 70
     0
102
RTVSPost2010Prop38
140
0.0
102
RTVSPost2010PropOp38
 70
     0
102
RTVSPost2010Prop39
140
1.0
102
RTVSPost2010PropOp39
 70
     0
102
RTVSPost2010Prop40
 90
        0
102
RTVSPost2010PropOp40
 70
     0
102
RTVSPost2010Prop41ColorIndex
 90
       18
102
RTVSPost2010Prop41ColorRGB
 90
        0
102
RTVSPost2010PropOp41
 70
     0
102
RTVSPost2010Prop42
 90
       50
102
RTVSPost2010PropOp42
 70
     0
102
RTVSPost2010Prop43
 90
        3
102
RTVSPost2010PropOp43
 70
     0
102
RTVSPost2010Prop44ColorIndex
 90
        5
102
RTVSPost2010Prop44ColorRGB
 90
      255
102
RTVSPost2010PropOp44
 70
     0
102
RTVSPost2010Prop45
280
     0
102
RTVSPost2010PropOp45
 70
     0
102
RTVSPost2010Prop46
 90
       50
102
RTVSPost2010PropOp46
 70
     0
102
RTVSPost2010Prop47
 90
       50
102
RTVSPost2010PropOp47
 70
     0
102
RTVSPost2010Prop48
 90
       50
102
RTVSPost2010PropOp48
 70
     0
102
RTVSPost2010Prop49
280
     0
102
RTVSPost2010PropOp49
 70
     0
102
RTVSPost2010Prop50
 90
       50
102
RTVSPost2010PropOp50
 70
     0
102
RTVSPost2010Prop51ColorIndex
 90
      256
102
RTVSPost2010Prop51ColorRGB
 90
-16777216
102
RTVSPost2010PropOp51
 70
     0
102
RTVSPost2010Prop52
140
1.0
102
RTVSPost2010PropOp52
 70
     0
102
RTVSPost2010Prop53
 90
        2
102
RTVSPost2010PropOp53
 70
     0
102
RTVSPost2010Prop54
  1
strokes_ogs.tif
102
RTVSPost2010PropOp54
 70
     0
102
RTVSPost2010Prop55
280
     0
102
RTVSPost2010PropOp55
 70
     0
102
RTVSPost2010Prop56
140
1.0
102
RTVSPost2010PropOp56
 70
     0
102
RTVSPost2010Prop57
140
1.0
102
RTVSPost2010PropOp57
 70
     0
  0
XRECORD
  5
106AC49
102
{ACAD_REACTORS
330
106AC48
102
}
330
106AC48
100
AcDbXrecord
280
     1
102
RTVSPropertyOp0
 70
     1
102
RTVSPropertyOp1
 70
     1
102
RTVSPropertyOp2
 70
     1
102
RTVSPropertyOp3
 70
     1
102
RTVSPropertyOp4
 70
     1
102
RTVSPropertyOp5
 70
     1
102
RTVSPropertyOp6
 70
     1
102
RTVSPropertyOp7
 70
     1
102
RTVSPropertyOp8
 70
     1
102
RTVSPropertyOp9
 70
     1
102
RTVSPropertyOp10
 70
     1
102
RTVSPropertyOp11
 70
     1
102
RTVSPropertyOp12
 70
     1
102
RTVSPropertyOp13
 70
     1
102
RTVSPropertyOp14
 70
     1
102
RTVSPropertyOp15
 70
     1
102
RTVSPropertyOp16
 70
     1
102
RTVSPropertyOp17
 70
     1
102
RTVSPropertyOp18
 70
     1
102
RTVSPropertyOp19
 70
     1
102
RTVSPropertyOp20
 70
     1
102
RTVSPropertyOp21
 70
     1
102
RTVSPropertyOp22
 70
     1
102
RTVSPropertyOp23
 70
     1
102
RTVSPropertyOp24
 70
     1
102
RTVSPropertyOp25
 70
     1
102
RTVSPropertyOp26
 70
     1
102
RTVSPropertyOp27
 70
     1
102
RTVSPropertyOp28
 70
     1
102
RTVSPropertyOp29
 70
     1
102
RTVSPropertyOp30
 70
     1
102
RTVSPropertyOp31
 70
     1
102
RTVSPropertyOp32
 70
     1
102
RTVSPropertyOp33
 70
     1
102
RTVSPropertyOp34
 70
     1
102
RTVSPropertyOp35
 70
     1
102
RTVSPropertyOp36
 70
     1
102
RTVSPropertyOp37
 70
     1
102
RTVSPropertyOp38
 70
     1
102
RTVSPropertyOp39
 70
     1
102
RTVSPropertyOp40
 70
     1
102
RTVSPropertyOp41
 70
     1
102
RTVSPropertyOp42
 70
     1
102
RTVSPropertyOp43
 70
     1
102
RTVSPropertyOp44
 70
     1
102
RTVSPropertyOp45
 70
     1
102
RTVSPropertyOp46
 70
     1
102
RTVSPropertyOp47
 70
     1
102
RTVSPropertyOp48
 70
     1
102
RTVSPropertyOp49
 70
     1
102
RTVSPropertyOp50
 70
     1
102
RTVSPropertyOp51
 70
     0
102
RTVSPropertyOp52
 70
     0
102
RTVSPropertyOp53
 70
     1
102
RTVSPropertyOp54
 70
     1
102
RTVSPropertyOp55
 70
     1
102
RTVSPropertyOp56
 70
     1
102
RTVSPropertyOp57
 70
     1
102
RTVSPost2010Prop28
280
     0
102
RTVSPost2010PropOp28
 70
     1
102
RTVSPost2010Prop29
280
     1
102
RTVSPost2010PropOp29
 70
     1
102
RTVSPost2010Prop30
280
     1
102
RTVSPost2010PropOp30
 70
     1
102
RTVSPost2010Prop31
280
     0
102
RTVSPost2010PropOp31
 70
     1
102
RTVSPost2010Prop32
280
     0
102
RTVSPost2010PropOp32
 70
     1
102
RTVSPost2010Prop33
280
     0
102
RTVSPost2010PropOp33
 70
     1
102
RTVSPost2010Prop34
280
     0
102
RTVSPost2010PropOp34
 70
     1
102
RTVSPost2010Prop35
280
     0
102
RTVSPost2010PropOp35
 70
     1
102
RTVSPost2010Prop36
280
     0
102
RTVSPost2010PropOp36
 70
     1
102
RTVSPost2010Prop37
 90
       50
102
RTVSPost2010PropOp37
 70
     1
102
RTVSPost2010Prop38
140
0.0
102
RTVSPost2010PropOp38
 70
     1
102
RTVSPost2010Prop39
140
1.0
102
RTVSPost2010PropOp39
 70
     1
102
RTVSPost2010Prop40
 90
        0
102
RTVSPost2010PropOp40
 70
     1
102
RTVSPost2010Prop41ColorIndex
 90
       18
102
RTVSPost2010Prop41ColorRGB
 90
        0
102
RTVSPost2010PropOp41
 70
     1
102
RTVSPost2010Prop42
 90
       50
102
RTVSPost2010PropOp42
 70
     1
102
RTVSPost2010Prop43
 90
        3
102
RTVSPost2010PropOp43
 70
     1
102
RTVSPost2010Prop44ColorIndex
 90
        5
102
RTVSPost2010Prop44ColorRGB
 90
      255
102
RTVSPost2010PropOp44
 70
     1
102
RTVSPost2010Prop45
280
     0
102
RTVSPost2010PropOp45
 70
     1
102
RTVSPost2010Prop46
 90
       50
102
RTVSPost2010PropOp46
 70
     1
102
RTVSPost2010Prop47
 90
       50
102
RTVSPost2010PropOp47
 70
     1
102
RTVSPost2010Prop48
 90
       50
102
RTVSPost2010PropOp48
 70
     1
102
RTVSPost2010Prop49
280
     0
102
RTVSPost2010PropOp49
 70
     1
102
RTVSPost2010Prop50
 90
       50
102
RTVSPost2010PropOp50
 70
     1
102
RTVSPost2010Prop51ColorIndex
 90
      256
102
RTVSPost2010Prop51ColorRGB
 90
-16777216
102
RTVSPost2010PropOp51
 70
     0
102
RTVSPost2010Prop52
140
1.0
102
RTVSPost2010PropOp52
 70
     0
102
RTVSPost2010Prop53
 90
        2
102
RTVSPost2010PropOp53
 70
     1
102
RTVSPost2010Prop54
  1
strokes_ogs.tif
102
RTVSPost2010PropOp54
 70
     1
102
RTVSPost2010Prop55
280
     0
102
RTVSPost2010PropOp55
 70
     1
102
RTVSPost2010Prop56
140
1.0
102
RTVSPost2010PropOp56
 70
     1
102
RTVSPost2010Prop57
140
1.0
102
RTVSPost2010PropOp57
 70
     1
  0
XRECORD
  5
106AC51
102
{ACAD_REACTORS
330
106AC50
102
}
330
106AC50
100
AcDbXrecord
280
     1
102
RTVSPropertyOp0
 70
     0
102
RTVSPropertyOp1
 70
     0
102
RTVSPropertyOp2
 70
     0
102
RTVSPropertyOp3
 70
     0
102
RTVSPropertyOp4
 70
     0
102
RTVSPropertyOp5
 70
     0
102
RTVSPropertyOp6
 70
     0
102
RTVSPropertyOp7
 70
     0
102
RTVSPropertyOp8
 70
     0
102
RTVSPropertyOp9
 70
     0
102
RTVSPropertyOp10
 70
     0
102
RTVSPropertyOp11
 70
     0
102
RTVSPropertyOp12
 70
     0
102
RTVSPropertyOp13
 70
     0
102
RTVSPropertyOp14
 70
     2
102
RTVSPropertyOp15
 70
     0
102
RTVSPropertyOp16
 70
     0
102
RTVSPropertyOp17
 70
     0
102
RTVSPropertyOp18
 70
     0
102
RTVSPropertyOp19
 70
     0
102
RTVSPropertyOp20
 70
     0
102
RTVSPropertyOp21
 70
     0
102
RTVSPropertyOp22
 70
     0
102
RTVSPropertyOp23
 70
     0
102
RTVSPropertyOp24
 70
     0
102
RTVSPropertyOp25
 70
     0
102
RTVSPropertyOp26
 70
     0
102
RTVSPropertyOp27
 70
     0
102
RTVSPropertyOp28
 70
     0
102
RTVSPropertyOp29
 70
     0
102
RTVSPropertyOp30
 70
     0
102
RTVSPropertyOp31
 70
     0
102
RTVSPropertyOp32
 70
     0
102
RTVSPropertyOp33
 70
     0
102
RTVSPropertyOp34
 70
     0
102
RTVSPropertyOp35
 70
     0
102
RTVSPropertyOp36
 70
     0
102
RTVSPropertyOp37
 70
     0
102
RTVSPropertyOp38
 70
     0
102
RTVSPropertyOp39
 70
     0
102
RTVSPropertyOp40
 70
     0
102
RTVSPropertyOp41
 70
     0
102
RTVSPropertyOp42
 70
     0
102
RTVSPropertyOp43
 70
     0
102
RTVSPropertyOp44
 70
     0
102
RTVSPropertyOp45
 70
     0
102
RTVSPropertyOp46
 70
     0
102
RTVSPropertyOp47
 70
     0
102
RTVSPropertyOp48
 70
     0
102
RTVSPropertyOp49
 70
     0
102
RTVSPropertyOp50
 70
     0
102
RTVSPropertyOp51
 70
     0
102
RTVSPropertyOp52
 70
     0
102
RTVSPropertyOp53
 70
     0
102
RTVSPropertyOp54
 70
     0
102
RTVSPropertyOp55
 70
     0
102
RTVSPropertyOp56
 70
     0
102
RTVSPropertyOp57
 70
     0
102
RTVSPost2010Prop28
280
     0
102
RTVSPost2010PropOp28
 70
     0
102
RTVSPost2010Prop29
280
     1
102
RTVSPost2010PropOp29
 70
     0
102
RTVSPost2010Prop30
280
     1
102
RTVSPost2010PropOp30
 70
     0
102
RTVSPost2010Prop31
280
     0
102
RTVSPost2010PropOp31
 70
     0
102
RTVSPost2010Prop32
280
     0
102
RTVSPost2010PropOp32
 70
     0
102
RTVSPost2010Prop33
280
     0
102
RTVSPost2010PropOp33
 70
     0
102
RTVSPost2010Prop34
280
     0
102
RTVSPost2010PropOp34
 70
     0
102
RTVSPost2010Prop35
280
     0
102
RTVSPost2010PropOp35
 70
     0
102
RTVSPost2010Prop36
280
     0
102
RTVSPost2010PropOp36
 70
     0
102
RTVSPost2010Prop37
 90
       50
102
RTVSPost2010PropOp37
 70
     0
102
RTVSPost2010Prop38
140
0.0
102
RTVSPost2010PropOp38
 70
     0
102
RTVSPost2010Prop39
140
1.0
102
RTVSPost2010PropOp39
 70
     0
102
RTVSPost2010Prop40
 90
        0
102
RTVSPost2010PropOp40
 70
     0
102
RTVSPost2010Prop41ColorIndex
 90
       18
102
RTVSPost2010Prop41ColorRGB
 90
        0
102
RTVSPost2010PropOp41
 70
     0
102
RTVSPost2010Prop42
 90
       50
102
RTVSPost2010PropOp42
 70
     0
102
RTVSPost2010Prop43
 90
        3
102
RTVSPost2010PropOp43
 70
     0
102
RTVSPost2010Prop44ColorIndex
 90
        5
102
RTVSPost2010Prop44ColorRGB
 90
      255
102
RTVSPost2010PropOp44
 70
     0
102
RTVSPost2010Prop45
280
     0
102
RTVSPost2010PropOp45
 70
     0
102
RTVSPost2010Prop46
 90
       50
102
RTVSPost2010PropOp46
 70
     0
102
RTVSPost2010Prop47
 90
       50
102
RTVSPost2010PropOp47
 70
     0
102
RTVSPost2010Prop48
 90
       50
102
RTVSPost2010PropOp48
 70
     0
102
RTVSPost2010Prop49
280
     0
102
RTVSPost2010PropOp49
 70
     0
102
RTVSPost2010Prop50
 90
       50
102
RTVSPost2010PropOp50
 70
     0
102
RTVSPost2010Prop51ColorIndex
 90
      256
102
RTVSPost2010Prop51ColorRGB
 90
-16777216
102
RTVSPost2010PropOp51
 70
     0
102
RTVSPost2010Prop52
140
1.0
102
RTVSPost2010PropOp52
 70
     0
102
RTVSPost2010Prop53
 90
        2
102
RTVSPost2010PropOp53
 70
     0
102
RTVSPost2010Prop54
  1
strokes_ogs.tif
102
RTVSPost2010PropOp54
 70
     0
102
RTVSPost2010Prop55
280
     0
102
RTVSPost2010PropOp55
 70
     0
102
RTVSPost2010Prop56
140
1.0
102
RTVSPost2010PropOp56
 70
     0
102
RTVSPost2010Prop57
140
1.0
102
RTVSPost2010PropOp57
 70
     0
  0
XRECORD
  5
106AC3F
102
{ACAD_REACTORS
330
106AC3E
102
}
330
106AC3E
100
AcDbXrecord
280
     1
102
RTVSPropertyOp0
 70
     1
102
RTVSPropertyOp1
 70
     1
102
RTVSPropertyOp2
 70
     1
102
RTVSPropertyOp3
 70
     1
102
RTVSPropertyOp4
 70
     1
102
RTVSPropertyOp5
 70
     1
102
RTVSPropertyOp6
 70
     1
102
RTVSPropertyOp7
 70
     1
102
RTVSPropertyOp8
 70
     1
102
RTVSPropertyOp9
 70
     1
102
RTVSPropertyOp10
 70
     1
102
RTVSPropertyOp11
 70
     1
102
RTVSPropertyOp12
 70
     1
102
RTVSPropertyOp13
 70
     1
102
RTVSPropertyOp14
 70
     1
102
RTVSPropertyOp15
 70
     1
102
RTVSPropertyOp16
 70
     1
102
RTVSPropertyOp17
 70
     1
102
RTVSPropertyOp18
 70
     1
102
RTVSPropertyOp19
 70
     1
102
RTVSPropertyOp20
 70
     1
102
RTVSPropertyOp21
 70
     1
102
RTVSPropertyOp22
 70
     1
102
RTVSPropertyOp23
 70
     1
102
RTVSPropertyOp24
 70
     1
102
RTVSPropertyOp25
 70
     1
102
RTVSPropertyOp26
 70
     1
102
RTVSPropertyOp27
 70
     1
102
RTVSPropertyOp28
 70
     1
102
RTVSPropertyOp29
 70
     1
102
RTVSPropertyOp30
 70
     1
102
RTVSPropertyOp31
 70
     1
102
RTVSPropertyOp32
 70
     1
102
RTVSPropertyOp33
 70
     1
102
RTVSPropertyOp34
 70
     1
102
RTVSPropertyOp35
 70
     1
102
RTVSPropertyOp36
 70
     1
102
RTVSPropertyOp37
 70
     1
102
RTVSPropertyOp38
 70
     1
102
RTVSPropertyOp39
 70
     1
102
RTVSPropertyOp40
 70
     1
102
RTVSPropertyOp41
 70
     1
102
RTVSPropertyOp42
 70
     1
102
RTVSPropertyOp43
 70
     1
102
RTVSPropertyOp44
 70
     1
102
RTVSPropertyOp45
 70
     1
102
RTVSPropertyOp46
 70
     1
102
RTVSPropertyOp47
 70
     1
102
RTVSPropertyOp48
 70
     1
102
RTVSPropertyOp49
 70
     1
102
RTVSPropertyOp50
 70
     1
102
RTVSPropertyOp51
 70
     0
102
RTVSPropertyOp52
 70
     0
102
RTVSPropertyOp53
 70
     1
102
RTVSPropertyOp54
 70
     1
102
RTVSPropertyOp55
 70
     1
102
RTVSPropertyOp56
 70
     1
102
RTVSPropertyOp57
 70
     1
102
RTVSPost2010Prop28
280
     0
102
RTVSPost2010PropOp28
 70
     1
102
RTVSPost2010Prop29
280
     1
102
RTVSPost2010PropOp29
 70
     1
102
RTVSPost2010Prop30
280
     1
102
RTVSPost2010PropOp30
 70
     1
102
RTVSPost2010Prop31
280
     0
102
RTVSPost2010PropOp31
 70
     1
102
RTVSPost2010Prop32
280
     0
102
RTVSPost2010PropOp32
 70
     1
102
RTVSPost2010Prop33
280
     0
102
RTVSPost2010PropOp33
 70
     1
102
RTVSPost2010Prop34
280
     0
102
RTVSPost2010PropOp34
 70
     1
102
RTVSPost2010Prop35
280
     0
102
RTVSPost2010PropOp35
 70
     1
102
RTVSPost2010Prop36
280
     0
102
RTVSPost2010PropOp36
 70
     1
102
RTVSPost2010Prop37
 90
       50
102
RTVSPost2010PropOp37
 70
     1
102
RTVSPost2010Prop38
140
0.0
102
RTVSPost2010PropOp38
 70
     1
102
RTVSPost2010Prop39
140
1.0
102
RTVSPost2010PropOp39
 70
     1
102
RTVSPost2010Prop40
 90
        0
102
RTVSPost2010PropOp40
 70
     1
102
RTVSPost2010Prop41ColorIndex
 90
       18
102
RTVSPost2010Prop41ColorRGB
 90
        0
102
RTVSPost2010PropOp41
 70
     1
102
RTVSPost2010Prop42
 90
       50
102
RTVSPost2010PropOp42
 70
     1
102
RTVSPost2010Prop43
 90
        3
102
RTVSPost2010PropOp43
 70
     1
102
RTVSPost2010Prop44ColorIndex
 90
        5
102
RTVSPost2010Prop44ColorRGB
 90
      255
102
RTVSPost2010PropOp44
 70
     1
102
RTVSPost2010Prop45
280
     0
102
RTVSPost2010PropOp45
 70
     1
102
RTVSPost2010Prop46
 90
       50
102
RTVSPost2010PropOp46
 70
     1
102
RTVSPost2010Prop47
 90
       50
102
RTVSPost2010PropOp47
 70
     1
102
RTVSPost2010Prop48
 90
       50
102
RTVSPost2010PropOp48
 70
     1
102
RTVSPost2010Prop49
280
     0
102
RTVSPost2010PropOp49
 70
     1
102
RTVSPost2010Prop50
 90
       50
102
RTVSPost2010PropOp50
 70
     1
102
RTVSPost2010Prop51ColorIndex
 90
      256
102
RTVSPost2010Prop51ColorRGB
 90
-16777216
102
RTVSPost2010PropOp51
 70
     0
102
RTVSPost2010Prop52
140
1.0
102
RTVSPost2010PropOp52
 70
     0
102
RTVSPost2010Prop53
 90
        2
102
RTVSPost2010PropOp53
 70
     1
102
RTVSPost2010Prop54
  1
strokes_ogs.tif
102
RTVSPost2010PropOp54
 70
     1
102
RTVSPost2010Prop55
280
     0
102
RTVSPost2010PropOp55
 70
     1
102
RTVSPost2010Prop56
140
1.0
102
RTVSPost2010PropOp56
 70
     1
102
RTVSPost2010Prop57
140
1.0
102
RTVSPost2010PropOp57
 70
     1
  0
XRECORD
  5
106AC5D
102
{ACAD_REACTORS
330
106AC5C
102
}
330
106AC5C
100
AcDbXrecord
280
     1
102
RTVSPropertyOp0
 70
     1
102
RTVSPropertyOp1
 70
     1
102
RTVSPropertyOp2
 70
     1
102
RTVSPropertyOp3
 70
     1
102
RTVSPropertyOp4
 70
     1
102
RTVSPropertyOp5
 70
     1
102
RTVSPropertyOp6
 70
     1
102
RTVSPropertyOp7
 70
     1
102
RTVSPropertyOp8
 70
     1
102
RTVSPropertyOp9
 70
     1
102
RTVSPropertyOp10
 70
     1
102
RTVSPropertyOp11
 70
     1
102
RTVSPropertyOp12
 70
     1
102
RTVSPropertyOp13
 70
     1
102
RTVSPropertyOp14
 70
     1
102
RTVSPropertyOp15
 70
     1
102
RTVSPropertyOp16
 70
     1
102
RTVSPropertyOp17
 70
     1
102
RTVSPropertyOp18
 70
     1
102
RTVSPropertyOp19
 70
     1
102
RTVSPropertyOp20
 70
     1
102
RTVSPropertyOp21
 70
     1
102
RTVSPropertyOp22
 70
     1
102
RTVSPropertyOp23
 70
     1
102
RTVSPropertyOp24
 70
     1
102
RTVSPropertyOp25
 70
     1
102
RTVSPropertyOp26
 70
     1
102
RTVSPropertyOp27
 70
     1
102
RTVSPropertyOp28
 70
     1
102
RTVSPropertyOp29
 70
     1
102
RTVSPropertyOp30
 70
     1
102
RTVSPropertyOp31
 70
     1
102
RTVSPropertyOp32
 70
     1
102
RTVSPropertyOp33
 70
     1
102
RTVSPropertyOp34
 70
     1
102
RTVSPropertyOp35
 70
     1
102
RTVSPropertyOp36
 70
     1
102
RTVSPropertyOp37
 70
     1
102
RTVSPropertyOp38
 70
     1
102
RTVSPropertyOp39
 70
     1
102
RTVSPropertyOp40
 70
     1
102
RTVSPropertyOp41
 70
     1
102
RTVSPropertyOp42
 70
     1
102
RTVSPropertyOp43
 70
     1
102
RTVSPropertyOp44
 70
     1
102
RTVSPropertyOp45
 70
     1
102
RTVSPropertyOp46
 70
     1
102
RTVSPropertyOp47
 70
     1
102
RTVSPropertyOp48
 70
     1
102
RTVSPropertyOp49
 70
     1
102
RTVSPropertyOp50
 70
     1
102
RTVSPropertyOp51
 70
     0
102
RTVSPropertyOp52
 70
     0
102
RTVSPropertyOp53
 70
     1
102
RTVSPropertyOp54
 70
     1
102
RTVSPropertyOp55
 70
     1
102
RTVSPropertyOp56
 70
     1
102
RTVSPropertyOp57
 70
     1
102
RTVSPost2010Prop28
280
     0
102
RTVSPost2010PropOp28
 70
     1
102
RTVSPost2010Prop29
280
     1
102
RTVSPost2010PropOp29
 70
     1
102
RTVSPost2010Prop30
280
     1
102
RTVSPost2010PropOp30
 70
     1
102
RTVSPost2010Prop31
280
     0
102
RTVSPost2010PropOp31
 70
     1
102
RTVSPost2010Prop32
280
     0
102
RTVSPost2010PropOp32
 70
     1
102
RTVSPost2010Prop33
280
     0
102
RTVSPost2010PropOp33
 70
     1
102
RTVSPost2010Prop34
280
     0
102
RTVSPost2010PropOp34
 70
     1
102
RTVSPost2010Prop35
280
     0
102
RTVSPost2010PropOp35
 70
     1
102
RTVSPost2010Prop36
280
     0
102
RTVSPost2010PropOp36
 70
     1
102
RTVSPost2010Prop37
 90
       50
102
RTVSPost2010PropOp37
 70
     1
102
RTVSPost2010Prop38
140
0.0
102
RTVSPost2010PropOp38
 70
     1
102
RTVSPost2010Prop39
140
1.0
102
RTVSPost2010PropOp39
 70
     1
102
RTVSPost2010Prop40
 90
        0
102
RTVSPost2010PropOp40
 70
     1
102
RTVSPost2010Prop41ColorIndex
 90
       18
102
RTVSPost2010Prop41ColorRGB
 90
        0
102
RTVSPost2010PropOp41
 70
     1
102
RTVSPost2010Prop42
 90
       50
102
RTVSPost2010PropOp42
 70
     1
102
RTVSPost2010Prop43
 90
        3
102
RTVSPost2010PropOp43
 70
     1
102
RTVSPost2010Prop44ColorIndex
 90
        5
102
RTVSPost2010Prop44ColorRGB
 90
      255
102
RTVSPost2010PropOp44
 70
     1
102
RTVSPost2010Prop45
280
     0
102
RTVSPost2010PropOp45
 70
     1
102
RTVSPost2010Prop46
 90
       50
102
RTVSPost2010PropOp46
 70
     1
102
RTVSPost2010Prop47
 90
       50
102
RTVSPost2010PropOp47
 70
     1
102
RTVSPost2010Prop48
 90
       50
102
RTVSPost2010PropOp48
 70
     1
102
RTVSPost2010Prop49
280
     0
102
RTVSPost2010PropOp49
 70
     1
102
RTVSPost2010Prop50
 90
       50
102
RTVSPost2010PropOp50
 70
     1
102
RTVSPost2010Prop51ColorIndex
 90
      256
102
RTVSPost2010Prop51ColorRGB
 90
-16777216
102
RTVSPost2010PropOp51
 70
     0
102
RTVSPost2010Prop52
140
1.0
102
RTVSPost2010PropOp52
 70
     0
102
RTVSPost2010Prop53
 90
        2
102
RTVSPost2010PropOp53
 70
     1
102
RTVSPost2010Prop54
  1
strokes_ogs.tif
102
RTVSPost2010PropOp54
 70
     1
102
RTVSPost2010Prop55
280
     0
102
RTVSPost2010PropOp55
 70
     1
102
RTVSPost2010Prop56
140
1.0
102
RTVSPost2010PropOp56
 70
     1
102
RTVSPost2010Prop57
140
1.0
102
RTVSPost2010PropOp57
 70
     1
  0
XRECORD
  5
106AC5B
102
{ACAD_REACTORS
330
106AC5A
102
}
330
106AC5A
100
AcDbXrecord
280
     1
102
RTVSPropertyOp0
 70
     1
102
RTVSPropertyOp1
 70
     1
102
RTVSPropertyOp2
 70
     1
102
RTVSPropertyOp3
 70
     1
102
RTVSPropertyOp4
 70
     1
102
RTVSPropertyOp5
 70
     1
102
RTVSPropertyOp6
 70
     1
102
RTVSPropertyOp7
 70
     1
102
RTVSPropertyOp8
 70
     1
102
RTVSPropertyOp9
 70
     1
102
RTVSPropertyOp10
 70
     1
102
RTVSPropertyOp11
 70
     1
102
RTVSPropertyOp12
 70
     1
102
RTVSPropertyOp13
 70
     1
102
RTVSPropertyOp14
 70
     1
102
RTVSPropertyOp15
 70
     1
102
RTVSPropertyOp16
 70
     1
102
RTVSPropertyOp17
 70
     1
102
RTVSPropertyOp18
 70
     1
102
RTVSPropertyOp19
 70
     1
102
RTVSPropertyOp20
 70
     1
102
RTVSPropertyOp21
 70
     1
102
RTVSPropertyOp22
 70
     1
102
RTVSPropertyOp23
 70
     1
102
RTVSPropertyOp24
 70
     1
102
RTVSPropertyOp25
 70
     1
102
RTVSPropertyOp26
 70
     1
102
RTVSPropertyOp27
 70
     1
102
RTVSPropertyOp28
 70
     1
102
RTVSPropertyOp29
 70
     1
102
RTVSPropertyOp30
 70
     1
102
RTVSPropertyOp31
 70
     1
102
RTVSPropertyOp32
 70
     1
102
RTVSPropertyOp33
 70
     1
102
RTVSPropertyOp34
 70
     1
102
RTVSPropertyOp35
 70
     1
102
RTVSPropertyOp36
 70
     1
102
RTVSPropertyOp37
 70
     1
102
RTVSPropertyOp38
 70
     1
102
RTVSPropertyOp39
 70
     1
102
RTVSPropertyOp40
 70
     1
102
RTVSPropertyOp41
 70
     1
102
RTVSPropertyOp42
 70
     1
102
RTVSPropertyOp43
 70
     1
102
RTVSPropertyOp44
 70
     1
102
RTVSPropertyOp45
 70
     1
102
RTVSPropertyOp46
 70
     1
102
RTVSPropertyOp47
 70
     1
102
RTVSPropertyOp48
 70
     1
102
RTVSPropertyOp49
 70
     1
102
RTVSPropertyOp50
 70
     1
102
RTVSPropertyOp51
 70
     0
102
RTVSPropertyOp52
 70
     0
102
RTVSPropertyOp53
 70
     1
102
RTVSPropertyOp54
 70
     1
102
RTVSPropertyOp55
 70
     1
102
RTVSPropertyOp56
 70
     1
102
RTVSPropertyOp57
 70
     1
102
RTVSPost2010Prop28
280
     0
102
RTVSPost2010PropOp28
 70
     1
102
RTVSPost2010Prop29
280
     1
102
RTVSPost2010PropOp29
 70
     1
102
RTVSPost2010Prop30
280
     1
102
RTVSPost2010PropOp30
 70
     1
102
RTVSPost2010Prop31
280
     0
102
RTVSPost2010PropOp31
 70
     1
102
RTVSPost2010Prop32
280
     0
102
RTVSPost2010PropOp32
 70
     1
102
RTVSPost2010Prop33
280
     0
102
RTVSPost2010PropOp33
 70
     1
102
RTVSPost2010Prop34
280
     0
102
RTVSPost2010PropOp34
 70
     1
102
RTVSPost2010Prop35
280
     0
102
RTVSPost2010PropOp35
 70
     1
102
RTVSPost2010Prop36
280
     0
102
RTVSPost2010PropOp36
 70
     1
102
RTVSPost2010Prop37
 90
       50
102
RTVSPost2010PropOp37
 70
     1
102
RTVSPost2010Prop38
140
0.0
102
RTVSPost2010PropOp38
 70
     1
102
RTVSPost2010Prop39
140
1.0
102
RTVSPost2010PropOp39
 70
     1
102
RTVSPost2010Prop40
 90
        0
102
RTVSPost2010PropOp40
 70
     1
102
RTVSPost2010Prop41ColorIndex
 90
       18
102
RTVSPost2010Prop41ColorRGB
 90
        0
102
RTVSPost2010PropOp41
 70
     1
102
RTVSPost2010Prop42
 90
       50
102
RTVSPost2010PropOp42
 70
     1
102
RTVSPost2010Prop43
 90
        3
102
RTVSPost2010PropOp43
 70
     1
102
RTVSPost2010Prop44ColorIndex
 90
        5
102
RTVSPost2010Prop44ColorRGB
 90
      255
102
RTVSPost2010PropOp44
 70
     1
102
RTVSPost2010Prop45
280
     0
102
RTVSPost2010PropOp45
 70
     1
102
RTVSPost2010Prop46
 90
       50
102
RTVSPost2010PropOp46
 70
     1
102
RTVSPost2010Prop47
 90
       50
102
RTVSPost2010PropOp47
 70
     1
102
RTVSPost2010Prop48
 90
       50
102
RTVSPost2010PropOp48
 70
     1
102
RTVSPost2010Prop49
280
     0
102
RTVSPost2010PropOp49
 70
     1
102
RTVSPost2010Prop50
 90
       50
102
RTVSPost2010PropOp50
 70
     1
102
RTVSPost2010Prop51ColorIndex
 90
      256
102
RTVSPost2010Prop51ColorRGB
 90
-16777216
102
RTVSPost2010PropOp51
 70
     0
102
RTVSPost2010Prop52
140
1.0
102
RTVSPost2010PropOp52
 70
     0
102
RTVSPost2010Prop53
 90
        2
102
RTVSPost2010PropOp53
 70
     1
102
RTVSPost2010Prop54
  1
strokes_ogs.tif
102
RTVSPost2010PropOp54
 70
     1
102
RTVSPost2010Prop55
280
     0
102
RTVSPost2010PropOp55
 70
     1
102
RTVSPost2010Prop56
140
1.0
102
RTVSPost2010PropOp56
 70
     1
102
RTVSPost2010Prop57
140
1.0
102
RTVSPost2010PropOp57
 70
     1
  0
XRECORD
  5
106AC55
102
{ACAD_REACTORS
330
106AC54
102
}
330
106AC54
100
AcDbXrecord
280
     1
102
RTVSPropertyOp0
 70
     1
102
RTVSPropertyOp1
 70
     1
102
RTVSPropertyOp2
 70
     1
102
RTVSPropertyOp3
 70
     1
102
RTVSPropertyOp4
 70
     1
102
RTVSPropertyOp5
 70
     1
102
RTVSPropertyOp6
 70
     1
102
RTVSPropertyOp7
 70
     1
102
RTVSPropertyOp8
 70
     1
102
RTVSPropertyOp9
 70
     1
102
RTVSPropertyOp10
 70
     1
102
RTVSPropertyOp11
 70
     1
102
RTVSPropertyOp12
 70
     1
102
RTVSPropertyOp13
 70
     1
102
RTVSPropertyOp14
 70
     1
102
RTVSPropertyOp15
 70
     1
102
RTVSPropertyOp16
 70
     1
102
RTVSPropertyOp17
 70
     1
102
RTVSPropertyOp18
 70
     1
102
RTVSPropertyOp19
 70
     1
102
RTVSPropertyOp20
 70
     1
102
RTVSPropertyOp21
 70
     1
102
RTVSPropertyOp22
 70
     1
102
RTVSPropertyOp23
 70
     1
102
RTVSPropertyOp24
 70
     1
102
RTVSPropertyOp25
 70
     1
102
RTVSPropertyOp26
 70
     1
102
RTVSPropertyOp27
 70
     1
102
RTVSPropertyOp28
 70
     1
102
RTVSPropertyOp29
 70
     1
102
RTVSPropertyOp30
 70
     1
102
RTVSPropertyOp31
 70
     1
102
RTVSPropertyOp32
 70
     1
102
RTVSPropertyOp33
 70
     1
102
RTVSPropertyOp34
 70
     1
102
RTVSPropertyOp35
 70
     1
102
RTVSPropertyOp36
 70
     1
102
RTVSPropertyOp37
 70
     1
102
RTVSPropertyOp38
 70
     1
102
RTVSPropertyOp39
 70
     1
102
RTVSPropertyOp40
 70
     1
102
RTVSPropertyOp41
 70
     1
102
RTVSPropertyOp42
 70
     1
102
RTVSPropertyOp43
 70
     1
102
RTVSPropertyOp44
 70
     1
102
RTVSPropertyOp45
 70
     1
102
RTVSPropertyOp46
 70
     1
102
RTVSPropertyOp47
 70
     1
102
RTVSPropertyOp48
 70
     1
102
RTVSPropertyOp49
 70
     1
102
RTVSPropertyOp50
 70
     1
102
RTVSPropertyOp51
 70
     0
102
RTVSPropertyOp52
 70
     0
102
RTVSPropertyOp53
 70
     1
102
RTVSPropertyOp54
 70
     1
102
RTVSPropertyOp55
 70
     1
102
RTVSPropertyOp56
 70
     1
102
RTVSPropertyOp57
 70
     1
102
RTVSPost2010Prop28
280
     0
102
RTVSPost2010PropOp28
 70
     1
102
RTVSPost2010Prop29
280
     1
102
RTVSPost2010PropOp29
 70
     1
102
RTVSPost2010Prop30
280
     1
102
RTVSPost2010PropOp30
 70
     1
102
RTVSPost2010Prop31
280
     0
102
RTVSPost2010PropOp31
 70
     1
102
RTVSPost2010Prop32
280
     0
102
RTVSPost2010PropOp32
 70
     1
102
RTVSPost2010Prop33
280
     0
102
RTVSPost2010PropOp33
 70
     1
102
RTVSPost2010Prop34
280
     0
102
RTVSPost2010PropOp34
 70
     1
102
RTVSPost2010Prop35
280
     0
102
RTVSPost2010PropOp35
 70
     1
102
RTVSPost2010Prop36
280
     0
102
RTVSPost2010PropOp36
 70
     1
102
RTVSPost2010Prop37
 90
       50
102
RTVSPost2010PropOp37
 70
     1
102
RTVSPost2010Prop38
140
0.0
102
RTVSPost2010PropOp38
 70
     1
102
RTVSPost2010Prop39
140
1.0
102
RTVSPost2010PropOp39
 70
     1
102
RTVSPost2010Prop40
 90
        0
102
RTVSPost2010PropOp40
 70
     1
102
RTVSPost2010Prop41ColorIndex
 90
       18
102
RTVSPost2010Prop41ColorRGB
 90
        0
102
RTVSPost2010PropOp41
 70
     1
102
RTVSPost2010Prop42
 90
       50
102
RTVSPost2010PropOp42
 70
     1
102
RTVSPost2010Prop43
 90
        3
102
RTVSPost2010PropOp43
 70
     1
102
RTVSPost2010Prop44ColorIndex
 90
        5
102
RTVSPost2010Prop44ColorRGB
 90
      255
102
RTVSPost2010PropOp44
 70
     1
102
RTVSPost2010Prop45
280
     0
102
RTVSPost2010PropOp45
 70
     1
102
RTVSPost2010Prop46
 90
       50
102
RTVSPost2010PropOp46
 70
     1
102
RTVSPost2010Prop47
 90
       50
102
RTVSPost2010PropOp47
 70
     1
102
RTVSPost2010Prop48
 90
       50
102
RTVSPost2010PropOp48
 70
     1
102
RTVSPost2010Prop49
280
     0
102
RTVSPost2010PropOp49
 70
     1
102
RTVSPost2010Prop50
 90
       50
102
RTVSPost2010PropOp50
 70
     1
102
RTVSPost2010Prop51ColorIndex
 90
      256
102
RTVSPost2010Prop51ColorRGB
 90
-16777216
102
RTVSPost2010PropOp51
 70
     0
102
RTVSPost2010Prop52
140
1.0
102
RTVSPost2010PropOp52
 70
     0
102
RTVSPost2010Prop53
 90
        2
102
RTVSPost2010PropOp53
 70
     1
102
RTVSPost2010Prop54
  1
strokes_ogs.tif
102
RTVSPost2010PropOp54
 70
     1
102
RTVSPost2010Prop55
280
     0
102
RTVSPost2010PropOp55
 70
     1
102
RTVSPost2010Prop56
140
1.0
102
RTVSPost2010PropOp56
 70
     1
102
RTVSPost2010Prop57
140
1.0
102
RTVSPost2010PropOp57
 70
     1
  0
XRECORD
  5
106AC57
102
{ACAD_REACTORS
330
106AC56
102
}
330
106AC56
100
AcDbXrecord
280
     1
102
RTVSPropertyOp0
 70
     1
102
RTVSPropertyOp1
 70
     1
102
RTVSPropertyOp2
 70
     1
102
RTVSPropertyOp3
 70
     1
102
RTVSPropertyOp4
 70
     1
102
RTVSPropertyOp5
 70
     1
102
RTVSPropertyOp6
 70
     1
102
RTVSPropertyOp7
 70
     1
102
RTVSPropertyOp8
 70
     1
102
RTVSPropertyOp9
 70
     1
102
RTVSPropertyOp10
 70
     1
102
RTVSPropertyOp11
 70
     1
102
RTVSPropertyOp12
 70
     1
102
RTVSPropertyOp13
 70
     1
102
RTVSPropertyOp14
 70
     1
102
RTVSPropertyOp15
 70
     1
102
RTVSPropertyOp16
 70
     1
102
RTVSPropertyOp17
 70
     1
102
RTVSPropertyOp18
 70
     1
102
RTVSPropertyOp19
 70
     1
102
RTVSPropertyOp20
 70
     1
102
RTVSPropertyOp21
 70
     1
102
RTVSPropertyOp22
 70
     1
102
RTVSPropertyOp23
 70
     1
102
RTVSPropertyOp24
 70
     1
102
RTVSPropertyOp25
 70
     1
102
RTVSPropertyOp26
 70
     1
102
RTVSPropertyOp27
 70
     1
102
RTVSPropertyOp28
 70
     1
102
RTVSPropertyOp29
 70
     1
102
RTVSPropertyOp30
 70
     1
102
RTVSPropertyOp31
 70
     1
102
RTVSPropertyOp32
 70
     1
102
RTVSPropertyOp33
 70
     1
102
RTVSPropertyOp34
 70
     1
102
RTVSPropertyOp35
 70
     1
102
RTVSPropertyOp36
 70
     1
102
RTVSPropertyOp37
 70
     1
102
RTVSPropertyOp38
 70
     1
102
RTVSPropertyOp39
 70
     1
102
RTVSPropertyOp40
 70
     1
102
RTVSPropertyOp41
 70
     1
102
RTVSPropertyOp42
 70
     1
102
RTVSPropertyOp43
 70
     1
102
RTVSPropertyOp44
 70
     1
102
RTVSPropertyOp45
 70
     1
102
RTVSPropertyOp46
 70
     1
102
RTVSPropertyOp47
 70
     1
102
RTVSPropertyOp48
 70
     1
102
RTVSPropertyOp49
 70
     1
102
RTVSPropertyOp50
 70
     1
102
RTVSPropertyOp51
 70
     0
102
RTVSPropertyOp52
 70
     0
102
RTVSPropertyOp53
 70
     1
102
RTVSPropertyOp54
 70
     1
102
RTVSPropertyOp55
 70
     1
102
RTVSPropertyOp56
 70
     1
102
RTVSPropertyOp57
 70
     1
102
RTVSPost2010Prop28
280
     0
102
RTVSPost2010PropOp28
 70
     1
102
RTVSPost2010Prop29
280
     1
102
RTVSPost2010PropOp29
 70
     1
102
RTVSPost2010Prop30
280
     1
102
RTVSPost2010PropOp30
 70
     1
102
RTVSPost2010Prop31
280
     0
102
RTVSPost2010PropOp31
 70
     1
102
RTVSPost2010Prop32
280
     0
102
RTVSPost2010PropOp32
 70
     1
102
RTVSPost2010Prop33
280
     0
102
RTVSPost2010PropOp33
 70
     1
102
RTVSPost2010Prop34
280
     0
102
RTVSPost2010PropOp34
 70
     1
102
RTVSPost2010Prop35
280
     0
102
RTVSPost2010PropOp35
 70
     1
102
RTVSPost2010Prop36
280
     0
102
RTVSPost2010PropOp36
 70
     1
102
RTVSPost2010Prop37
 90
       50
102
RTVSPost2010PropOp37
 70
     1
102
RTVSPost2010Prop38
140
0.0
102
RTVSPost2010PropOp38
 70
     1
102
RTVSPost2010Prop39
140
1.0
102
RTVSPost2010PropOp39
 70
     1
102
RTVSPost2010Prop40
 90
        0
102
RTVSPost2010PropOp40
 70
     1
102
RTVSPost2010Prop41ColorIndex
 90
       18
102
RTVSPost2010Prop41ColorRGB
 90
        0
102
RTVSPost2010PropOp41
 70
     1
102
RTVSPost2010Prop42
 90
       50
102
RTVSPost2010PropOp42
 70
     1
102
RTVSPost2010Prop43
 90
        3
102
RTVSPost2010PropOp43
 70
     1
102
RTVSPost2010Prop44ColorIndex
 90
        5
102
RTVSPost2010Prop44ColorRGB
 90
      255
102
RTVSPost2010PropOp44
 70
     1
102
RTVSPost2010Prop45
280
     0
102
RTVSPost2010PropOp45
 70
     1
102
RTVSPost2010Prop46
 90
       50
102
RTVSPost2010PropOp46
 70
     1
102
RTVSPost2010Prop47
 90
       50
102
RTVSPost2010PropOp47
 70
     1
102
RTVSPost2010Prop48
 90
       50
102
RTVSPost2010PropOp48
 70
     1
102
RTVSPost2010Prop49
280
     0
102
RTVSPost2010PropOp49
 70
     1
102
RTVSPost2010Prop50
 90
       50
102
RTVSPost2010PropOp50
 70
     1
102
RTVSPost2010Prop51ColorIndex
 90
      256
102
RTVSPost2010Prop51ColorRGB
 90
-16777216
102
RTVSPost2010PropOp51
 70
     0
102
RTVSPost2010Prop52
140
1.0
102
RTVSPost2010PropOp52
 70
     0
102
RTVSPost2010Prop53
 90
        2
102
RTVSPost2010PropOp53
 70
     1
102
RTVSPost2010Prop54
  1
strokes_ogs.tif
102
RTVSPost2010PropOp54
 70
     1
102
RTVSPost2010Prop55
280
     0
102
RTVSPost2010PropOp55
 70
     1
102
RTVSPost2010Prop56
140
1.0
102
RTVSPost2010PropOp56
 70
     1
102
RTVSPost2010Prop57
140
1.0
102
RTVSPost2010PropOp57
 70
     1
  0
XRECORD
  5
106AC47
102
{ACAD_REACTORS
330
106AC46
102
}
330
106AC46
100
AcDbXrecord
280
     1
102
RTVSPropertyOp0
 70
     1
102
RTVSPropertyOp1
 70
     1
102
RTVSPropertyOp2
 70
     1
102
RTVSPropertyOp3
 70
     1
102
RTVSPropertyOp4
 70
     1
102
RTVSPropertyOp5
 70
     1
102
RTVSPropertyOp6
 70
     1
102
RTVSPropertyOp7
 70
     1
102
RTVSPropertyOp8
 70
     1
102
RTVSPropertyOp9
 70
     1
102
RTVSPropertyOp10
 70
     1
102
RTVSPropertyOp11
 70
     1
102
RTVSPropertyOp12
 70
     1
102
RTVSPropertyOp13
 70
     1
102
RTVSPropertyOp14
 70
     1
102
RTVSPropertyOp15
 70
     1
102
RTVSPropertyOp16
 70
     1
102
RTVSPropertyOp17
 70
     1
102
RTVSPropertyOp18
 70
     1
102
RTVSPropertyOp19
 70
     1
102
RTVSPropertyOp20
 70
     1
102
RTVSPropertyOp21
 70
     1
102
RTVSPropertyOp22
 70
     1
102
RTVSPropertyOp23
 70
     1
102
RTVSPropertyOp24
 70
     1
102
RTVSPropertyOp25
 70
     1
102
RTVSPropertyOp26
 70
     1
102
RTVSPropertyOp27
 70
     1
102
RTVSPropertyOp28
 70
     1
102
RTVSPropertyOp29
 70
     1
102
RTVSPropertyOp30
 70
     1
102
RTVSPropertyOp31
 70
     1
102
RTVSPropertyOp32
 70
     1
102
RTVSPropertyOp33
 70
     1
102
RTVSPropertyOp34
 70
     1
102
RTVSPropertyOp35
 70
     1
102
RTVSPropertyOp36
 70
     1
102
RTVSPropertyOp37
 70
     1
102
RTVSPropertyOp38
 70
     1
102
RTVSPropertyOp39
 70
     1
102
RTVSPropertyOp40
 70
     1
102
RTVSPropertyOp41
 70
     1
102
RTVSPropertyOp42
 70
     1
102
RTVSPropertyOp43
 70
     1
102
RTVSPropertyOp44
 70
     1
102
RTVSPropertyOp45
 70
     1
102
RTVSPropertyOp46
 70
     1
102
RTVSPropertyOp47
 70
     1
102
RTVSPropertyOp48
 70
     1
102
RTVSPropertyOp49
 70
     1
102
RTVSPropertyOp50
 70
     1
102
RTVSPropertyOp51
 70
     0
102
RTVSPropertyOp52
 70
     0
102
RTVSPropertyOp53
 70
     1
102
RTVSPropertyOp54
 70
     1
102
RTVSPropertyOp55
 70
     1
102
RTVSPropertyOp56
 70
     1
102
RTVSPropertyOp57
 70
     1
102
RTVSPost2010Prop28
280
     0
102
RTVSPost2010PropOp28
 70
     1
102
RTVSPost2010Prop29
280
     1
102
RTVSPost2010PropOp29
 70
     1
102
RTVSPost2010Prop30
280
     1
102
RTVSPost2010PropOp30
 70
     1
102
RTVSPost2010Prop31
280
     0
102
RTVSPost2010PropOp31
 70
     1
102
RTVSPost2010Prop32
280
     0
102
RTVSPost2010PropOp32
 70
     1
102
RTVSPost2010Prop33
280
     0
102
RTVSPost2010PropOp33
 70
     1
102
RTVSPost2010Prop34
280
     0
102
RTVSPost2010PropOp34
 70
     1
102
RTVSPost2010Prop35
280
     0
102
RTVSPost2010PropOp35
 70
     1
102
RTVSPost2010Prop36
280
     0
102
RTVSPost2010PropOp36
 70
     1
102
RTVSPost2010Prop37
 90
       50
102
RTVSPost2010PropOp37
 70
     1
102
RTVSPost2010Prop38
140
0.0
102
RTVSPost2010PropOp38
 70
     1
102
RTVSPost2010Prop39
140
1.0
102
RTVSPost2010PropOp39
 70
     1
102
RTVSPost2010Prop40
 90
        0
102
RTVSPost2010PropOp40
 70
     1
102
RTVSPost2010Prop41ColorIndex
 90
       18
102
RTVSPost2010Prop41ColorRGB
 90
        0
102
RTVSPost2010PropOp41
 70
     1
102
RTVSPost2010Prop42
 90
       50
102
RTVSPost2010PropOp42
 70
     1
102
RTVSPost2010Prop43
 90
        3
102
RTVSPost2010PropOp43
 70
     1
102
RTVSPost2010Prop44ColorIndex
 90
        5
102
RTVSPost2010Prop44ColorRGB
 90
      255
102
RTVSPost2010PropOp44
 70
     1
102
RTVSPost2010Prop45
280
     0
102
RTVSPost2010PropOp45
 70
     1
102
RTVSPost2010Prop46
 90
       50
102
RTVSPost2010PropOp46
 70
     1
102
RTVSPost2010Prop47
 90
       50
102
RTVSPost2010PropOp47
 70
     1
102
RTVSPost2010Prop48
 90
       50
102
RTVSPost2010PropOp48
 70
     1
102
RTVSPost2010Prop49
280
     0
102
RTVSPost2010PropOp49
 70
     1
102
RTVSPost2010Prop50
 90
       50
102
RTVSPost2010PropOp50
 70
     1
102
RTVSPost2010Prop51ColorIndex
 90
      256
102
RTVSPost2010Prop51ColorRGB
 90
-16777216
102
RTVSPost2010PropOp51
 70
     0
102
RTVSPost2010Prop52
140
1.0
102
RTVSPost2010PropOp52
 70
     0
102
RTVSPost2010Prop53
 90
        2
102
RTVSPost2010PropOp53
 70
     1
102
RTVSPost2010Prop54
  1
strokes_ogs.tif
102
RTVSPost2010PropOp54
 70
     1
102
RTVSPost2010Prop55
280
     0
102
RTVSPost2010PropOp55
 70
     1
102
RTVSPost2010Prop56
140
1.0
102
RTVSPost2010PropOp56
 70
     1
102
RTVSPost2010Prop57
140
1.0
102
RTVSPost2010PropOp57
 70
     1
  0
XRECORD
  5
106AC39
102
{ACAD_REACTORS
330
106AC38
102
}
330
106AC38
100
AcDbXrecord
280
     1
102
RTVSPropertyOp0
 70
     1
102
RTVSPropertyOp1
 70
     1
102
RTVSPropertyOp2
 70
     1
102
RTVSPropertyOp3
 70
     1
102
RTVSPropertyOp4
 70
     1
102
RTVSPropertyOp5
 70
     1
102
RTVSPropertyOp6
 70
     1
102
RTVSPropertyOp7
 70
     1
102
RTVSPropertyOp8
 70
     1
102
RTVSPropertyOp9
 70
     1
102
RTVSPropertyOp10
 70
     1
102
RTVSPropertyOp11
 70
     1
102
RTVSPropertyOp12
 70
     1
102
RTVSPropertyOp13
 70
     1
102
RTVSPropertyOp14
 70
     1
102
RTVSPropertyOp15
 70
     1
102
RTVSPropertyOp16
 70
     1
102
RTVSPropertyOp17
 70
     1
102
RTVSPropertyOp18
 70
     1
102
RTVSPropertyOp19
 70
     1
102
RTVSPropertyOp20
 70
     1
102
RTVSPropertyOp21
 70
     1
102
RTVSPropertyOp22
 70
     1
102
RTVSPropertyOp23
 70
     1
102
RTVSPropertyOp24
 70
     1
102
RTVSPropertyOp25
 70
     1
102
RTVSPropertyOp26
 70
     1
102
RTVSPropertyOp27
 70
     1
102
RTVSPropertyOp28
 70
     1
102
RTVSPropertyOp29
 70
     1
102
RTVSPropertyOp30
 70
     1
102
RTVSPropertyOp31
 70
     1
102
RTVSPropertyOp32
 70
     1
102
RTVSPropertyOp33
 70
     1
102
RTVSPropertyOp34
 70
     1
102
RTVSPropertyOp35
 70
     1
102
RTVSPropertyOp36
 70
     1
102
RTVSPropertyOp37
 70
     1
102
RTVSPropertyOp38
 70
     1
102
RTVSPropertyOp39
 70
     1
102
RTVSPropertyOp40
 70
     1
102
RTVSPropertyOp41
 70
     1
102
RTVSPropertyOp42
 70
     1
102
RTVSPropertyOp43
 70
     1
102
RTVSPropertyOp44
 70
     1
102
RTVSPropertyOp45
 70
     1
102
RTVSPropertyOp46
 70
     1
102
RTVSPropertyOp47
 70
     1
102
RTVSPropertyOp48
 70
     1
102
RTVSPropertyOp49
 70
     1
102
RTVSPropertyOp50
 70
     1
102
RTVSPropertyOp51
 70
     0
102
RTVSPropertyOp52
 70
     0
102
RTVSPropertyOp53
 70
     1
102
RTVSPropertyOp54
 70
     1
102
RTVSPropertyOp55
 70
     1
102
RTVSPropertyOp56
 70
     1
102
RTVSPropertyOp57
 70
     1
102
RTVSPost2010Prop28
280
     0
102
RTVSPost2010PropOp28
 70
     1
102
RTVSPost2010Prop29
280
     1
102
RTVSPost2010PropOp29
 70
     1
102
RTVSPost2010Prop30
280
     1
102
RTVSPost2010PropOp30
 70
     1
102
RTVSPost2010Prop31
280
     0
102
RTVSPost2010PropOp31
 70
     1
102
RTVSPost2010Prop32
280
     0
102
RTVSPost2010PropOp32
 70
     1
102
RTVSPost2010Prop33
280
     0
102
RTVSPost2010PropOp33
 70
     1
102
RTVSPost2010Prop34
280
     0
102
RTVSPost2010PropOp34
 70
     1
102
RTVSPost2010Prop35
280
     0
102
RTVSPost2010PropOp35
 70
     1
102
RTVSPost2010Prop36
280
     0
102
RTVSPost2010PropOp36
 70
     1
102
RTVSPost2010Prop37
 90
       50
102
RTVSPost2010PropOp37
 70
     1
102
RTVSPost2010Prop38
140
0.0
102
RTVSPost2010PropOp38
 70
     1
102
RTVSPost2010Prop39
140
1.0
102
RTVSPost2010PropOp39
 70
     1
102
RTVSPost2010Prop40
 90
        0
102
RTVSPost2010PropOp40
 70
     1
102
RTVSPost2010Prop41ColorIndex
 90
       18
102
RTVSPost2010Prop41ColorRGB
 90
        0
102
RTVSPost2010PropOp41
 70
     1
102
RTVSPost2010Prop42
 90
       50
102
RTVSPost2010PropOp42
 70
     1
102
RTVSPost2010Prop43
 90
        3
102
RTVSPost2010PropOp43
 70
     1
102
RTVSPost2010Prop44ColorIndex
 90
        5
102
RTVSPost2010Prop44ColorRGB
 90
      255
102
RTVSPost2010PropOp44
 70
     1
102
RTVSPost2010Prop45
280
     0
102
RTVSPost2010PropOp45
 70
     1
102
RTVSPost2010Prop46
 90
       50
102
RTVSPost2010PropOp46
 70
     1
102
RTVSPost2010Prop47
 90
       50
102
RTVSPost2010PropOp47
 70
     1
102
RTVSPost2010Prop48
 90
       50
102
RTVSPost2010PropOp48
 70
     1
102
RTVSPost2010Prop49
280
     0
102
RTVSPost2010PropOp49
 70
     1
102
RTVSPost2010Prop50
 90
       50
102
RTVSPost2010PropOp50
 70
     1
102
RTVSPost2010Prop51ColorIndex
 90
      256
102
RTVSPost2010Prop51ColorRGB
 90
-16777216
102
RTVSPost2010PropOp51
 70
     0
102
RTVSPost2010Prop52
140
1.0
102
RTVSPost2010PropOp52
 70
     0
102
RTVSPost2010Prop53
 90
        2
102
RTVSPost2010PropOp53
 70
     1
102
RTVSPost2010Prop54
  1
strokes_ogs.tif
102
RTVSPost2010PropOp54
 70
     1
102
RTVSPost2010Prop55
280
     0
102
RTVSPost2010PropOp55
 70
     1
102
RTVSPost2010Prop56
140
1.0
102
RTVSPost2010PropOp56
 70
     1
102
RTVSPost2010Prop57
140
1.0
102
RTVSPost2010PropOp57
 70
     1
  0
XRECORD
  5
106AC59
102
{ACAD_REACTORS
330
106AC58
102
}
330
106AC58
100
AcDbXrecord
280
     1
102
RTVSPropertyOp0
 70
     1
102
RTVSPropertyOp1
 70
     1
102
RTVSPropertyOp2
 70
     1
102
RTVSPropertyOp3
 70
     1
102
RTVSPropertyOp4
 70
     1
102
RTVSPropertyOp5
 70
     1
102
RTVSPropertyOp6
 70
     1
102
RTVSPropertyOp7
 70
     1
102
RTVSPropertyOp8
 70
     1
102
RTVSPropertyOp9
 70
     1
102
RTVSPropertyOp10
 70
     1
102
RTVSPropertyOp11
 70
     1
102
RTVSPropertyOp12
 70
     1
102
RTVSPropertyOp13
 70
     1
102
RTVSPropertyOp14
 70
     1
102
RTVSPropertyOp15
 70
     1
102
RTVSPropertyOp16
 70
     1
102
RTVSPropertyOp17
 70
     1
102
RTVSPropertyOp18
 70
     1
102
RTVSPropertyOp19
 70
     1
102
RTVSPropertyOp20
 70
     1
102
RTVSPropertyOp21
 70
     1
102
RTVSPropertyOp22
 70
     1
102
RTVSPropertyOp23
 70
     1
102
RTVSPropertyOp24
 70
     1
102
RTVSPropertyOp25
 70
     1
102
RTVSPropertyOp26
 70
     1
102
RTVSPropertyOp27
 70
     1
102
RTVSPropertyOp28
 70
     1
102
RTVSPropertyOp29
 70
     1
102
RTVSPropertyOp30
 70
     1
102
RTVSPropertyOp31
 70
     1
102
RTVSPropertyOp32
 70
     1
102
RTVSPropertyOp33
 70
     1
102
RTVSPropertyOp34
 70
     1
102
RTVSPropertyOp35
 70
     1
102
RTVSPropertyOp36
 70
     1
102
RTVSPropertyOp37
 70
     1
102
RTVSPropertyOp38
 70
     1
102
RTVSPropertyOp39
 70
     1
102
RTVSPropertyOp40
 70
     1
102
RTVSPropertyOp41
 70
     1
102
RTVSPropertyOp42
 70
     1
102
RTVSPropertyOp43
 70
     1
102
RTVSPropertyOp44
 70
     1
102
RTVSPropertyOp45
 70
     1
102
RTVSPropertyOp46
 70
     1
102
RTVSPropertyOp47
 70
     1
102
RTVSPropertyOp48
 70
     1
102
RTVSPropertyOp49
 70
     1
102
RTVSPropertyOp50
 70
     1
102
RTVSPropertyOp51
 70
     0
102
RTVSPropertyOp52
 70
     0
102
RTVSPropertyOp53
 70
     1
102
RTVSPropertyOp54
 70
     1
102
RTVSPropertyOp55
 70
     1
102
RTVSPropertyOp56
 70
     1
102
RTVSPropertyOp57
 70
     1
102
RTVSPost2010Prop28
280
     0
102
RTVSPost2010PropOp28
 70
     1
102
RTVSPost2010Prop29
280
     1
102
RTVSPost2010PropOp29
 70
     1
102
RTVSPost2010Prop30
280
     1
102
RTVSPost2010PropOp30
 70
     1
102
RTVSPost2010Prop31
280
     0
102
RTVSPost2010PropOp31
 70
     1
102
RTVSPost2010Prop32
280
     0
102
RTVSPost2010PropOp32
 70
     1
102
RTVSPost2010Prop33
280
     0
102
RTVSPost2010PropOp33
 70
     1
102
RTVSPost2010Prop34
280
     0
102
RTVSPost2010PropOp34
 70
     1
102
RTVSPost2010Prop35
280
     0
102
RTVSPost2010PropOp35
 70
     1
102
RTVSPost2010Prop36
280
     0
102
RTVSPost2010PropOp36
 70
     1
102
RTVSPost2010Prop37
 90
       50
102
RTVSPost2010PropOp37
 70
     1
102
RTVSPost2010Prop38
140
0.0
102
RTVSPost2010PropOp38
 70
     1
102
RTVSPost2010Prop39
140
1.0
102
RTVSPost2010PropOp39
 70
     1
102
RTVSPost2010Prop40
 90
        0
102
RTVSPost2010PropOp40
 70
     1
102
RTVSPost2010Prop41ColorIndex
 90
       18
102
RTVSPost2010Prop41ColorRGB
 90
        0
102
RTVSPost2010PropOp41
 70
     1
102
RTVSPost2010Prop42
 90
       50
102
RTVSPost2010PropOp42
 70
     1
102
RTVSPost2010Prop43
 90
        3
102
RTVSPost2010PropOp43
 70
     1
102
RTVSPost2010Prop44ColorIndex
 90
        5
102
RTVSPost2010Prop44ColorRGB
 90
      255
102
RTVSPost2010PropOp44
 70
     1
102
RTVSPost2010Prop45
280
     0
102
RTVSPost2010PropOp45
 70
     1
102
RTVSPost2010Prop46
 90
       50
102
RTVSPost2010PropOp46
 70
     1
102
RTVSPost2010Prop47
 90
       50
102
RTVSPost2010PropOp47
 70
     1
102
RTVSPost2010Prop48
 90
       50
102
RTVSPost2010PropOp48
 70
     1
102
RTVSPost2010Prop49
280
     0
102
RTVSPost2010PropOp49
 70
     1
102
RTVSPost2010Prop50
 90
       50
102
RTVSPost2010PropOp50
 70
     1
102
RTVSPost2010Prop51ColorIndex
 90
      256
102
RTVSPost2010Prop51ColorRGB
 90
-16777216
102
RTVSPost2010PropOp51
 70
     0
102
RTVSPost2010Prop52
140
1.0
102
RTVSPost2010PropOp52
 70
     0
102
RTVSPost2010Prop53
 90
        2
102
RTVSPost2010PropOp53
 70
     1
102
RTVSPost2010Prop54
  1
strokes_ogs.tif
102
RTVSPost2010PropOp54
 70
     1
102
RTVSPost2010Prop55
280
     0
102
RTVSPost2010PropOp55
 70
     1
102
RTVSPost2010Prop56
140
1.0
102
RTVSPost2010PropOp56
 70
     1
102
RTVSPost2010Prop57
140
1.0
102
RTVSPost2010PropOp57
 70
     1
  0
ENDSEC
  0
EOF
