  0
SECTION
  2
HEADER
  9
$ACADVER
  1
AC1015
  9
$DWGCODEPAGE
  3
ANSI_932
  9
$HANDSEED
  5
106AB90
  0
ENDSEC
  0
SECTION
  2
CLASSES
  0
CLASS
  1
IMAGEDEF
  2
AcDbRasterImageDef
  3
ISM
  90
0
  91
4
  280
0
  281
0
  0
CLASS
  1
IMAGE
  2
AcDbRasterImage
  3
ISM
  90
127
  91
5
  280
0
  281
1
  0
CLASS
  1
IMAGEDEF_REACTOR
  2
AcDbRasterImageDefReactor
  3
ISM
  90
1
  91
4
  280
0
  281
0
  0
ENDSEC
  0
SECTION
  2
TABLES
  0
TABLE
  2
VPORT
  5
2
  330
0
  100
AcDbSymbolTable
  70
    0
  0
ENDTAB
  0
TABLE
  2
LTYPE
  5
3
  330
0
  100
AcDbSymbolTable
  70
    4
  0
LTYPE
  5
4
  330
3
  100
AcDbSymbolTableRecord
  100
AcDbLinetypeTableRecord
  2
ByBlock
  70
    0
  3

  72
65
  73
    0
  40
0
  0
LTYPE
  5
5
  330
3
  100
AcDbSymbolTableRecord
  100
AcDbLinetypeTableRecord
  2
ByLayer
  70
    0
  3

  72
65
  73
    0
  40
0
  0
LTYPE
  5
6
  330
3
  100
AcDbSymbolTableRecord
  100
AcDbLinetypeTableRecord
  2
CONTINUOUS
  70
    0
  3
Solid Line
  72
65
  73
    0
  40
0
  0
LTYPE
  5
7
  330
3
  100
AcDbSymbolTableRecord
  100
AcDbLinetypeTableRecord
  2
DASH
  70
    0
  3
Hidden
  72
65
  73
2
  40
2.5
  49
1.5
  74
0
  49
-1
  74
0
  0
LTYPE
  5
8
  330
3
  100
AcDbSymbolTableRecord
  100
AcDbLinetypeTableRecord
  2
LONGDASHDASH
  70
    0
  3
__ . __
  72
65
  73
    4
  40
7
  49
4
  74
    0
  49
-1
  74
    0
  49
1
  74
    0
  49
-1
  74
    0
  0
ENDTAB
  0
TABLE
  2
LAYER
  5
9
  330
0
  100
AcDbSymbolTable
  70
    40
  0
LAYER
  5
a
  330
9
  100
AcDbSymbolTableRecord
  100
AcDbLayerTableRecord
  2
0
  70
    0
  62
    0
  6
CONTINUOUS
  390
0
  0
LAYER
  5
c
  330
9
  100
AcDbSymbolTableRecord
  100
AcDbLayerTableRecord
  2
1
  70
    0
  62
    4
  6
CONTINUOUS
  370
50
  390
0
  0
LAYER
  5
d
  330
9
  100
AcDbSymbolTableRecord
  100
AcDbLayerTableRecord
  2
2
  70
    0
  62
    7
  6
CONTINUOUS
  370
25
  390
0
  0
LAYER
  5
f
  330
9
  100
AcDbSymbolTableRecord
  100
AcDbLayerTableRecord
  2
4
  70
    0
  62
    2
  6
LONGDASHDASH
  370
25
  390
0
  0
LAYER
  5
13
  330
9
  100
AcDbSymbolTableRecord
  100
AcDbLayerTableRecord
  2
SK1
  70
    0
  62
    4
  6
CONTINUOUS
  370
50
  390
0
  0
LAYER
  5
14
  330
9
  100
AcDbSymbolTableRecord
  100
AcDbLayerTableRecord
  2
SK2
  70
    0
  62
    7
  6
CONTINUOUS
  370
25
  390
0
  0
LAYER
  5
16
  330
9
  100
AcDbSymbolTableRecord
  100
AcDbLayerTableRecord
  2
SK4
  70
    0
  62
    2
  6
LONGDASHDASH
  370
25
  390
0
  0
LAYER
  5
21
  330
9
  100
AcDbSymbolTableRecord
  100
AcDbLayerTableRecord
  2
NOCUT
  70
    0
  62
    7
  6
CONTINUOUS
  370
25
  390
0
  0
LAYER
  5
22
  330
9
  100
AcDbSymbolTableRecord
  100
AcDbLayerTableRecord
  2
CUT
  70
    0
  62
    1
  6
CONTINUOUS
  370
25
  390
0
  0
LAYER
  5
26
  330
9
  100
AcDbSymbolTableRecord
  100
AcDbLayerTableRecord
  2
INFTOTAL
  70
    0
  62
    9
  6
CONTINUOUS
  370
18
  390
0
  0
ENDTAB
  0
TABLE
  2
STYLE
  5
27
  330
0
  100
AcDbSymbolTable
  70
    1
  0
STYLE
  5
28
  330
27
  100
AcDbSymbolTableRecord
  100
AcDbTextStyleTableRecord
  2
Monospac821 BT
  70
    0
  40
    3.5
  41
1
  50
0
  71
0
  42
3
  3

  4

  1001
ACAD
  1000
Monospac821 BT
  1071
256
  0
ENDTAB
  0
TABLE
  2
VIEW
  5
29
  330
0
  100
AcDbSymbolTable
  70
    0
  0
ENDTAB
  0
TABLE
  2
UCS
  5
2a
  330
0
  100
AcDbSymbolTable
  70
    0
  0
ENDTAB
  0
TABLE
  2
APPID
  5
2b
  330
0
  100
AcDbSymbolTable
  70
    1
  0
APPID
  5
2c
  330
2b
  100
AcDbSymbolTableRecord
  100
AcDbRegAppTableRecord
  2
ACAD
  70
    0
  0
ENDTAB
  0
TABLE
  2
DIMSTYLE
  5
2d
  330
0
  100
AcDbSymbolTable
  70
    1
  100
AcDbDimStyleTable
  0
DIMSTYLE
  105
2e
  330
2d
  100
AcDbSymbolTableRecord
  100
AcDbDimStyleTableRecord
  2
STANDARD
  70
    0
  41
    3
  42
0.5
  44
1
  73
0
  77
1
  78
1
  140
3.5
  141
2.5
  143
0.03937
  147
0.8
  172
1
  174
1
  178
0
  179
1
  271
2
  279
1
  284
1
  340
28
  0
ENDTAB
  0
TABLE
  2
BLOCK_RECORD
  5
2f
  330
0
  100
AcDbSymbolTable
  70
    2
  0
BLOCK_RECORD
  5
30
  330
2f
  100
AcDbSymbolTableRecord
  100
AcDbBlockTableRecord
  2
*Model_Space
  0
BLOCK_RECORD
  5
31
  330
2f
  100
AcDbSymbolTableRecord
  100
AcDbBlockTableRecord
  2
*Paper_Space
  0
BLOCK_RECORD
  5
91
  330
2f
  100
AcDbSymbolTableRecord
  100
AcDbBlockTableRecord
  2
*D90
  340
0
  0
BLOCK_RECORD
  5
9f
  330
2f
  100
AcDbSymbolTableRecord
  100
AcDbBlockTableRecord
  2
*D9e
  340
0
  0
BLOCK_RECORD
  5
ad
  330
2f
  100
AcDbSymbolTableRecord
  100
AcDbBlockTableRecord
  2
*Dac
  340
0
  0
BLOCK_RECORD
  5
bb
  330
2f
  100
AcDbSymbolTableRecord
  100
AcDbBlockTableRecord
  2
*Dba
  340
0
  0
BLOCK_RECORD
  5
c9
  330
2f
  100
AcDbSymbolTableRecord
  100
AcDbBlockTableRecord
  2
*Dc8
  340
0
  0
BLOCK_RECORD
  5
d3
  330
2f
  100
AcDbSymbolTableRecord
  100
AcDbBlockTableRecord
  2
*Dd2
  340
0
  0
BLOCK_RECORD
  5
e1
  330
2f
  100
AcDbSymbolTableRecord
  100
AcDbBlockTableRecord
  2
*De0
  340
0
  0
BLOCK_RECORD
  5
ef
  330
2f
  100
AcDbSymbolTableRecord
  100
AcDbBlockTableRecord
  2
*Dee
  340
0
  0
BLOCK_RECORD
  5
fd
  330
2f
  100
AcDbSymbolTableRecord
  100
AcDbBlockTableRecord
  2
*Dfc
  340
0
  0
ENDTAB
  0
ENDSEC
  0
SECTION
  2
BLOCKS
  0
BLOCK
  5
32
  330
30
  100
AcDbEntity
  8
0
  100
AcDbBlockBegin
  2
*Model_Space
  70
    0
  10
0
  20
0
  30
0
  3
*Model_Space
  1

  0
ENDBLK
  5
33
  330
30
  100
AcDbEntity
  8
0
  100
AcDbBlockEnd
  0
BLOCK
  5
34
  330
31
  100
AcDbEntity
  8
0
  100
AcDbBlockBegin
  2
*Paper_Space
  70
    0
  10
0
  20
0
  30
0
  3
*Paper_Space
  1

  0
ENDBLK
  5
35
  330
31
  100
AcDbEntity
  8
0
  100
AcDbBlockEnd
  0
BLOCK
  5
8f
  330
91
  100
AcDbEntity
  8
SK2
  100
AcDbBlockBegin
  2
*D90
  70
1
  10
0
  20
0
  30
0
  3
*D90
  1

  0
LINE
  5
92
  330
91
  100
AcDbEntity
  8
SK2
  100
AcDbLine
  10
0
  20
1.3
  30
0
  11
0
  21
19
  31
0
  0
LINE
  5
93
  330
91
  100
AcDbEntity
  8
SK2
  100
AcDbLine
  10
45
  20
-14
  30
0
  11
45
  21
19
  31
0
  0
LINE
  5
94
  330
91
  100
AcDbEntity
  8
SK2
  100
AcDbLine
  10
0
  20
17
  30
0
  11
45
  21
17
  31
0
  0
SOLID
  5
95
  330
91
  100
AcDbEntity
  8
SK2
  100
AcDbTrace
  10
0
  20
17
  30
0
  11
2.478612
  21
17.326315
  31
0
  12
2.478612
  22
16.673685
  32
0
  13
2.478612
  23
16.673685
  33
0
  0
SOLID
  5
96
  330
91
  100
AcDbEntity
  8
SK2
  100
AcDbTrace
  10
45
  20
17
  30
0
  11
42.521388
  21
16.673685
  31
0
  12
42.521388
  22
17.326315
  32
0
  13
42.521388
  23
17.326315
  33
0
  0
MTEXT
  5
97
  330
91
  100
AcDbEntity
  8
SK2
  100
AcDbMText
  10
22.5
  20
17
  30
0
  11
1
  21
0
  31
0
  40
2
  41
0
  71
8
  72
1
  1
45
  0
POINT
  5
98
  330
91
  100
AcDbEntity
  8
SK2
  62
0
  100
AcDbPoint
  10
0
  20
1.3
  30
0
  0
POINT
  5
99
  330
91
  100
AcDbEntity
  8
SK2
  62
0
  100
AcDbPoint
  10
45
  20
-14
  30
0
  0
POINT
  5
9a
  330
91
  100
AcDbEntity
  8
SK2
  62
0
  100
AcDbPoint
  10
45
  20
17
  30
0
  0
ENDBLK
  5
9b
  330
91
  100
AcDbEntity
  8
SK2
  100
AcDbBlockEnd
  0
BLOCK
  5
9d
  330
9f
  100
AcDbEntity
  8
SK2
  100
AcDbBlockBegin
  2
*D9e
  70
1
  10
0
  20
0
  30
0
  3
*D9e
  1

  0
LINE
  5
a0
  330
9f
  100
AcDbEntity
  8
SK2
  100
AcDbLine
  10
44.9
  20
-0.1
  30
0
  11
57
  21
-0.1
  31
0
  0
LINE
  5
a1
  330
9f
  100
AcDbEntity
  8
SK2
  100
AcDbLine
  10
44.9
  20
0.1
  30
0
  11
57
  21
0.1
  31
0
  0
LINE
  5
a2
  330
9f
  100
AcDbEntity
  8
SK2
  100
AcDbLine
  10
55
  20
-6.757426
  30
0
  11
55
  21
0.1
  31
0
  0
SOLID
  5
a3
  330
9f
  100
AcDbEntity
  8
SK2
  100
AcDbTrace
  10
55
  20
-0.1
  30
0
  11
54.673685
  21
2.378612
  31
0
  12
55.326315
  22
2.378612
  32
0
  13
55.326315
  23
2.378612
  33
0
  0
SOLID
  5
a4
  330
9f
  100
AcDbEntity
  8
SK2
  100
AcDbTrace
  10
55
  20
0.1
  30
0
  11
55.326315
  21
-2.378612
  31
0
  12
54.673685
  22
-2.378612
  32
0
  13
54.673685
  23
-2.378612
  33
0
  0
MTEXT
  5
a5
  330
9f
  100
AcDbEntity
  8
SK2
  100
AcDbMText
  10
55
  20
0
  30
0
  11
0
  21
1
  31
0
  40
2
  41
0
  71
8
  72
1
  1
ﾘ0.2
  0
POINT
  5
a6
  330
9f
  100
AcDbEntity
  8
SK2
  62
0
  100
AcDbPoint
  10
44.9
  20
-0.1
  30
0
  0
POINT
  5
a7
  330
9f
  100
AcDbEntity
  8
SK2
  62
0
  100
AcDbPoint
  10
44.9
  20
0.1
  30
0
  0
POINT
  5
a8
  330
9f
  100
AcDbEntity
  8
SK2
  62
0
  100
AcDbPoint
  10
55
  20
0.1
  30
0
  0
ENDBLK
  5
a9
  330
9f
  100
AcDbEntity
  8
SK2
  100
AcDbBlockEnd
  0
BLOCK
  5
ab
  330
ad
  100
AcDbEntity
  8
SK2
  100
AcDbBlockBegin
  2
*Dac
  70
1
  10
0
  20
0
  30
0
  3
*Dac
  1

  0
LINE
  5
ae
  330
ad
  100
AcDbEntity
  8
SK2
  100
AcDbLine
  10
36.4
  20
2
  30
0
  11
36.4
  21
14
  31
0
  0
LINE
  5
af
  330
ad
  100
AcDbEntity
  8
SK2
  100
AcDbLine
  10
0
  20
1.3
  30
0
  11
0
  21
19
  31
0
  0
LINE
  5
b0
  330
ad
  100
AcDbEntity
  8
SK2
  100
AcDbLine
  10
36.4
  20
12
  30
0
  11
0
  21
12
  31
0
  0
SOLID
  5
b1
  330
ad
  100
AcDbEntity
  8
SK2
  100
AcDbTrace
  10
36.4
  20
12
  30
0
  11
38.878612
  21
12.326315
  31
0
  12
38.878612
  22
11.673685
  32
0
  13
38.878612
  23
11.673685
  33
0
  0
SOLID
  5
b2
  330
ad
  100
AcDbEntity
  8
SK2
  100
AcDbTrace
  10
0
  20
12
  30
0
  11
-2.478612
  21
11.673685
  31
0
  12
-2.478612
  22
12.326315
  32
0
  13
-2.478612
  23
12.326315
  33
0
  0
MTEXT
  5
b3
  330
ad
  100
AcDbEntity
  8
SK2
  100
AcDbMText
  10
18.2
  20
12
  30
0
  11
1
  21
-0
  31
0
  40
2
  41
0
  71
8
  72
1
  1
36.4
  0
POINT
  5
b4
  330
ad
  100
AcDbEntity
  8
SK2
  62
0
  100
AcDbPoint
  10
36.4
  20
2
  30
0
  0
POINT
  5
b5
  330
ad
  100
AcDbEntity
  8
SK2
  62
0
  100
AcDbPoint
  10
0
  20
1.3
  30
0
  0
POINT
  5
b6
  330
ad
  100
AcDbEntity
  8
SK2
  62
0
  100
AcDbPoint
  10
0
  20
12
  30
0
  0
ENDBLK
  5
b7
  330
ad
  100
AcDbEntity
  8
SK2
  100
AcDbBlockEnd
  0
BLOCK
  5
b9
  330
bb
  100
AcDbEntity
  8
SK2
  100
AcDbBlockBegin
  2
*Dba
  70
1
  10
0
  20
0
  30
0
  3
*Dba
  1

  0
LINE
  5
bc
  330
bb
  100
AcDbEntity
  8
SK2
  100
AcDbLine
  10
0.7
  20
-2
  30
0
  11
-12
  21
-2
  31
0
  0
LINE
  5
bd
  330
bb
  100
AcDbEntity
  8
SK2
  100
AcDbLine
  10
0.7
  20
2
  30
0
  11
-12
  21
2
  31
0
  0
LINE
  5
be
  330
bb
  100
AcDbEntity
  8
SK2
  100
AcDbLine
  10
-10
  20
-4.158416
  30
0
  11
-10
  21
2
  31
0
  0
SOLID
  5
bf
  330
bb
  100
AcDbEntity
  8
SK2
  100
AcDbTrace
  10
-10
  20
-2
  30
0
  11
-10.326315
  21
0.478612
  31
0
  12
-9.673685
  22
0.478612
  32
0
  13
-9.673685
  23
0.478612
  33
0
  0
SOLID
  5
c0
  330
bb
  100
AcDbEntity
  8
SK2
  100
AcDbTrace
  10
-10
  20
2
  30
0
  11
-9.673685
  21
-0.478612
  31
0
  12
-10.326315
  22
-0.478612
  32
0
  13
-10.326315
  23
-0.478612
  33
0
  0
MTEXT
  5
c1
  330
bb
  100
AcDbEntity
  8
SK2
  100
AcDbMText
  10
-10
  20
0
  30
0
  11
0
  21
1
  31
0
  40
2
  41
0
  71
8
  72
1
  1
ﾘ4
  0
POINT
  5
c2
  330
bb
  100
AcDbEntity
  8
SK2
  62
0
  100
AcDbPoint
  10
0.7
  20
-2
  30
0
  0
POINT
  5
c3
  330
bb
  100
AcDbEntity
  8
SK2
  62
0
  100
AcDbPoint
  10
0.7
  20
2
  30
0
  0
POINT
  5
c4
  330
bb
  100
AcDbEntity
  8
SK2
  62
0
  100
AcDbPoint
  10
-10
  20
2
  30
0
  0
ENDBLK
  5
c5
  330
bb
  100
AcDbEntity
  8
SK2
  100
AcDbBlockEnd
  0
BLOCK
  5
c7
  330
c9
  100
AcDbEntity
  8
2
  100
AcDbBlockBegin
  2
*Dc8
  70
1
  10
0
  20
0
  30
0
  3
*Dc8
  1

  0
LINE
  5
ca
  330
c9
  100
AcDbEntity
  8
2
  100
AcDbLine
  10
42.397401
  20
-2.502599
  30
0
  11
52.041778
  21
7.141778
  31
0
  0
MTEXT
  5
cb
  330
c9
  100
AcDbEntity
  8
2
  100
AcDbMText
  10
44.970711
  20
0.070711
  30
0
  11
0.707107
  21
0.707107
  31
0
  40
2
  41
0
  71
8
  72
1
  1
R0.1
  0
SOLID
  5
cc
  330
c9
  100
AcDbEntity
  8
2
  100
AcDbTrace
  10
44.970711
  20
0.070711
  30
0
  11
46.492614
  21
2.054094
  31
0
  12
46.954094
  22
1.592614
  32
0
  13
46.954094
  23
1.592614
  33
0
  0
POINT
  5
cd
  330
c9
  100
AcDbEntity
  8
2
  62
0
  100
AcDbPoint
  10
42.397401
  20
-2.502599
  30
0
  0
POINT
  5
ce
  330
c9
  100
AcDbEntity
  8
2
  62
0
  100
AcDbPoint
  10
44.9
  20
0
  30
0
  0
ENDBLK
  5
cf
  330
c9
  100
AcDbEntity
  8
2
  100
AcDbBlockEnd
  0
BLOCK
  5
d1
  330
d3
  100
AcDbEntity
  8
2
  100
AcDbBlockBegin
  2
*Dd2
  70
1
  10
0
  20
0
  30
0
  3
*Dd2
  1

  0
LINE
  5
d4
  330
d3
  100
AcDbEntity
  8
2
  100
AcDbLine
  10
44.84
  20
-0.09
  30
0
  11
42.84
  21
-0.09
  31
0
  0
LINE
  5
d5
  330
d3
  100
AcDbEntity
  8
2
  100
AcDbLine
  10
44.84
  20
0.09
  30
0
  11
42.84
  21
0.09
  31
0
  0
LINE
  5
d6
  330
d3
  100
AcDbEntity
  8
2
  100
AcDbLine
  10
44.84
  20
-0.09
  30
0
  11
44.84
  21
8.576733
  31
0
  0
SOLID
  5
d7
  330
d3
  100
AcDbEntity
  8
2
  100
AcDbTrace
  10
44.84
  20
-0.09
  30
0
  11
44.513685
  21
2.388612
  31
0
  12
45.166315
  22
2.388612
  32
0
  13
45.166315
  23
2.388612
  33
0
  0
SOLID
  5
d8
  330
d3
  100
AcDbEntity
  8
2
  100
AcDbTrace
  10
44.84
  20
0.09
  30
0
  11
45.166315
  21
-2.388612
  31
0
  12
44.513685
  22
-2.388612
  32
0
  13
44.513685
  23
-2.388612
  33
0
  0
MTEXT
  5
d9
  330
d3
  100
AcDbEntity
  8
2
  100
AcDbMText
  10
44.84
  20
0.09
  30
0
  11
0
  21
1
  31
0
  40
2
  41
0
  71
8
  72
1
  1
ﾘ0.18
  0
POINT
  5
da
  330
d3
  100
AcDbEntity
  8
2
  62
0
  100
AcDbPoint
  10
42.84
  20
-0.09
  30
0
  0
POINT
  5
db
  330
d3
  100
AcDbEntity
  8
2
  62
0
  100
AcDbPoint
  10
42.84
  20
0.09
  30
0
  0
POINT
  5
dc
  330
d3
  100
AcDbEntity
  8
2
  62
0
  100
AcDbPoint
  10
44.84
  20
8.576733
  30
0
  0
ENDBLK
  5
dd
  330
d3
  100
AcDbEntity
  8
2
  100
AcDbBlockEnd
  0
BLOCK
  5
df
  330
e1
  100
AcDbEntity
  8
2
  100
AcDbBlockBegin
  2
*De0
  70
1
  10
0
  20
0
  30
0
  3
*De0
  1

  0
LINE
  5
e2
  330
e1
  100
AcDbEntity
  8
2
  100
AcDbLine
  10
44.84
  20
0.09
  30
0
  11
44.84
  21
9
  31
0
  0
LINE
  5
e3
  330
e1
  100
AcDbEntity
  8
2
  100
AcDbLine
  10
43.64
  20
0.09
  30
0
  11
43.64
  21
9
  31
0
  0
LINE
  5
e4
  330
e1
  100
AcDbEntity
  8
2
  100
AcDbLine
  10
44.84
  20
7
  30
0
  11
39.115099
  21
7
  31
0
  0
SOLID
  5
e5
  330
e1
  100
AcDbEntity
  8
2
  100
AcDbTrace
  10
44.84
  20
7
  30
0
  11
47.318612
  21
7.326315
  31
0
  12
47.318612
  22
6.673685
  32
0
  13
47.318612
  23
6.673685
  33
0
  0
SOLID
  5
e6
  330
e1
  100
AcDbEntity
  8
2
  100
AcDbTrace
  10
43.64
  20
7
  30
0
  11
41.161388
  21
6.673685
  31
0
  12
41.161388
  22
7.326315
  32
0
  13
41.161388
  23
7.326315
  33
0
  0
MTEXT
  5
e7
  330
e1
  100
AcDbEntity
  8
2
  100
AcDbMText
  10
43.624884
  20
7
  30
0
  11
1
  21
-0
  31
0
  40
2
  41
0
  71
8
  72
1
  1
1.2
  0
POINT
  5
e8
  330
e1
  100
AcDbEntity
  8
2
  62
0
  100
AcDbPoint
  10
44.84
  20
0.09
  30
0
  0
POINT
  5
e9
  330
e1
  100
AcDbEntity
  8
2
  62
0
  100
AcDbPoint
  10
43.64
  20
0.09
  30
0
  0
POINT
  5
ea
  330
e1
  100
AcDbEntity
  8
2
  62
0
  100
AcDbPoint
  10
39.115099
  20
7
  30
0
  0
ENDBLK
  5
eb
  330
e1
  100
AcDbEntity
  8
2
  100
AcDbBlockEnd
  0
BLOCK
  5
ed
  330
ef
  100
AcDbEntity
  8
2
  100
AcDbBlockBegin
  2
*Dee
  70
1
  10
0
  20
0
  30
0
  3
*Dee
  1

  0
LINE
  5
f0
  330
ef
  100
AcDbEntity
  8
2
  100
AcDbLine
  10
45
  20
-14
  30
0
  11
45
  21
19
  31
0
  0
LINE
  5
f1
  330
ef
  100
AcDbEntity
  8
2
  100
AcDbLine
  10
36.4
  20
2
  30
0
  11
36.4
  21
9
  31
0
  0
LINE
  5
f2
  330
ef
  100
AcDbEntity
  8
2
  100
AcDbLine
  10
45
  20
7
  30
0
  11
36.4
  21
7
  31
0
  0
SOLID
  5
f3
  330
ef
  100
AcDbEntity
  8
2
  100
AcDbTrace
  10
45
  20
7
  30
0
  11
47.478612
  21
7.326315
  31
0
  12
47.478612
  22
6.673685
  32
0
  13
47.478612
  23
6.673685
  33
0
  0
SOLID
  5
f4
  330
ef
  100
AcDbEntity
  8
2
  100
AcDbTrace
  10
36.4
  20
7
  30
0
  11
33.921388
  21
6.673685
  31
0
  12
33.921388
  22
7.326315
  32
0
  13
33.921388
  23
7.326315
  33
0
  0
MTEXT
  5
f5
  330
ef
  100
AcDbEntity
  8
2
  100
AcDbMText
  10
40.7
  20
7
  30
0
  11
1
  21
-0
  31
0
  40
2
  41
0
  71
8
  72
1
  1
8.6
  0
POINT
  5
f6
  330
ef
  100
AcDbEntity
  8
2
  62
0
  100
AcDbPoint
  10
45
  20
-14
  30
0
  0
POINT
  5
f7
  330
ef
  100
AcDbEntity
  8
2
  62
0
  100
AcDbPoint
  10
36.4
  20
2
  30
0
  0
POINT
  5
f8
  330
ef
  100
AcDbEntity
  8
2
  62
0
  100
AcDbPoint
  10
36.4
  20
7
  30
0
  0
ENDBLK
  5
f9
  330
ef
  100
AcDbEntity
  8
2
  100
AcDbBlockEnd
  0
BLOCK
  5
fb
  330
fd
  100
AcDbEntity
  8
2
  100
AcDbBlockBegin
  2
*Dfc
  70
1
  10
0
  20
0
  30
0
  3
*Dfc
  1

  0
LINE
  5
fe
  330
fd
  100
AcDbEntity
  8
2
  100
AcDbLine
  10
44.84
  20
-0.09
  30
0
  11
44.84
  21
-14
  31
0
  0
LINE
  5
ff
  330
fd
  100
AcDbEntity
  8
2
  100
AcDbLine
  10
45
  20
-14
  30
0
  11
45
  21
19
  31
0
  0
LINE
  5
100
  330
fd
  100
AcDbEntity
  8
2
  100
AcDbLine
  10
38.595297
  20
-12
  30
0
  11
45
  21
-12
  31
0
  0
SOLID
  5
101
  330
fd
  100
AcDbEntity
  8
2
  100
AcDbTrace
  10
44.84
  20
-12
  30
0
  11
47.318612
  21
-11.673685
  31
0
  12
47.318612
  22
-12.326315
  32
0
  13
47.318612
  23
-12.326315
  33
0
  0
SOLID
  5
102
  330
fd
  100
AcDbEntity
  8
2
  100
AcDbTrace
  10
45
  20
-12
  30
0
  11
42.521388
  21
-12.326315
  31
0
  12
42.521388
  22
-11.673685
  32
0
  13
42.521388
  23
-11.673685
  33
0
  0
MTEXT
  5
103
  330
fd
  100
AcDbEntity
  8
2
  100
AcDbMText
  10
44.92
  20
-12
  30
0
  11
1
  21
0
  31
0
  40
2
  41
0
  71
8
  72
1
  1
0.16
  0
POINT
  5
104
  330
fd
  100
AcDbEntity
  8
2
  62
0
  100
AcDbPoint
  10
44.84
  20
-0.09
  30
0
  0
POINT
  5
105
  330
fd
  100
AcDbEntity
  8
2
  62
0
  100
AcDbPoint
  10
45
  20
19
  30
0
  0
POINT
  5
106
  330
fd
  100
AcDbEntity
  8
2
  62
0
  100
AcDbPoint
  10
45
  20
-12
  30
0
  0
ENDBLK
  5
107
  330
fd
  100
AcDbEntity
  8
2
  100
AcDbBlockEnd
  0
ENDSEC
  0
SECTION
  2
ENTITIES
  0
DIMENSION
  5
9c
  100
AcDbEntity
  8
SK2
  100
AcDbDimension
  2
*D90
  10
45
  20
17
  30
0
  11
22.5
  21
17
  31
0
  70
160
  1
<>
  71
5
  3
STANDARD
  42
45
  100
AcDbAlignedDimension
  13
0
  23
1.3
  33
0
  14
45
  24
-14
  34
0
  50
0
  100
AcDbRotatedDimension
  0
DIMENSION
  5
aa
  100
AcDbEntity
  8
SK2
  100
AcDbDimension
  2
*D9e
  10
55
  20
0.1
  30
0
  11
55
  21
0
  31
0
  70
160
  1
%%c<>
  71
5
  3
STANDARD
  42
0.2
  100
AcDbAlignedDimension
  13
44.9
  23
-0.1
  33
0
  14
44.9
  24
0.1
  34
0
  50
-90
  100
AcDbRotatedDimension
  0
DIMENSION
  5
b8
  100
AcDbEntity
  8
SK2
  100
AcDbDimension
  2
*Dac
  10
0
  20
12
  30
0
  11
18.2
  21
12
  31
0
  70
160
  1
<>
  71
5
  3
STANDARD
  42
36.4
  100
AcDbAlignedDimension
  13
36.4
  23
2
  33
0
  14
0
  24
1.3
  34
0
  50
0
  100
AcDbRotatedDimension
  0
DIMENSION
  5
c6
  100
AcDbEntity
  8
SK2
  100
AcDbDimension
  2
*Dba
  10
-10
  20
2
  30
0
  11
-10
  21
0
  31
0
  70
160
  1
%%c<>
  71
5
  3
STANDARD
  42
4
  100
AcDbAlignedDimension
  13
0.7
  23
-2
  33
0
  14
0.7
  24
2
  34
0
  50
-90
  100
AcDbRotatedDimension
  0
DIMENSION
  5
d0
  100
AcDbEntity
  8
2
  100
AcDbDimension
  2
*Dc8
  10
44.9
  20
0
  30
0
  11
44.970711
  21
0.070711
  31
0
  70
164
  1
R0.1
  71
5
  3
STANDARD
  100
AcDbRadialDimension
  15
44.970711
  25
0.070711
  35
0
  50
45
  0
DIMENSION
  5
de
  100
AcDbEntity
  8
2
  100
AcDbDimension
  2
*Dd2
  10
44.84
  20
8.576733
  30
0
  11
44.84
  21
0.09
  31
0
  70
160
  1
%%c<>
  71
5
  3
STANDARD
  42
0.18
  100
AcDbAlignedDimension
  13
42.84
  23
-0.09
  33
0
  14
42.84
  24
0.09
  34
0
  50
-90
  100
AcDbRotatedDimension
  0
DIMENSION
  5
ec
  100
AcDbEntity
  8
2
  100
AcDbDimension
  2
*De0
  10
39.115099
  20
7
  30
0
  11
43.624884
  21
7
  31
0
  70
160
  1
<>
  71
5
  3
STANDARD
  42
1.2
  100
AcDbAlignedDimension
  13
44.84
  23
0.09
  33
0
  14
43.64
  24
0.09
  34
0
  50
0
  100
AcDbRotatedDimension
  0
DIMENSION
  5
fa
  100
AcDbEntity
  8
2
  100
AcDbDimension
  2
*Dee
  10
36.4
  20
7
  30
0
  11
40.7
  21
7
  31
0
  70
160
  1
<>
  71
5
  3
STANDARD
  42
8.6
  100
AcDbAlignedDimension
  13
45
  23
-14
  33
0
  14
36.4
  24
2
  34
0
  50
0
  100
AcDbRotatedDimension
  0
DIMENSION
  5
108
  100
AcDbEntity
  8
2
  100
AcDbDimension
  2
*Dfc
  10
45
  20
-12
  30
0
  11
44.92
  21
-12
  31
0
  70
160
  1
<>
  71
5
  3
STANDARD
  42
0.16
  100
AcDbAlignedDimension
  13
44.84
  23
-0.09
  33
0
  14
45
  24
19
  34
0
  50
0
  100
AcDbRotatedDimension
  0
LINE
  5
36
  100
AcDbEntity
  8
1
  100
AcDbLine
  10
43.64
  20
0.09
  30
0
  11
43.64
  21
-0.09
  31
0
  0
ARC
  5
37
  100
AcDbEntity
  8
1
  100
AcDbCircle
  10
43.64
  20
-1.09
  30
0
  40
1
  100
AcDbArc
  50
90
  51
105
  0
LINE
  5
38
  100
AcDbEntity
  8
1
  100
AcDbLine
  10
43.64
  20
-0.09
  30
0
  11
44.84
  21
-0.09
  31
0
  0
LINE
  5
39
  100
AcDbEntity
  8
1
  100
AcDbLine
  10
44.84
  20
-0.09
  30
0
  11
44.84
  21
-0.1
  31
0
  0
LINE
  5
3a
  100
AcDbEntity
  8
1
  100
AcDbLine
  10
44.84
  20
-0.1
  30
0
  11
44.9
  21
-0.1
  31
0
  0
LINE
  5
3b
  100
AcDbEntity
  8
1
  100
AcDbLine
  10
44.9
  20
-0.1
  30
0
  11
44.9
  21
0.1
  31
0
  0
LINE
  5
3c
  100
AcDbEntity
  8
1
  100
AcDbLine
  10
44.9
  20
0.1
  30
0
  11
44.9
  21
-0.06007
  31
0
  0
LINE
  5
3d
  100
AcDbEntity
  8
1
  100
AcDbLine
  10
44.9
  20
-0.06007
  30
0
  11
44.9
  21
0.1
  31
0
  0
LINE
  5
3e
  100
AcDbEntity
  8
1
  100
AcDbLine
  10
44.84
  20
-0.09
  30
0
  11
44.84
  21
0.09
  31
0
  0
LINE
  5
3f
  100
AcDbEntity
  8
1
  100
AcDbLine
  10
44.84
  20
0.1
  30
0
  11
44.84
  21
-0.1
  31
0
  0
LINE
  5
40
  100
AcDbEntity
  8
1
  100
AcDbLine
  10
44.9
  20
-0.1
  30
0
  11
44.9
  21
-0.083791
  31
0
  0
LINE
  5
41
  100
AcDbEntity
  8
1
  100
AcDbLine
  10
44.9
  20
-0.083791
  30
0
  11
44.9
  21
-0.1
  31
0
  0
ARC
  5
42
  100
AcDbEntity
  8
1
  100
AcDbCircle
  10
44.9
  20
0
  30
0
  40
0.1
  100
AcDbArc
  50
270
  51
0
  0
ARC
  5
43
  100
AcDbEntity
  8
1
  100
AcDbCircle
  10
44.9
  20
0
  30
0
  40
0.1
  100
AcDbArc
  50
0
  51
90
  0
LINE
  5
44
  100
AcDbEntity
  8
1
  100
AcDbLine
  10
44.9
  20
0.1
  30
0
  11
44.84
  21
0.1
  31
0
  0
LINE
  5
45
  100
AcDbEntity
  8
1
  100
AcDbLine
  10
44.84
  20
0.1
  30
0
  11
44.84
  21
0.09
  31
0
  0
LINE
  5
46
  100
AcDbEntity
  8
1
  100
AcDbLine
  10
44.84
  20
0.09
  30
0
  11
43.64
  21
0.09
  31
0
  0
ARC
  5
47
  100
AcDbEntity
  8
1
  100
AcDbCircle
  10
43.64
  20
1.09
  30
0
  40
1
  100
AcDbArc
  50
255
  51
270
  0
LINE
  5
48
  100
AcDbEntity
  8
1
  100
AcDbLine
  10
43.381181
  20
0.124074
  30
0
  11
36.4
  21
1.994676
  31
0
  0
LINE
  5
49
  100
AcDbEntity
  8
1
  100
AcDbLine
  10
36.4
  20
1.994676
  30
0
  11
36.4
  21
-1.994676
  31
0
  0
LINE
  5
4a
  100
AcDbEntity
  8
1
  100
AcDbLine
  10
36.4
  20
-1.994676
  30
0
  11
43.381181
  21
-0.124074
  31
0
  0
LINE
  5
4b
  100
AcDbEntity
  8
1
  100
AcDbLine
  10
43.381181
  20
-0.124074
  30
0
  11
43.381181
  21
0.124074
  31
0
  0
LINE
  5
4c
  100
AcDbEntity
  8
SK1
  100
AcDbLine
  10
36.4
  20
1.994676
  30
0
  11
36.38013
  21
2
  31
0
  0
LINE
  5
4d
  100
AcDbEntity
  8
SK1
  100
AcDbLine
  10
36.38013
  20
2
  30
0
  11
36.4
  21
2
  31
0
  0
LINE
  5
4e
  100
AcDbEntity
  8
SK1
  100
AcDbLine
  10
36.4
  20
2
  30
0
  11
0.7
  21
2
  31
0
  0
LINE
  5
4f
  100
AcDbEntity
  8
SK1
  100
AcDbLine
  10
0.7
  20
2
  30
0
  11
0
  21
1.3
  31
0
  0
LINE
  5
50
  100
AcDbEntity
  8
SK1
  100
AcDbLine
  10
36.4
  20
-1.994676
  30
0
  11
36.38013
  21
-2
  31
0
  0
LINE
  5
51
  100
AcDbEntity
  8
SK1
  100
AcDbLine
  10
36.38013
  20
-2
  30
0
  11
36.4
  21
-2
  31
0
  0
LINE
  5
52
  100
AcDbEntity
  8
SK1
  100
AcDbLine
  10
36.4
  20
-2
  30
0
  11
0.7
  21
-2
  31
0
  0
LINE
  5
53
  100
AcDbEntity
  8
SK1
  100
AcDbLine
  10
0.7
  20
-2
  30
0
  11
0
  21
-1.3
  31
0
  0
LINE
  5
54
  100
AcDbEntity
  8
SK1
  100
AcDbLine
  10
36.38013
  20
2
  30
0
  11
36.38013
  21
-2
  31
0
  0
LINE
  5
55
  100
AcDbEntity
  8
SK1
  100
AcDbLine
  10
0.7
  20
2
  30
0
  11
0.7
  21
-2
  31
0
  0
LINE
  5
56
  100
AcDbEntity
  8
SK1
  100
AcDbLine
  10
0
  20
1.3
  30
0
  11
0
  21
-1.3
  31
0
  0
LINE
  5
57
  100
AcDbEntity
  8
SK1
  100
AcDbLine
  10
37.4401
  20
1.40688
  30
0
  11
37.8069
  21
1.0401
  31
0
  0
LINE
  5
58
  100
AcDbEntity
  8
SK1
  100
AcDbLine
  10
36.9328
  20
1.66666
  30
0
  11
38.0667
  21
0.532833
  31
0
  0
LINE
  5
59
  100
AcDbEntity
  8
SK1
  100
AcDbLine
  10
36.6154
  20
1.73657
  30
0
  11
38.1366
  21
0.215434
  31
0
  0
LINE
  5
5a
  100
AcDbEntity
  8
SK1
  100
AcDbLine
  10
36.4
  20
1.70452
  30
0
  11
38.1045
  21
0
  31
0
  0
LINE
  5
5b
  100
AcDbEntity
  8
SK1
  100
AcDbLine
  10
36.4
  20
1.45703
  30
0
  11
37.857
  21
0
  31
0
  0
LINE
  5
5c
  100
AcDbEntity
  8
SK1
  100
AcDbLine
  10
36.4
  20
1.20954
  30
0
  11
37.6095
  21
0
  31
0
  0
LINE
  5
5d
  100
AcDbEntity
  8
SK1
  100
AcDbLine
  10
36.4
  20
0.962054
  30
0
  11
37.3621
  21
0
  31
0
  0
LINE
  5
5e
  100
AcDbEntity
  8
SK1
  100
AcDbLine
  10
36.4
  20
0.714566
  30
0
  11
37.1146
  21
0
  31
0
  0
LINE
  5
5f
  100
AcDbEntity
  8
SK1
  100
AcDbLine
  10
36.4
  20
0.467079
  30
0
  11
36.8671
  21
0
  31
0
  0
LINE
  5
60
  100
AcDbEntity
  8
SK1
  100
AcDbLine
  10
36.4
  20
0.219592
  30
0
  11
36.6196
  21
0
  31
0
  0
LINE
  5
61
  100
AcDbEntity
  8
SK1
  100
AcDbLine
  10
36.4
  20
1.70452
  30
0
  11
36.4441
  21
1.74861
  31
0
  0
LINE
  5
62
  100
AcDbEntity
  8
SK1
  100
AcDbLine
  10
36.4
  20
1.45703
  30
0
  11
36.671
  21
1.72802
  31
0
  0
LINE
  5
63
  100
AcDbEntity
  8
SK1
  100
AcDbLine
  10
36.4
  20
1.20954
  30
0
  11
36.8742
  21
1.6837
  31
0
  0
LINE
  5
64
  100
AcDbEntity
  8
SK1
  100
AcDbLine
  10
36.4
  20
0.962054
  30
0
  11
37.0588
  21
1.62082
  31
0
  0
LINE
  5
65
  100
AcDbEntity
  8
SK1
  100
AcDbLine
  10
36.4
  20
0.714566
  30
0
  11
37.2271
  21
1.54167
  31
0
  0
LINE
  5
66
  100
AcDbEntity
  8
SK1
  100
AcDbLine
  10
36.4
  20
0.467079
  30
0
  11
37.381
  21
1.44812
  31
0
  0
LINE
  5
67
  100
AcDbEntity
  8
SK1
  100
AcDbLine
  10
36.4
  20
0.219592
  30
0
  11
37.5226
  21
1.34216
  31
0
  0
LINE
  5
68
  100
AcDbEntity
  8
SK1
  100
AcDbLine
  10
36.4279
  20
0
  30
0
  11
37.6508
  21
1.22288
  31
0
  0
LINE
  5
69
  100
AcDbEntity
  8
SK1
  100
AcDbLine
  10
36.6754
  20
0
  30
0
  11
37.767
  21
1.09157
  31
0
  0
LINE
  5
6a
  100
AcDbEntity
  8
SK1
  100
AcDbLine
  10
36.9229
  20
0
  30
0
  11
37.8707
  21
0.947822
  31
0
  0
LINE
  5
6b
  100
AcDbEntity
  8
SK1
  100
AcDbLine
  10
37.1704
  20
0
  30
0
  11
37.9605
  21
0.790145
  31
0
  0
LINE
  5
6c
  100
AcDbEntity
  8
SK1
  100
AcDbLine
  10
37.4178
  20
0
  30
0
  11
38.0364
  21
0.618517
  31
0
  0
LINE
  5
6d
  100
AcDbEntity
  8
SK1
  100
AcDbLine
  10
37.6653
  20
0
  30
0
  11
38.096
  21
0.430696
  31
0
  0
LINE
  5
6e
  100
AcDbEntity
  8
SK1
  100
AcDbLine
  10
37.9128
  20
0
  30
0
  11
38.1356
  21
0.222827
  31
0
  0
LINE
  5
6f
  100
AcDbEntity
  8
SK1
  100
AcDbLine
  10
36.4
  20
0
  30
0
  11
36.4
  21
1.75
  31
0
  0
LINE
  5
70
  100
AcDbEntity
  8
SK1
  100
AcDbLine
  10
36.4
  20
0
  30
0
  11
38.15
  21
0
  31
0
  0
ARC
  5
71
  100
AcDbEntity
  8
SK1
  100
AcDbCircle
  10
36.4
  20
0
  30
0
  40
1.75
  100
AcDbArc
  50
0
  51
90
  0
ARC
  5
72
  100
AcDbEntity
  8
SK1
  100
AcDbCircle
  10
36.4
  20
0
  30
0
  40
1.75
  100
AcDbArc
  50
90
  51
180
  0
LINE
  5
73
  100
AcDbEntity
  8
SK1
  100
AcDbLine
  10
36.3721
  20
0
  30
0
  11
36.4
  21
-0.027896
  31
0
  0
LINE
  5
74
  100
AcDbEntity
  8
SK1
  100
AcDbLine
  10
36.1246
  20
0
  30
0
  11
36.4
  21
-0.275383
  31
0
  0
LINE
  5
75
  100
AcDbEntity
  8
SK1
  100
AcDbLine
  10
35.8771
  20
0
  30
0
  11
36.4
  21
-0.522871
  31
0
  0
LINE
  5
76
  100
AcDbEntity
  8
SK1
  100
AcDbLine
  10
35.6296
  20
0
  30
0
  11
36.4
  21
-0.770358
  31
0
  0
LINE
  5
77
  100
AcDbEntity
  8
SK1
  100
AcDbLine
  10
35.3822
  20
0
  30
0
  11
36.4
  21
-1.01785
  31
0
  0
LINE
  5
78
  100
AcDbEntity
  8
SK1
  100
AcDbLine
  10
35.1347
  20
0
  30
0
  11
36.4
  21
-1.26533
  31
0
  0
LINE
  5
79
  100
AcDbEntity
  8
SK1
  100
AcDbLine
  10
34.8872
  20
0
  30
0
  11
36.4
  21
-1.51282
  31
0
  0
LINE
  5
7a
  100
AcDbEntity
  8
SK1
  100
AcDbLine
  10
34.6503
  20
-0.010642
  30
0
  11
36.3894
  21
-1.74967
  31
0
  0
LINE
  5
7b
  100
AcDbEntity
  8
SK1
  100
AcDbLine
  10
34.6736
  20
-0.281429
  30
0
  11
36.1186
  21
-1.72637
  31
0
  0
LINE
  5
7c
  100
AcDbEntity
  8
SK1
  100
AcDbLine
  10
34.7639
  20
-0.619147
  30
0
  11
35.7809
  21
-1.63613
  31
0
  0
LINE
  5
7d
  100
AcDbEntity
  8
SK1
  100
AcDbLine
  10
34.6514
  20
-0.044098
  30
0
  11
34.6955
  21
0
  31
0
  0
LINE
  5
7e
  100
AcDbEntity
  8
SK1
  100
AcDbLine
  10
34.672
  20
-0.270991
  30
0
  11
34.943
  21
0
  31
0
  0
LINE
  5
7f
  100
AcDbEntity
  8
SK1
  100
AcDbLine
  10
34.7163
  20
-0.474162
  30
0
  11
35.1905
  21
0
  31
0
  0
LINE
  5
80
  100
AcDbEntity
  8
SK1
  100
AcDbLine
  10
34.7792
  20
-0.658762
  30
0
  11
35.4379
  21
0
  31
0
  0
LINE
  5
81
  100
AcDbEntity
  8
SK1
  100
AcDbLine
  10
34.8583
  20
-0.827105
  30
0
  11
35.6854
  21
0
  31
0
  0
LINE
  5
82
  100
AcDbEntity
  8
SK1
  100
AcDbLine
  10
34.9519
  20
-0.981039
  30
0
  11
35.9329
  21
0
  31
0
  0
LINE
  5
83
  100
AcDbEntity
  8
SK1
  100
AcDbLine
  10
35.0578
  20
-1.12257
  30
0
  11
36.1804
  21
0
  31
0
  0
LINE
  5
84
  100
AcDbEntity
  8
SK1
  100
AcDbLine
  10
35.1771
  20
-1.25077
  30
0
  11
36.4
  21
-0.027896
  31
0
  0
LINE
  5
85
  100
AcDbEntity
  8
SK1
  100
AcDbLine
  10
35.3084
  20
-1.36695
  30
0
  11
36.4
  21
-0.275383
  31
0
  0
LINE
  5
86
  100
AcDbEntity
  8
SK1
  100
AcDbLine
  10
35.4522
  20
-1.47069
  30
0
  11
36.4
  21
-0.522871
  31
0
  0
LINE
  5
87
  100
AcDbEntity
  8
SK1
  100
AcDbLine
  10
35.6099
  20
-1.5605
  30
0
  11
36.4
  21
-0.770358
  31
0
  0
LINE
  5
88
  100
AcDbEntity
  8
SK1
  100
AcDbLine
  10
35.7815
  20
-1.63636
  30
0
  11
36.4
  21
-1.01785
  31
0
  0
LINE
  5
89
  100
AcDbEntity
  8
SK1
  100
AcDbLine
  10
35.9693
  20
-1.69603
  30
0
  11
36.4
  21
-1.26533
  31
0
  0
LINE
  5
8a
  100
AcDbEntity
  8
SK1
  100
AcDbLine
  10
36.1772
  20
-1.73565
  30
0
  11
36.4
  21
-1.51282
  31
0
  0
LINE
  5
8b
  100
AcDbEntity
  8
SK1
  100
AcDbLine
  10
36.4
  20
0
  30
0
  11
34.65
  21
0
  31
0
  0
LINE
  5
8c
  100
AcDbEntity
  8
SK1
  100
AcDbLine
  10
36.4
  20
-1.75
  30
0
  11
36.4
  21
0
  31
0
  0
ARC
  5
8d
  100
AcDbEntity
  8
SK1
  100
AcDbCircle
  10
36.4
  20
0
  30
0
  40
1.75
  100
AcDbArc
  50
180
  51
270
  0
ARC
  5
8e
  100
AcDbEntity
  8
SK1
  100
AcDbCircle
  10
36.4
  20
0
  30
0
  40
1.75
  100
AcDbArc
  50
270
  51
0
  0
LINE
  5
109
  100
AcDbEntity
  8
NOCUT
  100
AcDbLine
  10
44.84
  20
0
  30
0
  11
44.84
  21
0.09
  31
0
  0
LINE
  5
10a
  100
AcDbEntity
  8
NOCUT
  100
AcDbLine
  10
44.84
  20
0.09
  30
0
  11
43.64
  21
0.09
  31
0
  0
ARC
  5
10b
  100
AcDbEntity
  8
NOCUT
  100
AcDbCircle
  10
43.64
  20
1.09
  30
0
  40
1
  100
AcDbArc
  50
255
  51
270
  0
LINE
  5
10c
  100
AcDbEntity
  8
NOCUT
  100
AcDbLine
  10
43.381181
  20
0.124074
  30
0
  11
36.4
  21
1.994676
  31
0
  0
LINE
  5
10d
  100
AcDbEntity
  8
NOCUT
  100
AcDbLine
  10
36.4
  20
1.994676
  30
0
  11
36.4
  21
0
  31
0
  0
LINE
  5
10e
  100
AcDbEntity
  8
NOCUT
  100
AcDbLine
  10
36.4
  20
0
  30
0
  11
44.84
  21
0
  31
0
  0
ARC
  5
10f
  100
AcDbEntity
  8
CUT
  100
AcDbCircle
  10
44.9
  20
0
  30
0
  40
0.1
  100
AcDbArc
  50
0
  51
90
  0
LINE
  5
110
  100
AcDbEntity
  8
CUT
  100
AcDbLine
  10
44.9
  20
0.1
  30
0
  11
44.84
  21
0.1
  31
0
  0
LINE
  5
111
  100
AcDbEntity
  8
CUT
  100
AcDbLine
  10
44.84
  20
0.1
  30
0
  11
44.84
  21
0
  31
0
  0
LINE
  5
112
  100
AcDbEntity
  8
CUT
  100
AcDbLine
  10
44.84
  20
0
  30
0
  11
45
  21
0
  31
0
  0
LINE
  5
113
  100
AcDbEntity
  8
4
  100
AcDbLine
  10
36.4
  20
0
  30
0
  11
45
  21
0
  31
0
  0
LINE
  5
114
  100
AcDbEntity
  8
SK4
  100
AcDbLine
  10
-1
  20
0
  30
0
  11
46
  21
0
  31
0
  0
LINE
  5
115
  100
AcDbEntity
  8
INFTOTAL
  100
AcDbLine
  10
-15.45
  20
22.45
  30
0
  11
60.45
  21
22.45
  31
0
  0
LINE
  5
116
  100
AcDbEntity
  8
INFTOTAL
  100
AcDbLine
  10
60.45
  20
22.45
  30
0
  11
60.45
  21
-17.45
  31
0
  0
LINE
  5
117
  100
AcDbEntity
  8
INFTOTAL
  100
AcDbLine
  10
60.45
  20
-17.45
  30
0
  11
-15.45
  21
-17.45
  31
0
  0
LINE
  5
118
  100
AcDbEntity
  8
INFTOTAL
  100
AcDbLine
  10
-15.45
  20
-17.45
  30
0
  11
-15.45
  21
22.45
  31
0
  0
ENDSEC
  0
SECTION
  2
OBJECTS
  0
DICTIONARY
  5
119
  330
0
100
AcDbDictionary
281
    1
  3
ACAD_GROUP
  350
11a
  0
DICTIONARY
  5
11a
102
{ACAD_REACTORS
  330
119
102
}
  330
119
100
AcDbDictionary
281
    1
  0
ENDSEC
  0
EOF
