  0
SECTION
  2
HEADER
  9
$ACADVER
  1
AC1015
  9
$DWGCODEPAGE
  3
ANSI_932
  9
$HANDSEED
  5
106AB90
  0
ENDSEC
  0
SECTION
  2
CLASSES
  0
CLASS
  1
IMAGEDEF
  2
AcDbRasterImageDef
  3
ISM
  90
0
  91
4
  280
0
  281
0
  0
CLASS
  1
IMAGE
  2
AcDbRasterImage
  3
ISM
  90
127
  91
5
  280
0
  281
1
  0
CLASS
  1
IMAGEDEF_REACTOR
  2
AcDbRasterImageDefReactor
  3
ISM
  90
1
  91
4
  280
0
  281
0
  0
ENDSEC
  0
SECTION
  2
TABLES
  0
TABLE
  2
VPORT
  5
2
  330
0
  100
AcDbSymbolTable
  70
    0
  0
ENDTAB
  0
TABLE
  2
LTYPE
  5
3
  330
0
  100
AcDbSymbolTable
  70
    4
  0
LTYPE
  5
4
  330
3
  100
AcDbSymbolTableRecord
  100
AcDbLinetypeTableRecord
  2
ByBlock
  70
    0
  3

  72
65
  73
    0
  40
0
  0
LTYPE
  5
5
  330
3
  100
AcDbSymbolTableRecord
  100
AcDbLinetypeTableRecord
  2
ByLayer
  70
    0
  3

  72
65
  73
    0
  40
0
  0
LTYPE
  5
6
  330
3
  100
AcDbSymbolTableRecord
  100
AcDbLinetypeTableRecord
  2
CONTINUOUS
  70
    0
  3
Solid Line
  72
65
  73
    0
  40
0
  0
LTYPE
  5
7
  330
3
  100
AcDbSymbolTableRecord
  100
AcDbLinetypeTableRecord
  2
DASH
  70
    0
  3
Hidden
  72
65
  73
2
  40
2.5
  49
1.5
  74
0
  49
-1
  74
0
  0
LTYPE
  5
8
  330
3
  100
AcDbSymbolTableRecord
  100
AcDbLinetypeTableRecord
  2
LONGDASHDASH
  70
    0
  3
__ . __
  72
65
  73
    4
  40
7
  49
4
  74
    0
  49
-1
  74
    0
  49
1
  74
    0
  49
-1
  74
    0
  0
ENDTAB
  0
TABLE
  2
LAYER
  5
9
  330
0
  100
AcDbSymbolTable
  70
    40
  0
LAYER
  5
a
  330
9
  100
AcDbSymbolTableRecord
  100
AcDbLayerTableRecord
  2
0
  70
    0
  62
    0
  6
CONTINUOUS
  390
0
  0
LAYER
  5
c
  330
9
  100
AcDbSymbolTableRecord
  100
AcDbLayerTableRecord
  2
1
  70
    0
  62
    4
  6
CONTINUOUS
  370
50
  390
0
  0
LAYER
  5
d
  330
9
  100
AcDbSymbolTableRecord
  100
AcDbLayerTableRecord
  2
2
  70
    0
  62
    7
  6
CONTINUOUS
  370
25
  390
0
  0
LAYER
  5
f
  330
9
  100
AcDbSymbolTableRecord
  100
AcDbLayerTableRecord
  2
4
  70
    0
  62
    2
  6
LONGDASHDASH
  370
25
  390
0
  0
LAYER
  5
13
  330
9
  100
AcDbSymbolTableRecord
  100
AcDbLayerTableRecord
  2
SK1
  70
    0
  62
    4
  6
CONTINUOUS
  370
50
  390
0
  0
LAYER
  5
14
  330
9
  100
AcDbSymbolTableRecord
  100
AcDbLayerTableRecord
  2
SK2
  70
    0
  62
    7
  6
CONTINUOUS
  370
25
  390
0
  0
LAYER
  5
16
  330
9
  100
AcDbSymbolTableRecord
  100
AcDbLayerTableRecord
  2
SK4
  70
    0
  62
    2
  6
LONGDASHDASH
  370
25
  390
0
  0
LAYER
  5
21
  330
9
  100
AcDbSymbolTableRecord
  100
AcDbLayerTableRecord
  2
NOCUT
  70
    0
  62
    7
  6
CONTINUOUS
  370
25
  390
0
  0
LAYER
  5
22
  330
9
  100
AcDbSymbolTableRecord
  100
AcDbLayerTableRecord
  2
CUT
  70
    0
  62
    1
  6
CONTINUOUS
  370
25
  390
0
  0
LAYER
  5
26
  330
9
  100
AcDbSymbolTableRecord
  100
AcDbLayerTableRecord
  2
INFTOTAL
  70
    0
  62
    9
  6
CONTINUOUS
  370
18
  390
0
  0
ENDTAB
  0
TABLE
  2
STYLE
  5
27
  330
0
  100
AcDbSymbolTable
  70
    1
  0
STYLE
  5
28
  330
27
  100
AcDbSymbolTableRecord
  100
AcDbTextStyleTableRecord
  2
Monospac821 BT
  70
    0
  40
    3.5
  41
1
  50
0
  71
0
  42
3
  3

  4

  1001
ACAD
  1000
Monospac821 BT
  1071
256
  0
ENDTAB
  0
TABLE
  2
VIEW
  5
29
  330
0
  100
AcDbSymbolTable
  70
    0
  0
ENDTAB
  0
TABLE
  2
UCS
  5
2a
  330
0
  100
AcDbSymbolTable
  70
    0
  0
ENDTAB
  0
TABLE
  2
APPID
  5
2b
  330
0
  100
AcDbSymbolTable
  70
    1
  0
APPID
  5
2c
  330
2b
  100
AcDbSymbolTableRecord
  100
AcDbRegAppTableRecord
  2
ACAD
  70
    0
  0
ENDTAB
  0
TABLE
  2
DIMSTYLE
  5
2d
  330
0
  100
AcDbSymbolTable
  70
    1
  100
AcDbDimStyleTable
  0
DIMSTYLE
  105
2e
  330
2d
  100
AcDbSymbolTableRecord
  100
AcDbDimStyleTableRecord
  2
STANDARD
  70
    0
  41
    3
  42
0.5
  44
1
  73
0
  77
1
  78
1
  140
3.5
  141
2.5
  143
0.03937
  147
0.8
  172
1
  174
1
  178
0
  179
1
  271
2
  279
1
  284
1
  340
28
  0
ENDTAB
  0
TABLE
  2
BLOCK_RECORD
  5
2f
  330
0
  100
AcDbSymbolTable
  70
    2
  0
BLOCK_RECORD
  5
30
  330
2f
  100
AcDbSymbolTableRecord
  100
AcDbBlockTableRecord
  2
*Model_Space
  0
BLOCK_RECORD
  5
31
  330
2f
  100
AcDbSymbolTableRecord
  100
AcDbBlockTableRecord
  2
*Paper_Space
  0
BLOCK_RECORD
  5
b9
  330
2f
  100
AcDbSymbolTableRecord
  100
AcDbBlockTableRecord
  2
*Db8
  340
0
  0
BLOCK_RECORD
  5
c7
  330
2f
  100
AcDbSymbolTableRecord
  100
AcDbBlockTableRecord
  2
*Dc6
  340
0
  0
BLOCK_RECORD
  5
d5
  330
2f
  100
AcDbSymbolTableRecord
  100
AcDbBlockTableRecord
  2
*Dd4
  340
0
  0
BLOCK_RECORD
  5
e3
  330
2f
  100
AcDbSymbolTableRecord
  100
AcDbBlockTableRecord
  2
*De2
  340
0
  0
BLOCK_RECORD
  5
f1
  330
2f
  100
AcDbSymbolTableRecord
  100
AcDbBlockTableRecord
  2
*Df0
  340
0
  0
BLOCK_RECORD
  5
fb
  330
2f
  100
AcDbSymbolTableRecord
  100
AcDbBlockTableRecord
  2
*Dfa
  340
0
  0
BLOCK_RECORD
  5
109
  330
2f
  100
AcDbSymbolTableRecord
  100
AcDbBlockTableRecord
  2
*D108
  340
0
  0
BLOCK_RECORD
  5
117
  330
2f
  100
AcDbSymbolTableRecord
  100
AcDbBlockTableRecord
  2
*D116
  340
0
  0
BLOCK_RECORD
  5
125
  330
2f
  100
AcDbSymbolTableRecord
  100
AcDbBlockTableRecord
  2
*D124
  340
0
  0
ENDTAB
  0
ENDSEC
  0
SECTION
  2
BLOCKS
  0
BLOCK
  5
32
  330
30
  100
AcDbEntity
  8
0
  100
AcDbBlockBegin
  2
*Model_Space
  70
    0
  10
0
  20
0
  30
0
  3
*Model_Space
  1

  0
ENDBLK
  5
33
  330
30
  100
AcDbEntity
  8
0
  100
AcDbBlockEnd
  0
BLOCK
  5
34
  330
31
  100
AcDbEntity
  8
0
  100
AcDbBlockBegin
  2
*Paper_Space
  70
    0
  10
0
  20
0
  30
0
  3
*Paper_Space
  1

  0
ENDBLK
  5
35
  330
31
  100
AcDbEntity
  8
0
  100
AcDbBlockEnd
  0
BLOCK
  5
b7
  330
b9
  100
AcDbEntity
  8
SK2
  100
AcDbBlockBegin
  2
*Db8
  70
1
  10
0
  20
0
  30
0
  3
*Db8
  1

  0
LINE
  5
ba
  330
b9
  100
AcDbEntity
  8
SK2
  100
AcDbLine
  10
0
  20
1.3
  30
0
  11
0
  21
19
  31
0
  0
LINE
  5
bb
  330
b9
  100
AcDbEntity
  8
SK2
  100
AcDbLine
  10
50
  20
-14
  30
0
  11
50
  21
19
  31
0
  0
LINE
  5
bc
  330
b9
  100
AcDbEntity
  8
SK2
  100
AcDbLine
  10
0
  20
17
  30
0
  11
50
  21
17
  31
0
  0
SOLID
  5
bd
  330
b9
  100
AcDbEntity
  8
SK2
  100
AcDbTrace
  10
0
  20
17
  30
0
  11
2.478612
  21
17.326315
  31
0
  12
2.478612
  22
16.673685
  32
0
  13
2.478612
  23
16.673685
  33
0
  0
SOLID
  5
be
  330
b9
  100
AcDbEntity
  8
SK2
  100
AcDbTrace
  10
50
  20
17
  30
0
  11
47.521388
  21
16.673685
  31
0
  12
47.521388
  22
17.326315
  32
0
  13
47.521388
  23
17.326315
  33
0
  0
MTEXT
  5
bf
  330
b9
  100
AcDbEntity
  8
SK2
  100
AcDbMText
  10
25
  20
17
  30
0
  11
1
  21
0
  31
0
  40
2
  41
0
  71
8
  72
1
  1
50
  0
POINT
  5
c0
  330
b9
  100
AcDbEntity
  8
SK2
  62
0
  100
AcDbPoint
  10
0
  20
1.3
  30
0
  0
POINT
  5
c1
  330
b9
  100
AcDbEntity
  8
SK2
  62
0
  100
AcDbPoint
  10
50
  20
-14
  30
0
  0
POINT
  5
c2
  330
b9
  100
AcDbEntity
  8
SK2
  62
0
  100
AcDbPoint
  10
50
  20
17
  30
0
  0
ENDBLK
  5
c3
  330
b9
  100
AcDbEntity
  8
SK2
  100
AcDbBlockEnd
  0
BLOCK
  5
c5
  330
c7
  100
AcDbEntity
  8
SK2
  100
AcDbBlockBegin
  2
*Dc6
  70
1
  10
0
  20
0
  30
0
  3
*Dc6
  1

  0
LINE
  5
c8
  330
c7
  100
AcDbEntity
  8
SK2
  100
AcDbLine
  10
29.2
  20
2
  30
0
  11
29.2
  21
14
  31
0
  0
LINE
  5
c9
  330
c7
  100
AcDbEntity
  8
SK2
  100
AcDbLine
  10
0
  20
1.3
  30
0
  11
0
  21
19
  31
0
  0
LINE
  5
ca
  330
c7
  100
AcDbEntity
  8
SK2
  100
AcDbLine
  10
29.2
  20
12
  30
0
  11
0
  21
12
  31
0
  0
SOLID
  5
cb
  330
c7
  100
AcDbEntity
  8
SK2
  100
AcDbTrace
  10
29.2
  20
12
  30
0
  11
31.678612
  21
12.326315
  31
0
  12
31.678612
  22
11.673685
  32
0
  13
31.678612
  23
11.673685
  33
0
  0
SOLID
  5
cc
  330
c7
  100
AcDbEntity
  8
SK2
  100
AcDbTrace
  10
0
  20
12
  30
0
  11
-2.478612
  21
11.673685
  31
0
  12
-2.478612
  22
12.326315
  32
0
  13
-2.478612
  23
12.326315
  33
0
  0
MTEXT
  5
cd
  330
c7
  100
AcDbEntity
  8
SK2
  100
AcDbMText
  10
14.6
  20
12
  30
0
  11
1
  21
-0
  31
0
  40
2
  41
0
  71
8
  72
1
  1
29.2
  0
POINT
  5
ce
  330
c7
  100
AcDbEntity
  8
SK2
  62
0
  100
AcDbPoint
  10
29.2
  20
2
  30
0
  0
POINT
  5
cf
  330
c7
  100
AcDbEntity
  8
SK2
  62
0
  100
AcDbPoint
  10
0
  20
1.3
  30
0
  0
POINT
  5
d0
  330
c7
  100
AcDbEntity
  8
SK2
  62
0
  100
AcDbPoint
  10
0
  20
12
  30
0
  0
ENDBLK
  5
d1
  330
c7
  100
AcDbEntity
  8
SK2
  100
AcDbBlockEnd
  0
BLOCK
  5
d3
  330
d5
  100
AcDbEntity
  8
SK2
  100
AcDbBlockBegin
  2
*Dd4
  70
1
  10
0
  20
0
  30
0
  3
*Dd4
  1

  0
LINE
  5
d6
  330
d5
  100
AcDbEntity
  8
SK2
  100
AcDbLine
  10
0.7
  20
-2
  30
0
  11
-12
  21
-2
  31
0
  0
LINE
  5
d7
  330
d5
  100
AcDbEntity
  8
SK2
  100
AcDbLine
  10
0.7
  20
2
  30
0
  11
-12
  21
2
  31
0
  0
LINE
  5
d8
  330
d5
  100
AcDbEntity
  8
SK2
  100
AcDbLine
  10
-10
  20
-4.158416
  30
0
  11
-10
  21
2
  31
0
  0
SOLID
  5
d9
  330
d5
  100
AcDbEntity
  8
SK2
  100
AcDbTrace
  10
-10
  20
-2
  30
0
  11
-10.326315
  21
0.478612
  31
0
  12
-9.673685
  22
0.478612
  32
0
  13
-9.673685
  23
0.478612
  33
0
  0
SOLID
  5
da
  330
d5
  100
AcDbEntity
  8
SK2
  100
AcDbTrace
  10
-10
  20
2
  30
0
  11
-9.673685
  21
-0.478612
  31
0
  12
-10.326315
  22
-0.478612
  32
0
  13
-10.326315
  23
-0.478612
  33
0
  0
MTEXT
  5
db
  330
d5
  100
AcDbEntity
  8
SK2
  100
AcDbMText
  10
-10
  20
0
  30
0
  11
0
  21
1
  31
0
  40
2
  41
0
  71
8
  72
1
  1
ﾘ4
  0
POINT
  5
dc
  330
d5
  100
AcDbEntity
  8
SK2
  62
0
  100
AcDbPoint
  10
0.7
  20
-2
  30
0
  0
POINT
  5
dd
  330
d5
  100
AcDbEntity
  8
SK2
  62
0
  100
AcDbPoint
  10
0.7
  20
2
  30
0
  0
POINT
  5
de
  330
d5
  100
AcDbEntity
  8
SK2
  62
0
  100
AcDbPoint
  10
-10
  20
2
  30
0
  0
ENDBLK
  5
df
  330
d5
  100
AcDbEntity
  8
SK2
  100
AcDbBlockEnd
  0
BLOCK
  5
e1
  330
e3
  100
AcDbEntity
  8
2
  100
AcDbBlockBegin
  2
*De2
  70
1
  10
0
  20
0
  30
0
  3
*De2
  1

  0
LINE
  5
e4
  330
e3
  100
AcDbEntity
  8
2
  100
AcDbLine
  10
49.2
  20
-0.8
  30
0
  11
62
  21
-0.8
  31
0
  0
LINE
  5
e5
  330
e3
  100
AcDbEntity
  8
2
  100
AcDbLine
  10
49.2
  20
0.8
  30
0
  11
62
  21
0.8
  31
0
  0
LINE
  5
e6
  330
e3
  100
AcDbEntity
  8
2
  100
AcDbLine
  10
60
  20
-6.757426
  30
0
  11
60
  21
0.8
  31
0
  0
SOLID
  5
e7
  330
e3
  100
AcDbEntity
  8
2
  100
AcDbTrace
  10
60
  20
-0.8
  30
0
  11
59.673685
  21
1.678612
  31
0
  12
60.326315
  22
1.678612
  32
0
  13
60.326315
  23
1.678612
  33
0
  0
SOLID
  5
e8
  330
e3
  100
AcDbEntity
  8
2
  100
AcDbTrace
  10
60
  20
0.8
  30
0
  11
60.326315
  21
-1.678612
  31
0
  12
59.673685
  22
-1.678612
  32
0
  13
59.673685
  23
-1.678612
  33
0
  0
MTEXT
  5
e9
  330
e3
  100
AcDbEntity
  8
2
  100
AcDbMText
  10
60
  20
0
  30
0
  11
0
  21
1
  31
0
  40
2
  41
0
  71
8
  72
1
  1
ﾘ1.6
  0
POINT
  5
ea
  330
e3
  100
AcDbEntity
  8
2
  62
0
  100
AcDbPoint
  10
49.2
  20
-0.8
  30
0
  0
POINT
  5
eb
  330
e3
  100
AcDbEntity
  8
2
  62
0
  100
AcDbPoint
  10
49.2
  20
0.8
  30
0
  0
POINT
  5
ec
  330
e3
  100
AcDbEntity
  8
2
  62
0
  100
AcDbPoint
  10
60
  20
0.8
  30
0
  0
ENDBLK
  5
ed
  330
e3
  100
AcDbEntity
  8
2
  100
AcDbBlockEnd
  0
BLOCK
  5
ef
  330
f1
  100
AcDbEntity
  8
2
  100
AcDbBlockBegin
  2
*Df0
  70
1
  10
0
  20
0
  30
0
  3
*Df0
  1

  0
LINE
  5
f2
  330
f1
  100
AcDbEntity
  8
2
  100
AcDbLine
  10
47.146411
  20
-2.053589
  30
0
  11
56.836753
  21
7.636753
  31
0
  0
MTEXT
  5
f3
  330
f1
  100
AcDbEntity
  8
2
  100
AcDbMText
  10
49.765685
  20
0.565685
  30
0
  11
0.707107
  21
0.707107
  31
0
  40
2
  41
0
  71
8
  72
1
  1
R0.8
  0
SOLID
  5
f4
  330
f1
  100
AcDbEntity
  8
2
  100
AcDbTrace
  10
49.765685
  20
0.565685
  30
0
  11
51.287589
  21
2.549069
  31
0
  12
51.749069
  22
2.087589
  32
0
  13
51.749069
  23
2.087589
  33
0
  0
POINT
  5
f5
  330
f1
  100
AcDbEntity
  8
2
  62
0
  100
AcDbPoint
  10
47.146411
  20
-2.053589
  30
0
  0
POINT
  5
f6
  330
f1
  100
AcDbEntity
  8
2
  62
0
  100
AcDbPoint
  10
49.2
  20
0
  30
0
  0
ENDBLK
  5
f7
  330
f1
  100
AcDbEntity
  8
2
  100
AcDbBlockEnd
  0
BLOCK
  5
f9
  330
fb
  100
AcDbEntity
  8
2
  100
AcDbBlockBegin
  2
*Dfa
  70
1
  10
0
  20
0
  30
0
  3
*Dfa
  1

  0
LINE
  5
fc
  330
fb
  100
AcDbEntity
  8
2
  100
AcDbLine
  10
48.7
  20
-0.775
  30
0
  11
46.7
  21
-0.775
  31
0
  0
LINE
  5
fd
  330
fb
  100
AcDbEntity
  8
2
  100
AcDbLine
  10
48.7
  20
0.775
  30
0
  11
46.7
  21
0.775
  31
0
  0
LINE
  5
fe
  330
fb
  100
AcDbEntity
  8
2
  100
AcDbLine
  10
48.7
  20
-0.775
  30
0
  11
48.7
  21
9.096535
  31
0
  0
SOLID
  5
ff
  330
fb
  100
AcDbEntity
  8
2
  100
AcDbTrace
  10
48.7
  20
-0.775
  30
0
  11
48.373685
  21
1.703612
  31
0
  12
49.026315
  22
1.703612
  32
0
  13
49.026315
  23
1.703612
  33
0
  0
SOLID
  5
100
  330
fb
  100
AcDbEntity
  8
2
  100
AcDbTrace
  10
48.7
  20
0.775
  30
0
  11
49.026315
  21
-1.703612
  31
0
  12
48.373685
  22
-1.703612
  32
0
  13
48.373685
  23
-1.703612
  33
0
  0
MTEXT
  5
101
  330
fb
  100
AcDbEntity
  8
2
  100
AcDbMText
  10
48.7
  20
0.775
  30
0
  11
0
  21
1
  31
0
  40
2
  41
0
  71
8
  72
1
  1
ﾘ1.55
  0
POINT
  5
102
  330
fb
  100
AcDbEntity
  8
2
  62
0
  100
AcDbPoint
  10
46.7
  20
-0.775
  30
0
  0
POINT
  5
103
  330
fb
  100
AcDbEntity
  8
2
  62
0
  100
AcDbPoint
  10
46.7
  20
0.775
  30
0
  0
POINT
  5
104
  330
fb
  100
AcDbEntity
  8
2
  62
0
  100
AcDbPoint
  10
48.7
  20
9.096535
  30
0
  0
ENDBLK
  5
105
  330
fb
  100
AcDbEntity
  8
2
  100
AcDbBlockEnd
  0
BLOCK
  5
107
  330
109
  100
AcDbEntity
  8
2
  100
AcDbBlockBegin
  2
*D108
  70
1
  10
0
  20
0
  30
0
  3
*D108
  1

  0
LINE
  5
10a
  330
109
  100
AcDbEntity
  8
2
  100
AcDbLine
  10
48.7
  20
0.775
  30
0
  11
48.7
  21
9
  31
0
  0
LINE
  5
10b
  330
109
  100
AcDbEntity
  8
2
  100
AcDbLine
  10
34.39
  20
0.775
  30
0
  11
34.39
  21
9
  31
0
  0
LINE
  5
10c
  330
109
  100
AcDbEntity
  8
2
  100
AcDbLine
  10
51.590347
  20
7
  30
0
  11
34.39
  21
7
  31
0
  0
SOLID
  5
10d
  330
109
  100
AcDbEntity
  8
2
  100
AcDbTrace
  10
48.7
  20
7
  30
0
  11
51.178612
  21
7.326315
  31
0
  12
51.178612
  22
6.673685
  32
0
  13
51.178612
  23
6.673685
  33
0
  0
SOLID
  5
10e
  330
109
  100
AcDbEntity
  8
2
  100
AcDbTrace
  10
34.39
  20
7
  30
0
  11
31.911388
  21
6.673685
  31
0
  12
31.911388
  22
7.326315
  32
0
  13
31.911388
  23
7.326315
  33
0
  0
MTEXT
  5
10f
  330
109
  100
AcDbEntity
  8
2
  100
AcDbMText
  10
47.484884
  20
7
  30
0
  11
1
  21
-0
  31
0
  40
2
  41
0
  71
8
  72
1
  1
14.31
  0
POINT
  5
110
  330
109
  100
AcDbEntity
  8
2
  62
0
  100
AcDbPoint
  10
48.7
  20
0.775
  30
0
  0
POINT
  5
111
  330
109
  100
AcDbEntity
  8
2
  62
0
  100
AcDbPoint
  10
34.39
  20
0.775
  30
0
  0
POINT
  5
112
  330
109
  100
AcDbEntity
  8
2
  62
0
  100
AcDbPoint
  10
34.39
  20
7
  30
0
  0
ENDBLK
  5
113
  330
109
  100
AcDbEntity
  8
2
  100
AcDbBlockEnd
  0
BLOCK
  5
115
  330
117
  100
AcDbEntity
  8
2
  100
AcDbBlockBegin
  2
*D116
  70
1
  10
0
  20
0
  30
0
  3
*D116
  1

  0
LINE
  5
118
  330
117
  100
AcDbEntity
  8
2
  100
AcDbLine
  10
50
  20
-14
  30
0
  11
50
  21
19
  31
0
  0
LINE
  5
119
  330
117
  100
AcDbEntity
  8
2
  100
AcDbLine
  10
29.2
  20
2
  30
0
  11
29.2
  21
9
  31
0
  0
LINE
  5
11a
  330
117
  100
AcDbEntity
  8
2
  100
AcDbLine
  10
50
  20
7
  30
0
  11
29.2
  21
7
  31
0
  0
SOLID
  5
11b
  330
117
  100
AcDbEntity
  8
2
  100
AcDbTrace
  10
50
  20
7
  30
0
  11
52.478612
  21
7.326315
  31
0
  12
52.478612
  22
6.673685
  32
0
  13
52.478612
  23
6.673685
  33
0
  0
SOLID
  5
11c
  330
117
  100
AcDbEntity
  8
2
  100
AcDbTrace
  10
29.2
  20
7
  30
0
  11
26.721388
  21
6.673685
  31
0
  12
26.721388
  22
7.326315
  32
0
  13
26.721388
  23
7.326315
  33
0
  0
MTEXT
  5
11d
  330
117
  100
AcDbEntity
  8
2
  100
AcDbMText
  10
39.6
  20
7
  30
0
  11
1
  21
-0
  31
0
  40
2
  41
0
  71
8
  72
1
  1
20.8
  0
POINT
  5
11e
  330
117
  100
AcDbEntity
  8
2
  62
0
  100
AcDbPoint
  10
50
  20
-14
  30
0
  0
POINT
  5
11f
  330
117
  100
AcDbEntity
  8
2
  62
0
  100
AcDbPoint
  10
29.2
  20
2
  30
0
  0
POINT
  5
120
  330
117
  100
AcDbEntity
  8
2
  62
0
  100
AcDbPoint
  10
29.2
  20
7
  30
0
  0
ENDBLK
  5
121
  330
117
  100
AcDbEntity
  8
2
  100
AcDbBlockEnd
  0
BLOCK
  5
123
  330
125
  100
AcDbEntity
  8
2
  100
AcDbBlockBegin
  2
*D124
  70
1
  10
0
  20
0
  30
0
  3
*D124
  1

  0
LINE
  5
126
  330
125
  100
AcDbEntity
  8
2
  100
AcDbLine
  10
48.7
  20
-0.775
  30
0
  11
48.7
  21
-14
  31
0
  0
LINE
  5
127
  330
125
  100
AcDbEntity
  8
2
  100
AcDbLine
  10
50
  20
-14
  30
0
  11
50
  21
19
  31
0
  0
LINE
  5
128
  330
125
  100
AcDbEntity
  8
2
  100
AcDbLine
  10
44.832921
  20
-12
  30
0
  11
50
  21
-12
  31
0
  0
SOLID
  5
129
  330
125
  100
AcDbEntity
  8
2
  100
AcDbTrace
  10
48.7
  20
-12
  30
0
  11
51.178612
  21
-11.673685
  31
0
  12
51.178612
  22
-12.326315
  32
0
  13
51.178612
  23
-12.326315
  33
0
  0
SOLID
  5
12a
  330
125
  100
AcDbEntity
  8
2
  100
AcDbTrace
  10
50
  20
-12
  30
0
  11
47.521388
  21
-12.326315
  31
0
  12
47.521388
  22
-11.673685
  32
0
  13
47.521388
  23
-11.673685
  33
0
  0
MTEXT
  5
12b
  330
125
  100
AcDbEntity
  8
2
  100
AcDbMText
  10
49.35
  20
-12
  30
0
  11
1
  21
0
  31
0
  40
2
  41
0
  71
8
  72
1
  1
1.3
  0
POINT
  5
12c
  330
125
  100
AcDbEntity
  8
2
  62
0
  100
AcDbPoint
  10
48.7
  20
-0.775
  30
0
  0
POINT
  5
12d
  330
125
  100
AcDbEntity
  8
2
  62
0
  100
AcDbPoint
  10
50
  20
19
  30
0
  0
POINT
  5
12e
  330
125
  100
AcDbEntity
  8
2
  62
0
  100
AcDbPoint
  10
50
  20
-12
  30
0
  0
ENDBLK
  5
12f
  330
125
  100
AcDbEntity
  8
2
  100
AcDbBlockEnd
  0
ENDSEC
  0
SECTION
  2
ENTITIES
  0
DIMENSION
  5
c4
  100
AcDbEntity
  8
SK2
  100
AcDbDimension
  2
*Db8
  10
50
  20
17
  30
0
  11
25
  21
17
  31
0
  70
160
  1
<>
  71
5
  3
STANDARD
  42
50
  100
AcDbAlignedDimension
  13
0
  23
1.3
  33
0
  14
50
  24
-14
  34
0
  50
0
  100
AcDbRotatedDimension
  0
DIMENSION
  5
d2
  100
AcDbEntity
  8
SK2
  100
AcDbDimension
  2
*Dc6
  10
0
  20
12
  30
0
  11
14.6
  21
12
  31
0
  70
160
  1
<>
  71
5
  3
STANDARD
  42
29.2
  100
AcDbAlignedDimension
  13
29.2
  23
2
  33
0
  14
0
  24
1.3
  34
0
  50
0
  100
AcDbRotatedDimension
  0
DIMENSION
  5
e0
  100
AcDbEntity
  8
SK2
  100
AcDbDimension
  2
*Dd4
  10
-10
  20
2
  30
0
  11
-10
  21
0
  31
0
  70
160
  1
%%c<>
  71
5
  3
STANDARD
  42
4
  100
AcDbAlignedDimension
  13
0.7
  23
-2
  33
0
  14
0.7
  24
2
  34
0
  50
-90
  100
AcDbRotatedDimension
  0
DIMENSION
  5
ee
  100
AcDbEntity
  8
2
  100
AcDbDimension
  2
*De2
  10
60
  20
0.8
  30
0
  11
60
  21
0
  31
0
  70
160
  1
%%c<>
  71
5
  3
STANDARD
  42
1.6
  100
AcDbAlignedDimension
  13
49.2
  23
-0.8
  33
0
  14
49.2
  24
0.8
  34
0
  50
-90
  100
AcDbRotatedDimension
  0
DIMENSION
  5
f8
  100
AcDbEntity
  8
2
  100
AcDbDimension
  2
*Df0
  10
49.2
  20
0
  30
0
  11
49.765685
  21
0.565685
  31
0
  70
164
  1
R0.8
  71
5
  3
STANDARD
  100
AcDbRadialDimension
  15
49.765685
  25
0.565685
  35
0
  50
45
  0
DIMENSION
  5
106
  100
AcDbEntity
  8
2
  100
AcDbDimension
  2
*Dfa
  10
48.7
  20
9.096535
  30
0
  11
48.7
  21
0.775
  31
0
  70
160
  1
%%c<>
  71
5
  3
STANDARD
  42
1.55
  100
AcDbAlignedDimension
  13
46.7
  23
-0.775
  33
0
  14
46.7
  24
0.775
  34
0
  50
-90
  100
AcDbRotatedDimension
  0
DIMENSION
  5
114
  100
AcDbEntity
  8
2
  100
AcDbDimension
  2
*D108
  10
34.39
  20
7
  30
0
  11
47.484884
  21
7
  31
0
  70
160
  1
<>
  71
5
  3
STANDARD
  42
14.31
  100
AcDbAlignedDimension
  13
48.7
  23
0.775
  33
0
  14
34.39
  24
0.775
  34
0
  50
0
  100
AcDbRotatedDimension
  0
DIMENSION
  5
122
  100
AcDbEntity
  8
2
  100
AcDbDimension
  2
*D116
  10
29.2
  20
7
  30
0
  11
39.6
  21
7
  31
0
  70
160
  1
<>
  71
5
  3
STANDARD
  42
20.8
  100
AcDbAlignedDimension
  13
50
  23
-14
  33
0
  14
29.2
  24
2
  34
0
  50
0
  100
AcDbRotatedDimension
  0
DIMENSION
  5
130
  100
AcDbEntity
  8
2
  100
AcDbDimension
  2
*D124
  10
50
  20
-12
  30
0
  11
49.35
  21
-12
  31
0
  70
160
  1
<>
  71
5
  3
STANDARD
  42
1.3
  100
AcDbAlignedDimension
  13
48.7
  23
-0.775
  33
0
  14
50
  24
19
  34
0
  50
0
  100
AcDbRotatedDimension
  0
ARC
  5
36
  100
AcDbEntity
  8
1
  100
AcDbCircle
  10
34.39
  20
-1.775
  30
0
  40
1
  100
AcDbArc
  50
90
  51
105
  0
LINE
  5
37
  100
AcDbEntity
  8
1
  100
AcDbLine
  10
34.39
  20
-0.775
  30
0
  11
48.7
  21
-0.775
  31
0
  0
LINE
  5
38
  100
AcDbEntity
  8
1
  100
AcDbLine
  10
48.7
  20
-0.775
  30
0
  11
48.7
  21
-0.8
  31
0
  0
LINE
  5
39
  100
AcDbEntity
  8
1
  100
AcDbLine
  10
48.7
  20
-0.8
  30
0
  11
49.2
  21
-0.8
  31
0
  0
ARC
  5
3a
  100
AcDbEntity
  8
1
  100
AcDbCircle
  10
49.2
  20
0
  30
0
  40
0.8
  100
AcDbArc
  50
270
  51
0
  0
ARC
  5
3b
  100
AcDbEntity
  8
1
  100
AcDbCircle
  10
49.2
  20
0
  30
0
  40
0.8
  100
AcDbArc
  50
0
  51
90
  0
LINE
  5
3c
  100
AcDbEntity
  8
1
  100
AcDbLine
  10
49.2
  20
0.8
  30
0
  11
48.7
  21
0.8
  31
0
  0
LINE
  5
3d
  100
AcDbEntity
  8
1
  100
AcDbLine
  10
48.7
  20
0.8
  30
0
  11
48.7
  21
0.775
  31
0
  0
LINE
  5
3e
  100
AcDbEntity
  8
1
  100
AcDbLine
  10
48.7
  20
0.775
  30
0
  11
34.39
  21
0.775
  31
0
  0
ARC
  5
3f
  100
AcDbEntity
  8
1
  100
AcDbCircle
  10
34.39
  20
1.775
  30
0
  40
1
  100
AcDbArc
  50
255
  51
270
  0
LINE
  5
40
  100
AcDbEntity
  8
1
  100
AcDbLine
  10
34.131181
  20
0.809074
  30
0
  11
29.686585
  21
2
  31
0
  0
LINE
  5
41
  100
AcDbEntity
  8
1
  100
AcDbLine
  10
29.686585
  20
2
  30
0
  11
29.2
  21
2
  31
0
  0
LINE
  5
42
  100
AcDbEntity
  8
1
  100
AcDbLine
  10
29.2
  20
2
  30
0
  11
29.2
  21
-2
  31
0
  0
LINE
  5
43
  100
AcDbEntity
  8
1
  100
AcDbLine
  10
29.2
  20
-2
  30
0
  11
29.686585
  21
-2
  31
0
  0
LINE
  5
44
  100
AcDbEntity
  8
1
  100
AcDbLine
  10
29.686585
  20
-2
  30
0
  11
34.131181
  21
-0.809074
  31
0
  0
LINE
  5
45
  100
AcDbEntity
  8
1
  100
AcDbLine
  10
29.2
  20
-2
  30
0
  11
29.2
  21
2
  31
0
  0
LINE
  5
46
  100
AcDbEntity
  8
1
  100
AcDbLine
  10
29.2
  20
2
  30
0
  11
29.2
  21
-2
  31
0
  0
LINE
  5
47
  100
AcDbEntity
  8
1
  100
AcDbLine
  10
29.686585
  20
-2
  30
0
  11
29.686585
  21
2
  31
0
  0
LINE
  5
48
  100
AcDbEntity
  8
1
  100
AcDbLine
  10
34.131181
  20
0.809074
  30
0
  11
34.131181
  21
-0.809074
  31
0
  0
LINE
  5
49
  100
AcDbEntity
  8
1
  100
AcDbLine
  10
34.39
  20
-0.775
  30
0
  11
34.39
  21
0.775
  31
0
  0
LINE
  5
4a
  100
AcDbEntity
  8
1
  100
AcDbLine
  10
49.2
  20
0.8
  30
0
  11
49.2
  21
-0.8
  31
0
  0
LINE
  5
4b
  100
AcDbEntity
  8
1
  100
AcDbLine
  10
48.7
  20
-0.383464
  30
0
  11
48.7
  21
-0.401244
  31
0
  0
LINE
  5
4c
  100
AcDbEntity
  8
1
  100
AcDbLine
  10
48.7
  20
-0.401244
  30
0
  11
48.8
  21
-0.449273
  31
0
  0
LINE
  5
4d
  100
AcDbEntity
  8
1
  100
AcDbLine
  10
48.8
  20
-0.449273
  30
0
  11
48.9
  21
-0.494962
  31
0
  0
LINE
  5
4e
  100
AcDbEntity
  8
1
  100
AcDbLine
  10
48.9
  20
-0.494962
  30
0
  11
49
  21
-0.538076
  31
0
  0
LINE
  5
4f
  100
AcDbEntity
  8
1
  100
AcDbLine
  10
49
  20
-0.538076
  30
0
  11
49.1
  21
-0.578387
  31
0
  0
LINE
  5
50
  100
AcDbEntity
  8
1
  100
AcDbLine
  10
49.1
  20
-0.578387
  30
0
  11
49.2
  21
-0.615688
  31
0
  0
LINE
  5
51
  100
AcDbEntity
  8
1
  100
AcDbLine
  10
49.2
  20
-0.615688
  30
0
  11
49.3
  21
-0.643796
  31
0
  0
LINE
  5
52
  100
AcDbEntity
  8
1
  100
AcDbLine
  10
49.3
  20
-0.643796
  30
0
  11
49.4
  21
-0.655629
  31
0
  0
LINE
  5
53
  100
AcDbEntity
  8
1
  100
AcDbLine
  10
49.4
  20
-0.655629
  30
0
  11
49.5
  21
-0.649345
  31
0
  0
LINE
  5
54
  100
AcDbEntity
  8
1
  100
AcDbLine
  10
49.5
  20
-0.649345
  30
0
  11
49.6
  21
-0.622405
  31
0
  0
LINE
  5
55
  100
AcDbEntity
  8
1
  100
AcDbLine
  10
49.6
  20
-0.622405
  30
0
  11
49.7
  21
-0.570731
  31
0
  0
LINE
  5
56
  100
AcDbEntity
  8
1
  100
AcDbLine
  10
49.7
  20
-0.570731
  30
0
  11
49.8
  21
-0.48805
  31
0
  0
LINE
  5
57
  100
AcDbEntity
  8
1
  100
AcDbLine
  10
49.8
  20
-0.517844
  30
0
  11
49.8
  21
-0.52915
  31
0
  0
LINE
  5
58
  100
AcDbEntity
  8
1
  100
AcDbLine
  10
49.8
  20
-0.52915
  30
0
  11
49.8
  21
-0.517844
  31
0
  0
LINE
  5
59
  100
AcDbEntity
  8
1
  100
AcDbLine
  10
49.8
  20
-0.517844
  30
0
  11
49.7
  21
-0.604128
  31
0
  0
LINE
  5
5a
  100
AcDbEntity
  8
1
  100
AcDbLine
  10
49.7
  20
-0.604128
  30
0
  11
49.6
  21
-0.6597
  31
0
  0
LINE
  5
5b
  100
AcDbEntity
  8
1
  100
AcDbLine
  10
49.6
  20
-0.6597
  30
0
  11
49.5
  21
-0.690917
  31
0
  0
LINE
  5
5c
  100
AcDbEntity
  8
1
  100
AcDbLine
  10
49.5
  20
-0.690917
  30
0
  11
49.4
  21
-0.7016
  31
0
  0
LINE
  5
5d
  100
AcDbEntity
  8
1
  100
AcDbLine
  10
49.4
  20
-0.7016
  30
0
  11
49.3
  21
-0.694151
  31
0
  0
LINE
  5
5e
  100
AcDbEntity
  8
1
  100
AcDbLine
  10
49.3
  20
-0.694151
  30
0
  11
49.2
  21
-0.670329
  31
0
  0
LINE
  5
5f
  100
AcDbEntity
  8
1
  100
AcDbLine
  10
49.2
  20
-0.670329
  30
0
  11
49.1
  21
-0.6371
  31
0
  0
LINE
  5
60
  100
AcDbEntity
  8
1
  100
AcDbLine
  10
49.1
  20
-0.6371
  30
0
  11
49
  21
-0.600553
  31
0
  0
LINE
  5
61
  100
AcDbEntity
  8
1
  100
AcDbLine
  10
49
  20
-0.600553
  30
0
  11
48.9
  21
-0.56088
  31
0
  0
LINE
  5
62
  100
AcDbEntity
  8
1
  100
AcDbLine
  10
48.9
  20
-0.56088
  30
0
  11
48.8
  21
-0.518287
  31
0
  0
LINE
  5
63
  100
AcDbEntity
  8
1
  100
AcDbLine
  10
48.8
  20
-0.518287
  30
0
  11
48.7
  21
-0.472996
  31
0
  0
LINE
  5
64
  100
AcDbEntity
  8
1
  100
AcDbLine
  10
48.7
  20
-0.472996
  30
0
  11
48.7
  21
-0.455376
  31
0
  0
LINE
  5
65
  100
AcDbEntity
  8
1
  100
AcDbLine
  10
48.7
  20
-0.455376
  30
0
  11
48.6
  21
-0.411085
  31
0
  0
LINE
  5
66
  100
AcDbEntity
  8
1
  100
AcDbLine
  10
48.6
  20
-0.411085
  30
0
  11
48.6
  21
-0.775
  31
0
  0
LINE
  5
67
  100
AcDbEntity
  8
1
  100
AcDbLine
  10
48.7
  20
-0.775
  30
0
  11
48.7
  21
0.775
  31
0
  0
LINE
  5
68
  100
AcDbEntity
  8
1
  100
AcDbLine
  10
48.7
  20
0.8
  30
0
  11
48.7
  21
-0.8
  31
0
  0
LINE
  5
69
  100
AcDbEntity
  8
1
  100
AcDbLine
  10
48.6
  20
0.775
  30
0
  11
48.6
  21
-0.079808
  31
0
  0
LINE
  5
6a
  100
AcDbEntity
  8
1
  100
AcDbLine
  10
48.6
  20
-0.079808
  30
0
  11
48.7
  21
-0.202837
  31
0
  0
LINE
  5
6b
  100
AcDbEntity
  8
1
  100
AcDbLine
  10
48.7
  20
-0.202837
  30
0
  11
48.7
  21
-0.223802
  31
0
  0
LINE
  5
6c
  100
AcDbEntity
  8
1
  100
AcDbLine
  10
48.7
  20
-0.223802
  30
0
  11
48.8
  21
-0.278601
  31
0
  0
LINE
  5
6d
  100
AcDbEntity
  8
1
  100
AcDbLine
  10
48.8
  20
-0.278601
  30
0
  11
48.9
  21
-0.33195
  31
0
  0
LINE
  5
6e
  100
AcDbEntity
  8
1
  100
AcDbLine
  10
48.9
  20
-0.33195
  30
0
  11
49
  21
-0.38357
  31
0
  0
LINE
  5
6f
  100
AcDbEntity
  8
1
  100
AcDbLine
  10
49
  20
-0.38357
  30
0
  11
49.1
  21
-0.433194
  31
0
  0
LINE
  5
70
  100
AcDbEntity
  8
1
  100
AcDbLine
  10
49.1
  20
-0.433194
  30
0
  11
49.2
  21
-0.480562
  31
0
  0
LINE
  5
71
  100
AcDbEntity
  8
1
  100
AcDbLine
  10
49.2
  20
-0.480562
  30
0
  11
49.3
  21
-0.518567
  31
0
  0
LINE
  5
72
  100
AcDbEntity
  8
1
  100
AcDbLine
  10
49.3
  20
-0.518567
  30
0
  11
49.4
  21
-0.539045
  31
0
  0
LINE
  5
73
  100
AcDbEntity
  8
1
  100
AcDbLine
  10
49.4
  20
-0.539045
  30
0
  11
49.5
  21
-0.539598
  31
0
  0
LINE
  5
74
  100
AcDbEntity
  8
1
  100
AcDbLine
  10
49.5
  20
-0.539598
  30
0
  11
49.6
  21
-0.516447
  31
0
  0
LINE
  5
75
  100
AcDbEntity
  8
1
  100
AcDbLine
  10
49.6
  20
-0.516447
  30
0
  11
49.7
  21
-0.462376
  31
0
  0
LINE
  5
76
  100
AcDbEntity
  8
1
  100
AcDbLine
  10
49.7
  20
-0.462376
  30
0
  11
49.8
  21
-0.358329
  31
0
  0
LINE
  5
77
  100
AcDbEntity
  8
1
  100
AcDbLine
  10
49.8
  20
-0.358329
  30
0
  11
49.8
  21
0.52915
  31
0
  0
LINE
  5
78
  100
AcDbEntity
  8
1
  100
AcDbLine
  10
49.8
  20
0.52915
  30
0
  11
49.8
  21
-0.358329
  31
0
  0
LINE
  5
79
  100
AcDbEntity
  8
SK1
  100
AcDbLine
  10
29.2
  20
2
  30
0
  11
0.7
  21
2
  31
0
  0
LINE
  5
7a
  100
AcDbEntity
  8
SK1
  100
AcDbLine
  10
0.7
  20
2
  30
0
  11
0
  21
1.3
  31
0
  0
LINE
  5
7b
  100
AcDbEntity
  8
SK1
  100
AcDbLine
  10
29.2
  20
-2
  30
0
  11
0.7
  21
-2
  31
0
  0
LINE
  5
7c
  100
AcDbEntity
  8
SK1
  100
AcDbLine
  10
0.7
  20
-2
  30
0
  11
0
  21
-1.3
  31
0
  0
LINE
  5
7d
  100
AcDbEntity
  8
SK1
  100
AcDbLine
  10
0.7
  20
2
  30
0
  11
0.7
  21
-2
  31
0
  0
LINE
  5
7e
  100
AcDbEntity
  8
SK1
  100
AcDbLine
  10
0
  20
1.3
  30
0
  11
0
  21
-1.3
  31
0
  0
LINE
  5
7f
  100
AcDbEntity
  8
SK1
  100
AcDbLine
  10
30.2401
  20
1.40688
  30
0
  11
30.6069
  21
1.0401
  31
0
  0
LINE
  5
80
  100
AcDbEntity
  8
SK1
  100
AcDbLine
  10
29.7328
  20
1.66666
  30
0
  11
30.8667
  21
0.532833
  31
0
  0
LINE
  5
81
  100
AcDbEntity
  8
SK1
  100
AcDbLine
  10
29.4154
  20
1.73657
  30
0
  11
30.9366
  21
0.215434
  31
0
  0
LINE
  5
82
  100
AcDbEntity
  8
SK1
  100
AcDbLine
  10
29.2
  20
1.70452
  30
0
  11
30.9045
  21
0
  31
0
  0
LINE
  5
83
  100
AcDbEntity
  8
SK1
  100
AcDbLine
  10
29.2
  20
1.45703
  30
0
  11
30.657
  21
0
  31
0
  0
LINE
  5
84
  100
AcDbEntity
  8
SK1
  100
AcDbLine
  10
29.2
  20
1.20954
  30
0
  11
30.4095
  21
0
  31
0
  0
LINE
  5
85
  100
AcDbEntity
  8
SK1
  100
AcDbLine
  10
29.2
  20
0.962054
  30
0
  11
30.1621
  21
0
  31
0
  0
LINE
  5
86
  100
AcDbEntity
  8
SK1
  100
AcDbLine
  10
29.2
  20
0.714566
  30
0
  11
29.9146
  21
0
  31
0
  0
LINE
  5
87
  100
AcDbEntity
  8
SK1
  100
AcDbLine
  10
29.2
  20
0.467079
  30
0
  11
29.6671
  21
0
  31
0
  0
LINE
  5
88
  100
AcDbEntity
  8
SK1
  100
AcDbLine
  10
29.2
  20
0.219592
  30
0
  11
29.4196
  21
0
  31
0
  0
LINE
  5
89
  100
AcDbEntity
  8
SK1
  100
AcDbLine
  10
29.2
  20
1.70452
  30
0
  11
29.2441
  21
1.74861
  31
0
  0
LINE
  5
8a
  100
AcDbEntity
  8
SK1
  100
AcDbLine
  10
29.2
  20
1.45703
  30
0
  11
29.471
  21
1.72802
  31
0
  0
LINE
  5
8b
  100
AcDbEntity
  8
SK1
  100
AcDbLine
  10
29.2
  20
1.20954
  30
0
  11
29.6742
  21
1.6837
  31
0
  0
LINE
  5
8c
  100
AcDbEntity
  8
SK1
  100
AcDbLine
  10
29.2
  20
0.962054
  30
0
  11
29.8588
  21
1.62082
  31
0
  0
LINE
  5
8d
  100
AcDbEntity
  8
SK1
  100
AcDbLine
  10
29.2
  20
0.714566
  30
0
  11
30.0271
  21
1.54167
  31
0
  0
LINE
  5
8e
  100
AcDbEntity
  8
SK1
  100
AcDbLine
  10
29.2
  20
0.467079
  30
0
  11
30.181
  21
1.44812
  31
0
  0
LINE
  5
8f
  100
AcDbEntity
  8
SK1
  100
AcDbLine
  10
29.2
  20
0.219592
  30
0
  11
30.3226
  21
1.34216
  31
0
  0
LINE
  5
90
  100
AcDbEntity
  8
SK1
  100
AcDbLine
  10
29.2279
  20
0
  30
0
  11
30.4508
  21
1.22288
  31
0
  0
LINE
  5
91
  100
AcDbEntity
  8
SK1
  100
AcDbLine
  10
29.4754
  20
0
  30
0
  11
30.567
  21
1.09157
  31
0
  0
LINE
  5
92
  100
AcDbEntity
  8
SK1
  100
AcDbLine
  10
29.7229
  20
0
  30
0
  11
30.6707
  21
0.947822
  31
0
  0
LINE
  5
93
  100
AcDbEntity
  8
SK1
  100
AcDbLine
  10
29.9704
  20
0
  30
0
  11
30.7605
  21
0.790145
  31
0
  0
LINE
  5
94
  100
AcDbEntity
  8
SK1
  100
AcDbLine
  10
30.2178
  20
0
  30
0
  11
30.8364
  21
0.618517
  31
0
  0
LINE
  5
95
  100
AcDbEntity
  8
SK1
  100
AcDbLine
  10
30.4653
  20
0
  30
0
  11
30.896
  21
0.430696
  31
0
  0
LINE
  5
96
  100
AcDbEntity
  8
SK1
  100
AcDbLine
  10
30.7128
  20
0
  30
0
  11
30.9356
  21
0.222827
  31
0
  0
LINE
  5
97
  100
AcDbEntity
  8
SK1
  100
AcDbLine
  10
29.2
  20
0
  30
0
  11
29.2
  21
1.75
  31
0
  0
LINE
  5
98
  100
AcDbEntity
  8
SK1
  100
AcDbLine
  10
29.2
  20
0
  30
0
  11
30.95
  21
0
  31
0
  0
ARC
  5
99
  100
AcDbEntity
  8
SK1
  100
AcDbCircle
  10
29.2
  20
0
  30
0
  40
1.75
  100
AcDbArc
  50
0
  51
90
  0
ARC
  5
9a
  100
AcDbEntity
  8
SK1
  100
AcDbCircle
  10
29.2
  20
0
  30
0
  40
1.75
  100
AcDbArc
  50
90
  51
180
  0
LINE
  5
9b
  100
AcDbEntity
  8
SK1
  100
AcDbLine
  10
29.1721
  20
0
  30
0
  11
29.2
  21
-0.027896
  31
0
  0
LINE
  5
9c
  100
AcDbEntity
  8
SK1
  100
AcDbLine
  10
28.9246
  20
0
  30
0
  11
29.2
  21
-0.275383
  31
0
  0
LINE
  5
9d
  100
AcDbEntity
  8
SK1
  100
AcDbLine
  10
28.6771
  20
0
  30
0
  11
29.2
  21
-0.522871
  31
0
  0
LINE
  5
9e
  100
AcDbEntity
  8
SK1
  100
AcDbLine
  10
28.4296
  20
0
  30
0
  11
29.2
  21
-0.770358
  31
0
  0
LINE
  5
9f
  100
AcDbEntity
  8
SK1
  100
AcDbLine
  10
28.1822
  20
0
  30
0
  11
29.2
  21
-1.01785
  31
0
  0
LINE
  5
a0
  100
AcDbEntity
  8
SK1
  100
AcDbLine
  10
27.9347
  20
0
  30
0
  11
29.2
  21
-1.26533
  31
0
  0
LINE
  5
a1
  100
AcDbEntity
  8
SK1
  100
AcDbLine
  10
27.6872
  20
0
  30
0
  11
29.2
  21
-1.51282
  31
0
  0
LINE
  5
a2
  100
AcDbEntity
  8
SK1
  100
AcDbLine
  10
27.4503
  20
-0.010642
  30
0
  11
29.1894
  21
-1.74967
  31
0
  0
LINE
  5
a3
  100
AcDbEntity
  8
SK1
  100
AcDbLine
  10
27.4736
  20
-0.281429
  30
0
  11
28.9186
  21
-1.72637
  31
0
  0
LINE
  5
a4
  100
AcDbEntity
  8
SK1
  100
AcDbLine
  10
27.5639
  20
-0.619147
  30
0
  11
28.5809
  21
-1.63613
  31
0
  0
LINE
  5
a5
  100
AcDbEntity
  8
SK1
  100
AcDbLine
  10
27.4514
  20
-0.044098
  30
0
  11
27.4955
  21
0
  31
0
  0
LINE
  5
a6
  100
AcDbEntity
  8
SK1
  100
AcDbLine
  10
27.472
  20
-0.270991
  30
0
  11
27.743
  21
0
  31
0
  0
LINE
  5
a7
  100
AcDbEntity
  8
SK1
  100
AcDbLine
  10
27.5163
  20
-0.474162
  30
0
  11
27.9905
  21
0
  31
0
  0
LINE
  5
a8
  100
AcDbEntity
  8
SK1
  100
AcDbLine
  10
27.5792
  20
-0.658762
  30
0
  11
28.2379
  21
0
  31
0
  0
LINE
  5
a9
  100
AcDbEntity
  8
SK1
  100
AcDbLine
  10
27.6583
  20
-0.827105
  30
0
  11
28.4854
  21
0
  31
0
  0
LINE
  5
aa
  100
AcDbEntity
  8
SK1
  100
AcDbLine
  10
27.7519
  20
-0.981039
  30
0
  11
28.7329
  21
0
  31
0
  0
LINE
  5
ab
  100
AcDbEntity
  8
SK1
  100
AcDbLine
  10
27.8578
  20
-1.12257
  30
0
  11
28.9804
  21
0
  31
0
  0
LINE
  5
ac
  100
AcDbEntity
  8
SK1
  100
AcDbLine
  10
27.9771
  20
-1.25077
  30
0
  11
29.2
  21
-0.027896
  31
0
  0
LINE
  5
ad
  100
AcDbEntity
  8
SK1
  100
AcDbLine
  10
28.1084
  20
-1.36695
  30
0
  11
29.2
  21
-0.275383
  31
0
  0
LINE
  5
ae
  100
AcDbEntity
  8
SK1
  100
AcDbLine
  10
28.2522
  20
-1.47069
  30
0
  11
29.2
  21
-0.522871
  31
0
  0
LINE
  5
af
  100
AcDbEntity
  8
SK1
  100
AcDbLine
  10
28.4099
  20
-1.5605
  30
0
  11
29.2
  21
-0.770358
  31
0
  0
LINE
  5
b0
  100
AcDbEntity
  8
SK1
  100
AcDbLine
  10
28.5815
  20
-1.63636
  30
0
  11
29.2
  21
-1.01785
  31
0
  0
LINE
  5
b1
  100
AcDbEntity
  8
SK1
  100
AcDbLine
  10
28.7693
  20
-1.69603
  30
0
  11
29.2
  21
-1.26533
  31
0
  0
LINE
  5
b2
  100
AcDbEntity
  8
SK1
  100
AcDbLine
  10
28.9772
  20
-1.73565
  30
0
  11
29.2
  21
-1.51282
  31
0
  0
LINE
  5
b3
  100
AcDbEntity
  8
SK1
  100
AcDbLine
  10
29.2
  20
0
  30
0
  11
27.45
  21
0
  31
0
  0
LINE
  5
b4
  100
AcDbEntity
  8
SK1
  100
AcDbLine
  10
29.2
  20
-1.75
  30
0
  11
29.2
  21
0
  31
0
  0
ARC
  5
b5
  100
AcDbEntity
  8
SK1
  100
AcDbCircle
  10
29.2
  20
0
  30
0
  40
1.75
  100
AcDbArc
  50
180
  51
270
  0
ARC
  5
b6
  100
AcDbEntity
  8
SK1
  100
AcDbCircle
  10
29.2
  20
0
  30
0
  40
1.75
  100
AcDbArc
  50
270
  51
0
  0
LINE
  5
131
  100
AcDbEntity
  8
NOCUT
  100
AcDbLine
  10
48.7
  20
0
  30
0
  11
48.7
  21
0.775
  31
0
  0
LINE
  5
132
  100
AcDbEntity
  8
NOCUT
  100
AcDbLine
  10
48.7
  20
0.775
  30
0
  11
34.39
  21
0.775
  31
0
  0
ARC
  5
133
  100
AcDbEntity
  8
NOCUT
  100
AcDbCircle
  10
34.39
  20
1.775
  30
0
  40
1
  100
AcDbArc
  50
255
  51
270
  0
LINE
  5
134
  100
AcDbEntity
  8
NOCUT
  100
AcDbLine
  10
34.131181
  20
0.809074
  30
0
  11
29.686585
  21
2
  31
0
  0
LINE
  5
135
  100
AcDbEntity
  8
NOCUT
  100
AcDbLine
  10
29.686585
  20
2
  30
0
  11
29.2
  21
2
  31
0
  0
LINE
  5
136
  100
AcDbEntity
  8
NOCUT
  100
AcDbLine
  10
29.2
  20
2
  30
0
  11
29.2
  21
0
  31
0
  0
LINE
  5
137
  100
AcDbEntity
  8
NOCUT
  100
AcDbLine
  10
29.2
  20
0
  30
0
  11
48.7
  21
0
  31
0
  0
ARC
  5
138
  100
AcDbEntity
  8
CUT
  100
AcDbCircle
  10
49.2
  20
0
  30
0
  40
0.8
  100
AcDbArc
  50
0
  51
90
  0
LINE
  5
139
  100
AcDbEntity
  8
CUT
  100
AcDbLine
  10
49.2
  20
0.8
  30
0
  11
48.7
  21
0.8
  31
0
  0
LINE
  5
13a
  100
AcDbEntity
  8
CUT
  100
AcDbLine
  10
48.7
  20
0.8
  30
0
  11
48.7
  21
0
  31
0
  0
LINE
  5
13b
  100
AcDbEntity
  8
CUT
  100
AcDbLine
  10
48.7
  20
0
  30
0
  11
50
  21
0
  31
0
  0
LINE
  5
13c
  100
AcDbEntity
  8
4
  100
AcDbLine
  10
29.2
  20
0
  30
0
  11
50
  21
0
  31
0
  0
LINE
  5
13d
  100
AcDbEntity
  8
SK4
  100
AcDbLine
  10
-1
  20
0
  30
0
  11
51
  21
0
  31
0
  0
LINE
  5
13e
  100
AcDbEntity
  8
INFTOTAL
  100
AcDbLine
  10
-15.7
  20
22.7
  30
0
  11
65.7
  21
22.7
  31
0
  0
LINE
  5
13f
  100
AcDbEntity
  8
INFTOTAL
  100
AcDbLine
  10
65.7
  20
22.7
  30
0
  11
65.7
  21
-17.7
  31
0
  0
LINE
  5
140
  100
AcDbEntity
  8
INFTOTAL
  100
AcDbLine
  10
65.7
  20
-17.7
  30
0
  11
-15.7
  21
-17.7
  31
0
  0
LINE
  5
141
  100
AcDbEntity
  8
INFTOTAL
  100
AcDbLine
  10
-15.7
  20
-17.7
  30
0
  11
-15.7
  21
22.7
  31
0
  0
ENDSEC
  0
SECTION
  2
OBJECTS
  0
DICTIONARY
  5
142
  330
0
100
AcDbDictionary
281
    1
  3
ACAD_GROUP
  350
143
  0
DICTIONARY
  5
143
102
{ACAD_REACTORS
  330
142
102
}
  330
142
100
AcDbDictionary
281
    1
  0
ENDSEC
  0
EOF
