  0
SECTION
  2
HEADER
  9
$ACADVER
  1
AC1015
  9
$DWGCODEPAGE
  3
ANSI_932
  9
$HANDSEED
  5
106AB90
  0
ENDSEC
  0
SECTION
  2
CLASSES
  0
CLASS
  1
IMAGEDEF
  2
AcDbRasterImageDef
  3
ISM
  90
0
  91
4
  280
0
  281
0
  0
CLASS
  1
IMAGE
  2
AcDbRasterImage
  3
ISM
  90
127
  91
5
  280
0
  281
1
  0
CLASS
  1
IMAGEDEF_REACTOR
  2
AcDbRasterImageDefReactor
  3
ISM
  90
1
  91
4
  280
0
  281
0
  0
ENDSEC
  0
SECTION
  2
TABLES
  0
TABLE
  2
VPORT
  5
2
  330
0
  100
AcDbSymbolTable
  70
    0
  0
ENDTAB
  0
TABLE
  2
LTYPE
  5
3
  330
0
  100
AcDbSymbolTable
  70
    4
  0
LTYPE
  5
4
  330
3
  100
AcDbSymbolTableRecord
  100
AcDbLinetypeTableRecord
  2
ByBlock
  70
    0
  3

  72
65
  73
    0
  40
0
  0
LTYPE
  5
5
  330
3
  100
AcDbSymbolTableRecord
  100
AcDbLinetypeTableRecord
  2
ByLayer
  70
    0
  3

  72
65
  73
    0
  40
0
  0
LTYPE
  5
6
  330
3
  100
AcDbSymbolTableRecord
  100
AcDbLinetypeTableRecord
  2
CONTINUOUS
  70
    0
  3
Solid Line
  72
65
  73
    0
  40
0
  0
LTYPE
  5
7
  330
3
  100
AcDbSymbolTableRecord
  100
AcDbLinetypeTableRecord
  2
DASH
  70
    0
  3
Hidden
  72
65
  73
2
  40
2.5
  49
1.5
  74
0
  49
-1
  74
0
  0
LTYPE
  5
8
  330
3
  100
AcDbSymbolTableRecord
  100
AcDbLinetypeTableRecord
  2
LONGDASHDASH
  70
    0
  3
__ . __
  72
65
  73
    4
  40
7
  49
4
  74
    0
  49
-1
  74
    0
  49
1
  74
    0
  49
-1
  74
    0
  0
ENDTAB
  0
TABLE
  2
LAYER
  5
9
  330
0
  100
AcDbSymbolTable
  70
    40
  0
LAYER
  5
a
  330
9
  100
AcDbSymbolTableRecord
  100
AcDbLayerTableRecord
  2
0
  70
    0
  62
    0
  6
CONTINUOUS
  390
0
  0
LAYER
  5
c
  330
9
  100
AcDbSymbolTableRecord
  100
AcDbLayerTableRecord
  2
1
  70
    0
  62
    4
  6
CONTINUOUS
  370
50
  390
0
  0
LAYER
  5
d
  330
9
  100
AcDbSymbolTableRecord
  100
AcDbLayerTableRecord
  2
2
  70
    0
  62
    7
  6
CONTINUOUS
  370
25
  390
0
  0
LAYER
  5
f
  330
9
  100
AcDbSymbolTableRecord
  100
AcDbLayerTableRecord
  2
4
  70
    0
  62
    2
  6
LONGDASHDASH
  370
25
  390
0
  0
LAYER
  5
13
  330
9
  100
AcDbSymbolTableRecord
  100
AcDbLayerTableRecord
  2
SK1
  70
    0
  62
    4
  6
CONTINUOUS
  370
50
  390
0
  0
LAYER
  5
14
  330
9
  100
AcDbSymbolTableRecord
  100
AcDbLayerTableRecord
  2
SK2
  70
    0
  62
    7
  6
CONTINUOUS
  370
25
  390
0
  0
LAYER
  5
16
  330
9
  100
AcDbSymbolTableRecord
  100
AcDbLayerTableRecord
  2
SK4
  70
    0
  62
    2
  6
LONGDASHDASH
  370
25
  390
0
  0
LAYER
  5
21
  330
9
  100
AcDbSymbolTableRecord
  100
AcDbLayerTableRecord
  2
NOCUT
  70
    0
  62
    7
  6
CONTINUOUS
  370
25
  390
0
  0
LAYER
  5
22
  330
9
  100
AcDbSymbolTableRecord
  100
AcDbLayerTableRecord
  2
CUT
  70
    0
  62
    1
  6
CONTINUOUS
  370
25
  390
0
  0
LAYER
  5
26
  330
9
  100
AcDbSymbolTableRecord
  100
AcDbLayerTableRecord
  2
INFTOTAL
  70
    0
  62
    9
  6
CONTINUOUS
  370
18
  390
0
  0
ENDTAB
  0
TABLE
  2
STYLE
  5
27
  330
0
  100
AcDbSymbolTable
  70
    1
  0
STYLE
  5
28
  330
27
  100
AcDbSymbolTableRecord
  100
AcDbTextStyleTableRecord
  2
Monospac821 BT
  70
    0
  40
    3.5
  41
1
  50
0
  71
0
  42
3
  3

  4

  1001
ACAD
  1000
Monospac821 BT
  1071
256
  0
ENDTAB
  0
TABLE
  2
VIEW
  5
29
  330
0
  100
AcDbSymbolTable
  70
    0
  0
ENDTAB
  0
TABLE
  2
UCS
  5
2a
  330
0
  100
AcDbSymbolTable
  70
    0
  0
ENDTAB
  0
TABLE
  2
APPID
  5
2b
  330
0
  100
AcDbSymbolTable
  70
    1
  0
APPID
  5
2c
  330
2b
  100
AcDbSymbolTableRecord
  100
AcDbRegAppTableRecord
  2
ACAD
  70
    0
  0
ENDTAB
  0
TABLE
  2
DIMSTYLE
  5
2d
  330
0
  100
AcDbSymbolTable
  70
    1
  100
AcDbDimStyleTable
  0
DIMSTYLE
  105
2e
  330
2d
  100
AcDbSymbolTableRecord
  100
AcDbDimStyleTableRecord
  2
STANDARD
  70
    0
  41
    3
  42
0.5
  44
1
  73
0
  77
1
  78
1
  140
3.5
  141
2.5
  143
0.03937
  147
0.8
  172
1
  174
1
  178
0
  179
1
  271
2
  279
1
  284
1
  340
28
  0
ENDTAB
  0
TABLE
  2
BLOCK_RECORD
  5
2f
  330
0
  100
AcDbSymbolTable
  70
    2
  0
BLOCK_RECORD
  5
30
  330
2f
  100
AcDbSymbolTableRecord
  100
AcDbBlockTableRecord
  2
*Model_Space
  0
BLOCK_RECORD
  5
31
  330
2f
  100
AcDbSymbolTableRecord
  100
AcDbBlockTableRecord
  2
*Paper_Space
  0
BLOCK_RECORD
  5
c2
  330
2f
  100
AcDbSymbolTableRecord
  100
AcDbBlockTableRecord
  2
*Dc1
  340
0
  0
BLOCK_RECORD
  5
d0
  330
2f
  100
AcDbSymbolTableRecord
  100
AcDbBlockTableRecord
  2
*Dcf
  340
0
  0
BLOCK_RECORD
  5
de
  330
2f
  100
AcDbSymbolTableRecord
  100
AcDbBlockTableRecord
  2
*Ddd
  340
0
  0
BLOCK_RECORD
  5
ec
  330
2f
  100
AcDbSymbolTableRecord
  100
AcDbBlockTableRecord
  2
*Deb
  340
0
  0
BLOCK_RECORD
  5
fa
  330
2f
  100
AcDbSymbolTableRecord
  100
AcDbBlockTableRecord
  2
*Df9
  340
0
  0
BLOCK_RECORD
  5
104
  330
2f
  100
AcDbSymbolTableRecord
  100
AcDbBlockTableRecord
  2
*D103
  340
0
  0
BLOCK_RECORD
  5
112
  330
2f
  100
AcDbSymbolTableRecord
  100
AcDbBlockTableRecord
  2
*D111
  340
0
  0
BLOCK_RECORD
  5
120
  330
2f
  100
AcDbSymbolTableRecord
  100
AcDbBlockTableRecord
  2
*D11f
  340
0
  0
BLOCK_RECORD
  5
12e
  330
2f
  100
AcDbSymbolTableRecord
  100
AcDbBlockTableRecord
  2
*D12d
  340
0
  0
ENDTAB
  0
ENDSEC
  0
SECTION
  2
BLOCKS
  0
BLOCK
  5
32
  330
30
  100
AcDbEntity
  8
0
  100
AcDbBlockBegin
  2
*Model_Space
  70
    0
  10
0
  20
0
  30
0
  3
*Model_Space
  1

  0
ENDBLK
  5
33
  330
30
  100
AcDbEntity
  8
0
  100
AcDbBlockEnd
  0
BLOCK
  5
34
  330
31
  100
AcDbEntity
  8
0
  100
AcDbBlockBegin
  2
*Paper_Space
  70
    0
  10
0
  20
0
  30
0
  3
*Paper_Space
  1

  0
ENDBLK
  5
35
  330
31
  100
AcDbEntity
  8
0
  100
AcDbBlockEnd
  0
BLOCK
  5
c0
  330
c2
  100
AcDbEntity
  8
SK2
  100
AcDbBlockBegin
  2
*Dc1
  70
1
  10
0
  20
0
  30
0
  3
*Dc1
  1

  0
LINE
  5
c3
  330
c2
  100
AcDbEntity
  8
SK2
  100
AcDbLine
  10
0
  20
1.3
  30
0
  11
0
  21
19
  31
0
  0
LINE
  5
c4
  330
c2
  100
AcDbEntity
  8
SK2
  100
AcDbLine
  10
65
  20
-14
  30
0
  11
65
  21
19
  31
0
  0
LINE
  5
c5
  330
c2
  100
AcDbEntity
  8
SK2
  100
AcDbLine
  10
0
  20
17
  30
0
  11
65
  21
17
  31
0
  0
SOLID
  5
c6
  330
c2
  100
AcDbEntity
  8
SK2
  100
AcDbTrace
  10
0
  20
17
  30
0
  11
2.478612
  21
17.326315
  31
0
  12
2.478612
  22
16.673685
  32
0
  13
2.478612
  23
16.673685
  33
0
  0
SOLID
  5
c7
  330
c2
  100
AcDbEntity
  8
SK2
  100
AcDbTrace
  10
65
  20
17
  30
0
  11
62.521388
  21
16.673685
  31
0
  12
62.521388
  22
17.326315
  32
0
  13
62.521388
  23
17.326315
  33
0
  0
MTEXT
  5
c8
  330
c2
  100
AcDbEntity
  8
SK2
  100
AcDbMText
  10
32.5
  20
17
  30
0
  11
1
  21
0
  31
0
  40
2
  41
0
  71
8
  72
1
  1
65
  0
POINT
  5
c9
  330
c2
  100
AcDbEntity
  8
SK2
  62
0
  100
AcDbPoint
  10
0
  20
1.3
  30
0
  0
POINT
  5
ca
  330
c2
  100
AcDbEntity
  8
SK2
  62
0
  100
AcDbPoint
  10
65
  20
-14
  30
0
  0
POINT
  5
cb
  330
c2
  100
AcDbEntity
  8
SK2
  62
0
  100
AcDbPoint
  10
65
  20
17
  30
0
  0
ENDBLK
  5
cc
  330
c2
  100
AcDbEntity
  8
SK2
  100
AcDbBlockEnd
  0
BLOCK
  5
ce
  330
d0
  100
AcDbEntity
  8
SK2
  100
AcDbBlockBegin
  2
*Dcf
  70
1
  10
0
  20
0
  30
0
  3
*Dcf
  1

  0
LINE
  5
d1
  330
d0
  100
AcDbEntity
  8
SK2
  100
AcDbLine
  10
35.6
  20
2
  30
0
  11
35.6
  21
14
  31
0
  0
LINE
  5
d2
  330
d0
  100
AcDbEntity
  8
SK2
  100
AcDbLine
  10
0
  20
1.3
  30
0
  11
0
  21
19
  31
0
  0
LINE
  5
d3
  330
d0
  100
AcDbEntity
  8
SK2
  100
AcDbLine
  10
35.6
  20
12
  30
0
  11
0
  21
12
  31
0
  0
SOLID
  5
d4
  330
d0
  100
AcDbEntity
  8
SK2
  100
AcDbTrace
  10
35.6
  20
12
  30
0
  11
38.078612
  21
12.326315
  31
0
  12
38.078612
  22
11.673685
  32
0
  13
38.078612
  23
11.673685
  33
0
  0
SOLID
  5
d5
  330
d0
  100
AcDbEntity
  8
SK2
  100
AcDbTrace
  10
0
  20
12
  30
0
  11
-2.478612
  21
11.673685
  31
0
  12
-2.478612
  22
12.326315
  32
0
  13
-2.478612
  23
12.326315
  33
0
  0
MTEXT
  5
d6
  330
d0
  100
AcDbEntity
  8
SK2
  100
AcDbMText
  10
17.8
  20
12
  30
0
  11
1
  21
-0
  31
0
  40
2
  41
0
  71
8
  72
1
  1
35.6
  0
POINT
  5
d7
  330
d0
  100
AcDbEntity
  8
SK2
  62
0
  100
AcDbPoint
  10
35.6
  20
2
  30
0
  0
POINT
  5
d8
  330
d0
  100
AcDbEntity
  8
SK2
  62
0
  100
AcDbPoint
  10
0
  20
1.3
  30
0
  0
POINT
  5
d9
  330
d0
  100
AcDbEntity
  8
SK2
  62
0
  100
AcDbPoint
  10
0
  20
12
  30
0
  0
ENDBLK
  5
da
  330
d0
  100
AcDbEntity
  8
SK2
  100
AcDbBlockEnd
  0
BLOCK
  5
dc
  330
de
  100
AcDbEntity
  8
SK2
  100
AcDbBlockBegin
  2
*Ddd
  70
1
  10
0
  20
0
  30
0
  3
*Ddd
  1

  0
LINE
  5
df
  330
de
  100
AcDbEntity
  8
SK2
  100
AcDbLine
  10
0.7
  20
-2
  30
0
  11
-12
  21
-2
  31
0
  0
LINE
  5
e0
  330
de
  100
AcDbEntity
  8
SK2
  100
AcDbLine
  10
0.7
  20
2
  30
0
  11
-12
  21
2
  31
0
  0
LINE
  5
e1
  330
de
  100
AcDbEntity
  8
SK2
  100
AcDbLine
  10
-10
  20
-4.158416
  30
0
  11
-10
  21
2
  31
0
  0
SOLID
  5
e2
  330
de
  100
AcDbEntity
  8
SK2
  100
AcDbTrace
  10
-10
  20
-2
  30
0
  11
-10.326315
  21
0.478612
  31
0
  12
-9.673685
  22
0.478612
  32
0
  13
-9.673685
  23
0.478612
  33
0
  0
SOLID
  5
e3
  330
de
  100
AcDbEntity
  8
SK2
  100
AcDbTrace
  10
-10
  20
2
  30
0
  11
-9.673685
  21
-0.478612
  31
0
  12
-10.326315
  22
-0.478612
  32
0
  13
-10.326315
  23
-0.478612
  33
0
  0
MTEXT
  5
e4
  330
de
  100
AcDbEntity
  8
SK2
  100
AcDbMText
  10
-10
  20
0
  30
0
  11
0
  21
1
  31
0
  40
2
  41
0
  71
8
  72
1
  1
ﾘ4
  0
POINT
  5
e5
  330
de
  100
AcDbEntity
  8
SK2
  62
0
  100
AcDbPoint
  10
0.7
  20
-2
  30
0
  0
POINT
  5
e6
  330
de
  100
AcDbEntity
  8
SK2
  62
0
  100
AcDbPoint
  10
0.7
  20
2
  30
0
  0
POINT
  5
e7
  330
de
  100
AcDbEntity
  8
SK2
  62
0
  100
AcDbPoint
  10
-10
  20
2
  30
0
  0
ENDBLK
  5
e8
  330
de
  100
AcDbEntity
  8
SK2
  100
AcDbBlockEnd
  0
BLOCK
  5
ea
  330
ec
  100
AcDbEntity
  8
2
  100
AcDbBlockBegin
  2
*Deb
  70
1
  10
0
  20
0
  30
0
  3
*Deb
  1

  0
LINE
  5
ed
  330
ec
  100
AcDbEntity
  8
2
  100
AcDbLine
  10
64
  20
-1
  30
0
  11
77
  21
-1
  31
0
  0
LINE
  5
ee
  330
ec
  100
AcDbEntity
  8
2
  100
AcDbLine
  10
64
  20
1
  30
0
  11
77
  21
1
  31
0
  0
LINE
  5
ef
  330
ec
  100
AcDbEntity
  8
2
  100
AcDbLine
  10
75
  20
-4.158416
  30
0
  11
75
  21
1
  31
0
  0
SOLID
  5
f0
  330
ec
  100
AcDbEntity
  8
2
  100
AcDbTrace
  10
75
  20
-1
  30
0
  11
74.673685
  21
1.478612
  31
0
  12
75.326315
  22
1.478612
  32
0
  13
75.326315
  23
1.478612
  33
0
  0
SOLID
  5
f1
  330
ec
  100
AcDbEntity
  8
2
  100
AcDbTrace
  10
75
  20
1
  30
0
  11
75.326315
  21
-1.478612
  31
0
  12
74.673685
  22
-1.478612
  32
0
  13
74.673685
  23
-1.478612
  33
0
  0
MTEXT
  5
f2
  330
ec
  100
AcDbEntity
  8
2
  100
AcDbMText
  10
75
  20
0
  30
0
  11
0
  21
1
  31
0
  40
2
  41
0
  71
8
  72
1
  1
ﾘ2
  0
POINT
  5
f3
  330
ec
  100
AcDbEntity
  8
2
  62
0
  100
AcDbPoint
  10
64
  20
-1
  30
0
  0
POINT
  5
f4
  330
ec
  100
AcDbEntity
  8
2
  62
0
  100
AcDbPoint
  10
64
  20
1
  30
0
  0
POINT
  5
f5
  330
ec
  100
AcDbEntity
  8
2
  62
0
  100
AcDbPoint
  10
75
  20
1
  30
0
  0
ENDBLK
  5
f6
  330
ec
  100
AcDbEntity
  8
2
  100
AcDbBlockEnd
  0
BLOCK
  5
f8
  330
fa
  100
AcDbEntity
  8
2
  100
AcDbBlockBegin
  2
*Df9
  70
1
  10
0
  20
0
  30
0
  3
*Df9
  1

  0
LINE
  5
fb
  330
fa
  100
AcDbEntity
  8
2
  100
AcDbLine
  10
62.993193
  20
-1.006807
  30
0
  11
71.778175
  21
7.778175
  31
0
  0
MTEXT
  5
fc
  330
fa
  100
AcDbEntity
  8
2
  100
AcDbMText
  10
64.707107
  20
0.707107
  30
0
  11
0.707107
  21
0.707107
  31
0
  40
2
  41
0
  71
8
  72
1
  1
R1
  0
SOLID
  5
fd
  330
fa
  100
AcDbEntity
  8
2
  100
AcDbTrace
  10
64.707107
  20
0.707107
  30
0
  11
66.22901
  21
2.69049
  31
0
  12
66.69049
  22
2.22901
  32
0
  13
66.69049
  23
2.22901
  33
0
  0
POINT
  5
fe
  330
fa
  100
AcDbEntity
  8
2
  62
0
  100
AcDbPoint
  10
62.993193
  20
-1.006807
  30
0
  0
POINT
  5
ff
  330
fa
  100
AcDbEntity
  8
2
  62
0
  100
AcDbPoint
  10
64
  20
0
  30
0
  0
ENDBLK
  5
100
  330
fa
  100
AcDbEntity
  8
2
  100
AcDbBlockEnd
  0
BLOCK
  5
102
  330
104
  100
AcDbEntity
  8
2
  100
AcDbBlockBegin
  2
*D103
  70
1
  10
0
  20
0
  30
0
  3
*D103
  1

  0
LINE
  5
105
  330
104
  100
AcDbEntity
  8
2
  100
AcDbLine
  10
63.4
  20
-0.975
  30
0
  11
61.4
  21
-0.975
  31
0
  0
LINE
  5
106
  330
104
  100
AcDbEntity
  8
2
  100
AcDbLine
  10
63.4
  20
0.975
  30
0
  11
61.4
  21
0.975
  31
0
  0
LINE
  5
107
  330
104
  100
AcDbEntity
  8
2
  100
AcDbLine
  10
63.4
  20
-0.975
  30
0
  11
63.4
  21
9.356436
  31
0
  0
SOLID
  5
108
  330
104
  100
AcDbEntity
  8
2
  100
AcDbTrace
  10
63.4
  20
-0.975
  30
0
  11
63.073685
  21
1.503612
  31
0
  12
63.726315
  22
1.503612
  32
0
  13
63.726315
  23
1.503612
  33
0
  0
SOLID
  5
109
  330
104
  100
AcDbEntity
  8
2
  100
AcDbTrace
  10
63.4
  20
0.975
  30
0
  11
63.726315
  21
-1.503612
  31
0
  12
63.073685
  22
-1.503612
  32
0
  13
63.073685
  23
-1.503612
  33
0
  0
MTEXT
  5
10a
  330
104
  100
AcDbEntity
  8
2
  100
AcDbMText
  10
63.4
  20
0.975
  30
0
  11
0
  21
1
  31
0
  40
2
  41
0
  71
8
  72
1
  1
ﾘ1.95
  0
POINT
  5
10b
  330
104
  100
AcDbEntity
  8
2
  62
0
  100
AcDbPoint
  10
61.4
  20
-0.975
  30
0
  0
POINT
  5
10c
  330
104
  100
AcDbEntity
  8
2
  62
0
  100
AcDbPoint
  10
61.4
  20
0.975
  30
0
  0
POINT
  5
10d
  330
104
  100
AcDbEntity
  8
2
  62
0
  100
AcDbPoint
  10
63.4
  20
9.356436
  30
0
  0
ENDBLK
  5
10e
  330
104
  100
AcDbEntity
  8
2
  100
AcDbBlockEnd
  0
BLOCK
  5
110
  330
112
  100
AcDbEntity
  8
2
  100
AcDbBlockBegin
  2
*D111
  70
1
  10
0
  20
0
  30
0
  3
*D111
  1

  0
LINE
  5
113
  330
112
  100
AcDbEntity
  8
2
  100
AcDbLine
  10
63.4
  20
0.975
  30
0
  11
63.4
  21
9
  31
0
  0
LINE
  5
114
  330
112
  100
AcDbEntity
  8
2
  100
AcDbLine
  10
40.25
  20
0.975
  30
0
  11
40.25
  21
9
  31
0
  0
LINE
  5
115
  330
112
  100
AcDbEntity
  8
2
  100
AcDbLine
  10
66.144802
  20
7
  30
0
  11
40.25
  21
7
  31
0
  0
SOLID
  5
116
  330
112
  100
AcDbEntity
  8
2
  100
AcDbTrace
  10
63.4
  20
7
  30
0
  11
65.878612
  21
7.326315
  31
0
  12
65.878612
  22
6.673685
  32
0
  13
65.878612
  23
6.673685
  33
0
  0
SOLID
  5
117
  330
112
  100
AcDbEntity
  8
2
  100
AcDbTrace
  10
40.25
  20
7
  30
0
  11
37.771388
  21
6.673685
  31
0
  12
37.771388
  22
7.326315
  32
0
  13
37.771388
  23
7.326315
  33
0
  0
MTEXT
  5
118
  330
112
  100
AcDbEntity
  8
2
  100
AcDbMText
  10
62.184884
  20
7
  30
0
  11
1
  21
-0
  31
0
  40
2
  41
0
  71
8
  72
1
  1
23.15
  0
POINT
  5
119
  330
112
  100
AcDbEntity
  8
2
  62
0
  100
AcDbPoint
  10
63.4
  20
0.975
  30
0
  0
POINT
  5
11a
  330
112
  100
AcDbEntity
  8
2
  62
0
  100
AcDbPoint
  10
40.25
  20
0.975
  30
0
  0
POINT
  5
11b
  330
112
  100
AcDbEntity
  8
2
  62
0
  100
AcDbPoint
  10
40.25
  20
7
  30
0
  0
ENDBLK
  5
11c
  330
112
  100
AcDbEntity
  8
2
  100
AcDbBlockEnd
  0
BLOCK
  5
11e
  330
120
  100
AcDbEntity
  8
2
  100
AcDbBlockBegin
  2
*D11f
  70
1
  10
0
  20
0
  30
0
  3
*D11f
  1

  0
LINE
  5
121
  330
120
  100
AcDbEntity
  8
2
  100
AcDbLine
  10
65
  20
-14
  30
0
  11
65
  21
19
  31
0
  0
LINE
  5
122
  330
120
  100
AcDbEntity
  8
2
  100
AcDbLine
  10
35.6
  20
2
  30
0
  11
35.6
  21
9
  31
0
  0
LINE
  5
123
  330
120
  100
AcDbEntity
  8
2
  100
AcDbLine
  10
65
  20
7
  30
0
  11
35.6
  21
7
  31
0
  0
SOLID
  5
124
  330
120
  100
AcDbEntity
  8
2
  100
AcDbTrace
  10
65
  20
7
  30
0
  11
67.478612
  21
7.326315
  31
0
  12
67.478612
  22
6.673685
  32
0
  13
67.478612
  23
6.673685
  33
0
  0
SOLID
  5
125
  330
120
  100
AcDbEntity
  8
2
  100
AcDbTrace
  10
35.6
  20
7
  30
0
  11
33.121388
  21
6.673685
  31
0
  12
33.121388
  22
7.326315
  32
0
  13
33.121388
  23
7.326315
  33
0
  0
MTEXT
  5
126
  330
120
  100
AcDbEntity
  8
2
  100
AcDbMText
  10
50.3
  20
7
  30
0
  11
1
  21
-0
  31
0
  40
2
  41
0
  71
8
  72
1
  1
29.4
  0
POINT
  5
127
  330
120
  100
AcDbEntity
  8
2
  62
0
  100
AcDbPoint
  10
65
  20
-14
  30
0
  0
POINT
  5
128
  330
120
  100
AcDbEntity
  8
2
  62
0
  100
AcDbPoint
  10
35.6
  20
2
  30
0
  0
POINT
  5
129
  330
120
  100
AcDbEntity
  8
2
  62
0
  100
AcDbPoint
  10
35.6
  20
7
  30
0
  0
ENDBLK
  5
12a
  330
120
  100
AcDbEntity
  8
2
  100
AcDbBlockEnd
  0
BLOCK
  5
12c
  330
12e
  100
AcDbEntity
  8
2
  100
AcDbBlockBegin
  2
*D12d
  70
1
  10
0
  20
0
  30
0
  3
*D12d
  1

  0
LINE
  5
12f
  330
12e
  100
AcDbEntity
  8
2
  100
AcDbLine
  10
63.4
  20
-0.975
  30
0
  11
63.4
  21
-14
  31
0
  0
LINE
  5
130
  330
12e
  100
AcDbEntity
  8
2
  100
AcDbLine
  10
65
  20
-14
  30
0
  11
65
  21
19
  31
0
  0
LINE
  5
131
  330
12e
  100
AcDbEntity
  8
2
  100
AcDbLine
  10
59.647277
  20
-12
  30
0
  11
65
  21
-12
  31
0
  0
SOLID
  5
132
  330
12e
  100
AcDbEntity
  8
2
  100
AcDbTrace
  10
63.4
  20
-12
  30
0
  11
65.878612
  21
-11.673685
  31
0
  12
65.878612
  22
-12.326315
  32
0
  13
65.878612
  23
-12.326315
  33
0
  0
SOLID
  5
133
  330
12e
  100
AcDbEntity
  8
2
  100
AcDbTrace
  10
65
  20
-12
  30
0
  11
62.521388
  21
-12.326315
  31
0
  12
62.521388
  22
-11.673685
  32
0
  13
62.521388
  23
-11.673685
  33
0
  0
MTEXT
  5
134
  330
12e
  100
AcDbEntity
  8
2
  100
AcDbMText
  10
64.2
  20
-12
  30
0
  11
1
  21
0
  31
0
  40
2
  41
0
  71
8
  72
1
  1
1.6
  0
POINT
  5
135
  330
12e
  100
AcDbEntity
  8
2
  62
0
  100
AcDbPoint
  10
63.4
  20
-0.975
  30
0
  0
POINT
  5
136
  330
12e
  100
AcDbEntity
  8
2
  62
0
  100
AcDbPoint
  10
65
  20
19
  30
0
  0
POINT
  5
137
  330
12e
  100
AcDbEntity
  8
2
  62
0
  100
AcDbPoint
  10
65
  20
-12
  30
0
  0
ENDBLK
  5
138
  330
12e
  100
AcDbEntity
  8
2
  100
AcDbBlockEnd
  0
ENDSEC
  0
SECTION
  2
ENTITIES
  0
DIMENSION
  5
cd
  100
AcDbEntity
  8
SK2
  100
AcDbDimension
  2
*Dc1
  10
65
  20
17
  30
0
  11
32.5
  21
17
  31
0
  70
160
  1
<>
  71
5
  3
STANDARD
  42
65
  100
AcDbAlignedDimension
  13
0
  23
1.3
  33
0
  14
65
  24
-14
  34
0
  50
0
  100
AcDbRotatedDimension
  0
DIMENSION
  5
db
  100
AcDbEntity
  8
SK2
  100
AcDbDimension
  2
*Dcf
  10
0
  20
12
  30
0
  11
17.8
  21
12
  31
0
  70
160
  1
<>
  71
5
  3
STANDARD
  42
35.6
  100
AcDbAlignedDimension
  13
35.6
  23
2
  33
0
  14
0
  24
1.3
  34
0
  50
0
  100
AcDbRotatedDimension
  0
DIMENSION
  5
e9
  100
AcDbEntity
  8
SK2
  100
AcDbDimension
  2
*Ddd
  10
-10
  20
2
  30
0
  11
-10
  21
0
  31
0
  70
160
  1
%%c<>
  71
5
  3
STANDARD
  42
4
  100
AcDbAlignedDimension
  13
0.7
  23
-2
  33
0
  14
0.7
  24
2
  34
0
  50
-90
  100
AcDbRotatedDimension
  0
DIMENSION
  5
f7
  100
AcDbEntity
  8
2
  100
AcDbDimension
  2
*Deb
  10
75
  20
1
  30
0
  11
75
  21
0
  31
0
  70
160
  1
%%c<>
  71
5
  3
STANDARD
  42
2
  100
AcDbAlignedDimension
  13
64
  23
-1
  33
0
  14
64
  24
1
  34
0
  50
-90
  100
AcDbRotatedDimension
  0
DIMENSION
  5
101
  100
AcDbEntity
  8
2
  100
AcDbDimension
  2
*Df9
  10
64
  20
0
  30
0
  11
64.707107
  21
0.707107
  31
0
  70
164
  1
R1
  71
5
  3
STANDARD
  100
AcDbRadialDimension
  15
64.707107
  25
0.707107
  35
0
  50
45
  0
DIMENSION
  5
10f
  100
AcDbEntity
  8
2
  100
AcDbDimension
  2
*D103
  10
63.4
  20
9.356436
  30
0
  11
63.4
  21
0.975
  31
0
  70
160
  1
%%c<>
  71
5
  3
STANDARD
  42
1.95
  100
AcDbAlignedDimension
  13
61.4
  23
-0.975
  33
0
  14
61.4
  24
0.975
  34
0
  50
-90
  100
AcDbRotatedDimension
  0
DIMENSION
  5
11d
  100
AcDbEntity
  8
2
  100
AcDbDimension
  2
*D111
  10
40.25
  20
7
  30
0
  11
62.184884
  21
7
  31
0
  70
160
  1
<>
  71
5
  3
STANDARD
  42
23.15
  100
AcDbAlignedDimension
  13
63.4
  23
0.975
  33
0
  14
40.25
  24
0.975
  34
0
  50
0
  100
AcDbRotatedDimension
  0
DIMENSION
  5
12b
  100
AcDbEntity
  8
2
  100
AcDbDimension
  2
*D11f
  10
35.6
  20
7
  30
0
  11
50.3
  21
7
  31
0
  70
160
  1
<>
  71
5
  3
STANDARD
  42
29.4
  100
AcDbAlignedDimension
  13
65
  23
-14
  33
0
  14
35.6
  24
2
  34
0
  50
0
  100
AcDbRotatedDimension
  0
DIMENSION
  5
139
  100
AcDbEntity
  8
2
  100
AcDbDimension
  2
*D12d
  10
65
  20
-12
  30
0
  11
64.2
  21
-12
  31
0
  70
160
  1
<>
  71
5
  3
STANDARD
  42
1.6
  100
AcDbAlignedDimension
  13
63.4
  23
-0.975
  33
0
  14
65
  24
19
  34
0
  50
0
  100
AcDbRotatedDimension
  0
ARC
  5
36
  100
AcDbEntity
  8
1
  100
AcDbCircle
  10
40.337156
  20
-1.971195
  30
0
  40
1
  100
AcDbArc
  50
95
  51
105
  0
LINE
  5
37
  100
AcDbEntity
  8
1
  100
AcDbLine
  10
40.25
  20
-0.975
  30
0
  11
63.4
  21
-0.975
  31
0
  0
LINE
  5
38
  100
AcDbEntity
  8
1
  100
AcDbLine
  10
63.4
  20
-0.975
  30
0
  11
63.4
  21
-1
  31
0
  0
LINE
  5
39
  100
AcDbEntity
  8
1
  100
AcDbLine
  10
63.4
  20
-1
  30
0
  11
64
  21
-1
  31
0
  0
ARC
  5
3a
  100
AcDbEntity
  8
1
  100
AcDbCircle
  10
64
  20
0
  30
0
  40
1
  100
AcDbArc
  50
270
  51
0
  0
ARC
  5
3b
  100
AcDbEntity
  8
1
  100
AcDbCircle
  10
64
  20
0
  30
0
  40
1
  100
AcDbArc
  50
0
  51
90
  0
LINE
  5
3c
  100
AcDbEntity
  8
1
  100
AcDbLine
  10
64
  20
1
  30
0
  11
63.4
  21
1
  31
0
  0
LINE
  5
3d
  100
AcDbEntity
  8
1
  100
AcDbLine
  10
63.4
  20
1
  30
0
  11
63.4
  21
0.975
  31
0
  0
LINE
  5
3e
  100
AcDbEntity
  8
1
  100
AcDbLine
  10
63.4
  20
0.975
  30
0
  11
40.25
  21
0.975
  31
0
  0
ARC
  5
3f
  100
AcDbEntity
  8
1
  100
AcDbCircle
  10
40.337156
  20
1.971195
  30
0
  40
1
  100
AcDbArc
  50
255
  51
265
  0
LINE
  5
40
  100
AcDbEntity
  8
1
  100
AcDbLine
  10
40.078337
  20
1.005269
  30
0
  11
36.36595
  21
2
  31
0
  0
LINE
  5
41
  100
AcDbEntity
  8
1
  100
AcDbLine
  10
36.36595
  20
2
  30
0
  11
35.6
  21
2
  31
0
  0
LINE
  5
42
  100
AcDbEntity
  8
1
  100
AcDbLine
  10
35.6
  20
2
  30
0
  11
35.6
  21
-2
  31
0
  0
LINE
  5
43
  100
AcDbEntity
  8
1
  100
AcDbLine
  10
35.6
  20
-2
  30
0
  11
36.36595
  21
-2
  31
0
  0
LINE
  5
44
  100
AcDbEntity
  8
1
  100
AcDbLine
  10
36.36595
  20
-2
  30
0
  11
40.078337
  21
-1.005269
  31
0
  0
LINE
  5
45
  100
AcDbEntity
  8
1
  100
AcDbLine
  10
35.6
  20
-2
  30
0
  11
35.6
  21
2
  31
0
  0
LINE
  5
46
  100
AcDbEntity
  8
1
  100
AcDbLine
  10
35.6
  20
2
  30
0
  11
35.6
  21
-2
  31
0
  0
LINE
  5
47
  100
AcDbEntity
  8
1
  100
AcDbLine
  10
36.36595
  20
-2
  30
0
  11
36.36595
  21
2
  31
0
  0
LINE
  5
48
  100
AcDbEntity
  8
1
  100
AcDbLine
  10
40.078337
  20
1.005269
  30
0
  11
40.078337
  21
-1.005269
  31
0
  0
LINE
  5
49
  100
AcDbEntity
  8
1
  100
AcDbLine
  10
40.25
  20
-0.975
  30
0
  11
40.25
  21
0.975
  31
0
  0
LINE
  5
4a
  100
AcDbEntity
  8
1
  100
AcDbLine
  10
64
  20
1
  30
0
  11
64
  21
-1
  31
0
  0
LINE
  5
4b
  100
AcDbEntity
  8
1
  100
AcDbLine
  10
63.5
  20
-0.561591
  30
0
  11
63.6
  21
-0.607529
  31
0
  0
LINE
  5
4c
  100
AcDbEntity
  8
1
  100
AcDbLine
  10
63.6
  20
-0.607529
  30
0
  11
63.7
  21
-0.651443
  31
0
  0
LINE
  5
4d
  100
AcDbEntity
  8
1
  100
AcDbLine
  10
63.7
  20
-0.651443
  30
0
  11
63.8
  21
-0.693186
  31
0
  0
LINE
  5
4e
  100
AcDbEntity
  8
1
  100
AcDbLine
  10
63.8
  20
-0.693186
  30
0
  11
63.9
  21
-0.732619
  31
0
  0
LINE
  5
4f
  100
AcDbEntity
  8
1
  100
AcDbLine
  10
63.9
  20
-0.732619
  30
0
  11
64
  21
-0.76961
  31
0
  0
LINE
  5
50
  100
AcDbEntity
  8
1
  100
AcDbLine
  10
64
  20
-0.76961
  30
0
  11
64.1
  21
-0.799282
  31
0
  0
LINE
  5
51
  100
AcDbEntity
  8
1
  100
AcDbLine
  10
64.1
  20
-0.799282
  30
0
  11
64.2
  21
-0.816196
  31
0
  0
LINE
  5
52
  100
AcDbEntity
  8
1
  100
AcDbLine
  10
64.2
  20
-0.816196
  30
0
  11
64.3
  21
-0.819263
  31
0
  0
LINE
  5
53
  100
AcDbEntity
  8
1
  100
AcDbLine
  10
64.3
  20
-0.819263
  30
0
  11
64.4
  21
-0.807137
  31
0
  0
LINE
  5
54
  100
AcDbEntity
  8
1
  100
AcDbLine
  10
64.4
  20
-0.807137
  30
0
  11
64.5
  21
-0.778006
  31
0
  0
LINE
  5
55
  100
AcDbEntity
  8
1
  100
AcDbLine
  10
64.5
  20
-0.778006
  30
0
  11
64.6
  21
-0.729171
  31
0
  0
LINE
  5
56
  100
AcDbEntity
  8
1
  100
AcDbLine
  10
64.6
  20
-0.729171
  30
0
  11
64.7
  21
-0.65605
  31
0
  0
LINE
  5
57
  100
AcDbEntity
  8
1
  100
AcDbLine
  10
64.7
  20
-0.65605
  30
0
  11
64.8
  21
-0.560099
  31
0
  0
LINE
  5
58
  100
AcDbEntity
  8
1
  100
AcDbLine
  10
64.8
  20
-0.592634
  30
0
  11
64.8
  21
-0.6
  31
0
  0
LINE
  5
59
  100
AcDbEntity
  8
1
  100
AcDbLine
  10
64.8
  20
-0.6
  30
0
  11
64.8
  21
-0.592634
  31
0
  0
LINE
  5
5a
  100
AcDbEntity
  8
1
  100
AcDbLine
  10
64.8
  20
-0.592634
  30
0
  11
64.7
  21
-0.695383
  31
0
  0
LINE
  5
5b
  100
AcDbEntity
  8
1
  100
AcDbLine
  10
64.7
  20
-0.695383
  30
0
  11
64.6
  21
-0.771828
  31
0
  0
LINE
  5
5c
  100
AcDbEntity
  8
1
  100
AcDbLine
  10
64.6
  20
-0.771828
  30
0
  11
64.5
  21
-0.824626
  31
0
  0
LINE
  5
5d
  100
AcDbEntity
  8
1
  100
AcDbLine
  10
64.5
  20
-0.824626
  30
0
  11
64.4
  21
-0.858014
  31
0
  0
LINE
  5
5e
  100
AcDbEntity
  8
1
  100
AcDbLine
  10
64.4
  20
-0.858014
  30
0
  11
64.3
  21
-0.874522
  31
0
  0
LINE
  5
5f
  100
AcDbEntity
  8
1
  100
AcDbLine
  10
64.3
  20
-0.874522
  30
0
  11
64.2
  21
-0.87586
  31
0
  0
LINE
  5
60
  100
AcDbEntity
  8
1
  100
AcDbLine
  10
64.2
  20
-0.87586
  30
0
  11
64.1
  21
-0.863309
  31
0
  0
LINE
  5
61
  100
AcDbEntity
  8
1
  100
AcDbLine
  10
64.1
  20
-0.863309
  30
0
  11
64
  21
-0.837912
  31
0
  0
LINE
  5
62
  100
AcDbEntity
  8
1
  100
AcDbLine
  10
64
  20
-0.837912
  30
0
  11
63.9
  21
-0.805021
  31
0
  0
LINE
  5
63
  100
AcDbEntity
  8
1
  100
AcDbLine
  10
63.9
  20
-0.805021
  30
0
  11
63.8
  21
-0.769448
  31
0
  0
LINE
  5
64
  100
AcDbEntity
  8
1
  100
AcDbLine
  10
63.8
  20
-0.769448
  30
0
  11
63.7
  21
-0.73131
  31
0
  0
LINE
  5
65
  100
AcDbEntity
  8
1
  100
AcDbLine
  10
63.7
  20
-0.73131
  30
0
  11
63.6
  21
-0.690736
  31
0
  0
LINE
  5
66
  100
AcDbEntity
  8
1
  100
AcDbLine
  10
63.6
  20
-0.690736
  30
0
  11
63.5
  21
-0.647859
  31
0
  0
LINE
  5
67
  100
AcDbEntity
  8
1
  100
AcDbLine
  10
63.5
  20
-0.647859
  30
0
  11
63.4
  21
-0.602824
  31
0
  0
LINE
  5
68
  100
AcDbEntity
  8
1
  100
AcDbLine
  10
63.4
  20
-0.602824
  30
0
  11
63.4
  21
-0.584946
  31
0
  0
LINE
  5
69
  100
AcDbEntity
  8
1
  100
AcDbLine
  10
63.4
  20
-0.584946
  30
0
  11
63.3
  21
-0.539176
  31
0
  0
LINE
  5
6a
  100
AcDbEntity
  8
1
  100
AcDbLine
  10
63.3
  20
-0.539176
  30
0
  11
63.205257
  21
-0.975
  31
0
  0
LINE
  5
6b
  100
AcDbEntity
  8
1
  100
AcDbLine
  10
63.4
  20
-0.975
  30
0
  11
63.4
  21
0.975
  31
0
  0
LINE
  5
6c
  100
AcDbEntity
  8
1
  100
AcDbLine
  10
63.4
  20
1
  30
0
  11
63.4
  21
-1
  31
0
  0
LINE
  5
6d
  100
AcDbEntity
  8
1
  100
AcDbLine
  10
63.205257
  20
0.975
  30
0
  11
63.2
  21
0.973957
  31
0
  0
LINE
  5
6e
  100
AcDbEntity
  8
1
  100
AcDbLine
  10
63.2
  20
0.973957
  30
0
  11
63.2
  21
0.97098
  31
0
  0
LINE
  5
6f
  100
AcDbEntity
  8
1
  100
AcDbLine
  10
63.2
  20
0.97098
  30
0
  11
63.3
  21
-0.193343
  31
0
  0
LINE
  5
70
  100
AcDbEntity
  8
1
  100
AcDbLine
  10
63.3
  20
-0.193343
  30
0
  11
63.4
  21
-0.272352
  31
0
  0
LINE
  5
71
  100
AcDbEntity
  8
1
  100
AcDbLine
  10
63.4
  20
-0.272352
  30
0
  11
63.4
  21
-0.29358
  31
0
  0
LINE
  5
72
  100
AcDbEntity
  8
1
  100
AcDbLine
  10
63.4
  20
-0.29358
  30
0
  11
63.5
  21
-0.348251
  31
0
  0
LINE
  5
73
  100
AcDbEntity
  8
1
  100
AcDbLine
  10
63.5
  20
-0.348251
  30
0
  11
63.6
  21
-0.401762
  31
0
  0
LINE
  5
74
  100
AcDbEntity
  8
1
  100
AcDbLine
  10
63.6
  20
-0.401762
  30
0
  11
63.7
  21
-0.453934
  31
0
  0
LINE
  5
75
  100
AcDbEntity
  8
1
  100
AcDbLine
  10
63.7
  20
-0.453934
  30
0
  11
63.8
  21
-0.504593
  31
0
  0
LINE
  5
76
  100
AcDbEntity
  8
1
  100
AcDbLine
  10
63.8
  20
-0.504593
  30
0
  11
63.9
  21
-0.55357
  31
0
  0
LINE
  5
77
  100
AcDbEntity
  8
1
  100
AcDbLine
  10
63.9
  20
-0.55357
  30
0
  11
64
  21
-0.600703
  31
0
  0
LINE
  5
78
  100
AcDbEntity
  8
1
  100
AcDbLine
  10
64
  20
-0.600703
  30
0
  11
64.1
  21
-0.640383
  31
0
  0
LINE
  5
79
  100
AcDbEntity
  8
1
  100
AcDbLine
  10
64.1
  20
-0.640383
  30
0
  11
64.2
  21
-0.666362
  31
0
  0
LINE
  5
7a
  100
AcDbEntity
  8
1
  100
AcDbLine
  10
64.2
  20
-0.666362
  30
0
  11
64.3
  21
-0.677282
  31
0
  0
LINE
  5
7b
  100
AcDbEntity
  8
1
  100
AcDbLine
  10
64.3
  20
-0.677282
  30
0
  11
64.4
  21
-0.671281
  31
0
  0
LINE
  5
7c
  100
AcDbEntity
  8
1
  100
AcDbLine
  10
64.4
  20
-0.671281
  30
0
  11
64.5
  21
-0.645558
  31
0
  0
LINE
  5
7d
  100
AcDbEntity
  8
1
  100
AcDbLine
  10
64.5
  20
-0.645558
  30
0
  11
64.6
  21
-0.595318
  31
0
  0
LINE
  5
7e
  100
AcDbEntity
  8
1
  100
AcDbLine
  10
64.6
  20
-0.595318
  30
0
  11
64.7
  21
-0.510565
  31
0
  0
LINE
  5
7f
  100
AcDbEntity
  8
1
  100
AcDbLine
  10
64.7
  20
-0.510565
  30
0
  11
64.8
  21
-0.360598
  31
0
  0
LINE
  5
80
  100
AcDbEntity
  8
1
  100
AcDbLine
  10
64.8
  20
-0.360598
  30
0
  11
64.8
  21
0.6
  31
0
  0
LINE
  5
81
  100
AcDbEntity
  8
1
  100
AcDbLine
  10
64.8
  20
0.6
  30
0
  11
64.8
  21
-0.360598
  31
0
  0
LINE
  5
82
  100
AcDbEntity
  8
SK1
  100
AcDbLine
  10
35.6
  20
2
  30
0
  11
0.7
  21
2
  31
0
  0
LINE
  5
83
  100
AcDbEntity
  8
SK1
  100
AcDbLine
  10
0.7
  20
2
  30
0
  11
0
  21
1.3
  31
0
  0
LINE
  5
84
  100
AcDbEntity
  8
SK1
  100
AcDbLine
  10
35.6
  20
-2
  30
0
  11
0.7
  21
-2
  31
0
  0
LINE
  5
85
  100
AcDbEntity
  8
SK1
  100
AcDbLine
  10
0.7
  20
-2
  30
0
  11
0
  21
-1.3
  31
0
  0
LINE
  5
86
  100
AcDbEntity
  8
SK1
  100
AcDbLine
  10
0.7
  20
2
  30
0
  11
0.7
  21
-2
  31
0
  0
LINE
  5
87
  100
AcDbEntity
  8
SK1
  100
AcDbLine
  10
0
  20
1.3
  30
0
  11
0
  21
-1.3
  31
0
  0
LINE
  5
88
  100
AcDbEntity
  8
SK1
  100
AcDbLine
  10
36.6401
  20
1.40688
  30
0
  11
37.0069
  21
1.0401
  31
0
  0
LINE
  5
89
  100
AcDbEntity
  8
SK1
  100
AcDbLine
  10
36.1328
  20
1.66666
  30
0
  11
37.2667
  21
0.532833
  31
0
  0
LINE
  5
8a
  100
AcDbEntity
  8
SK1
  100
AcDbLine
  10
35.8154
  20
1.73657
  30
0
  11
37.3366
  21
0.215434
  31
0
  0
LINE
  5
8b
  100
AcDbEntity
  8
SK1
  100
AcDbLine
  10
35.6
  20
1.70452
  30
0
  11
37.3045
  21
0
  31
0
  0
LINE
  5
8c
  100
AcDbEntity
  8
SK1
  100
AcDbLine
  10
35.6
  20
1.45703
  30
0
  11
37.057
  21
0
  31
0
  0
LINE
  5
8d
  100
AcDbEntity
  8
SK1
  100
AcDbLine
  10
35.6
  20
1.20954
  30
0
  11
36.8095
  21
0
  31
0
  0
LINE
  5
8e
  100
AcDbEntity
  8
SK1
  100
AcDbLine
  10
35.6
  20
0.962054
  30
0
  11
36.5621
  21
0
  31
0
  0
LINE
  5
8f
  100
AcDbEntity
  8
SK1
  100
AcDbLine
  10
35.6
  20
0.714566
  30
0
  11
36.3146
  21
0
  31
0
  0
LINE
  5
90
  100
AcDbEntity
  8
SK1
  100
AcDbLine
  10
35.6
  20
0.467079
  30
0
  11
36.0671
  21
0
  31
0
  0
LINE
  5
91
  100
AcDbEntity
  8
SK1
  100
AcDbLine
  10
35.6
  20
0.219592
  30
0
  11
35.8196
  21
0
  31
0
  0
LINE
  5
92
  100
AcDbEntity
  8
SK1
  100
AcDbLine
  10
35.6
  20
1.70452
  30
0
  11
35.6441
  21
1.74861
  31
0
  0
LINE
  5
93
  100
AcDbEntity
  8
SK1
  100
AcDbLine
  10
35.6
  20
1.45703
  30
0
  11
35.871
  21
1.72802
  31
0
  0
LINE
  5
94
  100
AcDbEntity
  8
SK1
  100
AcDbLine
  10
35.6
  20
1.20954
  30
0
  11
36.0742
  21
1.6837
  31
0
  0
LINE
  5
95
  100
AcDbEntity
  8
SK1
  100
AcDbLine
  10
35.6
  20
0.962054
  30
0
  11
36.2588
  21
1.62082
  31
0
  0
LINE
  5
96
  100
AcDbEntity
  8
SK1
  100
AcDbLine
  10
35.6
  20
0.714566
  30
0
  11
36.4271
  21
1.54167
  31
0
  0
LINE
  5
97
  100
AcDbEntity
  8
SK1
  100
AcDbLine
  10
35.6
  20
0.467079
  30
0
  11
36.581
  21
1.44812
  31
0
  0
LINE
  5
98
  100
AcDbEntity
  8
SK1
  100
AcDbLine
  10
35.6
  20
0.219592
  30
0
  11
36.7226
  21
1.34216
  31
0
  0
LINE
  5
99
  100
AcDbEntity
  8
SK1
  100
AcDbLine
  10
35.6279
  20
0
  30
0
  11
36.8508
  21
1.22288
  31
0
  0
LINE
  5
9a
  100
AcDbEntity
  8
SK1
  100
AcDbLine
  10
35.8754
  20
0
  30
0
  11
36.967
  21
1.09157
  31
0
  0
LINE
  5
9b
  100
AcDbEntity
  8
SK1
  100
AcDbLine
  10
36.1229
  20
0
  30
0
  11
37.0707
  21
0.947822
  31
0
  0
LINE
  5
9c
  100
AcDbEntity
  8
SK1
  100
AcDbLine
  10
36.3704
  20
0
  30
0
  11
37.1605
  21
0.790145
  31
0
  0
LINE
  5
9d
  100
AcDbEntity
  8
SK1
  100
AcDbLine
  10
36.6178
  20
0
  30
0
  11
37.2364
  21
0.618517
  31
0
  0
LINE
  5
9e
  100
AcDbEntity
  8
SK1
  100
AcDbLine
  10
36.8653
  20
0
  30
0
  11
37.296
  21
0.430696
  31
0
  0
LINE
  5
9f
  100
AcDbEntity
  8
SK1
  100
AcDbLine
  10
37.1128
  20
0
  30
0
  11
37.3356
  21
0.222827
  31
0
  0
LINE
  5
a0
  100
AcDbEntity
  8
SK1
  100
AcDbLine
  10
35.6
  20
0
  30
0
  11
35.6
  21
1.75
  31
0
  0
LINE
  5
a1
  100
AcDbEntity
  8
SK1
  100
AcDbLine
  10
35.6
  20
0
  30
0
  11
37.35
  21
0
  31
0
  0
ARC
  5
a2
  100
AcDbEntity
  8
SK1
  100
AcDbCircle
  10
35.6
  20
0
  30
0
  40
1.75
  100
AcDbArc
  50
0
  51
90
  0
ARC
  5
a3
  100
AcDbEntity
  8
SK1
  100
AcDbCircle
  10
35.6
  20
0
  30
0
  40
1.75
  100
AcDbArc
  50
90
  51
180
  0
LINE
  5
a4
  100
AcDbEntity
  8
SK1
  100
AcDbLine
  10
35.5721
  20
0
  30
0
  11
35.6
  21
-0.027896
  31
0
  0
LINE
  5
a5
  100
AcDbEntity
  8
SK1
  100
AcDbLine
  10
35.3246
  20
0
  30
0
  11
35.6
  21
-0.275383
  31
0
  0
LINE
  5
a6
  100
AcDbEntity
  8
SK1
  100
AcDbLine
  10
35.0771
  20
0
  30
0
  11
35.6
  21
-0.522871
  31
0
  0
LINE
  5
a7
  100
AcDbEntity
  8
SK1
  100
AcDbLine
  10
34.8296
  20
0
  30
0
  11
35.6
  21
-0.770358
  31
0
  0
LINE
  5
a8
  100
AcDbEntity
  8
SK1
  100
AcDbLine
  10
34.5822
  20
0
  30
0
  11
35.6
  21
-1.01785
  31
0
  0
LINE
  5
a9
  100
AcDbEntity
  8
SK1
  100
AcDbLine
  10
34.3347
  20
0
  30
0
  11
35.6
  21
-1.26533
  31
0
  0
LINE
  5
aa
  100
AcDbEntity
  8
SK1
  100
AcDbLine
  10
34.0872
  20
0
  30
0
  11
35.6
  21
-1.51282
  31
0
  0
LINE
  5
ab
  100
AcDbEntity
  8
SK1
  100
AcDbLine
  10
33.8503
  20
-0.010642
  30
0
  11
35.5894
  21
-1.74967
  31
0
  0
LINE
  5
ac
  100
AcDbEntity
  8
SK1
  100
AcDbLine
  10
33.8736
  20
-0.281429
  30
0
  11
35.3186
  21
-1.72637
  31
0
  0
LINE
  5
ad
  100
AcDbEntity
  8
SK1
  100
AcDbLine
  10
33.9639
  20
-0.619147
  30
0
  11
34.9809
  21
-1.63613
  31
0
  0
LINE
  5
ae
  100
AcDbEntity
  8
SK1
  100
AcDbLine
  10
33.8514
  20
-0.044098
  30
0
  11
33.8955
  21
0
  31
0
  0
LINE
  5
af
  100
AcDbEntity
  8
SK1
  100
AcDbLine
  10
33.872
  20
-0.270991
  30
0
  11
34.143
  21
0
  31
0
  0
LINE
  5
b0
  100
AcDbEntity
  8
SK1
  100
AcDbLine
  10
33.9163
  20
-0.474162
  30
0
  11
34.3905
  21
0
  31
0
  0
LINE
  5
b1
  100
AcDbEntity
  8
SK1
  100
AcDbLine
  10
33.9792
  20
-0.658762
  30
0
  11
34.6379
  21
0
  31
0
  0
LINE
  5
b2
  100
AcDbEntity
  8
SK1
  100
AcDbLine
  10
34.0583
  20
-0.827105
  30
0
  11
34.8854
  21
0
  31
0
  0
LINE
  5
b3
  100
AcDbEntity
  8
SK1
  100
AcDbLine
  10
34.1519
  20
-0.981039
  30
0
  11
35.1329
  21
0
  31
0
  0
LINE
  5
b4
  100
AcDbEntity
  8
SK1
  100
AcDbLine
  10
34.2578
  20
-1.12257
  30
0
  11
35.3804
  21
0
  31
0
  0
LINE
  5
b5
  100
AcDbEntity
  8
SK1
  100
AcDbLine
  10
34.3771
  20
-1.25077
  30
0
  11
35.6
  21
-0.027896
  31
0
  0
LINE
  5
b6
  100
AcDbEntity
  8
SK1
  100
AcDbLine
  10
34.5084
  20
-1.36695
  30
0
  11
35.6
  21
-0.275383
  31
0
  0
LINE
  5
b7
  100
AcDbEntity
  8
SK1
  100
AcDbLine
  10
34.6522
  20
-1.47069
  30
0
  11
35.6
  21
-0.522871
  31
0
  0
LINE
  5
b8
  100
AcDbEntity
  8
SK1
  100
AcDbLine
  10
34.8099
  20
-1.5605
  30
0
  11
35.6
  21
-0.770358
  31
0
  0
LINE
  5
b9
  100
AcDbEntity
  8
SK1
  100
AcDbLine
  10
34.9815
  20
-1.63636
  30
0
  11
35.6
  21
-1.01785
  31
0
  0
LINE
  5
ba
  100
AcDbEntity
  8
SK1
  100
AcDbLine
  10
35.1693
  20
-1.69603
  30
0
  11
35.6
  21
-1.26533
  31
0
  0
LINE
  5
bb
  100
AcDbEntity
  8
SK1
  100
AcDbLine
  10
35.3772
  20
-1.73565
  30
0
  11
35.6
  21
-1.51282
  31
0
  0
LINE
  5
bc
  100
AcDbEntity
  8
SK1
  100
AcDbLine
  10
35.6
  20
0
  30
0
  11
33.85
  21
0
  31
0
  0
LINE
  5
bd
  100
AcDbEntity
  8
SK1
  100
AcDbLine
  10
35.6
  20
-1.75
  30
0
  11
35.6
  21
0
  31
0
  0
ARC
  5
be
  100
AcDbEntity
  8
SK1
  100
AcDbCircle
  10
35.6
  20
0
  30
0
  40
1.75
  100
AcDbArc
  50
180
  51
270
  0
ARC
  5
bf
  100
AcDbEntity
  8
SK1
  100
AcDbCircle
  10
35.6
  20
0
  30
0
  40
1.75
  100
AcDbArc
  50
270
  51
0
  0
LINE
  5
13a
  100
AcDbEntity
  8
NOCUT
  100
AcDbLine
  10
63.4
  20
0
  30
0
  11
63.4
  21
0.975
  31
0
  0
LINE
  5
13b
  100
AcDbEntity
  8
NOCUT
  100
AcDbLine
  10
63.4
  20
0.975
  30
0
  11
40.25
  21
0.975
  31
0
  0
ARC
  5
13c
  100
AcDbEntity
  8
NOCUT
  100
AcDbCircle
  10
40.337156
  20
1.971195
  30
0
  40
1
  100
AcDbArc
  50
255
  51
265
  0
LINE
  5
13d
  100
AcDbEntity
  8
NOCUT
  100
AcDbLine
  10
40.078337
  20
1.005269
  30
0
  11
36.36595
  21
2
  31
0
  0
LINE
  5
13e
  100
AcDbEntity
  8
NOCUT
  100
AcDbLine
  10
36.36595
  20
2
  30
0
  11
35.6
  21
2
  31
0
  0
LINE
  5
13f
  100
AcDbEntity
  8
NOCUT
  100
AcDbLine
  10
35.6
  20
2
  30
0
  11
35.6
  21
0
  31
0
  0
LINE
  5
140
  100
AcDbEntity
  8
NOCUT
  100
AcDbLine
  10
35.6
  20
0
  30
0
  11
63.4
  21
0
  31
0
  0
ARC
  5
141
  100
AcDbEntity
  8
CUT
  100
AcDbCircle
  10
64
  20
0
  30
0
  40
1
  100
AcDbArc
  50
0
  51
90
  0
LINE
  5
142
  100
AcDbEntity
  8
CUT
  100
AcDbLine
  10
64
  20
1
  30
0
  11
63.4
  21
1
  31
0
  0
LINE
  5
143
  100
AcDbEntity
  8
CUT
  100
AcDbLine
  10
63.4
  20
1
  30
0
  11
63.4
  21
0
  31
0
  0
LINE
  5
144
  100
AcDbEntity
  8
CUT
  100
AcDbLine
  10
63.4
  20
0
  30
0
  11
65
  21
0
  31
0
  0
LINE
  5
145
  100
AcDbEntity
  8
4
  100
AcDbLine
  10
35.6
  20
0
  30
0
  11
65
  21
0
  31
0
  0
LINE
  5
146
  100
AcDbEntity
  8
SK4
  100
AcDbLine
  10
-1
  20
0
  30
0
  11
66
  21
0
  31
0
  0
LINE
  5
147
  100
AcDbEntity
  8
INFTOTAL
  100
AcDbLine
  10
-16.45
  20
23.45
  30
0
  11
81.45
  21
23.45
  31
0
  0
LINE
  5
148
  100
AcDbEntity
  8
INFTOTAL
  100
AcDbLine
  10
81.45
  20
23.45
  30
0
  11
81.45
  21
-18.45
  31
0
  0
LINE
  5
149
  100
AcDbEntity
  8
INFTOTAL
  100
AcDbLine
  10
81.45
  20
-18.45
  30
0
  11
-16.45
  21
-18.45
  31
0
  0
LINE
  5
14a
  100
AcDbEntity
  8
INFTOTAL
  100
AcDbLine
  10
-16.45
  20
-18.45
  30
0
  11
-16.45
  21
23.45
  31
0
  0
ENDSEC
  0
SECTION
  2
OBJECTS
  0
DICTIONARY
  5
14b
  330
0
100
AcDbDictionary
281
    1
  3
ACAD_GROUP
  350
14c
  0
DICTIONARY
  5
14c
102
{ACAD_REACTORS
  330
14b
102
}
  330
14b
100
AcDbDictionary
281
    1
  0
ENDSEC
  0
EOF
