  0
SECTION
  2
HEADER
  9
$ACADVER
  1
AC1015
  9
$DWGCODEPAGE
  3
ANSI_932
  9
$HANDSEED
  5
106AB90
  0
ENDSEC
  0
SECTION
  2
CLASSES
  0
CLASS
  1
IMAGEDEF
  2
AcDbRasterImageDef
  3
ISM
  90
0
  91
4
  280
0
  281
0
  0
CLASS
  1
IMAGE
  2
AcDbRasterImage
  3
ISM
  90
127
  91
5
  280
0
  281
1
  0
CLASS
  1
IMAGEDEF_REACTOR
  2
AcDbRasterImageDefReactor
  3
ISM
  90
1
  91
4
  280
0
  281
0
  0
ENDSEC
  0
SECTION
  2
TABLES
  0
TABLE
  2
VPORT
  5
2
  330
0
  100
AcDbSymbolTable
  70
    0
  0
ENDTAB
  0
TABLE
  2
LTYPE
  5
3
  330
0
  100
AcDbSymbolTable
  70
    4
  0
LTYPE
  5
4
  330
3
  100
AcDbSymbolTableRecord
  100
AcDbLinetypeTableRecord
  2
ByBlock
  70
    0
  3

  72
65
  73
    0
  40
0
  0
LTYPE
  5
5
  330
3
  100
AcDbSymbolTableRecord
  100
AcDbLinetypeTableRecord
  2
ByLayer
  70
    0
  3

  72
65
  73
    0
  40
0
  0
LTYPE
  5
6
  330
3
  100
AcDbSymbolTableRecord
  100
AcDbLinetypeTableRecord
  2
CONTINUOUS
  70
    0
  3
Solid Line
  72
65
  73
    0
  40
0
  0
LTYPE
  5
7
  330
3
  100
AcDbSymbolTableRecord
  100
AcDbLinetypeTableRecord
  2
DASH
  70
    0
  3
Hidden
  72
65
  73
2
  40
2.5
  49
1.5
  74
0
  49
-1
  74
0
  0
LTYPE
  5
8
  330
3
  100
AcDbSymbolTableRecord
  100
AcDbLinetypeTableRecord
  2
LONGDASHDASH
  70
    0
  3
__ . __
  72
65
  73
    4
  40
7
  49
4
  74
    0
  49
-1
  74
    0
  49
1
  74
    0
  49
-1
  74
    0
  0
ENDTAB
  0
TABLE
  2
LAYER
  5
9
  330
0
  100
AcDbSymbolTable
  70
    40
  0
LAYER
  5
a
  330
9
  100
AcDbSymbolTableRecord
  100
AcDbLayerTableRecord
  2
0
  70
    0
  62
    0
  6
CONTINUOUS
  390
0
  0
LAYER
  5
c
  330
9
  100
AcDbSymbolTableRecord
  100
AcDbLayerTableRecord
  2
1
  70
    0
  62
    4
  6
CONTINUOUS
  370
50
  390
0
  0
LAYER
  5
d
  330
9
  100
AcDbSymbolTableRecord
  100
AcDbLayerTableRecord
  2
2
  70
    0
  62
    7
  6
CONTINUOUS
  370
25
  390
0
  0
LAYER
  5
f
  330
9
  100
AcDbSymbolTableRecord
  100
AcDbLayerTableRecord
  2
4
  70
    0
  62
    2
  6
LONGDASHDASH
  370
25
  390
0
  0
LAYER
  5
13
  330
9
  100
AcDbSymbolTableRecord
  100
AcDbLayerTableRecord
  2
SK1
  70
    0
  62
    4
  6
CONTINUOUS
  370
50
  390
0
  0
LAYER
  5
14
  330
9
  100
AcDbSymbolTableRecord
  100
AcDbLayerTableRecord
  2
SK2
  70
    0
  62
    7
  6
CONTINUOUS
  370
25
  390
0
  0
LAYER
  5
16
  330
9
  100
AcDbSymbolTableRecord
  100
AcDbLayerTableRecord
  2
SK4
  70
    0
  62
    2
  6
LONGDASHDASH
  370
25
  390
0
  0
LAYER
  5
21
  330
9
  100
AcDbSymbolTableRecord
  100
AcDbLayerTableRecord
  2
NOCUT
  70
    0
  62
    7
  6
CONTINUOUS
  370
25
  390
0
  0
LAYER
  5
22
  330
9
  100
AcDbSymbolTableRecord
  100
AcDbLayerTableRecord
  2
CUT
  70
    0
  62
    1
  6
CONTINUOUS
  370
25
  390
0
  0
LAYER
  5
26
  330
9
  100
AcDbSymbolTableRecord
  100
AcDbLayerTableRecord
  2
INFTOTAL
  70
    0
  62
    9
  6
CONTINUOUS
  370
18
  390
0
  0
ENDTAB
  0
TABLE
  2
STYLE
  5
27
  330
0
  100
AcDbSymbolTable
  70
    1
  0
STYLE
  5
28
  330
27
  100
AcDbSymbolTableRecord
  100
AcDbTextStyleTableRecord
  2
Monospac821 BT
  70
    0
  40
    3.5
  41
1
  50
0
  71
0
  42
3
  3

  4

  1001
ACAD
  1000
Monospac821 BT
  1071
256
  0
ENDTAB
  0
TABLE
  2
VIEW
  5
29
  330
0
  100
AcDbSymbolTable
  70
    0
  0
ENDTAB
  0
TABLE
  2
UCS
  5
2a
  330
0
  100
AcDbSymbolTable
  70
    0
  0
ENDTAB
  0
TABLE
  2
APPID
  5
2b
  330
0
  100
AcDbSymbolTable
  70
    1
  0
APPID
  5
2c
  330
2b
  100
AcDbSymbolTableRecord
  100
AcDbRegAppTableRecord
  2
ACAD
  70
    0
  0
ENDTAB
  0
TABLE
  2
DIMSTYLE
  5
2d
  330
0
  100
AcDbSymbolTable
  70
    1
  100
AcDbDimStyleTable
  0
DIMSTYLE
  105
2e
  330
2d
  100
AcDbSymbolTableRecord
  100
AcDbDimStyleTableRecord
  2
STANDARD
  70
    0
  41
    3
  42
0.5
  44
1
  73
0
  77
1
  78
1
  140
3.5
  141
2.5
  143
0.03937
  147
0.8
  172
1
  174
1
  178
0
  179
1
  271
2
  279
1
  284
1
  340
28
  0
ENDTAB
  0
TABLE
  2
BLOCK_RECORD
  5
2f
  330
0
  100
AcDbSymbolTable
  70
    2
  0
BLOCK_RECORD
  5
30
  330
2f
  100
AcDbSymbolTableRecord
  100
AcDbBlockTableRecord
  2
*Model_Space
  0
BLOCK_RECORD
  5
31
  330
2f
  100
AcDbSymbolTableRecord
  100
AcDbBlockTableRecord
  2
*Paper_Space
  0
BLOCK_RECORD
  5
ce
  330
2f
  100
AcDbSymbolTableRecord
  100
AcDbBlockTableRecord
  2
*Dcd
  340
0
  0
BLOCK_RECORD
  5
dc
  330
2f
  100
AcDbSymbolTableRecord
  100
AcDbBlockTableRecord
  2
*Ddb
  340
0
  0
BLOCK_RECORD
  5
ea
  330
2f
  100
AcDbSymbolTableRecord
  100
AcDbBlockTableRecord
  2
*De9
  340
0
  0
BLOCK_RECORD
  5
f8
  330
2f
  100
AcDbSymbolTableRecord
  100
AcDbBlockTableRecord
  2
*Df7
  340
0
  0
BLOCK_RECORD
  5
106
  330
2f
  100
AcDbSymbolTableRecord
  100
AcDbBlockTableRecord
  2
*D105
  340
0
  0
BLOCK_RECORD
  5
110
  330
2f
  100
AcDbSymbolTableRecord
  100
AcDbBlockTableRecord
  2
*D10f
  340
0
  0
BLOCK_RECORD
  5
11e
  330
2f
  100
AcDbSymbolTableRecord
  100
AcDbBlockTableRecord
  2
*D11d
  340
0
  0
BLOCK_RECORD
  5
12c
  330
2f
  100
AcDbSymbolTableRecord
  100
AcDbBlockTableRecord
  2
*D12b
  340
0
  0
BLOCK_RECORD
  5
13a
  330
2f
  100
AcDbSymbolTableRecord
  100
AcDbBlockTableRecord
  2
*D139
  340
0
  0
ENDTAB
  0
ENDSEC
  0
SECTION
  2
BLOCKS
  0
BLOCK
  5
32
  330
30
  100
AcDbEntity
  8
0
  100
AcDbBlockBegin
  2
*Model_Space
  70
    0
  10
0
  20
0
  30
0
  3
*Model_Space
  1

  0
ENDBLK
  5
33
  330
30
  100
AcDbEntity
  8
0
  100
AcDbBlockEnd
  0
BLOCK
  5
34
  330
31
  100
AcDbEntity
  8
0
  100
AcDbBlockBegin
  2
*Paper_Space
  70
    0
  10
0
  20
0
  30
0
  3
*Paper_Space
  1

  0
ENDBLK
  5
35
  330
31
  100
AcDbEntity
  8
0
  100
AcDbBlockEnd
  0
BLOCK
  5
cc
  330
ce
  100
AcDbEntity
  8
SK2
  100
AcDbBlockBegin
  2
*Dcd
  70
1
  10
0
  20
0
  30
0
  3
*Dcd
  1

  0
LINE
  5
cf
  330
ce
  100
AcDbEntity
  8
SK2
  100
AcDbLine
  10
0
  20
1.3
  30
0
  11
0
  21
19
  31
0
  0
LINE
  5
d0
  330
ce
  100
AcDbEntity
  8
SK2
  100
AcDbLine
  10
70
  20
-14
  30
0
  11
70
  21
19
  31
0
  0
LINE
  5
d1
  330
ce
  100
AcDbEntity
  8
SK2
  100
AcDbLine
  10
0
  20
17
  30
0
  11
70
  21
17
  31
0
  0
SOLID
  5
d2
  330
ce
  100
AcDbEntity
  8
SK2
  100
AcDbTrace
  10
0
  20
17
  30
0
  11
2.478612
  21
17.326315
  31
0
  12
2.478612
  22
16.673685
  32
0
  13
2.478612
  23
16.673685
  33
0
  0
SOLID
  5
d3
  330
ce
  100
AcDbEntity
  8
SK2
  100
AcDbTrace
  10
70
  20
17
  30
0
  11
67.521388
  21
16.673685
  31
0
  12
67.521388
  22
17.326315
  32
0
  13
67.521388
  23
17.326315
  33
0
  0
MTEXT
  5
d4
  330
ce
  100
AcDbEntity
  8
SK2
  100
AcDbMText
  10
35
  20
17
  30
0
  11
1
  21
0
  31
0
  40
2
  41
0
  71
8
  72
1
  1
70
  0
POINT
  5
d5
  330
ce
  100
AcDbEntity
  8
SK2
  62
0
  100
AcDbPoint
  10
0
  20
1.3
  30
0
  0
POINT
  5
d6
  330
ce
  100
AcDbEntity
  8
SK2
  62
0
  100
AcDbPoint
  10
70
  20
-14
  30
0
  0
POINT
  5
d7
  330
ce
  100
AcDbEntity
  8
SK2
  62
0
  100
AcDbPoint
  10
70
  20
17
  30
0
  0
ENDBLK
  5
d8
  330
ce
  100
AcDbEntity
  8
SK2
  100
AcDbBlockEnd
  0
BLOCK
  5
da
  330
dc
  100
AcDbEntity
  8
SK2
  100
AcDbBlockBegin
  2
*Ddb
  70
1
  10
0
  20
0
  30
0
  3
*Ddb
  1

  0
LINE
  5
dd
  330
dc
  100
AcDbEntity
  8
SK2
  100
AcDbLine
  10
36.8
  20
2
  30
0
  11
36.8
  21
14
  31
0
  0
LINE
  5
de
  330
dc
  100
AcDbEntity
  8
SK2
  100
AcDbLine
  10
0
  20
1.3
  30
0
  11
0
  21
19
  31
0
  0
LINE
  5
df
  330
dc
  100
AcDbEntity
  8
SK2
  100
AcDbLine
  10
36.8
  20
12
  30
0
  11
0
  21
12
  31
0
  0
SOLID
  5
e0
  330
dc
  100
AcDbEntity
  8
SK2
  100
AcDbTrace
  10
36.8
  20
12
  30
0
  11
39.278612
  21
12.326315
  31
0
  12
39.278612
  22
11.673685
  32
0
  13
39.278612
  23
11.673685
  33
0
  0
SOLID
  5
e1
  330
dc
  100
AcDbEntity
  8
SK2
  100
AcDbTrace
  10
0
  20
12
  30
0
  11
-2.478612
  21
11.673685
  31
0
  12
-2.478612
  22
12.326315
  32
0
  13
-2.478612
  23
12.326315
  33
0
  0
MTEXT
  5
e2
  330
dc
  100
AcDbEntity
  8
SK2
  100
AcDbMText
  10
18.4
  20
12
  30
0
  11
1
  21
-0
  31
0
  40
2
  41
0
  71
8
  72
1
  1
36.8
  0
POINT
  5
e3
  330
dc
  100
AcDbEntity
  8
SK2
  62
0
  100
AcDbPoint
  10
36.8
  20
2
  30
0
  0
POINT
  5
e4
  330
dc
  100
AcDbEntity
  8
SK2
  62
0
  100
AcDbPoint
  10
0
  20
1.3
  30
0
  0
POINT
  5
e5
  330
dc
  100
AcDbEntity
  8
SK2
  62
0
  100
AcDbPoint
  10
0
  20
12
  30
0
  0
ENDBLK
  5
e6
  330
dc
  100
AcDbEntity
  8
SK2
  100
AcDbBlockEnd
  0
BLOCK
  5
e8
  330
ea
  100
AcDbEntity
  8
SK2
  100
AcDbBlockBegin
  2
*De9
  70
1
  10
0
  20
0
  30
0
  3
*De9
  1

  0
LINE
  5
eb
  330
ea
  100
AcDbEntity
  8
SK2
  100
AcDbLine
  10
0.7
  20
-2
  30
0
  11
-12
  21
-2
  31
0
  0
LINE
  5
ec
  330
ea
  100
AcDbEntity
  8
SK2
  100
AcDbLine
  10
0.7
  20
2
  30
0
  11
-12
  21
2
  31
0
  0
LINE
  5
ed
  330
ea
  100
AcDbEntity
  8
SK2
  100
AcDbLine
  10
-10
  20
-4.158416
  30
0
  11
-10
  21
2
  31
0
  0
SOLID
  5
ee
  330
ea
  100
AcDbEntity
  8
SK2
  100
AcDbTrace
  10
-10
  20
-2
  30
0
  11
-10.326315
  21
0.478612
  31
0
  12
-9.673685
  22
0.478612
  32
0
  13
-9.673685
  23
0.478612
  33
0
  0
SOLID
  5
ef
  330
ea
  100
AcDbEntity
  8
SK2
  100
AcDbTrace
  10
-10
  20
2
  30
0
  11
-9.673685
  21
-0.478612
  31
0
  12
-10.326315
  22
-0.478612
  32
0
  13
-10.326315
  23
-0.478612
  33
0
  0
MTEXT
  5
f0
  330
ea
  100
AcDbEntity
  8
SK2
  100
AcDbMText
  10
-10
  20
0
  30
0
  11
0
  21
1
  31
0
  40
2
  41
0
  71
8
  72
1
  1
ﾘ4
  0
POINT
  5
f1
  330
ea
  100
AcDbEntity
  8
SK2
  62
0
  100
AcDbPoint
  10
0.7
  20
-2
  30
0
  0
POINT
  5
f2
  330
ea
  100
AcDbEntity
  8
SK2
  62
0
  100
AcDbPoint
  10
0.7
  20
2
  30
0
  0
POINT
  5
f3
  330
ea
  100
AcDbEntity
  8
SK2
  62
0
  100
AcDbPoint
  10
-10
  20
2
  30
0
  0
ENDBLK
  5
f4
  330
ea
  100
AcDbEntity
  8
SK2
  100
AcDbBlockEnd
  0
BLOCK
  5
f6
  330
f8
  100
AcDbEntity
  8
2
  100
AcDbBlockBegin
  2
*Df7
  70
1
  10
0
  20
0
  30
0
  3
*Df7
  1

  0
LINE
  5
f9
  330
f8
  100
AcDbEntity
  8
2
  100
AcDbLine
  10
68.75
  20
-1.25
  30
0
  11
82
  21
-1.25
  31
0
  0
LINE
  5
fa
  330
f8
  100
AcDbEntity
  8
2
  100
AcDbLine
  10
68.75
  20
1.25
  30
0
  11
82
  21
1.25
  31
0
  0
LINE
  5
fb
  330
f8
  100
AcDbEntity
  8
2
  100
AcDbLine
  10
80
  20
-6.757426
  30
0
  11
80
  21
1.25
  31
0
  0
SOLID
  5
fc
  330
f8
  100
AcDbEntity
  8
2
  100
AcDbTrace
  10
80
  20
-1.25
  30
0
  11
79.673685
  21
1.228612
  31
0
  12
80.326315
  22
1.228612
  32
0
  13
80.326315
  23
1.228612
  33
0
  0
SOLID
  5
fd
  330
f8
  100
AcDbEntity
  8
2
  100
AcDbTrace
  10
80
  20
1.25
  30
0
  11
80.326315
  21
-1.228612
  31
0
  12
79.673685
  22
-1.228612
  32
0
  13
79.673685
  23
-1.228612
  33
0
  0
MTEXT
  5
fe
  330
f8
  100
AcDbEntity
  8
2
  100
AcDbMText
  10
80
  20
0
  30
0
  11
0
  21
1
  31
0
  40
2
  41
0
  71
8
  72
1
  1
ﾘ2.5
  0
POINT
  5
ff
  330
f8
  100
AcDbEntity
  8
2
  62
0
  100
AcDbPoint
  10
68.75
  20
-1.25
  30
0
  0
POINT
  5
100
  330
f8
  100
AcDbEntity
  8
2
  62
0
  100
AcDbPoint
  10
68.75
  20
1.25
  30
0
  0
POINT
  5
101
  330
f8
  100
AcDbEntity
  8
2
  62
0
  100
AcDbPoint
  10
80
  20
1.25
  30
0
  0
ENDBLK
  5
102
  330
f8
  100
AcDbEntity
  8
2
  100
AcDbBlockEnd
  0
BLOCK
  5
104
  330
106
  100
AcDbEntity
  8
2
  100
AcDbBlockBegin
  2
*D105
  70
1
  10
0
  20
0
  30
0
  3
*D105
  1

  0
LINE
  5
107
  330
106
  100
AcDbEntity
  8
2
  100
AcDbLine
  10
66.537748
  20
-2.212252
  30
0
  11
76.704951
  21
7.954951
  31
0
  0
MTEXT
  5
108
  330
106
  100
AcDbEntity
  8
2
  100
AcDbMText
  10
69.633883
  20
0.883883
  30
0
  11
0.707107
  21
0.707107
  31
0
  40
2
  41
0
  71
8
  72
1
  1
R1.25
  0
SOLID
  5
109
  330
106
  100
AcDbEntity
  8
2
  100
AcDbTrace
  10
69.633883
  20
0.883883
  30
0
  11
71.155787
  21
2.867267
  31
0
  12
71.617267
  22
2.405787
  32
0
  13
71.617267
  23
2.405787
  33
0
  0
POINT
  5
10a
  330
106
  100
AcDbEntity
  8
2
  62
0
  100
AcDbPoint
  10
66.537748
  20
-2.212252
  30
0
  0
POINT
  5
10b
  330
106
  100
AcDbEntity
  8
2
  62
0
  100
AcDbPoint
  10
68.75
  20
0
  30
0
  0
ENDBLK
  5
10c
  330
106
  100
AcDbEntity
  8
2
  100
AcDbBlockEnd
  0
BLOCK
  5
10e
  330
110
  100
AcDbEntity
  8
2
  100
AcDbBlockBegin
  2
*D10f
  70
1
  10
0
  20
0
  30
0
  3
*D10f
  1

  0
LINE
  5
111
  330
110
  100
AcDbEntity
  8
2
  100
AcDbLine
  10
68
  20
-1.175
  30
0
  11
66
  21
-1.175
  31
0
  0
LINE
  5
112
  330
110
  100
AcDbEntity
  8
2
  100
AcDbLine
  10
68
  20
1.175
  30
0
  11
66
  21
1.175
  31
0
  0
LINE
  5
113
  330
110
  100
AcDbEntity
  8
2
  100
AcDbLine
  10
68
  20
-1.175
  30
0
  11
68
  21
9.616337
  31
0
  0
SOLID
  5
114
  330
110
  100
AcDbEntity
  8
2
  100
AcDbTrace
  10
68
  20
-1.175
  30
0
  11
67.673685
  21
1.303612
  31
0
  12
68.326315
  22
1.303612
  32
0
  13
68.326315
  23
1.303612
  33
0
  0
SOLID
  5
115
  330
110
  100
AcDbEntity
  8
2
  100
AcDbTrace
  10
68
  20
1.175
  30
0
  11
68.326315
  21
-1.303612
  31
0
  12
67.673685
  22
-1.303612
  32
0
  13
67.673685
  23
-1.303612
  33
0
  0
MTEXT
  5
116
  330
110
  100
AcDbEntity
  8
2
  100
AcDbMText
  10
68
  20
1.175
  30
0
  11
0
  21
1
  31
0
  40
2
  41
0
  71
8
  72
1
  1
ﾘ2.35
  0
POINT
  5
117
  330
110
  100
AcDbEntity
  8
2
  62
0
  100
AcDbPoint
  10
66
  20
-1.175
  30
0
  0
POINT
  5
118
  330
110
  100
AcDbEntity
  8
2
  62
0
  100
AcDbPoint
  10
66
  20
1.175
  30
0
  0
POINT
  5
119
  330
110
  100
AcDbEntity
  8
2
  62
0
  100
AcDbPoint
  10
68
  20
9.616337
  30
0
  0
ENDBLK
  5
11a
  330
110
  100
AcDbEntity
  8
2
  100
AcDbBlockEnd
  0
BLOCK
  5
11c
  330
11e
  100
AcDbEntity
  8
2
  100
AcDbBlockBegin
  2
*D11d
  70
1
  10
0
  20
0
  30
0
  3
*D11d
  1

  0
LINE
  5
11f
  330
11e
  100
AcDbEntity
  8
2
  100
AcDbLine
  10
68
  20
1.175
  30
0
  11
68
  21
9
  31
0
  0
LINE
  5
120
  330
11e
  100
AcDbEntity
  8
2
  100
AcDbLine
  10
40.63
  20
1.175
  30
0
  11
40.63
  21
9
  31
0
  0
LINE
  5
121
  330
11e
  100
AcDbEntity
  8
2
  100
AcDbLine
  10
70.82302
  20
7
  30
0
  11
40.63
  21
7
  31
0
  0
SOLID
  5
122
  330
11e
  100
AcDbEntity
  8
2
  100
AcDbTrace
  10
68
  20
7
  30
0
  11
70.478612
  21
7.326315
  31
0
  12
70.478612
  22
6.673685
  32
0
  13
70.478612
  23
6.673685
  33
0
  0
SOLID
  5
123
  330
11e
  100
AcDbEntity
  8
2
  100
AcDbTrace
  10
40.63
  20
7
  30
0
  11
38.151388
  21
6.673685
  31
0
  12
38.151388
  22
7.326315
  32
0
  13
38.151388
  23
7.326315
  33
0
  0
MTEXT
  5
124
  330
11e
  100
AcDbEntity
  8
2
  100
AcDbMText
  10
66.784884
  20
7
  30
0
  11
1
  21
-0
  31
0
  40
2
  41
0
  71
8
  72
1
  1
27.37
  0
POINT
  5
125
  330
11e
  100
AcDbEntity
  8
2
  62
0
  100
AcDbPoint
  10
68
  20
1.175
  30
0
  0
POINT
  5
126
  330
11e
  100
AcDbEntity
  8
2
  62
0
  100
AcDbPoint
  10
40.63
  20
1.175
  30
0
  0
POINT
  5
127
  330
11e
  100
AcDbEntity
  8
2
  62
0
  100
AcDbPoint
  10
40.63
  20
7
  30
0
  0
ENDBLK
  5
128
  330
11e
  100
AcDbEntity
  8
2
  100
AcDbBlockEnd
  0
BLOCK
  5
12a
  330
12c
  100
AcDbEntity
  8
2
  100
AcDbBlockBegin
  2
*D12b
  70
1
  10
0
  20
0
  30
0
  3
*D12b
  1

  0
LINE
  5
12d
  330
12c
  100
AcDbEntity
  8
2
  100
AcDbLine
  10
70
  20
-14
  30
0
  11
70
  21
19
  31
0
  0
LINE
  5
12e
  330
12c
  100
AcDbEntity
  8
2
  100
AcDbLine
  10
36.8
  20
2
  30
0
  11
36.8
  21
9
  31
0
  0
LINE
  5
12f
  330
12c
  100
AcDbEntity
  8
2
  100
AcDbLine
  10
70
  20
7
  30
0
  11
36.8
  21
7
  31
0
  0
SOLID
  5
130
  330
12c
  100
AcDbEntity
  8
2
  100
AcDbTrace
  10
70
  20
7
  30
0
  11
72.478612
  21
7.326315
  31
0
  12
72.478612
  22
6.673685
  32
0
  13
72.478612
  23
6.673685
  33
0
  0
SOLID
  5
131
  330
12c
  100
AcDbEntity
  8
2
  100
AcDbTrace
  10
36.8
  20
7
  30
0
  11
34.321388
  21
6.673685
  31
0
  12
34.321388
  22
7.326315
  32
0
  13
34.321388
  23
7.326315
  33
0
  0
MTEXT
  5
132
  330
12c
  100
AcDbEntity
  8
2
  100
AcDbMText
  10
53.4
  20
7
  30
0
  11
1
  21
-0
  31
0
  40
2
  41
0
  71
8
  72
1
  1
33.2
  0
POINT
  5
133
  330
12c
  100
AcDbEntity
  8
2
  62
0
  100
AcDbPoint
  10
70
  20
-14
  30
0
  0
POINT
  5
134
  330
12c
  100
AcDbEntity
  8
2
  62
0
  100
AcDbPoint
  10
36.8
  20
2
  30
0
  0
POINT
  5
135
  330
12c
  100
AcDbEntity
  8
2
  62
0
  100
AcDbPoint
  10
36.8
  20
7
  30
0
  0
ENDBLK
  5
136
  330
12c
  100
AcDbEntity
  8
2
  100
AcDbBlockEnd
  0
BLOCK
  5
138
  330
13a
  100
AcDbEntity
  8
2
  100
AcDbBlockBegin
  2
*D139
  70
1
  10
0
  20
0
  30
0
  3
*D139
  1

  0
LINE
  5
13b
  330
13a
  100
AcDbEntity
  8
2
  100
AcDbLine
  10
68
  20
-1.175
  30
0
  11
68
  21
-14
  31
0
  0
LINE
  5
13c
  330
13a
  100
AcDbEntity
  8
2
  100
AcDbLine
  10
70
  20
-14
  30
0
  11
70
  21
19
  31
0
  0
LINE
  5
13d
  330
13a
  100
AcDbEntity
  8
2
  100
AcDbLine
  10
66.924505
  20
-12
  30
0
  11
70
  21
-12
  31
0
  0
SOLID
  5
13e
  330
13a
  100
AcDbEntity
  8
2
  100
AcDbTrace
  10
68
  20
-12
  30
0
  11
70.478612
  21
-11.673685
  31
0
  12
70.478612
  22
-12.326315
  32
0
  13
70.478612
  23
-12.326315
  33
0
  0
SOLID
  5
13f
  330
13a
  100
AcDbEntity
  8
2
  100
AcDbTrace
  10
70
  20
-12
  30
0
  11
67.521388
  21
-12.326315
  31
0
  12
67.521388
  22
-11.673685
  32
0
  13
67.521388
  23
-11.673685
  33
0
  0
MTEXT
  5
140
  330
13a
  100
AcDbEntity
  8
2
  100
AcDbMText
  10
69
  20
-12
  30
0
  11
1
  21
0
  31
0
  40
2
  41
0
  71
8
  72
1
  1
2
  0
POINT
  5
141
  330
13a
  100
AcDbEntity
  8
2
  62
0
  100
AcDbPoint
  10
68
  20
-1.175
  30
0
  0
POINT
  5
142
  330
13a
  100
AcDbEntity
  8
2
  62
0
  100
AcDbPoint
  10
70
  20
19
  30
0
  0
POINT
  5
143
  330
13a
  100
AcDbEntity
  8
2
  62
0
  100
AcDbPoint
  10
70
  20
-12
  30
0
  0
ENDBLK
  5
144
  330
13a
  100
AcDbEntity
  8
2
  100
AcDbBlockEnd
  0
ENDSEC
  0
SECTION
  2
ENTITIES
  0
DIMENSION
  5
d9
  100
AcDbEntity
  8
SK2
  100
AcDbDimension
  2
*Dcd
  10
70
  20
17
  30
0
  11
35
  21
17
  31
0
  70
160
  1
<>
  71
5
  3
STANDARD
  42
70
  100
AcDbAlignedDimension
  13
0
  23
1.3
  33
0
  14
70
  24
-14
  34
0
  50
0
  100
AcDbRotatedDimension
  0
DIMENSION
  5
e7
  100
AcDbEntity
  8
SK2
  100
AcDbDimension
  2
*Ddb
  10
0
  20
12
  30
0
  11
18.4
  21
12
  31
0
  70
160
  1
<>
  71
5
  3
STANDARD
  42
36.8
  100
AcDbAlignedDimension
  13
36.8
  23
2
  33
0
  14
0
  24
1.3
  34
0
  50
0
  100
AcDbRotatedDimension
  0
DIMENSION
  5
f5
  100
AcDbEntity
  8
SK2
  100
AcDbDimension
  2
*De9
  10
-10
  20
2
  30
0
  11
-10
  21
0
  31
0
  70
160
  1
%%c<>
  71
5
  3
STANDARD
  42
4
  100
AcDbAlignedDimension
  13
0.7
  23
-2
  33
0
  14
0.7
  24
2
  34
0
  50
-90
  100
AcDbRotatedDimension
  0
DIMENSION
  5
103
  100
AcDbEntity
  8
2
  100
AcDbDimension
  2
*Df7
  10
80
  20
1.25
  30
0
  11
80
  21
0
  31
0
  70
160
  1
%%c<>
  71
5
  3
STANDARD
  42
2.5
  100
AcDbAlignedDimension
  13
68.75
  23
-1.25
  33
0
  14
68.75
  24
1.25
  34
0
  50
-90
  100
AcDbRotatedDimension
  0
DIMENSION
  5
10d
  100
AcDbEntity
  8
2
  100
AcDbDimension
  2
*D105
  10
68.75
  20
0
  30
0
  11
69.633883
  21
0.883883
  31
0
  70
164
  1
R1.25
  71
5
  3
STANDARD
  100
AcDbRadialDimension
  15
69.633883
  25
0.883883
  35
0
  50
45
  0
DIMENSION
  5
11b
  100
AcDbEntity
  8
2
  100
AcDbDimension
  2
*D10f
  10
68
  20
9.616337
  30
0
  11
68
  21
1.175
  31
0
  70
160
  1
%%c<>
  71
5
  3
STANDARD
  42
2.35
  100
AcDbAlignedDimension
  13
66
  23
-1.175
  33
0
  14
66
  24
1.175
  34
0
  50
-90
  100
AcDbRotatedDimension
  0
DIMENSION
  5
129
  100
AcDbEntity
  8
2
  100
AcDbDimension
  2
*D11d
  10
40.63
  20
7
  30
0
  11
66.784884
  21
7
  31
0
  70
160
  1
<>
  71
5
  3
STANDARD
  42
27.37
  100
AcDbAlignedDimension
  13
68
  23
1.175
  33
0
  14
40.63
  24
1.175
  34
0
  50
0
  100
AcDbRotatedDimension
  0
DIMENSION
  5
137
  100
AcDbEntity
  8
2
  100
AcDbDimension
  2
*D12b
  10
36.8
  20
7
  30
0
  11
53.4
  21
7
  31
0
  70
160
  1
<>
  71
5
  3
STANDARD
  42
33.2
  100
AcDbAlignedDimension
  13
70
  23
-14
  33
0
  14
36.8
  24
2
  34
0
  50
0
  100
AcDbRotatedDimension
  0
DIMENSION
  5
145
  100
AcDbEntity
  8
2
  100
AcDbDimension
  2
*D139
  10
70
  20
-12
  30
0
  11
69
  21
-12
  31
0
  70
160
  1
<>
  71
5
  3
STANDARD
  42
2
  100
AcDbAlignedDimension
  13
68
  23
-1.175
  33
0
  14
70
  24
19
  34
0
  50
0
  100
AcDbRotatedDimension
  0
ARC
  5
36
  100
AcDbEntity
  8
1
  100
AcDbCircle
  10
40.717156
  20
-2.171195
  30
0
  40
1
  100
AcDbArc
  50
95
  51
105
  0
LINE
  5
37
  100
AcDbEntity
  8
1
  100
AcDbLine
  10
40.63
  20
-1.175
  30
0
  11
68
  21
-1.175
  31
0
  0
LINE
  5
38
  100
AcDbEntity
  8
1
  100
AcDbLine
  10
68
  20
-1.175
  30
0
  11
68
  21
-1.25
  31
0
  0
LINE
  5
39
  100
AcDbEntity
  8
1
  100
AcDbLine
  10
68
  20
-1.25
  30
0
  11
68.75
  21
-1.25
  31
0
  0
ARC
  5
3a
  100
AcDbEntity
  8
1
  100
AcDbCircle
  10
68.75
  20
0
  30
0
  40
1.25
  100
AcDbArc
  50
270
  51
0
  0
ARC
  5
3b
  100
AcDbEntity
  8
1
  100
AcDbCircle
  10
68.75
  20
0
  30
0
  40
1.25
  100
AcDbArc
  50
0
  51
90
  0
LINE
  5
3c
  100
AcDbEntity
  8
1
  100
AcDbLine
  10
68.75
  20
1.25
  30
0
  11
68
  21
1.25
  31
0
  0
LINE
  5
3d
  100
AcDbEntity
  8
1
  100
AcDbLine
  10
68
  20
1.25
  30
0
  11
68
  21
1.175
  31
0
  0
LINE
  5
3e
  100
AcDbEntity
  8
1
  100
AcDbLine
  10
68
  20
1.175
  30
0
  11
40.63
  21
1.175
  31
0
  0
ARC
  5
3f
  100
AcDbEntity
  8
1
  100
AcDbCircle
  10
40.717156
  20
2.171195
  30
0
  40
1
  100
AcDbArc
  50
255
  51
265
  0
LINE
  5
40
  100
AcDbEntity
  8
1
  100
AcDbLine
  10
40.458337
  20
1.205269
  30
0
  11
37.49236
  21
2
  31
0
  0
LINE
  5
41
  100
AcDbEntity
  8
1
  100
AcDbLine
  10
37.49236
  20
2
  30
0
  11
36.8
  21
2
  31
0
  0
LINE
  5
42
  100
AcDbEntity
  8
1
  100
AcDbLine
  10
36.8
  20
2
  30
0
  11
36.8
  21
-2
  31
0
  0
LINE
  5
43
  100
AcDbEntity
  8
1
  100
AcDbLine
  10
36.8
  20
-2
  30
0
  11
37.49236
  21
-2
  31
0
  0
LINE
  5
44
  100
AcDbEntity
  8
1
  100
AcDbLine
  10
37.49236
  20
-2
  30
0
  11
40.458337
  21
-1.205269
  31
0
  0
LINE
  5
45
  100
AcDbEntity
  8
1
  100
AcDbLine
  10
36.8
  20
-2
  30
0
  11
36.8
  21
2
  31
0
  0
LINE
  5
46
  100
AcDbEntity
  8
1
  100
AcDbLine
  10
36.8
  20
2
  30
0
  11
36.8
  21
-2
  31
0
  0
LINE
  5
47
  100
AcDbEntity
  8
1
  100
AcDbLine
  10
37.49236
  20
-2
  30
0
  11
37.49236
  21
2
  31
0
  0
LINE
  5
48
  100
AcDbEntity
  8
1
  100
AcDbLine
  10
40.458337
  20
1.205269
  30
0
  11
40.458337
  21
-1.205269
  31
0
  0
LINE
  5
49
  100
AcDbEntity
  8
1
  100
AcDbLine
  10
40.63
  20
-1.175
  30
0
  11
40.63
  21
1.175
  31
0
  0
LINE
  5
4a
  100
AcDbEntity
  8
1
  100
AcDbLine
  10
68.75
  20
1.25
  30
0
  11
68.75
  21
-1.25
  31
0
  0
LINE
  5
4b
  100
AcDbEntity
  8
1
  100
AcDbLine
  10
68.1
  20
-0.690217
  30
0
  11
68.2
  21
-0.736735
  31
0
  0
LINE
  5
4c
  100
AcDbEntity
  8
1
  100
AcDbLine
  10
68.2
  20
-0.736735
  30
0
  11
68.3
  21
-0.781682
  31
0
  0
LINE
  5
4d
  100
AcDbEntity
  8
1
  100
AcDbLine
  10
68.3
  20
-0.781682
  30
0
  11
68.4
  21
-0.824962
  31
0
  0
LINE
  5
4e
  100
AcDbEntity
  8
1
  100
AcDbLine
  10
68.4
  20
-0.824962
  30
0
  11
68.5
  21
-0.866482
  31
0
  0
LINE
  5
4f
  100
AcDbEntity
  8
1
  100
AcDbLine
  10
68.5
  20
-0.866482
  30
0
  11
68.6
  21
-0.906154
  31
0
  0
LINE
  5
50
  100
AcDbEntity
  8
1
  100
AcDbLine
  10
68.6
  20
-0.906154
  30
0
  11
68.7
  21
-0.943893
  31
0
  0
LINE
  5
51
  100
AcDbEntity
  8
1
  100
AcDbLine
  10
68.7
  20
-0.943893
  30
0
  11
68.8
  21
-0.978684
  31
0
  0
LINE
  5
52
  100
AcDbEntity
  8
1
  100
AcDbLine
  10
68.8
  20
-0.978684
  30
0
  11
68.9
  21
-1.004647
  31
0
  0
LINE
  5
53
  100
AcDbEntity
  8
1
  100
AcDbLine
  10
68.9
  20
-1.004647
  30
0
  11
69
  21
-1.020244
  31
0
  0
LINE
  5
54
  100
AcDbEntity
  8
1
  100
AcDbLine
  10
69
  20
-1.020244
  30
0
  11
69.1
  21
-1.024771
  31
0
  0
LINE
  5
55
  100
AcDbEntity
  8
1
  100
AcDbLine
  10
69.1
  20
-1.024771
  30
0
  11
69.2
  21
-1.017391
  31
0
  0
LINE
  5
56
  100
AcDbEntity
  8
1
  100
AcDbLine
  10
69.2
  20
-1.017391
  30
0
  11
69.3
  21
-0.997062
  31
0
  0
LINE
  5
57
  100
AcDbEntity
  8
1
  100
AcDbLine
  10
69.3
  20
-0.997062
  30
0
  11
69.4
  21
-0.962407
  31
0
  0
LINE
  5
58
  100
AcDbEntity
  8
1
  100
AcDbLine
  10
69.4
  20
-0.962407
  30
0
  11
69.5
  21
-0.911464
  31
0
  0
LINE
  5
59
  100
AcDbEntity
  8
1
  100
AcDbLine
  10
69.5
  20
-0.911464
  30
0
  11
69.6
  21
-0.841191
  31
0
  0
LINE
  5
5a
  100
AcDbEntity
  8
1
  100
AcDbLine
  10
69.6
  20
-0.841191
  30
0
  11
69.7
  21
-0.750484
  31
0
  0
LINE
  5
5b
  100
AcDbEntity
  8
1
  100
AcDbLine
  10
69.7
  20
-0.750484
  30
0
  11
69.8
  21
-0.646947
  31
0
  0
LINE
  5
5c
  100
AcDbEntity
  8
1
  100
AcDbLine
  10
69.8
  20
-0.676748
  30
0
  11
69.8
  21
-0.678233
  31
0
  0
LINE
  5
5d
  100
AcDbEntity
  8
1
  100
AcDbLine
  10
69.8
  20
-0.678233
  30
0
  11
69.8
  21
-0.676748
  31
0
  0
LINE
  5
5e
  100
AcDbEntity
  8
1
  100
AcDbLine
  10
69.8
  20
-0.676748
  30
0
  11
69.7
  21
-0.796212
  31
0
  0
LINE
  5
5f
  100
AcDbEntity
  8
1
  100
AcDbLine
  10
69.7
  20
-0.796212
  30
0
  11
69.6
  21
-0.891089
  31
0
  0
LINE
  5
60
  100
AcDbEntity
  8
1
  100
AcDbLine
  10
69.6
  20
-0.891089
  30
0
  11
69.5
  21
-0.964785
  31
0
  0
LINE
  5
61
  100
AcDbEntity
  8
1
  100
AcDbLine
  10
69.5
  20
-0.964785
  30
0
  11
69.4
  21
-1.019652
  31
0
  0
LINE
  5
62
  100
AcDbEntity
  8
1
  100
AcDbLine
  10
69.4
  20
-1.019652
  30
0
  11
69.3
  21
-1.058502
  31
0
  0
LINE
  5
63
  100
AcDbEntity
  8
1
  100
AcDbLine
  10
69.3
  20
-1.058502
  30
0
  11
69.2
  21
-1.083168
  31
0
  0
LINE
  5
64
  100
AcDbEntity
  8
1
  100
AcDbLine
  10
69.2
  20
-1.083168
  30
0
  11
69.1
  21
-1.094947
  31
0
  0
LINE
  5
65
  100
AcDbEntity
  8
1
  100
AcDbLine
  10
69.1
  20
-1.094947
  30
0
  11
69
  21
-1.094825
  31
0
  0
LINE
  5
66
  100
AcDbEntity
  8
1
  100
AcDbLine
  10
69
  20
-1.094825
  30
0
  11
68.9
  21
-1.083598
  31
0
  0
LINE
  5
67
  100
AcDbEntity
  8
1
  100
AcDbLine
  10
68.9
  20
-1.083598
  30
0
  11
68.8
  21
-1.061941
  31
0
  0
LINE
  5
68
  100
AcDbEntity
  8
1
  100
AcDbLine
  10
68.8
  20
-1.061941
  30
0
  11
68.7
  21
-1.031356
  31
0
  0
LINE
  5
69
  100
AcDbEntity
  8
1
  100
AcDbLine
  10
68.7
  20
-1.031356
  30
0
  11
68.6
  21
-0.997647
  31
0
  0
LINE
  5
6a
  100
AcDbEntity
  8
1
  100
AcDbLine
  10
68.6
  20
-0.997647
  30
0
  11
68.5
  21
-0.96181
  31
0
  0
LINE
  5
6b
  100
AcDbEntity
  8
1
  100
AcDbLine
  10
68.5
  20
-0.96181
  30
0
  11
68.4
  21
-0.923921
  31
0
  0
LINE
  5
6c
  100
AcDbEntity
  8
1
  100
AcDbLine
  10
68.4
  20
-0.923921
  30
0
  11
68.3
  21
-0.884062
  31
0
  0
LINE
  5
6d
  100
AcDbEntity
  8
1
  100
AcDbLine
  10
68.3
  20
-0.884062
  30
0
  11
68.2
  21
-0.842317
  31
0
  0
LINE
  5
6e
  100
AcDbEntity
  8
1
  100
AcDbLine
  10
68.2
  20
-0.842317
  30
0
  11
68.1
  21
-0.798775
  31
0
  0
LINE
  5
6f
  100
AcDbEntity
  8
1
  100
AcDbLine
  10
68.1
  20
-0.798775
  30
0
  11
68
  21
-0.75353
  31
0
  0
LINE
  5
70
  100
AcDbEntity
  8
1
  100
AcDbLine
  10
68
  20
-0.75353
  30
0
  11
68
  21
-0.699874
  31
0
  0
LINE
  5
71
  100
AcDbEntity
  8
1
  100
AcDbLine
  10
68
  20
-0.699874
  30
0
  11
67.9
  21
-0.655568
  31
0
  0
LINE
  5
72
  100
AcDbEntity
  8
1
  100
AcDbLine
  10
67.9
  20
-0.655568
  30
0
  11
67.8
  21
-0.683218
  31
0
  0
LINE
  5
73
  100
AcDbEntity
  8
1
  100
AcDbLine
  10
67.8
  20
-0.683218
  30
0
  11
67.8
  21
-1.175
  31
0
  0
LINE
  5
74
  100
AcDbEntity
  8
1
  100
AcDbLine
  10
68
  20
-1.175
  30
0
  11
68
  21
1.175
  31
0
  0
LINE
  5
75
  100
AcDbEntity
  8
1
  100
AcDbLine
  10
68
  20
1.25
  30
0
  11
68
  21
-1.25
  31
0
  0
LINE
  5
76
  100
AcDbEntity
  8
1
  100
AcDbLine
  10
67.8
  20
1.175
  30
0
  11
67.8
  21
0.306126
  31
0
  0
LINE
  5
77
  100
AcDbEntity
  8
1
  100
AcDbLine
  10
67.8
  20
0.306126
  30
0
  11
67.9
  21
-0.242379
  31
0
  0
LINE
  5
78
  100
AcDbEntity
  8
1
  100
AcDbLine
  10
67.9
  20
-0.242379
  30
0
  11
68
  21
-0.302874
  31
0
  0
LINE
  5
79
  100
AcDbEntity
  8
1
  100
AcDbLine
  10
68
  20
-0.302874
  30
0
  11
68
  21
-0.366975
  31
0
  0
LINE
  5
7a
  100
AcDbEntity
  8
1
  100
AcDbLine
  10
68
  20
-0.366975
  30
0
  11
68.1
  21
-0.421755
  31
0
  0
LINE
  5
7b
  100
AcDbEntity
  8
1
  100
AcDbLine
  10
68.1
  20
-0.421755
  30
0
  11
68.2
  21
-0.475636
  31
0
  0
LINE
  5
7c
  100
AcDbEntity
  8
1
  100
AcDbLine
  10
68.2
  20
-0.475636
  30
0
  11
68.3
  21
-0.528501
  31
0
  0
LINE
  5
7d
  100
AcDbEntity
  8
1
  100
AcDbLine
  10
68.3
  20
-0.528501
  30
0
  11
68.4
  21
-0.58024
  31
0
  0
LINE
  5
7e
  100
AcDbEntity
  8
1
  100
AcDbLine
  10
68.4
  20
-0.58024
  30
0
  11
68.5
  21
-0.630741
  31
0
  0
LINE
  5
7f
  100
AcDbEntity
  8
1
  100
AcDbLine
  10
68.5
  20
-0.630741
  30
0
  11
68.6
  21
-0.679896
  31
0
  0
LINE
  5
80
  100
AcDbEntity
  8
1
  100
AcDbLine
  10
68.6
  20
-0.679896
  30
0
  11
68.7
  21
-0.727602
  31
0
  0
LINE
  5
81
  100
AcDbEntity
  8
1
  100
AcDbLine
  10
68.7
  20
-0.727602
  30
0
  11
68.8
  21
-0.772682
  31
0
  0
LINE
  5
82
  100
AcDbEntity
  8
1
  100
AcDbLine
  10
68.8
  20
-0.772682
  30
0
  11
68.9
  21
-0.808391
  31
0
  0
LINE
  5
83
  100
AcDbEntity
  8
1
  100
AcDbLine
  10
68.9
  20
-0.808391
  30
0
  11
69
  21
-0.832953
  31
0
  0
LINE
  5
84
  100
AcDbEntity
  8
1
  100
AcDbLine
  10
69
  20
-0.832953
  30
0
  11
69.1
  21
-0.845478
  31
0
  0
LINE
  5
85
  100
AcDbEntity
  8
1
  100
AcDbLine
  10
69.1
  20
-0.845478
  30
0
  11
69.2
  21
-0.844828
  31
0
  0
LINE
  5
86
  100
AcDbEntity
  8
1
  100
AcDbLine
  10
69.2
  20
-0.844828
  30
0
  11
69.3
  21
-0.829455
  31
0
  0
LINE
  5
87
  100
AcDbEntity
  8
1
  100
AcDbLine
  10
69.3
  20
-0.829455
  30
0
  11
69.4
  21
-0.797103
  31
0
  0
LINE
  5
88
  100
AcDbEntity
  8
1
  100
AcDbLine
  10
69.4
  20
-0.797103
  30
0
  11
69.5
  21
-0.744147
  31
0
  0
LINE
  5
89
  100
AcDbEntity
  8
1
  100
AcDbLine
  10
69.5
  20
-0.744147
  30
0
  11
69.6
  21
-0.663933
  31
0
  0
LINE
  5
8a
  100
AcDbEntity
  8
1
  100
AcDbLine
  10
69.6
  20
-0.663933
  30
0
  11
69.7
  21
-0.541153
  31
0
  0
LINE
  5
8b
  100
AcDbEntity
  8
1
  100
AcDbLine
  10
69.7
  20
-0.541153
  30
0
  11
69.8
  21
-0.313793
  31
0
  0
LINE
  5
8c
  100
AcDbEntity
  8
1
  100
AcDbLine
  10
69.8
  20
-0.313793
  30
0
  11
69.8
  21
0.678233
  31
0
  0
LINE
  5
8d
  100
AcDbEntity
  8
1
  100
AcDbLine
  10
69.8
  20
0.678233
  30
0
  11
69.8
  21
-0.313793
  31
0
  0
LINE
  5
8e
  100
AcDbEntity
  8
SK1
  100
AcDbLine
  10
36.8
  20
2
  30
0
  11
0.7
  21
2
  31
0
  0
LINE
  5
8f
  100
AcDbEntity
  8
SK1
  100
AcDbLine
  10
0.7
  20
2
  30
0
  11
0
  21
1.3
  31
0
  0
LINE
  5
90
  100
AcDbEntity
  8
SK1
  100
AcDbLine
  10
36.8
  20
-2
  30
0
  11
0.7
  21
-2
  31
0
  0
LINE
  5
91
  100
AcDbEntity
  8
SK1
  100
AcDbLine
  10
0.7
  20
-2
  30
0
  11
0
  21
-1.3
  31
0
  0
LINE
  5
92
  100
AcDbEntity
  8
SK1
  100
AcDbLine
  10
0.7
  20
2
  30
0
  11
0.7
  21
-2
  31
0
  0
LINE
  5
93
  100
AcDbEntity
  8
SK1
  100
AcDbLine
  10
0
  20
1.3
  30
0
  11
0
  21
-1.3
  31
0
  0
LINE
  5
94
  100
AcDbEntity
  8
SK1
  100
AcDbLine
  10
37.8401
  20
1.40688
  30
0
  11
38.2069
  21
1.0401
  31
0
  0
LINE
  5
95
  100
AcDbEntity
  8
SK1
  100
AcDbLine
  10
37.3328
  20
1.66666
  30
0
  11
38.4667
  21
0.532833
  31
0
  0
LINE
  5
96
  100
AcDbEntity
  8
SK1
  100
AcDbLine
  10
37.0154
  20
1.73657
  30
0
  11
38.5366
  21
0.215434
  31
0
  0
LINE
  5
97
  100
AcDbEntity
  8
SK1
  100
AcDbLine
  10
36.8
  20
1.70452
  30
0
  11
38.5045
  21
0
  31
0
  0
LINE
  5
98
  100
AcDbEntity
  8
SK1
  100
AcDbLine
  10
36.8
  20
1.45703
  30
0
  11
38.257
  21
0
  31
0
  0
LINE
  5
99
  100
AcDbEntity
  8
SK1
  100
AcDbLine
  10
36.8
  20
1.20954
  30
0
  11
38.0095
  21
0
  31
0
  0
LINE
  5
9a
  100
AcDbEntity
  8
SK1
  100
AcDbLine
  10
36.8
  20
0.962054
  30
0
  11
37.7621
  21
0
  31
0
  0
LINE
  5
9b
  100
AcDbEntity
  8
SK1
  100
AcDbLine
  10
36.8
  20
0.714566
  30
0
  11
37.5146
  21
0
  31
0
  0
LINE
  5
9c
  100
AcDbEntity
  8
SK1
  100
AcDbLine
  10
36.8
  20
0.467079
  30
0
  11
37.2671
  21
0
  31
0
  0
LINE
  5
9d
  100
AcDbEntity
  8
SK1
  100
AcDbLine
  10
36.8
  20
0.219592
  30
0
  11
37.0196
  21
0
  31
0
  0
LINE
  5
9e
  100
AcDbEntity
  8
SK1
  100
AcDbLine
  10
36.8
  20
1.70452
  30
0
  11
36.8441
  21
1.74861
  31
0
  0
LINE
  5
9f
  100
AcDbEntity
  8
SK1
  100
AcDbLine
  10
36.8
  20
1.45703
  30
0
  11
37.071
  21
1.72802
  31
0
  0
LINE
  5
a0
  100
AcDbEntity
  8
SK1
  100
AcDbLine
  10
36.8
  20
1.20954
  30
0
  11
37.2742
  21
1.6837
  31
0
  0
LINE
  5
a1
  100
AcDbEntity
  8
SK1
  100
AcDbLine
  10
36.8
  20
0.962054
  30
0
  11
37.4588
  21
1.62082
  31
0
  0
LINE
  5
a2
  100
AcDbEntity
  8
SK1
  100
AcDbLine
  10
36.8
  20
0.714566
  30
0
  11
37.6271
  21
1.54167
  31
0
  0
LINE
  5
a3
  100
AcDbEntity
  8
SK1
  100
AcDbLine
  10
36.8
  20
0.467079
  30
0
  11
37.781
  21
1.44812
  31
0
  0
LINE
  5
a4
  100
AcDbEntity
  8
SK1
  100
AcDbLine
  10
36.8
  20
0.219592
  30
0
  11
37.9226
  21
1.34216
  31
0
  0
LINE
  5
a5
  100
AcDbEntity
  8
SK1
  100
AcDbLine
  10
36.8279
  20
0
  30
0
  11
38.0508
  21
1.22288
  31
0
  0
LINE
  5
a6
  100
AcDbEntity
  8
SK1
  100
AcDbLine
  10
37.0754
  20
0
  30
0
  11
38.167
  21
1.09157
  31
0
  0
LINE
  5
a7
  100
AcDbEntity
  8
SK1
  100
AcDbLine
  10
37.3229
  20
0
  30
0
  11
38.2707
  21
0.947822
  31
0
  0
LINE
  5
a8
  100
AcDbEntity
  8
SK1
  100
AcDbLine
  10
37.5704
  20
0
  30
0
  11
38.3605
  21
0.790145
  31
0
  0
LINE
  5
a9
  100
AcDbEntity
  8
SK1
  100
AcDbLine
  10
37.8178
  20
0
  30
0
  11
38.4364
  21
0.618517
  31
0
  0
LINE
  5
aa
  100
AcDbEntity
  8
SK1
  100
AcDbLine
  10
38.0653
  20
0
  30
0
  11
38.496
  21
0.430696
  31
0
  0
LINE
  5
ab
  100
AcDbEntity
  8
SK1
  100
AcDbLine
  10
38.3128
  20
0
  30
0
  11
38.5356
  21
0.222827
  31
0
  0
LINE
  5
ac
  100
AcDbEntity
  8
SK1
  100
AcDbLine
  10
36.8
  20
0
  30
0
  11
36.8
  21
1.75
  31
0
  0
LINE
  5
ad
  100
AcDbEntity
  8
SK1
  100
AcDbLine
  10
36.8
  20
0
  30
0
  11
38.55
  21
0
  31
0
  0
ARC
  5
ae
  100
AcDbEntity
  8
SK1
  100
AcDbCircle
  10
36.8
  20
0
  30
0
  40
1.75
  100
AcDbArc
  50
0
  51
90
  0
ARC
  5
af
  100
AcDbEntity
  8
SK1
  100
AcDbCircle
  10
36.8
  20
0
  30
0
  40
1.75
  100
AcDbArc
  50
90
  51
180
  0
LINE
  5
b0
  100
AcDbEntity
  8
SK1
  100
AcDbLine
  10
36.7721
  20
0
  30
0
  11
36.8
  21
-0.027896
  31
0
  0
LINE
  5
b1
  100
AcDbEntity
  8
SK1
  100
AcDbLine
  10
36.5246
  20
0
  30
0
  11
36.8
  21
-0.275383
  31
0
  0
LINE
  5
b2
  100
AcDbEntity
  8
SK1
  100
AcDbLine
  10
36.2771
  20
0
  30
0
  11
36.8
  21
-0.522871
  31
0
  0
LINE
  5
b3
  100
AcDbEntity
  8
SK1
  100
AcDbLine
  10
36.0296
  20
0
  30
0
  11
36.8
  21
-0.770358
  31
0
  0
LINE
  5
b4
  100
AcDbEntity
  8
SK1
  100
AcDbLine
  10
35.7822
  20
0
  30
0
  11
36.8
  21
-1.01785
  31
0
  0
LINE
  5
b5
  100
AcDbEntity
  8
SK1
  100
AcDbLine
  10
35.5347
  20
0
  30
0
  11
36.8
  21
-1.26533
  31
0
  0
LINE
  5
b6
  100
AcDbEntity
  8
SK1
  100
AcDbLine
  10
35.2872
  20
0
  30
0
  11
36.8
  21
-1.51282
  31
0
  0
LINE
  5
b7
  100
AcDbEntity
  8
SK1
  100
AcDbLine
  10
35.0503
  20
-0.010642
  30
0
  11
36.7894
  21
-1.74967
  31
0
  0
LINE
  5
b8
  100
AcDbEntity
  8
SK1
  100
AcDbLine
  10
35.0736
  20
-0.281429
  30
0
  11
36.5186
  21
-1.72637
  31
0
  0
LINE
  5
b9
  100
AcDbEntity
  8
SK1
  100
AcDbLine
  10
35.1639
  20
-0.619147
  30
0
  11
36.1809
  21
-1.63613
  31
0
  0
LINE
  5
ba
  100
AcDbEntity
  8
SK1
  100
AcDbLine
  10
35.0514
  20
-0.044098
  30
0
  11
35.0955
  21
0
  31
0
  0
LINE
  5
bb
  100
AcDbEntity
  8
SK1
  100
AcDbLine
  10
35.072
  20
-0.270991
  30
0
  11
35.343
  21
0
  31
0
  0
LINE
  5
bc
  100
AcDbEntity
  8
SK1
  100
AcDbLine
  10
35.1163
  20
-0.474162
  30
0
  11
35.5905
  21
0
  31
0
  0
LINE
  5
bd
  100
AcDbEntity
  8
SK1
  100
AcDbLine
  10
35.1792
  20
-0.658762
  30
0
  11
35.8379
  21
0
  31
0
  0
LINE
  5
be
  100
AcDbEntity
  8
SK1
  100
AcDbLine
  10
35.2583
  20
-0.827105
  30
0
  11
36.0854
  21
0
  31
0
  0
LINE
  5
bf
  100
AcDbEntity
  8
SK1
  100
AcDbLine
  10
35.3519
  20
-0.981039
  30
0
  11
36.3329
  21
0
  31
0
  0
LINE
  5
c0
  100
AcDbEntity
  8
SK1
  100
AcDbLine
  10
35.4578
  20
-1.12257
  30
0
  11
36.5804
  21
0
  31
0
  0
LINE
  5
c1
  100
AcDbEntity
  8
SK1
  100
AcDbLine
  10
35.5771
  20
-1.25077
  30
0
  11
36.8
  21
-0.027896
  31
0
  0
LINE
  5
c2
  100
AcDbEntity
  8
SK1
  100
AcDbLine
  10
35.7084
  20
-1.36695
  30
0
  11
36.8
  21
-0.275383
  31
0
  0
LINE
  5
c3
  100
AcDbEntity
  8
SK1
  100
AcDbLine
  10
35.8522
  20
-1.47069
  30
0
  11
36.8
  21
-0.522871
  31
0
  0
LINE
  5
c4
  100
AcDbEntity
  8
SK1
  100
AcDbLine
  10
36.0099
  20
-1.5605
  30
0
  11
36.8
  21
-0.770358
  31
0
  0
LINE
  5
c5
  100
AcDbEntity
  8
SK1
  100
AcDbLine
  10
36.1815
  20
-1.63636
  30
0
  11
36.8
  21
-1.01785
  31
0
  0
LINE
  5
c6
  100
AcDbEntity
  8
SK1
  100
AcDbLine
  10
36.3693
  20
-1.69603
  30
0
  11
36.8
  21
-1.26533
  31
0
  0
LINE
  5
c7
  100
AcDbEntity
  8
SK1
  100
AcDbLine
  10
36.5772
  20
-1.73565
  30
0
  11
36.8
  21
-1.51282
  31
0
  0
LINE
  5
c8
  100
AcDbEntity
  8
SK1
  100
AcDbLine
  10
36.8
  20
0
  30
0
  11
35.05
  21
0
  31
0
  0
LINE
  5
c9
  100
AcDbEntity
  8
SK1
  100
AcDbLine
  10
36.8
  20
-1.75
  30
0
  11
36.8
  21
0
  31
0
  0
ARC
  5
ca
  100
AcDbEntity
  8
SK1
  100
AcDbCircle
  10
36.8
  20
0
  30
0
  40
1.75
  100
AcDbArc
  50
180
  51
270
  0
ARC
  5
cb
  100
AcDbEntity
  8
SK1
  100
AcDbCircle
  10
36.8
  20
0
  30
0
  40
1.75
  100
AcDbArc
  50
270
  51
0
  0
LINE
  5
146
  100
AcDbEntity
  8
NOCUT
  100
AcDbLine
  10
68
  20
0
  30
0
  11
68
  21
1.175
  31
0
  0
LINE
  5
147
  100
AcDbEntity
  8
NOCUT
  100
AcDbLine
  10
68
  20
1.175
  30
0
  11
40.63
  21
1.175
  31
0
  0
ARC
  5
148
  100
AcDbEntity
  8
NOCUT
  100
AcDbCircle
  10
40.717156
  20
2.171195
  30
0
  40
1
  100
AcDbArc
  50
255
  51
265
  0
LINE
  5
149
  100
AcDbEntity
  8
NOCUT
  100
AcDbLine
  10
40.458337
  20
1.205269
  30
0
  11
37.49236
  21
2
  31
0
  0
LINE
  5
14a
  100
AcDbEntity
  8
NOCUT
  100
AcDbLine
  10
37.49236
  20
2
  30
0
  11
36.8
  21
2
  31
0
  0
LINE
  5
14b
  100
AcDbEntity
  8
NOCUT
  100
AcDbLine
  10
36.8
  20
2
  30
0
  11
36.8
  21
0
  31
0
  0
LINE
  5
14c
  100
AcDbEntity
  8
NOCUT
  100
AcDbLine
  10
36.8
  20
0
  30
0
  11
68
  21
0
  31
0
  0
ARC
  5
14d
  100
AcDbEntity
  8
CUT
  100
AcDbCircle
  10
68.75
  20
0
  30
0
  40
1.25
  100
AcDbArc
  50
0
  51
90
  0
LINE
  5
14e
  100
AcDbEntity
  8
CUT
  100
AcDbLine
  10
68.75
  20
1.25
  30
0
  11
68
  21
1.25
  31
0
  0
LINE
  5
14f
  100
AcDbEntity
  8
CUT
  100
AcDbLine
  10
68
  20
1.25
  30
0
  11
68
  21
0
  31
0
  0
LINE
  5
150
  100
AcDbEntity
  8
CUT
  100
AcDbLine
  10
68
  20
0
  30
0
  11
70
  21
0
  31
0
  0
LINE
  5
151
  100
AcDbEntity
  8
4
  100
AcDbLine
  10
36.8
  20
0
  30
0
  11
70
  21
0
  31
0
  0
LINE
  5
152
  100
AcDbEntity
  8
SK4
  100
AcDbLine
  10
-1
  20
0
  30
0
  11
71
  21
0
  31
0
  0
LINE
  5
153
  100
AcDbEntity
  8
INFTOTAL
  100
AcDbLine
  10
-16.7
  20
23.7
  30
0
  11
86.7
  21
23.7
  31
0
  0
LINE
  5
154
  100
AcDbEntity
  8
INFTOTAL
  100
AcDbLine
  10
86.7
  20
23.7
  30
0
  11
86.7
  21
-18.7
  31
0
  0
LINE
  5
155
  100
AcDbEntity
  8
INFTOTAL
  100
AcDbLine
  10
86.7
  20
-18.7
  30
0
  11
-16.7
  21
-18.7
  31
0
  0
LINE
  5
156
  100
AcDbEntity
  8
INFTOTAL
  100
AcDbLine
  10
-16.7
  20
-18.7
  30
0
  11
-16.7
  21
23.7
  31
0
  0
ENDSEC
  0
SECTION
  2
OBJECTS
  0
DICTIONARY
  5
157
  330
0
100
AcDbDictionary
281
    1
  3
ACAD_GROUP
  350
158
  0
DICTIONARY
  5
158
102
{ACAD_REACTORS
  330
157
102
}
  330
157
100
AcDbDictionary
281
    1
  0
ENDSEC
  0
EOF
