  0
SECTION
  2
HEADER
  9
$ACADVER
  1
AC1015
  9
$DWGCODEPAGE
  3
ANSI_932
  9
$HANDSEED
  5
106AB90
  0
ENDSEC
  0
SECTION
  2
CLASSES
  0
CLASS
  1
IMAGEDEF
  2
AcDbRasterImageDef
  3
ISM
  90
0
  91
4
  280
0
  281
0
  0
CLASS
  1
IMAGE
  2
AcDbRasterImage
  3
ISM
  90
127
  91
5
  280
0
  281
1
  0
CLASS
  1
IMAGEDEF_REACTOR
  2
AcDbRasterImageDefReactor
  3
ISM
  90
1
  91
4
  280
0
  281
0
  0
ENDSEC
  0
SECTION
  2
TABLES
  0
TABLE
  2
VPORT
  5
2
  330
0
  100
AcDbSymbolTable
  70
    0
  0
ENDTAB
  0
TABLE
  2
LTYPE
  5
3
  330
0
  100
AcDbSymbolTable
  70
    4
  0
LTYPE
  5
4
  330
3
  100
AcDbSymbolTableRecord
  100
AcDbLinetypeTableRecord
  2
ByBlock
  70
    0
  3

  72
65
  73
    0
  40
0
  0
LTYPE
  5
5
  330
3
  100
AcDbSymbolTableRecord
  100
AcDbLinetypeTableRecord
  2
ByLayer
  70
    0
  3

  72
65
  73
    0
  40
0
  0
LTYPE
  5
6
  330
3
  100
AcDbSymbolTableRecord
  100
AcDbLinetypeTableRecord
  2
CONTINUOUS
  70
    0
  3
Solid Line
  72
65
  73
    0
  40
0
  0
LTYPE
  5
7
  330
3
  100
AcDbSymbolTableRecord
  100
AcDbLinetypeTableRecord
  2
DASH
  70
    0
  3
Hidden
  72
65
  73
2
  40
2.5
  49
1.5
  74
0
  49
-1
  74
0
  0
LTYPE
  5
8
  330
3
  100
AcDbSymbolTableRecord
  100
AcDbLinetypeTableRecord
  2
LONGDASHDASH
  70
    0
  3
__ . __
  72
65
  73
    4
  40
7
  49
4
  74
    0
  49
-1
  74
    0
  49
1
  74
    0
  49
-1
  74
    0
  0
ENDTAB
  0
TABLE
  2
LAYER
  5
9
  330
0
  100
AcDbSymbolTable
  70
    40
  0
LAYER
  5
a
  330
9
  100
AcDbSymbolTableRecord
  100
AcDbLayerTableRecord
  2
0
  70
    0
  62
    0
  6
CONTINUOUS
  390
0
  0
LAYER
  5
c
  330
9
  100
AcDbSymbolTableRecord
  100
AcDbLayerTableRecord
  2
1
  70
    0
  62
    4
  6
CONTINUOUS
  370
50
  390
0
  0
LAYER
  5
d
  330
9
  100
AcDbSymbolTableRecord
  100
AcDbLayerTableRecord
  2
2
  70
    0
  62
    7
  6
CONTINUOUS
  370
25
  390
0
  0
LAYER
  5
f
  330
9
  100
AcDbSymbolTableRecord
  100
AcDbLayerTableRecord
  2
4
  70
    0
  62
    2
  6
LONGDASHDASH
  370
25
  390
0
  0
LAYER
  5
13
  330
9
  100
AcDbSymbolTableRecord
  100
AcDbLayerTableRecord
  2
SK1
  70
    0
  62
    4
  6
CONTINUOUS
  370
50
  390
0
  0
LAYER
  5
14
  330
9
  100
AcDbSymbolTableRecord
  100
AcDbLayerTableRecord
  2
SK2
  70
    0
  62
    7
  6
CONTINUOUS
  370
25
  390
0
  0
LAYER
  5
16
  330
9
  100
AcDbSymbolTableRecord
  100
AcDbLayerTableRecord
  2
SK4
  70
    0
  62
    2
  6
LONGDASHDASH
  370
25
  390
0
  0
LAYER
  5
21
  330
9
  100
AcDbSymbolTableRecord
  100
AcDbLayerTableRecord
  2
NOCUT
  70
    0
  62
    7
  6
CONTINUOUS
  370
25
  390
0
  0
LAYER
  5
22
  330
9
  100
AcDbSymbolTableRecord
  100
AcDbLayerTableRecord
  2
CUT
  70
    0
  62
    1
  6
CONTINUOUS
  370
25
  390
0
  0
LAYER
  5
26
  330
9
  100
AcDbSymbolTableRecord
  100
AcDbLayerTableRecord
  2
INFTOTAL
  70
    0
  62
    9
  6
CONTINUOUS
  370
18
  390
0
  0
ENDTAB
  0
TABLE
  2
STYLE
  5
27
  330
0
  100
AcDbSymbolTable
  70
    1
  0
STYLE
  5
28
  330
27
  100
AcDbSymbolTableRecord
  100
AcDbTextStyleTableRecord
  2
Monospac821 BT
  70
    0
  40
    3.5
  41
1
  50
0
  71
0
  42
3
  3

  4

  1001
ACAD
  1000
Monospac821 BT
  1071
256
  0
ENDTAB
  0
TABLE
  2
VIEW
  5
29
  330
0
  100
AcDbSymbolTable
  70
    0
  0
ENDTAB
  0
TABLE
  2
UCS
  5
2a
  330
0
  100
AcDbSymbolTable
  70
    0
  0
ENDTAB
  0
TABLE
  2
APPID
  5
2b
  330
0
  100
AcDbSymbolTable
  70
    1
  0
APPID
  5
2c
  330
2b
  100
AcDbSymbolTableRecord
  100
AcDbRegAppTableRecord
  2
ACAD
  70
    0
  0
ENDTAB
  0
TABLE
  2
DIMSTYLE
  5
2d
  330
0
  100
AcDbSymbolTable
  70
    1
  100
AcDbDimStyleTable
  0
DIMSTYLE
  105
2e
  330
2d
  100
AcDbSymbolTableRecord
  100
AcDbDimStyleTableRecord
  2
STANDARD
  70
    0
  41
    3
  42
0.5
  44
1
  73
0
  77
1
  78
1
  140
3.5
  141
2.5
  143
0.03937
  147
0.8
  172
1
  174
1
  178
0
  179
1
  271
2
  279
1
  284
1
  340
28
  0
ENDTAB
  0
TABLE
  2
BLOCK_RECORD
  5
2f
  330
0
  100
AcDbSymbolTable
  70
    2
  0
BLOCK_RECORD
  5
30
  330
2f
  100
AcDbSymbolTableRecord
  100
AcDbBlockTableRecord
  2
*Model_Space
  0
BLOCK_RECORD
  5
31
  330
2f
  100
AcDbSymbolTableRecord
  100
AcDbBlockTableRecord
  2
*Paper_Space
  0
BLOCK_RECORD
  5
d9
  330
2f
  100
AcDbSymbolTableRecord
  100
AcDbBlockTableRecord
  2
*Dd8
  340
0
  0
BLOCK_RECORD
  5
e7
  330
2f
  100
AcDbSymbolTableRecord
  100
AcDbBlockTableRecord
  2
*De6
  340
0
  0
BLOCK_RECORD
  5
f5
  330
2f
  100
AcDbSymbolTableRecord
  100
AcDbBlockTableRecord
  2
*Df4
  340
0
  0
BLOCK_RECORD
  5
103
  330
2f
  100
AcDbSymbolTableRecord
  100
AcDbBlockTableRecord
  2
*D102
  340
0
  0
BLOCK_RECORD
  5
111
  330
2f
  100
AcDbSymbolTableRecord
  100
AcDbBlockTableRecord
  2
*D110
  340
0
  0
BLOCK_RECORD
  5
11b
  330
2f
  100
AcDbSymbolTableRecord
  100
AcDbBlockTableRecord
  2
*D11a
  340
0
  0
BLOCK_RECORD
  5
129
  330
2f
  100
AcDbSymbolTableRecord
  100
AcDbBlockTableRecord
  2
*D128
  340
0
  0
BLOCK_RECORD
  5
137
  330
2f
  100
AcDbSymbolTableRecord
  100
AcDbBlockTableRecord
  2
*D136
  340
0
  0
BLOCK_RECORD
  5
145
  330
2f
  100
AcDbSymbolTableRecord
  100
AcDbBlockTableRecord
  2
*D144
  340
0
  0
ENDTAB
  0
ENDSEC
  0
SECTION
  2
BLOCKS
  0
BLOCK
  5
32
  330
30
  100
AcDbEntity
  8
0
  100
AcDbBlockBegin
  2
*Model_Space
  70
    0
  10
0
  20
0
  30
0
  3
*Model_Space
  1

  0
ENDBLK
  5
33
  330
30
  100
AcDbEntity
  8
0
  100
AcDbBlockEnd
  0
BLOCK
  5
34
  330
31
  100
AcDbEntity
  8
0
  100
AcDbBlockBegin
  2
*Paper_Space
  70
    0
  10
0
  20
0
  30
0
  3
*Paper_Space
  1

  0
ENDBLK
  5
35
  330
31
  100
AcDbEntity
  8
0
  100
AcDbBlockEnd
  0
BLOCK
  5
d7
  330
d9
  100
AcDbEntity
  8
SK2
  100
AcDbBlockBegin
  2
*Dd8
  70
1
  10
0
  20
0
  30
0
  3
*Dd8
  1

  0
LINE
  5
da
  330
d9
  100
AcDbEntity
  8
SK2
  100
AcDbLine
  10
0
  20
2.3
  30
0
  11
0
  21
20
  31
0
  0
LINE
  5
db
  330
d9
  100
AcDbEntity
  8
SK2
  100
AcDbLine
  10
55
  20
-15
  30
0
  11
55
  21
20
  31
0
  0
LINE
  5
dc
  330
d9
  100
AcDbEntity
  8
SK2
  100
AcDbLine
  10
0
  20
18
  30
0
  11
55
  21
18
  31
0
  0
SOLID
  5
dd
  330
d9
  100
AcDbEntity
  8
SK2
  100
AcDbTrace
  10
0
  20
18
  30
0
  11
2.478612
  21
18.326315
  31
0
  12
2.478612
  22
17.673685
  32
0
  13
2.478612
  23
17.673685
  33
0
  0
SOLID
  5
de
  330
d9
  100
AcDbEntity
  8
SK2
  100
AcDbTrace
  10
55
  20
18
  30
0
  11
52.521388
  21
17.673685
  31
0
  12
52.521388
  22
18.326315
  32
0
  13
52.521388
  23
18.326315
  33
0
  0
MTEXT
  5
df
  330
d9
  100
AcDbEntity
  8
SK2
  100
AcDbMText
  10
27.5
  20
18
  30
0
  11
1
  21
0
  31
0
  40
2
  41
0
  71
8
  72
1
  1
55
  0
POINT
  5
e0
  330
d9
  100
AcDbEntity
  8
SK2
  62
0
  100
AcDbPoint
  10
0
  20
2.3
  30
0
  0
POINT
  5
e1
  330
d9
  100
AcDbEntity
  8
SK2
  62
0
  100
AcDbPoint
  10
55
  20
-15
  30
0
  0
POINT
  5
e2
  330
d9
  100
AcDbEntity
  8
SK2
  62
0
  100
AcDbPoint
  10
55
  20
18
  30
0
  0
ENDBLK
  5
e3
  330
d9
  100
AcDbEntity
  8
SK2
  100
AcDbBlockEnd
  0
BLOCK
  5
e5
  330
e7
  100
AcDbEntity
  8
SK2
  100
AcDbBlockBegin
  2
*De6
  70
1
  10
0
  20
0
  30
0
  3
*De6
  1

  0
LINE
  5
e8
  330
e7
  100
AcDbEntity
  8
SK2
  100
AcDbLine
  10
34
  20
3
  30
0
  11
34
  21
15
  31
0
  0
LINE
  5
e9
  330
e7
  100
AcDbEntity
  8
SK2
  100
AcDbLine
  10
0
  20
2.3
  30
0
  11
0
  21
20
  31
0
  0
LINE
  5
ea
  330
e7
  100
AcDbEntity
  8
SK2
  100
AcDbLine
  10
34
  20
13
  30
0
  11
0
  21
13
  31
0
  0
SOLID
  5
eb
  330
e7
  100
AcDbEntity
  8
SK2
  100
AcDbTrace
  10
34
  20
13
  30
0
  11
36.478612
  21
13.326315
  31
0
  12
36.478612
  22
12.673685
  32
0
  13
36.478612
  23
12.673685
  33
0
  0
SOLID
  5
ec
  330
e7
  100
AcDbEntity
  8
SK2
  100
AcDbTrace
  10
0
  20
13
  30
0
  11
-2.478612
  21
12.673685
  31
0
  12
-2.478612
  22
13.326315
  32
0
  13
-2.478612
  23
13.326315
  33
0
  0
MTEXT
  5
ed
  330
e7
  100
AcDbEntity
  8
SK2
  100
AcDbMText
  10
17
  20
13
  30
0
  11
1
  21
-0
  31
0
  40
2
  41
0
  71
8
  72
1
  1
34
  0
POINT
  5
ee
  330
e7
  100
AcDbEntity
  8
SK2
  62
0
  100
AcDbPoint
  10
34
  20
3
  30
0
  0
POINT
  5
ef
  330
e7
  100
AcDbEntity
  8
SK2
  62
0
  100
AcDbPoint
  10
0
  20
2.3
  30
0
  0
POINT
  5
f0
  330
e7
  100
AcDbEntity
  8
SK2
  62
0
  100
AcDbPoint
  10
0
  20
13
  30
0
  0
ENDBLK
  5
f1
  330
e7
  100
AcDbEntity
  8
SK2
  100
AcDbBlockEnd
  0
BLOCK
  5
f3
  330
f5
  100
AcDbEntity
  8
SK2
  100
AcDbBlockBegin
  2
*Df4
  70
1
  10
0
  20
0
  30
0
  3
*Df4
  1

  0
LINE
  5
f6
  330
f5
  100
AcDbEntity
  8
SK2
  100
AcDbLine
  10
0.7
  20
-3
  30
0
  11
-12
  21
-3
  31
0
  0
LINE
  5
f7
  330
f5
  100
AcDbEntity
  8
SK2
  100
AcDbLine
  10
0.7
  20
3
  30
0
  11
-12
  21
3
  31
0
  0
LINE
  5
f8
  330
f5
  100
AcDbEntity
  8
SK2
  100
AcDbLine
  10
-10
  20
-3
  30
0
  11
-10
  21
3
  31
0
  0
SOLID
  5
f9
  330
f5
  100
AcDbEntity
  8
SK2
  100
AcDbTrace
  10
-10
  20
-3
  30
0
  11
-10.326315
  21
-0.521388
  31
0
  12
-9.673685
  22
-0.521388
  32
0
  13
-9.673685
  23
-0.521388
  33
0
  0
SOLID
  5
fa
  330
f5
  100
AcDbEntity
  8
SK2
  100
AcDbTrace
  10
-10
  20
3
  30
0
  11
-9.673685
  21
0.521388
  31
0
  12
-10.326315
  22
0.521388
  32
0
  13
-10.326315
  23
0.521388
  33
0
  0
MTEXT
  5
fb
  330
f5
  100
AcDbEntity
  8
SK2
  100
AcDbMText
  10
-10
  20
0
  30
0
  11
0
  21
1
  31
0
  40
2
  41
0
  71
8
  72
1
  1
ﾘ6
  0
POINT
  5
fc
  330
f5
  100
AcDbEntity
  8
SK2
  62
0
  100
AcDbPoint
  10
0.7
  20
-3
  30
0
  0
POINT
  5
fd
  330
f5
  100
AcDbEntity
  8
SK2
  62
0
  100
AcDbPoint
  10
0.7
  20
3
  30
0
  0
POINT
  5
fe
  330
f5
  100
AcDbEntity
  8
SK2
  62
0
  100
AcDbPoint
  10
-10
  20
3
  30
0
  0
ENDBLK
  5
ff
  330
f5
  100
AcDbEntity
  8
SK2
  100
AcDbBlockEnd
  0
BLOCK
  5
101
  330
103
  100
AcDbEntity
  8
2
  100
AcDbBlockBegin
  2
*D102
  70
1
  10
0
  20
0
  30
0
  3
*D102
  1

  0
LINE
  5
104
  330
103
  100
AcDbEntity
  8
2
  100
AcDbLine
  10
53.5
  20
-1.5
  30
0
  11
67
  21
-1.5
  31
0
  0
LINE
  5
105
  330
103
  100
AcDbEntity
  8
2
  100
AcDbLine
  10
53.5
  20
1.5
  30
0
  11
67
  21
1.5
  31
0
  0
LINE
  5
106
  330
103
  100
AcDbEntity
  8
2
  100
AcDbLine
  10
65
  20
-4.158416
  30
0
  11
65
  21
1.5
  31
0
  0
SOLID
  5
107
  330
103
  100
AcDbEntity
  8
2
  100
AcDbTrace
  10
65
  20
-1.5
  30
0
  11
64.673685
  21
0.978612
  31
0
  12
65.326315
  22
0.978612
  32
0
  13
65.326315
  23
0.978612
  33
0
  0
SOLID
  5
108
  330
103
  100
AcDbEntity
  8
2
  100
AcDbTrace
  10
65
  20
1.5
  30
0
  11
65.326315
  21
-0.978612
  31
0
  12
64.673685
  22
-0.978612
  32
0
  13
64.673685
  23
-0.978612
  33
0
  0
MTEXT
  5
109
  330
103
  100
AcDbEntity
  8
2
  100
AcDbMText
  10
65
  20
0
  30
0
  11
0
  21
1
  31
0
  40
2
  41
0
  71
8
  72
1
  1
ﾘ3
  0
POINT
  5
10a
  330
103
  100
AcDbEntity
  8
2
  62
0
  100
AcDbPoint
  10
53.5
  20
-1.5
  30
0
  0
POINT
  5
10b
  330
103
  100
AcDbEntity
  8
2
  62
0
  100
AcDbPoint
  10
53.5
  20
1.5
  30
0
  0
POINT
  5
10c
  330
103
  100
AcDbEntity
  8
2
  62
0
  100
AcDbPoint
  10
65
  20
1.5
  30
0
  0
ENDBLK
  5
10d
  330
103
  100
AcDbEntity
  8
2
  100
AcDbBlockEnd
  0
BLOCK
  5
10f
  330
111
  100
AcDbEntity
  8
2
  100
AcDbBlockBegin
  2
*D110
  70
1
  10
0
  20
0
  30
0
  3
*D110
  1

  0
LINE
  5
112
  330
111
  100
AcDbEntity
  8
2
  100
AcDbLine
  10
52.025371
  20
-1.474629
  30
0
  11
61.631728
  21
8.131728
  31
0
  0
MTEXT
  5
113
  330
111
  100
AcDbEntity
  8
2
  100
AcDbMText
  10
54.56066
  20
1.06066
  30
0
  11
0.707107
  21
0.707107
  31
0
  40
2
  41
0
  71
8
  72
1
  1
R1.5
  0
SOLID
  5
114
  330
111
  100
AcDbEntity
  8
2
  100
AcDbTrace
  10
54.56066
  20
1.06066
  30
0
  11
56.082564
  21
3.044044
  31
0
  12
56.544044
  22
2.582564
  32
0
  13
56.544044
  23
2.582564
  33
0
  0
POINT
  5
115
  330
111
  100
AcDbEntity
  8
2
  62
0
  100
AcDbPoint
  10
52.025371
  20
-1.474629
  30
0
  0
POINT
  5
116
  330
111
  100
AcDbEntity
  8
2
  62
0
  100
AcDbPoint
  10
53.5
  20
0
  30
0
  0
ENDBLK
  5
117
  330
111
  100
AcDbEntity
  8
2
  100
AcDbBlockEnd
  0
BLOCK
  5
119
  330
11b
  100
AcDbEntity
  8
2
  100
AcDbBlockBegin
  2
*D11a
  70
1
  10
0
  20
0
  30
0
  3
*D11a
  1

  0
LINE
  5
11c
  330
11b
  100
AcDbEntity
  8
2
  100
AcDbLine
  10
52.6
  20
-1.425
  30
0
  11
50.6
  21
-1.425
  31
0
  0
LINE
  5
11d
  330
11b
  100
AcDbEntity
  8
2
  100
AcDbLine
  10
52.6
  20
1.425
  30
0
  11
50.6
  21
1.425
  31
0
  0
LINE
  5
11e
  330
11b
  100
AcDbEntity
  8
2
  100
AcDbLine
  10
52.6
  20
-1.425
  30
0
  11
52.6
  21
9.876238
  31
0
  0
SOLID
  5
11f
  330
11b
  100
AcDbEntity
  8
2
  100
AcDbTrace
  10
52.6
  20
-1.425
  30
0
  11
52.273685
  21
1.053612
  31
0
  12
52.926315
  22
1.053612
  32
0
  13
52.926315
  23
1.053612
  33
0
  0
SOLID
  5
120
  330
11b
  100
AcDbEntity
  8
2
  100
AcDbTrace
  10
52.6
  20
1.425
  30
0
  11
52.926315
  21
-1.053612
  31
0
  12
52.273685
  22
-1.053612
  32
0
  13
52.273685
  23
-1.053612
  33
0
  0
MTEXT
  5
121
  330
11b
  100
AcDbEntity
  8
2
  100
AcDbMText
  10
52.6
  20
1.425
  30
0
  11
0
  21
1
  31
0
  40
2
  41
0
  71
8
  72
1
  1
ﾘ2.85
  0
POINT
  5
122
  330
11b
  100
AcDbEntity
  8
2
  62
0
  100
AcDbPoint
  10
50.6
  20
-1.425
  30
0
  0
POINT
  5
123
  330
11b
  100
AcDbEntity
  8
2
  62
0
  100
AcDbPoint
  10
50.6
  20
1.425
  30
0
  0
POINT
  5
124
  330
11b
  100
AcDbEntity
  8
2
  62
0
  100
AcDbPoint
  10
52.6
  20
9.876238
  30
0
  0
ENDBLK
  5
125
  330
11b
  100
AcDbEntity
  8
2
  100
AcDbBlockEnd
  0
BLOCK
  5
127
  330
129
  100
AcDbEntity
  8
2
  100
AcDbBlockBegin
  2
*D128
  70
1
  10
0
  20
0
  30
0
  3
*D128
  1

  0
LINE
  5
12a
  330
129
  100
AcDbEntity
  8
2
  100
AcDbLine
  10
52.6
  20
1.425
  30
0
  11
52.6
  21
9
  31
0
  0
LINE
  5
12b
  330
129
  100
AcDbEntity
  8
2
  100
AcDbLine
  10
40.63
  20
1.425
  30
0
  11
40.63
  21
9
  31
0
  0
LINE
  5
12c
  330
129
  100
AcDbEntity
  8
2
  100
AcDbLine
  10
55.488861
  20
7
  30
0
  11
40.63
  21
7
  31
0
  0
SOLID
  5
12d
  330
129
  100
AcDbEntity
  8
2
  100
AcDbTrace
  10
52.6
  20
7
  30
0
  11
55.078612
  21
7.326315
  31
0
  12
55.078612
  22
6.673685
  32
0
  13
55.078612
  23
6.673685
  33
0
  0
SOLID
  5
12e
  330
129
  100
AcDbEntity
  8
2
  100
AcDbTrace
  10
40.63
  20
7
  30
0
  11
38.151388
  21
6.673685
  31
0
  12
38.151388
  22
7.326315
  32
0
  13
38.151388
  23
7.326315
  33
0
  0
MTEXT
  5
12f
  330
129
  100
AcDbEntity
  8
2
  100
AcDbMText
  10
51.384884
  20
7
  30
0
  11
1
  21
-0
  31
0
  40
2
  41
0
  71
8
  72
1
  1
11.97
  0
POINT
  5
130
  330
129
  100
AcDbEntity
  8
2
  62
0
  100
AcDbPoint
  10
52.6
  20
1.425
  30
0
  0
POINT
  5
131
  330
129
  100
AcDbEntity
  8
2
  62
0
  100
AcDbPoint
  10
40.63
  20
1.425
  30
0
  0
POINT
  5
132
  330
129
  100
AcDbEntity
  8
2
  62
0
  100
AcDbPoint
  10
40.63
  20
7
  30
0
  0
ENDBLK
  5
133
  330
129
  100
AcDbEntity
  8
2
  100
AcDbBlockEnd
  0
BLOCK
  5
135
  330
137
  100
AcDbEntity
  8
2
  100
AcDbBlockBegin
  2
*D136
  70
1
  10
0
  20
0
  30
0
  3
*D136
  1

  0
LINE
  5
138
  330
137
  100
AcDbEntity
  8
2
  100
AcDbLine
  10
55
  20
-15
  30
0
  11
55
  21
20
  31
0
  0
LINE
  5
139
  330
137
  100
AcDbEntity
  8
2
  100
AcDbLine
  10
34
  20
3
  30
0
  11
34
  21
10
  31
0
  0
LINE
  5
13a
  330
137
  100
AcDbEntity
  8
2
  100
AcDbLine
  10
55
  20
8
  30
0
  11
34
  21
8
  31
0
  0
SOLID
  5
13b
  330
137
  100
AcDbEntity
  8
2
  100
AcDbTrace
  10
55
  20
8
  30
0
  11
57.478612
  21
8.326315
  31
0
  12
57.478612
  22
7.673685
  32
0
  13
57.478612
  23
7.673685
  33
0
  0
SOLID
  5
13c
  330
137
  100
AcDbEntity
  8
2
  100
AcDbTrace
  10
34
  20
8
  30
0
  11
31.521388
  21
7.673685
  31
0
  12
31.521388
  22
8.326315
  32
0
  13
31.521388
  23
8.326315
  33
0
  0
MTEXT
  5
13d
  330
137
  100
AcDbEntity
  8
2
  100
AcDbMText
  10
44.5
  20
8
  30
0
  11
1
  21
-0
  31
0
  40
2
  41
0
  71
8
  72
1
  1
21
  0
POINT
  5
13e
  330
137
  100
AcDbEntity
  8
2
  62
0
  100
AcDbPoint
  10
55
  20
-15
  30
0
  0
POINT
  5
13f
  330
137
  100
AcDbEntity
  8
2
  62
0
  100
AcDbPoint
  10
34
  20
3
  30
0
  0
POINT
  5
140
  330
137
  100
AcDbEntity
  8
2
  62
0
  100
AcDbPoint
  10
34
  20
8
  30
0
  0
ENDBLK
  5
141
  330
137
  100
AcDbEntity
  8
2
  100
AcDbBlockEnd
  0
BLOCK
  5
143
  330
145
  100
AcDbEntity
  8
2
  100
AcDbBlockBegin
  2
*D144
  70
1
  10
0
  20
0
  30
0
  3
*D144
  1

  0
LINE
  5
146
  330
145
  100
AcDbEntity
  8
2
  100
AcDbLine
  10
52.6
  20
-1.425
  30
0
  11
52.6
  21
-15
  31
0
  0
LINE
  5
147
  330
145
  100
AcDbEntity
  8
2
  100
AcDbLine
  10
55
  20
-15
  30
0
  11
55
  21
20
  31
0
  0
LINE
  5
148
  330
145
  100
AcDbEntity
  8
2
  100
AcDbLine
  10
49.251238
  20
-13
  30
0
  11
55
  21
-13
  31
0
  0
SOLID
  5
149
  330
145
  100
AcDbEntity
  8
2
  100
AcDbTrace
  10
52.6
  20
-13
  30
0
  11
55.078612
  21
-12.673685
  31
0
  12
55.078612
  22
-13.326315
  32
0
  13
55.078612
  23
-13.326315
  33
0
  0
SOLID
  5
14a
  330
145
  100
AcDbEntity
  8
2
  100
AcDbTrace
  10
55
  20
-13
  30
0
  11
52.521388
  21
-13.326315
  31
0
  12
52.521388
  22
-12.673685
  32
0
  13
52.521388
  23
-12.673685
  33
0
  0
MTEXT
  5
14b
  330
145
  100
AcDbEntity
  8
2
  100
AcDbMText
  10
53.8
  20
-13
  30
0
  11
1
  21
0
  31
0
  40
2
  41
0
  71
8
  72
1
  1
2.4
  0
POINT
  5
14c
  330
145
  100
AcDbEntity
  8
2
  62
0
  100
AcDbPoint
  10
52.6
  20
-1.425
  30
0
  0
POINT
  5
14d
  330
145
  100
AcDbEntity
  8
2
  62
0
  100
AcDbPoint
  10
55
  20
20
  30
0
  0
POINT
  5
14e
  330
145
  100
AcDbEntity
  8
2
  62
0
  100
AcDbPoint
  10
55
  20
-13
  30
0
  0
ENDBLK
  5
14f
  330
145
  100
AcDbEntity
  8
2
  100
AcDbBlockEnd
  0
ENDSEC
  0
SECTION
  2
ENTITIES
  0
DIMENSION
  5
e4
  100
AcDbEntity
  8
SK2
  100
AcDbDimension
  2
*Dd8
  10
55
  20
18
  30
0
  11
27.5
  21
18
  31
0
  70
160
  1
<>
  71
5
  3
STANDARD
  42
55
  100
AcDbAlignedDimension
  13
0
  23
2.3
  33
0
  14
55
  24
-15
  34
0
  50
0
  100
AcDbRotatedDimension
  0
DIMENSION
  5
f2
  100
AcDbEntity
  8
SK2
  100
AcDbDimension
  2
*De6
  10
0
  20
13
  30
0
  11
17
  21
13
  31
0
  70
160
  1
<>
  71
5
  3
STANDARD
  42
34
  100
AcDbAlignedDimension
  13
34
  23
3
  33
0
  14
0
  24
2.3
  34
0
  50
0
  100
AcDbRotatedDimension
  0
DIMENSION
  5
100
  100
AcDbEntity
  8
SK2
  100
AcDbDimension
  2
*Df4
  10
-10
  20
3
  30
0
  11
-10
  21
0
  31
0
  70
160
  1
%%c<>
  71
5
  3
STANDARD
  42
6
  100
AcDbAlignedDimension
  13
0.7
  23
-3
  33
0
  14
0.7
  24
3
  34
0
  50
-90
  100
AcDbRotatedDimension
  0
DIMENSION
  5
10e
  100
AcDbEntity
  8
2
  100
AcDbDimension
  2
*D102
  10
65
  20
1.5
  30
0
  11
65
  21
0
  31
0
  70
160
  1
%%c<>
  71
5
  3
STANDARD
  42
3
  100
AcDbAlignedDimension
  13
53.5
  23
-1.5
  33
0
  14
53.5
  24
1.5
  34
0
  50
-90
  100
AcDbRotatedDimension
  0
DIMENSION
  5
118
  100
AcDbEntity
  8
2
  100
AcDbDimension
  2
*D110
  10
53.5
  20
0
  30
0
  11
54.56066
  21
1.06066
  31
0
  70
164
  1
R1.5
  71
5
  3
STANDARD
  100
AcDbRadialDimension
  15
54.56066
  25
1.06066
  35
0
  50
45
  0
DIMENSION
  5
126
  100
AcDbEntity
  8
2
  100
AcDbDimension
  2
*D11a
  10
52.6
  20
9.876238
  30
0
  11
52.6
  21
1.425
  31
0
  70
160
  1
%%c<>
  71
5
  3
STANDARD
  42
2.85
  100
AcDbAlignedDimension
  13
50.6
  23
-1.425
  33
0
  14
50.6
  24
1.425
  34
0
  50
-90
  100
AcDbRotatedDimension
  0
DIMENSION
  5
134
  100
AcDbEntity
  8
2
  100
AcDbDimension
  2
*D128
  10
40.63
  20
7
  30
0
  11
51.384884
  21
7
  31
0
  70
160
  1
<>
  71
5
  3
STANDARD
  42
11.97
  100
AcDbAlignedDimension
  13
52.6
  23
1.425
  33
0
  14
40.63
  24
1.425
  34
0
  50
0
  100
AcDbRotatedDimension
  0
DIMENSION
  5
142
  100
AcDbEntity
  8
2
  100
AcDbDimension
  2
*D136
  10
34
  20
8
  30
0
  11
44.5
  21
8
  31
0
  70
160
  1
<>
  71
5
  3
STANDARD
  42
21
  100
AcDbAlignedDimension
  13
55
  23
-15
  33
0
  14
34
  24
3
  34
0
  50
0
  100
AcDbRotatedDimension
  0
DIMENSION
  5
150
  100
AcDbEntity
  8
2
  100
AcDbDimension
  2
*D144
  10
55
  20
-13
  30
0
  11
53.8
  21
-13
  31
0
  70
160
  1
<>
  71
5
  3
STANDARD
  42
2.4
  100
AcDbAlignedDimension
  13
52.6
  23
-1.425
  33
0
  14
55
  24
20
  34
0
  50
0
  100
AcDbRotatedDimension
  0
ARC
  5
36
  100
AcDbEntity
  8
1
  100
AcDbCircle
  10
40.717156
  20
-2.421195
  30
0
  40
1
  100
AcDbArc
  50
95
  51
105
  0
LINE
  5
37
  100
AcDbEntity
  8
1
  100
AcDbLine
  10
40.63
  20
-1.425
  30
0
  11
52.6
  21
-1.425
  31
0
  0
LINE
  5
38
  100
AcDbEntity
  8
1
  100
AcDbLine
  10
52.6
  20
-1.425
  30
0
  11
52.6
  21
-1.5
  31
0
  0
LINE
  5
39
  100
AcDbEntity
  8
1
  100
AcDbLine
  10
52.6
  20
-1.5
  30
0
  11
53.5
  21
-1.5
  31
0
  0
ARC
  5
3a
  100
AcDbEntity
  8
1
  100
AcDbCircle
  10
53.5
  20
0
  30
0
  40
1.5
  100
AcDbArc
  50
270
  51
0
  0
ARC
  5
3b
  100
AcDbEntity
  8
1
  100
AcDbCircle
  10
53.5
  20
0
  30
0
  40
1.5
  100
AcDbArc
  50
0
  51
90
  0
LINE
  5
3c
  100
AcDbEntity
  8
1
  100
AcDbLine
  10
53.5
  20
1.5
  30
0
  11
52.6
  21
1.5
  31
0
  0
LINE
  5
3d
  100
AcDbEntity
  8
1
  100
AcDbLine
  10
52.6
  20
1.5
  30
0
  11
52.6
  21
1.425
  31
0
  0
LINE
  5
3e
  100
AcDbEntity
  8
1
  100
AcDbLine
  10
52.6
  20
1.425
  30
0
  11
40.63
  21
1.425
  31
0
  0
ARC
  5
3f
  100
AcDbEntity
  8
1
  100
AcDbCircle
  10
40.717156
  20
2.421195
  30
0
  40
1
  100
AcDbArc
  50
255
  51
265
  0
LINE
  5
40
  100
AcDbEntity
  8
1
  100
AcDbLine
  10
40.458337
  20
1.455269
  30
0
  11
34.693322
  21
3
  31
0
  0
LINE
  5
41
  100
AcDbEntity
  8
1
  100
AcDbLine
  10
34.693322
  20
3
  30
0
  11
34
  21
3
  31
0
  0
LINE
  5
42
  100
AcDbEntity
  8
1
  100
AcDbLine
  10
34
  20
3
  30
0
  11
34
  21
-3
  31
0
  0
LINE
  5
43
  100
AcDbEntity
  8
1
  100
AcDbLine
  10
34
  20
-3
  30
0
  11
34.693322
  21
-3
  31
0
  0
LINE
  5
44
  100
AcDbEntity
  8
1
  100
AcDbLine
  10
34.693322
  20
-3
  30
0
  11
40.458337
  21
-1.455269
  31
0
  0
LINE
  5
45
  100
AcDbEntity
  8
1
  100
AcDbLine
  10
34
  20
-3
  30
0
  11
34
  21
3
  31
0
  0
LINE
  5
46
  100
AcDbEntity
  8
1
  100
AcDbLine
  10
34
  20
3
  30
0
  11
34
  21
-3
  31
0
  0
LINE
  5
47
  100
AcDbEntity
  8
1
  100
AcDbLine
  10
34.693322
  20
-3
  30
0
  11
34.693322
  21
3
  31
0
  0
LINE
  5
48
  100
AcDbEntity
  8
1
  100
AcDbLine
  10
40.458337
  20
1.455269
  30
0
  11
40.458337
  21
-1.455269
  31
0
  0
LINE
  5
49
  100
AcDbEntity
  8
1
  100
AcDbLine
  10
40.63
  20
-1.425
  30
0
  11
40.63
  21
1.425
  31
0
  0
LINE
  5
4a
  100
AcDbEntity
  8
1
  100
AcDbLine
  10
53.5
  20
1.5
  30
0
  11
53.5
  21
-1.5
  31
0
  0
LINE
  5
4b
  100
AcDbEntity
  8
1
  100
AcDbLine
  10
52.7
  20
-0.818781
  30
0
  11
52.8
  21
-0.865679
  31
0
  0
LINE
  5
4c
  100
AcDbEntity
  8
1
  100
AcDbLine
  10
52.8
  20
-0.865679
  30
0
  11
52.9
  21
-0.911294
  31
0
  0
LINE
  5
4d
  100
AcDbEntity
  8
1
  100
AcDbLine
  10
52.9
  20
-0.911294
  30
0
  11
53
  21
-0.955559
  31
0
  0
LINE
  5
4e
  100
AcDbEntity
  8
1
  100
AcDbLine
  10
53
  20
-0.955559
  30
0
  11
53.1
  21
-0.998408
  31
0
  0
LINE
  5
4f
  100
AcDbEntity
  8
1
  100
AcDbLine
  10
53.1
  20
-0.998408
  30
0
  11
53.2
  21
-1.039779
  31
0
  0
LINE
  5
50
  100
AcDbEntity
  8
1
  100
AcDbLine
  10
53.2
  20
-1.039779
  30
0
  11
53.3
  21
-1.079609
  31
0
  0
LINE
  5
51
  100
AcDbEntity
  8
1
  100
AcDbLine
  10
53.3
  20
-1.079609
  30
0
  11
53.4
  21
-1.11784
  31
0
  0
LINE
  5
52
  100
AcDbEntity
  8
1
  100
AcDbLine
  10
53.4
  20
-1.11784
  30
0
  11
53.5
  21
-1.154415
  31
0
  0
LINE
  5
53
  100
AcDbEntity
  8
1
  100
AcDbLine
  10
53.5
  20
-1.154415
  30
0
  11
53.6
  21
-1.18614
  31
0
  0
LINE
  5
54
  100
AcDbEntity
  8
1
  100
AcDbLine
  10
53.6
  20
-1.18614
  30
0
  11
53.7
  21
-1.209581
  31
0
  0
LINE
  5
55
  100
AcDbEntity
  8
1
  100
AcDbLine
  10
53.7
  20
-1.209581
  30
0
  11
53.8
  21
-1.224293
  31
0
  0
LINE
  5
56
  100
AcDbEntity
  8
1
  100
AcDbLine
  10
53.8
  20
-1.224293
  30
0
  11
53.9
  21
-1.229783
  31
0
  0
LINE
  5
57
  100
AcDbEntity
  8
1
  100
AcDbLine
  10
53.9
  20
-1.229783
  30
0
  11
54
  21
-1.225479
  31
0
  0
LINE
  5
58
  100
AcDbEntity
  8
1
  100
AcDbLine
  10
54
  20
-1.225479
  30
0
  11
54.1
  21
-1.210705
  31
0
  0
LINE
  5
59
  100
AcDbEntity
  8
1
  100
AcDbLine
  10
54.1
  20
-1.210705
  30
0
  11
54.2
  21
-1.184621
  31
0
  0
LINE
  5
5a
  100
AcDbEntity
  8
1
  100
AcDbLine
  10
54.2
  20
-1.184621
  30
0
  11
54.3
  21
-1.146135
  31
0
  0
LINE
  5
5b
  100
AcDbEntity
  8
1
  100
AcDbLine
  10
54.3
  20
-1.146135
  30
0
  11
54.4
  21
-1.093756
  31
0
  0
LINE
  5
5c
  100
AcDbEntity
  8
1
  100
AcDbLine
  10
54.4
  20
-1.093756
  30
0
  11
54.5
  21
-1.025314
  31
0
  0
LINE
  5
5d
  100
AcDbEntity
  8
1
  100
AcDbLine
  10
54.5
  20
-1.025314
  30
0
  11
54.6
  21
-0.938741
  31
0
  0
LINE
  5
5e
  100
AcDbEntity
  8
1
  100
AcDbLine
  10
54.6
  20
-0.938741
  30
0
  11
54.7
  21
-0.840149
  31
0
  0
LINE
  5
5f
  100
AcDbEntity
  8
1
  100
AcDbLine
  10
54.7
  20
-0.888952
  30
0
  11
54.7
  21
-0.9
  31
0
  0
LINE
  5
60
  100
AcDbEntity
  8
1
  100
AcDbLine
  10
54.7
  20
-0.9
  30
0
  11
54.7
  21
-0.888952
  31
0
  0
LINE
  5
61
  100
AcDbEntity
  8
1
  100
AcDbLine
  10
54.7
  20
-0.888952
  30
0
  11
54.6
  21
-0.995945
  31
0
  0
LINE
  5
62
  100
AcDbEntity
  8
1
  100
AcDbLine
  10
54.6
  20
-0.995945
  30
0
  11
54.5
  21
-1.085817
  31
0
  0
LINE
  5
63
  100
AcDbEntity
  8
1
  100
AcDbLine
  10
54.5
  20
-1.085817
  30
0
  11
54.4
  21
-1.157743
  31
0
  0
LINE
  5
64
  100
AcDbEntity
  8
1
  100
AcDbLine
  10
54.4
  20
-1.157743
  30
0
  11
54.3
  21
-1.214016
  31
0
  0
LINE
  5
65
  100
AcDbEntity
  8
1
  100
AcDbLine
  10
54.3
  20
-1.214016
  30
0
  11
54.2
  21
-1.256645
  31
0
  0
LINE
  5
66
  100
AcDbEntity
  8
1
  100
AcDbLine
  10
54.2
  20
-1.256645
  30
0
  11
54.1
  21
-1.287021
  31
0
  0
LINE
  5
67
  100
AcDbEntity
  8
1
  100
AcDbLine
  10
54.1
  20
-1.287021
  30
0
  11
54
  21
-1.306167
  31
0
  0
LINE
  5
68
  100
AcDbEntity
  8
1
  100
AcDbLine
  10
54
  20
-1.306167
  30
0
  11
53.9
  21
-1.314875
  31
0
  0
LINE
  5
69
  100
AcDbEntity
  8
1
  100
AcDbLine
  10
53.9
  20
-1.314875
  30
0
  11
53.8
  21
-1.31379
  31
0
  0
LINE
  5
6a
  100
AcDbEntity
  8
1
  100
AcDbLine
  10
53.8
  20
-1.31379
  30
0
  11
53.7
  21
-1.303452
  31
0
  0
LINE
  5
6b
  100
AcDbEntity
  8
1
  100
AcDbLine
  10
53.7
  20
-1.303452
  30
0
  11
53.6
  21
-1.284336
  31
0
  0
LINE
  5
6c
  100
AcDbEntity
  8
1
  100
AcDbLine
  10
53.6
  20
-1.284336
  30
0
  11
53.5
  21
-1.256868
  31
0
  0
LINE
  5
6d
  100
AcDbEntity
  8
1
  100
AcDbLine
  10
53.5
  20
-1.256868
  30
0
  11
53.4
  21
-1.224433
  31
0
  0
LINE
  5
6e
  100
AcDbEntity
  8
1
  100
AcDbLine
  10
53.4
  20
-1.224433
  30
0
  11
53.3
  21
-1.190184
  31
0
  0
LINE
  5
6f
  100
AcDbEntity
  8
1
  100
AcDbLine
  10
53.3
  20
-1.190184
  30
0
  11
53.2
  21
-1.154172
  31
0
  0
LINE
  5
70
  100
AcDbEntity
  8
1
  100
AcDbLine
  10
53.2
  20
-1.154172
  30
0
  11
53.1
  21
-1.11645
  31
0
  0
LINE
  5
71
  100
AcDbEntity
  8
1
  100
AcDbLine
  10
53.1
  20
-1.11645
  30
0
  11
53
  21
-1.077074
  31
0
  0
LINE
  5
72
  100
AcDbEntity
  8
1
  100
AcDbLine
  10
53
  20
-1.077074
  30
0
  11
52.9
  21
-1.036104
  31
0
  0
LINE
  5
73
  100
AcDbEntity
  8
1
  100
AcDbLine
  10
52.9
  20
-1.036104
  30
0
  11
52.8
  21
-0.993598
  31
0
  0
LINE
  5
74
  100
AcDbEntity
  8
1
  100
AcDbLine
  10
52.8
  20
-0.993598
  30
0
  11
52.7
  21
-0.94962
  31
0
  0
LINE
  5
75
  100
AcDbEntity
  8
1
  100
AcDbLine
  10
52.7
  20
-0.94962
  30
0
  11
52.6
  21
-0.904236
  31
0
  0
LINE
  5
76
  100
AcDbEntity
  8
1
  100
AcDbLine
  10
52.6
  20
-0.904236
  30
0
  11
52.6
  21
-0.850586
  31
0
  0
LINE
  5
77
  100
AcDbEntity
  8
1
  100
AcDbLine
  10
52.6
  20
-0.850586
  30
0
  11
52.5
  21
-0.805964
  31
0
  0
LINE
  5
78
  100
AcDbEntity
  8
1
  100
AcDbLine
  10
52.5
  20
-0.805964
  30
0
  11
52.4
  21
-0.770234
  31
0
  0
LINE
  5
79
  100
AcDbEntity
  8
1
  100
AcDbLine
  10
52.4
  20
-0.770234
  30
0
  11
52.304802
  21
-1.425
  31
0
  0
LINE
  5
7a
  100
AcDbEntity
  8
1
  100
AcDbLine
  10
52.6
  20
-1.425
  30
0
  11
52.6
  21
1.425
  31
0
  0
LINE
  5
7b
  100
AcDbEntity
  8
1
  100
AcDbLine
  10
52.6
  20
1.5
  30
0
  11
52.6
  21
-1.5
  31
0
  0
LINE
  5
7c
  100
AcDbEntity
  8
1
  100
AcDbLine
  10
52.304802
  20
1.425
  30
0
  11
52.3
  21
1.423716
  31
0
  0
LINE
  5
7d
  100
AcDbEntity
  8
1
  100
AcDbLine
  10
52.3
  20
1.423716
  30
0
  11
52.3
  21
1.42099
  31
0
  0
LINE
  5
7e
  100
AcDbEntity
  8
1
  100
AcDbLine
  10
52.3
  20
1.42099
  30
0
  11
52.4
  21
-0.065075
  31
0
  0
LINE
  5
7f
  100
AcDbEntity
  8
1
  100
AcDbLine
  10
52.4
  20
-0.065075
  30
0
  11
52.5
  21
-0.320089
  31
0
  0
LINE
  5
80
  100
AcDbEntity
  8
1
  100
AcDbLine
  10
52.5
  20
-0.320089
  30
0
  11
52.6
  21
-0.376392
  31
0
  0
LINE
  5
81
  100
AcDbEntity
  8
1
  100
AcDbLine
  10
52.6
  20
-0.376392
  30
0
  11
52.6
  21
-0.44037
  31
0
  0
LINE
  5
82
  100
AcDbEntity
  8
1
  100
AcDbLine
  10
52.6
  20
-0.44037
  30
0
  11
52.7
  21
-0.495222
  31
0
  0
LINE
  5
83
  100
AcDbEntity
  8
1
  100
AcDbLine
  10
52.7
  20
-0.495222
  30
0
  11
52.8
  21
-0.549339
  31
0
  0
LINE
  5
84
  100
AcDbEntity
  8
1
  100
AcDbLine
  10
52.8
  20
-0.549339
  30
0
  11
52.9
  21
-0.602643
  31
0
  0
LINE
  5
85
  100
AcDbEntity
  8
1
  100
AcDbLine
  10
52.9
  20
-0.602643
  30
0
  11
53
  21
-0.655054
  31
0
  0
LINE
  5
86
  100
AcDbEntity
  8
1
  100
AcDbLine
  10
53
  20
-0.655054
  30
0
  11
53.1
  21
-0.706495
  31
0
  0
LINE
  5
87
  100
AcDbEntity
  8
1
  100
AcDbLine
  10
53.1
  20
-0.706495
  30
0
  11
53.2
  21
-0.756889
  31
0
  0
LINE
  5
88
  100
AcDbEntity
  8
1
  100
AcDbLine
  10
53.2
  20
-0.756889
  30
0
  11
53.3
  21
-0.806162
  31
0
  0
LINE
  5
89
  100
AcDbEntity
  8
1
  100
AcDbLine
  10
53.3
  20
-0.806162
  30
0
  11
53.4
  21
-0.854241
  31
0
  0
LINE
  5
8a
  100
AcDbEntity
  8
1
  100
AcDbLine
  10
53.4
  20
-0.854241
  30
0
  11
53.5
  21
-0.901055
  31
0
  0
LINE
  5
8b
  100
AcDbEntity
  8
1
  100
AcDbLine
  10
53.5
  20
-0.901055
  30
0
  11
53.6
  21
-0.942932
  31
0
  0
LINE
  5
8c
  100
AcDbEntity
  8
1
  100
AcDbLine
  10
53.6
  20
-0.942932
  30
0
  11
53.7
  21
-0.975937
  31
0
  0
LINE
  5
8d
  100
AcDbEntity
  8
1
  100
AcDbLine
  10
53.7
  20
-0.975937
  30
0
  11
53.8
  21
-0.999543
  31
0
  0
LINE
  5
8e
  100
AcDbEntity
  8
1
  100
AcDbLine
  10
53.8
  20
-0.999543
  30
0
  11
53.9
  21
-1.013125
  31
0
  0
LINE
  5
8f
  100
AcDbEntity
  8
1
  100
AcDbLine
  10
53.9
  20
-1.013125
  30
0
  11
54
  21
-1.015912
  31
0
  0
LINE
  5
90
  100
AcDbEntity
  8
1
  100
AcDbLine
  10
54
  20
-1.015912
  30
0
  11
54.1
  21
-1.006921
  31
0
  0
LINE
  5
91
  100
AcDbEntity
  8
1
  100
AcDbLine
  10
54.1
  20
-1.006921
  30
0
  11
54.2
  21
-0.984839
  31
0
  0
LINE
  5
92
  100
AcDbEntity
  8
1
  100
AcDbLine
  10
54.2
  20
-0.984839
  30
0
  11
54.3
  21
-0.947803
  31
0
  0
LINE
  5
93
  100
AcDbEntity
  8
1
  100
AcDbLine
  10
54.3
  20
-0.947803
  30
0
  11
54.4
  21
-0.892977
  31
0
  0
LINE
  5
94
  100
AcDbEntity
  8
1
  100
AcDbLine
  10
54.4
  20
-0.892977
  30
0
  11
54.5
  21
-0.815586
  31
0
  0
LINE
  5
95
  100
AcDbEntity
  8
1
  100
AcDbLine
  10
54.5
  20
-0.815586
  30
0
  11
54.6
  21
-0.706296
  31
0
  0
LINE
  5
96
  100
AcDbEntity
  8
1
  100
AcDbLine
  10
54.6
  20
-0.706296
  30
0
  11
54.7
  21
-0.540898
  31
0
  0
LINE
  5
97
  100
AcDbEntity
  8
1
  100
AcDbLine
  10
54.7
  20
-0.540898
  30
0
  11
54.7
  21
0.9
  31
0
  0
LINE
  5
98
  100
AcDbEntity
  8
1
  100
AcDbLine
  10
54.7
  20
0.9
  30
0
  11
54.7
  21
-0.540898
  31
0
  0
LINE
  5
99
  100
AcDbEntity
  8
SK1
  100
AcDbLine
  10
34
  20
3
  30
0
  11
0.7
  21
3
  31
0
  0
LINE
  5
9a
  100
AcDbEntity
  8
SK1
  100
AcDbLine
  10
0.7
  20
3
  30
0
  11
0
  21
2.3
  31
0
  0
LINE
  5
9b
  100
AcDbEntity
  8
SK1
  100
AcDbLine
  10
34
  20
-3
  30
0
  11
0.7
  21
-3
  31
0
  0
LINE
  5
9c
  100
AcDbEntity
  8
SK1
  100
AcDbLine
  10
0.7
  20
-3
  30
0
  11
0
  21
-2.3
  31
0
  0
LINE
  5
9d
  100
AcDbEntity
  8
SK1
  100
AcDbLine
  10
0.7
  20
3
  30
0
  11
0.7
  21
-3
  31
0
  0
LINE
  5
9e
  100
AcDbEntity
  8
SK1
  100
AcDbLine
  10
0
  20
2.3
  30
0
  11
0
  21
-2.3
  31
0
  0
LINE
  5
9f
  100
AcDbEntity
  8
SK1
  100
AcDbLine
  10
35.0401
  20
1.40688
  30
0
  11
35.4069
  21
1.0401
  31
0
  0
LINE
  5
a0
  100
AcDbEntity
  8
SK1
  100
AcDbLine
  10
34.5328
  20
1.66666
  30
0
  11
35.6667
  21
0.532833
  31
0
  0
LINE
  5
a1
  100
AcDbEntity
  8
SK1
  100
AcDbLine
  10
34.2154
  20
1.73657
  30
0
  11
35.7366
  21
0.215434
  31
0
  0
LINE
  5
a2
  100
AcDbEntity
  8
SK1
  100
AcDbLine
  10
34
  20
1.70452
  30
0
  11
35.7045
  21
0
  31
0
  0
LINE
  5
a3
  100
AcDbEntity
  8
SK1
  100
AcDbLine
  10
34
  20
1.45703
  30
0
  11
35.457
  21
0
  31
0
  0
LINE
  5
a4
  100
AcDbEntity
  8
SK1
  100
AcDbLine
  10
34
  20
1.20954
  30
0
  11
35.2095
  21
0
  31
0
  0
LINE
  5
a5
  100
AcDbEntity
  8
SK1
  100
AcDbLine
  10
34
  20
0.962054
  30
0
  11
34.9621
  21
0
  31
0
  0
LINE
  5
a6
  100
AcDbEntity
  8
SK1
  100
AcDbLine
  10
34
  20
0.714566
  30
0
  11
34.7146
  21
0
  31
0
  0
LINE
  5
a7
  100
AcDbEntity
  8
SK1
  100
AcDbLine
  10
34
  20
0.467079
  30
0
  11
34.4671
  21
0
  31
0
  0
LINE
  5
a8
  100
AcDbEntity
  8
SK1
  100
AcDbLine
  10
34
  20
0.219592
  30
0
  11
34.2196
  21
0
  31
0
  0
LINE
  5
a9
  100
AcDbEntity
  8
SK1
  100
AcDbLine
  10
34
  20
1.70452
  30
0
  11
34.0441
  21
1.74861
  31
0
  0
LINE
  5
aa
  100
AcDbEntity
  8
SK1
  100
AcDbLine
  10
34
  20
1.45703
  30
0
  11
34.271
  21
1.72802
  31
0
  0
LINE
  5
ab
  100
AcDbEntity
  8
SK1
  100
AcDbLine
  10
34
  20
1.20954
  30
0
  11
34.4742
  21
1.6837
  31
0
  0
LINE
  5
ac
  100
AcDbEntity
  8
SK1
  100
AcDbLine
  10
34
  20
0.962054
  30
0
  11
34.6588
  21
1.62082
  31
0
  0
LINE
  5
ad
  100
AcDbEntity
  8
SK1
  100
AcDbLine
  10
34
  20
0.714566
  30
0
  11
34.8271
  21
1.54167
  31
0
  0
LINE
  5
ae
  100
AcDbEntity
  8
SK1
  100
AcDbLine
  10
34
  20
0.467079
  30
0
  11
34.981
  21
1.44812
  31
0
  0
LINE
  5
af
  100
AcDbEntity
  8
SK1
  100
AcDbLine
  10
34
  20
0.219592
  30
0
  11
35.1226
  21
1.34216
  31
0
  0
LINE
  5
b0
  100
AcDbEntity
  8
SK1
  100
AcDbLine
  10
34.0279
  20
0
  30
0
  11
35.2508
  21
1.22288
  31
0
  0
LINE
  5
b1
  100
AcDbEntity
  8
SK1
  100
AcDbLine
  10
34.2754
  20
0
  30
0
  11
35.367
  21
1.09157
  31
0
  0
LINE
  5
b2
  100
AcDbEntity
  8
SK1
  100
AcDbLine
  10
34.5229
  20
0
  30
0
  11
35.4707
  21
0.947822
  31
0
  0
LINE
  5
b3
  100
AcDbEntity
  8
SK1
  100
AcDbLine
  10
34.7704
  20
0
  30
0
  11
35.5605
  21
0.790145
  31
0
  0
LINE
  5
b4
  100
AcDbEntity
  8
SK1
  100
AcDbLine
  10
35.0178
  20
0
  30
0
  11
35.6364
  21
0.618517
  31
0
  0
LINE
  5
b5
  100
AcDbEntity
  8
SK1
  100
AcDbLine
  10
35.2653
  20
0
  30
0
  11
35.696
  21
0.430696
  31
0
  0
LINE
  5
b6
  100
AcDbEntity
  8
SK1
  100
AcDbLine
  10
35.5128
  20
0
  30
0
  11
35.7356
  21
0.222827
  31
0
  0
LINE
  5
b7
  100
AcDbEntity
  8
SK1
  100
AcDbLine
  10
34
  20
0
  30
0
  11
34
  21
1.75
  31
0
  0
LINE
  5
b8
  100
AcDbEntity
  8
SK1
  100
AcDbLine
  10
34
  20
0
  30
0
  11
35.75
  21
0
  31
0
  0
ARC
  5
b9
  100
AcDbEntity
  8
SK1
  100
AcDbCircle
  10
34
  20
0
  30
0
  40
1.75
  100
AcDbArc
  50
0
  51
90
  0
ARC
  5
ba
  100
AcDbEntity
  8
SK1
  100
AcDbCircle
  10
34
  20
0
  30
0
  40
1.75
  100
AcDbArc
  50
90
  51
180
  0
LINE
  5
bb
  100
AcDbEntity
  8
SK1
  100
AcDbLine
  10
33.9721
  20
0
  30
0
  11
34
  21
-0.027896
  31
0
  0
LINE
  5
bc
  100
AcDbEntity
  8
SK1
  100
AcDbLine
  10
33.7246
  20
0
  30
0
  11
34
  21
-0.275383
  31
0
  0
LINE
  5
bd
  100
AcDbEntity
  8
SK1
  100
AcDbLine
  10
33.4771
  20
0
  30
0
  11
34
  21
-0.522871
  31
0
  0
LINE
  5
be
  100
AcDbEntity
  8
SK1
  100
AcDbLine
  10
33.2296
  20
0
  30
0
  11
34
  21
-0.770358
  31
0
  0
LINE
  5
bf
  100
AcDbEntity
  8
SK1
  100
AcDbLine
  10
32.9822
  20
0
  30
0
  11
34
  21
-1.01785
  31
0
  0
LINE
  5
c0
  100
AcDbEntity
  8
SK1
  100
AcDbLine
  10
32.7347
  20
0
  30
0
  11
34
  21
-1.26533
  31
0
  0
LINE
  5
c1
  100
AcDbEntity
  8
SK1
  100
AcDbLine
  10
32.4872
  20
0
  30
0
  11
34
  21
-1.51282
  31
0
  0
LINE
  5
c2
  100
AcDbEntity
  8
SK1
  100
AcDbLine
  10
32.2503
  20
-0.010642
  30
0
  11
33.9894
  21
-1.74967
  31
0
  0
LINE
  5
c3
  100
AcDbEntity
  8
SK1
  100
AcDbLine
  10
32.2736
  20
-0.281429
  30
0
  11
33.7186
  21
-1.72637
  31
0
  0
LINE
  5
c4
  100
AcDbEntity
  8
SK1
  100
AcDbLine
  10
32.3639
  20
-0.619147
  30
0
  11
33.3809
  21
-1.63613
  31
0
  0
LINE
  5
c5
  100
AcDbEntity
  8
SK1
  100
AcDbLine
  10
32.2514
  20
-0.044098
  30
0
  11
32.2955
  21
0
  31
0
  0
LINE
  5
c6
  100
AcDbEntity
  8
SK1
  100
AcDbLine
  10
32.272
  20
-0.270991
  30
0
  11
32.543
  21
0
  31
0
  0
LINE
  5
c7
  100
AcDbEntity
  8
SK1
  100
AcDbLine
  10
32.3163
  20
-0.474162
  30
0
  11
32.7905
  21
0
  31
0
  0
LINE
  5
c8
  100
AcDbEntity
  8
SK1
  100
AcDbLine
  10
32.3792
  20
-0.658762
  30
0
  11
33.0379
  21
0
  31
0
  0
LINE
  5
c9
  100
AcDbEntity
  8
SK1
  100
AcDbLine
  10
32.4583
  20
-0.827105
  30
0
  11
33.2854
  21
0
  31
0
  0
LINE
  5
ca
  100
AcDbEntity
  8
SK1
  100
AcDbLine
  10
32.5519
  20
-0.981039
  30
0
  11
33.5329
  21
0
  31
0
  0
LINE
  5
cb
  100
AcDbEntity
  8
SK1
  100
AcDbLine
  10
32.6578
  20
-1.12257
  30
0
  11
33.7804
  21
0
  31
0
  0
LINE
  5
cc
  100
AcDbEntity
  8
SK1
  100
AcDbLine
  10
32.7771
  20
-1.25077
  30
0
  11
34
  21
-0.027896
  31
0
  0
LINE
  5
cd
  100
AcDbEntity
  8
SK1
  100
AcDbLine
  10
32.9084
  20
-1.36695
  30
0
  11
34
  21
-0.275383
  31
0
  0
LINE
  5
ce
  100
AcDbEntity
  8
SK1
  100
AcDbLine
  10
33.0522
  20
-1.47069
  30
0
  11
34
  21
-0.522871
  31
0
  0
LINE
  5
cf
  100
AcDbEntity
  8
SK1
  100
AcDbLine
  10
33.2099
  20
-1.5605
  30
0
  11
34
  21
-0.770358
  31
0
  0
LINE
  5
d0
  100
AcDbEntity
  8
SK1
  100
AcDbLine
  10
33.3815
  20
-1.63636
  30
0
  11
34
  21
-1.01785
  31
0
  0
LINE
  5
d1
  100
AcDbEntity
  8
SK1
  100
AcDbLine
  10
33.5693
  20
-1.69603
  30
0
  11
34
  21
-1.26533
  31
0
  0
LINE
  5
d2
  100
AcDbEntity
  8
SK1
  100
AcDbLine
  10
33.7772
  20
-1.73565
  30
0
  11
34
  21
-1.51282
  31
0
  0
LINE
  5
d3
  100
AcDbEntity
  8
SK1
  100
AcDbLine
  10
34
  20
0
  30
0
  11
32.25
  21
0
  31
0
  0
LINE
  5
d4
  100
AcDbEntity
  8
SK1
  100
AcDbLine
  10
34
  20
-1.75
  30
0
  11
34
  21
0
  31
0
  0
ARC
  5
d5
  100
AcDbEntity
  8
SK1
  100
AcDbCircle
  10
34
  20
0
  30
0
  40
1.75
  100
AcDbArc
  50
180
  51
270
  0
ARC
  5
d6
  100
AcDbEntity
  8
SK1
  100
AcDbCircle
  10
34
  20
0
  30
0
  40
1.75
  100
AcDbArc
  50
270
  51
0
  0
LINE
  5
151
  100
AcDbEntity
  8
NOCUT
  100
AcDbLine
  10
52.6
  20
0
  30
0
  11
52.6
  21
1.425
  31
0
  0
LINE
  5
152
  100
AcDbEntity
  8
NOCUT
  100
AcDbLine
  10
52.6
  20
1.425
  30
0
  11
40.63
  21
1.425
  31
0
  0
ARC
  5
153
  100
AcDbEntity
  8
NOCUT
  100
AcDbCircle
  10
40.717156
  20
2.421195
  30
0
  40
1
  100
AcDbArc
  50
255
  51
265
  0
LINE
  5
154
  100
AcDbEntity
  8
NOCUT
  100
AcDbLine
  10
40.458337
  20
1.455269
  30
0
  11
34.693322
  21
3
  31
0
  0
LINE
  5
155
  100
AcDbEntity
  8
NOCUT
  100
AcDbLine
  10
34.693322
  20
3
  30
0
  11
34
  21
3
  31
0
  0
LINE
  5
156
  100
AcDbEntity
  8
NOCUT
  100
AcDbLine
  10
34
  20
3
  30
0
  11
34
  21
0
  31
0
  0
LINE
  5
157
  100
AcDbEntity
  8
NOCUT
  100
AcDbLine
  10
34
  20
0
  30
0
  11
52.6
  21
0
  31
0
  0
ARC
  5
158
  100
AcDbEntity
  8
CUT
  100
AcDbCircle
  10
53.5
  20
0
  30
0
  40
1.5
  100
AcDbArc
  50
0
  51
90
  0
LINE
  5
159
  100
AcDbEntity
  8
CUT
  100
AcDbLine
  10
53.5
  20
1.5
  30
0
  11
52.6
  21
1.5
  31
0
  0
LINE
  5
15a
  100
AcDbEntity
  8
CUT
  100
AcDbLine
  10
52.6
  20
1.5
  30
0
  11
52.6
  21
0
  31
0
  0
LINE
  5
15b
  100
AcDbEntity
  8
CUT
  100
AcDbLine
  10
52.6
  20
0
  30
0
  11
55
  21
0
  31
0
  0
LINE
  5
15c
  100
AcDbEntity
  8
4
  100
AcDbLine
  10
34
  20
0
  30
0
  11
55
  21
0
  31
0
  0
LINE
  5
15d
  100
AcDbEntity
  8
SK4
  100
AcDbLine
  10
-1
  20
0
  30
0
  11
56
  21
0
  31
0
  0
LINE
  5
15e
  100
AcDbEntity
  8
INFTOTAL
  100
AcDbLine
  10
-15.95
  20
23.95
  30
0
  11
70.95
  21
23.95
  31
0
  0
LINE
  5
15f
  100
AcDbEntity
  8
INFTOTAL
  100
AcDbLine
  10
70.95
  20
23.95
  30
0
  11
70.95
  21
-18.95
  31
0
  0
LINE
  5
160
  100
AcDbEntity
  8
INFTOTAL
  100
AcDbLine
  10
70.95
  20
-18.95
  30
0
  11
-15.95
  21
-18.95
  31
0
  0
LINE
  5
161
  100
AcDbEntity
  8
INFTOTAL
  100
AcDbLine
  10
-15.95
  20
-18.95
  30
0
  11
-15.95
  21
23.95
  31
0
  0
ENDSEC
  0
SECTION
  2
OBJECTS
  0
DICTIONARY
  5
162
  330
0
100
AcDbDictionary
281
    1
  3
ACAD_GROUP
  350
163
  0
DICTIONARY
  5
163
102
{ACAD_REACTORS
  330
162
102
}
  330
162
100
AcDbDictionary
281
    1
  0
ENDSEC
  0
EOF
