  0
SECTION
  2
HEADER
  9
$ACADVER
  1
AC1015
  9
$DWGCODEPAGE
  3
ANSI_932
  9
$HANDSEED
  5
106AB90
  0
ENDSEC
  0
SECTION
  2
CLASSES
  0
CLASS
  1
IMAGEDEF
  2
AcDbRasterImageDef
  3
ISM
  90
0
  91
4
  280
0
  281
0
  0
CLASS
  1
IMAGE
  2
AcDbRasterImage
  3
ISM
  90
127
  91
5
  280
0
  281
1
  0
CLASS
  1
IMAGEDEF_REACTOR
  2
AcDbRasterImageDefReactor
  3
ISM
  90
1
  91
4
  280
0
  281
0
  0
ENDSEC
  0
SECTION
  2
TABLES
  0
TABLE
  2
VPORT
  5
2
  330
0
  100
AcDbSymbolTable
  70
    0
  0
ENDTAB
  0
TABLE
  2
LTYPE
  5
3
  330
0
  100
AcDbSymbolTable
  70
    4
  0
LTYPE
  5
4
  330
3
  100
AcDbSymbolTableRecord
  100
AcDbLinetypeTableRecord
  2
ByBlock
  70
    0
  3

  72
65
  73
    0
  40
0
  0
LTYPE
  5
5
  330
3
  100
AcDbSymbolTableRecord
  100
AcDbLinetypeTableRecord
  2
ByLayer
  70
    0
  3

  72
65
  73
    0
  40
0
  0
LTYPE
  5
6
  330
3
  100
AcDbSymbolTableRecord
  100
AcDbLinetypeTableRecord
  2
CONTINUOUS
  70
    0
  3
Solid Line
  72
65
  73
    0
  40
0
  0
LTYPE
  5
7
  330
3
  100
AcDbSymbolTableRecord
  100
AcDbLinetypeTableRecord
  2
DASH
  70
    0
  3
Hidden
  72
65
  73
2
  40
2.5
  49
1.5
  74
0
  49
-1
  74
0
  0
LTYPE
  5
8
  330
3
  100
AcDbSymbolTableRecord
  100
AcDbLinetypeTableRecord
  2
LONGDASHDASH
  70
    0
  3
__ . __
  72
65
  73
    4
  40
7
  49
4
  74
    0
  49
-1
  74
    0
  49
1
  74
    0
  49
-1
  74
    0
  0
ENDTAB
  0
TABLE
  2
LAYER
  5
9
  330
0
  100
AcDbSymbolTable
  70
    40
  0
LAYER
  5
a
  330
9
  100
AcDbSymbolTableRecord
  100
AcDbLayerTableRecord
  2
0
  70
    0
  62
    0
  6
CONTINUOUS
  390
0
  0
LAYER
  5
c
  330
9
  100
AcDbSymbolTableRecord
  100
AcDbLayerTableRecord
  2
1
  70
    0
  62
    4
  6
CONTINUOUS
  370
50
  390
0
  0
LAYER
  5
d
  330
9
  100
AcDbSymbolTableRecord
  100
AcDbLayerTableRecord
  2
2
  70
    0
  62
    7
  6
CONTINUOUS
  370
25
  390
0
  0
LAYER
  5
f
  330
9
  100
AcDbSymbolTableRecord
  100
AcDbLayerTableRecord
  2
4
  70
    0
  62
    2
  6
LONGDASHDASH
  370
25
  390
0
  0
LAYER
  5
13
  330
9
  100
AcDbSymbolTableRecord
  100
AcDbLayerTableRecord
  2
SK1
  70
    0
  62
    4
  6
CONTINUOUS
  370
50
  390
0
  0
LAYER
  5
14
  330
9
  100
AcDbSymbolTableRecord
  100
AcDbLayerTableRecord
  2
SK2
  70
    0
  62
    7
  6
CONTINUOUS
  370
25
  390
0
  0
LAYER
  5
16
  330
9
  100
AcDbSymbolTableRecord
  100
AcDbLayerTableRecord
  2
SK4
  70
    0
  62
    2
  6
LONGDASHDASH
  370
25
  390
0
  0
LAYER
  5
21
  330
9
  100
AcDbSymbolTableRecord
  100
AcDbLayerTableRecord
  2
NOCUT
  70
    0
  62
    7
  6
CONTINUOUS
  370
25
  390
0
  0
LAYER
  5
22
  330
9
  100
AcDbSymbolTableRecord
  100
AcDbLayerTableRecord
  2
CUT
  70
    0
  62
    1
  6
CONTINUOUS
  370
25
  390
0
  0
LAYER
  5
26
  330
9
  100
AcDbSymbolTableRecord
  100
AcDbLayerTableRecord
  2
INFTOTAL
  70
    0
  62
    9
  6
CONTINUOUS
  370
18
  390
0
  0
ENDTAB
  0
TABLE
  2
STYLE
  5
27
  330
0
  100
AcDbSymbolTable
  70
    1
  0
STYLE
  5
28
  330
27
  100
AcDbSymbolTableRecord
  100
AcDbTextStyleTableRecord
  2
Monospac821 BT
  70
    0
  40
    3.5
  41
1
  50
0
  71
0
  42
3
  3

  4

  1001
ACAD
  1000
Monospac821 BT
  1071
256
  0
ENDTAB
  0
TABLE
  2
VIEW
  5
29
  330
0
  100
AcDbSymbolTable
  70
    0
  0
ENDTAB
  0
TABLE
  2
UCS
  5
2a
  330
0
  100
AcDbSymbolTable
  70
    0
  0
ENDTAB
  0
TABLE
  2
APPID
  5
2b
  330
0
  100
AcDbSymbolTable
  70
    1
  0
APPID
  5
2c
  330
2b
  100
AcDbSymbolTableRecord
  100
AcDbRegAppTableRecord
  2
ACAD
  70
    0
  0
ENDTAB
  0
TABLE
  2
DIMSTYLE
  5
2d
  330
0
  100
AcDbSymbolTable
  70
    1
  100
AcDbDimStyleTable
  0
DIMSTYLE
  105
2e
  330
2d
  100
AcDbSymbolTableRecord
  100
AcDbDimStyleTableRecord
  2
STANDARD
  70
    0
  41
    3
  42
0.5
  44
1
  73
0
  77
1
  78
1
  140
3.5
  141
2.5
  143
0.03937
  147
0.8
  172
1
  174
1
  178
0
  179
1
  271
2
  279
1
  284
1
  340
28
  0
ENDTAB
  0
TABLE
  2
BLOCK_RECORD
  5
2f
  330
0
  100
AcDbSymbolTable
  70
    2
  0
BLOCK_RECORD
  5
30
  330
2f
  100
AcDbSymbolTableRecord
  100
AcDbBlockTableRecord
  2
*Model_Space
  0
BLOCK_RECORD
  5
31
  330
2f
  100
AcDbSymbolTableRecord
  100
AcDbBlockTableRecord
  2
*Paper_Space
  0
BLOCK_RECORD
  5
e5
  330
2f
  100
AcDbSymbolTableRecord
  100
AcDbBlockTableRecord
  2
*De4
  340
0
  0
BLOCK_RECORD
  5
f3
  330
2f
  100
AcDbSymbolTableRecord
  100
AcDbBlockTableRecord
  2
*Df2
  340
0
  0
BLOCK_RECORD
  5
101
  330
2f
  100
AcDbSymbolTableRecord
  100
AcDbBlockTableRecord
  2
*D100
  340
0
  0
BLOCK_RECORD
  5
10f
  330
2f
  100
AcDbSymbolTableRecord
  100
AcDbBlockTableRecord
  2
*D10e
  340
0
  0
BLOCK_RECORD
  5
11d
  330
2f
  100
AcDbSymbolTableRecord
  100
AcDbBlockTableRecord
  2
*D11c
  340
0
  0
BLOCK_RECORD
  5
127
  330
2f
  100
AcDbSymbolTableRecord
  100
AcDbBlockTableRecord
  2
*D126
  340
0
  0
BLOCK_RECORD
  5
135
  330
2f
  100
AcDbSymbolTableRecord
  100
AcDbBlockTableRecord
  2
*D134
  340
0
  0
BLOCK_RECORD
  5
143
  330
2f
  100
AcDbSymbolTableRecord
  100
AcDbBlockTableRecord
  2
*D142
  340
0
  0
BLOCK_RECORD
  5
151
  330
2f
  100
AcDbSymbolTableRecord
  100
AcDbBlockTableRecord
  2
*D150
  340
0
  0
ENDTAB
  0
ENDSEC
  0
SECTION
  2
BLOCKS
  0
BLOCK
  5
32
  330
30
  100
AcDbEntity
  8
0
  100
AcDbBlockBegin
  2
*Model_Space
  70
    0
  10
0
  20
0
  30
0
  3
*Model_Space
  1

  0
ENDBLK
  5
33
  330
30
  100
AcDbEntity
  8
0
  100
AcDbBlockEnd
  0
BLOCK
  5
34
  330
31
  100
AcDbEntity
  8
0
  100
AcDbBlockBegin
  2
*Paper_Space
  70
    0
  10
0
  20
0
  30
0
  3
*Paper_Space
  1

  0
ENDBLK
  5
35
  330
31
  100
AcDbEntity
  8
0
  100
AcDbBlockEnd
  0
BLOCK
  5
e3
  330
e5
  100
AcDbEntity
  8
SK2
  100
AcDbBlockBegin
  2
*De4
  70
1
  10
0
  20
0
  30
0
  3
*De4
  1

  0
LINE
  5
e6
  330
e5
  100
AcDbEntity
  8
SK2
  100
AcDbLine
  10
0
  20
2.3
  30
0
  11
0
  21
20
  31
0
  0
LINE
  5
e7
  330
e5
  100
AcDbEntity
  8
SK2
  100
AcDbLine
  10
65
  20
-15
  30
0
  11
65
  21
20
  31
0
  0
LINE
  5
e8
  330
e5
  100
AcDbEntity
  8
SK2
  100
AcDbLine
  10
0
  20
18
  30
0
  11
65
  21
18
  31
0
  0
SOLID
  5
e9
  330
e5
  100
AcDbEntity
  8
SK2
  100
AcDbTrace
  10
0
  20
18
  30
0
  11
2.478612
  21
18.326315
  31
0
  12
2.478612
  22
17.673685
  32
0
  13
2.478612
  23
17.673685
  33
0
  0
SOLID
  5
ea
  330
e5
  100
AcDbEntity
  8
SK2
  100
AcDbTrace
  10
65
  20
18
  30
0
  11
62.521388
  21
17.673685
  31
0
  12
62.521388
  22
18.326315
  32
0
  13
62.521388
  23
18.326315
  33
0
  0
MTEXT
  5
eb
  330
e5
  100
AcDbEntity
  8
SK2
  100
AcDbMText
  10
32.5
  20
18
  30
0
  11
1
  21
0
  31
0
  40
2
  41
0
  71
8
  72
1
  1
65
  0
POINT
  5
ec
  330
e5
  100
AcDbEntity
  8
SK2
  62
0
  100
AcDbPoint
  10
0
  20
2.3
  30
0
  0
POINT
  5
ed
  330
e5
  100
AcDbEntity
  8
SK2
  62
0
  100
AcDbPoint
  10
65
  20
-15
  30
0
  0
POINT
  5
ee
  330
e5
  100
AcDbEntity
  8
SK2
  62
0
  100
AcDbPoint
  10
65
  20
18
  30
0
  0
ENDBLK
  5
ef
  330
e5
  100
AcDbEntity
  8
SK2
  100
AcDbBlockEnd
  0
BLOCK
  5
f1
  330
f3
  100
AcDbEntity
  8
SK2
  100
AcDbBlockBegin
  2
*Df2
  70
1
  10
0
  20
0
  30
0
  3
*Df2
  1

  0
LINE
  5
f4
  330
f3
  100
AcDbEntity
  8
SK2
  100
AcDbLine
  10
39.9
  20
3
  30
0
  11
39.9
  21
15
  31
0
  0
LINE
  5
f5
  330
f3
  100
AcDbEntity
  8
SK2
  100
AcDbLine
  10
0
  20
2.3
  30
0
  11
0
  21
20
  31
0
  0
LINE
  5
f6
  330
f3
  100
AcDbEntity
  8
SK2
  100
AcDbLine
  10
39.9
  20
13
  30
0
  11
0
  21
13
  31
0
  0
SOLID
  5
f7
  330
f3
  100
AcDbEntity
  8
SK2
  100
AcDbTrace
  10
39.9
  20
13
  30
0
  11
42.378612
  21
13.326315
  31
0
  12
42.378612
  22
12.673685
  32
0
  13
42.378612
  23
12.673685
  33
0
  0
SOLID
  5
f8
  330
f3
  100
AcDbEntity
  8
SK2
  100
AcDbTrace
  10
0
  20
13
  30
0
  11
-2.478612
  21
12.673685
  31
0
  12
-2.478612
  22
13.326315
  32
0
  13
-2.478612
  23
13.326315
  33
0
  0
MTEXT
  5
f9
  330
f3
  100
AcDbEntity
  8
SK2
  100
AcDbMText
  10
19.95
  20
13
  30
0
  11
1
  21
-0
  31
0
  40
2
  41
0
  71
8
  72
1
  1
39.9
  0
POINT
  5
fa
  330
f3
  100
AcDbEntity
  8
SK2
  62
0
  100
AcDbPoint
  10
39.9
  20
3
  30
0
  0
POINT
  5
fb
  330
f3
  100
AcDbEntity
  8
SK2
  62
0
  100
AcDbPoint
  10
0
  20
2.3
  30
0
  0
POINT
  5
fc
  330
f3
  100
AcDbEntity
  8
SK2
  62
0
  100
AcDbPoint
  10
0
  20
13
  30
0
  0
ENDBLK
  5
fd
  330
f3
  100
AcDbEntity
  8
SK2
  100
AcDbBlockEnd
  0
BLOCK
  5
ff
  330
101
  100
AcDbEntity
  8
SK2
  100
AcDbBlockBegin
  2
*D100
  70
1
  10
0
  20
0
  30
0
  3
*D100
  1

  0
LINE
  5
102
  330
101
  100
AcDbEntity
  8
SK2
  100
AcDbLine
  10
0.7
  20
-3
  30
0
  11
-12
  21
-3
  31
0
  0
LINE
  5
103
  330
101
  100
AcDbEntity
  8
SK2
  100
AcDbLine
  10
0.7
  20
3
  30
0
  11
-12
  21
3
  31
0
  0
LINE
  5
104
  330
101
  100
AcDbEntity
  8
SK2
  100
AcDbLine
  10
-10
  20
-3
  30
0
  11
-10
  21
3
  31
0
  0
SOLID
  5
105
  330
101
  100
AcDbEntity
  8
SK2
  100
AcDbTrace
  10
-10
  20
-3
  30
0
  11
-10.326315
  21
-0.521388
  31
0
  12
-9.673685
  22
-0.521388
  32
0
  13
-9.673685
  23
-0.521388
  33
0
  0
SOLID
  5
106
  330
101
  100
AcDbEntity
  8
SK2
  100
AcDbTrace
  10
-10
  20
3
  30
0
  11
-9.673685
  21
0.521388
  31
0
  12
-10.326315
  22
0.521388
  32
0
  13
-10.326315
  23
0.521388
  33
0
  0
MTEXT
  5
107
  330
101
  100
AcDbEntity
  8
SK2
  100
AcDbMText
  10
-10
  20
0
  30
0
  11
0
  21
1
  31
0
  40
2
  41
0
  71
8
  72
1
  1
ﾘ6
  0
POINT
  5
108
  330
101
  100
AcDbEntity
  8
SK2
  62
0
  100
AcDbPoint
  10
0.7
  20
-3
  30
0
  0
POINT
  5
109
  330
101
  100
AcDbEntity
  8
SK2
  62
0
  100
AcDbPoint
  10
0.7
  20
3
  30
0
  0
POINT
  5
10a
  330
101
  100
AcDbEntity
  8
SK2
  62
0
  100
AcDbPoint
  10
-10
  20
3
  30
0
  0
ENDBLK
  5
10b
  330
101
  100
AcDbEntity
  8
SK2
  100
AcDbBlockEnd
  0
BLOCK
  5
10d
  330
10f
  100
AcDbEntity
  8
2
  100
AcDbBlockBegin
  2
*D10e
  70
1
  10
0
  20
0
  30
0
  3
*D10e
  1

  0
LINE
  5
110
  330
10f
  100
AcDbEntity
  8
2
  100
AcDbLine
  10
63.25
  20
-1.75
  30
0
  11
77
  21
-1.75
  31
0
  0
LINE
  5
111
  330
10f
  100
AcDbEntity
  8
2
  100
AcDbLine
  10
63.25
  20
1.75
  30
0
  11
77
  21
1.75
  31
0
  0
LINE
  5
112
  330
10f
  100
AcDbEntity
  8
2
  100
AcDbLine
  10
75
  20
-6.757426
  30
0
  11
75
  21
1.75
  31
0
  0
SOLID
  5
113
  330
10f
  100
AcDbEntity
  8
2
  100
AcDbTrace
  10
75
  20
-1.75
  30
0
  11
74.673685
  21
0.728612
  31
0
  12
75.326315
  22
0.728612
  32
0
  13
75.326315
  23
0.728612
  33
0
  0
SOLID
  5
114
  330
10f
  100
AcDbEntity
  8
2
  100
AcDbTrace
  10
75
  20
1.75
  30
0
  11
75.326315
  21
-0.728612
  31
0
  12
74.673685
  22
-0.728612
  32
0
  13
74.673685
  23
-0.728612
  33
0
  0
MTEXT
  5
115
  330
10f
  100
AcDbEntity
  8
2
  100
AcDbMText
  10
75
  20
0
  30
0
  11
0
  21
1
  31
0
  40
2
  41
0
  71
8
  72
1
  1
ﾘ3.5
  0
POINT
  5
116
  330
10f
  100
AcDbEntity
  8
2
  62
0
  100
AcDbPoint
  10
63.25
  20
-1.75
  30
0
  0
POINT
  5
117
  330
10f
  100
AcDbEntity
  8
2
  62
0
  100
AcDbPoint
  10
63.25
  20
1.75
  30
0
  0
POINT
  5
118
  330
10f
  100
AcDbEntity
  8
2
  62
0
  100
AcDbPoint
  10
75
  20
1.75
  30
0
  0
ENDBLK
  5
119
  330
10f
  100
AcDbEntity
  8
2
  100
AcDbBlockEnd
  0
BLOCK
  5
11b
  330
11d
  100
AcDbEntity
  8
2
  100
AcDbBlockBegin
  2
*D11c
  70
1
  10
0
  20
0
  30
0
  3
*D11c
  1

  0
LINE
  5
11e
  330
11d
  100
AcDbEntity
  8
2
  100
AcDbLine
  10
61.318688
  20
-1.931312
  30
0
  11
71.558505
  21
8.308505
  31
0
  0
MTEXT
  5
11f
  330
11d
  100
AcDbEntity
  8
2
  100
AcDbMText
  10
64.487437
  20
1.237437
  30
0
  11
0.707107
  21
0.707107
  31
0
  40
2
  41
0
  71
8
  72
1
  1
R1.75
  0
SOLID
  5
120
  330
11d
  100
AcDbEntity
  8
2
  100
AcDbTrace
  10
64.487437
  20
1.237437
  30
0
  11
66.00934
  21
3.22082
  31
0
  12
66.47082
  22
2.75934
  32
0
  13
66.47082
  23
2.75934
  33
0
  0
POINT
  5
121
  330
11d
  100
AcDbEntity
  8
2
  62
0
  100
AcDbPoint
  10
61.318688
  20
-1.931312
  30
0
  0
POINT
  5
122
  330
11d
  100
AcDbEntity
  8
2
  62
0
  100
AcDbPoint
  10
63.25
  20
0
  30
0
  0
ENDBLK
  5
123
  330
11d
  100
AcDbEntity
  8
2
  100
AcDbBlockEnd
  0
BLOCK
  5
125
  330
127
  100
AcDbEntity
  8
2
  100
AcDbBlockBegin
  2
*D126
  70
1
  10
0
  20
0
  30
0
  3
*D126
  1

  0
LINE
  5
128
  330
127
  100
AcDbEntity
  8
2
  100
AcDbLine
  10
62.2
  20
-1.675
  30
0
  11
60.2
  21
-1.675
  31
0
  0
LINE
  5
129
  330
127
  100
AcDbEntity
  8
2
  100
AcDbLine
  10
62.2
  20
1.675
  30
0
  11
60.2
  21
1.675
  31
0
  0
LINE
  5
12a
  330
127
  100
AcDbEntity
  8
2
  100
AcDbLine
  10
62.2
  20
-1.675
  30
0
  11
62.2
  21
10.136139
  31
0
  0
SOLID
  5
12b
  330
127
  100
AcDbEntity
  8
2
  100
AcDbTrace
  10
62.2
  20
-1.675
  30
0
  11
61.873685
  21
0.803612
  31
0
  12
62.526315
  22
0.803612
  32
0
  13
62.526315
  23
0.803612
  33
0
  0
SOLID
  5
12c
  330
127
  100
AcDbEntity
  8
2
  100
AcDbTrace
  10
62.2
  20
1.675
  30
0
  11
62.526315
  21
-0.803612
  31
0
  12
61.873685
  22
-0.803612
  32
0
  13
61.873685
  23
-0.803612
  33
0
  0
MTEXT
  5
12d
  330
127
  100
AcDbEntity
  8
2
  100
AcDbMText
  10
62.2
  20
1.675
  30
0
  11
0
  21
1
  31
0
  40
2
  41
0
  71
8
  72
1
  1
ﾘ3.35
  0
POINT
  5
12e
  330
127
  100
AcDbEntity
  8
2
  62
0
  100
AcDbPoint
  10
60.2
  20
-1.675
  30
0
  0
POINT
  5
12f
  330
127
  100
AcDbEntity
  8
2
  62
0
  100
AcDbPoint
  10
60.2
  20
1.675
  30
0
  0
POINT
  5
130
  330
127
  100
AcDbEntity
  8
2
  62
0
  100
AcDbPoint
  10
62.2
  20
10.136139
  30
0
  0
ENDBLK
  5
131
  330
127
  100
AcDbEntity
  8
2
  100
AcDbBlockEnd
  0
BLOCK
  5
133
  330
135
  100
AcDbEntity
  8
2
  100
AcDbBlockBegin
  2
*D134
  70
1
  10
0
  20
0
  30
0
  3
*D134
  1

  0
LINE
  5
136
  330
135
  100
AcDbEntity
  8
2
  100
AcDbLine
  10
62.2
  20
1.675
  30
0
  11
62.2
  21
9
  31
0
  0
LINE
  5
137
  330
135
  100
AcDbEntity
  8
2
  100
AcDbLine
  10
45.63
  20
1.675
  30
0
  11
45.63
  21
9
  31
0
  0
LINE
  5
138
  330
135
  100
AcDbEntity
  8
2
  100
AcDbLine
  10
65.105198
  20
7
  30
0
  11
45.63
  21
7
  31
0
  0
SOLID
  5
139
  330
135
  100
AcDbEntity
  8
2
  100
AcDbTrace
  10
62.2
  20
7
  30
0
  11
64.678612
  21
7.326315
  31
0
  12
64.678612
  22
6.673685
  32
0
  13
64.678612
  23
6.673685
  33
0
  0
SOLID
  5
13a
  330
135
  100
AcDbEntity
  8
2
  100
AcDbTrace
  10
45.63
  20
7
  30
0
  11
43.151388
  21
6.673685
  31
0
  12
43.151388
  22
7.326315
  32
0
  13
43.151388
  23
7.326315
  33
0
  0
MTEXT
  5
13b
  330
135
  100
AcDbEntity
  8
2
  100
AcDbMText
  10
60.984884
  20
7
  30
0
  11
1
  21
-0
  31
0
  40
2
  41
0
  71
8
  72
1
  1
16.57
  0
POINT
  5
13c
  330
135
  100
AcDbEntity
  8
2
  62
0
  100
AcDbPoint
  10
62.2
  20
1.675
  30
0
  0
POINT
  5
13d
  330
135
  100
AcDbEntity
  8
2
  62
0
  100
AcDbPoint
  10
45.63
  20
1.675
  30
0
  0
POINT
  5
13e
  330
135
  100
AcDbEntity
  8
2
  62
0
  100
AcDbPoint
  10
45.63
  20
7
  30
0
  0
ENDBLK
  5
13f
  330
135
  100
AcDbEntity
  8
2
  100
AcDbBlockEnd
  0
BLOCK
  5
141
  330
143
  100
AcDbEntity
  8
2
  100
AcDbBlockBegin
  2
*D142
  70
1
  10
0
  20
0
  30
0
  3
*D142
  1

  0
LINE
  5
144
  330
143
  100
AcDbEntity
  8
2
  100
AcDbLine
  10
65
  20
-15
  30
0
  11
65
  21
20
  31
0
  0
LINE
  5
145
  330
143
  100
AcDbEntity
  8
2
  100
AcDbLine
  10
39.9
  20
3
  30
0
  11
39.9
  21
10
  31
0
  0
LINE
  5
146
  330
143
  100
AcDbEntity
  8
2
  100
AcDbLine
  10
65
  20
8
  30
0
  11
39.9
  21
8
  31
0
  0
SOLID
  5
147
  330
143
  100
AcDbEntity
  8
2
  100
AcDbTrace
  10
65
  20
8
  30
0
  11
67.478612
  21
8.326315
  31
0
  12
67.478612
  22
7.673685
  32
0
  13
67.478612
  23
7.673685
  33
0
  0
SOLID
  5
148
  330
143
  100
AcDbEntity
  8
2
  100
AcDbTrace
  10
39.9
  20
8
  30
0
  11
37.421388
  21
7.673685
  31
0
  12
37.421388
  22
8.326315
  32
0
  13
37.421388
  23
8.326315
  33
0
  0
MTEXT
  5
149
  330
143
  100
AcDbEntity
  8
2
  100
AcDbMText
  10
52.45
  20
8
  30
0
  11
1
  21
-0
  31
0
  40
2
  41
0
  71
8
  72
1
  1
25.1
  0
POINT
  5
14a
  330
143
  100
AcDbEntity
  8
2
  62
0
  100
AcDbPoint
  10
65
  20
-15
  30
0
  0
POINT
  5
14b
  330
143
  100
AcDbEntity
  8
2
  62
0
  100
AcDbPoint
  10
39.9
  20
3
  30
0
  0
POINT
  5
14c
  330
143
  100
AcDbEntity
  8
2
  62
0
  100
AcDbPoint
  10
39.9
  20
8
  30
0
  0
ENDBLK
  5
14d
  330
143
  100
AcDbEntity
  8
2
  100
AcDbBlockEnd
  0
BLOCK
  5
14f
  330
151
  100
AcDbEntity
  8
2
  100
AcDbBlockBegin
  2
*D150
  70
1
  10
0
  20
0
  30
0
  3
*D150
  1

  0
LINE
  5
152
  330
151
  100
AcDbEntity
  8
2
  100
AcDbLine
  10
62.2
  20
-1.675
  30
0
  11
62.2
  21
-15
  31
0
  0
LINE
  5
153
  330
151
  100
AcDbEntity
  8
2
  100
AcDbLine
  10
65
  20
-15
  30
0
  11
65
  21
20
  31
0
  0
LINE
  5
154
  330
151
  100
AcDbEntity
  8
2
  100
AcDbLine
  10
59.127475
  20
-13
  30
0
  11
65
  21
-13
  31
0
  0
SOLID
  5
155
  330
151
  100
AcDbEntity
  8
2
  100
AcDbTrace
  10
62.2
  20
-13
  30
0
  11
64.678612
  21
-12.673685
  31
0
  12
64.678612
  22
-13.326315
  32
0
  13
64.678612
  23
-13.326315
  33
0
  0
SOLID
  5
156
  330
151
  100
AcDbEntity
  8
2
  100
AcDbTrace
  10
65
  20
-13
  30
0
  11
62.521388
  21
-13.326315
  31
0
  12
62.521388
  22
-12.673685
  32
0
  13
62.521388
  23
-12.673685
  33
0
  0
MTEXT
  5
157
  330
151
  100
AcDbEntity
  8
2
  100
AcDbMText
  10
63.6
  20
-13
  30
0
  11
1
  21
0
  31
0
  40
2
  41
0
  71
8
  72
1
  1
2.8
  0
POINT
  5
158
  330
151
  100
AcDbEntity
  8
2
  62
0
  100
AcDbPoint
  10
62.2
  20
-1.675
  30
0
  0
POINT
  5
159
  330
151
  100
AcDbEntity
  8
2
  62
0
  100
AcDbPoint
  10
65
  20
20
  30
0
  0
POINT
  5
15a
  330
151
  100
AcDbEntity
  8
2
  62
0
  100
AcDbPoint
  10
65
  20
-13
  30
0
  0
ENDBLK
  5
15b
  330
151
  100
AcDbEntity
  8
2
  100
AcDbBlockEnd
  0
ENDSEC
  0
SECTION
  2
ENTITIES
  0
DIMENSION
  5
f0
  100
AcDbEntity
  8
SK2
  100
AcDbDimension
  2
*De4
  10
65
  20
18
  30
0
  11
32.5
  21
18
  31
0
  70
160
  1
<>
  71
5
  3
STANDARD
  42
65
  100
AcDbAlignedDimension
  13
0
  23
2.3
  33
0
  14
65
  24
-15
  34
0
  50
0
  100
AcDbRotatedDimension
  0
DIMENSION
  5
fe
  100
AcDbEntity
  8
SK2
  100
AcDbDimension
  2
*Df2
  10
0
  20
13
  30
0
  11
19.95
  21
13
  31
0
  70
160
  1
<>
  71
5
  3
STANDARD
  42
39.9
  100
AcDbAlignedDimension
  13
39.9
  23
3
  33
0
  14
0
  24
2.3
  34
0
  50
0
  100
AcDbRotatedDimension
  0
DIMENSION
  5
10c
  100
AcDbEntity
  8
SK2
  100
AcDbDimension
  2
*D100
  10
-10
  20
3
  30
0
  11
-10
  21
0
  31
0
  70
160
  1
%%c<>
  71
5
  3
STANDARD
  42
6
  100
AcDbAlignedDimension
  13
0.7
  23
-3
  33
0
  14
0.7
  24
3
  34
0
  50
-90
  100
AcDbRotatedDimension
  0
DIMENSION
  5
11a
  100
AcDbEntity
  8
2
  100
AcDbDimension
  2
*D10e
  10
75
  20
1.75
  30
0
  11
75
  21
0
  31
0
  70
160
  1
%%c<>
  71
5
  3
STANDARD
  42
3.5
  100
AcDbAlignedDimension
  13
63.25
  23
-1.75
  33
0
  14
63.25
  24
1.75
  34
0
  50
-90
  100
AcDbRotatedDimension
  0
DIMENSION
  5
124
  100
AcDbEntity
  8
2
  100
AcDbDimension
  2
*D11c
  10
63.25
  20
0
  30
0
  11
64.487437
  21
1.237437
  31
0
  70
164
  1
R1.75
  71
5
  3
STANDARD
  100
AcDbRadialDimension
  15
64.487437
  25
1.237437
  35
0
  50
45
  0
DIMENSION
  5
132
  100
AcDbEntity
  8
2
  100
AcDbDimension
  2
*D126
  10
62.2
  20
10.136139
  30
0
  11
62.2
  21
1.675
  31
0
  70
160
  1
%%c<>
  71
5
  3
STANDARD
  42
3.35
  100
AcDbAlignedDimension
  13
60.2
  23
-1.675
  33
0
  14
60.2
  24
1.675
  34
0
  50
-90
  100
AcDbRotatedDimension
  0
DIMENSION
  5
140
  100
AcDbEntity
  8
2
  100
AcDbDimension
  2
*D134
  10
45.63
  20
7
  30
0
  11
60.984884
  21
7
  31
0
  70
160
  1
<>
  71
5
  3
STANDARD
  42
16.57
  100
AcDbAlignedDimension
  13
62.2
  23
1.675
  33
0
  14
45.63
  24
1.675
  34
0
  50
0
  100
AcDbRotatedDimension
  0
DIMENSION
  5
14e
  100
AcDbEntity
  8
2
  100
AcDbDimension
  2
*D142
  10
39.9
  20
8
  30
0
  11
52.45
  21
8
  31
0
  70
160
  1
<>
  71
5
  3
STANDARD
  42
25.1
  100
AcDbAlignedDimension
  13
65
  23
-15
  33
0
  14
39.9
  24
3
  34
0
  50
0
  100
AcDbRotatedDimension
  0
DIMENSION
  5
15c
  100
AcDbEntity
  8
2
  100
AcDbDimension
  2
*D150
  10
65
  20
-13
  30
0
  11
63.6
  21
-13
  31
0
  70
160
  1
<>
  71
5
  3
STANDARD
  42
2.8
  100
AcDbAlignedDimension
  13
62.2
  23
-1.675
  33
0
  14
65
  24
20
  34
0
  50
0
  100
AcDbRotatedDimension
  0
ARC
  5
36
  100
AcDbEntity
  8
1
  100
AcDbCircle
  10
45.717156
  20
-2.671195
  30
0
  40
1
  100
AcDbArc
  50
95
  51
105
  0
LINE
  5
37
  100
AcDbEntity
  8
1
  100
AcDbLine
  10
45.63
  20
-1.675
  30
0
  11
62.2
  21
-1.675
  31
0
  0
LINE
  5
38
  100
AcDbEntity
  8
1
  100
AcDbLine
  10
62.2
  20
-1.675
  30
0
  11
62.2
  21
-1.75
  31
0
  0
LINE
  5
39
  100
AcDbEntity
  8
1
  100
AcDbLine
  10
62.2
  20
-1.75
  30
0
  11
63.25
  21
-1.75
  31
0
  0
ARC
  5
3a
  100
AcDbEntity
  8
1
  100
AcDbCircle
  10
63.25
  20
0
  30
0
  40
1.75
  100
AcDbArc
  50
270
  51
0
  0
ARC
  5
3b
  100
AcDbEntity
  8
1
  100
AcDbCircle
  10
63.25
  20
0
  30
0
  40
1.75
  100
AcDbArc
  50
0
  51
90
  0
LINE
  5
3c
  100
AcDbEntity
  8
1
  100
AcDbLine
  10
63.25
  20
1.75
  30
0
  11
62.2
  21
1.75
  31
0
  0
LINE
  5
3d
  100
AcDbEntity
  8
1
  100
AcDbLine
  10
62.2
  20
1.75
  30
0
  11
62.2
  21
1.675
  31
0
  0
LINE
  5
3e
  100
AcDbEntity
  8
1
  100
AcDbLine
  10
62.2
  20
1.675
  30
0
  11
45.63
  21
1.675
  31
0
  0
ARC
  5
3f
  100
AcDbEntity
  8
1
  100
AcDbCircle
  10
45.717156
  20
2.671195
  30
0
  40
1
  100
AcDbArc
  50
255
  51
265
  0
LINE
  5
40
  100
AcDbEntity
  8
1
  100
AcDbLine
  10
45.458337
  20
1.705269
  30
0
  11
40.626334
  21
3
  31
0
  0
LINE
  5
41
  100
AcDbEntity
  8
1
  100
AcDbLine
  10
40.626334
  20
3
  30
0
  11
39.9
  21
3
  31
0
  0
LINE
  5
42
  100
AcDbEntity
  8
1
  100
AcDbLine
  10
39.9
  20
3
  30
0
  11
39.9
  21
-3
  31
0
  0
LINE
  5
43
  100
AcDbEntity
  8
1
  100
AcDbLine
  10
39.9
  20
-3
  30
0
  11
40.626334
  21
-3
  31
0
  0
LINE
  5
44
  100
AcDbEntity
  8
1
  100
AcDbLine
  10
40.626334
  20
-3
  30
0
  11
45.458337
  21
-1.705269
  31
0
  0
LINE
  5
45
  100
AcDbEntity
  8
1
  100
AcDbLine
  10
39.9
  20
-3
  30
0
  11
39.9
  21
3
  31
0
  0
LINE
  5
46
  100
AcDbEntity
  8
1
  100
AcDbLine
  10
39.9
  20
3
  30
0
  11
39.9
  21
-3
  31
0
  0
LINE
  5
47
  100
AcDbEntity
  8
1
  100
AcDbLine
  10
40.626334
  20
-3
  30
0
  11
40.626334
  21
3
  31
0
  0
LINE
  5
48
  100
AcDbEntity
  8
1
  100
AcDbLine
  10
45.458337
  20
1.705269
  30
0
  11
45.458337
  21
-1.705269
  31
0
  0
LINE
  5
49
  100
AcDbEntity
  8
1
  100
AcDbLine
  10
45.63
  20
-1.675
  30
0
  11
45.63
  21
1.675
  31
0
  0
LINE
  5
4a
  100
AcDbEntity
  8
1
  100
AcDbLine
  10
63.25
  20
1.75
  30
0
  11
63.25
  21
-1.75
  31
0
  0
LINE
  5
4b
  100
AcDbEntity
  8
1
  100
AcDbLine
  10
62.3
  20
-0.947311
  30
0
  11
62.4
  21
-0.994475
  31
0
  0
LINE
  5
4c
  100
AcDbEntity
  8
1
  100
AcDbLine
  10
62.4
  20
-0.994475
  30
0
  11
62.5
  21
-1.040557
  31
0
  0
LINE
  5
4d
  100
AcDbEntity
  8
1
  100
AcDbLine
  10
62.5
  20
-1.040557
  30
0
  11
62.6
  21
-1.085506
  31
0
  0
LINE
  5
4e
  100
AcDbEntity
  8
1
  100
AcDbLine
  10
62.6
  20
-1.085506
  30
0
  11
62.7
  21
-1.129273
  31
0
  0
LINE
  5
4f
  100
AcDbEntity
  8
1
  100
AcDbLine
  10
62.7
  20
-1.129273
  30
0
  11
62.8
  21
-1.171812
  31
0
  0
LINE
  5
50
  100
AcDbEntity
  8
1
  100
AcDbLine
  10
62.8
  20
-1.171812
  30
0
  11
62.9
  21
-1.213075
  31
0
  0
LINE
  5
51
  100
AcDbEntity
  8
1
  100
AcDbLine
  10
62.9
  20
-1.213075
  30
0
  11
63
  21
-1.253018
  31
0
  0
LINE
  5
52
  100
AcDbEntity
  8
1
  100
AcDbLine
  10
63
  20
-1.253018
  30
0
  11
63.1
  21
-1.291597
  31
0
  0
LINE
  5
53
  100
AcDbEntity
  8
1
  100
AcDbLine
  10
63.1
  20
-1.291597
  30
0
  11
63.2
  21
-1.328771
  31
0
  0
LINE
  5
54
  100
AcDbEntity
  8
1
  100
AcDbLine
  10
63.2
  20
-1.328771
  30
0
  11
63.3
  21
-1.363833
  31
0
  0
LINE
  5
55
  100
AcDbEntity
  8
1
  100
AcDbLine
  10
63.3
  20
-1.363833
  30
0
  11
63.4
  21
-1.392652
  31
0
  0
LINE
  5
56
  100
AcDbEntity
  8
1
  100
AcDbLine
  10
63.4
  20
-1.392652
  30
0
  11
63.5
  21
-1.414266
  31
0
  0
LINE
  5
57
  100
AcDbEntity
  8
1
  100
AcDbLine
  10
63.5
  20
-1.414266
  30
0
  11
63.6
  21
-1.428342
  31
0
  0
LINE
  5
58
  100
AcDbEntity
  8
1
  100
AcDbLine
  10
63.6
  20
-1.428342
  30
0
  11
63.7
  21
-1.434514
  31
0
  0
LINE
  5
59
  100
AcDbEntity
  8
1
  100
AcDbLine
  10
63.7
  20
-1.434514
  30
0
  11
63.8
  21
-1.432369
  31
0
  0
LINE
  5
5a
  100
AcDbEntity
  8
1
  100
AcDbLine
  10
63.8
  20
-1.432369
  30
0
  11
63.9
  21
-1.42143
  31
0
  0
LINE
  5
5b
  100
AcDbEntity
  8
1
  100
AcDbLine
  10
63.9
  20
-1.42143
  30
0
  11
64
  21
-1.401129
  31
0
  0
LINE
  5
5c
  100
AcDbEntity
  8
1
  100
AcDbLine
  10
64
  20
-1.401129
  30
0
  11
64.1
  21
-1.37077
  31
0
  0
LINE
  5
5d
  100
AcDbEntity
  8
1
  100
AcDbLine
  10
64.1
  20
-1.37077
  30
0
  11
64.2
  21
-1.329468
  31
0
  0
LINE
  5
5e
  100
AcDbEntity
  8
1
  100
AcDbLine
  10
64.2
  20
-1.329468
  30
0
  11
64.3
  21
-1.276049
  31
0
  0
LINE
  5
5f
  100
AcDbEntity
  8
1
  100
AcDbLine
  10
64.3
  20
-1.276049
  30
0
  11
64.4
  21
-1.208883
  31
0
  0
LINE
  5
60
  100
AcDbEntity
  8
1
  100
AcDbLine
  10
64.4
  20
-1.208883
  30
0
  11
64.5
  21
-1.125796
  31
0
  0
LINE
  5
61
  100
AcDbEntity
  8
1
  100
AcDbLine
  10
64.5
  20
-1.125796
  30
0
  11
64.6
  21
-1.030991
  31
0
  0
LINE
  5
62
  100
AcDbEntity
  8
1
  100
AcDbLine
  10
64.6
  20
-1.030991
  30
0
  11
64.7
  21
-0.927251
  31
0
  0
LINE
  5
63
  100
AcDbEntity
  8
1
  100
AcDbLine
  10
64.7
  20
-0.974824
  30
0
  11
64.7
  21
-0.979796
  31
0
  0
LINE
  5
64
  100
AcDbEntity
  8
1
  100
AcDbLine
  10
64.7
  20
-0.979796
  30
0
  11
64.7
  21
-0.974824
  31
0
  0
LINE
  5
65
  100
AcDbEntity
  8
1
  100
AcDbLine
  10
64.7
  20
-0.974824
  30
0
  11
64.6
  21
-1.093439
  31
0
  0
LINE
  5
66
  100
AcDbEntity
  8
1
  100
AcDbLine
  10
64.6
  20
-1.093439
  30
0
  11
64.5
  21
-1.193871
  31
0
  0
LINE
  5
67
  100
AcDbEntity
  8
1
  100
AcDbLine
  10
64.5
  20
-1.193871
  30
0
  11
64.4
  21
-1.28001
  31
0
  0
LINE
  5
68
  100
AcDbEntity
  8
1
  100
AcDbLine
  10
64.4
  20
-1.28001
  30
0
  11
64.3
  21
-1.3507
  31
0
  0
LINE
  5
69
  100
AcDbEntity
  8
1
  100
AcDbLine
  10
64.3
  20
-1.3507
  30
0
  11
64.2
  21
-1.407993
  31
0
  0
LINE
  5
6a
  100
AcDbEntity
  8
1
  100
AcDbLine
  10
64.2
  20
-1.407993
  30
0
  11
64.1
  21
-1.453396
  31
0
  0
LINE
  5
6b
  100
AcDbEntity
  8
1
  100
AcDbLine
  10
64.1
  20
-1.453396
  30
0
  11
64
  21
-1.488003
  31
0
  0
LINE
  5
6c
  100
AcDbEntity
  8
1
  100
AcDbLine
  10
64
  20
-1.488003
  30
0
  11
63.9
  21
-1.512643
  31
0
  0
LINE
  5
6d
  100
AcDbEntity
  8
1
  100
AcDbLine
  10
63.9
  20
-1.512643
  30
0
  11
63.8
  21
-1.527971
  31
0
  0
LINE
  5
6e
  100
AcDbEntity
  8
1
  100
AcDbLine
  10
63.8
  20
-1.527971
  30
0
  11
63.7
  21
-1.534524
  31
0
  0
LINE
  5
6f
  100
AcDbEntity
  8
1
  100
AcDbLine
  10
63.7
  20
-1.534524
  30
0
  11
63.6
  21
-1.532755
  31
0
  0
LINE
  5
70
  100
AcDbEntity
  8
1
  100
AcDbLine
  10
63.6
  20
-1.532755
  30
0
  11
63.5
  21
-1.523056
  31
0
  0
LINE
  5
71
  100
AcDbEntity
  8
1
  100
AcDbLine
  10
63.5
  20
-1.523056
  30
0
  11
63.4
  21
-1.505779
  31
0
  0
LINE
  5
72
  100
AcDbEntity
  8
1
  100
AcDbLine
  10
63.4
  20
-1.505779
  30
0
  11
63.3
  21
-1.481243
  31
0
  0
LINE
  5
73
  100
AcDbEntity
  8
1
  100
AcDbLine
  10
63.3
  20
-1.481243
  30
0
  11
63.2
  21
-1.450391
  31
0
  0
LINE
  5
74
  100
AcDbEntity
  8
1
  100
AcDbLine
  10
63.2
  20
-1.450391
  30
0
  11
63.1
  21
-1.417302
  31
0
  0
LINE
  5
75
  100
AcDbEntity
  8
1
  100
AcDbLine
  10
63.1
  20
-1.417302
  30
0
  11
63
  21
-1.38267
  31
0
  0
LINE
  5
76
  100
AcDbEntity
  8
1
  100
AcDbLine
  10
63
  20
-1.38267
  30
0
  11
62.9
  21
-1.346533
  31
0
  0
LINE
  5
77
  100
AcDbEntity
  8
1
  100
AcDbLine
  10
62.9
  20
-1.346533
  30
0
  11
62.8
  21
-1.308932
  31
0
  0
LINE
  5
78
  100
AcDbEntity
  8
1
  100
AcDbLine
  10
62.8
  20
-1.308932
  30
0
  11
62.7
  21
-1.269905
  31
0
  0
LINE
  5
79
  100
AcDbEntity
  8
1
  100
AcDbLine
  10
62.7
  20
-1.269905
  30
0
  11
62.6
  21
-1.229496
  31
0
  0
LINE
  5
7a
  100
AcDbEntity
  8
1
  100
AcDbLine
  10
62.6
  20
-1.229496
  30
0
  11
62.5
  21
-1.18775
  31
0
  0
LINE
  5
7b
  100
AcDbEntity
  8
1
  100
AcDbLine
  10
62.5
  20
-1.18775
  30
0
  11
62.4
  21
-1.14471
  31
0
  0
LINE
  5
7c
  100
AcDbEntity
  8
1
  100
AcDbLine
  10
62.4
  20
-1.14471
  30
0
  11
62.3
  21
-1.100425
  31
0
  0
LINE
  5
7d
  100
AcDbEntity
  8
1
  100
AcDbLine
  10
62.3
  20
-1.100425
  30
0
  11
62.2
  21
-1.054942
  31
0
  0
LINE
  5
7e
  100
AcDbEntity
  8
1
  100
AcDbLine
  10
62.2
  20
-1.054942
  30
0
  11
62.2
  21
-1.001297
  31
0
  0
LINE
  5
7f
  100
AcDbEntity
  8
1
  100
AcDbLine
  10
62.2
  20
-1.001297
  30
0
  11
62.1
  21
-0.95646
  31
0
  0
LINE
  5
80
  100
AcDbEntity
  8
1
  100
AcDbLine
  10
62.1
  20
-0.95646
  30
0
  11
62
  21
-0.912437
  31
0
  0
LINE
  5
81
  100
AcDbEntity
  8
1
  100
AcDbLine
  10
62
  20
-0.912437
  30
0
  11
61.9
  21
-1.095682
  31
0
  0
LINE
  5
82
  100
AcDbEntity
  8
1
  100
AcDbLine
  10
61.9
  20
-1.095682
  30
0
  11
61.9
  21
-1.675
  31
0
  0
LINE
  5
83
  100
AcDbEntity
  8
1
  100
AcDbLine
  10
62.2
  20
-1.675
  30
0
  11
62.2
  21
1.675
  31
0
  0
LINE
  5
84
  100
AcDbEntity
  8
1
  100
AcDbLine
  10
62.2
  20
1.75
  30
0
  11
62.2
  21
-1.75
  31
0
  0
LINE
  5
85
  100
AcDbEntity
  8
1
  100
AcDbLine
  10
61.9
  20
1.675
  30
0
  11
61.9
  21
0.774132
  31
0
  0
LINE
  5
86
  100
AcDbEntity
  8
1
  100
AcDbLine
  10
61.9
  20
0.774132
  30
0
  11
62
  21
-0.247949
  31
0
  0
LINE
  5
87
  100
AcDbEntity
  8
1
  100
AcDbLine
  10
62
  20
-0.247949
  30
0
  11
62.1
  21
-0.394949
  31
0
  0
LINE
  5
88
  100
AcDbEntity
  8
1
  100
AcDbLine
  10
62.1
  20
-0.394949
  30
0
  11
62.2
  21
-0.449873
  31
0
  0
LINE
  5
89
  100
AcDbEntity
  8
1
  100
AcDbLine
  10
62.2
  20
-0.449873
  30
0
  11
62.2
  21
-0.513766
  31
0
  0
LINE
  5
8a
  100
AcDbEntity
  8
1
  100
AcDbLine
  10
62.2
  20
-0.513766
  30
0
  11
62.3
  21
-0.568667
  31
0
  0
LINE
  5
8b
  100
AcDbEntity
  8
1
  100
AcDbLine
  10
62.3
  20
-0.568667
  30
0
  11
62.4
  21
-0.622949
  31
0
  0
LINE
  5
8c
  100
AcDbEntity
  8
1
  100
AcDbLine
  10
62.4
  20
-0.622949
  30
0
  11
62.5
  21
-0.676554
  31
0
  0
LINE
  5
8d
  100
AcDbEntity
  8
1
  100
AcDbLine
  10
62.5
  20
-0.676554
  30
0
  11
62.6
  21
-0.729422
  31
0
  0
LINE
  5
8e
  100
AcDbEntity
  8
1
  100
AcDbLine
  10
62.6
  20
-0.729422
  30
0
  11
62.7
  21
-0.781496
  31
0
  0
LINE
  5
8f
  100
AcDbEntity
  8
1
  100
AcDbLine
  10
62.7
  20
-0.781496
  30
0
  11
62.8
  21
-0.83272
  31
0
  0
LINE
  5
90
  100
AcDbEntity
  8
1
  100
AcDbLine
  10
62.8
  20
-0.83272
  30
0
  11
62.9
  21
-0.883037
  31
0
  0
LINE
  5
91
  100
AcDbEntity
  8
1
  100
AcDbLine
  10
62.9
  20
-0.883037
  30
0
  11
63
  21
-0.932394
  31
0
  0
LINE
  5
92
  100
AcDbEntity
  8
1
  100
AcDbLine
  10
63
  20
-0.932394
  30
0
  11
63.1
  21
-0.980735
  31
0
  0
LINE
  5
93
  100
AcDbEntity
  8
1
  100
AcDbLine
  10
63.1
  20
-0.980735
  30
0
  11
63.2
  21
-1.02801
  31
0
  0
LINE
  5
94
  100
AcDbEntity
  8
1
  100
AcDbLine
  10
63.2
  20
-1.02801
  30
0
  11
63.3
  21
-1.073401
  31
0
  0
LINE
  5
95
  100
AcDbEntity
  8
1
  100
AcDbLine
  10
63.3
  20
-1.073401
  30
0
  11
63.4
  21
-1.11217
  31
0
  0
LINE
  5
96
  100
AcDbEntity
  8
1
  100
AcDbLine
  10
63.4
  20
-1.11217
  30
0
  11
63.5
  21
-1.143214
  31
0
  0
LINE
  5
97
  100
AcDbEntity
  8
1
  100
AcDbLine
  10
63.5
  20
-1.143214
  30
0
  11
63.6
  21
-1.166134
  31
0
  0
LINE
  5
98
  100
AcDbEntity
  8
1
  100
AcDbLine
  10
63.6
  20
-1.166134
  30
0
  11
63.7
  21
-1.180464
  31
0
  0
LINE
  5
99
  100
AcDbEntity
  8
1
  100
AcDbLine
  10
63.7
  20
-1.180464
  30
0
  11
63.8
  21
-1.185648
  31
0
  0
LINE
  5
9a
  100
AcDbEntity
  8
1
  100
AcDbLine
  10
63.8
  20
-1.185648
  30
0
  11
63.9
  21
-1.181006
  31
0
  0
LINE
  5
9b
  100
AcDbEntity
  8
1
  100
AcDbLine
  10
63.9
  20
-1.181006
  30
0
  11
64
  21
-1.165678
  31
0
  0
LINE
  5
9c
  100
AcDbEntity
  8
1
  100
AcDbLine
  10
64
  20
-1.165678
  30
0
  11
64.1
  21
-1.138531
  31
0
  0
LINE
  5
9d
  100
AcDbEntity
  8
1
  100
AcDbLine
  10
64.1
  20
-1.138531
  30
0
  11
64.2
  21
-1.098001
  31
0
  0
LINE
  5
9e
  100
AcDbEntity
  8
1
  100
AcDbLine
  10
64.2
  20
-1.098001
  30
0
  11
64.3
  21
-1.041806
  31
0
  0
LINE
  5
9f
  100
AcDbEntity
  8
1
  100
AcDbLine
  10
64.3
  20
-1.041806
  30
0
  11
64.4
  21
-0.966347
  31
0
  0
LINE
  5
a0
  100
AcDbEntity
  8
1
  100
AcDbLine
  10
64.4
  20
-0.966347
  30
0
  11
64.5
  21
-0.865296
  31
0
  0
LINE
  5
a1
  100
AcDbEntity
  8
1
  100
AcDbLine
  10
64.5
  20
-0.865296
  30
0
  11
64.6
  21
-0.72536
  31
0
  0
LINE
  5
a2
  100
AcDbEntity
  8
1
  100
AcDbLine
  10
64.6
  20
-0.72536
  30
0
  11
64.7
  21
-0.505673
  31
0
  0
LINE
  5
a3
  100
AcDbEntity
  8
1
  100
AcDbLine
  10
64.7
  20
-0.505673
  30
0
  11
64.7
  21
0.979796
  31
0
  0
LINE
  5
a4
  100
AcDbEntity
  8
1
  100
AcDbLine
  10
64.7
  20
0.979796
  30
0
  11
64.7
  21
-0.505673
  31
0
  0
LINE
  5
a5
  100
AcDbEntity
  8
SK1
  100
AcDbLine
  10
39.9
  20
3
  30
0
  11
0.7
  21
3
  31
0
  0
LINE
  5
a6
  100
AcDbEntity
  8
SK1
  100
AcDbLine
  10
0.7
  20
3
  30
0
  11
0
  21
2.3
  31
0
  0
LINE
  5
a7
  100
AcDbEntity
  8
SK1
  100
AcDbLine
  10
39.9
  20
-3
  30
0
  11
0.7
  21
-3
  31
0
  0
LINE
  5
a8
  100
AcDbEntity
  8
SK1
  100
AcDbLine
  10
0.7
  20
-3
  30
0
  11
0
  21
-2.3
  31
0
  0
LINE
  5
a9
  100
AcDbEntity
  8
SK1
  100
AcDbLine
  10
0.7
  20
3
  30
0
  11
0.7
  21
-3
  31
0
  0
LINE
  5
aa
  100
AcDbEntity
  8
SK1
  100
AcDbLine
  10
0
  20
2.3
  30
0
  11
0
  21
-2.3
  31
0
  0
LINE
  5
ab
  100
AcDbEntity
  8
SK1
  100
AcDbLine
  10
40.9401
  20
1.40688
  30
0
  11
41.3069
  21
1.0401
  31
0
  0
LINE
  5
ac
  100
AcDbEntity
  8
SK1
  100
AcDbLine
  10
40.4328
  20
1.66666
  30
0
  11
41.5667
  21
0.532833
  31
0
  0
LINE
  5
ad
  100
AcDbEntity
  8
SK1
  100
AcDbLine
  10
40.1154
  20
1.73657
  30
0
  11
41.6366
  21
0.215434
  31
0
  0
LINE
  5
ae
  100
AcDbEntity
  8
SK1
  100
AcDbLine
  10
39.9
  20
1.70452
  30
0
  11
41.6045
  21
0
  31
0
  0
LINE
  5
af
  100
AcDbEntity
  8
SK1
  100
AcDbLine
  10
39.9
  20
1.45703
  30
0
  11
41.357
  21
0
  31
0
  0
LINE
  5
b0
  100
AcDbEntity
  8
SK1
  100
AcDbLine
  10
39.9
  20
1.20954
  30
0
  11
41.1095
  21
0
  31
0
  0
LINE
  5
b1
  100
AcDbEntity
  8
SK1
  100
AcDbLine
  10
39.9
  20
0.962054
  30
0
  11
40.8621
  21
0
  31
0
  0
LINE
  5
b2
  100
AcDbEntity
  8
SK1
  100
AcDbLine
  10
39.9
  20
0.714566
  30
0
  11
40.6146
  21
0
  31
0
  0
LINE
  5
b3
  100
AcDbEntity
  8
SK1
  100
AcDbLine
  10
39.9
  20
0.467079
  30
0
  11
40.3671
  21
0
  31
0
  0
LINE
  5
b4
  100
AcDbEntity
  8
SK1
  100
AcDbLine
  10
39.9
  20
0.219592
  30
0
  11
40.1196
  21
0
  31
0
  0
LINE
  5
b5
  100
AcDbEntity
  8
SK1
  100
AcDbLine
  10
39.9
  20
1.70452
  30
0
  11
39.9441
  21
1.74861
  31
0
  0
LINE
  5
b6
  100
AcDbEntity
  8
SK1
  100
AcDbLine
  10
39.9
  20
1.45703
  30
0
  11
40.171
  21
1.72802
  31
0
  0
LINE
  5
b7
  100
AcDbEntity
  8
SK1
  100
AcDbLine
  10
39.9
  20
1.20954
  30
0
  11
40.3742
  21
1.6837
  31
0
  0
LINE
  5
b8
  100
AcDbEntity
  8
SK1
  100
AcDbLine
  10
39.9
  20
0.962054
  30
0
  11
40.5588
  21
1.62082
  31
0
  0
LINE
  5
b9
  100
AcDbEntity
  8
SK1
  100
AcDbLine
  10
39.9
  20
0.714566
  30
0
  11
40.7271
  21
1.54167
  31
0
  0
LINE
  5
ba
  100
AcDbEntity
  8
SK1
  100
AcDbLine
  10
39.9
  20
0.467079
  30
0
  11
40.881
  21
1.44812
  31
0
  0
LINE
  5
bb
  100
AcDbEntity
  8
SK1
  100
AcDbLine
  10
39.9
  20
0.219592
  30
0
  11
41.0226
  21
1.34216
  31
0
  0
LINE
  5
bc
  100
AcDbEntity
  8
SK1
  100
AcDbLine
  10
39.9279
  20
0
  30
0
  11
41.1508
  21
1.22288
  31
0
  0
LINE
  5
bd
  100
AcDbEntity
  8
SK1
  100
AcDbLine
  10
40.1754
  20
0
  30
0
  11
41.267
  21
1.09157
  31
0
  0
LINE
  5
be
  100
AcDbEntity
  8
SK1
  100
AcDbLine
  10
40.4229
  20
0
  30
0
  11
41.3707
  21
0.947822
  31
0
  0
LINE
  5
bf
  100
AcDbEntity
  8
SK1
  100
AcDbLine
  10
40.6704
  20
0
  30
0
  11
41.4605
  21
0.790145
  31
0
  0
LINE
  5
c0
  100
AcDbEntity
  8
SK1
  100
AcDbLine
  10
40.9178
  20
0
  30
0
  11
41.5364
  21
0.618517
  31
0
  0
LINE
  5
c1
  100
AcDbEntity
  8
SK1
  100
AcDbLine
  10
41.1653
  20
0
  30
0
  11
41.596
  21
0.430696
  31
0
  0
LINE
  5
c2
  100
AcDbEntity
  8
SK1
  100
AcDbLine
  10
41.4128
  20
0
  30
0
  11
41.6356
  21
0.222827
  31
0
  0
LINE
  5
c3
  100
AcDbEntity
  8
SK1
  100
AcDbLine
  10
39.9
  20
0
  30
0
  11
39.9
  21
1.75
  31
0
  0
LINE
  5
c4
  100
AcDbEntity
  8
SK1
  100
AcDbLine
  10
39.9
  20
0
  30
0
  11
41.65
  21
0
  31
0
  0
ARC
  5
c5
  100
AcDbEntity
  8
SK1
  100
AcDbCircle
  10
39.9
  20
0
  30
0
  40
1.75
  100
AcDbArc
  50
0
  51
90
  0
ARC
  5
c6
  100
AcDbEntity
  8
SK1
  100
AcDbCircle
  10
39.9
  20
0
  30
0
  40
1.75
  100
AcDbArc
  50
90
  51
180
  0
LINE
  5
c7
  100
AcDbEntity
  8
SK1
  100
AcDbLine
  10
39.8721
  20
0
  30
0
  11
39.9
  21
-0.027896
  31
0
  0
LINE
  5
c8
  100
AcDbEntity
  8
SK1
  100
AcDbLine
  10
39.6246
  20
0
  30
0
  11
39.9
  21
-0.275383
  31
0
  0
LINE
  5
c9
  100
AcDbEntity
  8
SK1
  100
AcDbLine
  10
39.3771
  20
0
  30
0
  11
39.9
  21
-0.522871
  31
0
  0
LINE
  5
ca
  100
AcDbEntity
  8
SK1
  100
AcDbLine
  10
39.1296
  20
0
  30
0
  11
39.9
  21
-0.770358
  31
0
  0
LINE
  5
cb
  100
AcDbEntity
  8
SK1
  100
AcDbLine
  10
38.8822
  20
0
  30
0
  11
39.9
  21
-1.01785
  31
0
  0
LINE
  5
cc
  100
AcDbEntity
  8
SK1
  100
AcDbLine
  10
38.6347
  20
0
  30
0
  11
39.9
  21
-1.26533
  31
0
  0
LINE
  5
cd
  100
AcDbEntity
  8
SK1
  100
AcDbLine
  10
38.3872
  20
0
  30
0
  11
39.9
  21
-1.51282
  31
0
  0
LINE
  5
ce
  100
AcDbEntity
  8
SK1
  100
AcDbLine
  10
38.1503
  20
-0.010642
  30
0
  11
39.8894
  21
-1.74967
  31
0
  0
LINE
  5
cf
  100
AcDbEntity
  8
SK1
  100
AcDbLine
  10
38.1736
  20
-0.281429
  30
0
  11
39.6186
  21
-1.72637
  31
0
  0
LINE
  5
d0
  100
AcDbEntity
  8
SK1
  100
AcDbLine
  10
38.2639
  20
-0.619147
  30
0
  11
39.2809
  21
-1.63613
  31
0
  0
LINE
  5
d1
  100
AcDbEntity
  8
SK1
  100
AcDbLine
  10
38.1514
  20
-0.044098
  30
0
  11
38.1955
  21
0
  31
0
  0
LINE
  5
d2
  100
AcDbEntity
  8
SK1
  100
AcDbLine
  10
38.172
  20
-0.270991
  30
0
  11
38.443
  21
0
  31
0
  0
LINE
  5
d3
  100
AcDbEntity
  8
SK1
  100
AcDbLine
  10
38.2163
  20
-0.474162
  30
0
  11
38.6905
  21
0
  31
0
  0
LINE
  5
d4
  100
AcDbEntity
  8
SK1
  100
AcDbLine
  10
38.2792
  20
-0.658762
  30
0
  11
38.9379
  21
0
  31
0
  0
LINE
  5
d5
  100
AcDbEntity
  8
SK1
  100
AcDbLine
  10
38.3583
  20
-0.827105
  30
0
  11
39.1854
  21
0
  31
0
  0
LINE
  5
d6
  100
AcDbEntity
  8
SK1
  100
AcDbLine
  10
38.4519
  20
-0.981039
  30
0
  11
39.4329
  21
0
  31
0
  0
LINE
  5
d7
  100
AcDbEntity
  8
SK1
  100
AcDbLine
  10
38.5578
  20
-1.12257
  30
0
  11
39.6804
  21
0
  31
0
  0
LINE
  5
d8
  100
AcDbEntity
  8
SK1
  100
AcDbLine
  10
38.6771
  20
-1.25077
  30
0
  11
39.9
  21
-0.027896
  31
0
  0
LINE
  5
d9
  100
AcDbEntity
  8
SK1
  100
AcDbLine
  10
38.8084
  20
-1.36695
  30
0
  11
39.9
  21
-0.275383
  31
0
  0
LINE
  5
da
  100
AcDbEntity
  8
SK1
  100
AcDbLine
  10
38.9522
  20
-1.47069
  30
0
  11
39.9
  21
-0.522871
  31
0
  0
LINE
  5
db
  100
AcDbEntity
  8
SK1
  100
AcDbLine
  10
39.1099
  20
-1.5605
  30
0
  11
39.9
  21
-0.770358
  31
0
  0
LINE
  5
dc
  100
AcDbEntity
  8
SK1
  100
AcDbLine
  10
39.2815
  20
-1.63636
  30
0
  11
39.9
  21
-1.01785
  31
0
  0
LINE
  5
dd
  100
AcDbEntity
  8
SK1
  100
AcDbLine
  10
39.4693
  20
-1.69603
  30
0
  11
39.9
  21
-1.26533
  31
0
  0
LINE
  5
de
  100
AcDbEntity
  8
SK1
  100
AcDbLine
  10
39.6772
  20
-1.73565
  30
0
  11
39.9
  21
-1.51282
  31
0
  0
LINE
  5
df
  100
AcDbEntity
  8
SK1
  100
AcDbLine
  10
39.9
  20
0
  30
0
  11
38.15
  21
0
  31
0
  0
LINE
  5
e0
  100
AcDbEntity
  8
SK1
  100
AcDbLine
  10
39.9
  20
-1.75
  30
0
  11
39.9
  21
0
  31
0
  0
ARC
  5
e1
  100
AcDbEntity
  8
SK1
  100
AcDbCircle
  10
39.9
  20
0
  30
0
  40
1.75
  100
AcDbArc
  50
180
  51
270
  0
ARC
  5
e2
  100
AcDbEntity
  8
SK1
  100
AcDbCircle
  10
39.9
  20
0
  30
0
  40
1.75
  100
AcDbArc
  50
270
  51
0
  0
LINE
  5
15d
  100
AcDbEntity
  8
NOCUT
  100
AcDbLine
  10
62.2
  20
0
  30
0
  11
62.2
  21
1.675
  31
0
  0
LINE
  5
15e
  100
AcDbEntity
  8
NOCUT
  100
AcDbLine
  10
62.2
  20
1.675
  30
0
  11
45.63
  21
1.675
  31
0
  0
ARC
  5
15f
  100
AcDbEntity
  8
NOCUT
  100
AcDbCircle
  10
45.717156
  20
2.671195
  30
0
  40
1
  100
AcDbArc
  50
255
  51
265
  0
LINE
  5
160
  100
AcDbEntity
  8
NOCUT
  100
AcDbLine
  10
45.458337
  20
1.705269
  30
0
  11
40.626334
  21
3
  31
0
  0
LINE
  5
161
  100
AcDbEntity
  8
NOCUT
  100
AcDbLine
  10
40.626334
  20
3
  30
0
  11
39.9
  21
3
  31
0
  0
LINE
  5
162
  100
AcDbEntity
  8
NOCUT
  100
AcDbLine
  10
39.9
  20
3
  30
0
  11
39.9
  21
0
  31
0
  0
LINE
  5
163
  100
AcDbEntity
  8
NOCUT
  100
AcDbLine
  10
39.9
  20
0
  30
0
  11
62.2
  21
0
  31
0
  0
ARC
  5
164
  100
AcDbEntity
  8
CUT
  100
AcDbCircle
  10
63.25
  20
0
  30
0
  40
1.75
  100
AcDbArc
  50
0
  51
90
  0
LINE
  5
165
  100
AcDbEntity
  8
CUT
  100
AcDbLine
  10
63.25
  20
1.75
  30
0
  11
62.2
  21
1.75
  31
0
  0
LINE
  5
166
  100
AcDbEntity
  8
CUT
  100
AcDbLine
  10
62.2
  20
1.75
  30
0
  11
62.2
  21
0
  31
0
  0
LINE
  5
167
  100
AcDbEntity
  8
CUT
  100
AcDbLine
  10
62.2
  20
0
  30
0
  11
65
  21
0
  31
0
  0
LINE
  5
168
  100
AcDbEntity
  8
4
  100
AcDbLine
  10
39.9
  20
0
  30
0
  11
65
  21
0
  31
0
  0
LINE
  5
169
  100
AcDbEntity
  8
SK4
  100
AcDbLine
  10
-1
  20
0
  30
0
  11
66
  21
0
  31
0
  0
LINE
  5
16a
  100
AcDbEntity
  8
INFTOTAL
  100
AcDbLine
  10
-16.45
  20
24.45
  30
0
  11
81.45
  21
24.45
  31
0
  0
LINE
  5
16b
  100
AcDbEntity
  8
INFTOTAL
  100
AcDbLine
  10
81.45
  20
24.45
  30
0
  11
81.45
  21
-19.45
  31
0
  0
LINE
  5
16c
  100
AcDbEntity
  8
INFTOTAL
  100
AcDbLine
  10
81.45
  20
-19.45
  30
0
  11
-16.45
  21
-19.45
  31
0
  0
LINE
  5
16d
  100
AcDbEntity
  8
INFTOTAL
  100
AcDbLine
  10
-16.45
  20
-19.45
  30
0
  11
-16.45
  21
24.45
  31
0
  0
ENDSEC
  0
SECTION
  2
OBJECTS
  0
DICTIONARY
  5
16e
  330
0
100
AcDbDictionary
281
    1
  3
ACAD_GROUP
  350
16f
  0
DICTIONARY
  5
16f
102
{ACAD_REACTORS
  330
16e
102
}
  330
16e
100
AcDbDictionary
281
    1
  0
ENDSEC
  0
EOF
