  0
SECTION
  2
HEADER
  9
$ACADVER
  1
AC1015
  9
$DWGCODEPAGE
  3
ANSI_932
  9
$HANDSEED
  5
106AB90
  0
ENDSEC
  0
SECTION
  2
CLASSES
  0
CLASS
  1
IMAGEDEF
  2
AcDbRasterImageDef
  3
ISM
  90
0
  91
4
  280
0
  281
0
  0
CLASS
  1
IMAGE
  2
AcDbRasterImage
  3
ISM
  90
127
  91
5
  280
0
  281
1
  0
CLASS
  1
IMAGEDEF_REACTOR
  2
AcDbRasterImageDefReactor
  3
ISM
  90
1
  91
4
  280
0
  281
0
  0
ENDSEC
  0
SECTION
  2
TABLES
  0
TABLE
  2
VPORT
  5
2
  330
0
  100
AcDbSymbolTable
  70
    0
  0
ENDTAB
  0
TABLE
  2
LTYPE
  5
3
  330
0
  100
AcDbSymbolTable
  70
    4
  0
LTYPE
  5
4
  330
3
  100
AcDbSymbolTableRecord
  100
AcDbLinetypeTableRecord
  2
ByBlock
  70
    0
  3

  72
65
  73
    0
  40
0
  0
LTYPE
  5
5
  330
3
  100
AcDbSymbolTableRecord
  100
AcDbLinetypeTableRecord
  2
ByLayer
  70
    0
  3

  72
65
  73
    0
  40
0
  0
LTYPE
  5
6
  330
3
  100
AcDbSymbolTableRecord
  100
AcDbLinetypeTableRecord
  2
CONTINUOUS
  70
    0
  3
Solid Line
  72
65
  73
    0
  40
0
  0
LTYPE
  5
7
  330
3
  100
AcDbSymbolTableRecord
  100
AcDbLinetypeTableRecord
  2
DASH
  70
    0
  3
Hidden
  72
65
  73
2
  40
2.5
  49
1.5
  74
0
  49
-1
  74
0
  0
LTYPE
  5
8
  330
3
  100
AcDbSymbolTableRecord
  100
AcDbLinetypeTableRecord
  2
LONGDASHDASH
  70
    0
  3
__ . __
  72
65
  73
    4
  40
7
  49
4
  74
    0
  49
-1
  74
    0
  49
1
  74
    0
  49
-1
  74
    0
  0
ENDTAB
  0
TABLE
  2
LAYER
  5
9
  330
0
  100
AcDbSymbolTable
  70
    40
  0
LAYER
  5
a
  330
9
  100
AcDbSymbolTableRecord
  100
AcDbLayerTableRecord
  2
0
  70
    0
  62
    0
  6
CONTINUOUS
  390
0
  0
LAYER
  5
c
  330
9
  100
AcDbSymbolTableRecord
  100
AcDbLayerTableRecord
  2
1
  70
    0
  62
    4
  6
CONTINUOUS
  370
50
  390
0
  0
LAYER
  5
d
  330
9
  100
AcDbSymbolTableRecord
  100
AcDbLayerTableRecord
  2
2
  70
    0
  62
    7
  6
CONTINUOUS
  370
25
  390
0
  0
LAYER
  5
f
  330
9
  100
AcDbSymbolTableRecord
  100
AcDbLayerTableRecord
  2
4
  70
    0
  62
    2
  6
LONGDASHDASH
  370
25
  390
0
  0
LAYER
  5
13
  330
9
  100
AcDbSymbolTableRecord
  100
AcDbLayerTableRecord
  2
SK1
  70
    0
  62
    4
  6
CONTINUOUS
  370
50
  390
0
  0
LAYER
  5
14
  330
9
  100
AcDbSymbolTableRecord
  100
AcDbLayerTableRecord
  2
SK2
  70
    0
  62
    7
  6
CONTINUOUS
  370
25
  390
0
  0
LAYER
  5
16
  330
9
  100
AcDbSymbolTableRecord
  100
AcDbLayerTableRecord
  2
SK4
  70
    0
  62
    2
  6
LONGDASHDASH
  370
25
  390
0
  0
LAYER
  5
21
  330
9
  100
AcDbSymbolTableRecord
  100
AcDbLayerTableRecord
  2
NOCUT
  70
    0
  62
    7
  6
CONTINUOUS
  370
25
  390
0
  0
LAYER
  5
22
  330
9
  100
AcDbSymbolTableRecord
  100
AcDbLayerTableRecord
  2
CUT
  70
    0
  62
    1
  6
CONTINUOUS
  370
25
  390
0
  0
LAYER
  5
26
  330
9
  100
AcDbSymbolTableRecord
  100
AcDbLayerTableRecord
  2
INFTOTAL
  70
    0
  62
    9
  6
CONTINUOUS
  370
18
  390
0
  0
ENDTAB
  0
TABLE
  2
STYLE
  5
27
  330
0
  100
AcDbSymbolTable
  70
    1
  0
STYLE
  5
28
  330
27
  100
AcDbSymbolTableRecord
  100
AcDbTextStyleTableRecord
  2
Monospac821 BT
  70
    0
  40
    3.5
  41
1
  50
0
  71
0
  42
3
  3

  4

  1001
ACAD
  1000
Monospac821 BT
  1071
256
  0
ENDTAB
  0
TABLE
  2
VIEW
  5
29
  330
0
  100
AcDbSymbolTable
  70
    0
  0
ENDTAB
  0
TABLE
  2
UCS
  5
2a
  330
0
  100
AcDbSymbolTable
  70
    0
  0
ENDTAB
  0
TABLE
  2
APPID
  5
2b
  330
0
  100
AcDbSymbolTable
  70
    1
  0
APPID
  5
2c
  330
2b
  100
AcDbSymbolTableRecord
  100
AcDbRegAppTableRecord
  2
ACAD
  70
    0
  0
ENDTAB
  0
TABLE
  2
DIMSTYLE
  5
2d
  330
0
  100
AcDbSymbolTable
  70
    1
  100
AcDbDimStyleTable
  0
DIMSTYLE
  105
2e
  330
2d
  100
AcDbSymbolTableRecord
  100
AcDbDimStyleTableRecord
  2
STANDARD
  70
    0
  41
    3
  42
0.5
  44
1
  73
0
  77
1
  78
1
  140
3.5
  141
2.5
  143
0.03937
  147
0.8
  172
1
  174
1
  178
0
  179
1
  271
2
  279
1
  284
1
  340
28
  0
ENDTAB
  0
TABLE
  2
BLOCK_RECORD
  5
2f
  330
0
  100
AcDbSymbolTable
  70
    2
  0
BLOCK_RECORD
  5
30
  330
2f
  100
AcDbSymbolTableRecord
  100
AcDbBlockTableRecord
  2
*Model_Space
  0
BLOCK_RECORD
  5
31
  330
2f
  100
AcDbSymbolTableRecord
  100
AcDbBlockTableRecord
  2
*Paper_Space
  0
BLOCK_RECORD
  5
f3
  330
2f
  100
AcDbSymbolTableRecord
  100
AcDbBlockTableRecord
  2
*Df2
  340
0
  0
BLOCK_RECORD
  5
101
  330
2f
  100
AcDbSymbolTableRecord
  100
AcDbBlockTableRecord
  2
*D100
  340
0
  0
BLOCK_RECORD
  5
10f
  330
2f
  100
AcDbSymbolTableRecord
  100
AcDbBlockTableRecord
  2
*D10e
  340
0
  0
BLOCK_RECORD
  5
11d
  330
2f
  100
AcDbSymbolTableRecord
  100
AcDbBlockTableRecord
  2
*D11c
  340
0
  0
BLOCK_RECORD
  5
12b
  330
2f
  100
AcDbSymbolTableRecord
  100
AcDbBlockTableRecord
  2
*D12a
  340
0
  0
BLOCK_RECORD
  5
135
  330
2f
  100
AcDbSymbolTableRecord
  100
AcDbBlockTableRecord
  2
*D134
  340
0
  0
BLOCK_RECORD
  5
143
  330
2f
  100
AcDbSymbolTableRecord
  100
AcDbBlockTableRecord
  2
*D142
  340
0
  0
BLOCK_RECORD
  5
151
  330
2f
  100
AcDbSymbolTableRecord
  100
AcDbBlockTableRecord
  2
*D150
  340
0
  0
BLOCK_RECORD
  5
15f
  330
2f
  100
AcDbSymbolTableRecord
  100
AcDbBlockTableRecord
  2
*D15e
  340
0
  0
ENDTAB
  0
ENDSEC
  0
SECTION
  2
BLOCKS
  0
BLOCK
  5
32
  330
30
  100
AcDbEntity
  8
0
  100
AcDbBlockBegin
  2
*Model_Space
  70
    0
  10
0
  20
0
  30
0
  3
*Model_Space
  1

  0
ENDBLK
  5
33
  330
30
  100
AcDbEntity
  8
0
  100
AcDbBlockEnd
  0
BLOCK
  5
34
  330
31
  100
AcDbEntity
  8
0
  100
AcDbBlockBegin
  2
*Paper_Space
  70
    0
  10
0
  20
0
  30
0
  3
*Paper_Space
  1

  0
ENDBLK
  5
35
  330
31
  100
AcDbEntity
  8
0
  100
AcDbBlockEnd
  0
BLOCK
  5
f1
  330
f3
  100
AcDbEntity
  8
SK2
  100
AcDbBlockBegin
  2
*Df2
  70
1
  10
0
  20
0
  30
0
  3
*Df2
  1

  0
LINE
  5
f4
  330
f3
  100
AcDbEntity
  8
SK2
  100
AcDbLine
  10
0
  20
2.3
  30
0
  11
0
  21
20
  31
0
  0
LINE
  5
f5
  330
f3
  100
AcDbEntity
  8
SK2
  100
AcDbLine
  10
60
  20
-15
  30
0
  11
60
  21
20
  31
0
  0
LINE
  5
f6
  330
f3
  100
AcDbEntity
  8
SK2
  100
AcDbLine
  10
0
  20
18
  30
0
  11
60
  21
18
  31
0
  0
SOLID
  5
f7
  330
f3
  100
AcDbEntity
  8
SK2
  100
AcDbTrace
  10
0
  20
18
  30
0
  11
2.478612
  21
18.326315
  31
0
  12
2.478612
  22
17.673685
  32
0
  13
2.478612
  23
17.673685
  33
0
  0
SOLID
  5
f8
  330
f3
  100
AcDbEntity
  8
SK2
  100
AcDbTrace
  10
60
  20
18
  30
0
  11
57.521388
  21
17.673685
  31
0
  12
57.521388
  22
18.326315
  32
0
  13
57.521388
  23
18.326315
  33
0
  0
MTEXT
  5
f9
  330
f3
  100
AcDbEntity
  8
SK2
  100
AcDbMText
  10
30
  20
18
  30
0
  11
1
  21
0
  31
0
  40
2
  41
0
  71
8
  72
1
  1
60
  0
POINT
  5
fa
  330
f3
  100
AcDbEntity
  8
SK2
  62
0
  100
AcDbPoint
  10
0
  20
2.3
  30
0
  0
POINT
  5
fb
  330
f3
  100
AcDbEntity
  8
SK2
  62
0
  100
AcDbPoint
  10
60
  20
-15
  30
0
  0
POINT
  5
fc
  330
f3
  100
AcDbEntity
  8
SK2
  62
0
  100
AcDbPoint
  10
60
  20
18
  30
0
  0
ENDBLK
  5
fd
  330
f3
  100
AcDbEntity
  8
SK2
  100
AcDbBlockEnd
  0
BLOCK
  5
ff
  330
101
  100
AcDbEntity
  8
SK2
  100
AcDbBlockBegin
  2
*D100
  70
1
  10
0
  20
0
  30
0
  3
*D100
  1

  0
LINE
  5
102
  330
101
  100
AcDbEntity
  8
SK2
  100
AcDbLine
  10
40.8
  20
3
  30
0
  11
40.8
  21
15
  31
0
  0
LINE
  5
103
  330
101
  100
AcDbEntity
  8
SK2
  100
AcDbLine
  10
0
  20
2.3
  30
0
  11
0
  21
20
  31
0
  0
LINE
  5
104
  330
101
  100
AcDbEntity
  8
SK2
  100
AcDbLine
  10
40.8
  20
13
  30
0
  11
0
  21
13
  31
0
  0
SOLID
  5
105
  330
101
  100
AcDbEntity
  8
SK2
  100
AcDbTrace
  10
40.8
  20
13
  30
0
  11
43.278612
  21
13.326315
  31
0
  12
43.278612
  22
12.673685
  32
0
  13
43.278612
  23
12.673685
  33
0
  0
SOLID
  5
106
  330
101
  100
AcDbEntity
  8
SK2
  100
AcDbTrace
  10
0
  20
13
  30
0
  11
-2.478612
  21
12.673685
  31
0
  12
-2.478612
  22
13.326315
  32
0
  13
-2.478612
  23
13.326315
  33
0
  0
MTEXT
  5
107
  330
101
  100
AcDbEntity
  8
SK2
  100
AcDbMText
  10
20.4
  20
13
  30
0
  11
1
  21
-0
  31
0
  40
2
  41
0
  71
8
  72
1
  1
40.8
  0
POINT
  5
108
  330
101
  100
AcDbEntity
  8
SK2
  62
0
  100
AcDbPoint
  10
40.8
  20
3
  30
0
  0
POINT
  5
109
  330
101
  100
AcDbEntity
  8
SK2
  62
0
  100
AcDbPoint
  10
0
  20
2.3
  30
0
  0
POINT
  5
10a
  330
101
  100
AcDbEntity
  8
SK2
  62
0
  100
AcDbPoint
  10
0
  20
13
  30
0
  0
ENDBLK
  5
10b
  330
101
  100
AcDbEntity
  8
SK2
  100
AcDbBlockEnd
  0
BLOCK
  5
10d
  330
10f
  100
AcDbEntity
  8
SK2
  100
AcDbBlockBegin
  2
*D10e
  70
1
  10
0
  20
0
  30
0
  3
*D10e
  1

  0
LINE
  5
110
  330
10f
  100
AcDbEntity
  8
SK2
  100
AcDbLine
  10
0.7
  20
-3
  30
0
  11
-12
  21
-3
  31
0
  0
LINE
  5
111
  330
10f
  100
AcDbEntity
  8
SK2
  100
AcDbLine
  10
0.7
  20
3
  30
0
  11
-12
  21
3
  31
0
  0
LINE
  5
112
  330
10f
  100
AcDbEntity
  8
SK2
  100
AcDbLine
  10
-10
  20
-3
  30
0
  11
-10
  21
3
  31
0
  0
SOLID
  5
113
  330
10f
  100
AcDbEntity
  8
SK2
  100
AcDbTrace
  10
-10
  20
-3
  30
0
  11
-10.326315
  21
-0.521388
  31
0
  12
-9.673685
  22
-0.521388
  32
0
  13
-9.673685
  23
-0.521388
  33
0
  0
SOLID
  5
114
  330
10f
  100
AcDbEntity
  8
SK2
  100
AcDbTrace
  10
-10
  20
3
  30
0
  11
-9.673685
  21
0.521388
  31
0
  12
-10.326315
  22
0.521388
  32
0
  13
-10.326315
  23
0.521388
  33
0
  0
MTEXT
  5
115
  330
10f
  100
AcDbEntity
  8
SK2
  100
AcDbMText
  10
-10
  20
0
  30
0
  11
0
  21
1
  31
0
  40
2
  41
0
  71
8
  72
1
  1
ﾘ6
  0
POINT
  5
116
  330
10f
  100
AcDbEntity
  8
SK2
  62
0
  100
AcDbPoint
  10
0.7
  20
-3
  30
0
  0
POINT
  5
117
  330
10f
  100
AcDbEntity
  8
SK2
  62
0
  100
AcDbPoint
  10
0.7
  20
3
  30
0
  0
POINT
  5
118
  330
10f
  100
AcDbEntity
  8
SK2
  62
0
  100
AcDbPoint
  10
-10
  20
3
  30
0
  0
ENDBLK
  5
119
  330
10f
  100
AcDbEntity
  8
SK2
  100
AcDbBlockEnd
  0
BLOCK
  5
11b
  330
11d
  100
AcDbEntity
  8
2
  100
AcDbBlockBegin
  2
*D11c
  70
1
  10
0
  20
0
  30
0
  3
*D11c
  1

  0
LINE
  5
11e
  330
11d
  100
AcDbEntity
  8
2
  100
AcDbLine
  10
58
  20
-2
  30
0
  11
72
  21
-2
  31
0
  0
LINE
  5
11f
  330
11d
  100
AcDbEntity
  8
2
  100
AcDbLine
  10
58
  20
2
  30
0
  11
72
  21
2
  31
0
  0
LINE
  5
120
  330
11d
  100
AcDbEntity
  8
2
  100
AcDbLine
  10
70
  20
-4.158416
  30
0
  11
70
  21
2
  31
0
  0
SOLID
  5
121
  330
11d
  100
AcDbEntity
  8
2
  100
AcDbTrace
  10
70
  20
-2
  30
0
  11
69.673685
  21
0.478612
  31
0
  12
70.326315
  22
0.478612
  32
0
  13
70.326315
  23
0.478612
  33
0
  0
SOLID
  5
122
  330
11d
  100
AcDbEntity
  8
2
  100
AcDbTrace
  10
70
  20
2
  30
0
  11
70.326315
  21
-0.478612
  31
0
  12
69.673685
  22
-0.478612
  32
0
  13
69.673685
  23
-0.478612
  33
0
  0
MTEXT
  5
123
  330
11d
  100
AcDbEntity
  8
2
  100
AcDbMText
  10
70
  20
0
  30
0
  11
0
  21
1
  31
0
  40
2
  41
0
  71
8
  72
1
  1
ﾘ4
  0
POINT
  5
124
  330
11d
  100
AcDbEntity
  8
2
  62
0
  100
AcDbPoint
  10
58
  20
-2
  30
0
  0
POINT
  5
125
  330
11d
  100
AcDbEntity
  8
2
  62
0
  100
AcDbPoint
  10
58
  20
2
  30
0
  0
POINT
  5
126
  330
11d
  100
AcDbEntity
  8
2
  62
0
  100
AcDbPoint
  10
70
  20
2
  30
0
  0
ENDBLK
  5
127
  330
11d
  100
AcDbEntity
  8
2
  100
AcDbBlockEnd
  0
BLOCK
  5
129
  330
12b
  100
AcDbEntity
  8
2
  100
AcDbBlockBegin
  2
*D12a
  70
1
  10
0
  20
0
  30
0
  3
*D12a
  1

  0
LINE
  5
12c
  330
12b
  100
AcDbEntity
  8
2
  100
AcDbLine
  10
57.784035
  20
-0.215965
  30
0
  11
66.485281
  21
8.485281
  31
0
  0
MTEXT
  5
12d
  330
12b
  100
AcDbEntity
  8
2
  100
AcDbMText
  10
59.414214
  20
1.414214
  30
0
  11
0.707107
  21
0.707107
  31
0
  40
2
  41
0
  71
8
  72
1
  1
R2
  0
SOLID
  5
12e
  330
12b
  100
AcDbEntity
  8
2
  100
AcDbTrace
  10
59.414214
  20
1.414214
  30
0
  11
60.936117
  21
3.397597
  31
0
  12
61.397597
  22
2.936117
  32
0
  13
61.397597
  23
2.936117
  33
0
  0
POINT
  5
12f
  330
12b
  100
AcDbEntity
  8
2
  62
0
  100
AcDbPoint
  10
57.784035
  20
-0.215965
  30
0
  0
POINT
  5
130
  330
12b
  100
AcDbEntity
  8
2
  62
0
  100
AcDbPoint
  10
58
  20
0
  30
0
  0
ENDBLK
  5
131
  330
12b
  100
AcDbEntity
  8
2
  100
AcDbBlockEnd
  0
BLOCK
  5
133
  330
135
  100
AcDbEntity
  8
2
  100
AcDbBlockBegin
  2
*D134
  70
1
  10
0
  20
0
  30
0
  3
*D134
  1

  0
LINE
  5
136
  330
135
  100
AcDbEntity
  8
2
  100
AcDbLine
  10
56.8
  20
-1.925
  30
0
  11
54.8
  21
-1.925
  31
0
  0
LINE
  5
137
  330
135
  100
AcDbEntity
  8
2
  100
AcDbLine
  10
56.8
  20
1.925
  30
0
  11
54.8
  21
1.925
  31
0
  0
LINE
  5
138
  330
135
  100
AcDbEntity
  8
2
  100
AcDbLine
  10
56.8
  20
-1.925
  30
0
  11
56.8
  21
10.39604
  31
0
  0
SOLID
  5
139
  330
135
  100
AcDbEntity
  8
2
  100
AcDbTrace
  10
56.8
  20
-1.925
  30
0
  11
56.473685
  21
0.553612
  31
0
  12
57.126315
  22
0.553612
  32
0
  13
57.126315
  23
0.553612
  33
0
  0
SOLID
  5
13a
  330
135
  100
AcDbEntity
  8
2
  100
AcDbTrace
  10
56.8
  20
1.925
  30
0
  11
57.126315
  21
-0.553612
  31
0
  12
56.473685
  22
-0.553612
  32
0
  13
56.473685
  23
-0.553612
  33
0
  0
MTEXT
  5
13b
  330
135
  100
AcDbEntity
  8
2
  100
AcDbMText
  10
56.8
  20
1.925
  30
0
  11
0
  21
1
  31
0
  40
2
  41
0
  71
8
  72
1
  1
ﾘ3.85
  0
POINT
  5
13c
  330
135
  100
AcDbEntity
  8
2
  62
0
  100
AcDbPoint
  10
54.8
  20
-1.925
  30
0
  0
POINT
  5
13d
  330
135
  100
AcDbEntity
  8
2
  62
0
  100
AcDbPoint
  10
54.8
  20
1.925
  30
0
  0
POINT
  5
13e
  330
135
  100
AcDbEntity
  8
2
  62
0
  100
AcDbPoint
  10
56.8
  20
10.39604
  30
0
  0
ENDBLK
  5
13f
  330
135
  100
AcDbEntity
  8
2
  100
AcDbBlockEnd
  0
BLOCK
  5
141
  330
143
  100
AcDbEntity
  8
2
  100
AcDbBlockBegin
  2
*D142
  70
1
  10
0
  20
0
  30
0
  3
*D142
  1

  0
LINE
  5
144
  330
143
  100
AcDbEntity
  8
2
  100
AcDbLine
  10
56.8
  20
1.925
  30
0
  11
56.8
  21
9
  31
0
  0
LINE
  5
145
  330
143
  100
AcDbEntity
  8
2
  100
AcDbLine
  10
45.63
  20
1.925
  30
0
  11
45.63
  21
9
  31
0
  0
LINE
  5
146
  330
143
  100
AcDbEntity
  8
2
  100
AcDbLine
  10
59.647277
  20
7
  30
0
  11
45.63
  21
7
  31
0
  0
SOLID
  5
147
  330
143
  100
AcDbEntity
  8
2
  100
AcDbTrace
  10
56.8
  20
7
  30
0
  11
59.278612
  21
7.326315
  31
0
  12
59.278612
  22
6.673685
  32
0
  13
59.278612
  23
6.673685
  33
0
  0
SOLID
  5
148
  330
143
  100
AcDbEntity
  8
2
  100
AcDbTrace
  10
45.63
  20
7
  30
0
  11
43.151388
  21
6.673685
  31
0
  12
43.151388
  22
7.326315
  32
0
  13
43.151388
  23
7.326315
  33
0
  0
MTEXT
  5
149
  330
143
  100
AcDbEntity
  8
2
  100
AcDbMText
  10
55.584884
  20
7
  30
0
  11
1
  21
-0
  31
0
  40
2
  41
0
  71
8
  72
1
  1
11.17
  0
POINT
  5
14a
  330
143
  100
AcDbEntity
  8
2
  62
0
  100
AcDbPoint
  10
56.8
  20
1.925
  30
0
  0
POINT
  5
14b
  330
143
  100
AcDbEntity
  8
2
  62
0
  100
AcDbPoint
  10
45.63
  20
1.925
  30
0
  0
POINT
  5
14c
  330
143
  100
AcDbEntity
  8
2
  62
0
  100
AcDbPoint
  10
45.63
  20
7
  30
0
  0
ENDBLK
  5
14d
  330
143
  100
AcDbEntity
  8
2
  100
AcDbBlockEnd
  0
BLOCK
  5
14f
  330
151
  100
AcDbEntity
  8
2
  100
AcDbBlockBegin
  2
*D150
  70
1
  10
0
  20
0
  30
0
  3
*D150
  1

  0
LINE
  5
152
  330
151
  100
AcDbEntity
  8
2
  100
AcDbLine
  10
60
  20
-15
  30
0
  11
60
  21
20
  31
0
  0
LINE
  5
153
  330
151
  100
AcDbEntity
  8
2
  100
AcDbLine
  10
40.8
  20
3
  30
0
  11
40.8
  21
10
  31
0
  0
LINE
  5
154
  330
151
  100
AcDbEntity
  8
2
  100
AcDbLine
  10
60
  20
8
  30
0
  11
40.8
  21
8
  31
0
  0
SOLID
  5
155
  330
151
  100
AcDbEntity
  8
2
  100
AcDbTrace
  10
60
  20
8
  30
0
  11
62.478612
  21
8.326315
  31
0
  12
62.478612
  22
7.673685
  32
0
  13
62.478612
  23
7.673685
  33
0
  0
SOLID
  5
156
  330
151
  100
AcDbEntity
  8
2
  100
AcDbTrace
  10
40.8
  20
8
  30
0
  11
38.321388
  21
7.673685
  31
0
  12
38.321388
  22
8.326315
  32
0
  13
38.321388
  23
8.326315
  33
0
  0
MTEXT
  5
157
  330
151
  100
AcDbEntity
  8
2
  100
AcDbMText
  10
50.4
  20
8
  30
0
  11
1
  21
-0
  31
0
  40
2
  41
0
  71
8
  72
1
  1
19.2
  0
POINT
  5
158
  330
151
  100
AcDbEntity
  8
2
  62
0
  100
AcDbPoint
  10
60
  20
-15
  30
0
  0
POINT
  5
159
  330
151
  100
AcDbEntity
  8
2
  62
0
  100
AcDbPoint
  10
40.8
  20
3
  30
0
  0
POINT
  5
15a
  330
151
  100
AcDbEntity
  8
2
  62
0
  100
AcDbPoint
  10
40.8
  20
8
  30
0
  0
ENDBLK
  5
15b
  330
151
  100
AcDbEntity
  8
2
  100
AcDbBlockEnd
  0
BLOCK
  5
15d
  330
15f
  100
AcDbEntity
  8
2
  100
AcDbBlockBegin
  2
*D15e
  70
1
  10
0
  20
0
  30
0
  3
*D15e
  1

  0
LINE
  5
160
  330
15f
  100
AcDbEntity
  8
2
  100
AcDbLine
  10
56.8
  20
-1.925
  30
0
  11
56.8
  21
-15
  31
0
  0
LINE
  5
161
  330
15f
  100
AcDbEntity
  8
2
  100
AcDbLine
  10
60
  20
-15
  30
0
  11
60
  21
20
  31
0
  0
LINE
  5
162
  330
15f
  100
AcDbEntity
  8
2
  100
AcDbLine
  10
53.929455
  20
-13
  30
0
  11
60
  21
-13
  31
0
  0
SOLID
  5
163
  330
15f
  100
AcDbEntity
  8
2
  100
AcDbTrace
  10
56.8
  20
-13
  30
0
  11
59.278612
  21
-12.673685
  31
0
  12
59.278612
  22
-13.326315
  32
0
  13
59.278612
  23
-13.326315
  33
0
  0
SOLID
  5
164
  330
15f
  100
AcDbEntity
  8
2
  100
AcDbTrace
  10
60
  20
-13
  30
0
  11
57.521388
  21
-13.326315
  31
0
  12
57.521388
  22
-12.673685
  32
0
  13
57.521388
  23
-12.673685
  33
0
  0
MTEXT
  5
165
  330
15f
  100
AcDbEntity
  8
2
  100
AcDbMText
  10
58.4
  20
-13
  30
0
  11
1
  21
0
  31
0
  40
2
  41
0
  71
8
  72
1
  1
3.2
  0
POINT
  5
166
  330
15f
  100
AcDbEntity
  8
2
  62
0
  100
AcDbPoint
  10
56.8
  20
-1.925
  30
0
  0
POINT
  5
167
  330
15f
  100
AcDbEntity
  8
2
  62
0
  100
AcDbPoint
  10
60
  20
20
  30
0
  0
POINT
  5
168
  330
15f
  100
AcDbEntity
  8
2
  62
0
  100
AcDbPoint
  10
60
  20
-13
  30
0
  0
ENDBLK
  5
169
  330
15f
  100
AcDbEntity
  8
2
  100
AcDbBlockEnd
  0
ENDSEC
  0
SECTION
  2
ENTITIES
  0
DIMENSION
  5
fe
  100
AcDbEntity
  8
SK2
  100
AcDbDimension
  2
*Df2
  10
60
  20
18
  30
0
  11
30
  21
18
  31
0
  70
160
  1
<>
  71
5
  3
STANDARD
  42
60
  100
AcDbAlignedDimension
  13
0
  23
2.3
  33
0
  14
60
  24
-15
  34
0
  50
0
  100
AcDbRotatedDimension
  0
DIMENSION
  5
10c
  100
AcDbEntity
  8
SK2
  100
AcDbDimension
  2
*D100
  10
0
  20
13
  30
0
  11
20.4
  21
13
  31
0
  70
160
  1
<>
  71
5
  3
STANDARD
  42
40.8
  100
AcDbAlignedDimension
  13
40.8
  23
3
  33
0
  14
0
  24
2.3
  34
0
  50
0
  100
AcDbRotatedDimension
  0
DIMENSION
  5
11a
  100
AcDbEntity
  8
SK2
  100
AcDbDimension
  2
*D10e
  10
-10
  20
3
  30
0
  11
-10
  21
0
  31
0
  70
160
  1
%%c<>
  71
5
  3
STANDARD
  42
6
  100
AcDbAlignedDimension
  13
0.7
  23
-3
  33
0
  14
0.7
  24
3
  34
0
  50
-90
  100
AcDbRotatedDimension
  0
DIMENSION
  5
128
  100
AcDbEntity
  8
2
  100
AcDbDimension
  2
*D11c
  10
70
  20
2
  30
0
  11
70
  21
0
  31
0
  70
160
  1
%%c<>
  71
5
  3
STANDARD
  42
4
  100
AcDbAlignedDimension
  13
58
  23
-2
  33
0
  14
58
  24
2
  34
0
  50
-90
  100
AcDbRotatedDimension
  0
DIMENSION
  5
132
  100
AcDbEntity
  8
2
  100
AcDbDimension
  2
*D12a
  10
58
  20
0
  30
0
  11
59.414214
  21
1.414214
  31
0
  70
164
  1
R2
  71
5
  3
STANDARD
  100
AcDbRadialDimension
  15
59.414214
  25
1.414214
  35
0
  50
45
  0
DIMENSION
  5
140
  100
AcDbEntity
  8
2
  100
AcDbDimension
  2
*D134
  10
56.8
  20
10.39604
  30
0
  11
56.8
  21
1.925
  31
0
  70
160
  1
%%c<>
  71
5
  3
STANDARD
  42
3.85
  100
AcDbAlignedDimension
  13
54.8
  23
-1.925
  33
0
  14
54.8
  24
1.925
  34
0
  50
-90
  100
AcDbRotatedDimension
  0
DIMENSION
  5
14e
  100
AcDbEntity
  8
2
  100
AcDbDimension
  2
*D142
  10
45.63
  20
7
  30
0
  11
55.584884
  21
7
  31
0
  70
160
  1
<>
  71
5
  3
STANDARD
  42
11.17
  100
AcDbAlignedDimension
  13
56.8
  23
1.925
  33
0
  14
45.63
  24
1.925
  34
0
  50
0
  100
AcDbRotatedDimension
  0
DIMENSION
  5
15c
  100
AcDbEntity
  8
2
  100
AcDbDimension
  2
*D150
  10
40.8
  20
8
  30
0
  11
50.4
  21
8
  31
0
  70
160
  1
<>
  71
5
  3
STANDARD
  42
19.2
  100
AcDbAlignedDimension
  13
60
  23
-15
  33
0
  14
40.8
  24
3
  34
0
  50
0
  100
AcDbRotatedDimension
  0
DIMENSION
  5
16a
  100
AcDbEntity
  8
2
  100
AcDbDimension
  2
*D15e
  10
60
  20
-13
  30
0
  11
58.4
  21
-13
  31
0
  70
160
  1
<>
  71
5
  3
STANDARD
  42
3.2
  100
AcDbAlignedDimension
  13
56.8
  23
-1.925
  33
0
  14
60
  24
20
  34
0
  50
0
  100
AcDbRotatedDimension
  0
ARC
  5
36
  100
AcDbEntity
  8
1
  100
AcDbCircle
  10
45.717156
  20
-2.921195
  30
0
  40
1
  100
AcDbArc
  50
95
  51
105
  0
LINE
  5
37
  100
AcDbEntity
  8
1
  100
AcDbLine
  10
45.63
  20
-1.925
  30
0
  11
56.8
  21
-1.925
  31
0
  0
LINE
  5
38
  100
AcDbEntity
  8
1
  100
AcDbLine
  10
56.8
  20
-1.925
  30
0
  11
56.8
  21
-2
  31
0
  0
LINE
  5
39
  100
AcDbEntity
  8
1
  100
AcDbLine
  10
56.8
  20
-2
  30
0
  11
58
  21
-2
  31
0
  0
ARC
  5
3a
  100
AcDbEntity
  8
1
  100
AcDbCircle
  10
58
  20
0
  30
0
  40
2
  100
AcDbArc
  50
270
  51
0
  0
ARC
  5
3b
  100
AcDbEntity
  8
1
  100
AcDbCircle
  10
58
  20
0
  30
0
  40
2
  100
AcDbArc
  50
0
  51
90
  0
LINE
  5
3c
  100
AcDbEntity
  8
1
  100
AcDbLine
  10
58
  20
2
  30
0
  11
56.8
  21
2
  31
0
  0
LINE
  5
3d
  100
AcDbEntity
  8
1
  100
AcDbLine
  10
56.8
  20
2
  30
0
  11
56.8
  21
1.925
  31
0
  0
LINE
  5
3e
  100
AcDbEntity
  8
1
  100
AcDbLine
  10
56.8
  20
1.925
  30
0
  11
45.63
  21
1.925
  31
0
  0
ARC
  5
3f
  100
AcDbEntity
  8
1
  100
AcDbCircle
  10
45.717156
  20
2.921195
  30
0
  40
1
  100
AcDbArc
  50
255
  51
265
  0
LINE
  5
40
  100
AcDbEntity
  8
1
  100
AcDbLine
  10
45.458337
  20
1.955269
  30
0
  11
41.559347
  21
3
  31
0
  0
LINE
  5
41
  100
AcDbEntity
  8
1
  100
AcDbLine
  10
41.559347
  20
3
  30
0
  11
40.8
  21
3
  31
0
  0
LINE
  5
42
  100
AcDbEntity
  8
1
  100
AcDbLine
  10
40.8
  20
3
  30
0
  11
40.8
  21
-3
  31
0
  0
LINE
  5
43
  100
AcDbEntity
  8
1
  100
AcDbLine
  10
40.8
  20
-3
  30
0
  11
41.559347
  21
-3
  31
0
  0
LINE
  5
44
  100
AcDbEntity
  8
1
  100
AcDbLine
  10
41.559347
  20
-3
  30
0
  11
45.458337
  21
-1.955269
  31
0
  0
LINE
  5
45
  100
AcDbEntity
  8
1
  100
AcDbLine
  10
40.8
  20
-3
  30
0
  11
40.8
  21
3
  31
0
  0
LINE
  5
46
  100
AcDbEntity
  8
1
  100
AcDbLine
  10
40.8
  20
3
  30
0
  11
40.8
  21
-3
  31
0
  0
LINE
  5
47
  100
AcDbEntity
  8
1
  100
AcDbLine
  10
41.559347
  20
-3
  30
0
  11
41.559347
  21
3
  31
0
  0
LINE
  5
48
  100
AcDbEntity
  8
1
  100
AcDbLine
  10
45.458337
  20
1.955269
  30
0
  11
45.458337
  21
-1.955269
  31
0
  0
LINE
  5
49
  100
AcDbEntity
  8
1
  100
AcDbLine
  10
45.63
  20
-1.925
  30
0
  11
45.63
  21
1.925
  31
0
  0
LINE
  5
4a
  100
AcDbEntity
  8
1
  100
AcDbLine
  10
58
  20
2
  30
0
  11
58
  21
-2
  31
0
  0
LINE
  5
4b
  100
AcDbEntity
  8
1
  100
AcDbLine
  10
56.9
  20
-1.07582
  30
0
  11
57
  21
-1.123181
  31
0
  0
LINE
  5
4c
  100
AcDbEntity
  8
1
  100
AcDbLine
  10
57
  20
-1.123181
  30
0
  11
57.1
  21
-1.169607
  31
0
  0
LINE
  5
4d
  100
AcDbEntity
  8
1
  100
AcDbLine
  10
57.1
  20
-1.169607
  30
0
  11
57.2
  21
-1.215058
  31
0
  0
LINE
  5
4e
  100
AcDbEntity
  8
1
  100
AcDbLine
  10
57.2
  20
-1.215058
  30
0
  11
57.3
  21
-1.259497
  31
0
  0
LINE
  5
4f
  100
AcDbEntity
  8
1
  100
AcDbLine
  10
57.3
  20
-1.259497
  30
0
  11
57.4
  21
-1.302886
  31
0
  0
LINE
  5
50
  100
AcDbEntity
  8
1
  100
AcDbLine
  10
57.4
  20
-1.302886
  30
0
  11
57.5
  21
-1.345189
  31
0
  0
LINE
  5
51
  100
AcDbEntity
  8
1
  100
AcDbLine
  10
57.5
  20
-1.345189
  30
0
  11
57.6
  21
-1.386372
  31
0
  0
LINE
  5
52
  100
AcDbEntity
  8
1
  100
AcDbLine
  10
57.6
  20
-1.386372
  30
0
  11
57.7
  21
-1.426399
  31
0
  0
LINE
  5
53
  100
AcDbEntity
  8
1
  100
AcDbLine
  10
57.7
  20
-1.426399
  30
0
  11
57.8
  21
-1.465237
  31
0
  0
LINE
  5
54
  100
AcDbEntity
  8
1
  100
AcDbLine
  10
57.8
  20
-1.465237
  30
0
  11
57.9
  21
-1.502855
  31
0
  0
LINE
  5
55
  100
AcDbEntity
  8
1
  100
AcDbLine
  10
57.9
  20
-1.502855
  30
0
  11
58
  21
-1.539221
  31
0
  0
LINE
  5
56
  100
AcDbEntity
  8
1
  100
AcDbLine
  10
58
  20
-1.539221
  30
0
  11
58.1
  21
-1.571959
  31
0
  0
LINE
  5
57
  100
AcDbEntity
  8
1
  100
AcDbLine
  10
58.1
  20
-1.571959
  30
0
  11
58.2
  21
-1.598564
  31
0
  0
LINE
  5
58
  100
AcDbEntity
  8
1
  100
AcDbLine
  10
58.2
  20
-1.598564
  30
0
  11
58.3
  21
-1.618794
  31
0
  0
LINE
  5
59
  100
AcDbEntity
  8
1
  100
AcDbLine
  10
58.3
  20
-1.618794
  30
0
  11
58.4
  21
-1.632391
  31
0
  0
LINE
  5
5a
  100
AcDbEntity
  8
1
  100
AcDbLine
  10
58.4
  20
-1.632391
  30
0
  11
58.5
  21
-1.639073
  31
0
  0
LINE
  5
5b
  100
AcDbEntity
  8
1
  100
AcDbLine
  10
58.5
  20
-1.639073
  30
0
  11
58.6
  21
-1.638526
  31
0
  0
LINE
  5
5c
  100
AcDbEntity
  8
1
  100
AcDbLine
  10
58.6
  20
-1.638526
  30
0
  11
58.7
  21
-1.630396
  31
0
  0
LINE
  5
5d
  100
AcDbEntity
  8
1
  100
AcDbLine
  10
58.7
  20
-1.630396
  30
0
  11
58.8
  21
-1.614274
  31
0
  0
LINE
  5
5e
  100
AcDbEntity
  8
1
  100
AcDbLine
  10
58.8
  20
-1.614274
  30
0
  11
58.9
  21
-1.589675
  31
0
  0
LINE
  5
5f
  100
AcDbEntity
  8
1
  100
AcDbLine
  10
58.9
  20
-1.589675
  30
0
  11
59
  21
-1.556012
  31
0
  0
LINE
  5
60
  100
AcDbEntity
  8
1
  100
AcDbLine
  10
59
  20
-1.556012
  30
0
  11
59.1
  21
-1.51255
  31
0
  0
LINE
  5
61
  100
AcDbEntity
  8
1
  100
AcDbLine
  10
59.1
  20
-1.51255
  30
0
  11
59.2
  21
-1.458342
  31
0
  0
LINE
  5
62
  100
AcDbEntity
  8
1
  100
AcDbLine
  10
59.2
  20
-1.458342
  30
0
  11
59.3
  21
-1.392117
  31
0
  0
LINE
  5
63
  100
AcDbEntity
  8
1
  100
AcDbLine
  10
59.3
  20
-1.392117
  30
0
  11
59.4
  21
-1.312101
  31
0
  0
LINE
  5
64
  100
AcDbEntity
  8
1
  100
AcDbLine
  10
59.4
  20
-1.312101
  30
0
  11
59.5
  21
-1.220124
  31
0
  0
LINE
  5
65
  100
AcDbEntity
  8
1
  100
AcDbLine
  10
59.5
  20
-1.220124
  30
0
  11
59.6
  21
-1.120199
  31
0
  0
LINE
  5
66
  100
AcDbEntity
  8
1
  100
AcDbLine
  10
59.6
  20
-1.120199
  30
0
  11
59.7
  21
-1.013642
  31
0
  0
LINE
  5
67
  100
AcDbEntity
  8
1
  100
AcDbLine
  10
59.7
  20
-1.053242
  30
0
  11
59.7
  21
-1.053565
  31
0
  0
LINE
  5
68
  100
AcDbEntity
  8
1
  100
AcDbLine
  10
59.7
  20
-1.053565
  30
0
  11
59.7
  21
-1.053242
  31
0
  0
LINE
  5
69
  100
AcDbEntity
  8
1
  100
AcDbLine
  10
59.7
  20
-1.053242
  30
0
  11
59.6
  21
-1.185269
  31
0
  0
LINE
  5
6a
  100
AcDbEntity
  8
1
  100
AcDbLine
  10
59.6
  20
-1.185269
  30
0
  11
59.5
  21
-1.29461
  31
0
  0
LINE
  5
6b
  100
AcDbEntity
  8
1
  100
AcDbLine
  10
59.5
  20
-1.29461
  30
0
  11
59.4
  21
-1.390766
  31
0
  0
LINE
  5
6c
  100
AcDbEntity
  8
1
  100
AcDbLine
  10
59.4
  20
-1.390766
  30
0
  11
59.3
  21
-1.47388
  31
0
  0
LINE
  5
6d
  100
AcDbEntity
  8
1
  100
AcDbLine
  10
59.3
  20
-1.47388
  30
0
  11
59.2
  21
-1.543657
  31
0
  0
LINE
  5
6e
  100
AcDbEntity
  8
1
  100
AcDbLine
  10
59.2
  20
-1.543657
  30
0
  11
59.1
  21
-1.601723
  31
0
  0
LINE
  5
6f
  100
AcDbEntity
  8
1
  100
AcDbLine
  10
59.1
  20
-1.601723
  30
0
  11
59
  21
-1.649251
  31
0
  0
LINE
  5
70
  100
AcDbEntity
  8
1
  100
AcDbLine
  10
59
  20
-1.649251
  30
0
  11
58.9
  21
-1.687124
  31
0
  0
LINE
  5
71
  100
AcDbEntity
  8
1
  100
AcDbLine
  10
58.9
  20
-1.687124
  30
0
  11
58.8
  21
-1.716028
  31
0
  0
LINE
  5
72
  100
AcDbEntity
  8
1
  100
AcDbLine
  10
58.8
  20
-1.716028
  30
0
  11
58.7
  21
-1.736516
  31
0
  0
LINE
  5
73
  100
AcDbEntity
  8
1
  100
AcDbLine
  10
58.7
  20
-1.736516
  30
0
  11
58.6
  21
-1.749044
  31
0
  0
LINE
  5
74
  100
AcDbEntity
  8
1
  100
AcDbLine
  10
58.6
  20
-1.749044
  30
0
  11
58.5
  21
-1.753999
  31
0
  0
LINE
  5
75
  100
AcDbEntity
  8
1
  100
AcDbLine
  10
58.5
  20
-1.753999
  30
0
  11
58.4
  21
-1.75172
  31
0
  0
LINE
  5
76
  100
AcDbEntity
  8
1
  100
AcDbLine
  10
58.4
  20
-1.75172
  30
0
  11
58.3
  21
-1.742503
  31
0
  0
LINE
  5
77
  100
AcDbEntity
  8
1
  100
AcDbLine
  10
58.3
  20
-1.742503
  30
0
  11
58.2
  21
-1.726619
  31
0
  0
LINE
  5
78
  100
AcDbEntity
  8
1
  100
AcDbLine
  10
58.2
  20
-1.726619
  30
0
  11
58.1
  21
-1.704315
  31
0
  0
LINE
  5
79
  100
AcDbEntity
  8
1
  100
AcDbLine
  10
58.1
  20
-1.704315
  30
0
  11
58
  21
-1.675824
  31
0
  0
LINE
  5
7a
  100
AcDbEntity
  8
1
  100
AcDbLine
  10
58
  20
-1.675824
  30
0
  11
57.9
  21
-1.643618
  31
0
  0
LINE
  5
7b
  100
AcDbEntity
  8
1
  100
AcDbLine
  10
57.9
  20
-1.643618
  30
0
  11
57.8
  21
-1.610042
  31
0
  0
LINE
  5
7c
  100
AcDbEntity
  8
1
  100
AcDbLine
  10
57.8
  20
-1.610042
  30
0
  11
57.7
  21
-1.575125
  31
0
  0
LINE
  5
7d
  100
AcDbEntity
  8
1
  100
AcDbLine
  10
57.7
  20
-1.575125
  30
0
  11
57.6
  21
-1.538895
  31
0
  0
LINE
  5
7e
  100
AcDbEntity
  8
1
  100
AcDbLine
  10
57.6
  20
-1.538895
  30
0
  11
57.5
  21
-1.501383
  31
0
  0
LINE
  5
7f
  100
AcDbEntity
  8
1
  100
AcDbLine
  10
57.5
  20
-1.501383
  30
0
  11
57.4
  21
-1.46262
  31
0
  0
LINE
  5
80
  100
AcDbEntity
  8
1
  100
AcDbLine
  10
57.4
  20
-1.46262
  30
0
  11
57.3
  21
-1.422639
  31
0
  0
LINE
  5
81
  100
AcDbEntity
  8
1
  100
AcDbLine
  10
57.3
  20
-1.422639
  30
0
  11
57.2
  21
-1.381471
  31
0
  0
LINE
  5
82
  100
AcDbEntity
  8
1
  100
AcDbLine
  10
57.2
  20
-1.381471
  30
0
  11
57.1
  21
-1.339153
  31
0
  0
LINE
  5
83
  100
AcDbEntity
  8
1
  100
AcDbLine
  10
57.1
  20
-1.339153
  30
0
  11
57
  21
-1.295719
  31
0
  0
LINE
  5
84
  100
AcDbEntity
  8
1
  100
AcDbLine
  10
57
  20
-1.295719
  30
0
  11
56.9
  21
-1.251205
  31
0
  0
LINE
  5
85
  100
AcDbEntity
  8
1
  100
AcDbLine
  10
56.9
  20
-1.251205
  30
0
  11
56.8
  21
-1.205648
  31
0
  0
LINE
  5
86
  100
AcDbEntity
  8
1
  100
AcDbLine
  10
56.8
  20
-1.205648
  30
0
  11
56.8
  21
-1.152006
  31
0
  0
LINE
  5
87
  100
AcDbEntity
  8
1
  100
AcDbLine
  10
56.8
  20
-1.152006
  30
0
  11
56.7
  21
-1.107011
  31
0
  0
LINE
  5
88
  100
AcDbEntity
  8
1
  100
AcDbLine
  10
56.7
  20
-1.107011
  30
0
  11
56.6
  21
-1.061521
  31
0
  0
LINE
  5
89
  100
AcDbEntity
  8
1
  100
AcDbLine
  10
56.6
  20
-1.061521
  30
0
  11
56.5
  21
-1.070121
  31
0
  0
LINE
  5
8a
  100
AcDbEntity
  8
1
  100
AcDbLine
  10
56.5
  20
-1.070121
  30
0
  11
56.405067
  21
-1.925
  31
0
  0
LINE
  5
8b
  100
AcDbEntity
  8
1
  100
AcDbLine
  10
56.8
  20
-1.925
  30
0
  11
56.8
  21
1.925
  31
0
  0
LINE
  5
8c
  100
AcDbEntity
  8
1
  100
AcDbLine
  10
56.8
  20
2
  30
0
  11
56.8
  21
-2
  31
0
  0
LINE
  5
8d
  100
AcDbEntity
  8
1
  100
AcDbLine
  10
56.405067
  20
1.925
  30
0
  11
56.4
  21
1.923105
  31
0
  0
LINE
  5
8e
  100
AcDbEntity
  8
1
  100
AcDbLine
  10
56.4
  20
1.923105
  30
0
  11
56.4
  21
1.918363
  31
0
  0
LINE
  5
8f
  100
AcDbEntity
  8
1
  100
AcDbLine
  10
56.4
  20
1.918363
  30
0
  11
56.5
  21
0.20082
  31
0
  0
LINE
  5
90
  100
AcDbEntity
  8
1
  100
AcDbLine
  10
56.5
  20
0.20082
  30
0
  11
56.6
  21
-0.367045
  31
0
  0
LINE
  5
91
  100
AcDbEntity
  8
1
  100
AcDbLine
  10
56.6
  20
-0.367045
  30
0
  11
56.7
  21
-0.468893
  31
0
  0
LINE
  5
92
  100
AcDbEntity
  8
1
  100
AcDbLine
  10
56.7
  20
-0.468893
  30
0
  11
56.8
  21
-0.523332
  31
0
  0
LINE
  5
93
  100
AcDbEntity
  8
1
  100
AcDbLine
  10
56.8
  20
-0.523332
  30
0
  11
56.8
  21
-0.587161
  31
0
  0
LINE
  5
94
  100
AcDbEntity
  8
1
  100
AcDbLine
  10
56.8
  20
-0.587161
  30
0
  11
56.9
  21
-0.642099
  31
0
  0
LINE
  5
95
  100
AcDbEntity
  8
1
  100
AcDbLine
  10
56.9
  20
-0.642099
  30
0
  11
57
  21
-0.696503
  31
0
  0
LINE
  5
96
  100
AcDbEntity
  8
1
  100
AcDbLine
  10
57
  20
-0.696503
  30
0
  11
57.1
  21
-0.750326
  31
0
  0
LINE
  5
97
  100
AcDbEntity
  8
1
  100
AcDbLine
  10
57.1
  20
-0.750326
  30
0
  11
57.2
  21
-0.803524
  31
0
  0
LINE
  5
98
  100
AcDbEntity
  8
1
  100
AcDbLine
  10
57.2
  20
-0.803524
  30
0
  11
57.3
  21
-0.856052
  31
0
  0
LINE
  5
99
  100
AcDbEntity
  8
1
  100
AcDbLine
  10
57.3
  20
-0.856052
  30
0
  11
57.4
  21
-0.907867
  31
0
  0
LINE
  5
9a
  100
AcDbEntity
  8
1
  100
AcDbLine
  10
57.4
  20
-0.907867
  30
0
  11
57.5
  21
-0.958926
  31
0
  0
LINE
  5
9b
  100
AcDbEntity
  8
1
  100
AcDbLine
  10
57.5
  20
-0.958926
  30
0
  11
57.6
  21
-1.009185
  31
0
  0
LINE
  5
9c
  100
AcDbEntity
  8
1
  100
AcDbLine
  10
57.6
  20
-1.009185
  30
0
  11
57.7
  21
-1.058604
  31
0
  0
LINE
  5
9d
  100
AcDbEntity
  8
1
  100
AcDbLine
  10
57.7
  20
-1.058604
  30
0
  11
57.8
  21
-1.10714
  31
0
  0
LINE
  5
9e
  100
AcDbEntity
  8
1
  100
AcDbLine
  10
57.8
  20
-1.10714
  30
0
  11
57.9
  21
-1.154754
  31
0
  0
LINE
  5
9f
  100
AcDbEntity
  8
1
  100
AcDbLine
  10
57.9
  20
-1.154754
  30
0
  11
58
  21
-1.201406
  31
0
  0
LINE
  5
a0
  100
AcDbEntity
  8
1
  100
AcDbLine
  10
58
  20
-1.201406
  30
0
  11
58.1
  21
-1.244367
  31
0
  0
LINE
  5
a1
  100
AcDbEntity
  8
1
  100
AcDbLine
  10
58.1
  20
-1.244367
  30
0
  11
58.2
  21
-1.280765
  31
0
  0
LINE
  5
a2
  100
AcDbEntity
  8
1
  100
AcDbLine
  10
58.2
  20
-1.280765
  30
0
  11
58.3
  21
-1.310323
  31
0
  0
LINE
  5
a3
  100
AcDbEntity
  8
1
  100
AcDbLine
  10
58.3
  20
-1.310323
  30
0
  11
58.4
  21
-1.332725
  31
0
  0
LINE
  5
a4
  100
AcDbEntity
  8
1
  100
AcDbLine
  10
58.4
  20
-1.332725
  30
0
  11
58.5
  21
-1.347612
  31
0
  0
LINE
  5
a5
  100
AcDbEntity
  8
1
  100
AcDbLine
  10
58.5
  20
-1.347612
  30
0
  11
58.6
  21
-1.354564
  31
0
  0
LINE
  5
a6
  100
AcDbEntity
  8
1
  100
AcDbLine
  10
58.6
  20
-1.354564
  30
0
  11
58.7
  21
-1.353083
  31
0
  0
LINE
  5
a7
  100
AcDbEntity
  8
1
  100
AcDbLine
  10
58.7
  20
-1.353083
  30
0
  11
58.8
  21
-1.342561
  31
0
  0
LINE
  5
a8
  100
AcDbEntity
  8
1
  100
AcDbLine
  10
58.8
  20
-1.342561
  30
0
  11
58.9
  21
-1.322235
  31
0
  0
LINE
  5
a9
  100
AcDbEntity
  8
1
  100
AcDbLine
  10
58.9
  20
-1.322235
  30
0
  11
59
  21
-1.291117
  31
0
  0
LINE
  5
aa
  100
AcDbEntity
  8
1
  100
AcDbLine
  10
59
  20
-1.291117
  30
0
  11
59.1
  21
-1.247876
  31
0
  0
LINE
  5
ab
  100
AcDbEntity
  8
1
  100
AcDbLine
  10
59.1
  20
-1.247876
  30
0
  11
59.2
  21
-1.190636
  31
0
  0
LINE
  5
ac
  100
AcDbEntity
  8
1
  100
AcDbLine
  10
59.2
  20
-1.190636
  30
0
  11
59.3
  21
-1.116582
  31
0
  0
LINE
  5
ad
  100
AcDbEntity
  8
1
  100
AcDbLine
  10
59.3
  20
-1.116582
  30
0
  11
59.4
  21
-1.021131
  31
0
  0
LINE
  5
ae
  100
AcDbEntity
  8
1
  100
AcDbLine
  10
59.4
  20
-1.021131
  30
0
  11
59.5
  21
-0.895821
  31
0
  0
LINE
  5
af
  100
AcDbEntity
  8
1
  100
AcDbLine
  10
59.5
  20
-0.895821
  30
0
  11
59.6
  21
-0.721197
  31
0
  0
LINE
  5
b0
  100
AcDbEntity
  8
1
  100
AcDbLine
  10
59.6
  20
-0.721197
  30
0
  11
59.7
  21
-0.418198
  31
0
  0
LINE
  5
b1
  100
AcDbEntity
  8
1
  100
AcDbLine
  10
59.7
  20
-0.418198
  30
0
  11
59.7
  21
1.053565
  31
0
  0
LINE
  5
b2
  100
AcDbEntity
  8
1
  100
AcDbLine
  10
59.7
  20
1.053565
  30
0
  11
59.7
  21
-0.418198
  31
0
  0
LINE
  5
b3
  100
AcDbEntity
  8
SK1
  100
AcDbLine
  10
40.8
  20
3
  30
0
  11
0.7
  21
3
  31
0
  0
LINE
  5
b4
  100
AcDbEntity
  8
SK1
  100
AcDbLine
  10
0.7
  20
3
  30
0
  11
0
  21
2.3
  31
0
  0
LINE
  5
b5
  100
AcDbEntity
  8
SK1
  100
AcDbLine
  10
40.8
  20
-3
  30
0
  11
0.7
  21
-3
  31
0
  0
LINE
  5
b6
  100
AcDbEntity
  8
SK1
  100
AcDbLine
  10
0.7
  20
-3
  30
0
  11
0
  21
-2.3
  31
0
  0
LINE
  5
b7
  100
AcDbEntity
  8
SK1
  100
AcDbLine
  10
0.7
  20
3
  30
0
  11
0.7
  21
-3
  31
0
  0
LINE
  5
b8
  100
AcDbEntity
  8
SK1
  100
AcDbLine
  10
0
  20
2.3
  30
0
  11
0
  21
-2.3
  31
0
  0
LINE
  5
b9
  100
AcDbEntity
  8
SK1
  100
AcDbLine
  10
41.8401
  20
1.40688
  30
0
  11
42.2069
  21
1.0401
  31
0
  0
LINE
  5
ba
  100
AcDbEntity
  8
SK1
  100
AcDbLine
  10
41.3328
  20
1.66666
  30
0
  11
42.4667
  21
0.532833
  31
0
  0
LINE
  5
bb
  100
AcDbEntity
  8
SK1
  100
AcDbLine
  10
41.0154
  20
1.73657
  30
0
  11
42.5366
  21
0.215434
  31
0
  0
LINE
  5
bc
  100
AcDbEntity
  8
SK1
  100
AcDbLine
  10
40.8
  20
1.70452
  30
0
  11
42.5045
  21
0
  31
0
  0
LINE
  5
bd
  100
AcDbEntity
  8
SK1
  100
AcDbLine
  10
40.8
  20
1.45703
  30
0
  11
42.257
  21
0
  31
0
  0
LINE
  5
be
  100
AcDbEntity
  8
SK1
  100
AcDbLine
  10
40.8
  20
1.20954
  30
0
  11
42.0095
  21
0
  31
0
  0
LINE
  5
bf
  100
AcDbEntity
  8
SK1
  100
AcDbLine
  10
40.8
  20
0.962054
  30
0
  11
41.7621
  21
0
  31
0
  0
LINE
  5
c0
  100
AcDbEntity
  8
SK1
  100
AcDbLine
  10
40.8
  20
0.714566
  30
0
  11
41.5146
  21
0
  31
0
  0
LINE
  5
c1
  100
AcDbEntity
  8
SK1
  100
AcDbLine
  10
40.8
  20
0.467079
  30
0
  11
41.2671
  21
0
  31
0
  0
LINE
  5
c2
  100
AcDbEntity
  8
SK1
  100
AcDbLine
  10
40.8
  20
0.219592
  30
0
  11
41.0196
  21
0
  31
0
  0
LINE
  5
c3
  100
AcDbEntity
  8
SK1
  100
AcDbLine
  10
40.8
  20
1.70452
  30
0
  11
40.8441
  21
1.74861
  31
0
  0
LINE
  5
c4
  100
AcDbEntity
  8
SK1
  100
AcDbLine
  10
40.8
  20
1.45703
  30
0
  11
41.071
  21
1.72802
  31
0
  0
LINE
  5
c5
  100
AcDbEntity
  8
SK1
  100
AcDbLine
  10
40.8
  20
1.20954
  30
0
  11
41.2742
  21
1.6837
  31
0
  0
LINE
  5
c6
  100
AcDbEntity
  8
SK1
  100
AcDbLine
  10
40.8
  20
0.962054
  30
0
  11
41.4588
  21
1.62082
  31
0
  0
LINE
  5
c7
  100
AcDbEntity
  8
SK1
  100
AcDbLine
  10
40.8
  20
0.714566
  30
0
  11
41.6271
  21
1.54167
  31
0
  0
LINE
  5
c8
  100
AcDbEntity
  8
SK1
  100
AcDbLine
  10
40.8
  20
0.467079
  30
0
  11
41.781
  21
1.44812
  31
0
  0
LINE
  5
c9
  100
AcDbEntity
  8
SK1
  100
AcDbLine
  10
40.8
  20
0.219592
  30
0
  11
41.9226
  21
1.34216
  31
0
  0
LINE
  5
ca
  100
AcDbEntity
  8
SK1
  100
AcDbLine
  10
40.8279
  20
0
  30
0
  11
42.0508
  21
1.22288
  31
0
  0
LINE
  5
cb
  100
AcDbEntity
  8
SK1
  100
AcDbLine
  10
41.0754
  20
0
  30
0
  11
42.167
  21
1.09157
  31
0
  0
LINE
  5
cc
  100
AcDbEntity
  8
SK1
  100
AcDbLine
  10
41.3229
  20
0
  30
0
  11
42.2707
  21
0.947822
  31
0
  0
LINE
  5
cd
  100
AcDbEntity
  8
SK1
  100
AcDbLine
  10
41.5704
  20
0
  30
0
  11
42.3605
  21
0.790145
  31
0
  0
LINE
  5
ce
  100
AcDbEntity
  8
SK1
  100
AcDbLine
  10
41.8178
  20
0
  30
0
  11
42.4364
  21
0.618517
  31
0
  0
LINE
  5
cf
  100
AcDbEntity
  8
SK1
  100
AcDbLine
  10
42.0653
  20
0
  30
0
  11
42.496
  21
0.430696
  31
0
  0
LINE
  5
d0
  100
AcDbEntity
  8
SK1
  100
AcDbLine
  10
42.3128
  20
0
  30
0
  11
42.5356
  21
0.222827
  31
0
  0
LINE
  5
d1
  100
AcDbEntity
  8
SK1
  100
AcDbLine
  10
40.8
  20
0
  30
0
  11
40.8
  21
1.75
  31
0
  0
LINE
  5
d2
  100
AcDbEntity
  8
SK1
  100
AcDbLine
  10
40.8
  20
0
  30
0
  11
42.55
  21
0
  31
0
  0
ARC
  5
d3
  100
AcDbEntity
  8
SK1
  100
AcDbCircle
  10
40.8
  20
0
  30
0
  40
1.75
  100
AcDbArc
  50
0
  51
90
  0
ARC
  5
d4
  100
AcDbEntity
  8
SK1
  100
AcDbCircle
  10
40.8
  20
0
  30
0
  40
1.75
  100
AcDbArc
  50
90
  51
180
  0
LINE
  5
d5
  100
AcDbEntity
  8
SK1
  100
AcDbLine
  10
40.7721
  20
0
  30
0
  11
40.8
  21
-0.027896
  31
0
  0
LINE
  5
d6
  100
AcDbEntity
  8
SK1
  100
AcDbLine
  10
40.5246
  20
0
  30
0
  11
40.8
  21
-0.275383
  31
0
  0
LINE
  5
d7
  100
AcDbEntity
  8
SK1
  100
AcDbLine
  10
40.2771
  20
0
  30
0
  11
40.8
  21
-0.522871
  31
0
  0
LINE
  5
d8
  100
AcDbEntity
  8
SK1
  100
AcDbLine
  10
40.0296
  20
0
  30
0
  11
40.8
  21
-0.770358
  31
0
  0
LINE
  5
d9
  100
AcDbEntity
  8
SK1
  100
AcDbLine
  10
39.7822
  20
0
  30
0
  11
40.8
  21
-1.01785
  31
0
  0
LINE
  5
da
  100
AcDbEntity
  8
SK1
  100
AcDbLine
  10
39.5347
  20
0
  30
0
  11
40.8
  21
-1.26533
  31
0
  0
LINE
  5
db
  100
AcDbEntity
  8
SK1
  100
AcDbLine
  10
39.2872
  20
0
  30
0
  11
40.8
  21
-1.51282
  31
0
  0
LINE
  5
dc
  100
AcDbEntity
  8
SK1
  100
AcDbLine
  10
39.0503
  20
-0.010642
  30
0
  11
40.7894
  21
-1.74967
  31
0
  0
LINE
  5
dd
  100
AcDbEntity
  8
SK1
  100
AcDbLine
  10
39.0736
  20
-0.281429
  30
0
  11
40.5186
  21
-1.72637
  31
0
  0
LINE
  5
de
  100
AcDbEntity
  8
SK1
  100
AcDbLine
  10
39.1639
  20
-0.619147
  30
0
  11
40.1809
  21
-1.63613
  31
0
  0
LINE
  5
df
  100
AcDbEntity
  8
SK1
  100
AcDbLine
  10
39.0514
  20
-0.044098
  30
0
  11
39.0955
  21
0
  31
0
  0
LINE
  5
e0
  100
AcDbEntity
  8
SK1
  100
AcDbLine
  10
39.072
  20
-0.270991
  30
0
  11
39.343
  21
0
  31
0
  0
LINE
  5
e1
  100
AcDbEntity
  8
SK1
  100
AcDbLine
  10
39.1163
  20
-0.474162
  30
0
  11
39.5905
  21
0
  31
0
  0
LINE
  5
e2
  100
AcDbEntity
  8
SK1
  100
AcDbLine
  10
39.1792
  20
-0.658762
  30
0
  11
39.8379
  21
0
  31
0
  0
LINE
  5
e3
  100
AcDbEntity
  8
SK1
  100
AcDbLine
  10
39.2583
  20
-0.827105
  30
0
  11
40.0854
  21
0
  31
0
  0
LINE
  5
e4
  100
AcDbEntity
  8
SK1
  100
AcDbLine
  10
39.3519
  20
-0.981039
  30
0
  11
40.3329
  21
0
  31
0
  0
LINE
  5
e5
  100
AcDbEntity
  8
SK1
  100
AcDbLine
  10
39.4578
  20
-1.12257
  30
0
  11
40.5804
  21
0
  31
0
  0
LINE
  5
e6
  100
AcDbEntity
  8
SK1
  100
AcDbLine
  10
39.5771
  20
-1.25077
  30
0
  11
40.8
  21
-0.027896
  31
0
  0
LINE
  5
e7
  100
AcDbEntity
  8
SK1
  100
AcDbLine
  10
39.7084
  20
-1.36695
  30
0
  11
40.8
  21
-0.275383
  31
0
  0
LINE
  5
e8
  100
AcDbEntity
  8
SK1
  100
AcDbLine
  10
39.8522
  20
-1.47069
  30
0
  11
40.8
  21
-0.522871
  31
0
  0
LINE
  5
e9
  100
AcDbEntity
  8
SK1
  100
AcDbLine
  10
40.0099
  20
-1.5605
  30
0
  11
40.8
  21
-0.770358
  31
0
  0
LINE
  5
ea
  100
AcDbEntity
  8
SK1
  100
AcDbLine
  10
40.1815
  20
-1.63636
  30
0
  11
40.8
  21
-1.01785
  31
0
  0
LINE
  5
eb
  100
AcDbEntity
  8
SK1
  100
AcDbLine
  10
40.3693
  20
-1.69603
  30
0
  11
40.8
  21
-1.26533
  31
0
  0
LINE
  5
ec
  100
AcDbEntity
  8
SK1
  100
AcDbLine
  10
40.5772
  20
-1.73565
  30
0
  11
40.8
  21
-1.51282
  31
0
  0
LINE
  5
ed
  100
AcDbEntity
  8
SK1
  100
AcDbLine
  10
40.8
  20
0
  30
0
  11
39.05
  21
0
  31
0
  0
LINE
  5
ee
  100
AcDbEntity
  8
SK1
  100
AcDbLine
  10
40.8
  20
-1.75
  30
0
  11
40.8
  21
0
  31
0
  0
ARC
  5
ef
  100
AcDbEntity
  8
SK1
  100
AcDbCircle
  10
40.8
  20
0
  30
0
  40
1.75
  100
AcDbArc
  50
180
  51
270
  0
ARC
  5
f0
  100
AcDbEntity
  8
SK1
  100
AcDbCircle
  10
40.8
  20
0
  30
0
  40
1.75
  100
AcDbArc
  50
270
  51
0
  0
LINE
  5
16b
  100
AcDbEntity
  8
NOCUT
  100
AcDbLine
  10
56.8
  20
0
  30
0
  11
56.8
  21
1.925
  31
0
  0
LINE
  5
16c
  100
AcDbEntity
  8
NOCUT
  100
AcDbLine
  10
56.8
  20
1.925
  30
0
  11
45.63
  21
1.925
  31
0
  0
ARC
  5
16d
  100
AcDbEntity
  8
NOCUT
  100
AcDbCircle
  10
45.717156
  20
2.921195
  30
0
  40
1
  100
AcDbArc
  50
255
  51
265
  0
LINE
  5
16e
  100
AcDbEntity
  8
NOCUT
  100
AcDbLine
  10
45.458337
  20
1.955269
  30
0
  11
41.559347
  21
3
  31
0
  0
LINE
  5
16f
  100
AcDbEntity
  8
NOCUT
  100
AcDbLine
  10
41.559347
  20
3
  30
0
  11
40.8
  21
3
  31
0
  0
LINE
  5
170
  100
AcDbEntity
  8
NOCUT
  100
AcDbLine
  10
40.8
  20
3
  30
0
  11
40.8
  21
0
  31
0
  0
LINE
  5
171
  100
AcDbEntity
  8
NOCUT
  100
AcDbLine
  10
40.8
  20
0
  30
0
  11
56.8
  21
0
  31
0
  0
ARC
  5
172
  100
AcDbEntity
  8
CUT
  100
AcDbCircle
  10
58
  20
0
  30
0
  40
2
  100
AcDbArc
  50
0
  51
90
  0
LINE
  5
173
  100
AcDbEntity
  8
CUT
  100
AcDbLine
  10
58
  20
2
  30
0
  11
56.8
  21
2
  31
0
  0
LINE
  5
174
  100
AcDbEntity
  8
CUT
  100
AcDbLine
  10
56.8
  20
2
  30
0
  11
56.8
  21
0
  31
0
  0
LINE
  5
175
  100
AcDbEntity
  8
CUT
  100
AcDbLine
  10
56.8
  20
0
  30
0
  11
60
  21
0
  31
0
  0
LINE
  5
176
  100
AcDbEntity
  8
4
  100
AcDbLine
  10
40.8
  20
0
  30
0
  11
60
  21
0
  31
0
  0
LINE
  5
177
  100
AcDbEntity
  8
SK4
  100
AcDbLine
  10
-1
  20
0
  30
0
  11
61
  21
0
  31
0
  0
LINE
  5
178
  100
AcDbEntity
  8
INFTOTAL
  100
AcDbLine
  10
-16.2
  20
24.2
  30
0
  11
76.2
  21
24.2
  31
0
  0
LINE
  5
179
  100
AcDbEntity
  8
INFTOTAL
  100
AcDbLine
  10
76.2
  20
24.2
  30
0
  11
76.2
  21
-19.2
  31
0
  0
LINE
  5
17a
  100
AcDbEntity
  8
INFTOTAL
  100
AcDbLine
  10
76.2
  20
-19.2
  30
0
  11
-16.2
  21
-19.2
  31
0
  0
LINE
  5
17b
  100
AcDbEntity
  8
INFTOTAL
  100
AcDbLine
  10
-16.2
  20
-19.2
  30
0
  11
-16.2
  21
24.2
  31
0
  0
ENDSEC
  0
SECTION
  2
OBJECTS
  0
DICTIONARY
  5
17c
  330
0
100
AcDbDictionary
281
    1
  3
ACAD_GROUP
  350
17d
  0
DICTIONARY
  5
17d
102
{ACAD_REACTORS
  330
17c
102
}
  330
17c
100
AcDbDictionary
281
    1
  0
ENDSEC
  0
EOF
