  0
SECTION
  2
HEADER
  9
$ACADVER
  1
AC1015
  9
$DWGCODEPAGE
  3
ANSI_932
  9
$HANDSEED
  5
106AB90
  0
ENDSEC
  0
SECTION
  2
CLASSES
  0
CLASS
  1
IMAGEDEF
  2
AcDbRasterImageDef
  3
ISM
  90
0
  91
4
  280
0
  281
0
  0
CLASS
  1
IMAGE
  2
AcDbRasterImage
  3
ISM
  90
127
  91
5
  280
0
  281
1
  0
CLASS
  1
IMAGEDEF_REACTOR
  2
AcDbRasterImageDefReactor
  3
ISM
  90
1
  91
4
  280
0
  281
0
  0
ENDSEC
  0
SECTION
  2
TABLES
  0
TABLE
  2
VPORT
  5
2
  330
0
  100
AcDbSymbolTable
  70
    0
  0
ENDTAB
  0
TABLE
  2
LTYPE
  5
3
  330
0
  100
AcDbSymbolTable
  70
    4
  0
LTYPE
  5
4
  330
3
  100
AcDbSymbolTableRecord
  100
AcDbLinetypeTableRecord
  2
ByBlock
  70
    0
  3

  72
65
  73
    0
  40
0
  0
LTYPE
  5
5
  330
3
  100
AcDbSymbolTableRecord
  100
AcDbLinetypeTableRecord
  2
ByLayer
  70
    0
  3

  72
65
  73
    0
  40
0
  0
LTYPE
  5
6
  330
3
  100
AcDbSymbolTableRecord
  100
AcDbLinetypeTableRecord
  2
CONTINUOUS
  70
    0
  3
Solid Line
  72
65
  73
    0
  40
0
  0
LTYPE
  5
7
  330
3
  100
AcDbSymbolTableRecord
  100
AcDbLinetypeTableRecord
  2
DASH
  70
    0
  3
Hidden
  72
65
  73
2
  40
2.5
  49
1.5
  74
0
  49
-1
  74
0
  0
LTYPE
  5
8
  330
3
  100
AcDbSymbolTableRecord
  100
AcDbLinetypeTableRecord
  2
LONGDASHDASH
  70
    0
  3
__ . __
  72
65
  73
    4
  40
7
  49
4
  74
    0
  49
-1
  74
    0
  49
1
  74
    0
  49
-1
  74
    0
  0
ENDTAB
  0
TABLE
  2
LAYER
  5
9
  330
0
  100
AcDbSymbolTable
  70
    40
  0
LAYER
  5
a
  330
9
  100
AcDbSymbolTableRecord
  100
AcDbLayerTableRecord
  2
0
  70
    0
  62
    0
  6
CONTINUOUS
  390
0
  0
LAYER
  5
c
  330
9
  100
AcDbSymbolTableRecord
  100
AcDbLayerTableRecord
  2
1
  70
    0
  62
    4
  6
CONTINUOUS
  370
50
  390
0
  0
LAYER
  5
d
  330
9
  100
AcDbSymbolTableRecord
  100
AcDbLayerTableRecord
  2
2
  70
    0
  62
    7
  6
CONTINUOUS
  370
25
  390
0
  0
LAYER
  5
f
  330
9
  100
AcDbSymbolTableRecord
  100
AcDbLayerTableRecord
  2
4
  70
    0
  62
    2
  6
LONGDASHDASH
  370
25
  390
0
  0
LAYER
  5
13
  330
9
  100
AcDbSymbolTableRecord
  100
AcDbLayerTableRecord
  2
SK1
  70
    0
  62
    4
  6
CONTINUOUS
  370
50
  390
0
  0
LAYER
  5
14
  330
9
  100
AcDbSymbolTableRecord
  100
AcDbLayerTableRecord
  2
SK2
  70
    0
  62
    7
  6
CONTINUOUS
  370
25
  390
0
  0
LAYER
  5
16
  330
9
  100
AcDbSymbolTableRecord
  100
AcDbLayerTableRecord
  2
SK4
  70
    0
  62
    2
  6
LONGDASHDASH
  370
25
  390
0
  0
LAYER
  5
21
  330
9
  100
AcDbSymbolTableRecord
  100
AcDbLayerTableRecord
  2
NOCUT
  70
    0
  62
    7
  6
CONTINUOUS
  370
25
  390
0
  0
LAYER
  5
22
  330
9
  100
AcDbSymbolTableRecord
  100
AcDbLayerTableRecord
  2
CUT
  70
    0
  62
    1
  6
CONTINUOUS
  370
25
  390
0
  0
LAYER
  5
26
  330
9
  100
AcDbSymbolTableRecord
  100
AcDbLayerTableRecord
  2
INFTOTAL
  70
    0
  62
    9
  6
CONTINUOUS
  370
18
  390
0
  0
ENDTAB
  0
TABLE
  2
STYLE
  5
27
  330
0
  100
AcDbSymbolTable
  70
    1
  0
STYLE
  5
28
  330
27
  100
AcDbSymbolTableRecord
  100
AcDbTextStyleTableRecord
  2
Monospac821 BT
  70
    0
  40
    3.5
  41
1
  50
0
  71
0
  42
3
  3

  4

  1001
ACAD
  1000
Monospac821 BT
  1071
256
  0
ENDTAB
  0
TABLE
  2
VIEW
  5
29
  330
0
  100
AcDbSymbolTable
  70
    0
  0
ENDTAB
  0
TABLE
  2
UCS
  5
2a
  330
0
  100
AcDbSymbolTable
  70
    0
  0
ENDTAB
  0
TABLE
  2
APPID
  5
2b
  330
0
  100
AcDbSymbolTable
  70
    1
  0
APPID
  5
2c
  330
2b
  100
AcDbSymbolTableRecord
  100
AcDbRegAppTableRecord
  2
ACAD
  70
    0
  0
ENDTAB
  0
TABLE
  2
DIMSTYLE
  5
2d
  330
0
  100
AcDbSymbolTable
  70
    1
  100
AcDbDimStyleTable
  0
DIMSTYLE
  105
2e
  330
2d
  100
AcDbSymbolTableRecord
  100
AcDbDimStyleTableRecord
  2
STANDARD
  70
    0
  41
    3
  42
0.5
  44
1
  73
0
  77
1
  78
1
  140
3.5
  141
2.5
  143
0.03937
  147
0.8
  172
1
  174
1
  178
0
  179
1
  271
2
  279
1
  284
1
  340
28
  0
ENDTAB
  0
TABLE
  2
BLOCK_RECORD
  5
2f
  330
0
  100
AcDbSymbolTable
  70
    2
  0
BLOCK_RECORD
  5
30
  330
2f
  100
AcDbSymbolTableRecord
  100
AcDbBlockTableRecord
  2
*Model_Space
  0
BLOCK_RECORD
  5
31
  330
2f
  100
AcDbSymbolTableRecord
  100
AcDbBlockTableRecord
  2
*Paper_Space
  0
BLOCK_RECORD
  5
12c
  330
2f
  100
AcDbSymbolTableRecord
  100
AcDbBlockTableRecord
  2
*D12b
  340
0
  0
BLOCK_RECORD
  5
13a
  330
2f
  100
AcDbSymbolTableRecord
  100
AcDbBlockTableRecord
  2
*D139
  340
0
  0
BLOCK_RECORD
  5
148
  330
2f
  100
AcDbSymbolTableRecord
  100
AcDbBlockTableRecord
  2
*D147
  340
0
  0
BLOCK_RECORD
  5
156
  330
2f
  100
AcDbSymbolTableRecord
  100
AcDbBlockTableRecord
  2
*D155
  340
0
  0
BLOCK_RECORD
  5
164
  330
2f
  100
AcDbSymbolTableRecord
  100
AcDbBlockTableRecord
  2
*D163
  340
0
  0
BLOCK_RECORD
  5
16e
  330
2f
  100
AcDbSymbolTableRecord
  100
AcDbBlockTableRecord
  2
*D16d
  340
0
  0
BLOCK_RECORD
  5
17c
  330
2f
  100
AcDbSymbolTableRecord
  100
AcDbBlockTableRecord
  2
*D17b
  340
0
  0
BLOCK_RECORD
  5
18a
  330
2f
  100
AcDbSymbolTableRecord
  100
AcDbBlockTableRecord
  2
*D189
  340
0
  0
BLOCK_RECORD
  5
198
  330
2f
  100
AcDbSymbolTableRecord
  100
AcDbBlockTableRecord
  2
*D197
  340
0
  0
ENDTAB
  0
ENDSEC
  0
SECTION
  2
BLOCKS
  0
BLOCK
  5
32
  330
30
  100
AcDbEntity
  8
0
  100
AcDbBlockBegin
  2
*Model_Space
  70
    0
  10
0
  20
0
  30
0
  3
*Model_Space
  1

  0
ENDBLK
  5
33
  330
30
  100
AcDbEntity
  8
0
  100
AcDbBlockEnd
  0
BLOCK
  5
34
  330
31
  100
AcDbEntity
  8
0
  100
AcDbBlockBegin
  2
*Paper_Space
  70
    0
  10
0
  20
0
  30
0
  3
*Paper_Space
  1

  0
ENDBLK
  5
35
  330
31
  100
AcDbEntity
  8
0
  100
AcDbBlockEnd
  0
BLOCK
  5
12a
  330
12c
  100
AcDbEntity
  8
SK2
  100
AcDbBlockBegin
  2
*D12b
  70
1
  10
0
  20
0
  30
0
  3
*D12b
  1

  0
LINE
  5
12d
  330
12c
  100
AcDbEntity
  8
SK2
  100
AcDbLine
  10
0
  20
2.3
  30
0
  11
0
  21
20
  31
0
  0
LINE
  5
12e
  330
12c
  100
AcDbEntity
  8
SK2
  100
AcDbLine
  10
80
  20
-15
  30
0
  11
80
  21
20
  31
0
  0
LINE
  5
12f
  330
12c
  100
AcDbEntity
  8
SK2
  100
AcDbLine
  10
0
  20
18
  30
0
  11
80
  21
18
  31
0
  0
SOLID
  5
130
  330
12c
  100
AcDbEntity
  8
SK2
  100
AcDbTrace
  10
0
  20
18
  30
0
  11
2.478612
  21
18.326315
  31
0
  12
2.478612
  22
17.673685
  32
0
  13
2.478612
  23
17.673685
  33
0
  0
SOLID
  5
131
  330
12c
  100
AcDbEntity
  8
SK2
  100
AcDbTrace
  10
80
  20
18
  30
0
  11
77.521388
  21
17.673685
  31
0
  12
77.521388
  22
18.326315
  32
0
  13
77.521388
  23
18.326315
  33
0
  0
MTEXT
  5
132
  330
12c
  100
AcDbEntity
  8
SK2
  100
AcDbMText
  10
40
  20
18
  30
0
  11
1
  21
0
  31
0
  40
2
  41
0
  71
8
  72
1
  1
80
  0
POINT
  5
133
  330
12c
  100
AcDbEntity
  8
SK2
  62
0
  100
AcDbPoint
  10
0
  20
2.3
  30
0
  0
POINT
  5
134
  330
12c
  100
AcDbEntity
  8
SK2
  62
0
  100
AcDbPoint
  10
80
  20
-15
  30
0
  0
POINT
  5
135
  330
12c
  100
AcDbEntity
  8
SK2
  62
0
  100
AcDbPoint
  10
80
  20
18
  30
0
  0
ENDBLK
  5
136
  330
12c
  100
AcDbEntity
  8
SK2
  100
AcDbBlockEnd
  0
BLOCK
  5
138
  330
13a
  100
AcDbEntity
  8
SK2
  100
AcDbBlockBegin
  2
*D139
  70
1
  10
0
  20
0
  30
0
  3
*D139
  1

  0
LINE
  5
13b
  330
13a
  100
AcDbEntity
  8
SK2
  100
AcDbLine
  10
47.7
  20
3
  30
0
  11
47.7
  21
15
  31
0
  0
LINE
  5
13c
  330
13a
  100
AcDbEntity
  8
SK2
  100
AcDbLine
  10
0
  20
2.3
  30
0
  11
0
  21
20
  31
0
  0
LINE
  5
13d
  330
13a
  100
AcDbEntity
  8
SK2
  100
AcDbLine
  10
47.7
  20
13
  30
0
  11
0
  21
13
  31
0
  0
SOLID
  5
13e
  330
13a
  100
AcDbEntity
  8
SK2
  100
AcDbTrace
  10
47.7
  20
13
  30
0
  11
50.178612
  21
13.326315
  31
0
  12
50.178612
  22
12.673685
  32
0
  13
50.178612
  23
12.673685
  33
0
  0
SOLID
  5
13f
  330
13a
  100
AcDbEntity
  8
SK2
  100
AcDbTrace
  10
0
  20
13
  30
0
  11
-2.478612
  21
12.673685
  31
0
  12
-2.478612
  22
13.326315
  32
0
  13
-2.478612
  23
13.326315
  33
0
  0
MTEXT
  5
140
  330
13a
  100
AcDbEntity
  8
SK2
  100
AcDbMText
  10
23.85
  20
13
  30
0
  11
1
  21
-0
  31
0
  40
2
  41
0
  71
8
  72
1
  1
47.7
  0
POINT
  5
141
  330
13a
  100
AcDbEntity
  8
SK2
  62
0
  100
AcDbPoint
  10
47.7
  20
3
  30
0
  0
POINT
  5
142
  330
13a
  100
AcDbEntity
  8
SK2
  62
0
  100
AcDbPoint
  10
0
  20
2.3
  30
0
  0
POINT
  5
143
  330
13a
  100
AcDbEntity
  8
SK2
  62
0
  100
AcDbPoint
  10
0
  20
13
  30
0
  0
ENDBLK
  5
144
  330
13a
  100
AcDbEntity
  8
SK2
  100
AcDbBlockEnd
  0
BLOCK
  5
146
  330
148
  100
AcDbEntity
  8
SK2
  100
AcDbBlockBegin
  2
*D147
  70
1
  10
0
  20
0
  30
0
  3
*D147
  1

  0
LINE
  5
149
  330
148
  100
AcDbEntity
  8
SK2
  100
AcDbLine
  10
0.7
  20
-3
  30
0
  11
-12
  21
-3
  31
0
  0
LINE
  5
14a
  330
148
  100
AcDbEntity
  8
SK2
  100
AcDbLine
  10
0.7
  20
3
  30
0
  11
-12
  21
3
  31
0
  0
LINE
  5
14b
  330
148
  100
AcDbEntity
  8
SK2
  100
AcDbLine
  10
-10
  20
-3
  30
0
  11
-10
  21
3
  31
0
  0
SOLID
  5
14c
  330
148
  100
AcDbEntity
  8
SK2
  100
AcDbTrace
  10
-10
  20
-3
  30
0
  11
-10.326315
  21
-0.521388
  31
0
  12
-9.673685
  22
-0.521388
  32
0
  13
-9.673685
  23
-0.521388
  33
0
  0
SOLID
  5
14d
  330
148
  100
AcDbEntity
  8
SK2
  100
AcDbTrace
  10
-10
  20
3
  30
0
  11
-9.673685
  21
0.521388
  31
0
  12
-10.326315
  22
0.521388
  32
0
  13
-10.326315
  23
0.521388
  33
0
  0
MTEXT
  5
14e
  330
148
  100
AcDbEntity
  8
SK2
  100
AcDbMText
  10
-10
  20
0
  30
0
  11
0
  21
1
  31
0
  40
2
  41
0
  71
8
  72
1
  1
ﾘ6
  0
POINT
  5
14f
  330
148
  100
AcDbEntity
  8
SK2
  62
0
  100
AcDbPoint
  10
0.7
  20
-3
  30
0
  0
POINT
  5
150
  330
148
  100
AcDbEntity
  8
SK2
  62
0
  100
AcDbPoint
  10
0.7
  20
3
  30
0
  0
POINT
  5
151
  330
148
  100
AcDbEntity
  8
SK2
  62
0
  100
AcDbPoint
  10
-10
  20
3
  30
0
  0
ENDBLK
  5
152
  330
148
  100
AcDbEntity
  8
SK2
  100
AcDbBlockEnd
  0
BLOCK
  5
154
  330
156
  100
AcDbEntity
  8
2
  100
AcDbBlockBegin
  2
*D155
  70
1
  10
0
  20
0
  30
0
  3
*D155
  1

  0
LINE
  5
157
  330
156
  100
AcDbEntity
  8
2
  100
AcDbLine
  10
77.5
  20
-2.5
  30
0
  11
92
  21
-2.5
  31
0
  0
LINE
  5
158
  330
156
  100
AcDbEntity
  8
2
  100
AcDbLine
  10
77.5
  20
2.5
  30
0
  11
92
  21
2.5
  31
0
  0
LINE
  5
159
  330
156
  100
AcDbEntity
  8
2
  100
AcDbLine
  10
90
  20
-2.5
  30
0
  11
90
  21
2.5
  31
0
  0
SOLID
  5
15a
  330
156
  100
AcDbEntity
  8
2
  100
AcDbTrace
  10
90
  20
-2.5
  30
0
  11
89.673685
  21
-0.021388
  31
0
  12
90.326315
  22
-0.021388
  32
0
  13
90.326315
  23
-0.021388
  33
0
  0
SOLID
  5
15b
  330
156
  100
AcDbEntity
  8
2
  100
AcDbTrace
  10
90
  20
2.5
  30
0
  11
90.326315
  21
0.021388
  31
0
  12
89.673685
  22
0.021388
  32
0
  13
89.673685
  23
0.021388
  33
0
  0
MTEXT
  5
15c
  330
156
  100
AcDbEntity
  8
2
  100
AcDbMText
  10
90
  20
0
  30
0
  11
0
  21
1
  31
0
  40
2
  41
0
  71
8
  72
1
  1
ﾘ5
  0
POINT
  5
15d
  330
156
  100
AcDbEntity
  8
2
  62
0
  100
AcDbPoint
  10
77.5
  20
-2.5
  30
0
  0
POINT
  5
15e
  330
156
  100
AcDbEntity
  8
2
  62
0
  100
AcDbPoint
  10
77.5
  20
2.5
  30
0
  0
POINT
  5
15f
  330
156
  100
AcDbEntity
  8
2
  62
0
  100
AcDbPoint
  10
90
  20
2.5
  30
0
  0
ENDBLK
  5
160
  330
156
  100
AcDbEntity
  8
2
  100
AcDbBlockEnd
  0
BLOCK
  5
162
  330
164
  100
AcDbEntity
  8
2
  100
AcDbBlockBegin
  2
*D163
  70
1
  10
0
  20
0
  30
0
  3
*D163
  1

  0
LINE
  5
165
  330
164
  100
AcDbEntity
  8
2
  100
AcDbLine
  10
76.630569
  20
-0.869431
  30
0
  11
86.338835
  21
8.838835
  31
0
  0
MTEXT
  5
166
  330
164
  100
AcDbEntity
  8
2
  100
AcDbMText
  10
79.267767
  20
1.767767
  30
0
  11
0.707107
  21
0.707107
  31
0
  40
2
  41
0
  71
8
  72
1
  1
R2.5
  0
SOLID
  5
167
  330
164
  100
AcDbEntity
  8
2
  100
AcDbTrace
  10
79.267767
  20
1.767767
  30
0
  11
80.789671
  21
3.75115
  31
0
  12
81.25115
  22
3.289671
  32
0
  13
81.25115
  23
3.289671
  33
0
  0
POINT
  5
168
  330
164
  100
AcDbEntity
  8
2
  62
0
  100
AcDbPoint
  10
76.630569
  20
-0.869431
  30
0
  0
POINT
  5
169
  330
164
  100
AcDbEntity
  8
2
  62
0
  100
AcDbPoint
  10
77.5
  20
0
  30
0
  0
ENDBLK
  5
16a
  330
164
  100
AcDbEntity
  8
2
  100
AcDbBlockEnd
  0
BLOCK
  5
16c
  330
16e
  100
AcDbEntity
  8
2
  100
AcDbBlockBegin
  2
*D16d
  70
1
  10
0
  20
0
  30
0
  3
*D16d
  1

  0
LINE
  5
16f
  330
16e
  100
AcDbEntity
  8
2
  100
AcDbLine
  10
75
  20
-2.425
  30
0
  11
73
  21
-2.425
  31
0
  0
LINE
  5
170
  330
16e
  100
AcDbEntity
  8
2
  100
AcDbLine
  10
75
  20
2.425
  30
0
  11
73
  21
2.425
  31
0
  0
LINE
  5
171
  330
16e
  100
AcDbEntity
  8
2
  100
AcDbLine
  10
75
  20
-2.425
  30
0
  11
75
  21
10.915842
  31
0
  0
SOLID
  5
172
  330
16e
  100
AcDbEntity
  8
2
  100
AcDbTrace
  10
75
  20
-2.425
  30
0
  11
74.673685
  21
0.053612
  31
0
  12
75.326315
  22
0.053612
  32
0
  13
75.326315
  23
0.053612
  33
0
  0
SOLID
  5
173
  330
16e
  100
AcDbEntity
  8
2
  100
AcDbTrace
  10
75
  20
2.425
  30
0
  11
75.326315
  21
-0.053612
  31
0
  12
74.673685
  22
-0.053612
  32
0
  13
74.673685
  23
-0.053612
  33
0
  0
MTEXT
  5
174
  330
16e
  100
AcDbEntity
  8
2
  100
AcDbMText
  10
75
  20
2.425
  30
0
  11
0
  21
1
  31
0
  40
2
  41
0
  71
8
  72
1
  1
ﾘ4.85
  0
POINT
  5
175
  330
16e
  100
AcDbEntity
  8
2
  62
0
  100
AcDbPoint
  10
73
  20
-2.425
  30
0
  0
POINT
  5
176
  330
16e
  100
AcDbEntity
  8
2
  62
0
  100
AcDbPoint
  10
73
  20
2.425
  30
0
  0
POINT
  5
177
  330
16e
  100
AcDbEntity
  8
2
  62
0
  100
AcDbPoint
  10
75
  20
10.915842
  30
0
  0
ENDBLK
  5
178
  330
16e
  100
AcDbEntity
  8
2
  100
AcDbBlockEnd
  0
BLOCK
  5
17a
  330
17c
  100
AcDbEntity
  8
2
  100
AcDbBlockBegin
  2
*D17b
  70
1
  10
0
  20
0
  30
0
  3
*D17b
  1

  0
LINE
  5
17d
  330
17c
  100
AcDbEntity
  8
2
  100
AcDbLine
  10
75
  20
2.425
  30
0
  11
75
  21
9
  31
0
  0
LINE
  5
17e
  330
17c
  100
AcDbEntity
  8
2
  100
AcDbLine
  10
50.63
  20
2.425
  30
0
  11
50.63
  21
9
  31
0
  0
LINE
  5
17f
  330
17c
  100
AcDbEntity
  8
2
  100
AcDbLine
  10
77.840347
  20
7
  30
0
  11
50.63
  21
7
  31
0
  0
SOLID
  5
180
  330
17c
  100
AcDbEntity
  8
2
  100
AcDbTrace
  10
75
  20
7
  30
0
  11
77.478612
  21
7.326315
  31
0
  12
77.478612
  22
6.673685
  32
0
  13
77.478612
  23
6.673685
  33
0
  0
SOLID
  5
181
  330
17c
  100
AcDbEntity
  8
2
  100
AcDbTrace
  10
50.63
  20
7
  30
0
  11
48.151388
  21
6.673685
  31
0
  12
48.151388
  22
7.326315
  32
0
  13
48.151388
  23
7.326315
  33
0
  0
MTEXT
  5
182
  330
17c
  100
AcDbEntity
  8
2
  100
AcDbMText
  10
73.784884
  20
7
  30
0
  11
1
  21
-0
  31
0
  40
2
  41
0
  71
8
  72
1
  1
24.37
  0
POINT
  5
183
  330
17c
  100
AcDbEntity
  8
2
  62
0
  100
AcDbPoint
  10
75
  20
2.425
  30
0
  0
POINT
  5
184
  330
17c
  100
AcDbEntity
  8
2
  62
0
  100
AcDbPoint
  10
50.63
  20
2.425
  30
0
  0
POINT
  5
185
  330
17c
  100
AcDbEntity
  8
2
  62
0
  100
AcDbPoint
  10
50.63
  20
7
  30
0
  0
ENDBLK
  5
186
  330
17c
  100
AcDbEntity
  8
2
  100
AcDbBlockEnd
  0
BLOCK
  5
188
  330
18a
  100
AcDbEntity
  8
2
  100
AcDbBlockBegin
  2
*D189
  70
1
  10
0
  20
0
  30
0
  3
*D189
  1

  0
LINE
  5
18b
  330
18a
  100
AcDbEntity
  8
2
  100
AcDbLine
  10
80
  20
-15
  30
0
  11
80
  21
20
  31
0
  0
LINE
  5
18c
  330
18a
  100
AcDbEntity
  8
2
  100
AcDbLine
  10
47.7
  20
3
  30
0
  11
47.7
  21
10
  31
0
  0
LINE
  5
18d
  330
18a
  100
AcDbEntity
  8
2
  100
AcDbLine
  10
80
  20
8
  30
0
  11
47.7
  21
8
  31
0
  0
SOLID
  5
18e
  330
18a
  100
AcDbEntity
  8
2
  100
AcDbTrace
  10
80
  20
8
  30
0
  11
82.478612
  21
8.326315
  31
0
  12
82.478612
  22
7.673685
  32
0
  13
82.478612
  23
7.673685
  33
0
  0
SOLID
  5
18f
  330
18a
  100
AcDbEntity
  8
2
  100
AcDbTrace
  10
47.7
  20
8
  30
0
  11
45.221388
  21
7.673685
  31
0
  12
45.221388
  22
8.326315
  32
0
  13
45.221388
  23
8.326315
  33
0
  0
MTEXT
  5
190
  330
18a
  100
AcDbEntity
  8
2
  100
AcDbMText
  10
63.85
  20
8
  30
0
  11
1
  21
-0
  31
0
  40
2
  41
0
  71
8
  72
1
  1
32.3
  0
POINT
  5
191
  330
18a
  100
AcDbEntity
  8
2
  62
0
  100
AcDbPoint
  10
80
  20
-15
  30
0
  0
POINT
  5
192
  330
18a
  100
AcDbEntity
  8
2
  62
0
  100
AcDbPoint
  10
47.7
  20
3
  30
0
  0
POINT
  5
193
  330
18a
  100
AcDbEntity
  8
2
  62
0
  100
AcDbPoint
  10
47.7
  20
8
  30
0
  0
ENDBLK
  5
194
  330
18a
  100
AcDbEntity
  8
2
  100
AcDbBlockEnd
  0
BLOCK
  5
196
  330
198
  100
AcDbEntity
  8
2
  100
AcDbBlockBegin
  2
*D197
  70
1
  10
0
  20
0
  30
0
  3
*D197
  1

  0
LINE
  5
199
  330
198
  100
AcDbEntity
  8
2
  100
AcDbLine
  10
75
  20
-2.425
  30
0
  11
75
  21
-15
  31
0
  0
LINE
  5
19a
  330
198
  100
AcDbEntity
  8
2
  100
AcDbLine
  10
80
  20
-15
  30
0
  11
80
  21
20
  31
0
  0
LINE
  5
19b
  330
198
  100
AcDbEntity
  8
2
  100
AcDbLine
  10
75
  20
-13
  30
0
  11
80
  21
-13
  31
0
  0
SOLID
  5
19c
  330
198
  100
AcDbEntity
  8
2
  100
AcDbTrace
  10
75
  20
-13
  30
0
  11
77.478612
  21
-12.673685
  31
0
  12
77.478612
  22
-13.326315
  32
0
  13
77.478612
  23
-13.326315
  33
0
  0
SOLID
  5
19d
  330
198
  100
AcDbEntity
  8
2
  100
AcDbTrace
  10
80
  20
-13
  30
0
  11
77.521388
  21
-13.326315
  31
0
  12
77.521388
  22
-12.673685
  32
0
  13
77.521388
  23
-12.673685
  33
0
  0
MTEXT
  5
19e
  330
198
  100
AcDbEntity
  8
2
  100
AcDbMText
  10
77.5
  20
-13
  30
0
  11
1
  21
0
  31
0
  40
2
  41
0
  71
8
  72
1
  1
5
  0
POINT
  5
19f
  330
198
  100
AcDbEntity
  8
2
  62
0
  100
AcDbPoint
  10
75
  20
-2.425
  30
0
  0
POINT
  5
1a0
  330
198
  100
AcDbEntity
  8
2
  62
0
  100
AcDbPoint
  10
80
  20
20
  30
0
  0
POINT
  5
1a1
  330
198
  100
AcDbEntity
  8
2
  62
0
  100
AcDbPoint
  10
80
  20
-13
  30
0
  0
ENDBLK
  5
1a2
  330
198
  100
AcDbEntity
  8
2
  100
AcDbBlockEnd
  0
ENDSEC
  0
SECTION
  2
ENTITIES
  0
DIMENSION
  5
137
  100
AcDbEntity
  8
SK2
  100
AcDbDimension
  2
*D12b
  10
80
  20
18
  30
0
  11
40
  21
18
  31
0
  70
160
  1
<>
  71
5
  3
STANDARD
  42
80
  100
AcDbAlignedDimension
  13
0
  23
2.3
  33
0
  14
80
  24
-15
  34
0
  50
0
  100
AcDbRotatedDimension
  0
DIMENSION
  5
145
  100
AcDbEntity
  8
SK2
  100
AcDbDimension
  2
*D139
  10
0
  20
13
  30
0
  11
23.85
  21
13
  31
0
  70
160
  1
<>
  71
5
  3
STANDARD
  42
47.7
  100
AcDbAlignedDimension
  13
47.7
  23
3
  33
0
  14
0
  24
2.3
  34
0
  50
0
  100
AcDbRotatedDimension
  0
DIMENSION
  5
153
  100
AcDbEntity
  8
SK2
  100
AcDbDimension
  2
*D147
  10
-10
  20
3
  30
0
  11
-10
  21
0
  31
0
  70
160
  1
%%c<>
  71
5
  3
STANDARD
  42
6
  100
AcDbAlignedDimension
  13
0.7
  23
-3
  33
0
  14
0.7
  24
3
  34
0
  50
-90
  100
AcDbRotatedDimension
  0
DIMENSION
  5
161
  100
AcDbEntity
  8
2
  100
AcDbDimension
  2
*D155
  10
90
  20
2.5
  30
0
  11
90
  21
0
  31
0
  70
160
  1
%%c<>
  71
5
  3
STANDARD
  42
5
  100
AcDbAlignedDimension
  13
77.5
  23
-2.5
  33
0
  14
77.5
  24
2.5
  34
0
  50
-90
  100
AcDbRotatedDimension
  0
DIMENSION
  5
16b
  100
AcDbEntity
  8
2
  100
AcDbDimension
  2
*D163
  10
77.5
  20
0
  30
0
  11
79.267767
  21
1.767767
  31
0
  70
164
  1
R2.5
  71
5
  3
STANDARD
  100
AcDbRadialDimension
  15
79.267767
  25
1.767767
  35
0
  50
45
  0
DIMENSION
  5
179
  100
AcDbEntity
  8
2
  100
AcDbDimension
  2
*D16d
  10
75
  20
10.915842
  30
0
  11
75
  21
2.425
  31
0
  70
160
  1
%%c<>
  71
5
  3
STANDARD
  42
4.85
  100
AcDbAlignedDimension
  13
73
  23
-2.425
  33
0
  14
73
  24
2.425
  34
0
  50
-90
  100
AcDbRotatedDimension
  0
DIMENSION
  5
187
  100
AcDbEntity
  8
2
  100
AcDbDimension
  2
*D17b
  10
50.63
  20
7
  30
0
  11
73.784884
  21
7
  31
0
  70
160
  1
<>
  71
5
  3
STANDARD
  42
24.37
  100
AcDbAlignedDimension
  13
75
  23
2.425
  33
0
  14
50.63
  24
2.425
  34
0
  50
0
  100
AcDbRotatedDimension
  0
DIMENSION
  5
195
  100
AcDbEntity
  8
2
  100
AcDbDimension
  2
*D189
  10
47.7
  20
8
  30
0
  11
63.85
  21
8
  31
0
  70
160
  1
<>
  71
5
  3
STANDARD
  42
32.3
  100
AcDbAlignedDimension
  13
80
  23
-15
  33
0
  14
47.7
  24
3
  34
0
  50
0
  100
AcDbRotatedDimension
  0
DIMENSION
  5
1a3
  100
AcDbEntity
  8
2
  100
AcDbDimension
  2
*D197
  10
80
  20
-13
  30
0
  11
77.5
  21
-13
  31
0
  70
160
  1
<>
  71
5
  3
STANDARD
  42
5
  100
AcDbAlignedDimension
  13
75
  23
-2.425
  33
0
  14
80
  24
20
  34
0
  50
0
  100
AcDbRotatedDimension
  0
ARC
  5
36
  100
AcDbEntity
  8
1
  100
AcDbCircle
  10
50.717156
  20
-3.421195
  30
0
  40
1
  100
AcDbArc
  50
95
  51
105
  0
LINE
  5
37
  100
AcDbEntity
  8
1
  100
AcDbLine
  10
50.63
  20
-2.425
  30
0
  11
75
  21
-2.425
  31
0
  0
LINE
  5
38
  100
AcDbEntity
  8
1
  100
AcDbLine
  10
75
  20
-2.425
  30
0
  11
75
  21
-2.5
  31
0
  0
LINE
  5
39
  100
AcDbEntity
  8
1
  100
AcDbLine
  10
75
  20
-2.5
  30
0
  11
77.5
  21
-2.5
  31
0
  0
ARC
  5
3a
  100
AcDbEntity
  8
1
  100
AcDbCircle
  10
77.5
  20
0
  30
0
  40
2.5
  100
AcDbArc
  50
270
  51
0
  0
ARC
  5
3b
  100
AcDbEntity
  8
1
  100
AcDbCircle
  10
77.5
  20
0
  30
0
  40
2.5
  100
AcDbArc
  50
0
  51
90
  0
LINE
  5
3c
  100
AcDbEntity
  8
1
  100
AcDbLine
  10
77.5
  20
2.5
  30
0
  11
75
  21
2.5
  31
0
  0
LINE
  5
3d
  100
AcDbEntity
  8
1
  100
AcDbLine
  10
75
  20
2.5
  30
0
  11
75
  21
2.425
  31
0
  0
LINE
  5
3e
  100
AcDbEntity
  8
1
  100
AcDbLine
  10
75
  20
2.425
  30
0
  11
50.63
  21
2.425
  31
0
  0
ARC
  5
3f
  100
AcDbEntity
  8
1
  100
AcDbCircle
  10
50.717156
  20
3.421195
  30
0
  40
1
  100
AcDbArc
  50
255
  51
265
  0
LINE
  5
40
  100
AcDbEntity
  8
1
  100
AcDbLine
  10
50.458337
  20
2.455269
  30
0
  11
48.425372
  21
3
  31
0
  0
LINE
  5
41
  100
AcDbEntity
  8
1
  100
AcDbLine
  10
48.425372
  20
3
  30
0
  11
47.7
  21
3
  31
0
  0
LINE
  5
42
  100
AcDbEntity
  8
1
  100
AcDbLine
  10
47.7
  20
3
  30
0
  11
47.7
  21
-3
  31
0
  0
LINE
  5
43
  100
AcDbEntity
  8
1
  100
AcDbLine
  10
47.7
  20
-3
  30
0
  11
48.425372
  21
-3
  31
0
  0
LINE
  5
44
  100
AcDbEntity
  8
1
  100
AcDbLine
  10
48.425372
  20
-3
  30
0
  11
50.458337
  21
-2.455269
  31
0
  0
LINE
  5
45
  100
AcDbEntity
  8
1
  100
AcDbLine
  10
47.7
  20
-3
  30
0
  11
47.7
  21
3
  31
0
  0
LINE
  5
46
  100
AcDbEntity
  8
1
  100
AcDbLine
  10
47.7
  20
3
  30
0
  11
47.7
  21
-3
  31
0
  0
LINE
  5
47
  100
AcDbEntity
  8
1
  100
AcDbLine
  10
48.425372
  20
3
  30
0
  11
48.425372
  21
-3
  31
0
  0
LINE
  5
48
  100
AcDbEntity
  8
1
  100
AcDbLine
  10
50.458337
  20
-2.455269
  30
0
  11
50.458337
  21
2.455269
  31
0
  0
LINE
  5
49
  100
AcDbEntity
  8
1
  100
AcDbLine
  10
50.63
  20
2.425
  30
0
  11
50.63
  21
-2.425
  31
0
  0
LINE
  5
4a
  100
AcDbEntity
  8
1
  100
AcDbLine
  10
75
  20
-0.727514
  30
0
  11
75
  21
-0.76774
  31
0
  0
LINE
  5
4b
  100
AcDbEntity
  8
1
  100
AcDbLine
  10
75
  20
-0.76774
  30
0
  11
75.1
  21
-0.82172
  31
0
  0
LINE
  5
4c
  100
AcDbEntity
  8
1
  100
AcDbLine
  10
75.1
  20
-0.82172
  30
0
  11
75.2
  21
-0.875262
  31
0
  0
LINE
  5
4d
  100
AcDbEntity
  8
1
  100
AcDbLine
  10
75.2
  20
-0.875262
  30
0
  11
75.3
  21
-0.928338
  31
0
  0
LINE
  5
4e
  100
AcDbEntity
  8
1
  100
AcDbLine
  10
75.3
  20
-0.928338
  30
0
  11
75.4
  21
-0.980918
  31
0
  0
LINE
  5
4f
  100
AcDbEntity
  8
1
  100
AcDbLine
  10
75.4
  20
-0.980918
  30
0
  11
75.5
  21
-1.032975
  31
0
  0
LINE
  5
50
  100
AcDbEntity
  8
1
  100
AcDbLine
  10
75.5
  20
-1.032975
  30
0
  11
75.6
  21
-1.084481
  31
0
  0
LINE
  5
51
  100
AcDbEntity
  8
1
  100
AcDbLine
  10
75.6
  20
-1.084481
  30
0
  11
75.7
  21
-1.135409
  31
0
  0
LINE
  5
52
  100
AcDbEntity
  8
1
  100
AcDbLine
  10
75.7
  20
-1.135409
  30
0
  11
75.8
  21
-1.185731
  31
0
  0
LINE
  5
53
  100
AcDbEntity
  8
1
  100
AcDbLine
  10
75.8
  20
-1.185731
  30
0
  11
75.9
  21
-1.235421
  31
0
  0
LINE
  5
54
  100
AcDbEntity
  8
1
  100
AcDbLine
  10
75.9
  20
-1.235421
  30
0
  11
76
  21
-1.284452
  31
0
  0
LINE
  5
55
  100
AcDbEntity
  8
1
  100
AcDbLine
  10
76
  20
-1.284452
  30
0
  11
76.1
  21
-1.332798
  31
0
  0
LINE
  5
56
  100
AcDbEntity
  8
1
  100
AcDbLine
  10
76.1
  20
-1.332798
  30
0
  11
76.2
  21
-1.380434
  31
0
  0
LINE
  5
57
  100
AcDbEntity
  8
1
  100
AcDbLine
  10
76.2
  20
-1.380434
  30
0
  11
76.3
  21
-1.427333
  31
0
  0
LINE
  5
58
  100
AcDbEntity
  8
1
  100
AcDbLine
  10
76.3
  20
-1.427333
  30
0
  11
76.4
  21
-1.47347
  31
0
  0
LINE
  5
59
  100
AcDbEntity
  8
1
  100
AcDbLine
  10
76.4
  20
-1.47347
  30
0
  11
76.5
  21
-1.518823
  31
0
  0
LINE
  5
5a
  100
AcDbEntity
  8
1
  100
AcDbLine
  10
76.5
  20
-1.518823
  30
0
  11
76.6
  21
-1.563365
  31
0
  0
LINE
  5
5b
  100
AcDbEntity
  8
1
  100
AcDbLine
  10
76.6
  20
-1.563365
  30
0
  11
76.7
  21
-1.607073
  31
0
  0
LINE
  5
5c
  100
AcDbEntity
  8
1
  100
AcDbLine
  10
76.7
  20
-1.607073
  30
0
  11
76.8
  21
-1.649924
  31
0
  0
LINE
  5
5d
  100
AcDbEntity
  8
1
  100
AcDbLine
  10
76.8
  20
-1.649924
  30
0
  11
76.9
  21
-1.691895
  31
0
  0
LINE
  5
5e
  100
AcDbEntity
  8
1
  100
AcDbLine
  10
76.9
  20
-1.691895
  30
0
  11
77
  21
-1.732964
  31
0
  0
LINE
  5
5f
  100
AcDbEntity
  8
1
  100
AcDbLine
  10
77
  20
-1.732964
  30
0
  11
77.1
  21
-1.773109
  31
0
  0
LINE
  5
60
  100
AcDbEntity
  8
1
  100
AcDbLine
  10
77.1
  20
-1.773109
  30
0
  11
77.2
  21
-1.812308
  31
0
  0
LINE
  5
61
  100
AcDbEntity
  8
1
  100
AcDbLine
  10
77.2
  20
-1.812308
  30
0
  11
77.3
  21
-1.850541
  31
0
  0
LINE
  5
62
  100
AcDbEntity
  8
1
  100
AcDbLine
  10
77.3
  20
-1.850541
  30
0
  11
77.4
  21
-1.887787
  31
0
  0
LINE
  5
63
  100
AcDbEntity
  8
1
  100
AcDbLine
  10
77.4
  20
-1.887787
  30
0
  11
77.5
  21
-1.924026
  31
0
  0
LINE
  5
64
  100
AcDbEntity
  8
1
  100
AcDbLine
  10
77.5
  20
-1.924026
  30
0
  11
77.6
  21
-1.957368
  31
0
  0
LINE
  5
65
  100
AcDbEntity
  8
1
  100
AcDbLine
  10
77.6
  20
-1.957368
  30
0
  11
77.7
  21
-1.985841
  31
0
  0
LINE
  5
66
  100
AcDbEntity
  8
1
  100
AcDbLine
  10
77.7
  20
-1.985841
  30
0
  11
77.8
  21
-2.009293
  31
0
  0
LINE
  5
67
  100
AcDbEntity
  8
1
  100
AcDbLine
  10
77.8
  20
-2.009293
  30
0
  11
77.9
  21
-2.027566
  31
0
  0
LINE
  5
68
  100
AcDbEntity
  8
1
  100
AcDbLine
  10
77.9
  20
-2.027566
  30
0
  11
78
  21
-2.040489
  31
0
  0
LINE
  5
69
  100
AcDbEntity
  8
1
  100
AcDbLine
  10
78
  20
-2.040489
  30
0
  11
78.1
  21
-2.04788
  31
0
  0
LINE
  5
6a
  100
AcDbEntity
  8
1
  100
AcDbLine
  10
78.1
  20
-2.04788
  30
0
  11
78.2
  21
-2.049542
  31
0
  0
LINE
  5
6b
  100
AcDbEntity
  8
1
  100
AcDbLine
  10
78.2
  20
-2.049542
  30
0
  11
78.3
  21
-2.045257
  31
0
  0
LINE
  5
6c
  100
AcDbEntity
  8
1
  100
AcDbLine
  10
78.3
  20
-2.045257
  30
0
  11
78.4
  21
-2.034781
  31
0
  0
LINE
  5
6d
  100
AcDbEntity
  8
1
  100
AcDbLine
  10
78.4
  20
-2.034781
  30
0
  11
78.5
  21
-2.017842
  31
0
  0
LINE
  5
6e
  100
AcDbEntity
  8
1
  100
AcDbLine
  10
78.5
  20
-2.017842
  30
0
  11
78.6
  21
-1.994124
  31
0
  0
LINE
  5
6f
  100
AcDbEntity
  8
1
  100
AcDbLine
  10
78.6
  20
-1.994124
  30
0
  11
78.7
  21
-1.96326
  31
0
  0
LINE
  5
70
  100
AcDbEntity
  8
1
  100
AcDbLine
  10
78.7
  20
-1.96326
  30
0
  11
78.8
  21
-1.924813
  31
0
  0
LINE
  5
71
  100
AcDbEntity
  8
1
  100
AcDbLine
  10
78.8
  20
-1.924813
  30
0
  11
78.9
  21
-1.878254
  31
0
  0
LINE
  5
72
  100
AcDbEntity
  8
1
  100
AcDbLine
  10
78.9
  20
-1.878254
  30
0
  11
79
  21
-1.822927
  31
0
  0
LINE
  5
73
  100
AcDbEntity
  8
1
  100
AcDbLine
  10
79
  20
-1.822927
  30
0
  11
79.1
  21
-1.757999
  31
0
  0
LINE
  5
74
  100
AcDbEntity
  8
1
  100
AcDbLine
  10
79.1
  20
-1.757999
  30
0
  11
79.2
  21
-1.682382
  31
0
  0
LINE
  5
75
  100
AcDbEntity
  8
1
  100
AcDbLine
  10
79.2
  20
-1.682382
  30
0
  11
79.3
  21
-1.595313
  31
0
  0
LINE
  5
76
  100
AcDbEntity
  8
1
  100
AcDbLine
  10
79.3
  20
-1.595313
  30
0
  11
79.4
  21
-1.500969
  31
0
  0
LINE
  5
77
  100
AcDbEntity
  8
1
  100
AcDbLine
  10
79.4
  20
-1.500969
  30
0
  11
79.5
  21
-1.400248
  31
0
  0
LINE
  5
78
  100
AcDbEntity
  8
1
  100
AcDbLine
  10
79.5
  20
-1.400248
  30
0
  11
79.6
  21
-1.293895
  31
0
  0
LINE
  5
79
  100
AcDbEntity
  8
1
  100
AcDbLine
  10
79.6
  20
-1.353496
  30
0
  11
79.6
  21
-1.356466
  31
0
  0
LINE
  5
7a
  100
AcDbEntity
  8
1
  100
AcDbLine
  10
79.6
  20
-1.356466
  30
0
  11
79.6
  21
-1.353496
  31
0
  0
LINE
  5
7b
  100
AcDbEntity
  8
1
  100
AcDbLine
  10
79.6
  20
-1.353496
  30
0
  11
79.5
  21
-1.481586
  31
0
  0
LINE
  5
7c
  100
AcDbEntity
  8
1
  100
AcDbLine
  10
79.5
  20
-1.481586
  30
0
  11
79.4
  21
-1.592425
  31
0
  0
LINE
  5
7d
  100
AcDbEntity
  8
1
  100
AcDbLine
  10
79.4
  20
-1.592425
  30
0
  11
79.3
  21
-1.692053
  31
0
  0
LINE
  5
7e
  100
AcDbEntity
  8
1
  100
AcDbLine
  10
79.3
  20
-1.692053
  30
0
  11
79.2
  21
-1.782179
  31
0
  0
LINE
  5
7f
  100
AcDbEntity
  8
1
  100
AcDbLine
  10
79.2
  20
-1.782179
  30
0
  11
79.1
  21
-1.861053
  31
0
  0
LINE
  5
80
  100
AcDbEntity
  8
1
  100
AcDbLine
  10
79.1
  20
-1.861053
  30
0
  11
79
  21
-1.929571
  31
0
  0
LINE
  5
81
  100
AcDbEntity
  8
1
  100
AcDbLine
  10
79
  20
-1.929571
  30
0
  11
78.9
  21
-1.988731
  31
0
  0
LINE
  5
82
  100
AcDbEntity
  8
1
  100
AcDbLine
  10
78.9
  20
-1.988731
  30
0
  11
78.8
  21
-2.039303
  31
0
  0
LINE
  5
83
  100
AcDbEntity
  8
1
  100
AcDbLine
  10
78.8
  20
-2.039303
  30
0
  11
78.7
  21
-2.081896
  31
0
  0
LINE
  5
84
  100
AcDbEntity
  8
1
  100
AcDbLine
  10
78.7
  20
-2.081896
  30
0
  11
78.6
  21
-2.117004
  31
0
  0
LINE
  5
85
  100
AcDbEntity
  8
1
  100
AcDbLine
  10
78.6
  20
-2.117004
  30
0
  11
78.5
  21
-2.145035
  31
0
  0
LINE
  5
86
  100
AcDbEntity
  8
1
  100
AcDbLine
  10
78.5
  20
-2.145035
  30
0
  11
78.4
  21
-2.166335
  31
0
  0
LINE
  5
87
  100
AcDbEntity
  8
1
  100
AcDbLine
  10
78.4
  20
-2.166335
  30
0
  11
78.3
  21
-2.181202
  31
0
  0
LINE
  5
88
  100
AcDbEntity
  8
1
  100
AcDbLine
  10
78.3
  20
-2.181202
  30
0
  11
78.2
  21
-2.189893
  31
0
  0
LINE
  5
89
  100
AcDbEntity
  8
1
  100
AcDbLine
  10
78.2
  20
-2.189893
  30
0
  11
78.1
  21
-2.19264
  31
0
  0
LINE
  5
8a
  100
AcDbEntity
  8
1
  100
AcDbLine
  10
78.1
  20
-2.19264
  30
0
  11
78
  21
-2.18965
  31
0
  0
LINE
  5
8b
  100
AcDbEntity
  8
1
  100
AcDbLine
  10
78
  20
-2.18965
  30
0
  11
77.9
  21
-2.18111
  31
0
  0
LINE
  5
8c
  100
AcDbEntity
  8
1
  100
AcDbLine
  10
77.9
  20
-2.18111
  30
0
  11
77.8
  21
-2.167195
  31
0
  0
LINE
  5
8d
  100
AcDbEntity
  8
1
  100
AcDbLine
  10
77.8
  20
-2.167195
  30
0
  11
77.7
  21
-2.148068
  31
0
  0
LINE
  5
8e
  100
AcDbEntity
  8
1
  100
AcDbLine
  10
77.7
  20
-2.148068
  30
0
  11
77.6
  21
-2.123881
  31
0
  0
LINE
  5
8f
  100
AcDbEntity
  8
1
  100
AcDbLine
  10
77.6
  20
-2.123881
  30
0
  11
77.5
  21
-2.09478
  31
0
  0
LINE
  5
90
  100
AcDbEntity
  8
1
  100
AcDbLine
  10
77.5
  20
-2.09478
  30
0
  11
77.4
  21
-2.062712
  31
0
  0
LINE
  5
91
  100
AcDbEntity
  8
1
  100
AcDbLine
  10
77.4
  20
-2.062712
  30
0
  11
77.3
  21
-2.029544
  31
0
  0
LINE
  5
92
  100
AcDbEntity
  8
1
  100
AcDbLine
  10
77.3
  20
-2.029544
  30
0
  11
77.2
  21
-1.995293
  31
0
  0
LINE
  5
93
  100
AcDbEntity
  8
1
  100
AcDbLine
  10
77.2
  20
-1.995293
  30
0
  11
77.1
  21
-1.959979
  31
0
  0
LINE
  5
94
  100
AcDbEntity
  8
1
  100
AcDbLine
  10
77.1
  20
-1.959979
  30
0
  11
77
  21
-1.923619
  31
0
  0
LINE
  5
95
  100
AcDbEntity
  8
1
  100
AcDbLine
  10
77
  20
-1.923619
  30
0
  11
76.9
  21
-1.886234
  31
0
  0
LINE
  5
96
  100
AcDbEntity
  8
1
  100
AcDbLine
  10
76.9
  20
-1.886234
  30
0
  11
76.8
  21
-1.847842
  31
0
  0
LINE
  5
97
  100
AcDbEntity
  8
1
  100
AcDbLine
  10
76.8
  20
-1.847842
  30
0
  11
76.7
  21
-1.808465
  31
0
  0
LINE
  5
98
  100
AcDbEntity
  8
1
  100
AcDbLine
  10
76.7
  20
-1.808465
  30
0
  11
76.6
  21
-1.768124
  31
0
  0
LINE
  5
99
  100
AcDbEntity
  8
1
  100
AcDbLine
  10
76.6
  20
-1.768124
  30
0
  11
76.5
  21
-1.726839
  31
0
  0
LINE
  5
9a
  100
AcDbEntity
  8
1
  100
AcDbLine
  10
76.5
  20
-1.726839
  30
0
  11
76.4
  21
-1.684634
  31
0
  0
LINE
  5
9b
  100
AcDbEntity
  8
1
  100
AcDbLine
  10
76.4
  20
-1.684634
  30
0
  11
76.3
  21
-1.64153
  31
0
  0
LINE
  5
9c
  100
AcDbEntity
  8
1
  100
AcDbLine
  10
76.3
  20
-1.64153
  30
0
  11
76.2
  21
-1.597551
  31
0
  0
LINE
  5
9d
  100
AcDbEntity
  8
1
  100
AcDbLine
  10
76.2
  20
-1.597551
  30
0
  11
76.1
  21
-1.55272
  31
0
  0
LINE
  5
9e
  100
AcDbEntity
  8
1
  100
AcDbLine
  10
76.1
  20
-1.55272
  30
0
  11
76
  21
-1.50706
  31
0
  0
LINE
  5
9f
  100
AcDbEntity
  8
1
  100
AcDbLine
  10
76
  20
-1.50706
  30
0
  11
75.9
  21
-1.460597
  31
0
  0
LINE
  5
a0
  100
AcDbEntity
  8
1
  100
AcDbLine
  10
75.9
  20
-1.460597
  30
0
  11
75.8
  21
-1.413355
  31
0
  0
LINE
  5
a1
  100
AcDbEntity
  8
1
  100
AcDbLine
  10
75.8
  20
-1.413355
  30
0
  11
75.7
  21
-1.365359
  31
0
  0
LINE
  5
a2
  100
AcDbEntity
  8
1
  100
AcDbLine
  10
75.7
  20
-1.365359
  30
0
  11
75.6
  21
-1.316635
  31
0
  0
LINE
  5
a3
  100
AcDbEntity
  8
1
  100
AcDbLine
  10
75.6
  20
-1.316635
  30
0
  11
75.5
  21
-1.267209
  31
0
  0
LINE
  5
a4
  100
AcDbEntity
  8
1
  100
AcDbLine
  10
75.5
  20
-1.267209
  30
0
  11
75.4
  21
-1.217107
  31
0
  0
LINE
  5
a5
  100
AcDbEntity
  8
1
  100
AcDbLine
  10
75.4
  20
-1.217107
  30
0
  11
75.3
  21
-1.166356
  31
0
  0
LINE
  5
a6
  100
AcDbEntity
  8
1
  100
AcDbLine
  10
75.3
  20
-1.166356
  30
0
  11
75.2
  21
-1.114983
  31
0
  0
LINE
  5
a7
  100
AcDbEntity
  8
1
  100
AcDbLine
  10
75.2
  20
-1.114983
  30
0
  11
75.1
  21
-1.063016
  31
0
  0
LINE
  5
a8
  100
AcDbEntity
  8
1
  100
AcDbLine
  10
75.1
  20
-1.063016
  30
0
  11
75
  21
-1.010481
  31
0
  0
LINE
  5
a9
  100
AcDbEntity
  8
1
  100
AcDbLine
  10
75
  20
-1.010481
  30
0
  11
75
  21
-0.970513
  31
0
  0
LINE
  5
aa
  100
AcDbEntity
  8
1
  100
AcDbLine
  10
75
  20
-0.970513
  30
0
  11
74.9
  21
-0.918937
  31
0
  0
LINE
  5
ab
  100
AcDbEntity
  8
1
  100
AcDbLine
  10
74.9
  20
-0.918937
  30
0
  11
74.8
  21
-0.866873
  31
0
  0
LINE
  5
ac
  100
AcDbEntity
  8
1
  100
AcDbLine
  10
74.8
  20
-0.866873
  30
0
  11
74.7
  21
-0.814713
  31
0
  0
LINE
  5
ad
  100
AcDbEntity
  8
1
  100
AcDbLine
  10
74.7
  20
-0.814713
  30
0
  11
74.6
  21
-0.773209
  31
0
  0
LINE
  5
ae
  100
AcDbEntity
  8
1
  100
AcDbLine
  10
74.6
  20
-0.773209
  30
0
  11
74.5
  21
-0.879447
  31
0
  0
LINE
  5
af
  100
AcDbEntity
  8
1
  100
AcDbLine
  10
74.5
  20
-0.879447
  30
0
  11
74.4
  21
-1.95901
  31
0
  0
LINE
  5
b0
  100
AcDbEntity
  8
1
  100
AcDbLine
  10
74.4
  20
-1.95901
  30
0
  11
74.4
  21
-2.425
  31
0
  0
LINE
  5
b1
  100
AcDbEntity
  8
1
  100
AcDbLine
  10
75
  20
-2.425
  30
0
  11
75
  21
2.425
  31
0
  0
LINE
  5
b2
  100
AcDbEntity
  8
1
  100
AcDbLine
  10
75
  20
2.5
  30
0
  11
75
  21
-2.5
  31
0
  0
LINE
  5
b3
  100
AcDbEntity
  8
1
  100
AcDbLine
  10
74.4
  20
2.425
  30
0
  11
74.4
  21
2.380603
  31
0
  0
LINE
  5
b4
  100
AcDbEntity
  8
1
  100
AcDbLine
  10
74.4
  20
2.380603
  30
0
  11
74.5
  21
1.15898
  31
0
  0
LINE
  5
b5
  100
AcDbEntity
  8
1
  100
AcDbLine
  10
74.5
  20
1.15898
  30
0
  11
74.6
  21
0.378008
  31
0
  0
LINE
  5
b6
  100
AcDbEntity
  8
1
  100
AcDbLine
  10
74.6
  20
0.378008
  30
0
  11
74.7
  21
0.09783
  31
0
  0
LINE
  5
b7
  100
AcDbEntity
  8
1
  100
AcDbLine
  10
74.7
  20
0.09783
  30
0
  11
74.8
  21
-0.002722
  31
0
  0
LINE
  5
b8
  100
AcDbEntity
  8
1
  100
AcDbLine
  10
74.8
  20
-0.002722
  30
0
  11
74.9
  21
-0.062941
  31
0
  0
LINE
  5
b9
  100
AcDbEntity
  8
1
  100
AcDbLine
  10
74.9
  20
-0.062941
  30
0
  11
75
  21
-0.118971
  31
0
  0
LINE
  5
ba
  100
AcDbEntity
  8
1
  100
AcDbLine
  10
75
  20
-0.118971
  30
0
  11
75
  21
-0.167449
  31
0
  0
LINE
  5
bb
  100
AcDbEntity
  8
1
  100
AcDbLine
  10
75
  20
-0.167449
  30
0
  11
75.1
  21
-0.225005
  31
0
  0
LINE
  5
bc
  100
AcDbEntity
  8
1
  100
AcDbLine
  10
75.1
  20
-0.225005
  30
0
  11
75.2
  21
-0.282441
  31
0
  0
LINE
  5
bd
  100
AcDbEntity
  8
1
  100
AcDbLine
  10
75.2
  20
-0.282441
  30
0
  11
75.3
  21
-0.339726
  31
0
  0
LINE
  5
be
  100
AcDbEntity
  8
1
  100
AcDbLine
  10
75.3
  20
-0.339726
  30
0
  11
75.4
  21
-0.396829
  31
0
  0
LINE
  5
bf
  100
AcDbEntity
  8
1
  100
AcDbLine
  10
75.4
  20
-0.396829
  30
0
  11
75.5
  21
-0.453722
  31
0
  0
LINE
  5
c0
  100
AcDbEntity
  8
1
  100
AcDbLine
  10
75.5
  20
-0.453722
  30
0
  11
75.6
  21
-0.510372
  31
0
  0
LINE
  5
c1
  100
AcDbEntity
  8
1
  100
AcDbLine
  10
75.6
  20
-0.510372
  30
0
  11
75.7
  21
-0.56675
  31
0
  0
LINE
  5
c2
  100
AcDbEntity
  8
1
  100
AcDbLine
  10
75.7
  20
-0.56675
  30
0
  11
75.8
  21
-0.622825
  31
0
  0
LINE
  5
c3
  100
AcDbEntity
  8
1
  100
AcDbLine
  10
75.8
  20
-0.622825
  30
0
  11
75.9
  21
-0.678569
  31
0
  0
LINE
  5
c4
  100
AcDbEntity
  8
1
  100
AcDbLine
  10
75.9
  20
-0.678569
  30
0
  11
76
  21
-0.733951
  31
0
  0
LINE
  5
c5
  100
AcDbEntity
  8
1
  100
AcDbLine
  10
76
  20
-0.733951
  30
0
  11
76.1
  21
-0.788941
  31
0
  0
LINE
  5
c6
  100
AcDbEntity
  8
1
  100
AcDbLine
  10
76.1
  20
-0.788941
  30
0
  11
76.2
  21
-0.843511
  31
0
  0
LINE
  5
c7
  100
AcDbEntity
  8
1
  100
AcDbLine
  10
76.2
  20
-0.843511
  30
0
  11
76.3
  21
-0.89763
  31
0
  0
LINE
  5
c8
  100
AcDbEntity
  8
1
  100
AcDbLine
  10
76.3
  20
-0.89763
  30
0
  11
76.4
  21
-0.951271
  31
0
  0
LINE
  5
c9
  100
AcDbEntity
  8
1
  100
AcDbLine
  10
76.4
  20
-0.951271
  30
0
  11
76.5
  21
-1.004405
  31
0
  0
LINE
  5
ca
  100
AcDbEntity
  8
1
  100
AcDbLine
  10
76.5
  20
-1.004405
  30
0
  11
76.6
  21
-1.057003
  31
0
  0
LINE
  5
cb
  100
AcDbEntity
  8
1
  100
AcDbLine
  10
76.6
  20
-1.057003
  30
0
  11
76.7
  21
-1.109037
  31
0
  0
LINE
  5
cc
  100
AcDbEntity
  8
1
  100
AcDbLine
  10
76.7
  20
-1.109037
  30
0
  11
76.8
  21
-1.16048
  31
0
  0
LINE
  5
cd
  100
AcDbEntity
  8
1
  100
AcDbLine
  10
76.8
  20
-1.16048
  30
0
  11
76.9
  21
-1.211304
  31
0
  0
LINE
  5
ce
  100
AcDbEntity
  8
1
  100
AcDbLine
  10
76.9
  20
-1.211304
  30
0
  11
77
  21
-1.261482
  31
0
  0
LINE
  5
cf
  100
AcDbEntity
  8
1
  100
AcDbLine
  10
77
  20
-1.261482
  30
0
  11
77.1
  21
-1.310987
  31
0
  0
LINE
  5
d0
  100
AcDbEntity
  8
1
  100
AcDbLine
  10
77.1
  20
-1.310987
  30
0
  11
77.2
  21
-1.359793
  31
0
  0
LINE
  5
d1
  100
AcDbEntity
  8
1
  100
AcDbLine
  10
77.2
  20
-1.359793
  30
0
  11
77.3
  21
-1.407874
  31
0
  0
LINE
  5
d2
  100
AcDbEntity
  8
1
  100
AcDbLine
  10
77.3
  20
-1.407874
  30
0
  11
77.4
  21
-1.455204
  31
0
  0
LINE
  5
d3
  100
AcDbEntity
  8
1
  100
AcDbLine
  10
77.4
  20
-1.455204
  30
0
  11
77.5
  21
-1.501758
  31
0
  0
LINE
  5
d4
  100
AcDbEntity
  8
1
  100
AcDbLine
  10
77.5
  20
-1.501758
  30
0
  11
77.6
  21
-1.545365
  31
0
  0
LINE
  5
d5
  100
AcDbEntity
  8
1
  100
AcDbLine
  10
77.6
  20
-1.545365
  30
0
  11
77.7
  21
-1.583763
  31
0
  0
LINE
  5
d6
  100
AcDbEntity
  8
1
  100
AcDbLine
  10
77.7
  20
-1.583763
  30
0
  11
77.8
  21
-1.616782
  31
0
  0
LINE
  5
d7
  100
AcDbEntity
  8
1
  100
AcDbLine
  10
77.8
  20
-1.616782
  30
0
  11
77.9
  21
-1.644233
  31
0
  0
LINE
  5
d8
  100
AcDbEntity
  8
1
  100
AcDbLine
  10
77.9
  20
-1.644233
  30
0
  11
78
  21
-1.665906
  31
0
  0
LINE
  5
d9
  100
AcDbEntity
  8
1
  100
AcDbLine
  10
78
  20
-1.665906
  30
0
  11
78.1
  21
-1.681568
  31
0
  0
LINE
  5
da
  100
AcDbEntity
  8
1
  100
AcDbLine
  10
78.1
  20
-1.681568
  30
0
  11
78.2
  21
-1.690956
  31
0
  0
LINE
  5
db
  100
AcDbEntity
  8
1
  100
AcDbLine
  10
78.2
  20
-1.690956
  30
0
  11
78.3
  21
-1.693769
  31
0
  0
LINE
  5
dc
  100
AcDbEntity
  8
1
  100
AcDbLine
  10
78.3
  20
-1.693769
  30
0
  11
78.4
  21
-1.689655
  31
0
  0
LINE
  5
dd
  100
AcDbEntity
  8
1
  100
AcDbLine
  10
78.4
  20
-1.689655
  30
0
  11
78.5
  21
-1.678202
  31
0
  0
LINE
  5
de
  100
AcDbEntity
  8
1
  100
AcDbLine
  10
78.5
  20
-1.678202
  30
0
  11
78.6
  21
-1.65891
  31
0
  0
LINE
  5
df
  100
AcDbEntity
  8
1
  100
AcDbLine
  10
78.6
  20
-1.65891
  30
0
  11
78.7
  21
-1.631168
  31
0
  0
LINE
  5
e0
  100
AcDbEntity
  8
1
  100
AcDbLine
  10
78.7
  20
-1.631168
  30
0
  11
78.8
  21
-1.594206
  31
0
  0
LINE
  5
e1
  100
AcDbEntity
  8
1
  100
AcDbLine
  10
78.8
  20
-1.594206
  30
0
  11
78.9
  21
-1.547026
  31
0
  0
LINE
  5
e2
  100
AcDbEntity
  8
1
  100
AcDbLine
  10
78.9
  20
-1.547026
  30
0
  11
79
  21
-1.488295
  31
0
  0
LINE
  5
e3
  100
AcDbEntity
  8
1
  100
AcDbLine
  10
79
  20
-1.488295
  30
0
  11
79.1
  21
-1.416152
  31
0
  0
LINE
  5
e4
  100
AcDbEntity
  8
1
  100
AcDbLine
  10
79.1
  20
-1.416152
  30
0
  11
79.2
  21
-1.327865
  31
0
  0
LINE
  5
e5
  100
AcDbEntity
  8
1
  100
AcDbLine
  10
79.2
  20
-1.327865
  30
0
  11
79.3
  21
-1.219114
  31
0
  0
LINE
  5
e6
  100
AcDbEntity
  8
1
  100
AcDbLine
  10
79.3
  20
-1.219114
  30
0
  11
79.4
  21
-1.082307
  31
0
  0
LINE
  5
e7
  100
AcDbEntity
  8
1
  100
AcDbLine
  10
79.4
  20
-1.082307
  30
0
  11
79.5
  21
-0.901496
  31
0
  0
LINE
  5
e8
  100
AcDbEntity
  8
1
  100
AcDbLine
  10
79.5
  20
-0.901496
  30
0
  11
79.6
  21
-0.627586
  31
0
  0
LINE
  5
e9
  100
AcDbEntity
  8
1
  100
AcDbLine
  10
79.6
  20
-0.627586
  30
0
  11
79.6
  21
1.356466
  31
0
  0
LINE
  5
ea
  100
AcDbEntity
  8
1
  100
AcDbLine
  10
79.6
  20
1.356466
  30
0
  11
79.6
  21
-0.627586
  31
0
  0
LINE
  5
eb
  100
AcDbEntity
  8
1
  100
AcDbLine
  10
77.5
  20
-2.5
  30
0
  11
77.5
  21
2.5
  31
0
  0
LINE
  5
ec
  100
AcDbEntity
  8
SK1
  100
AcDbLine
  10
47.7
  20
3
  30
0
  11
0.7
  21
3
  31
0
  0
LINE
  5
ed
  100
AcDbEntity
  8
SK1
  100
AcDbLine
  10
0.7
  20
3
  30
0
  11
0
  21
2.3
  31
0
  0
LINE
  5
ee
  100
AcDbEntity
  8
SK1
  100
AcDbLine
  10
47.7
  20
-3
  30
0
  11
0.7
  21
-3
  31
0
  0
LINE
  5
ef
  100
AcDbEntity
  8
SK1
  100
AcDbLine
  10
0.7
  20
-3
  30
0
  11
0
  21
-2.3
  31
0
  0
LINE
  5
f0
  100
AcDbEntity
  8
SK1
  100
AcDbLine
  10
0.7
  20
3
  30
0
  11
0.7
  21
-3
  31
0
  0
LINE
  5
f1
  100
AcDbEntity
  8
SK1
  100
AcDbLine
  10
0
  20
2.3
  30
0
  11
0
  21
-2.3
  31
0
  0
LINE
  5
f2
  100
AcDbEntity
  8
SK1
  100
AcDbLine
  10
48.7401
  20
1.40688
  30
0
  11
49.1069
  21
1.0401
  31
0
  0
LINE
  5
f3
  100
AcDbEntity
  8
SK1
  100
AcDbLine
  10
48.2328
  20
1.66666
  30
0
  11
49.3667
  21
0.532833
  31
0
  0
LINE
  5
f4
  100
AcDbEntity
  8
SK1
  100
AcDbLine
  10
47.9154
  20
1.73657
  30
0
  11
49.4366
  21
0.215434
  31
0
  0
LINE
  5
f5
  100
AcDbEntity
  8
SK1
  100
AcDbLine
  10
47.7
  20
1.70452
  30
0
  11
49.4045
  21
0
  31
0
  0
LINE
  5
f6
  100
AcDbEntity
  8
SK1
  100
AcDbLine
  10
47.7
  20
1.45703
  30
0
  11
49.157
  21
0
  31
0
  0
LINE
  5
f7
  100
AcDbEntity
  8
SK1
  100
AcDbLine
  10
47.7
  20
1.20954
  30
0
  11
48.9095
  21
0
  31
0
  0
LINE
  5
f8
  100
AcDbEntity
  8
SK1
  100
AcDbLine
  10
47.7
  20
0.962054
  30
0
  11
48.6621
  21
0
  31
0
  0
LINE
  5
f9
  100
AcDbEntity
  8
SK1
  100
AcDbLine
  10
47.7
  20
0.714566
  30
0
  11
48.4146
  21
0
  31
0
  0
LINE
  5
fa
  100
AcDbEntity
  8
SK1
  100
AcDbLine
  10
47.7
  20
0.467079
  30
0
  11
48.1671
  21
0
  31
0
  0
LINE
  5
fb
  100
AcDbEntity
  8
SK1
  100
AcDbLine
  10
47.7
  20
0.219592
  30
0
  11
47.9196
  21
0
  31
0
  0
LINE
  5
fc
  100
AcDbEntity
  8
SK1
  100
AcDbLine
  10
47.7
  20
1.70452
  30
0
  11
47.7441
  21
1.74861
  31
0
  0
LINE
  5
fd
  100
AcDbEntity
  8
SK1
  100
AcDbLine
  10
47.7
  20
1.45703
  30
0
  11
47.971
  21
1.72802
  31
0
  0
LINE
  5
fe
  100
AcDbEntity
  8
SK1
  100
AcDbLine
  10
47.7
  20
1.20954
  30
0
  11
48.1742
  21
1.6837
  31
0
  0
LINE
  5
ff
  100
AcDbEntity
  8
SK1
  100
AcDbLine
  10
47.7
  20
0.962054
  30
0
  11
48.3588
  21
1.62082
  31
0
  0
LINE
  5
100
  100
AcDbEntity
  8
SK1
  100
AcDbLine
  10
47.7
  20
0.714566
  30
0
  11
48.5271
  21
1.54167
  31
0
  0
LINE
  5
101
  100
AcDbEntity
  8
SK1
  100
AcDbLine
  10
47.7
  20
0.467079
  30
0
  11
48.681
  21
1.44812
  31
0
  0
LINE
  5
102
  100
AcDbEntity
  8
SK1
  100
AcDbLine
  10
47.7
  20
0.219592
  30
0
  11
48.8226
  21
1.34216
  31
0
  0
LINE
  5
103
  100
AcDbEntity
  8
SK1
  100
AcDbLine
  10
47.7279
  20
0
  30
0
  11
48.9508
  21
1.22288
  31
0
  0
LINE
  5
104
  100
AcDbEntity
  8
SK1
  100
AcDbLine
  10
47.9754
  20
0
  30
0
  11
49.067
  21
1.09157
  31
0
  0
LINE
  5
105
  100
AcDbEntity
  8
SK1
  100
AcDbLine
  10
48.2229
  20
0
  30
0
  11
49.1707
  21
0.947822
  31
0
  0
LINE
  5
106
  100
AcDbEntity
  8
SK1
  100
AcDbLine
  10
48.4704
  20
0
  30
0
  11
49.2605
  21
0.790145
  31
0
  0
LINE
  5
107
  100
AcDbEntity
  8
SK1
  100
AcDbLine
  10
48.7178
  20
0
  30
0
  11
49.3364
  21
0.618517
  31
0
  0
LINE
  5
108
  100
AcDbEntity
  8
SK1
  100
AcDbLine
  10
48.9653
  20
0
  30
0
  11
49.396
  21
0.430696
  31
0
  0
LINE
  5
109
  100
AcDbEntity
  8
SK1
  100
AcDbLine
  10
49.2128
  20
0
  30
0
  11
49.4356
  21
0.222827
  31
0
  0
LINE
  5
10a
  100
AcDbEntity
  8
SK1
  100
AcDbLine
  10
47.7
  20
0
  30
0
  11
47.7
  21
1.75
  31
0
  0
LINE
  5
10b
  100
AcDbEntity
  8
SK1
  100
AcDbLine
  10
47.7
  20
0
  30
0
  11
49.45
  21
0
  31
0
  0
ARC
  5
10c
  100
AcDbEntity
  8
SK1
  100
AcDbCircle
  10
47.7
  20
0
  30
0
  40
1.75
  100
AcDbArc
  50
0
  51
90
  0
ARC
  5
10d
  100
AcDbEntity
  8
SK1
  100
AcDbCircle
  10
47.7
  20
0
  30
0
  40
1.75
  100
AcDbArc
  50
90
  51
180
  0
LINE
  5
10e
  100
AcDbEntity
  8
SK1
  100
AcDbLine
  10
47.6721
  20
0
  30
0
  11
47.7
  21
-0.027896
  31
0
  0
LINE
  5
10f
  100
AcDbEntity
  8
SK1
  100
AcDbLine
  10
47.4246
  20
0
  30
0
  11
47.7
  21
-0.275383
  31
0
  0
LINE
  5
110
  100
AcDbEntity
  8
SK1
  100
AcDbLine
  10
47.1771
  20
0
  30
0
  11
47.7
  21
-0.522871
  31
0
  0
LINE
  5
111
  100
AcDbEntity
  8
SK1
  100
AcDbLine
  10
46.9296
  20
0
  30
0
  11
47.7
  21
-0.770358
  31
0
  0
LINE
  5
112
  100
AcDbEntity
  8
SK1
  100
AcDbLine
  10
46.6822
  20
0
  30
0
  11
47.7
  21
-1.01785
  31
0
  0
LINE
  5
113
  100
AcDbEntity
  8
SK1
  100
AcDbLine
  10
46.4347
  20
0
  30
0
  11
47.7
  21
-1.26533
  31
0
  0
LINE
  5
114
  100
AcDbEntity
  8
SK1
  100
AcDbLine
  10
46.1872
  20
0
  30
0
  11
47.7
  21
-1.51282
  31
0
  0
LINE
  5
115
  100
AcDbEntity
  8
SK1
  100
AcDbLine
  10
45.9503
  20
-0.010642
  30
0
  11
47.6894
  21
-1.74967
  31
0
  0
LINE
  5
116
  100
AcDbEntity
  8
SK1
  100
AcDbLine
  10
45.9736
  20
-0.281429
  30
0
  11
47.4186
  21
-1.72637
  31
0
  0
LINE
  5
117
  100
AcDbEntity
  8
SK1
  100
AcDbLine
  10
46.0639
  20
-0.619147
  30
0
  11
47.0809
  21
-1.63613
  31
0
  0
LINE
  5
118
  100
AcDbEntity
  8
SK1
  100
AcDbLine
  10
45.9514
  20
-0.044098
  30
0
  11
45.9955
  21
0
  31
0
  0
LINE
  5
119
  100
AcDbEntity
  8
SK1
  100
AcDbLine
  10
45.972
  20
-0.270991
  30
0
  11
46.243
  21
0
  31
0
  0
LINE
  5
11a
  100
AcDbEntity
  8
SK1
  100
AcDbLine
  10
46.0163
  20
-0.474162
  30
0
  11
46.4905
  21
0
  31
0
  0
LINE
  5
11b
  100
AcDbEntity
  8
SK1
  100
AcDbLine
  10
46.0792
  20
-0.658762
  30
0
  11
46.7379
  21
0
  31
0
  0
LINE
  5
11c
  100
AcDbEntity
  8
SK1
  100
AcDbLine
  10
46.1583
  20
-0.827105
  30
0
  11
46.9854
  21
0
  31
0
  0
LINE
  5
11d
  100
AcDbEntity
  8
SK1
  100
AcDbLine
  10
46.2519
  20
-0.981039
  30
0
  11
47.2329
  21
0
  31
0
  0
LINE
  5
11e
  100
AcDbEntity
  8
SK1
  100
AcDbLine
  10
46.3578
  20
-1.12257
  30
0
  11
47.4804
  21
0
  31
0
  0
LINE
  5
11f
  100
AcDbEntity
  8
SK1
  100
AcDbLine
  10
46.4771
  20
-1.25077
  30
0
  11
47.7
  21
-0.027896
  31
0
  0
LINE
  5
120
  100
AcDbEntity
  8
SK1
  100
AcDbLine
  10
46.6084
  20
-1.36695
  30
0
  11
47.7
  21
-0.275383
  31
0
  0
LINE
  5
121
  100
AcDbEntity
  8
SK1
  100
AcDbLine
  10
46.7522
  20
-1.47069
  30
0
  11
47.7
  21
-0.522871
  31
0
  0
LINE
  5
122
  100
AcDbEntity
  8
SK1
  100
AcDbLine
  10
46.9099
  20
-1.5605
  30
0
  11
47.7
  21
-0.770358
  31
0
  0
LINE
  5
123
  100
AcDbEntity
  8
SK1
  100
AcDbLine
  10
47.0815
  20
-1.63636
  30
0
  11
47.7
  21
-1.01785
  31
0
  0
LINE
  5
124
  100
AcDbEntity
  8
SK1
  100
AcDbLine
  10
47.2693
  20
-1.69603
  30
0
  11
47.7
  21
-1.26533
  31
0
  0
LINE
  5
125
  100
AcDbEntity
  8
SK1
  100
AcDbLine
  10
47.4772
  20
-1.73565
  30
0
  11
47.7
  21
-1.51282
  31
0
  0
LINE
  5
126
  100
AcDbEntity
  8
SK1
  100
AcDbLine
  10
47.7
  20
0
  30
0
  11
45.95
  21
0
  31
0
  0
LINE
  5
127
  100
AcDbEntity
  8
SK1
  100
AcDbLine
  10
47.7
  20
-1.75
  30
0
  11
47.7
  21
0
  31
0
  0
ARC
  5
128
  100
AcDbEntity
  8
SK1
  100
AcDbCircle
  10
47.7
  20
0
  30
0
  40
1.75
  100
AcDbArc
  50
180
  51
270
  0
ARC
  5
129
  100
AcDbEntity
  8
SK1
  100
AcDbCircle
  10
47.7
  20
0
  30
0
  40
1.75
  100
AcDbArc
  50
270
  51
0
  0
LINE
  5
1a4
  100
AcDbEntity
  8
NOCUT
  100
AcDbLine
  10
75
  20
0
  30
0
  11
75
  21
2.425
  31
0
  0
LINE
  5
1a5
  100
AcDbEntity
  8
NOCUT
  100
AcDbLine
  10
75
  20
2.425
  30
0
  11
50.63
  21
2.425
  31
0
  0
ARC
  5
1a6
  100
AcDbEntity
  8
NOCUT
  100
AcDbCircle
  10
50.717156
  20
3.421195
  30
0
  40
1
  100
AcDbArc
  50
255
  51
265
  0
LINE
  5
1a7
  100
AcDbEntity
  8
NOCUT
  100
AcDbLine
  10
50.458337
  20
2.455269
  30
0
  11
48.425372
  21
3
  31
0
  0
LINE
  5
1a8
  100
AcDbEntity
  8
NOCUT
  100
AcDbLine
  10
48.425372
  20
3
  30
0
  11
47.7
  21
3
  31
0
  0
LINE
  5
1a9
  100
AcDbEntity
  8
NOCUT
  100
AcDbLine
  10
47.7
  20
3
  30
0
  11
47.7
  21
0
  31
0
  0
LINE
  5
1aa
  100
AcDbEntity
  8
NOCUT
  100
AcDbLine
  10
47.7
  20
0
  30
0
  11
75
  21
0
  31
0
  0
ARC
  5
1ab
  100
AcDbEntity
  8
CUT
  100
AcDbCircle
  10
77.5
  20
0
  30
0
  40
2.5
  100
AcDbArc
  50
0
  51
90
  0
LINE
  5
1ac
  100
AcDbEntity
  8
CUT
  100
AcDbLine
  10
77.5
  20
2.5
  30
0
  11
75
  21
2.5
  31
0
  0
LINE
  5
1ad
  100
AcDbEntity
  8
CUT
  100
AcDbLine
  10
75
  20
2.5
  30
0
  11
75
  21
0
  31
0
  0
LINE
  5
1ae
  100
AcDbEntity
  8
CUT
  100
AcDbLine
  10
75
  20
0
  30
0
  11
80
  21
0
  31
0
  0
LINE
  5
1af
  100
AcDbEntity
  8
4
  100
AcDbLine
  10
47.7
  20
0
  30
0
  11
80
  21
0
  31
0
  0
LINE
  5
1b0
  100
AcDbEntity
  8
SK4
  100
AcDbLine
  10
-1
  20
0
  30
0
  11
81
  21
0
  31
0
  0
LINE
  5
1b1
  100
AcDbEntity
  8
INFTOTAL
  100
AcDbLine
  10
-17.2
  20
25.2
  30
0
  11
97.2
  21
25.2
  31
0
  0
LINE
  5
1b2
  100
AcDbEntity
  8
INFTOTAL
  100
AcDbLine
  10
97.2
  20
25.2
  30
0
  11
97.2
  21
-20.2
  31
0
  0
LINE
  5
1b3
  100
AcDbEntity
  8
INFTOTAL
  100
AcDbLine
  10
97.2
  20
-20.2
  30
0
  11
-17.2
  21
-20.2
  31
0
  0
LINE
  5
1b4
  100
AcDbEntity
  8
INFTOTAL
  100
AcDbLine
  10
-17.2
  20
-20.2
  30
0
  11
-17.2
  21
25.2
  31
0
  0
ENDSEC
  0
SECTION
  2
OBJECTS
  0
DICTIONARY
  5
1b5
  330
0
100
AcDbDictionary
281
    1
  3
ACAD_GROUP
  350
1b6
  0
DICTIONARY
  5
1b6
102
{ACAD_REACTORS
  330
1b5
102
}
  330
1b5
100
AcDbDictionary
281
    1
  0
ENDSEC
  0
EOF
