  0
SECTION
  2
HEADER
  9
$ACADVER
  1
AC1015
  9
$DWGCODEPAGE
  3
ANSI_932
  9
$HANDSEED
  5
106AB90
  0
ENDSEC
  0
SECTION
  2
CLASSES
  0
CLASS
  1
IMAGEDEF
  2
AcDbRasterImageDef
  3
ISM
  90
0
  91
4
  280
0
  281
0
  0
CLASS
  1
IMAGE
  2
AcDbRasterImage
  3
ISM
  90
127
  91
5
  280
0
  281
1
  0
CLASS
  1
IMAGEDEF_REACTOR
  2
AcDbRasterImageDefReactor
  3
ISM
  90
1
  91
4
  280
0
  281
0
  0
ENDSEC
  0
SECTION
  2
TABLES
  0
TABLE
  2
VPORT
  5
2
  330
0
  100
AcDbSymbolTable
  70
    0
  0
ENDTAB
  0
TABLE
  2
LTYPE
  5
3
  330
0
  100
AcDbSymbolTable
  70
    4
  0
LTYPE
  5
4
  330
3
  100
AcDbSymbolTableRecord
  100
AcDbLinetypeTableRecord
  2
ByBlock
  70
    0
  3

  72
65
  73
    0
  40
0
  0
LTYPE
  5
5
  330
3
  100
AcDbSymbolTableRecord
  100
AcDbLinetypeTableRecord
  2
ByLayer
  70
    0
  3

  72
65
  73
    0
  40
0
  0
LTYPE
  5
6
  330
3
  100
AcDbSymbolTableRecord
  100
AcDbLinetypeTableRecord
  2
CONTINUOUS
  70
    0
  3
Solid Line
  72
65
  73
    0
  40
0
  0
LTYPE
  5
7
  330
3
  100
AcDbSymbolTableRecord
  100
AcDbLinetypeTableRecord
  2
DASH
  70
    0
  3
Hidden
  72
65
  73
2
  40
2.5
  49
1.5
  74
0
  49
-1
  74
0
  0
LTYPE
  5
8
  330
3
  100
AcDbSymbolTableRecord
  100
AcDbLinetypeTableRecord
  2
LONGDASHDASH
  70
    0
  3
__ . __
  72
65
  73
    4
  40
7
  49
4
  74
    0
  49
-1
  74
    0
  49
1
  74
    0
  49
-1
  74
    0
  0
ENDTAB
  0
TABLE
  2
LAYER
  5
9
  330
0
  100
AcDbSymbolTable
  70
    40
  0
LAYER
  5
a
  330
9
  100
AcDbSymbolTableRecord
  100
AcDbLayerTableRecord
  2
0
  70
    0
  62
    0
  6
CONTINUOUS
  390
0
  0
LAYER
  5
c
  330
9
  100
AcDbSymbolTableRecord
  100
AcDbLayerTableRecord
  2
1
  70
    0
  62
    4
  6
CONTINUOUS
  370
50
  390
0
  0
LAYER
  5
d
  330
9
  100
AcDbSymbolTableRecord
  100
AcDbLayerTableRecord
  2
2
  70
    0
  62
    7
  6
CONTINUOUS
  370
25
  390
0
  0
LAYER
  5
f
  330
9
  100
AcDbSymbolTableRecord
  100
AcDbLayerTableRecord
  2
4
  70
    0
  62
    2
  6
LONGDASHDASH
  370
25
  390
0
  0
LAYER
  5
13
  330
9
  100
AcDbSymbolTableRecord
  100
AcDbLayerTableRecord
  2
SK1
  70
    0
  62
    4
  6
CONTINUOUS
  370
50
  390
0
  0
LAYER
  5
14
  330
9
  100
AcDbSymbolTableRecord
  100
AcDbLayerTableRecord
  2
SK2
  70
    0
  62
    7
  6
CONTINUOUS
  370
25
  390
0
  0
LAYER
  5
16
  330
9
  100
AcDbSymbolTableRecord
  100
AcDbLayerTableRecord
  2
SK4
  70
    0
  62
    2
  6
LONGDASHDASH
  370
25
  390
0
  0
LAYER
  5
21
  330
9
  100
AcDbSymbolTableRecord
  100
AcDbLayerTableRecord
  2
NOCUT
  70
    0
  62
    7
  6
CONTINUOUS
  370
25
  390
0
  0
LAYER
  5
22
  330
9
  100
AcDbSymbolTableRecord
  100
AcDbLayerTableRecord
  2
CUT
  70
    0
  62
    1
  6
CONTINUOUS
  370
25
  390
0
  0
LAYER
  5
26
  330
9
  100
AcDbSymbolTableRecord
  100
AcDbLayerTableRecord
  2
INFTOTAL
  70
    0
  62
    9
  6
CONTINUOUS
  370
18
  390
0
  0
ENDTAB
  0
TABLE
  2
STYLE
  5
27
  330
0
  100
AcDbSymbolTable
  70
    1
  0
STYLE
  5
28
  330
27
  100
AcDbSymbolTableRecord
  100
AcDbTextStyleTableRecord
  2
Monospac821 BT
  70
    0
  40
    3.5
  41
1
  50
0
  71
0
  42
3
  3

  4

  1001
ACAD
  1000
Monospac821 BT
  1071
256
  0
ENDTAB
  0
TABLE
  2
VIEW
  5
29
  330
0
  100
AcDbSymbolTable
  70
    0
  0
ENDTAB
  0
TABLE
  2
UCS
  5
2a
  330
0
  100
AcDbSymbolTable
  70
    0
  0
ENDTAB
  0
TABLE
  2
APPID
  5
2b
  330
0
  100
AcDbSymbolTable
  70
    1
  0
APPID
  5
2c
  330
2b
  100
AcDbSymbolTableRecord
  100
AcDbRegAppTableRecord
  2
ACAD
  70
    0
  0
ENDTAB
  0
TABLE
  2
DIMSTYLE
  5
2d
  330
0
  100
AcDbSymbolTable
  70
    1
  100
AcDbDimStyleTable
  0
DIMSTYLE
  105
2e
  330
2d
  100
AcDbSymbolTableRecord
  100
AcDbDimStyleTableRecord
  2
STANDARD
  70
    0
  41
    3
  42
0.5
  44
1
  73
0
  77
1
  78
1
  140
3.5
  141
2.5
  143
0.03937
  147
0.8
  172
1
  174
1
  178
0
  179
1
  271
2
  279
1
  284
1
  340
28
  0
ENDTAB
  0
TABLE
  2
BLOCK_RECORD
  5
2f
  330
0
  100
AcDbSymbolTable
  70
    2
  0
BLOCK_RECORD
  5
30
  330
2f
  100
AcDbSymbolTableRecord
  100
AcDbBlockTableRecord
  2
*Model_Space
  0
BLOCK_RECORD
  5
31
  330
2f
  100
AcDbSymbolTableRecord
  100
AcDbBlockTableRecord
  2
*Paper_Space
  0
BLOCK_RECORD
  5
ba
  330
2f
  100
AcDbSymbolTableRecord
  100
AcDbBlockTableRecord
  2
*Db9
  340
0
  0
BLOCK_RECORD
  5
c8
  330
2f
  100
AcDbSymbolTableRecord
  100
AcDbBlockTableRecord
  2
*Dc7
  340
0
  0
BLOCK_RECORD
  5
d6
  330
2f
  100
AcDbSymbolTableRecord
  100
AcDbBlockTableRecord
  2
*Dd5
  340
0
  0
BLOCK_RECORD
  5
e4
  330
2f
  100
AcDbSymbolTableRecord
  100
AcDbBlockTableRecord
  2
*De3
  340
0
  0
BLOCK_RECORD
  5
f2
  330
2f
  100
AcDbSymbolTableRecord
  100
AcDbBlockTableRecord
  2
*Df1
  340
0
  0
BLOCK_RECORD
  5
100
  330
2f
  100
AcDbSymbolTableRecord
  100
AcDbBlockTableRecord
  2
*Dff
  340
0
  0
BLOCK_RECORD
  5
10e
  330
2f
  100
AcDbSymbolTableRecord
  100
AcDbBlockTableRecord
  2
*D10d
  340
0
  0
BLOCK_RECORD
  5
11c
  330
2f
  100
AcDbSymbolTableRecord
  100
AcDbBlockTableRecord
  2
*D11b
  340
0
  0
ENDTAB
  0
ENDSEC
  0
SECTION
  2
BLOCKS
  0
BLOCK
  5
32
  330
30
  100
AcDbEntity
  8
0
  100
AcDbBlockBegin
  2
*Model_Space
  70
    0
  10
0
  20
0
  30
0
  3
*Model_Space
  1

  0
ENDBLK
  5
33
  330
30
  100
AcDbEntity
  8
0
  100
AcDbBlockEnd
  0
BLOCK
  5
34
  330
31
  100
AcDbEntity
  8
0
  100
AcDbBlockBegin
  2
*Paper_Space
  70
    0
  10
0
  20
0
  30
0
  3
*Paper_Space
  1

  0
ENDBLK
  5
35
  330
31
  100
AcDbEntity
  8
0
  100
AcDbBlockEnd
  0
BLOCK
  5
b8
  330
ba
  100
AcDbEntity
  8
SK2
  100
AcDbBlockBegin
  2
*Db9
  70
1
  10
0
  20
0
  30
0
  3
*Db9
  1

  0
LINE
  5
bb
  330
ba
  100
AcDbEntity
  8
SK2
  100
AcDbLine
  10
0
  20
1.3
  30
0
  11
0
  21
14
  31
0
  0
LINE
  5
bc
  330
ba
  100
AcDbEntity
  8
SK2
  100
AcDbLine
  10
45
  20
0.45
  30
0
  11
45
  21
14
  31
0
  0
LINE
  5
bd
  330
ba
  100
AcDbEntity
  8
SK2
  100
AcDbLine
  10
0
  20
12
  30
0
  11
45
  21
12
  31
0
  0
SOLID
  5
be
  330
ba
  100
AcDbEntity
  8
SK2
  100
AcDbTrace
  10
0
  20
12
  30
0
  11
2.478612
  21
12.326315
  31
0
  12
2.478612
  22
11.673685
  32
0
  13
2.478612
  23
11.673685
  33
0
  0
SOLID
  5
bf
  330
ba
  100
AcDbEntity
  8
SK2
  100
AcDbTrace
  10
45
  20
12
  30
0
  11
42.521388
  21
11.673685
  31
0
  12
42.521388
  22
12.326315
  32
0
  13
42.521388
  23
12.326315
  33
0
  0
MTEXT
  5
c0
  330
ba
  100
AcDbEntity
  8
SK2
  100
AcDbMText
  10
22.5
  20
12
  30
0
  11
1
  21
0
  31
0
  40
2
  41
0
  71
8
  72
1
  1
45
  0
POINT
  5
c1
  330
ba
  100
AcDbEntity
  8
SK2
  62
0
  100
AcDbPoint
  10
0
  20
1.3
  30
0
  0
POINT
  5
c2
  330
ba
  100
AcDbEntity
  8
SK2
  62
0
  100
AcDbPoint
  10
45
  20
0.45
  30
0
  0
POINT
  5
c3
  330
ba
  100
AcDbEntity
  8
SK2
  62
0
  100
AcDbPoint
  10
45
  20
12
  30
0
  0
ENDBLK
  5
c4
  330
ba
  100
AcDbEntity
  8
SK2
  100
AcDbBlockEnd
  0
BLOCK
  5
c6
  330
c8
  100
AcDbEntity
  8
SK2
  100
AcDbBlockBegin
  2
*Dc7
  70
1
  10
0
  20
0
  30
0
  3
*Dc7
  1

  0
LINE
  5
c9
  330
c8
  100
AcDbEntity
  8
SK2
  100
AcDbLine
  10
0
  20
1.3
  30
0
  11
0
  21
8.613292
  31
0
  0
LINE
  5
ca
  330
c8
  100
AcDbEntity
  8
SK2
  100
AcDbLine
  10
35
  20
2
  30
0
  11
35
  21
8.613292
  31
0
  0
LINE
  5
cb
  330
c8
  100
AcDbEntity
  8
SK2
  100
AcDbLine
  10
0
  20
6.613292
  30
0
  11
35
  21
6.613292
  31
0
  0
SOLID
  5
cc
  330
c8
  100
AcDbEntity
  8
SK2
  100
AcDbTrace
  10
0
  20
6.613292
  30
0
  11
2.478612
  21
6.939607
  31
0
  12
2.478612
  22
6.286976
  32
0
  13
2.478612
  23
6.286976
  33
0
  0
SOLID
  5
cd
  330
c8
  100
AcDbEntity
  8
SK2
  100
AcDbTrace
  10
35
  20
6.613292
  30
0
  11
32.521388
  21
6.286976
  31
0
  12
32.521388
  22
6.939607
  32
0
  13
32.521388
  23
6.939607
  33
0
  0
MTEXT
  5
ce
  330
c8
  100
AcDbEntity
  8
SK2
  100
AcDbMText
  10
17.5
  20
6.613292
  30
0
  11
1
  21
0
  31
0
  40
2
  41
0
  71
8
  72
1
  1
35
  0
POINT
  5
cf
  330
c8
  100
AcDbEntity
  8
SK2
  62
0
  100
AcDbPoint
  10
0
  20
1.3
  30
0
  0
POINT
  5
d0
  330
c8
  100
AcDbEntity
  8
SK2
  62
0
  100
AcDbPoint
  10
35
  20
2
  30
0
  0
POINT
  5
d1
  330
c8
  100
AcDbEntity
  8
SK2
  62
0
  100
AcDbPoint
  10
35
  20
6.613292
  30
0
  0
ENDBLK
  5
d2
  330
c8
  100
AcDbEntity
  8
SK2
  100
AcDbBlockEnd
  0
BLOCK
  5
d4
  330
d6
  100
AcDbEntity
  8
SK2
  100
AcDbBlockBegin
  2
*Dd5
  70
1
  10
0
  20
0
  30
0
  3
*Dd5
  1

  0
LINE
  5
d7
  330
d6
  100
AcDbEntity
  8
SK2
  100
AcDbLine
  10
0.7
  20
-2
  30
0
  11
-12
  21
-2
  31
0
  0
LINE
  5
d8
  330
d6
  100
AcDbEntity
  8
SK2
  100
AcDbLine
  10
0.7
  20
2
  30
0
  11
-12
  21
2
  31
0
  0
LINE
  5
d9
  330
d6
  100
AcDbEntity
  8
SK2
  100
AcDbLine
  10
-10
  20
-4.158416
  30
0
  11
-10
  21
2
  31
0
  0
SOLID
  5
da
  330
d6
  100
AcDbEntity
  8
SK2
  100
AcDbTrace
  10
-10
  20
-2
  30
0
  11
-10.326315
  21
0.478612
  31
0
  12
-9.673685
  22
0.478612
  32
0
  13
-9.673685
  23
0.478612
  33
0
  0
SOLID
  5
db
  330
d6
  100
AcDbEntity
  8
SK2
  100
AcDbTrace
  10
-10
  20
2
  30
0
  11
-9.673685
  21
-0.478612
  31
0
  12
-10.326315
  22
-0.478612
  32
0
  13
-10.326315
  23
-0.478612
  33
0
  0
MTEXT
  5
dc
  330
d6
  100
AcDbEntity
  8
SK2
  100
AcDbMText
  10
-10
  20
0
  30
0
  11
0
  21
1
  31
0
  40
2
  41
0
  71
8
  72
1
  1
ﾘ4
  0
POINT
  5
dd
  330
d6
  100
AcDbEntity
  8
SK2
  62
0
  100
AcDbPoint
  10
0.7
  20
-2
  30
0
  0
POINT
  5
de
  330
d6
  100
AcDbEntity
  8
SK2
  62
0
  100
AcDbPoint
  10
0.7
  20
2
  30
0
  0
POINT
  5
df
  330
d6
  100
AcDbEntity
  8
SK2
  62
0
  100
AcDbPoint
  10
-10
  20
2
  30
0
  0
ENDBLK
  5
e0
  330
d6
  100
AcDbEntity
  8
SK2
  100
AcDbBlockEnd
  0
BLOCK
  5
e2
  330
e4
  100
AcDbEntity
  8
2
  100
AcDbBlockBegin
  2
*De3
  70
1
  10
0
  20
0
  30
0
  3
*De3
  1

  0
LINE
  5
e5
  330
e4
  100
AcDbEntity
  8
2
  100
AcDbLine
  10
45
  20
-0.45
  30
0
  11
57
  21
-0.45
  31
0
  0
LINE
  5
e6
  330
e4
  100
AcDbEntity
  8
2
  100
AcDbLine
  10
45
  20
0.45
  30
0
  11
57
  21
0.45
  31
0
  0
LINE
  5
e7
  330
e4
  100
AcDbEntity
  8
2
  100
AcDbLine
  10
55
  20
-6.757426
  30
0
  11
55
  21
0.45
  31
0
  0
SOLID
  5
e8
  330
e4
  100
AcDbEntity
  8
2
  100
AcDbTrace
  10
55
  20
-0.45
  30
0
  11
54.673685
  21
2.028612
  31
0
  12
55.326315
  22
2.028612
  32
0
  13
55.326315
  23
2.028612
  33
0
  0
SOLID
  5
e9
  330
e4
  100
AcDbEntity
  8
2
  100
AcDbTrace
  10
55
  20
0.45
  30
0
  11
55.326315
  21
-2.028612
  31
0
  12
54.673685
  22
-2.028612
  32
0
  13
54.673685
  23
-2.028612
  33
0
  0
MTEXT
  5
ea
  330
e4
  100
AcDbEntity
  8
2
  100
AcDbMText
  10
55
  20
0
  30
0
  11
0
  21
1
  31
0
  40
2
  41
0
  71
8
  72
1
  1
ﾘ0.9
  0
POINT
  5
eb
  330
e4
  100
AcDbEntity
  8
2
  62
0
  100
AcDbPoint
  10
45
  20
-0.45
  30
0
  0
POINT
  5
ec
  330
e4
  100
AcDbEntity
  8
2
  62
0
  100
AcDbPoint
  10
45
  20
0.45
  30
0
  0
POINT
  5
ed
  330
e4
  100
AcDbEntity
  8
2
  62
0
  100
AcDbPoint
  10
55
  20
0.45
  30
0
  0
ENDBLK
  5
ee
  330
e4
  100
AcDbEntity
  8
2
  100
AcDbBlockEnd
  0
BLOCK
  5
f0
  330
f2
  100
AcDbEntity
  8
2
  100
AcDbBlockBegin
  2
*Df1
  70
1
  10
0
  20
0
  30
0
  3
*Df1
  1

  0
LINE
  5
f3
  330
f2
  100
AcDbEntity
  8
2
  100
AcDbLine
  10
43.65
  20
-0.425
  30
0
  11
41.65
  21
-0.425
  31
0
  0
LINE
  5
f4
  330
f2
  100
AcDbEntity
  8
2
  100
AcDbLine
  10
43.65
  20
0.425
  30
0
  11
41.65
  21
0.425
  31
0
  0
LINE
  5
f5
  330
f2
  100
AcDbEntity
  8
2
  100
AcDbLine
  10
43.65
  20
-0.425
  30
0
  11
43.65
  21
8.836634
  31
0
  0
SOLID
  5
f6
  330
f2
  100
AcDbEntity
  8
2
  100
AcDbTrace
  10
43.65
  20
-0.425
  30
0
  11
43.323685
  21
2.053612
  31
0
  12
43.976315
  22
2.053612
  32
0
  13
43.976315
  23
2.053612
  33
0
  0
SOLID
  5
f7
  330
f2
  100
AcDbEntity
  8
2
  100
AcDbTrace
  10
43.65
  20
0.425
  30
0
  11
43.976315
  21
-2.053612
  31
0
  12
43.323685
  22
-2.053612
  32
0
  13
43.323685
  23
-2.053612
  33
0
  0
MTEXT
  5
f8
  330
f2
  100
AcDbEntity
  8
2
  100
AcDbMText
  10
43.65
  20
0.425
  30
0
  11
0
  21
1
  31
0
  40
2
  41
0
  71
8
  72
1
  1
ﾘ0.85
  0
POINT
  5
f9
  330
f2
  100
AcDbEntity
  8
2
  62
0
  100
AcDbPoint
  10
41.65
  20
-0.425
  30
0
  0
POINT
  5
fa
  330
f2
  100
AcDbEntity
  8
2
  62
0
  100
AcDbPoint
  10
41.65
  20
0.425
  30
0
  0
POINT
  5
fb
  330
f2
  100
AcDbEntity
  8
2
  62
0
  100
AcDbPoint
  10
43.65
  20
8.836634
  30
0
  0
ENDBLK
  5
fc
  330
f2
  100
AcDbEntity
  8
2
  100
AcDbBlockEnd
  0
BLOCK
  5
fe
  330
100
  100
AcDbEntity
  8
2
  100
AcDbBlockBegin
  2
*Dff
  70
1
  10
0
  20
0
  30
0
  3
*Dff
  1

  0
LINE
  5
101
  330
100
  100
AcDbEntity
  8
2
  100
AcDbLine
  10
43.65
  20
0.425
  30
0
  11
43.65
  21
9
  31
0
  0
LINE
  5
102
  330
100
  100
AcDbEntity
  8
2
  100
AcDbLine
  10
41.22
  20
0.425
  30
0
  11
41.22
  21
9
  31
0
  0
LINE
  5
103
  330
100
  100
AcDbEntity
  8
2
  100
AcDbLine
  10
43.65
  20
7
  30
0
  11
30.538366
  21
7
  31
0
  0
SOLID
  5
104
  330
100
  100
AcDbEntity
  8
2
  100
AcDbTrace
  10
43.65
  20
7
  30
0
  11
46.128612
  21
7.326315
  31
0
  12
46.128612
  22
6.673685
  32
0
  13
46.128612
  23
6.673685
  33
0
  0
SOLID
  5
105
  330
100
  100
AcDbEntity
  8
2
  100
AcDbTrace
  10
41.22
  20
7
  30
0
  11
38.741388
  21
6.673685
  31
0
  12
38.741388
  22
7.326315
  32
0
  13
38.741388
  23
7.326315
  33
0
  0
MTEXT
  5
106
  330
100
  100
AcDbEntity
  8
2
  100
AcDbMText
  10
36.90507
  20
7
  30
0
  11
1
  21
-0
  31
0
  40
2
  41
0
  71
8
  72
1
  1
2.43
  0
POINT
  5
107
  330
100
  100
AcDbEntity
  8
2
  62
0
  100
AcDbPoint
  10
43.65
  20
0.425
  30
0
  0
POINT
  5
108
  330
100
  100
AcDbEntity
  8
2
  62
0
  100
AcDbPoint
  10
41.22
  20
0.425
  30
0
  0
POINT
  5
109
  330
100
  100
AcDbEntity
  8
2
  62
0
  100
AcDbPoint
  10
30.538366
  20
7
  30
0
  0
ENDBLK
  5
10a
  330
100
  100
AcDbEntity
  8
2
  100
AcDbBlockEnd
  0
BLOCK
  5
10c
  330
10e
  100
AcDbEntity
  8
2
  100
AcDbBlockBegin
  2
*D10d
  70
1
  10
0
  20
0
  30
0
  3
*D10d
  1

  0
LINE
  5
10f
  330
10e
  100
AcDbEntity
  8
2
  100
AcDbLine
  10
45
  20
0.45
  30
0
  11
45
  21
14
  31
0
  0
LINE
  5
110
  330
10e
  100
AcDbEntity
  8
2
  100
AcDbLine
  10
35
  20
2
  30
0
  11
35
  21
9
  31
0
  0
LINE
  5
111
  330
10e
  100
AcDbEntity
  8
2
  100
AcDbLine
  10
45
  20
7
  30
0
  11
30.278465
  21
7
  31
0
  0
SOLID
  5
112
  330
10e
  100
AcDbEntity
  8
2
  100
AcDbTrace
  10
45
  20
7
  30
0
  11
47.478612
  21
7.326315
  31
0
  12
47.478612
  22
6.673685
  32
0
  13
47.478612
  23
6.673685
  33
0
  0
SOLID
  5
113
  330
10e
  100
AcDbEntity
  8
2
  100
AcDbTrace
  10
35
  20
7
  30
0
  11
32.521388
  21
6.673685
  31
0
  12
32.521388
  22
7.326315
  32
0
  13
32.521388
  23
7.326315
  33
0
  0
MTEXT
  5
114
  330
10e
  100
AcDbEntity
  8
2
  100
AcDbMText
  10
32.161413
  20
7
  30
0
  11
1
  21
-0
  31
0
  40
2
  41
0
  71
8
  72
1
  1
10
  0
POINT
  5
115
  330
10e
  100
AcDbEntity
  8
2
  62
0
  100
AcDbPoint
  10
45
  20
14
  30
0
  0
POINT
  5
116
  330
10e
  100
AcDbEntity
  8
2
  62
0
  100
AcDbPoint
  10
35
  20
2
  30
0
  0
POINT
  5
117
  330
10e
  100
AcDbEntity
  8
2
  62
0
  100
AcDbPoint
  10
30.278465
  20
7
  30
0
  0
ENDBLK
  5
118
  330
10e
  100
AcDbEntity
  8
2
  100
AcDbBlockEnd
  0
BLOCK
  5
11a
  330
11c
  100
AcDbEntity
  8
2
  100
AcDbBlockBegin
  2
*D11b
  70
1
  10
0
  20
0
  30
0
  3
*D11b
  1

  0
LINE
  5
11d
  330
11c
  100
AcDbEntity
  8
2
  100
AcDbLine
  10
45
  20
-7.238525
  30
0
  11
45
  21
-0.45
  31
0
  0
LINE
  5
11e
  330
11c
  100
AcDbEntity
  8
2
  100
AcDbLine
  10
43.65
  20
-7.238525
  30
0
  11
43.65
  21
-0.425
  31
0
  0
LINE
  5
11f
  330
11c
  100
AcDbEntity
  8
2
  100
AcDbLine
  10
45
  20
-5.238525
  30
0
  11
38.075495
  21
-5.238525
  31
0
  0
SOLID
  5
120
  330
11c
  100
AcDbEntity
  8
2
  100
AcDbTrace
  10
45
  20
-5.238525
  30
0
  11
47.478612
  21
-4.91221
  31
0
  12
47.478612
  22
-5.564841
  32
0
  13
47.478612
  23
-5.564841
  33
0
  0
SOLID
  5
121
  330
11c
  100
AcDbEntity
  8
2
  100
AcDbTrace
  10
43.65
  20
-5.238525
  30
0
  11
41.171388
  21
-5.564841
  31
0
  12
41.171388
  22
-4.91221
  32
0
  13
41.171388
  23
-4.91221
  33
0
  0
MTEXT
  5
122
  330
11c
  100
AcDbEntity
  8
2
  100
AcDbMText
  10
44.325
  20
-5.238525
  30
0
  11
1
  21
-0
  31
0
  40
2
  41
0
  71
8
  72
1
  1
1.35
  0
POINT
  5
123
  330
11c
  100
AcDbEntity
  8
2
  62
0
  100
AcDbPoint
  10
45
  20
-0.45
  30
0
  0
POINT
  5
124
  330
11c
  100
AcDbEntity
  8
2
  62
0
  100
AcDbPoint
  10
43.65
  20
-0.425
  30
0
  0
POINT
  5
125
  330
11c
  100
AcDbEntity
  8
2
  62
0
  100
AcDbPoint
  10
38.075495
  20
-5.238525
  30
0
  0
ENDBLK
  5
126
  330
11c
  100
AcDbEntity
  8
2
  100
AcDbBlockEnd
  0
ENDSEC
  0
SECTION
  2
ENTITIES
  0
DIMENSION
  5
c5
  100
AcDbEntity
  8
SK2
  100
AcDbDimension
  2
*Db9
  10
45
  20
12
  30
0
  11
22.5
  21
12
  31
0
  70
160
  1
<>
  71
5
  3
STANDARD
  42
45
  100
AcDbAlignedDimension
  13
0
  23
1.3
  33
0
  14
45
  24
0.45
  34
0
  50
0
  100
AcDbRotatedDimension
  0
DIMENSION
  5
d3
  100
AcDbEntity
  8
SK2
  100
AcDbDimension
  2
*Dc7
  10
35
  20
6.613292
  30
0
  11
17.5
  21
6.613292
  31
0
  70
160
  1
<>
  71
5
  3
STANDARD
  42
35
  100
AcDbAlignedDimension
  13
0
  23
1.3
  33
0
  14
35
  24
2
  34
0
  50
0
  100
AcDbRotatedDimension
  0
DIMENSION
  5
e1
  100
AcDbEntity
  8
SK2
  100
AcDbDimension
  2
*Dd5
  10
-10
  20
2
  30
0
  11
-10
  21
0
  31
0
  70
160
  1
%%c<>
  71
5
  3
STANDARD
  42
4
  100
AcDbAlignedDimension
  13
0.7
  23
-2
  33
0
  14
0.7
  24
2
  34
0
  50
-90
  100
AcDbRotatedDimension
  0
DIMENSION
  5
ef
  100
AcDbEntity
  8
2
  100
AcDbDimension
  2
*De3
  10
55
  20
0.45
  30
0
  11
55
  21
0
  31
0
  70
160
  1
%%c<>
  71
5
  3
STANDARD
  42
0.9
  100
AcDbAlignedDimension
  13
45
  23
-0.45
  33
0
  14
45
  24
0.45
  34
0
  50
-90
  100
AcDbRotatedDimension
  0
DIMENSION
  5
fd
  100
AcDbEntity
  8
2
  100
AcDbDimension
  2
*Df1
  10
43.65
  20
8.836634
  30
0
  11
43.65
  21
0.425
  31
0
  70
160
  1
%%c<>
  71
5
  3
STANDARD
  42
0.85
  100
AcDbAlignedDimension
  13
41.65
  23
-0.425
  33
0
  14
41.65
  24
0.425
  34
0
  50
-90
  100
AcDbRotatedDimension
  0
DIMENSION
  5
10b
  100
AcDbEntity
  8
2
  100
AcDbDimension
  2
*Dff
  10
30.538366
  20
7
  30
0
  11
36.90507
  21
7
  31
0
  70
160
  1
<>
  71
5
  3
STANDARD
  42
2.43
  100
AcDbAlignedDimension
  13
43.65
  23
0.425
  33
0
  14
41.22
  24
0.425
  34
0
  50
0
  100
AcDbRotatedDimension
  0
DIMENSION
  5
119
  100
AcDbEntity
  8
2
  100
AcDbDimension
  2
*D10d
  10
30.278465
  20
7
  30
0
  11
32.161413
  21
7
  31
0
  70
160
  1
<>
  71
5
  3
STANDARD
  42
10
  100
AcDbAlignedDimension
  13
45
  23
14
  33
0
  14
35
  24
2
  34
0
  50
0
  100
AcDbRotatedDimension
  0
DIMENSION
  5
127
  100
AcDbEntity
  8
2
  100
AcDbDimension
  2
*D11b
  10
38.075495
  20
-5.238525
  30
0
  11
44.325
  21
-5.238525
  31
0
  70
160
  1
<>
  71
5
  3
STANDARD
  42
1.35
  100
AcDbAlignedDimension
  13
45
  23
-0.45
  33
0
  14
43.65
  24
-0.425
  34
0
  50
0
  100
AcDbRotatedDimension
  0
LINE
  5
36
  100
AcDbEntity
  8
1
  100
AcDbLine
  10
35
  20
-2
  30
0
  11
35
  21
2
  31
0
  0
LINE
  5
37
  100
AcDbEntity
  8
1
  100
AcDbLine
  10
35
  20
2
  30
0
  11
35
  21
-2
  31
0
  0
LINE
  5
38
  100
AcDbEntity
  8
1
  100
AcDbLine
  10
35.210367
  20
-2
  30
0
  11
35.210367
  21
2
  31
0
  0
LINE
  5
39
  100
AcDbEntity
  8
1
  100
AcDbLine
  10
43.5
  20
0.425
  30
0
  11
43.5
  21
0.424481
  31
0
  0
LINE
  5
3a
  100
AcDbEntity
  8
1
  100
AcDbLine
  10
43.5
  20
0.424481
  30
0
  11
43.6
  21
0.233443
  31
0
  0
LINE
  5
3b
  100
AcDbEntity
  8
1
  100
AcDbLine
  10
43.6
  20
0.233443
  30
0
  11
43.7
  21
0.194181
  31
0
  0
LINE
  5
3c
  100
AcDbEntity
  8
1
  100
AcDbLine
  10
43.7
  20
0.194181
  30
0
  11
43.8
  21
0.140645
  31
0
  0
LINE
  5
3d
  100
AcDbEntity
  8
1
  100
AcDbLine
  10
43.8
  20
0.140645
  30
0
  11
43.9
  21
0.084797
  31
0
  0
LINE
  5
3e
  100
AcDbEntity
  8
1
  100
AcDbLine
  10
43.9
  20
0.084797
  30
0
  11
44
  21
0.027554
  31
0
  0
LINE
  5
3f
  100
AcDbEntity
  8
1
  100
AcDbLine
  10
44
  20
0.027554
  30
0
  11
44.1
  21
-0.030141
  31
0
  0
LINE
  5
40
  100
AcDbEntity
  8
1
  100
AcDbLine
  10
44.1
  20
-0.030141
  30
0
  11
44.2
  21
-0.087341
  31
0
  0
LINE
  5
41
  100
AcDbEntity
  8
1
  100
AcDbLine
  10
44.2
  20
-0.087341
  30
0
  11
44.3
  21
-0.143105
  31
0
  0
LINE
  5
42
  100
AcDbEntity
  8
1
  100
AcDbLine
  10
44.3
  20
-0.143105
  30
0
  11
44.4
  21
-0.196516
  31
0
  0
LINE
  5
43
  100
AcDbEntity
  8
1
  100
AcDbLine
  10
44.4
  20
-0.196516
  30
0
  11
44.5
  21
-0.246697
  31
0
  0
LINE
  5
44
  100
AcDbEntity
  8
1
  100
AcDbLine
  10
44.5
  20
-0.246697
  30
0
  11
44.6
  21
-0.292823
  31
0
  0
LINE
  5
45
  100
AcDbEntity
  8
1
  100
AcDbLine
  10
44.6
  20
-0.292823
  30
0
  11
44.7
  21
-0.334136
  31
0
  0
LINE
  5
46
  100
AcDbEntity
  8
1
  100
AcDbLine
  10
44.7
  20
-0.334136
  30
0
  11
44.8
  21
-0.369955
  31
0
  0
LINE
  5
47
  100
AcDbEntity
  8
1
  100
AcDbLine
  10
44.8
  20
-0.369955
  30
0
  11
44.9
  21
-0.399694
  31
0
  0
LINE
  5
48
  100
AcDbEntity
  8
1
  100
AcDbLine
  10
44.9
  20
-0.399694
  30
0
  11
45
  21
-0.422862
  31
0
  0
LINE
  5
49
  100
AcDbEntity
  8
1
  100
AcDbLine
  10
45
  20
-0.442186
  30
0
  11
44.9
  21
-0.432881
  31
0
  0
LINE
  5
4a
  100
AcDbEntity
  8
1
  100
AcDbLine
  10
44.9
  20
-0.432881
  30
0
  11
44.8
  21
-0.416461
  31
0
  0
LINE
  5
4b
  100
AcDbEntity
  8
1
  100
AcDbLine
  10
44.8
  20
-0.416461
  30
0
  11
44.7
  21
-0.393194
  31
0
  0
LINE
  5
4c
  100
AcDbEntity
  8
1
  100
AcDbLine
  10
44.7
  20
-0.393194
  30
0
  11
44.6
  21
-0.363465
  31
0
  0
LINE
  5
4d
  100
AcDbEntity
  8
1
  100
AcDbLine
  10
44.6
  20
-0.363465
  30
0
  11
44.5
  21
-0.32776
  31
0
  0
LINE
  5
4e
  100
AcDbEntity
  8
1
  100
AcDbLine
  10
44.5
  20
-0.32776
  30
0
  11
44.4
  21
-0.286668
  31
0
  0
LINE
  5
4f
  100
AcDbEntity
  8
1
  100
AcDbLine
  10
44.4
  20
-0.286668
  30
0
  11
44.3
  21
-0.240863
  31
0
  0
LINE
  5
50
  100
AcDbEntity
  8
1
  100
AcDbLine
  10
44.3
  20
-0.240863
  30
0
  11
44.2
  21
-0.191099
  31
0
  0
LINE
  5
51
  100
AcDbEntity
  8
1
  100
AcDbLine
  10
44.2
  20
-0.191099
  30
0
  11
44.1
  21
-0.138193
  31
0
  0
LINE
  5
52
  100
AcDbEntity
  8
1
  100
AcDbLine
  10
44.1
  20
-0.138193
  30
0
  11
44
  21
-0.083016
  31
0
  0
LINE
  5
53
  100
AcDbEntity
  8
1
  100
AcDbLine
  10
44
  20
-0.083016
  30
0
  11
43.9
  21
-0.026474
  31
0
  0
LINE
  5
54
  100
AcDbEntity
  8
1
  100
AcDbLine
  10
43.9
  20
-0.026474
  30
0
  11
43.8
  21
0.030503
  31
0
  0
LINE
  5
55
  100
AcDbEntity
  8
1
  100
AcDbLine
  10
43.8
  20
0.030503
  30
0
  11
43.7
  21
0.086978
  31
0
  0
LINE
  5
56
  100
AcDbEntity
  8
1
  100
AcDbLine
  10
43.65
  20
-0.45
  30
0
  11
43.65
  21
0.45
  31
0
  0
LINE
  5
57
  100
AcDbEntity
  8
1
  100
AcDbLine
  10
43.65
  20
0.425
  30
0
  11
43.65
  21
-0.425
  31
0
  0
LINE
  5
58
  100
AcDbEntity
  8
1
  100
AcDbLine
  10
43.5
  20
-0.425
  30
0
  11
43.5
  21
0.041154
  31
0
  0
LINE
  5
59
  100
AcDbEntity
  8
1
  100
AcDbLine
  10
43.5
  20
0.041154
  30
0
  11
43.6
  21
0.098411
  31
0
  0
LINE
  5
5a
  100
AcDbEntity
  8
1
  100
AcDbLine
  10
43.6
  20
0.098411
  30
0
  11
43.7
  21
0.043628
  31
0
  0
LINE
  5
5b
  100
AcDbEntity
  8
1
  100
AcDbLine
  10
43.7
  20
0.043628
  30
0
  11
43.8
  21
-0.014036
  31
0
  0
LINE
  5
5c
  100
AcDbEntity
  8
1
  100
AcDbLine
  10
43.8
  20
-0.014036
  30
0
  11
43.9
  21
-0.071469
  31
0
  0
LINE
  5
5d
  100
AcDbEntity
  8
1
  100
AcDbLine
  10
43.9
  20
-0.071469
  30
0
  11
44
  21
-0.127728
  31
0
  0
LINE
  5
5e
  100
AcDbEntity
  8
1
  100
AcDbLine
  10
44
  20
-0.127728
  30
0
  11
44.1
  21
-0.181887
  31
0
  0
LINE
  5
5f
  100
AcDbEntity
  8
1
  100
AcDbLine
  10
44.1
  20
-0.181887
  30
0
  11
44.2
  21
-0.233056
  31
0
  0
LINE
  5
60
  100
AcDbEntity
  8
1
  100
AcDbLine
  10
44.2
  20
-0.233056
  30
0
  11
44.3
  21
-0.280394
  31
0
  0
LINE
  5
61
  100
AcDbEntity
  8
1
  100
AcDbLine
  10
44.3
  20
-0.280394
  30
0
  11
44.4
  21
-0.323122
  31
0
  0
LINE
  5
62
  100
AcDbEntity
  8
1
  100
AcDbLine
  10
44.4
  20
-0.323122
  30
0
  11
44.5
  21
-0.360539
  31
0
  0
LINE
  5
63
  100
AcDbEntity
  8
1
  100
AcDbLine
  10
44.5
  20
-0.360539
  30
0
  11
44.6
  21
-0.39203
  31
0
  0
LINE
  5
64
  100
AcDbEntity
  8
1
  100
AcDbLine
  10
44.6
  20
-0.39203
  30
0
  11
44.7
  21
-0.417076
  31
0
  0
LINE
  5
65
  100
AcDbEntity
  8
1
  100
AcDbLine
  10
44.7
  20
-0.417076
  30
0
  11
44.8
  21
-0.435266
  31
0
  0
LINE
  5
66
  100
AcDbEntity
  8
1
  100
AcDbLine
  10
44.8
  20
-0.435266
  30
0
  11
44.9
  21
-0.446301
  31
0
  0
LINE
  5
67
  100
AcDbEntity
  8
1
  100
AcDbLine
  10
44.9
  20
-0.446301
  30
0
  11
45
  21
-0.45
  31
0
  0
LINE
  5
68
  100
AcDbEntity
  8
1
  100
AcDbLine
  10
45
  20
-0.45
  30
0
  11
45
  21
0
  31
0
  0
LINE
  5
69
  100
AcDbEntity
  8
1
  100
AcDbLine
  10
45
  20
0
  30
0
  11
45
  21
0.45
  31
0
  0
LINE
  5
6a
  100
AcDbEntity
  8
1
  100
AcDbLine
  10
45
  20
0.45
  30
0
  11
43.65
  21
0.45
  31
0
  0
LINE
  5
6b
  100
AcDbEntity
  8
1
  100
AcDbLine
  10
43.65
  20
0.45
  30
0
  11
43.65
  21
0.425
  31
0
  0
LINE
  5
6c
  100
AcDbEntity
  8
1
  100
AcDbLine
  10
43.65
  20
0.425
  30
0
  11
41.22
  21
0.425
  31
0
  0
ARC
  5
6d
  100
AcDbEntity
  8
1
  100
AcDbCircle
  10
41.22
  20
1.425
  30
0
  40
1
  100
AcDbArc
  50
255
  51
270
  0
LINE
  5
6e
  100
AcDbEntity
  8
1
  100
AcDbLine
  10
40.961181
  20
0.459074
  30
0
  11
35.210367
  21
2
  31
0
  0
LINE
  5
6f
  100
AcDbEntity
  8
1
  100
AcDbLine
  10
35.210367
  20
2
  30
0
  11
35
  21
2
  31
0
  0
LINE
  5
70
  100
AcDbEntity
  8
1
  100
AcDbLine
  10
35
  20
2
  30
0
  11
35
  21
-2
  31
0
  0
LINE
  5
71
  100
AcDbEntity
  8
1
  100
AcDbLine
  10
35
  20
-2
  30
0
  11
35.210367
  21
-2
  31
0
  0
LINE
  5
72
  100
AcDbEntity
  8
1
  100
AcDbLine
  10
35.210367
  20
-2
  30
0
  11
40.961181
  21
-0.459074
  31
0
  0
LINE
  5
73
  100
AcDbEntity
  8
1
  100
AcDbLine
  10
40.961181
  20
-0.459074
  30
0
  11
40.961181
  21
0.459074
  31
0
  0
LINE
  5
74
  100
AcDbEntity
  8
1
  100
AcDbLine
  10
41.22
  20
0.425
  30
0
  11
41.22
  21
-0.425
  31
0
  0
ARC
  5
75
  100
AcDbEntity
  8
1
  100
AcDbCircle
  10
41.22
  20
-1.425
  30
0
  40
1
  100
AcDbArc
  50
90
  51
105
  0
LINE
  5
76
  100
AcDbEntity
  8
1
  100
AcDbLine
  10
41.22
  20
-0.425
  30
0
  11
43.65
  21
-0.425
  31
0
  0
LINE
  5
77
  100
AcDbEntity
  8
1
  100
AcDbLine
  10
43.65
  20
-0.425
  30
0
  11
43.65
  21
-0.45
  31
0
  0
LINE
  5
78
  100
AcDbEntity
  8
1
  100
AcDbLine
  10
43.65
  20
-0.45
  30
0
  11
45
  21
-0.45
  31
0
  0
LINE
  5
79
  100
AcDbEntity
  8
1
  100
AcDbLine
  10
45
  20
-0.45
  30
0
  11
45
  21
0.45
  31
0
  0
LINE
  5
7a
  100
AcDbEntity
  8
SK1
  100
AcDbLine
  10
35
  20
2
  30
0
  11
0.7
  21
2
  31
0
  0
LINE
  5
7b
  100
AcDbEntity
  8
SK1
  100
AcDbLine
  10
0.7
  20
2
  30
0
  11
0
  21
1.3
  31
0
  0
LINE
  5
7c
  100
AcDbEntity
  8
SK1
  100
AcDbLine
  10
35
  20
-2
  30
0
  11
0.7
  21
-2
  31
0
  0
LINE
  5
7d
  100
AcDbEntity
  8
SK1
  100
AcDbLine
  10
0.7
  20
-2
  30
0
  11
0
  21
-1.3
  31
0
  0
LINE
  5
7e
  100
AcDbEntity
  8
SK1
  100
AcDbLine
  10
0.7
  20
2
  30
0
  11
0.7
  21
-2
  31
0
  0
LINE
  5
7f
  100
AcDbEntity
  8
SK1
  100
AcDbLine
  10
0
  20
1.3
  30
0
  11
0
  21
-1.3
  31
0
  0
LINE
  5
80
  100
AcDbEntity
  8
SK1
  100
AcDbLine
  10
36.0401
  20
1.40688
  30
0
  11
36.4069
  21
1.0401
  31
0
  0
LINE
  5
81
  100
AcDbEntity
  8
SK1
  100
AcDbLine
  10
35.5328
  20
1.66666
  30
0
  11
36.6667
  21
0.532833
  31
0
  0
LINE
  5
82
  100
AcDbEntity
  8
SK1
  100
AcDbLine
  10
35.2154
  20
1.73657
  30
0
  11
36.7366
  21
0.215434
  31
0
  0
LINE
  5
83
  100
AcDbEntity
  8
SK1
  100
AcDbLine
  10
35
  20
1.70452
  30
0
  11
36.7045
  21
0
  31
0
  0
LINE
  5
84
  100
AcDbEntity
  8
SK1
  100
AcDbLine
  10
35
  20
1.45703
  30
0
  11
36.457
  21
0
  31
0
  0
LINE
  5
85
  100
AcDbEntity
  8
SK1
  100
AcDbLine
  10
35
  20
1.20954
  30
0
  11
36.2095
  21
0
  31
0
  0
LINE
  5
86
  100
AcDbEntity
  8
SK1
  100
AcDbLine
  10
35
  20
0.962054
  30
0
  11
35.9621
  21
0
  31
0
  0
LINE
  5
87
  100
AcDbEntity
  8
SK1
  100
AcDbLine
  10
35
  20
0.714566
  30
0
  11
35.7146
  21
0
  31
0
  0
LINE
  5
88
  100
AcDbEntity
  8
SK1
  100
AcDbLine
  10
35
  20
0.467079
  30
0
  11
35.4671
  21
0
  31
0
  0
LINE
  5
89
  100
AcDbEntity
  8
SK1
  100
AcDbLine
  10
35
  20
0.219592
  30
0
  11
35.2196
  21
0
  31
0
  0
LINE
  5
8a
  100
AcDbEntity
  8
SK1
  100
AcDbLine
  10
35
  20
1.70452
  30
0
  11
35.0441
  21
1.74861
  31
0
  0
LINE
  5
8b
  100
AcDbEntity
  8
SK1
  100
AcDbLine
  10
35
  20
1.45703
  30
0
  11
35.271
  21
1.72802
  31
0
  0
LINE
  5
8c
  100
AcDbEntity
  8
SK1
  100
AcDbLine
  10
35
  20
1.20954
  30
0
  11
35.4742
  21
1.6837
  31
0
  0
LINE
  5
8d
  100
AcDbEntity
  8
SK1
  100
AcDbLine
  10
35
  20
0.962054
  30
0
  11
35.6588
  21
1.62082
  31
0
  0
LINE
  5
8e
  100
AcDbEntity
  8
SK1
  100
AcDbLine
  10
35
  20
0.714566
  30
0
  11
35.8271
  21
1.54167
  31
0
  0
LINE
  5
8f
  100
AcDbEntity
  8
SK1
  100
AcDbLine
  10
35
  20
0.467079
  30
0
  11
35.981
  21
1.44812
  31
0
  0
LINE
  5
90
  100
AcDbEntity
  8
SK1
  100
AcDbLine
  10
35
  20
0.219592
  30
0
  11
36.1226
  21
1.34216
  31
0
  0
LINE
  5
91
  100
AcDbEntity
  8
SK1
  100
AcDbLine
  10
35.0279
  20
0
  30
0
  11
36.2508
  21
1.22288
  31
0
  0
LINE
  5
92
  100
AcDbEntity
  8
SK1
  100
AcDbLine
  10
35.2754
  20
0
  30
0
  11
36.367
  21
1.09157
  31
0
  0
LINE
  5
93
  100
AcDbEntity
  8
SK1
  100
AcDbLine
  10
35.5229
  20
0
  30
0
  11
36.4707
  21
0.947822
  31
0
  0
LINE
  5
94
  100
AcDbEntity
  8
SK1
  100
AcDbLine
  10
35.7704
  20
0
  30
0
  11
36.5605
  21
0.790145
  31
0
  0
LINE
  5
95
  100
AcDbEntity
  8
SK1
  100
AcDbLine
  10
36.0178
  20
0
  30
0
  11
36.6364
  21
0.618517
  31
0
  0
LINE
  5
96
  100
AcDbEntity
  8
SK1
  100
AcDbLine
  10
36.2653
  20
0
  30
0
  11
36.696
  21
0.430696
  31
0
  0
LINE
  5
97
  100
AcDbEntity
  8
SK1
  100
AcDbLine
  10
36.5128
  20
0
  30
0
  11
36.7356
  21
0.222827
  31
0
  0
LINE
  5
98
  100
AcDbEntity
  8
SK1
  100
AcDbLine
  10
35
  20
0
  30
0
  11
35
  21
1.75
  31
0
  0
LINE
  5
99
  100
AcDbEntity
  8
SK1
  100
AcDbLine
  10
35
  20
0
  30
0
  11
36.75
  21
0
  31
0
  0
ARC
  5
9a
  100
AcDbEntity
  8
SK1
  100
AcDbCircle
  10
35
  20
0
  30
0
  40
1.75
  100
AcDbArc
  50
0
  51
90
  0
ARC
  5
9b
  100
AcDbEntity
  8
SK1
  100
AcDbCircle
  10
35
  20
0
  30
0
  40
1.75
  100
AcDbArc
  50
90
  51
180
  0
LINE
  5
9c
  100
AcDbEntity
  8
SK1
  100
AcDbLine
  10
34.9721
  20
0
  30
0
  11
35
  21
-0.027896
  31
0
  0
LINE
  5
9d
  100
AcDbEntity
  8
SK1
  100
AcDbLine
  10
34.7246
  20
0
  30
0
  11
35
  21
-0.275383
  31
0
  0
LINE
  5
9e
  100
AcDbEntity
  8
SK1
  100
AcDbLine
  10
34.4771
  20
0
  30
0
  11
35
  21
-0.522871
  31
0
  0
LINE
  5
9f
  100
AcDbEntity
  8
SK1
  100
AcDbLine
  10
34.2296
  20
0
  30
0
  11
35
  21
-0.770358
  31
0
  0
LINE
  5
a0
  100
AcDbEntity
  8
SK1
  100
AcDbLine
  10
33.9822
  20
0
  30
0
  11
35
  21
-1.01785
  31
0
  0
LINE
  5
a1
  100
AcDbEntity
  8
SK1
  100
AcDbLine
  10
33.7347
  20
0
  30
0
  11
35
  21
-1.26533
  31
0
  0
LINE
  5
a2
  100
AcDbEntity
  8
SK1
  100
AcDbLine
  10
33.4872
  20
0
  30
0
  11
35
  21
-1.51282
  31
0
  0
LINE
  5
a3
  100
AcDbEntity
  8
SK1
  100
AcDbLine
  10
33.2503
  20
-0.010642
  30
0
  11
34.9894
  21
-1.74967
  31
0
  0
LINE
  5
a4
  100
AcDbEntity
  8
SK1
  100
AcDbLine
  10
33.2736
  20
-0.281429
  30
0
  11
34.7186
  21
-1.72637
  31
0
  0
LINE
  5
a5
  100
AcDbEntity
  8
SK1
  100
AcDbLine
  10
33.3639
  20
-0.619147
  30
0
  11
34.3809
  21
-1.63613
  31
0
  0
LINE
  5
a6
  100
AcDbEntity
  8
SK1
  100
AcDbLine
  10
33.2514
  20
-0.044098
  30
0
  11
33.2955
  21
0
  31
0
  0
LINE
  5
a7
  100
AcDbEntity
  8
SK1
  100
AcDbLine
  10
33.272
  20
-0.270991
  30
0
  11
33.543
  21
0
  31
0
  0
LINE
  5
a8
  100
AcDbEntity
  8
SK1
  100
AcDbLine
  10
33.3163
  20
-0.474162
  30
0
  11
33.7905
  21
0
  31
0
  0
LINE
  5
a9
  100
AcDbEntity
  8
SK1
  100
AcDbLine
  10
33.3792
  20
-0.658762
  30
0
  11
34.0379
  21
0
  31
0
  0
LINE
  5
aa
  100
AcDbEntity
  8
SK1
  100
AcDbLine
  10
33.4583
  20
-0.827105
  30
0
  11
34.2854
  21
0
  31
0
  0
LINE
  5
ab
  100
AcDbEntity
  8
SK1
  100
AcDbLine
  10
33.5519
  20
-0.981039
  30
0
  11
34.5329
  21
0
  31
0
  0
LINE
  5
ac
  100
AcDbEntity
  8
SK1
  100
AcDbLine
  10
33.6578
  20
-1.12257
  30
0
  11
34.7804
  21
0
  31
0
  0
LINE
  5
ad
  100
AcDbEntity
  8
SK1
  100
AcDbLine
  10
33.7771
  20
-1.25077
  30
0
  11
35
  21
-0.027896
  31
0
  0
LINE
  5
ae
  100
AcDbEntity
  8
SK1
  100
AcDbLine
  10
33.9084
  20
-1.36695
  30
0
  11
35
  21
-0.275383
  31
0
  0
LINE
  5
af
  100
AcDbEntity
  8
SK1
  100
AcDbLine
  10
34.0522
  20
-1.47069
  30
0
  11
35
  21
-0.522871
  31
0
  0
LINE
  5
b0
  100
AcDbEntity
  8
SK1
  100
AcDbLine
  10
34.2099
  20
-1.5605
  30
0
  11
35
  21
-0.770358
  31
0
  0
LINE
  5
b1
  100
AcDbEntity
  8
SK1
  100
AcDbLine
  10
34.3815
  20
-1.63636
  30
0
  11
35
  21
-1.01785
  31
0
  0
LINE
  5
b2
  100
AcDbEntity
  8
SK1
  100
AcDbLine
  10
34.5693
  20
-1.69603
  30
0
  11
35
  21
-1.26533
  31
0
  0
LINE
  5
b3
  100
AcDbEntity
  8
SK1
  100
AcDbLine
  10
34.7772
  20
-1.73565
  30
0
  11
35
  21
-1.51282
  31
0
  0
LINE
  5
b4
  100
AcDbEntity
  8
SK1
  100
AcDbLine
  10
35
  20
0
  30
0
  11
33.25
  21
0
  31
0
  0
LINE
  5
b5
  100
AcDbEntity
  8
SK1
  100
AcDbLine
  10
35
  20
-1.75
  30
0
  11
35
  21
0
  31
0
  0
ARC
  5
b6
  100
AcDbEntity
  8
SK1
  100
AcDbCircle
  10
35
  20
0
  30
0
  40
1.75
  100
AcDbArc
  50
180
  51
270
  0
ARC
  5
b7
  100
AcDbEntity
  8
SK1
  100
AcDbCircle
  10
35
  20
0
  30
0
  40
1.75
  100
AcDbArc
  50
270
  51
0
  0
LINE
  5
128
  100
AcDbEntity
  8
NOCUT
  100
AcDbLine
  10
43.65
  20
0
  30
0
  11
43.65
  21
0.425
  31
0
  0
LINE
  5
129
  100
AcDbEntity
  8
NOCUT
  100
AcDbLine
  10
43.65
  20
0.425
  30
0
  11
41.22
  21
0.425
  31
0
  0
ARC
  5
12a
  100
AcDbEntity
  8
NOCUT
  100
AcDbCircle
  10
41.22
  20
1.425
  30
0
  40
1
  100
AcDbArc
  50
255
  51
270
  0
LINE
  5
12b
  100
AcDbEntity
  8
NOCUT
  100
AcDbLine
  10
40.961181
  20
0.459074
  30
0
  11
35.210367
  21
2
  31
0
  0
LINE
  5
12c
  100
AcDbEntity
  8
NOCUT
  100
AcDbLine
  10
35.210367
  20
2
  30
0
  11
35
  21
2
  31
0
  0
LINE
  5
12d
  100
AcDbEntity
  8
NOCUT
  100
AcDbLine
  10
35
  20
2
  30
0
  11
35
  21
0
  31
0
  0
LINE
  5
12e
  100
AcDbEntity
  8
NOCUT
  100
AcDbLine
  10
35
  20
0
  30
0
  11
43.65
  21
0
  31
0
  0
LINE
  5
12f
  100
AcDbEntity
  8
CUT
  100
AcDbLine
  10
45
  20
0
  30
0
  11
45
  21
0.45
  31
0
  0
LINE
  5
130
  100
AcDbEntity
  8
CUT
  100
AcDbLine
  10
45
  20
0.45
  30
0
  11
43.65
  21
0.45
  31
0
  0
LINE
  5
131
  100
AcDbEntity
  8
CUT
  100
AcDbLine
  10
43.65
  20
0.45
  30
0
  11
43.65
  21
0
  31
0
  0
LINE
  5
132
  100
AcDbEntity
  8
CUT
  100
AcDbLine
  10
43.65
  20
0
  30
0
  11
45
  21
0
  31
0
  0
LINE
  5
133
  100
AcDbEntity
  8
4
  100
AcDbLine
  10
35
  20
0
  30
0
  11
45
  21
0
  31
0
  0
LINE
  5
134
  100
AcDbEntity
  8
SK4
  100
AcDbLine
  10
-1
  20
0
  30
0
  11
46
  21
0
  31
0
  0
LINE
  5
135
  100
AcDbEntity
  8
INFTOTAL
  100
AcDbLine
  10
-15.45
  20
17.45
  30
0
  11
60.45
  21
17.45
  31
0
  0
LINE
  5
136
  100
AcDbEntity
  8
INFTOTAL
  100
AcDbLine
  10
60.45
  20
17.45
  30
0
  11
60.45
  21
-10.688525
  31
0
  0
LINE
  5
137
  100
AcDbEntity
  8
INFTOTAL
  100
AcDbLine
  10
60.45
  20
-10.688525
  30
0
  11
-15.45
  21
-10.688525
  31
0
  0
LINE
  5
138
  100
AcDbEntity
  8
INFTOTAL
  100
AcDbLine
  10
-15.45
  20
-10.688525
  30
0
  11
-15.45
  21
17.45
  31
0
  0
ENDSEC
  0
SECTION
  2
OBJECTS
  0
DICTIONARY
  5
139
  330
0
100
AcDbDictionary
281
    1
  3
ACAD_GROUP
  350
13a
  0
DICTIONARY
  5
13a
102
{ACAD_REACTORS
  330
139
102
}
  330
139
100
AcDbDictionary
281
    1
  0
ENDSEC
  0
EOF
