  0
SECTION
  2
HEADER
  9
$ACADVER
  1
AC1015
  9
$DWGCODEPAGE
  3
ANSI_932
  9
$HANDSEED
  5
106AB90
  0
ENDSEC
  0
SECTION
  2
CLASSES
  0
CLASS
  1
IMAGEDEF
  2
AcDbRasterImageDef
  3
ISM
  90
0
  91
4
  280
0
  281
0
  0
CLASS
  1
IMAGE
  2
AcDbRasterImage
  3
ISM
  90
127
  91
5
  280
0
  281
1
  0
CLASS
  1
IMAGEDEF_REACTOR
  2
AcDbRasterImageDefReactor
  3
ISM
  90
1
  91
4
  280
0
  281
0
  0
ENDSEC
  0
SECTION
  2
TABLES
  0
TABLE
  2
VPORT
  5
2
  330
0
  100
AcDbSymbolTable
  70
    0
  0
ENDTAB
  0
TABLE
  2
LTYPE
  5
3
  330
0
  100
AcDbSymbolTable
  70
    4
  0
LTYPE
  5
4
  330
3
  100
AcDbSymbolTableRecord
  100
AcDbLinetypeTableRecord
  2
ByBlock
  70
    0
  3

  72
65
  73
    0
  40
0
  0
LTYPE
  5
5
  330
3
  100
AcDbSymbolTableRecord
  100
AcDbLinetypeTableRecord
  2
ByLayer
  70
    0
  3

  72
65
  73
    0
  40
0
  0
LTYPE
  5
6
  330
3
  100
AcDbSymbolTableRecord
  100
AcDbLinetypeTableRecord
  2
CONTINUOUS
  70
    0
  3
Solid Line
  72
65
  73
    0
  40
0
  0
LTYPE
  5
7
  330
3
  100
AcDbSymbolTableRecord
  100
AcDbLinetypeTableRecord
  2
DASH
  70
    0
  3
Hidden
  72
65
  73
2
  40
2.5
  49
1.5
  74
0
  49
-1
  74
0
  0
LTYPE
  5
8
  330
3
  100
AcDbSymbolTableRecord
  100
AcDbLinetypeTableRecord
  2
LONGDASHDASH
  70
    0
  3
__ . __
  72
65
  73
    4
  40
7
  49
4
  74
    0
  49
-1
  74
    0
  49
1
  74
    0
  49
-1
  74
    0
  0
ENDTAB
  0
TABLE
  2
LAYER
  5
9
  330
0
  100
AcDbSymbolTable
  70
    40
  0
LAYER
  5
a
  330
9
  100
AcDbSymbolTableRecord
  100
AcDbLayerTableRecord
  2
0
  70
    0
  62
    0
  6
CONTINUOUS
  390
0
  0
LAYER
  5
c
  330
9
  100
AcDbSymbolTableRecord
  100
AcDbLayerTableRecord
  2
1
  70
    0
  62
    4
  6
CONTINUOUS
  370
50
  390
0
  0
LAYER
  5
d
  330
9
  100
AcDbSymbolTableRecord
  100
AcDbLayerTableRecord
  2
2
  70
    0
  62
    7
  6
CONTINUOUS
  370
25
  390
0
  0
LAYER
  5
f
  330
9
  100
AcDbSymbolTableRecord
  100
AcDbLayerTableRecord
  2
4
  70
    0
  62
    2
  6
LONGDASHDASH
  370
25
  390
0
  0
LAYER
  5
13
  330
9
  100
AcDbSymbolTableRecord
  100
AcDbLayerTableRecord
  2
SK1
  70
    0
  62
    4
  6
CONTINUOUS
  370
50
  390
0
  0
LAYER
  5
14
  330
9
  100
AcDbSymbolTableRecord
  100
AcDbLayerTableRecord
  2
SK2
  70
    0
  62
    7
  6
CONTINUOUS
  370
25
  390
0
  0
LAYER
  5
16
  330
9
  100
AcDbSymbolTableRecord
  100
AcDbLayerTableRecord
  2
SK4
  70
    0
  62
    2
  6
LONGDASHDASH
  370
25
  390
0
  0
LAYER
  5
21
  330
9
  100
AcDbSymbolTableRecord
  100
AcDbLayerTableRecord
  2
NOCUT
  70
    0
  62
    7
  6
CONTINUOUS
  370
25
  390
0
  0
LAYER
  5
22
  330
9
  100
AcDbSymbolTableRecord
  100
AcDbLayerTableRecord
  2
CUT
  70
    0
  62
    1
  6
CONTINUOUS
  370
25
  390
0
  0
LAYER
  5
26
  330
9
  100
AcDbSymbolTableRecord
  100
AcDbLayerTableRecord
  2
INFTOTAL
  70
    0
  62
    9
  6
CONTINUOUS
  370
18
  390
0
  0
ENDTAB
  0
TABLE
  2
STYLE
  5
27
  330
0
  100
AcDbSymbolTable
  70
    1
  0
STYLE
  5
28
  330
27
  100
AcDbSymbolTableRecord
  100
AcDbTextStyleTableRecord
  2
Monospac821 BT
  70
    0
  40
    3.5
  41
1
  50
0
  71
0
  42
3
  3

  4

  1001
ACAD
  1000
Monospac821 BT
  1071
256
  0
ENDTAB
  0
TABLE
  2
VIEW
  5
29
  330
0
  100
AcDbSymbolTable
  70
    0
  0
ENDTAB
  0
TABLE
  2
UCS
  5
2a
  330
0
  100
AcDbSymbolTable
  70
    0
  0
ENDTAB
  0
TABLE
  2
APPID
  5
2b
  330
0
  100
AcDbSymbolTable
  70
    1
  0
APPID
  5
2c
  330
2b
  100
AcDbSymbolTableRecord
  100
AcDbRegAppTableRecord
  2
ACAD
  70
    0
  0
ENDTAB
  0
TABLE
  2
DIMSTYLE
  5
2d
  330
0
  100
AcDbSymbolTable
  70
    1
  100
AcDbDimStyleTable
  0
DIMSTYLE
  105
2e
  330
2d
  100
AcDbSymbolTableRecord
  100
AcDbDimStyleTableRecord
  2
STANDARD
  70
    0
  41
    3
  42
0.5
  44
1
  73
0
  77
1
  78
1
  140
3.5
  141
2.5
  143
0.03937
  147
0.8
  172
1
  174
1
  178
0
  179
1
  271
2
  279
1
  284
1
  340
28
  0
ENDTAB
  0
TABLE
  2
BLOCK_RECORD
  5
2f
  330
0
  100
AcDbSymbolTable
  70
    2
  0
BLOCK_RECORD
  5
30
  330
2f
  100
AcDbSymbolTableRecord
  100
AcDbBlockTableRecord
  2
*Model_Space
  0
BLOCK_RECORD
  5
31
  330
2f
  100
AcDbSymbolTableRecord
  100
AcDbBlockTableRecord
  2
*Paper_Space
  0
BLOCK_RECORD
  5
bf
  330
2f
  100
AcDbSymbolTableRecord
  100
AcDbBlockTableRecord
  2
*Dbe
  340
0
  0
BLOCK_RECORD
  5
cd
  330
2f
  100
AcDbSymbolTableRecord
  100
AcDbBlockTableRecord
  2
*Dcc
  340
0
  0
BLOCK_RECORD
  5
db
  330
2f
  100
AcDbSymbolTableRecord
  100
AcDbBlockTableRecord
  2
*Dda
  340
0
  0
BLOCK_RECORD
  5
e9
  330
2f
  100
AcDbSymbolTableRecord
  100
AcDbBlockTableRecord
  2
*De8
  340
0
  0
BLOCK_RECORD
  5
f7
  330
2f
  100
AcDbSymbolTableRecord
  100
AcDbBlockTableRecord
  2
*Df6
  340
0
  0
BLOCK_RECORD
  5
105
  330
2f
  100
AcDbSymbolTableRecord
  100
AcDbBlockTableRecord
  2
*D104
  340
0
  0
BLOCK_RECORD
  5
113
  330
2f
  100
AcDbSymbolTableRecord
  100
AcDbBlockTableRecord
  2
*D112
  340
0
  0
BLOCK_RECORD
  5
121
  330
2f
  100
AcDbSymbolTableRecord
  100
AcDbBlockTableRecord
  2
*D120
  340
0
  0
ENDTAB
  0
ENDSEC
  0
SECTION
  2
BLOCKS
  0
BLOCK
  5
32
  330
30
  100
AcDbEntity
  8
0
  100
AcDbBlockBegin
  2
*Model_Space
  70
    0
  10
0
  20
0
  30
0
  3
*Model_Space
  1

  0
ENDBLK
  5
33
  330
30
  100
AcDbEntity
  8
0
  100
AcDbBlockEnd
  0
BLOCK
  5
34
  330
31
  100
AcDbEntity
  8
0
  100
AcDbBlockBegin
  2
*Paper_Space
  70
    0
  10
0
  20
0
  30
0
  3
*Paper_Space
  1

  0
ENDBLK
  5
35
  330
31
  100
AcDbEntity
  8
0
  100
AcDbBlockEnd
  0
BLOCK
  5
bd
  330
bf
  100
AcDbEntity
  8
SK2
  100
AcDbBlockBegin
  2
*Dbe
  70
1
  10
0
  20
0
  30
0
  3
*Dbe
  1

  0
LINE
  5
c0
  330
bf
  100
AcDbEntity
  8
SK2
  100
AcDbLine
  10
0
  20
1.3
  30
0
  11
0
  21
14
  31
0
  0
LINE
  5
c1
  330
bf
  100
AcDbEntity
  8
SK2
  100
AcDbLine
  10
45
  20
0.5
  30
0
  11
45
  21
14
  31
0
  0
LINE
  5
c2
  330
bf
  100
AcDbEntity
  8
SK2
  100
AcDbLine
  10
0
  20
12
  30
0
  11
45
  21
12
  31
0
  0
SOLID
  5
c3
  330
bf
  100
AcDbEntity
  8
SK2
  100
AcDbTrace
  10
0
  20
12
  30
0
  11
2.478612
  21
12.326315
  31
0
  12
2.478612
  22
11.673685
  32
0
  13
2.478612
  23
11.673685
  33
0
  0
SOLID
  5
c4
  330
bf
  100
AcDbEntity
  8
SK2
  100
AcDbTrace
  10
45
  20
12
  30
0
  11
42.521388
  21
11.673685
  31
0
  12
42.521388
  22
12.326315
  32
0
  13
42.521388
  23
12.326315
  33
0
  0
MTEXT
  5
c5
  330
bf
  100
AcDbEntity
  8
SK2
  100
AcDbMText
  10
22.5
  20
12
  30
0
  11
1
  21
0
  31
0
  40
2
  41
0
  71
8
  72
1
  1
45
  0
POINT
  5
c6
  330
bf
  100
AcDbEntity
  8
SK2
  62
0
  100
AcDbPoint
  10
0
  20
1.3
  30
0
  0
POINT
  5
c7
  330
bf
  100
AcDbEntity
  8
SK2
  62
0
  100
AcDbPoint
  10
45
  20
0.5
  30
0
  0
POINT
  5
c8
  330
bf
  100
AcDbEntity
  8
SK2
  62
0
  100
AcDbPoint
  10
45
  20
12
  30
0
  0
ENDBLK
  5
c9
  330
bf
  100
AcDbEntity
  8
SK2
  100
AcDbBlockEnd
  0
BLOCK
  5
cb
  330
cd
  100
AcDbEntity
  8
SK2
  100
AcDbBlockBegin
  2
*Dcc
  70
1
  10
0
  20
0
  30
0
  3
*Dcc
  1

  0
LINE
  5
ce
  330
cd
  100
AcDbEntity
  8
SK2
  100
AcDbLine
  10
0
  20
1.3
  30
0
  11
0
  21
9.037689
  31
0
  0
LINE
  5
cf
  330
cd
  100
AcDbEntity
  8
SK2
  100
AcDbLine
  10
36.2
  20
2
  30
0
  11
36.2
  21
9.037689
  31
0
  0
LINE
  5
d0
  330
cd
  100
AcDbEntity
  8
SK2
  100
AcDbLine
  10
0
  20
7.037689
  30
0
  11
36.2
  21
7.037689
  31
0
  0
SOLID
  5
d1
  330
cd
  100
AcDbEntity
  8
SK2
  100
AcDbTrace
  10
0
  20
7.037689
  30
0
  11
2.478612
  21
7.364004
  31
0
  12
2.478612
  22
6.711373
  32
0
  13
2.478612
  23
6.711373
  33
0
  0
SOLID
  5
d2
  330
cd
  100
AcDbEntity
  8
SK2
  100
AcDbTrace
  10
36.2
  20
7.037689
  30
0
  11
33.721388
  21
6.711373
  31
0
  12
33.721388
  22
7.364004
  32
0
  13
33.721388
  23
7.364004
  33
0
  0
MTEXT
  5
d3
  330
cd
  100
AcDbEntity
  8
SK2
  100
AcDbMText
  10
18.1
  20
7.037689
  30
0
  11
1
  21
0
  31
0
  40
2
  41
0
  71
8
  72
1
  1
36.2
  0
POINT
  5
d4
  330
cd
  100
AcDbEntity
  8
SK2
  62
0
  100
AcDbPoint
  10
0
  20
1.3
  30
0
  0
POINT
  5
d5
  330
cd
  100
AcDbEntity
  8
SK2
  62
0
  100
AcDbPoint
  10
36.2
  20
2
  30
0
  0
POINT
  5
d6
  330
cd
  100
AcDbEntity
  8
SK2
  62
0
  100
AcDbPoint
  10
36.2
  20
7.037689
  30
0
  0
ENDBLK
  5
d7
  330
cd
  100
AcDbEntity
  8
SK2
  100
AcDbBlockEnd
  0
BLOCK
  5
d9
  330
db
  100
AcDbEntity
  8
SK2
  100
AcDbBlockBegin
  2
*Dda
  70
1
  10
0
  20
0
  30
0
  3
*Dda
  1

  0
LINE
  5
dc
  330
db
  100
AcDbEntity
  8
SK2
  100
AcDbLine
  10
45
  20
-0.5
  30
0
  11
57
  21
-0.5
  31
0
  0
LINE
  5
dd
  330
db
  100
AcDbEntity
  8
SK2
  100
AcDbLine
  10
45
  20
0.5
  30
0
  11
57
  21
0.5
  31
0
  0
LINE
  5
de
  330
db
  100
AcDbEntity
  8
SK2
  100
AcDbLine
  10
55
  20
-4.158416
  30
0
  11
55
  21
0.5
  31
0
  0
SOLID
  5
df
  330
db
  100
AcDbEntity
  8
SK2
  100
AcDbTrace
  10
55
  20
-0.5
  30
0
  11
54.673685
  21
1.978612
  31
0
  12
55.326315
  22
1.978612
  32
0
  13
55.326315
  23
1.978612
  33
0
  0
SOLID
  5
e0
  330
db
  100
AcDbEntity
  8
SK2
  100
AcDbTrace
  10
55
  20
0.5
  30
0
  11
55.326315
  21
-1.978612
  31
0
  12
54.673685
  22
-1.978612
  32
0
  13
54.673685
  23
-1.978612
  33
0
  0
MTEXT
  5
e1
  330
db
  100
AcDbEntity
  8
SK2
  100
AcDbMText
  10
55
  20
0
  30
0
  11
0
  21
1
  31
0
  40
2
  41
0
  71
8
  72
1
  1
ﾘ1
  0
POINT
  5
e2
  330
db
  100
AcDbEntity
  8
SK2
  62
0
  100
AcDbPoint
  10
45
  20
-0.5
  30
0
  0
POINT
  5
e3
  330
db
  100
AcDbEntity
  8
SK2
  62
0
  100
AcDbPoint
  10
45
  20
0.5
  30
0
  0
POINT
  5
e4
  330
db
  100
AcDbEntity
  8
SK2
  62
0
  100
AcDbPoint
  10
55
  20
0.5
  30
0
  0
ENDBLK
  5
e5
  330
db
  100
AcDbEntity
  8
SK2
  100
AcDbBlockEnd
  0
BLOCK
  5
e7
  330
e9
  100
AcDbEntity
  8
SK2
  100
AcDbBlockBegin
  2
*De8
  70
1
  10
0
  20
0
  30
0
  3
*De8
  1

  0
LINE
  5
ea
  330
e9
  100
AcDbEntity
  8
SK2
  100
AcDbLine
  10
0.7
  20
-2
  30
0
  11
-12
  21
-2
  31
0
  0
LINE
  5
eb
  330
e9
  100
AcDbEntity
  8
SK2
  100
AcDbLine
  10
0.7
  20
2
  30
0
  11
-12
  21
2
  31
0
  0
LINE
  5
ec
  330
e9
  100
AcDbEntity
  8
SK2
  100
AcDbLine
  10
-10
  20
-4.158416
  30
0
  11
-10
  21
2
  31
0
  0
SOLID
  5
ed
  330
e9
  100
AcDbEntity
  8
SK2
  100
AcDbTrace
  10
-10
  20
-2
  30
0
  11
-10.326315
  21
0.478612
  31
0
  12
-9.673685
  22
0.478612
  32
0
  13
-9.673685
  23
0.478612
  33
0
  0
SOLID
  5
ee
  330
e9
  100
AcDbEntity
  8
SK2
  100
AcDbTrace
  10
-10
  20
2
  30
0
  11
-9.673685
  21
-0.478612
  31
0
  12
-10.326315
  22
-0.478612
  32
0
  13
-10.326315
  23
-0.478612
  33
0
  0
MTEXT
  5
ef
  330
e9
  100
AcDbEntity
  8
SK2
  100
AcDbMText
  10
-10
  20
0
  30
0
  11
0
  21
1
  31
0
  40
2
  41
0
  71
8
  72
1
  1
ﾘ4
  0
POINT
  5
f0
  330
e9
  100
AcDbEntity
  8
SK2
  62
0
  100
AcDbPoint
  10
0.7
  20
-2
  30
0
  0
POINT
  5
f1
  330
e9
  100
AcDbEntity
  8
SK2
  62
0
  100
AcDbPoint
  10
0.7
  20
2
  30
0
  0
POINT
  5
f2
  330
e9
  100
AcDbEntity
  8
SK2
  62
0
  100
AcDbPoint
  10
-10
  20
2
  30
0
  0
ENDBLK
  5
f3
  330
e9
  100
AcDbEntity
  8
SK2
  100
AcDbBlockEnd
  0
BLOCK
  5
f5
  330
f7
  100
AcDbEntity
  8
2
  100
AcDbBlockBegin
  2
*Df6
  70
1
  10
0
  20
0
  30
0
  3
*Df6
  1

  0
LINE
  5
f8
  330
f7
  100
AcDbEntity
  8
2
  100
AcDbLine
  10
43.5
  20
-0.475
  30
0
  11
41.5
  21
-0.475
  31
0
  0
LINE
  5
f9
  330
f7
  100
AcDbEntity
  8
2
  100
AcDbLine
  10
43.5
  20
0.475
  30
0
  11
41.5
  21
0.475
  31
0
  0
LINE
  5
fa
  330
f7
  100
AcDbEntity
  8
2
  100
AcDbLine
  10
43.5
  20
-0.475
  30
0
  11
43.5
  21
8.836634
  31
0
  0
SOLID
  5
fb
  330
f7
  100
AcDbEntity
  8
2
  100
AcDbTrace
  10
43.5
  20
-0.475
  30
0
  11
43.173685
  21
2.003612
  31
0
  12
43.826315
  22
2.003612
  32
0
  13
43.826315
  23
2.003612
  33
0
  0
SOLID
  5
fc
  330
f7
  100
AcDbEntity
  8
2
  100
AcDbTrace
  10
43.5
  20
0.475
  30
0
  11
43.826315
  21
-2.003612
  31
0
  12
43.173685
  22
-2.003612
  32
0
  13
43.173685
  23
-2.003612
  33
0
  0
MTEXT
  5
fd
  330
f7
  100
AcDbEntity
  8
2
  100
AcDbMText
  10
43.5
  20
0.475
  30
0
  11
0
  21
1
  31
0
  40
2
  41
0
  71
8
  72
1
  1
ﾘ0.95
  0
POINT
  5
fe
  330
f7
  100
AcDbEntity
  8
2
  62
0
  100
AcDbPoint
  10
41.5
  20
-0.475
  30
0
  0
POINT
  5
ff
  330
f7
  100
AcDbEntity
  8
2
  62
0
  100
AcDbPoint
  10
41.5
  20
0.475
  30
0
  0
POINT
  5
100
  330
f7
  100
AcDbEntity
  8
2
  62
0
  100
AcDbPoint
  10
43.5
  20
8.836634
  30
0
  0
ENDBLK
  5
101
  330
f7
  100
AcDbEntity
  8
2
  100
AcDbBlockEnd
  0
BLOCK
  5
103
  330
105
  100
AcDbEntity
  8
2
  100
AcDbBlockBegin
  2
*D104
  70
1
  10
0
  20
0
  30
0
  3
*D104
  1

  0
LINE
  5
106
  330
105
  100
AcDbEntity
  8
2
  100
AcDbLine
  10
43.5
  20
0.475
  30
0
  11
43.5
  21
9
  31
0
  0
LINE
  5
107
  330
105
  100
AcDbEntity
  8
2
  100
AcDbLine
  10
42.22
  20
0.475
  30
0
  11
42.22
  21
9
  31
0
  0
LINE
  5
108
  330
105
  100
AcDbEntity
  8
2
  100
AcDbLine
  10
43.5
  20
7
  30
0
  11
30.278465
  21
7
  31
0
  0
SOLID
  5
109
  330
105
  100
AcDbEntity
  8
2
  100
AcDbTrace
  10
43.5
  20
7
  30
0
  11
45.978612
  21
7.326315
  31
0
  12
45.978612
  22
6.673685
  32
0
  13
45.978612
  23
6.673685
  33
0
  0
SOLID
  5
10a
  330
105
  100
AcDbEntity
  8
2
  100
AcDbTrace
  10
42.22
  20
7
  30
0
  11
39.741388
  21
6.673685
  31
0
  12
39.741388
  22
7.326315
  32
0
  13
39.741388
  23
7.326315
  33
0
  0
MTEXT
  5
10b
  330
105
  100
AcDbEntity
  8
2
  100
AcDbMText
  10
36.75507
  20
7
  30
0
  11
1
  21
-0
  31
0
  40
2
  41
0
  71
8
  72
1
  1
1.28
  0
POINT
  5
10c
  330
105
  100
AcDbEntity
  8
2
  62
0
  100
AcDbPoint
  10
43.5
  20
0.475
  30
0
  0
POINT
  5
10d
  330
105
  100
AcDbEntity
  8
2
  62
0
  100
AcDbPoint
  10
42.22
  20
0.475
  30
0
  0
POINT
  5
10e
  330
105
  100
AcDbEntity
  8
2
  62
0
  100
AcDbPoint
  10
30.278465
  20
7
  30
0
  0
ENDBLK
  5
10f
  330
105
  100
AcDbEntity
  8
2
  100
AcDbBlockEnd
  0
BLOCK
  5
111
  330
113
  100
AcDbEntity
  8
2
  100
AcDbBlockBegin
  2
*D112
  70
1
  10
0
  20
0
  30
0
  3
*D112
  1

  0
LINE
  5
114
  330
113
  100
AcDbEntity
  8
2
  100
AcDbLine
  10
45
  20
0.5
  30
0
  11
45
  21
14
  31
0
  0
LINE
  5
115
  330
113
  100
AcDbEntity
  8
2
  100
AcDbLine
  10
36.2
  20
2
  30
0
  11
36.2
  21
9
  31
0
  0
LINE
  5
116
  330
113
  100
AcDbEntity
  8
2
  100
AcDbLine
  10
45
  20
7
  30
0
  11
36.2
  21
7
  31
0
  0
SOLID
  5
117
  330
113
  100
AcDbEntity
  8
2
  100
AcDbTrace
  10
45
  20
7
  30
0
  11
47.478612
  21
7.326315
  31
0
  12
47.478612
  22
6.673685
  32
0
  13
47.478612
  23
6.673685
  33
0
  0
SOLID
  5
118
  330
113
  100
AcDbEntity
  8
2
  100
AcDbTrace
  10
36.2
  20
7
  30
0
  11
33.721388
  21
6.673685
  31
0
  12
33.721388
  22
7.326315
  32
0
  13
33.721388
  23
7.326315
  33
0
  0
MTEXT
  5
119
  330
113
  100
AcDbEntity
  8
2
  100
AcDbMText
  10
40.6
  20
7
  30
0
  11
1
  21
-0
  31
0
  40
2
  41
0
  71
8
  72
1
  1
8.8
  0
POINT
  5
11a
  330
113
  100
AcDbEntity
  8
2
  62
0
  100
AcDbPoint
  10
45
  20
14
  30
0
  0
POINT
  5
11b
  330
113
  100
AcDbEntity
  8
2
  62
0
  100
AcDbPoint
  10
36.2
  20
2
  30
0
  0
POINT
  5
11c
  330
113
  100
AcDbEntity
  8
2
  62
0
  100
AcDbPoint
  10
36.2
  20
7
  30
0
  0
ENDBLK
  5
11d
  330
113
  100
AcDbEntity
  8
2
  100
AcDbBlockEnd
  0
BLOCK
  5
11f
  330
121
  100
AcDbEntity
  8
2
  100
AcDbBlockBegin
  2
*D120
  70
1
  10
0
  20
0
  30
0
  3
*D120
  1

  0
LINE
  5
122
  330
121
  100
AcDbEntity
  8
2
  100
AcDbLine
  10
45
  20
-7.238525
  30
0
  11
45
  21
-0.5
  31
0
  0
LINE
  5
123
  330
121
  100
AcDbEntity
  8
2
  100
AcDbLine
  10
43.5
  20
-7.238525
  30
0
  11
43.5
  21
-0.475
  31
0
  0
LINE
  5
124
  330
121
  100
AcDbEntity
  8
2
  100
AcDbLine
  10
45
  20
-5.238525
  30
0
  11
39.634901
  21
-5.238525
  31
0
  0
SOLID
  5
125
  330
121
  100
AcDbEntity
  8
2
  100
AcDbTrace
  10
45
  20
-5.238525
  30
0
  11
47.478612
  21
-4.91221
  31
0
  12
47.478612
  22
-5.564841
  32
0
  13
47.478612
  23
-5.564841
  33
0
  0
SOLID
  5
126
  330
121
  100
AcDbEntity
  8
2
  100
AcDbTrace
  10
43.5
  20
-5.238525
  30
0
  11
41.021388
  21
-5.564841
  31
0
  12
41.021388
  22
-4.91221
  32
0
  13
41.021388
  23
-4.91221
  33
0
  0
MTEXT
  5
127
  330
121
  100
AcDbEntity
  8
2
  100
AcDbMText
  10
44.25
  20
-5.238525
  30
0
  11
1
  21
-0
  31
0
  40
2
  41
0
  71
8
  72
1
  1
1.5
  0
POINT
  5
128
  330
121
  100
AcDbEntity
  8
2
  62
0
  100
AcDbPoint
  10
45
  20
-0.5
  30
0
  0
POINT
  5
129
  330
121
  100
AcDbEntity
  8
2
  62
0
  100
AcDbPoint
  10
43.5
  20
-0.475
  30
0
  0
POINT
  5
12a
  330
121
  100
AcDbEntity
  8
2
  62
0
  100
AcDbPoint
  10
39.634901
  20
-5.238525
  30
0
  0
ENDBLK
  5
12b
  330
121
  100
AcDbEntity
  8
2
  100
AcDbBlockEnd
  0
ENDSEC
  0
SECTION
  2
ENTITIES
  0
DIMENSION
  5
ca
  100
AcDbEntity
  8
SK2
  100
AcDbDimension
  2
*Dbe
  10
45
  20
12
  30
0
  11
22.5
  21
12
  31
0
  70
160
  1
<>
  71
5
  3
STANDARD
  42
45
  100
AcDbAlignedDimension
  13
0
  23
1.3
  33
0
  14
45
  24
0.5
  34
0
  50
0
  100
AcDbRotatedDimension
  0
DIMENSION
  5
d8
  100
AcDbEntity
  8
SK2
  100
AcDbDimension
  2
*Dcc
  10
36.2
  20
7.037689
  30
0
  11
18.1
  21
7.037689
  31
0
  70
160
  1
<>
  71
5
  3
STANDARD
  42
36.2
  100
AcDbAlignedDimension
  13
0
  23
1.3
  33
0
  14
36.2
  24
2
  34
0
  50
0
  100
AcDbRotatedDimension
  0
DIMENSION
  5
e6
  100
AcDbEntity
  8
SK2
  100
AcDbDimension
  2
*Dda
  10
55
  20
0.5
  30
0
  11
55
  21
0
  31
0
  70
160
  1
%%c<>
  71
5
  3
STANDARD
  42
1
  100
AcDbAlignedDimension
  13
45
  23
-0.5
  33
0
  14
45
  24
0.5
  34
0
  50
-90
  100
AcDbRotatedDimension
  0
DIMENSION
  5
f4
  100
AcDbEntity
  8
SK2
  100
AcDbDimension
  2
*De8
  10
-10
  20
2
  30
0
  11
-10
  21
0
  31
0
  70
160
  1
%%c<>
  71
5
  3
STANDARD
  42
4
  100
AcDbAlignedDimension
  13
0.7
  23
-2
  33
0
  14
0.7
  24
2
  34
0
  50
-90
  100
AcDbRotatedDimension
  0
DIMENSION
  5
102
  100
AcDbEntity
  8
2
  100
AcDbDimension
  2
*Df6
  10
43.5
  20
8.836634
  30
0
  11
43.5
  21
0.475
  31
0
  70
160
  1
%%c<>
  71
5
  3
STANDARD
  42
0.95
  100
AcDbAlignedDimension
  13
41.5
  23
-0.475
  33
0
  14
41.5
  24
0.475
  34
0
  50
-90
  100
AcDbRotatedDimension
  0
DIMENSION
  5
110
  100
AcDbEntity
  8
2
  100
AcDbDimension
  2
*D104
  10
30.278465
  20
7
  30
0
  11
36.75507
  21
7
  31
0
  70
160
  1
<>
  71
5
  3
STANDARD
  42
1.28
  100
AcDbAlignedDimension
  13
43.5
  23
0.475
  33
0
  14
42.22
  24
0.475
  34
0
  50
0
  100
AcDbRotatedDimension
  0
DIMENSION
  5
11e
  100
AcDbEntity
  8
2
  100
AcDbDimension
  2
*D112
  10
36.2
  20
7
  30
0
  11
40.6
  21
7
  31
0
  70
160
  1
<>
  71
5
  3
STANDARD
  42
8.8
  100
AcDbAlignedDimension
  13
45
  23
14
  33
0
  14
36.2
  24
2
  34
0
  50
0
  100
AcDbRotatedDimension
  0
DIMENSION
  5
12c
  100
AcDbEntity
  8
2
  100
AcDbDimension
  2
*D120
  10
39.634901
  20
-5.238525
  30
0
  11
44.25
  21
-5.238525
  31
0
  70
160
  1
<>
  71
5
  3
STANDARD
  42
1.5
  100
AcDbAlignedDimension
  13
45
  23
-0.5
  33
0
  14
43.5
  24
-0.475
  34
0
  50
0
  100
AcDbRotatedDimension
  0
LINE
  5
36
  100
AcDbEntity
  8
1
  100
AcDbLine
  10
36.2
  20
-2
  30
0
  11
36.2
  21
2
  31
0
  0
LINE
  5
37
  100
AcDbEntity
  8
1
  100
AcDbLine
  10
36.2
  20
2
  30
0
  11
36.2
  21
-2
  31
0
  0
LINE
  5
38
  100
AcDbEntity
  8
1
  100
AcDbLine
  10
36.39697
  20
-2
  30
0
  11
36.39697
  21
2
  31
0
  0
LINE
  5
39
  100
AcDbEntity
  8
1
  100
AcDbLine
  10
43.4
  20
0.475
  30
0
  11
43.4
  21
0.294596
  31
0
  0
LINE
  5
3a
  100
AcDbEntity
  8
1
  100
AcDbLine
  10
43.4
  20
0.294596
  30
0
  11
43.5
  21
0.234207
  31
0
  0
LINE
  5
3b
  100
AcDbEntity
  8
1
  100
AcDbLine
  10
43.5
  20
0.234207
  30
0
  11
43.5
  21
0.244228
  31
0
  0
LINE
  5
3c
  100
AcDbEntity
  8
1
  100
AcDbLine
  10
43.5
  20
0.244228
  30
0
  11
43.6
  21
0.192335
  31
0
  0
LINE
  5
3d
  100
AcDbEntity
  8
1
  100
AcDbLine
  10
43.6
  20
0.192335
  30
0
  11
43.7
  21
0.13788
  31
0
  0
LINE
  5
3e
  100
AcDbEntity
  8
1
  100
AcDbLine
  10
43.7
  20
0.13788
  30
0
  11
43.8
  21
0.081589
  31
0
  0
LINE
  5
3f
  100
AcDbEntity
  8
1
  100
AcDbLine
  10
43.8
  20
0.081589
  30
0
  11
43.9
  21
0.024211
  31
0
  0
LINE
  5
40
  100
AcDbEntity
  8
1
  100
AcDbLine
  10
43.9
  20
0.024211
  30
0
  11
44
  21
-0.03349
  31
0
  0
LINE
  5
41
  100
AcDbEntity
  8
1
  100
AcDbLine
  10
44
  20
-0.03349
  30
0
  11
44.1
  21
-0.090744
  31
0
  0
LINE
  5
42
  100
AcDbEntity
  8
1
  100
AcDbLine
  10
44.1
  20
-0.090744
  30
0
  11
44.2
  21
-0.14679
  31
0
  0
LINE
  5
43
  100
AcDbEntity
  8
1
  100
AcDbLine
  10
44.2
  20
-0.14679
  30
0
  11
44.3
  21
-0.200881
  31
0
  0
LINE
  5
44
  100
AcDbEntity
  8
1
  100
AcDbLine
  10
44.3
  20
-0.200881
  30
0
  11
44.4
  21
-0.252296
  31
0
  0
LINE
  5
45
  100
AcDbEntity
  8
1
  100
AcDbLine
  10
44.4
  20
-0.252296
  30
0
  11
44.5
  21
-0.300352
  31
0
  0
LINE
  5
46
  100
AcDbEntity
  8
1
  100
AcDbLine
  10
44.5
  20
-0.300352
  30
0
  11
44.6
  21
-0.344406
  31
0
  0
LINE
  5
47
  100
AcDbEntity
  8
1
  100
AcDbLine
  10
44.6
  20
-0.344406
  30
0
  11
44.7
  21
-0.383874
  31
0
  0
LINE
  5
48
  100
AcDbEntity
  8
1
  100
AcDbLine
  10
44.7
  20
-0.383874
  30
0
  11
44.8
  21
-0.41823
  31
0
  0
LINE
  5
49
  100
AcDbEntity
  8
1
  100
AcDbLine
  10
44.8
  20
-0.41823
  30
0
  11
44.9
  21
-0.447015
  31
0
  0
LINE
  5
4a
  100
AcDbEntity
  8
1
  100
AcDbLine
  10
44.9
  20
-0.447015
  30
0
  11
45
  21
-0.469846
  31
0
  0
LINE
  5
4b
  100
AcDbEntity
  8
1
  100
AcDbLine
  10
45
  20
-0.491318
  30
0
  11
44.9
  21
-0.482373
  31
0
  0
LINE
  5
4c
  100
AcDbEntity
  8
1
  100
AcDbLine
  10
44.9
  20
-0.482373
  30
0
  11
44.8
  21
-0.467003
  31
0
  0
LINE
  5
4d
  100
AcDbEntity
  8
1
  100
AcDbLine
  10
44.8
  20
-0.467003
  30
0
  11
44.7
  21
-0.445414
  31
0
  0
LINE
  5
4e
  100
AcDbEntity
  8
1
  100
AcDbLine
  10
44.7
  20
-0.445414
  30
0
  11
44.6
  21
-0.417892
  31
0
  0
LINE
  5
4f
  100
AcDbEntity
  8
1
  100
AcDbLine
  10
44.6
  20
-0.417892
  30
0
  11
44.5
  21
-0.384805
  31
0
  0
LINE
  5
50
  100
AcDbEntity
  8
1
  100
AcDbLine
  10
44.5
  20
-0.384805
  30
0
  11
44.4
  21
-0.346593
  31
0
  0
LINE
  5
51
  100
AcDbEntity
  8
1
  100
AcDbLine
  10
44.4
  20
-0.346593
  30
0
  11
44.3
  21
-0.303765
  31
0
  0
LINE
  5
52
  100
AcDbEntity
  8
1
  100
AcDbLine
  10
44.3
  20
-0.303765
  30
0
  11
44.2
  21
-0.25689
  31
0
  0
LINE
  5
53
  100
AcDbEntity
  8
1
  100
AcDbLine
  10
44.2
  20
-0.25689
  30
0
  11
44.1
  21
-0.206595
  31
0
  0
LINE
  5
54
  100
AcDbEntity
  8
1
  100
AcDbLine
  10
44.1
  20
-0.206595
  30
0
  11
44
  21
-0.153548
  31
0
  0
LINE
  5
55
  100
AcDbEntity
  8
1
  100
AcDbLine
  10
44
  20
-0.153548
  30
0
  11
43.9
  21
-0.098456
  31
0
  0
LINE
  5
56
  100
AcDbEntity
  8
1
  100
AcDbLine
  10
43.9
  20
-0.098456
  30
0
  11
43.8
  21
-0.042053
  31
0
  0
LINE
  5
57
  100
AcDbEntity
  8
1
  100
AcDbLine
  10
43.8
  20
-0.042053
  30
0
  11
43.7
  21
0.014911
  31
0
  0
LINE
  5
58
  100
AcDbEntity
  8
1
  100
AcDbLine
  10
43.7
  20
0.014911
  30
0
  11
43.6
  21
0.071676
  31
0
  0
LINE
  5
59
  100
AcDbEntity
  8
1
  100
AcDbLine
  10
43.5
  20
-0.5
  30
0
  11
43.5
  21
0.5
  31
0
  0
LINE
  5
5a
  100
AcDbEntity
  8
1
  100
AcDbLine
  10
43.5
  20
0.475
  30
0
  11
43.5
  21
-0.475
  31
0
  0
LINE
  5
5b
  100
AcDbEntity
  8
1
  100
AcDbLine
  10
43.4
  20
-0.475
  30
0
  11
43.4
  21
0.132888
  31
0
  0
LINE
  5
5c
  100
AcDbEntity
  8
1
  100
AcDbLine
  10
43.4
  20
0.132888
  30
0
  11
43.5
  21
0.079732
  31
0
  0
LINE
  5
5d
  100
AcDbEntity
  8
1
  100
AcDbLine
  10
43.5
  20
0.079732
  30
0
  11
43.5
  21
0.080278
  31
0
  0
LINE
  5
5e
  100
AcDbEntity
  8
1
  100
AcDbLine
  10
43.5
  20
0.080278
  30
0
  11
43.6
  21
0.022884
  31
0
  0
LINE
  5
5f
  100
AcDbEntity
  8
1
  100
AcDbLine
  10
43.6
  20
0.022884
  30
0
  11
43.7
  21
-0.034815
  31
0
  0
LINE
  5
60
  100
AcDbEntity
  8
1
  100
AcDbLine
  10
43.7
  20
-0.034815
  30
0
  11
43.8
  21
-0.09205
  31
0
  0
LINE
  5
61
  100
AcDbEntity
  8
1
  100
AcDbLine
  10
43.8
  20
-0.09205
  30
0
  11
43.9
  21
-0.148059
  31
0
  0
LINE
  5
62
  100
AcDbEntity
  8
1
  100
AcDbLine
  10
43.9
  20
-0.148059
  30
0
  11
44
  21
-0.202096
  31
0
  0
LINE
  5
63
  100
AcDbEntity
  8
1
  100
AcDbLine
  10
44
  20
-0.202096
  30
0
  11
44.1
  21
-0.253442
  31
0
  0
LINE
  5
64
  100
AcDbEntity
  8
1
  100
AcDbLine
  10
44.1
  20
-0.253442
  30
0
  11
44.2
  21
-0.301412
  31
0
  0
LINE
  5
65
  100
AcDbEntity
  8
1
  100
AcDbLine
  10
44.2
  20
-0.301412
  30
0
  11
44.3
  21
-0.345368
  31
0
  0
LINE
  5
66
  100
AcDbEntity
  8
1
  100
AcDbLine
  10
44.3
  20
-0.345368
  30
0
  11
44.4
  21
-0.384724
  31
0
  0
LINE
  5
67
  100
AcDbEntity
  8
1
  100
AcDbLine
  10
44.4
  20
-0.384724
  30
0
  11
44.5
  21
-0.418956
  31
0
  0
LINE
  5
68
  100
AcDbEntity
  8
1
  100
AcDbLine
  10
44.5
  20
-0.418956
  30
0
  11
44.6
  21
-0.447608
  31
0
  0
LINE
  5
69
  100
AcDbEntity
  8
1
  100
AcDbLine
  10
44.6
  20
-0.447608
  30
0
  11
44.7
  21
-0.470299
  31
0
  0
LINE
  5
6a
  100
AcDbEntity
  8
1
  100
AcDbLine
  10
44.7
  20
-0.470299
  30
0
  11
44.8
  21
-0.486726
  31
0
  0
LINE
  5
6b
  100
AcDbEntity
  8
1
  100
AcDbLine
  10
44.8
  20
-0.486726
  30
0
  11
44.9
  21
-0.49667
  31
0
  0
LINE
  5
6c
  100
AcDbEntity
  8
1
  100
AcDbLine
  10
44.9
  20
-0.49667
  30
0
  11
45
  21
-0.5
  31
0
  0
LINE
  5
6d
  100
AcDbEntity
  8
1
  100
AcDbLine
  10
45
  20
-0.5
  30
0
  11
45
  21
0
  31
0
  0
LINE
  5
6e
  100
AcDbEntity
  8
1
  100
AcDbLine
  10
45
  20
0
  30
0
  11
45
  21
0.5
  31
0
  0
LINE
  5
6f
  100
AcDbEntity
  8
1
  100
AcDbLine
  10
45
  20
0.5
  30
0
  11
43.5
  21
0.5
  31
0
  0
LINE
  5
70
  100
AcDbEntity
  8
1
  100
AcDbLine
  10
43.5
  20
0.5
  30
0
  11
43.5
  21
0.475
  31
0
  0
LINE
  5
71
  100
AcDbEntity
  8
1
  100
AcDbLine
  10
43.5
  20
0.475
  30
0
  11
42.22
  21
0.475
  31
0
  0
ARC
  5
72
  100
AcDbEntity
  8
1
  100
AcDbCircle
  10
42.22
  20
1.475
  30
0
  40
1
  100
AcDbArc
  50
255
  51
270
  0
LINE
  5
73
  100
AcDbEntity
  8
1
  100
AcDbLine
  10
41.961181
  20
0.509074
  30
0
  11
36.39697
  21
2
  31
0
  0
LINE
  5
74
  100
AcDbEntity
  8
1
  100
AcDbLine
  10
36.39697
  20
2
  30
0
  11
36.2
  21
2
  31
0
  0
LINE
  5
75
  100
AcDbEntity
  8
1
  100
AcDbLine
  10
36.2
  20
2
  30
0
  11
36.2
  21
-2
  31
0
  0
LINE
  5
76
  100
AcDbEntity
  8
1
  100
AcDbLine
  10
36.2
  20
-2
  30
0
  11
36.39697
  21
-2
  31
0
  0
LINE
  5
77
  100
AcDbEntity
  8
1
  100
AcDbLine
  10
36.39697
  20
-2
  30
0
  11
41.961181
  21
-0.509074
  31
0
  0
LINE
  5
78
  100
AcDbEntity
  8
1
  100
AcDbLine
  10
41.961181
  20
-0.509074
  30
0
  11
41.961181
  21
0.509074
  31
0
  0
LINE
  5
79
  100
AcDbEntity
  8
1
  100
AcDbLine
  10
42.22
  20
0.475
  30
0
  11
42.22
  21
-0.475
  31
0
  0
ARC
  5
7a
  100
AcDbEntity
  8
1
  100
AcDbCircle
  10
42.22
  20
-1.475
  30
0
  40
1
  100
AcDbArc
  50
90
  51
105
  0
LINE
  5
7b
  100
AcDbEntity
  8
1
  100
AcDbLine
  10
42.22
  20
-0.475
  30
0
  11
43.5
  21
-0.475
  31
0
  0
LINE
  5
7c
  100
AcDbEntity
  8
1
  100
AcDbLine
  10
43.5
  20
-0.475
  30
0
  11
43.5
  21
-0.5
  31
0
  0
LINE
  5
7d
  100
AcDbEntity
  8
1
  100
AcDbLine
  10
43.5
  20
-0.5
  30
0
  11
45
  21
-0.5
  31
0
  0
LINE
  5
7e
  100
AcDbEntity
  8
1
  100
AcDbLine
  10
45
  20
-0.5
  30
0
  11
45
  21
0.5
  31
0
  0
LINE
  5
7f
  100
AcDbEntity
  8
SK1
  100
AcDbLine
  10
36.2
  20
2
  30
0
  11
0.7
  21
2
  31
0
  0
LINE
  5
80
  100
AcDbEntity
  8
SK1
  100
AcDbLine
  10
0.7
  20
2
  30
0
  11
0
  21
1.3
  31
0
  0
LINE
  5
81
  100
AcDbEntity
  8
SK1
  100
AcDbLine
  10
36.2
  20
-2
  30
0
  11
0.7
  21
-2
  31
0
  0
LINE
  5
82
  100
AcDbEntity
  8
SK1
  100
AcDbLine
  10
0.7
  20
-2
  30
0
  11
0
  21
-1.3
  31
0
  0
LINE
  5
83
  100
AcDbEntity
  8
SK1
  100
AcDbLine
  10
0.7
  20
2
  30
0
  11
0.7
  21
-2
  31
0
  0
LINE
  5
84
  100
AcDbEntity
  8
SK1
  100
AcDbLine
  10
0
  20
1.3
  30
0
  11
0
  21
-1.3
  31
0
  0
LINE
  5
85
  100
AcDbEntity
  8
SK1
  100
AcDbLine
  10
37.2401
  20
1.40688
  30
0
  11
37.6069
  21
1.0401
  31
0
  0
LINE
  5
86
  100
AcDbEntity
  8
SK1
  100
AcDbLine
  10
36.7328
  20
1.66666
  30
0
  11
37.8667
  21
0.532833
  31
0
  0
LINE
  5
87
  100
AcDbEntity
  8
SK1
  100
AcDbLine
  10
36.4154
  20
1.73657
  30
0
  11
37.9366
  21
0.215434
  31
0
  0
LINE
  5
88
  100
AcDbEntity
  8
SK1
  100
AcDbLine
  10
36.2
  20
1.70452
  30
0
  11
37.9045
  21
0
  31
0
  0
LINE
  5
89
  100
AcDbEntity
  8
SK1
  100
AcDbLine
  10
36.2
  20
1.45703
  30
0
  11
37.657
  21
0
  31
0
  0
LINE
  5
8a
  100
AcDbEntity
  8
SK1
  100
AcDbLine
  10
36.2
  20
1.20954
  30
0
  11
37.4095
  21
0
  31
0
  0
LINE
  5
8b
  100
AcDbEntity
  8
SK1
  100
AcDbLine
  10
36.2
  20
0.962054
  30
0
  11
37.1621
  21
0
  31
0
  0
LINE
  5
8c
  100
AcDbEntity
  8
SK1
  100
AcDbLine
  10
36.2
  20
0.714566
  30
0
  11
36.9146
  21
0
  31
0
  0
LINE
  5
8d
  100
AcDbEntity
  8
SK1
  100
AcDbLine
  10
36.2
  20
0.467079
  30
0
  11
36.6671
  21
0
  31
0
  0
LINE
  5
8e
  100
AcDbEntity
  8
SK1
  100
AcDbLine
  10
36.2
  20
0.219592
  30
0
  11
36.4196
  21
0
  31
0
  0
LINE
  5
8f
  100
AcDbEntity
  8
SK1
  100
AcDbLine
  10
36.2
  20
1.70452
  30
0
  11
36.2441
  21
1.74861
  31
0
  0
LINE
  5
90
  100
AcDbEntity
  8
SK1
  100
AcDbLine
  10
36.2
  20
1.45703
  30
0
  11
36.471
  21
1.72802
  31
0
  0
LINE
  5
91
  100
AcDbEntity
  8
SK1
  100
AcDbLine
  10
36.2
  20
1.20954
  30
0
  11
36.6742
  21
1.6837
  31
0
  0
LINE
  5
92
  100
AcDbEntity
  8
SK1
  100
AcDbLine
  10
36.2
  20
0.962054
  30
0
  11
36.8588
  21
1.62082
  31
0
  0
LINE
  5
93
  100
AcDbEntity
  8
SK1
  100
AcDbLine
  10
36.2
  20
0.714566
  30
0
  11
37.0271
  21
1.54167
  31
0
  0
LINE
  5
94
  100
AcDbEntity
  8
SK1
  100
AcDbLine
  10
36.2
  20
0.467079
  30
0
  11
37.181
  21
1.44812
  31
0
  0
LINE
  5
95
  100
AcDbEntity
  8
SK1
  100
AcDbLine
  10
36.2
  20
0.219592
  30
0
  11
37.3226
  21
1.34216
  31
0
  0
LINE
  5
96
  100
AcDbEntity
  8
SK1
  100
AcDbLine
  10
36.2279
  20
0
  30
0
  11
37.4508
  21
1.22288
  31
0
  0
LINE
  5
97
  100
AcDbEntity
  8
SK1
  100
AcDbLine
  10
36.4754
  20
0
  30
0
  11
37.567
  21
1.09157
  31
0
  0
LINE
  5
98
  100
AcDbEntity
  8
SK1
  100
AcDbLine
  10
36.7229
  20
0
  30
0
  11
37.6707
  21
0.947822
  31
0
  0
LINE
  5
99
  100
AcDbEntity
  8
SK1
  100
AcDbLine
  10
36.9704
  20
0
  30
0
  11
37.7605
  21
0.790145
  31
0
  0
LINE
  5
9a
  100
AcDbEntity
  8
SK1
  100
AcDbLine
  10
37.2178
  20
0
  30
0
  11
37.8364
  21
0.618517
  31
0
  0
LINE
  5
9b
  100
AcDbEntity
  8
SK1
  100
AcDbLine
  10
37.4653
  20
0
  30
0
  11
37.896
  21
0.430696
  31
0
  0
LINE
  5
9c
  100
AcDbEntity
  8
SK1
  100
AcDbLine
  10
37.7128
  20
0
  30
0
  11
37.9356
  21
0.222827
  31
0
  0
LINE
  5
9d
  100
AcDbEntity
  8
SK1
  100
AcDbLine
  10
36.2
  20
0
  30
0
  11
36.2
  21
1.75
  31
0
  0
LINE
  5
9e
  100
AcDbEntity
  8
SK1
  100
AcDbLine
  10
36.2
  20
0
  30
0
  11
37.95
  21
0
  31
0
  0
ARC
  5
9f
  100
AcDbEntity
  8
SK1
  100
AcDbCircle
  10
36.2
  20
0
  30
0
  40
1.75
  100
AcDbArc
  50
0
  51
90
  0
ARC
  5
a0
  100
AcDbEntity
  8
SK1
  100
AcDbCircle
  10
36.2
  20
0
  30
0
  40
1.75
  100
AcDbArc
  50
90
  51
180
  0
LINE
  5
a1
  100
AcDbEntity
  8
SK1
  100
AcDbLine
  10
36.1721
  20
0
  30
0
  11
36.2
  21
-0.027896
  31
0
  0
LINE
  5
a2
  100
AcDbEntity
  8
SK1
  100
AcDbLine
  10
35.9246
  20
0
  30
0
  11
36.2
  21
-0.275383
  31
0
  0
LINE
  5
a3
  100
AcDbEntity
  8
SK1
  100
AcDbLine
  10
35.6771
  20
0
  30
0
  11
36.2
  21
-0.522871
  31
0
  0
LINE
  5
a4
  100
AcDbEntity
  8
SK1
  100
AcDbLine
  10
35.4296
  20
0
  30
0
  11
36.2
  21
-0.770358
  31
0
  0
LINE
  5
a5
  100
AcDbEntity
  8
SK1
  100
AcDbLine
  10
35.1822
  20
0
  30
0
  11
36.2
  21
-1.01785
  31
0
  0
LINE
  5
a6
  100
AcDbEntity
  8
SK1
  100
AcDbLine
  10
34.9347
  20
0
  30
0
  11
36.2
  21
-1.26533
  31
0
  0
LINE
  5
a7
  100
AcDbEntity
  8
SK1
  100
AcDbLine
  10
34.6872
  20
0
  30
0
  11
36.2
  21
-1.51282
  31
0
  0
LINE
  5
a8
  100
AcDbEntity
  8
SK1
  100
AcDbLine
  10
34.4503
  20
-0.010642
  30
0
  11
36.1894
  21
-1.74967
  31
0
  0
LINE
  5
a9
  100
AcDbEntity
  8
SK1
  100
AcDbLine
  10
34.4736
  20
-0.281429
  30
0
  11
35.9186
  21
-1.72637
  31
0
  0
LINE
  5
aa
  100
AcDbEntity
  8
SK1
  100
AcDbLine
  10
34.5639
  20
-0.619147
  30
0
  11
35.5809
  21
-1.63613
  31
0
  0
LINE
  5
ab
  100
AcDbEntity
  8
SK1
  100
AcDbLine
  10
34.4514
  20
-0.044098
  30
0
  11
34.4955
  21
0
  31
0
  0
LINE
  5
ac
  100
AcDbEntity
  8
SK1
  100
AcDbLine
  10
34.472
  20
-0.270991
  30
0
  11
34.743
  21
0
  31
0
  0
LINE
  5
ad
  100
AcDbEntity
  8
SK1
  100
AcDbLine
  10
34.5163
  20
-0.474162
  30
0
  11
34.9905
  21
0
  31
0
  0
LINE
  5
ae
  100
AcDbEntity
  8
SK1
  100
AcDbLine
  10
34.5792
  20
-0.658762
  30
0
  11
35.2379
  21
0
  31
0
  0
LINE
  5
af
  100
AcDbEntity
  8
SK1
  100
AcDbLine
  10
34.6583
  20
-0.827105
  30
0
  11
35.4854
  21
0
  31
0
  0
LINE
  5
b0
  100
AcDbEntity
  8
SK1
  100
AcDbLine
  10
34.7519
  20
-0.981039
  30
0
  11
35.7329
  21
0
  31
0
  0
LINE
  5
b1
  100
AcDbEntity
  8
SK1
  100
AcDbLine
  10
34.8578
  20
-1.12257
  30
0
  11
35.9804
  21
0
  31
0
  0
LINE
  5
b2
  100
AcDbEntity
  8
SK1
  100
AcDbLine
  10
34.9771
  20
-1.25077
  30
0
  11
36.2
  21
-0.027896
  31
0
  0
LINE
  5
b3
  100
AcDbEntity
  8
SK1
  100
AcDbLine
  10
35.1084
  20
-1.36695
  30
0
  11
36.2
  21
-0.275383
  31
0
  0
LINE
  5
b4
  100
AcDbEntity
  8
SK1
  100
AcDbLine
  10
35.2522
  20
-1.47069
  30
0
  11
36.2
  21
-0.522871
  31
0
  0
LINE
  5
b5
  100
AcDbEntity
  8
SK1
  100
AcDbLine
  10
35.4099
  20
-1.5605
  30
0
  11
36.2
  21
-0.770358
  31
0
  0
LINE
  5
b6
  100
AcDbEntity
  8
SK1
  100
AcDbLine
  10
35.5815
  20
-1.63636
  30
0
  11
36.2
  21
-1.01785
  31
0
  0
LINE
  5
b7
  100
AcDbEntity
  8
SK1
  100
AcDbLine
  10
35.7693
  20
-1.69603
  30
0
  11
36.2
  21
-1.26533
  31
0
  0
LINE
  5
b8
  100
AcDbEntity
  8
SK1
  100
AcDbLine
  10
35.9772
  20
-1.73565
  30
0
  11
36.2
  21
-1.51282
  31
0
  0
LINE
  5
b9
  100
AcDbEntity
  8
SK1
  100
AcDbLine
  10
36.2
  20
0
  30
0
  11
34.45
  21
0
  31
0
  0
LINE
  5
ba
  100
AcDbEntity
  8
SK1
  100
AcDbLine
  10
36.2
  20
-1.75
  30
0
  11
36.2
  21
0
  31
0
  0
ARC
  5
bb
  100
AcDbEntity
  8
SK1
  100
AcDbCircle
  10
36.2
  20
0
  30
0
  40
1.75
  100
AcDbArc
  50
180
  51
270
  0
ARC
  5
bc
  100
AcDbEntity
  8
SK1
  100
AcDbCircle
  10
36.2
  20
0
  30
0
  40
1.75
  100
AcDbArc
  50
270
  51
0
  0
LINE
  5
12d
  100
AcDbEntity
  8
NOCUT
  100
AcDbLine
  10
43.5
  20
0
  30
0
  11
43.5
  21
0.475
  31
0
  0
LINE
  5
12e
  100
AcDbEntity
  8
NOCUT
  100
AcDbLine
  10
43.5
  20
0.475
  30
0
  11
42.22
  21
0.475
  31
0
  0
ARC
  5
12f
  100
AcDbEntity
  8
NOCUT
  100
AcDbCircle
  10
42.22
  20
1.475
  30
0
  40
1
  100
AcDbArc
  50
255
  51
270
  0
LINE
  5
130
  100
AcDbEntity
  8
NOCUT
  100
AcDbLine
  10
41.961181
  20
0.509074
  30
0
  11
36.39697
  21
2
  31
0
  0
LINE
  5
131
  100
AcDbEntity
  8
NOCUT
  100
AcDbLine
  10
36.39697
  20
2
  30
0
  11
36.2
  21
2
  31
0
  0
LINE
  5
132
  100
AcDbEntity
  8
NOCUT
  100
AcDbLine
  10
36.2
  20
2
  30
0
  11
36.2
  21
0
  31
0
  0
LINE
  5
133
  100
AcDbEntity
  8
NOCUT
  100
AcDbLine
  10
36.2
  20
0
  30
0
  11
43.5
  21
0
  31
0
  0
LINE
  5
134
  100
AcDbEntity
  8
CUT
  100
AcDbLine
  10
45
  20
0
  30
0
  11
45
  21
0.5
  31
0
  0
LINE
  5
135
  100
AcDbEntity
  8
CUT
  100
AcDbLine
  10
45
  20
0.5
  30
0
  11
43.5
  21
0.5
  31
0
  0
LINE
  5
136
  100
AcDbEntity
  8
CUT
  100
AcDbLine
  10
43.5
  20
0.5
  30
0
  11
43.5
  21
0
  31
0
  0
LINE
  5
137
  100
AcDbEntity
  8
CUT
  100
AcDbLine
  10
43.5
  20
0
  30
0
  11
45
  21
0
  31
0
  0
LINE
  5
138
  100
AcDbEntity
  8
4
  100
AcDbLine
  10
36.2
  20
0
  30
0
  11
45
  21
0
  31
0
  0
LINE
  5
139
  100
AcDbEntity
  8
SK4
  100
AcDbLine
  10
-1
  20
0
  30
0
  11
46
  21
0
  31
0
  0
LINE
  5
13a
  100
AcDbEntity
  8
INFTOTAL
  100
AcDbLine
  10
-15.45
  20
17.45
  30
0
  11
60.45
  21
17.45
  31
0
  0
LINE
  5
13b
  100
AcDbEntity
  8
INFTOTAL
  100
AcDbLine
  10
60.45
  20
17.45
  30
0
  11
60.45
  21
-10.688525
  31
0
  0
LINE
  5
13c
  100
AcDbEntity
  8
INFTOTAL
  100
AcDbLine
  10
60.45
  20
-10.688525
  30
0
  11
-15.45
  21
-10.688525
  31
0
  0
LINE
  5
13d
  100
AcDbEntity
  8
INFTOTAL
  100
AcDbLine
  10
-15.45
  20
-10.688525
  30
0
  11
-15.45
  21
17.45
  31
0
  0
ENDSEC
  0
SECTION
  2
OBJECTS
  0
DICTIONARY
  5
13e
  330
0
100
AcDbDictionary
281
    1
  3
ACAD_GROUP
  350
13f
  0
DICTIONARY
  5
13f
102
{ACAD_REACTORS
  330
13e
102
}
  330
13e
100
AcDbDictionary
281
    1
  0
ENDSEC
  0
EOF
