  0
SECTION
  2
HEADER
  9
$ACADVER
  1
AC1015
  9
$DWGCODEPAGE
  3
ANSI_932
  9
$HANDSEED
  5
106AB90
  0
ENDSEC
  0
SECTION
  2
CLASSES
  0
CLASS
  1
IMAGEDEF
  2
AcDbRasterImageDef
  3
ISM
  90
0
  91
4
  280
0
  281
0
  0
CLASS
  1
IMAGE
  2
AcDbRasterImage
  3
ISM
  90
127
  91
5
  280
0
  281
1
  0
CLASS
  1
IMAGEDEF_REACTOR
  2
AcDbRasterImageDefReactor
  3
ISM
  90
1
  91
4
  280
0
  281
0
  0
ENDSEC
  0
SECTION
  2
TABLES
  0
TABLE
  2
VPORT
  5
2
  330
0
  100
AcDbSymbolTable
  70
    0
  0
ENDTAB
  0
TABLE
  2
LTYPE
  5
3
  330
0
  100
AcDbSymbolTable
  70
    4
  0
LTYPE
  5
4
  330
3
  100
AcDbSymbolTableRecord
  100
AcDbLinetypeTableRecord
  2
ByBlock
  70
    0
  3

  72
65
  73
    0
  40
0
  0
LTYPE
  5
5
  330
3
  100
AcDbSymbolTableRecord
  100
AcDbLinetypeTableRecord
  2
ByLayer
  70
    0
  3

  72
65
  73
    0
  40
0
  0
LTYPE
  5
6
  330
3
  100
AcDbSymbolTableRecord
  100
AcDbLinetypeTableRecord
  2
CONTINUOUS
  70
    0
  3
Solid Line
  72
65
  73
    0
  40
0
  0
LTYPE
  5
7
  330
3
  100
AcDbSymbolTableRecord
  100
AcDbLinetypeTableRecord
  2
DASH
  70
    0
  3
Hidden
  72
65
  73
2
  40
2.5
  49
1.5
  74
0
  49
-1
  74
0
  0
LTYPE
  5
8
  330
3
  100
AcDbSymbolTableRecord
  100
AcDbLinetypeTableRecord
  2
LONGDASHDASH
  70
    0
  3
__ . __
  72
65
  73
    4
  40
7
  49
4
  74
    0
  49
-1
  74
    0
  49
1
  74
    0
  49
-1
  74
    0
  0
ENDTAB
  0
TABLE
  2
LAYER
  5
9
  330
0
  100
AcDbSymbolTable
  70
    40
  0
LAYER
  5
a
  330
9
  100
AcDbSymbolTableRecord
  100
AcDbLayerTableRecord
  2
0
  70
    0
  62
    0
  6
CONTINUOUS
  390
0
  0
LAYER
  5
c
  330
9
  100
AcDbSymbolTableRecord
  100
AcDbLayerTableRecord
  2
1
  70
    0
  62
    4
  6
CONTINUOUS
  370
50
  390
0
  0
LAYER
  5
d
  330
9
  100
AcDbSymbolTableRecord
  100
AcDbLayerTableRecord
  2
2
  70
    0
  62
    7
  6
CONTINUOUS
  370
25
  390
0
  0
LAYER
  5
f
  330
9
  100
AcDbSymbolTableRecord
  100
AcDbLayerTableRecord
  2
4
  70
    0
  62
    2
  6
LONGDASHDASH
  370
25
  390
0
  0
LAYER
  5
13
  330
9
  100
AcDbSymbolTableRecord
  100
AcDbLayerTableRecord
  2
SK1
  70
    0
  62
    4
  6
CONTINUOUS
  370
50
  390
0
  0
LAYER
  5
14
  330
9
  100
AcDbSymbolTableRecord
  100
AcDbLayerTableRecord
  2
SK2
  70
    0
  62
    7
  6
CONTINUOUS
  370
25
  390
0
  0
LAYER
  5
16
  330
9
  100
AcDbSymbolTableRecord
  100
AcDbLayerTableRecord
  2
SK4
  70
    0
  62
    2
  6
LONGDASHDASH
  370
25
  390
0
  0
LAYER
  5
21
  330
9
  100
AcDbSymbolTableRecord
  100
AcDbLayerTableRecord
  2
NOCUT
  70
    0
  62
    7
  6
CONTINUOUS
  370
25
  390
0
  0
LAYER
  5
22
  330
9
  100
AcDbSymbolTableRecord
  100
AcDbLayerTableRecord
  2
CUT
  70
    0
  62
    1
  6
CONTINUOUS
  370
25
  390
0
  0
LAYER
  5
26
  330
9
  100
AcDbSymbolTableRecord
  100
AcDbLayerTableRecord
  2
INFTOTAL
  70
    0
  62
    9
  6
CONTINUOUS
  370
18
  390
0
  0
ENDTAB
  0
TABLE
  2
STYLE
  5
27
  330
0
  100
AcDbSymbolTable
  70
    1
  0
STYLE
  5
28
  330
27
  100
AcDbSymbolTableRecord
  100
AcDbTextStyleTableRecord
  2
Monospac821 BT
  70
    0
  40
    3.5
  41
1
  50
0
  71
0
  42
3
  3

  4

  1001
ACAD
  1000
Monospac821 BT
  1071
256
  0
ENDTAB
  0
TABLE
  2
VIEW
  5
29
  330
0
  100
AcDbSymbolTable
  70
    0
  0
ENDTAB
  0
TABLE
  2
UCS
  5
2a
  330
0
  100
AcDbSymbolTable
  70
    0
  0
ENDTAB
  0
TABLE
  2
APPID
  5
2b
  330
0
  100
AcDbSymbolTable
  70
    1
  0
APPID
  5
2c
  330
2b
  100
AcDbSymbolTableRecord
  100
AcDbRegAppTableRecord
  2
ACAD
  70
    0
  0
ENDTAB
  0
TABLE
  2
DIMSTYLE
  5
2d
  330
0
  100
AcDbSymbolTable
  70
    1
  100
AcDbDimStyleTable
  0
DIMSTYLE
  105
2e
  330
2d
  100
AcDbSymbolTableRecord
  100
AcDbDimStyleTableRecord
  2
STANDARD
  70
    0
  41
    3
  42
0.5
  44
1
  73
0
  77
1
  78
1
  140
3.5
  141
2.5
  143
0.03937
  147
0.8
  172
1
  174
1
  178
0
  179
1
  271
2
  279
1
  284
1
  340
28
  0
ENDTAB
  0
TABLE
  2
BLOCK_RECORD
  5
2f
  330
0
  100
AcDbSymbolTable
  70
    2
  0
BLOCK_RECORD
  5
30
  330
2f
  100
AcDbSymbolTableRecord
  100
AcDbBlockTableRecord
  2
*Model_Space
  0
BLOCK_RECORD
  5
31
  330
2f
  100
AcDbSymbolTableRecord
  100
AcDbBlockTableRecord
  2
*Paper_Space
  0
BLOCK_RECORD
  5
d3
  330
2f
  100
AcDbSymbolTableRecord
  100
AcDbBlockTableRecord
  2
*Dd2
  340
0
  0
BLOCK_RECORD
  5
e1
  330
2f
  100
AcDbSymbolTableRecord
  100
AcDbBlockTableRecord
  2
*De0
  340
0
  0
BLOCK_RECORD
  5
ef
  330
2f
  100
AcDbSymbolTableRecord
  100
AcDbBlockTableRecord
  2
*Dee
  340
0
  0
BLOCK_RECORD
  5
fd
  330
2f
  100
AcDbSymbolTableRecord
  100
AcDbBlockTableRecord
  2
*Dfc
  340
0
  0
BLOCK_RECORD
  5
10b
  330
2f
  100
AcDbSymbolTableRecord
  100
AcDbBlockTableRecord
  2
*D10a
  340
0
  0
BLOCK_RECORD
  5
119
  330
2f
  100
AcDbSymbolTableRecord
  100
AcDbBlockTableRecord
  2
*D118
  340
0
  0
BLOCK_RECORD
  5
127
  330
2f
  100
AcDbSymbolTableRecord
  100
AcDbBlockTableRecord
  2
*D126
  340
0
  0
BLOCK_RECORD
  5
135
  330
2f
  100
AcDbSymbolTableRecord
  100
AcDbBlockTableRecord
  2
*D134
  340
0
  0
ENDTAB
  0
ENDSEC
  0
SECTION
  2
BLOCKS
  0
BLOCK
  5
32
  330
30
  100
AcDbEntity
  8
0
  100
AcDbBlockBegin
  2
*Model_Space
  70
    0
  10
0
  20
0
  30
0
  3
*Model_Space
  1

  0
ENDBLK
  5
33
  330
30
  100
AcDbEntity
  8
0
  100
AcDbBlockEnd
  0
BLOCK
  5
34
  330
31
  100
AcDbEntity
  8
0
  100
AcDbBlockBegin
  2
*Paper_Space
  70
    0
  10
0
  20
0
  30
0
  3
*Paper_Space
  1

  0
ENDBLK
  5
35
  330
31
  100
AcDbEntity
  8
0
  100
AcDbBlockEnd
  0
BLOCK
  5
d1
  330
d3
  100
AcDbEntity
  8
SK2
  100
AcDbBlockBegin
  2
*Dd2
  70
1
  10
0
  20
0
  30
0
  3
*Dd2
  1

  0
LINE
  5
d4
  330
d3
  100
AcDbEntity
  8
SK2
  100
AcDbLine
  10
0
  20
1.3
  30
0
  11
0
  21
14
  31
0
  0
LINE
  5
d5
  330
d3
  100
AcDbEntity
  8
SK2
  100
AcDbLine
  10
50
  20
0.7
  30
0
  11
50
  21
14
  31
0
  0
LINE
  5
d6
  330
d3
  100
AcDbEntity
  8
SK2
  100
AcDbLine
  10
0
  20
12
  30
0
  11
50
  21
12
  31
0
  0
SOLID
  5
d7
  330
d3
  100
AcDbEntity
  8
SK2
  100
AcDbTrace
  10
0
  20
12
  30
0
  11
2.478612
  21
12.326315
  31
0
  12
2.478612
  22
11.673685
  32
0
  13
2.478612
  23
11.673685
  33
0
  0
SOLID
  5
d8
  330
d3
  100
AcDbEntity
  8
SK2
  100
AcDbTrace
  10
50
  20
12
  30
0
  11
47.521388
  21
11.673685
  31
0
  12
47.521388
  22
12.326315
  32
0
  13
47.521388
  23
12.326315
  33
0
  0
MTEXT
  5
d9
  330
d3
  100
AcDbEntity
  8
SK2
  100
AcDbMText
  10
25
  20
12
  30
0
  11
1
  21
0
  31
0
  40
2
  41
0
  71
8
  72
1
  1
50
  0
POINT
  5
da
  330
d3
  100
AcDbEntity
  8
SK2
  62
0
  100
AcDbPoint
  10
0
  20
1.3
  30
0
  0
POINT
  5
db
  330
d3
  100
AcDbEntity
  8
SK2
  62
0
  100
AcDbPoint
  10
50
  20
0.7
  30
0
  0
POINT
  5
dc
  330
d3
  100
AcDbEntity
  8
SK2
  62
0
  100
AcDbPoint
  10
50
  20
12
  30
0
  0
ENDBLK
  5
dd
  330
d3
  100
AcDbEntity
  8
SK2
  100
AcDbBlockEnd
  0
BLOCK
  5
df
  330
e1
  100
AcDbEntity
  8
SK2
  100
AcDbBlockBegin
  2
*De0
  70
1
  10
0
  20
0
  30
0
  3
*De0
  1

  0
LINE
  5
e2
  330
e1
  100
AcDbEntity
  8
SK2
  100
AcDbLine
  10
0
  20
1.3
  30
0
  11
0
  21
9.037689
  31
0
  0
LINE
  5
e3
  330
e1
  100
AcDbEntity
  8
SK2
  100
AcDbLine
  10
30.8
  20
2
  30
0
  11
30.8
  21
9.037689
  31
0
  0
LINE
  5
e4
  330
e1
  100
AcDbEntity
  8
SK2
  100
AcDbLine
  10
0
  20
7.037689
  30
0
  11
30.8
  21
7.037689
  31
0
  0
SOLID
  5
e5
  330
e1
  100
AcDbEntity
  8
SK2
  100
AcDbTrace
  10
0
  20
7.037689
  30
0
  11
2.478612
  21
7.364004
  31
0
  12
2.478612
  22
6.711373
  32
0
  13
2.478612
  23
6.711373
  33
0
  0
SOLID
  5
e6
  330
e1
  100
AcDbEntity
  8
SK2
  100
AcDbTrace
  10
30.8
  20
7.037689
  30
0
  11
28.321388
  21
6.711373
  31
0
  12
28.321388
  22
7.364004
  32
0
  13
28.321388
  23
7.364004
  33
0
  0
MTEXT
  5
e7
  330
e1
  100
AcDbEntity
  8
SK2
  100
AcDbMText
  10
15.4
  20
7.037689
  30
0
  11
1
  21
0
  31
0
  40
2
  41
0
  71
8
  72
1
  1
30.8
  0
POINT
  5
e8
  330
e1
  100
AcDbEntity
  8
SK2
  62
0
  100
AcDbPoint
  10
0
  20
1.3
  30
0
  0
POINT
  5
e9
  330
e1
  100
AcDbEntity
  8
SK2
  62
0
  100
AcDbPoint
  10
30.8
  20
2
  30
0
  0
POINT
  5
ea
  330
e1
  100
AcDbEntity
  8
SK2
  62
0
  100
AcDbPoint
  10
30.8
  20
7.037689
  30
0
  0
ENDBLK
  5
eb
  330
e1
  100
AcDbEntity
  8
SK2
  100
AcDbBlockEnd
  0
BLOCK
  5
ed
  330
ef
  100
AcDbEntity
  8
SK2
  100
AcDbBlockBegin
  2
*Dee
  70
1
  10
0
  20
0
  30
0
  3
*Dee
  1

  0
LINE
  5
f0
  330
ef
  100
AcDbEntity
  8
SK2
  100
AcDbLine
  10
0.7
  20
-2
  30
0
  11
-12
  21
-2
  31
0
  0
LINE
  5
f1
  330
ef
  100
AcDbEntity
  8
SK2
  100
AcDbLine
  10
0.7
  20
2
  30
0
  11
-12
  21
2
  31
0
  0
LINE
  5
f2
  330
ef
  100
AcDbEntity
  8
SK2
  100
AcDbLine
  10
-10
  20
-4.158416
  30
0
  11
-10
  21
2
  31
0
  0
SOLID
  5
f3
  330
ef
  100
AcDbEntity
  8
SK2
  100
AcDbTrace
  10
-10
  20
-2
  30
0
  11
-10.326315
  21
0.478612
  31
0
  12
-9.673685
  22
0.478612
  32
0
  13
-9.673685
  23
0.478612
  33
0
  0
SOLID
  5
f4
  330
ef
  100
AcDbEntity
  8
SK2
  100
AcDbTrace
  10
-10
  20
2
  30
0
  11
-9.673685
  21
-0.478612
  31
0
  12
-10.326315
  22
-0.478612
  32
0
  13
-10.326315
  23
-0.478612
  33
0
  0
MTEXT
  5
f5
  330
ef
  100
AcDbEntity
  8
SK2
  100
AcDbMText
  10
-10
  20
0
  30
0
  11
0
  21
1
  31
0
  40
2
  41
0
  71
8
  72
1
  1
ﾘ4
  0
POINT
  5
f6
  330
ef
  100
AcDbEntity
  8
SK2
  62
0
  100
AcDbPoint
  10
0.7
  20
-2
  30
0
  0
POINT
  5
f7
  330
ef
  100
AcDbEntity
  8
SK2
  62
0
  100
AcDbPoint
  10
0.7
  20
2
  30
0
  0
POINT
  5
f8
  330
ef
  100
AcDbEntity
  8
SK2
  62
0
  100
AcDbPoint
  10
-10
  20
2
  30
0
  0
ENDBLK
  5
f9
  330
ef
  100
AcDbEntity
  8
SK2
  100
AcDbBlockEnd
  0
BLOCK
  5
fb
  330
fd
  100
AcDbEntity
  8
2
  100
AcDbBlockBegin
  2
*Dfc
  70
1
  10
0
  20
0
  30
0
  3
*Dfc
  1

  0
LINE
  5
fe
  330
fd
  100
AcDbEntity
  8
2
  100
AcDbLine
  10
50
  20
-0.7
  30
0
  11
62
  21
-0.7
  31
0
  0
LINE
  5
ff
  330
fd
  100
AcDbEntity
  8
2
  100
AcDbLine
  10
50
  20
0.7
  30
0
  11
62
  21
0.7
  31
0
  0
LINE
  5
100
  330
fd
  100
AcDbEntity
  8
2
  100
AcDbLine
  10
60
  20
-6.757426
  30
0
  11
60
  21
0.7
  31
0
  0
SOLID
  5
101
  330
fd
  100
AcDbEntity
  8
2
  100
AcDbTrace
  10
60
  20
-0.7
  30
0
  11
59.673685
  21
1.778612
  31
0
  12
60.326315
  22
1.778612
  32
0
  13
60.326315
  23
1.778612
  33
0
  0
SOLID
  5
102
  330
fd
  100
AcDbEntity
  8
2
  100
AcDbTrace
  10
60
  20
0.7
  30
0
  11
60.326315
  21
-1.778612
  31
0
  12
59.673685
  22
-1.778612
  32
0
  13
59.673685
  23
-1.778612
  33
0
  0
MTEXT
  5
103
  330
fd
  100
AcDbEntity
  8
2
  100
AcDbMText
  10
60
  20
0
  30
0
  11
0
  21
1
  31
0
  40
2
  41
0
  71
8
  72
1
  1
ﾘ1.4
  0
POINT
  5
104
  330
fd
  100
AcDbEntity
  8
2
  62
0
  100
AcDbPoint
  10
50
  20
-0.7
  30
0
  0
POINT
  5
105
  330
fd
  100
AcDbEntity
  8
2
  62
0
  100
AcDbPoint
  10
50
  20
0.7
  30
0
  0
POINT
  5
106
  330
fd
  100
AcDbEntity
  8
2
  62
0
  100
AcDbPoint
  10
60
  20
0.7
  30
0
  0
ENDBLK
  5
107
  330
fd
  100
AcDbEntity
  8
2
  100
AcDbBlockEnd
  0
BLOCK
  5
109
  330
10b
  100
AcDbEntity
  8
2
  100
AcDbBlockBegin
  2
*D10a
  70
1
  10
0
  20
0
  30
0
  3
*D10a
  1

  0
LINE
  5
10c
  330
10b
  100
AcDbEntity
  8
2
  100
AcDbLine
  10
47.9
  20
-0.675
  30
0
  11
45.9
  21
-0.675
  31
0
  0
LINE
  5
10d
  330
10b
  100
AcDbEntity
  8
2
  100
AcDbLine
  10
47.9
  20
0.675
  30
0
  11
45.9
  21
0.675
  31
0
  0
LINE
  5
10e
  330
10b
  100
AcDbEntity
  8
2
  100
AcDbLine
  10
47.9
  20
-0.675
  30
0
  11
47.9
  21
9.096535
  31
0
  0
SOLID
  5
10f
  330
10b
  100
AcDbEntity
  8
2
  100
AcDbTrace
  10
47.9
  20
-0.675
  30
0
  11
47.573685
  21
1.803612
  31
0
  12
48.226315
  22
1.803612
  32
0
  13
48.226315
  23
1.803612
  33
0
  0
SOLID
  5
110
  330
10b
  100
AcDbEntity
  8
2
  100
AcDbTrace
  10
47.9
  20
0.675
  30
0
  11
48.226315
  21
-1.803612
  31
0
  12
47.573685
  22
-1.803612
  32
0
  13
47.573685
  23
-1.803612
  33
0
  0
MTEXT
  5
111
  330
10b
  100
AcDbEntity
  8
2
  100
AcDbMText
  10
47.9
  20
0.675
  30
0
  11
0
  21
1
  31
0
  40
2
  41
0
  71
8
  72
1
  1
ﾘ1.35
  0
POINT
  5
112
  330
10b
  100
AcDbEntity
  8
2
  62
0
  100
AcDbPoint
  10
45.9
  20
-0.675
  30
0
  0
POINT
  5
113
  330
10b
  100
AcDbEntity
  8
2
  62
0
  100
AcDbPoint
  10
45.9
  20
0.675
  30
0
  0
POINT
  5
114
  330
10b
  100
AcDbEntity
  8
2
  62
0
  100
AcDbPoint
  10
47.9
  20
9.096535
  30
0
  0
ENDBLK
  5
115
  330
10b
  100
AcDbEntity
  8
2
  100
AcDbBlockEnd
  0
BLOCK
  5
117
  330
119
  100
AcDbEntity
  8
2
  100
AcDbBlockBegin
  2
*D118
  70
1
  10
0
  20
0
  30
0
  3
*D118
  1

  0
LINE
  5
11a
  330
119
  100
AcDbEntity
  8
2
  100
AcDbLine
  10
47.9
  20
0.675
  30
0
  11
47.9
  21
9
  31
0
  0
LINE
  5
11b
  330
119
  100
AcDbEntity
  8
2
  100
AcDbLine
  10
36.39
  20
0.675
  30
0
  11
36.39
  21
9
  31
0
  0
LINE
  5
11c
  330
119
  100
AcDbEntity
  8
2
  100
AcDbLine
  10
47.9
  20
7
  30
0
  11
36.39
  21
7
  31
0
  0
SOLID
  5
11d
  330
119
  100
AcDbEntity
  8
2
  100
AcDbTrace
  10
47.9
  20
7
  30
0
  11
50.378612
  21
7.326315
  31
0
  12
50.378612
  22
6.673685
  32
0
  13
50.378612
  23
6.673685
  33
0
  0
SOLID
  5
11e
  330
119
  100
AcDbEntity
  8
2
  100
AcDbTrace
  10
36.39
  20
7
  30
0
  11
33.911388
  21
6.673685
  31
0
  12
33.911388
  22
7.326315
  32
0
  13
33.911388
  23
7.326315
  33
0
  0
MTEXT
  5
11f
  330
119
  100
AcDbEntity
  8
2
  100
AcDbMText
  10
41.15507
  20
7
  30
0
  11
1
  21
-0
  31
0
  40
2
  41
0
  71
8
  72
1
  1
11.51
  0
POINT
  5
120
  330
119
  100
AcDbEntity
  8
2
  62
0
  100
AcDbPoint
  10
47.9
  20
0.675
  30
0
  0
POINT
  5
121
  330
119
  100
AcDbEntity
  8
2
  62
0
  100
AcDbPoint
  10
36.39
  20
0.675
  30
0
  0
POINT
  5
122
  330
119
  100
AcDbEntity
  8
2
  62
0
  100
AcDbPoint
  10
36.39
  20
7
  30
0
  0
ENDBLK
  5
123
  330
119
  100
AcDbEntity
  8
2
  100
AcDbBlockEnd
  0
BLOCK
  5
125
  330
127
  100
AcDbEntity
  8
2
  100
AcDbBlockBegin
  2
*D126
  70
1
  10
0
  20
0
  30
0
  3
*D126
  1

  0
LINE
  5
128
  330
127
  100
AcDbEntity
  8
2
  100
AcDbLine
  10
50
  20
0.7
  30
0
  11
50
  21
14
  31
0
  0
LINE
  5
129
  330
127
  100
AcDbEntity
  8
2
  100
AcDbLine
  10
30.8
  20
2
  30
0
  11
30.8
  21
9
  31
0
  0
LINE
  5
12a
  330
127
  100
AcDbEntity
  8
2
  100
AcDbLine
  10
50
  20
7
  30
0
  11
30.8
  21
7
  31
0
  0
SOLID
  5
12b
  330
127
  100
AcDbEntity
  8
2
  100
AcDbTrace
  10
50
  20
7
  30
0
  11
52.478612
  21
7.326315
  31
0
  12
52.478612
  22
6.673685
  32
0
  13
52.478612
  23
6.673685
  33
0
  0
SOLID
  5
12c
  330
127
  100
AcDbEntity
  8
2
  100
AcDbTrace
  10
30.8
  20
7
  30
0
  11
28.321388
  21
6.673685
  31
0
  12
28.321388
  22
7.326315
  32
0
  13
28.321388
  23
7.326315
  33
0
  0
MTEXT
  5
12d
  330
127
  100
AcDbEntity
  8
2
  100
AcDbMText
  10
40.4
  20
7
  30
0
  11
1
  21
-0
  31
0
  40
2
  41
0
  71
8
  72
1
  1
19.2
  0
POINT
  5
12e
  330
127
  100
AcDbEntity
  8
2
  62
0
  100
AcDbPoint
  10
50
  20
14
  30
0
  0
POINT
  5
12f
  330
127
  100
AcDbEntity
  8
2
  62
0
  100
AcDbPoint
  10
30.8
  20
2
  30
0
  0
POINT
  5
130
  330
127
  100
AcDbEntity
  8
2
  62
0
  100
AcDbPoint
  10
30.8
  20
7
  30
0
  0
ENDBLK
  5
131
  330
127
  100
AcDbEntity
  8
2
  100
AcDbBlockEnd
  0
BLOCK
  5
133
  330
135
  100
AcDbEntity
  8
2
  100
AcDbBlockBegin
  2
*D134
  70
1
  10
0
  20
0
  30
0
  3
*D134
  1

  0
LINE
  5
136
  330
135
  100
AcDbEntity
  8
2
  100
AcDbLine
  10
50
  20
-7.238525
  30
0
  11
50
  21
-0.7
  31
0
  0
LINE
  5
137
  330
135
  100
AcDbEntity
  8
2
  100
AcDbLine
  10
47.9
  20
-7.238525
  30
0
  11
47.9
  21
-0.675
  31
0
  0
LINE
  5
138
  330
135
  100
AcDbEntity
  8
2
  100
AcDbLine
  10
50
  20
-5.238525
  30
0
  11
44.313119
  21
-5.238525
  31
0
  0
SOLID
  5
139
  330
135
  100
AcDbEntity
  8
2
  100
AcDbTrace
  10
50
  20
-5.238525
  30
0
  11
52.478612
  21
-4.91221
  31
0
  12
52.478612
  22
-5.564841
  32
0
  13
52.478612
  23
-5.564841
  33
0
  0
SOLID
  5
13a
  330
135
  100
AcDbEntity
  8
2
  100
AcDbTrace
  10
47.9
  20
-5.238525
  30
0
  11
45.421388
  21
-5.564841
  31
0
  12
45.421388
  22
-4.91221
  32
0
  13
45.421388
  23
-4.91221
  33
0
  0
MTEXT
  5
13b
  330
135
  100
AcDbEntity
  8
2
  100
AcDbMText
  10
48.95
  20
-5.238525
  30
0
  11
1
  21
-0
  31
0
  40
2
  41
0
  71
8
  72
1
  1
2.1
  0
POINT
  5
13c
  330
135
  100
AcDbEntity
  8
2
  62
0
  100
AcDbPoint
  10
50
  20
-0.7
  30
0
  0
POINT
  5
13d
  330
135
  100
AcDbEntity
  8
2
  62
0
  100
AcDbPoint
  10
47.9
  20
-0.675
  30
0
  0
POINT
  5
13e
  330
135
  100
AcDbEntity
  8
2
  62
0
  100
AcDbPoint
  10
44.313119
  20
-5.238525
  30
0
  0
ENDBLK
  5
13f
  330
135
  100
AcDbEntity
  8
2
  100
AcDbBlockEnd
  0
ENDSEC
  0
SECTION
  2
ENTITIES
  0
DIMENSION
  5
de
  100
AcDbEntity
  8
SK2
  100
AcDbDimension
  2
*Dd2
  10
50
  20
12
  30
0
  11
25
  21
12
  31
0
  70
160
  1
<>
  71
5
  3
STANDARD
  42
50
  100
AcDbAlignedDimension
  13
0
  23
1.3
  33
0
  14
50
  24
0.7
  34
0
  50
0
  100
AcDbRotatedDimension
  0
DIMENSION
  5
ec
  100
AcDbEntity
  8
SK2
  100
AcDbDimension
  2
*De0
  10
30.8
  20
7.037689
  30
0
  11
15.4
  21
7.037689
  31
0
  70
160
  1
<>
  71
5
  3
STANDARD
  42
30.8
  100
AcDbAlignedDimension
  13
0
  23
1.3
  33
0
  14
30.8
  24
2
  34
0
  50
0
  100
AcDbRotatedDimension
  0
DIMENSION
  5
fa
  100
AcDbEntity
  8
SK2
  100
AcDbDimension
  2
*Dee
  10
-10
  20
2
  30
0
  11
-10
  21
0
  31
0
  70
160
  1
%%c<>
  71
5
  3
STANDARD
  42
4
  100
AcDbAlignedDimension
  13
0.7
  23
-2
  33
0
  14
0.7
  24
2
  34
0
  50
-90
  100
AcDbRotatedDimension
  0
DIMENSION
  5
108
  100
AcDbEntity
  8
2
  100
AcDbDimension
  2
*Dfc
  10
60
  20
0.7
  30
0
  11
60
  21
0
  31
0
  70
160
  1
%%c<>
  71
5
  3
STANDARD
  42
1.4
  100
AcDbAlignedDimension
  13
50
  23
-0.7
  33
0
  14
50
  24
0.7
  34
0
  50
-90
  100
AcDbRotatedDimension
  0
DIMENSION
  5
116
  100
AcDbEntity
  8
2
  100
AcDbDimension
  2
*D10a
  10
47.9
  20
9.096535
  30
0
  11
47.9
  21
0.675
  31
0
  70
160
  1
%%c<>
  71
5
  3
STANDARD
  42
1.35
  100
AcDbAlignedDimension
  13
45.9
  23
-0.675
  33
0
  14
45.9
  24
0.675
  34
0
  50
-90
  100
AcDbRotatedDimension
  0
DIMENSION
  5
124
  100
AcDbEntity
  8
2
  100
AcDbDimension
  2
*D118
  10
36.39
  20
7
  30
0
  11
41.15507
  21
7
  31
0
  70
160
  1
<>
  71
5
  3
STANDARD
  42
11.51
  100
AcDbAlignedDimension
  13
47.9
  23
0.675
  33
0
  14
36.39
  24
0.675
  34
0
  50
0
  100
AcDbRotatedDimension
  0
DIMENSION
  5
132
  100
AcDbEntity
  8
2
  100
AcDbDimension
  2
*D126
  10
30.8
  20
7
  30
0
  11
40.4
  21
7
  31
0
  70
160
  1
<>
  71
5
  3
STANDARD
  42
19.2
  100
AcDbAlignedDimension
  13
50
  23
14
  33
0
  14
30.8
  24
2
  34
0
  50
0
  100
AcDbRotatedDimension
  0
DIMENSION
  5
140
  100
AcDbEntity
  8
2
  100
AcDbDimension
  2
*D134
  10
44.313119
  20
-5.238525
  30
0
  11
48.95
  21
-5.238525
  31
0
  70
160
  1
<>
  71
5
  3
STANDARD
  42
2.1
  100
AcDbAlignedDimension
  13
50
  23
-0.7
  33
0
  14
47.9
  24
-0.675
  34
0
  50
0
  100
AcDbRotatedDimension
  0
LINE
  5
36
  100
AcDbEntity
  8
1
  100
AcDbLine
  10
30.8
  20
-2
  30
0
  11
30.8
  21
2
  31
0
  0
LINE
  5
37
  100
AcDbEntity
  8
1
  100
AcDbLine
  10
30.8
  20
2
  30
0
  11
30.8
  21
-2
  31
0
  0
LINE
  5
38
  100
AcDbEntity
  8
1
  100
AcDbLine
  10
31.050075
  20
-2
  30
0
  11
31.050075
  21
2
  31
0
  0
LINE
  5
39
  100
AcDbEntity
  8
1
  100
AcDbLine
  10
47.7
  20
0.675
  30
0
  11
47.7
  21
0.568465
  31
0
  0
LINE
  5
3a
  100
AcDbEntity
  8
1
  100
AcDbLine
  10
47.7
  20
0.568465
  30
0
  11
47.8
  21
0.382001
  31
0
  0
LINE
  5
3b
  100
AcDbEntity
  8
1
  100
AcDbLine
  10
47.8
  20
0.382001
  30
0
  11
47.9
  21
0.331899
  31
0
  0
LINE
  5
3c
  100
AcDbEntity
  8
1
  100
AcDbLine
  10
47.9
  20
0.331899
  30
0
  11
47.9
  21
0.34192
  31
0
  0
LINE
  5
3d
  100
AcDbEntity
  8
1
  100
AcDbLine
  10
47.9
  20
0.34192
  30
0
  11
48
  21
0.290436
  31
0
  0
LINE
  5
3e
  100
AcDbEntity
  8
1
  100
AcDbLine
  10
48
  20
0.290436
  30
0
  11
48.1
  21
0.236977
  31
0
  0
LINE
  5
3f
  100
AcDbEntity
  8
1
  100
AcDbLine
  10
48.1
  20
0.236977
  30
0
  11
48.2
  21
0.181907
  31
0
  0
LINE
  5
40
  100
AcDbEntity
  8
1
  100
AcDbLine
  10
48.2
  20
0.181907
  30
0
  11
48.3
  21
0.1256
  31
0
  0
LINE
  5
41
  100
AcDbEntity
  8
1
  100
AcDbLine
  10
48.3
  20
0.1256
  30
0
  11
48.4
  21
0.06844
  31
0
  0
LINE
  5
42
  100
AcDbEntity
  8
1
  100
AcDbLine
  10
48.4
  20
0.06844
  30
0
  11
48.5
  21
0.010814
  31
0
  0
LINE
  5
43
  100
AcDbEntity
  8
1
  100
AcDbLine
  10
48.5
  20
0.010814
  30
0
  11
48.6
  21
-0.046886
  31
0
  0
LINE
  5
44
  100
AcDbEntity
  8
1
  100
AcDbLine
  10
48.6
  20
-0.046886
  30
0
  11
48.7
  21
-0.104267
  31
0
  0
LINE
  5
45
  100
AcDbEntity
  8
1
  100
AcDbLine
  10
48.7
  20
-0.104267
  30
0
  11
48.8
  21
-0.160938
  31
0
  0
LINE
  5
46
  100
AcDbEntity
  8
1
  100
AcDbLine
  10
48.8
  20
-0.160938
  30
0
  11
48.9
  21
-0.216516
  31
0
  0
LINE
  5
47
  100
AcDbEntity
  8
1
  100
AcDbLine
  10
48.9
  20
-0.216516
  30
0
  11
49
  21
-0.270621
  31
0
  0
LINE
  5
48
  100
AcDbEntity
  8
1
  100
AcDbLine
  10
49
  20
-0.270621
  30
0
  11
49.1
  21
-0.322887
  31
0
  0
LINE
  5
49
  100
AcDbEntity
  8
1
  100
AcDbLine
  10
49.1
  20
-0.322887
  30
0
  11
49.2
  21
-0.372957
  31
0
  0
LINE
  5
4a
  100
AcDbEntity
  8
1
  100
AcDbLine
  10
49.2
  20
-0.372957
  30
0
  11
49.3
  21
-0.420492
  31
0
  0
LINE
  5
4b
  100
AcDbEntity
  8
1
  100
AcDbLine
  10
49.3
  20
-0.420492
  30
0
  11
49.4
  21
-0.465168
  31
0
  0
LINE
  5
4c
  100
AcDbEntity
  8
1
  100
AcDbLine
  10
49.4
  20
-0.465168
  30
0
  11
49.5
  21
-0.506681
  31
0
  0
LINE
  5
4d
  100
AcDbEntity
  8
1
  100
AcDbLine
  10
49.5
  20
-0.506681
  30
0
  11
49.6
  21
-0.544749
  31
0
  0
LINE
  5
4e
  100
AcDbEntity
  8
1
  100
AcDbLine
  10
49.6
  20
-0.544749
  30
0
  11
49.7
  21
-0.579114
  31
0
  0
LINE
  5
4f
  100
AcDbEntity
  8
1
  100
AcDbLine
  10
49.7
  20
-0.579114
  30
0
  11
49.8
  21
-0.609541
  31
0
  0
LINE
  5
50
  100
AcDbEntity
  8
1
  100
AcDbLine
  10
49.8
  20
-0.609541
  30
0
  11
49.9
  21
-0.635825
  31
0
  0
LINE
  5
51
  100
AcDbEntity
  8
1
  100
AcDbLine
  10
49.9
  20
-0.635825
  30
0
  11
50
  21
-0.657785
  31
0
  0
LINE
  5
52
  100
AcDbEntity
  8
1
  100
AcDbLine
  10
50
  20
-0.687845
  30
0
  11
49.9
  21
-0.679827
  31
0
  0
LINE
  5
53
  100
AcDbEntity
  8
1
  100
AcDbLine
  10
49.9
  20
-0.679827
  30
0
  11
49.8
  21
-0.667187
  31
0
  0
LINE
  5
54
  100
AcDbEntity
  8
1
  100
AcDbLine
  10
49.8
  20
-0.667187
  30
0
  11
49.7
  21
-0.650012
  31
0
  0
LINE
  5
55
  100
AcDbEntity
  8
1
  100
AcDbLine
  10
49.7
  20
-0.650012
  30
0
  11
49.6
  21
-0.628416
  31
0
  0
LINE
  5
56
  100
AcDbEntity
  8
1
  100
AcDbLine
  10
49.6
  20
-0.628416
  30
0
  11
49.5
  21
-0.602549
  31
0
  0
LINE
  5
57
  100
AcDbEntity
  8
1
  100
AcDbLine
  10
49.5
  20
-0.602549
  30
0
  11
49.4
  21
-0.572584
  31
0
  0
LINE
  5
58
  100
AcDbEntity
  8
1
  100
AcDbLine
  10
49.4
  20
-0.572584
  30
0
  11
49.3
  21
-0.538727
  31
0
  0
LINE
  5
59
  100
AcDbEntity
  8
1
  100
AcDbLine
  10
49.3
  20
-0.538727
  30
0
  11
49.2
  21
-0.501207
  31
0
  0
LINE
  5
5a
  100
AcDbEntity
  8
1
  100
AcDbLine
  10
49.2
  20
-0.501207
  30
0
  11
49.1
  21
-0.46028
  31
0
  0
LINE
  5
5b
  100
AcDbEntity
  8
1
  100
AcDbLine
  10
49.1
  20
-0.46028
  30
0
  11
49
  21
-0.416223
  31
0
  0
LINE
  5
5c
  100
AcDbEntity
  8
1
  100
AcDbLine
  10
49
  20
-0.416223
  30
0
  11
48.9
  21
-0.369336
  31
0
  0
LINE
  5
5d
  100
AcDbEntity
  8
1
  100
AcDbLine
  10
48.9
  20
-0.369336
  30
0
  11
48.8
  21
-0.319938
  31
0
  0
LINE
  5
5e
  100
AcDbEntity
  8
1
  100
AcDbLine
  10
48.8
  20
-0.319938
  30
0
  11
48.7
  21
-0.268365
  31
0
  0
LINE
  5
5f
  100
AcDbEntity
  8
1
  100
AcDbLine
  10
48.7
  20
-0.268365
  30
0
  11
48.6
  21
-0.214967
  31
0
  0
LINE
  5
60
  100
AcDbEntity
  8
1
  100
AcDbLine
  10
48.6
  20
-0.214967
  30
0
  11
48.5
  21
-0.160108
  31
0
  0
LINE
  5
61
  100
AcDbEntity
  8
1
  100
AcDbLine
  10
48.5
  20
-0.160108
  30
0
  11
48.4
  21
-0.10416
  31
0
  0
LINE
  5
62
  100
AcDbEntity
  8
1
  100
AcDbLine
  10
48.4
  20
-0.10416
  30
0
  11
48.3
  21
-0.047504
  31
0
  0
LINE
  5
63
  100
AcDbEntity
  8
1
  100
AcDbLine
  10
48.3
  20
-0.047504
  30
0
  11
48.2
  21
0.009475
  31
0
  0
LINE
  5
64
  100
AcDbEntity
  8
1
  100
AcDbLine
  10
48.2
  20
0.009475
  30
0
  11
48.1
  21
0.066389
  31
0
  0
LINE
  5
65
  100
AcDbEntity
  8
1
  100
AcDbLine
  10
48.1
  20
0.066389
  30
0
  11
48
  21
0.122852
  31
0
  0
LINE
  5
66
  100
AcDbEntity
  8
1
  100
AcDbLine
  10
47.9
  20
-0.7
  30
0
  11
47.9
  21
0.7
  31
0
  0
LINE
  5
67
  100
AcDbEntity
  8
1
  100
AcDbLine
  10
47.9
  20
0.675
  30
0
  11
47.9
  21
-0.675
  31
0
  0
LINE
  5
68
  100
AcDbEntity
  8
1
  100
AcDbLine
  10
47.7
  20
-0.675
  30
0
  11
47.7
  21
0.192852
  31
0
  0
LINE
  5
69
  100
AcDbEntity
  8
1
  100
AcDbLine
  10
47.7
  20
0.192852
  30
0
  11
47.8
  21
0.166298
  31
0
  0
LINE
  5
6a
  100
AcDbEntity
  8
1
  100
AcDbLine
  10
47.8
  20
0.166298
  30
0
  11
47.9
  21
0.111843
  31
0
  0
LINE
  5
6b
  100
AcDbEntity
  8
1
  100
AcDbLine
  10
47.9
  20
0.111843
  30
0
  11
47.9
  21
0.11239
  31
0
  0
LINE
  5
6c
  100
AcDbEntity
  8
1
  100
AcDbLine
  10
47.9
  20
0.11239
  30
0
  11
48
  21
0.055086
  31
0
  0
LINE
  5
6d
  100
AcDbEntity
  8
1
  100
AcDbLine
  10
48
  20
0.055086
  30
0
  11
48.1
  21
-0.002592
  31
0
  0
LINE
  5
6e
  100
AcDbEntity
  8
1
  100
AcDbLine
  10
48.1
  20
-0.002592
  30
0
  11
48.2
  21
-0.060252
  31
0
  0
LINE
  5
6f
  100
AcDbEntity
  8
1
  100
AcDbLine
  10
48.2
  20
-0.060252
  30
0
  11
48.3
  21
-0.117503
  31
0
  0
LINE
  5
70
  100
AcDbEntity
  8
1
  100
AcDbLine
  10
48.3
  20
-0.117503
  30
0
  11
48.4
  21
-0.173955
  31
0
  0
LINE
  5
71
  100
AcDbEntity
  8
1
  100
AcDbLine
  10
48.4
  20
-0.173955
  30
0
  11
48.5
  21
-0.229224
  31
0
  0
LINE
  5
72
  100
AcDbEntity
  8
1
  100
AcDbLine
  10
48.5
  20
-0.229224
  30
0
  11
48.6
  21
-0.282935
  31
0
  0
LINE
  5
73
  100
AcDbEntity
  8
1
  100
AcDbLine
  10
48.6
  20
-0.282935
  30
0
  11
48.7
  21
-0.334722
  31
0
  0
LINE
  5
74
  100
AcDbEntity
  8
1
  100
AcDbLine
  10
48.7
  20
-0.334722
  30
0
  11
48.8
  21
-0.384233
  31
0
  0
LINE
  5
75
  100
AcDbEntity
  8
1
  100
AcDbLine
  10
48.8
  20
-0.384233
  30
0
  11
48.9
  21
-0.431132
  31
0
  0
LINE
  5
76
  100
AcDbEntity
  8
1
  100
AcDbLine
  10
48.9
  20
-0.431132
  30
0
  11
49
  21
-0.4751
  31
0
  0
LINE
  5
77
  100
AcDbEntity
  8
1
  100
AcDbLine
  10
49
  20
-0.4751
  30
0
  11
49.1
  21
-0.515837
  31
0
  0
LINE
  5
78
  100
AcDbEntity
  8
1
  100
AcDbLine
  10
49.1
  20
-0.515837
  30
0
  11
49.2
  21
-0.553068
  31
0
  0
LINE
  5
79
  100
AcDbEntity
  8
1
  100
AcDbLine
  10
49.2
  20
-0.553068
  30
0
  11
49.3
  21
-0.586538
  31
0
  0
LINE
  5
7a
  100
AcDbEntity
  8
1
  100
AcDbLine
  10
49.3
  20
-0.586538
  30
0
  11
49.4
  21
-0.616021
  31
0
  0
LINE
  5
7b
  100
AcDbEntity
  8
1
  100
AcDbLine
  10
49.4
  20
-0.616021
  30
0
  11
49.5
  21
-0.641315
  31
0
  0
LINE
  5
7c
  100
AcDbEntity
  8
1
  100
AcDbLine
  10
49.5
  20
-0.641315
  30
0
  11
49.6
  21
-0.662249
  31
0
  0
LINE
  5
7d
  100
AcDbEntity
  8
1
  100
AcDbLine
  10
49.6
  20
-0.662249
  30
0
  11
49.7
  21
-0.678681
  31
0
  0
LINE
  5
7e
  100
AcDbEntity
  8
1
  100
AcDbLine
  10
49.7
  20
-0.678681
  30
0
  11
49.8
  21
-0.690498
  31
0
  0
LINE
  5
7f
  100
AcDbEntity
  8
1
  100
AcDbLine
  10
49.8
  20
-0.690498
  30
0
  11
49.9
  21
-0.69762
  31
0
  0
LINE
  5
80
  100
AcDbEntity
  8
1
  100
AcDbLine
  10
49.9
  20
-0.69762
  30
0
  11
50
  21
-0.7
  31
0
  0
LINE
  5
81
  100
AcDbEntity
  8
1
  100
AcDbLine
  10
50
  20
-0.7
  30
0
  11
50
  21
0
  31
0
  0
LINE
  5
82
  100
AcDbEntity
  8
1
  100
AcDbLine
  10
50
  20
0
  30
0
  11
50
  21
0.7
  31
0
  0
LINE
  5
83
  100
AcDbEntity
  8
1
  100
AcDbLine
  10
50
  20
0.7
  30
0
  11
47.9
  21
0.7
  31
0
  0
LINE
  5
84
  100
AcDbEntity
  8
1
  100
AcDbLine
  10
47.9
  20
0.7
  30
0
  11
47.9
  21
0.675
  31
0
  0
LINE
  5
85
  100
AcDbEntity
  8
1
  100
AcDbLine
  10
47.9
  20
0.675
  30
0
  11
36.39
  21
0.675
  31
0
  0
ARC
  5
86
  100
AcDbEntity
  8
1
  100
AcDbCircle
  10
36.39
  20
3.675
  30
0
  40
3
  100
AcDbArc
  50
255
  51
270
  0
LINE
  5
87
  100
AcDbEntity
  8
1
  100
AcDbLine
  10
35.613543
  20
0.777223
  30
0
  11
31.050075
  21
2
  31
0
  0
LINE
  5
88
  100
AcDbEntity
  8
1
  100
AcDbLine
  10
31.050075
  20
2
  30
0
  11
30.8
  21
2
  31
0
  0
LINE
  5
89
  100
AcDbEntity
  8
1
  100
AcDbLine
  10
30.8
  20
2
  30
0
  11
30.8
  21
-2
  31
0
  0
LINE
  5
8a
  100
AcDbEntity
  8
1
  100
AcDbLine
  10
30.8
  20
-2
  30
0
  11
31.050075
  21
-2
  31
0
  0
LINE
  5
8b
  100
AcDbEntity
  8
1
  100
AcDbLine
  10
31.050075
  20
-2
  30
0
  11
35.613543
  21
-0.777223
  31
0
  0
LINE
  5
8c
  100
AcDbEntity
  8
1
  100
AcDbLine
  10
35.613543
  20
-0.777223
  30
0
  11
35.613543
  21
0.777223
  31
0
  0
LINE
  5
8d
  100
AcDbEntity
  8
1
  100
AcDbLine
  10
36.39
  20
0.675
  30
0
  11
36.39
  21
-0.675
  31
0
  0
ARC
  5
8e
  100
AcDbEntity
  8
1
  100
AcDbCircle
  10
36.39
  20
-3.675
  30
0
  40
3
  100
AcDbArc
  50
90
  51
105
  0
LINE
  5
8f
  100
AcDbEntity
  8
1
  100
AcDbLine
  10
36.39
  20
-0.675
  30
0
  11
47.9
  21
-0.675
  31
0
  0
LINE
  5
90
  100
AcDbEntity
  8
1
  100
AcDbLine
  10
47.9
  20
-0.675
  30
0
  11
47.9
  21
-0.7
  31
0
  0
LINE
  5
91
  100
AcDbEntity
  8
1
  100
AcDbLine
  10
47.9
  20
-0.7
  30
0
  11
50
  21
-0.7
  31
0
  0
LINE
  5
92
  100
AcDbEntity
  8
1
  100
AcDbLine
  10
50
  20
-0.7
  30
0
  11
50
  21
0.7
  31
0
  0
LINE
  5
93
  100
AcDbEntity
  8
SK1
  100
AcDbLine
  10
30.8
  20
2
  30
0
  11
0.7
  21
2
  31
0
  0
LINE
  5
94
  100
AcDbEntity
  8
SK1
  100
AcDbLine
  10
0.7
  20
2
  30
0
  11
0
  21
1.3
  31
0
  0
LINE
  5
95
  100
AcDbEntity
  8
SK1
  100
AcDbLine
  10
30.8
  20
-2
  30
0
  11
0.7
  21
-2
  31
0
  0
LINE
  5
96
  100
AcDbEntity
  8
SK1
  100
AcDbLine
  10
0.7
  20
-2
  30
0
  11
0
  21
-1.3
  31
0
  0
LINE
  5
97
  100
AcDbEntity
  8
SK1
  100
AcDbLine
  10
0.7
  20
2
  30
0
  11
0.7
  21
-2
  31
0
  0
LINE
  5
98
  100
AcDbEntity
  8
SK1
  100
AcDbLine
  10
0
  20
1.3
  30
0
  11
0
  21
-1.3
  31
0
  0
LINE
  5
99
  100
AcDbEntity
  8
SK1
  100
AcDbLine
  10
31.8401
  20
1.40688
  30
0
  11
32.2069
  21
1.0401
  31
0
  0
LINE
  5
9a
  100
AcDbEntity
  8
SK1
  100
AcDbLine
  10
31.3328
  20
1.66666
  30
0
  11
32.4667
  21
0.532833
  31
0
  0
LINE
  5
9b
  100
AcDbEntity
  8
SK1
  100
AcDbLine
  10
31.0154
  20
1.73657
  30
0
  11
32.5366
  21
0.215434
  31
0
  0
LINE
  5
9c
  100
AcDbEntity
  8
SK1
  100
AcDbLine
  10
30.8
  20
1.70452
  30
0
  11
32.5045
  21
0
  31
0
  0
LINE
  5
9d
  100
AcDbEntity
  8
SK1
  100
AcDbLine
  10
30.8
  20
1.45703
  30
0
  11
32.257
  21
0
  31
0
  0
LINE
  5
9e
  100
AcDbEntity
  8
SK1
  100
AcDbLine
  10
30.8
  20
1.20954
  30
0
  11
32.0095
  21
0
  31
0
  0
LINE
  5
9f
  100
AcDbEntity
  8
SK1
  100
AcDbLine
  10
30.8
  20
0.962054
  30
0
  11
31.7621
  21
0
  31
0
  0
LINE
  5
a0
  100
AcDbEntity
  8
SK1
  100
AcDbLine
  10
30.8
  20
0.714566
  30
0
  11
31.5146
  21
0
  31
0
  0
LINE
  5
a1
  100
AcDbEntity
  8
SK1
  100
AcDbLine
  10
30.8
  20
0.467079
  30
0
  11
31.2671
  21
0
  31
0
  0
LINE
  5
a2
  100
AcDbEntity
  8
SK1
  100
AcDbLine
  10
30.8
  20
0.219592
  30
0
  11
31.0196
  21
0
  31
0
  0
LINE
  5
a3
  100
AcDbEntity
  8
SK1
  100
AcDbLine
  10
30.8
  20
1.70452
  30
0
  11
30.8441
  21
1.74861
  31
0
  0
LINE
  5
a4
  100
AcDbEntity
  8
SK1
  100
AcDbLine
  10
30.8
  20
1.45703
  30
0
  11
31.071
  21
1.72802
  31
0
  0
LINE
  5
a5
  100
AcDbEntity
  8
SK1
  100
AcDbLine
  10
30.8
  20
1.20954
  30
0
  11
31.2742
  21
1.6837
  31
0
  0
LINE
  5
a6
  100
AcDbEntity
  8
SK1
  100
AcDbLine
  10
30.8
  20
0.962054
  30
0
  11
31.4588
  21
1.62082
  31
0
  0
LINE
  5
a7
  100
AcDbEntity
  8
SK1
  100
AcDbLine
  10
30.8
  20
0.714566
  30
0
  11
31.6271
  21
1.54167
  31
0
  0
LINE
  5
a8
  100
AcDbEntity
  8
SK1
  100
AcDbLine
  10
30.8
  20
0.467079
  30
0
  11
31.781
  21
1.44812
  31
0
  0
LINE
  5
a9
  100
AcDbEntity
  8
SK1
  100
AcDbLine
  10
30.8
  20
0.219592
  30
0
  11
31.9226
  21
1.34216
  31
0
  0
LINE
  5
aa
  100
AcDbEntity
  8
SK1
  100
AcDbLine
  10
30.8279
  20
0
  30
0
  11
32.0508
  21
1.22288
  31
0
  0
LINE
  5
ab
  100
AcDbEntity
  8
SK1
  100
AcDbLine
  10
31.0754
  20
0
  30
0
  11
32.167
  21
1.09157
  31
0
  0
LINE
  5
ac
  100
AcDbEntity
  8
SK1
  100
AcDbLine
  10
31.3229
  20
0
  30
0
  11
32.2707
  21
0.947822
  31
0
  0
LINE
  5
ad
  100
AcDbEntity
  8
SK1
  100
AcDbLine
  10
31.5704
  20
0
  30
0
  11
32.3605
  21
0.790145
  31
0
  0
LINE
  5
ae
  100
AcDbEntity
  8
SK1
  100
AcDbLine
  10
31.8178
  20
0
  30
0
  11
32.4364
  21
0.618517
  31
0
  0
LINE
  5
af
  100
AcDbEntity
  8
SK1
  100
AcDbLine
  10
32.0653
  20
0
  30
0
  11
32.496
  21
0.430696
  31
0
  0
LINE
  5
b0
  100
AcDbEntity
  8
SK1
  100
AcDbLine
  10
32.3128
  20
0
  30
0
  11
32.5356
  21
0.222827
  31
0
  0
LINE
  5
b1
  100
AcDbEntity
  8
SK1
  100
AcDbLine
  10
30.8
  20
0
  30
0
  11
30.8
  21
1.75
  31
0
  0
LINE
  5
b2
  100
AcDbEntity
  8
SK1
  100
AcDbLine
  10
30.8
  20
0
  30
0
  11
32.55
  21
0
  31
0
  0
ARC
  5
b3
  100
AcDbEntity
  8
SK1
  100
AcDbCircle
  10
30.8
  20
0
  30
0
  40
1.75
  100
AcDbArc
  50
0
  51
90
  0
ARC
  5
b4
  100
AcDbEntity
  8
SK1
  100
AcDbCircle
  10
30.8
  20
0
  30
0
  40
1.75
  100
AcDbArc
  50
90
  51
180
  0
LINE
  5
b5
  100
AcDbEntity
  8
SK1
  100
AcDbLine
  10
30.7721
  20
0
  30
0
  11
30.8
  21
-0.027896
  31
0
  0
LINE
  5
b6
  100
AcDbEntity
  8
SK1
  100
AcDbLine
  10
30.5246
  20
0
  30
0
  11
30.8
  21
-0.275383
  31
0
  0
LINE
  5
b7
  100
AcDbEntity
  8
SK1
  100
AcDbLine
  10
30.2771
  20
0
  30
0
  11
30.8
  21
-0.522871
  31
0
  0
LINE
  5
b8
  100
AcDbEntity
  8
SK1
  100
AcDbLine
  10
30.0296
  20
0
  30
0
  11
30.8
  21
-0.770358
  31
0
  0
LINE
  5
b9
  100
AcDbEntity
  8
SK1
  100
AcDbLine
  10
29.7822
  20
0
  30
0
  11
30.8
  21
-1.01785
  31
0
  0
LINE
  5
ba
  100
AcDbEntity
  8
SK1
  100
AcDbLine
  10
29.5347
  20
0
  30
0
  11
30.8
  21
-1.26533
  31
0
  0
LINE
  5
bb
  100
AcDbEntity
  8
SK1
  100
AcDbLine
  10
29.2872
  20
0
  30
0
  11
30.8
  21
-1.51282
  31
0
  0
LINE
  5
bc
  100
AcDbEntity
  8
SK1
  100
AcDbLine
  10
29.0503
  20
-0.010642
  30
0
  11
30.7894
  21
-1.74967
  31
0
  0
LINE
  5
bd
  100
AcDbEntity
  8
SK1
  100
AcDbLine
  10
29.0736
  20
-0.281429
  30
0
  11
30.5186
  21
-1.72637
  31
0
  0
LINE
  5
be
  100
AcDbEntity
  8
SK1
  100
AcDbLine
  10
29.1639
  20
-0.619147
  30
0
  11
30.1809
  21
-1.63613
  31
0
  0
LINE
  5
bf
  100
AcDbEntity
  8
SK1
  100
AcDbLine
  10
29.0514
  20
-0.044098
  30
0
  11
29.0955
  21
0
  31
0
  0
LINE
  5
c0
  100
AcDbEntity
  8
SK1
  100
AcDbLine
  10
29.072
  20
-0.270991
  30
0
  11
29.343
  21
0
  31
0
  0
LINE
  5
c1
  100
AcDbEntity
  8
SK1
  100
AcDbLine
  10
29.1163
  20
-0.474162
  30
0
  11
29.5905
  21
0
  31
0
  0
LINE
  5
c2
  100
AcDbEntity
  8
SK1
  100
AcDbLine
  10
29.1792
  20
-0.658762
  30
0
  11
29.8379
  21
0
  31
0
  0
LINE
  5
c3
  100
AcDbEntity
  8
SK1
  100
AcDbLine
  10
29.2583
  20
-0.827105
  30
0
  11
30.0854
  21
0
  31
0
  0
LINE
  5
c4
  100
AcDbEntity
  8
SK1
  100
AcDbLine
  10
29.3519
  20
-0.981039
  30
0
  11
30.3329
  21
0
  31
0
  0
LINE
  5
c5
  100
AcDbEntity
  8
SK1
  100
AcDbLine
  10
29.4578
  20
-1.12257
  30
0
  11
30.5804
  21
0
  31
0
  0
LINE
  5
c6
  100
AcDbEntity
  8
SK1
  100
AcDbLine
  10
29.5771
  20
-1.25077
  30
0
  11
30.8
  21
-0.027896
  31
0
  0
LINE
  5
c7
  100
AcDbEntity
  8
SK1
  100
AcDbLine
  10
29.7084
  20
-1.36695
  30
0
  11
30.8
  21
-0.275383
  31
0
  0
LINE
  5
c8
  100
AcDbEntity
  8
SK1
  100
AcDbLine
  10
29.8522
  20
-1.47069
  30
0
  11
30.8
  21
-0.522871
  31
0
  0
LINE
  5
c9
  100
AcDbEntity
  8
SK1
  100
AcDbLine
  10
30.0099
  20
-1.5605
  30
0
  11
30.8
  21
-0.770358
  31
0
  0
LINE
  5
ca
  100
AcDbEntity
  8
SK1
  100
AcDbLine
  10
30.1815
  20
-1.63636
  30
0
  11
30.8
  21
-1.01785
  31
0
  0
LINE
  5
cb
  100
AcDbEntity
  8
SK1
  100
AcDbLine
  10
30.3693
  20
-1.69603
  30
0
  11
30.8
  21
-1.26533
  31
0
  0
LINE
  5
cc
  100
AcDbEntity
  8
SK1
  100
AcDbLine
  10
30.5772
  20
-1.73565
  30
0
  11
30.8
  21
-1.51282
  31
0
  0
LINE
  5
cd
  100
AcDbEntity
  8
SK1
  100
AcDbLine
  10
30.8
  20
0
  30
0
  11
29.05
  21
0
  31
0
  0
LINE
  5
ce
  100
AcDbEntity
  8
SK1
  100
AcDbLine
  10
30.8
  20
-1.75
  30
0
  11
30.8
  21
0
  31
0
  0
ARC
  5
cf
  100
AcDbEntity
  8
SK1
  100
AcDbCircle
  10
30.8
  20
0
  30
0
  40
1.75
  100
AcDbArc
  50
180
  51
270
  0
ARC
  5
d0
  100
AcDbEntity
  8
SK1
  100
AcDbCircle
  10
30.8
  20
0
  30
0
  40
1.75
  100
AcDbArc
  50
270
  51
0
  0
LINE
  5
141
  100
AcDbEntity
  8
NOCUT
  100
AcDbLine
  10
47.9
  20
0
  30
0
  11
47.9
  21
0.675
  31
0
  0
LINE
  5
142
  100
AcDbEntity
  8
NOCUT
  100
AcDbLine
  10
47.9
  20
0.675
  30
0
  11
36.39
  21
0.675
  31
0
  0
ARC
  5
143
  100
AcDbEntity
  8
NOCUT
  100
AcDbCircle
  10
36.39
  20
3.675
  30
0
  40
3
  100
AcDbArc
  50
255
  51
270
  0
LINE
  5
144
  100
AcDbEntity
  8
NOCUT
  100
AcDbLine
  10
35.613543
  20
0.777223
  30
0
  11
31.050075
  21
2
  31
0
  0
LINE
  5
145
  100
AcDbEntity
  8
NOCUT
  100
AcDbLine
  10
31.050075
  20
2
  30
0
  11
30.8
  21
2
  31
0
  0
LINE
  5
146
  100
AcDbEntity
  8
NOCUT
  100
AcDbLine
  10
30.8
  20
2
  30
0
  11
30.8
  21
0
  31
0
  0
LINE
  5
147
  100
AcDbEntity
  8
NOCUT
  100
AcDbLine
  10
30.8
  20
0
  30
0
  11
47.9
  21
0
  31
0
  0
LINE
  5
148
  100
AcDbEntity
  8
CUT
  100
AcDbLine
  10
50
  20
0
  30
0
  11
50
  21
0.7
  31
0
  0
LINE
  5
149
  100
AcDbEntity
  8
CUT
  100
AcDbLine
  10
50
  20
0.7
  30
0
  11
47.9
  21
0.7
  31
0
  0
LINE
  5
14a
  100
AcDbEntity
  8
CUT
  100
AcDbLine
  10
47.9
  20
0.7
  30
0
  11
47.9
  21
0
  31
0
  0
LINE
  5
14b
  100
AcDbEntity
  8
CUT
  100
AcDbLine
  10
47.9
  20
0
  30
0
  11
50
  21
0
  31
0
  0
LINE
  5
14c
  100
AcDbEntity
  8
4
  100
AcDbLine
  10
30.8
  20
0
  30
0
  11
50
  21
0
  31
0
  0
LINE
  5
14d
  100
AcDbEntity
  8
SK4
  100
AcDbLine
  10
-1
  20
0
  30
0
  11
51
  21
0
  31
0
  0
LINE
  5
14e
  100
AcDbEntity
  8
INFTOTAL
  100
AcDbLine
  10
-15.7
  20
17.7
  30
0
  11
65.7
  21
17.7
  31
0
  0
LINE
  5
14f
  100
AcDbEntity
  8
INFTOTAL
  100
AcDbLine
  10
65.7
  20
17.7
  30
0
  11
65.7
  21
-10.938525
  31
0
  0
LINE
  5
150
  100
AcDbEntity
  8
INFTOTAL
  100
AcDbLine
  10
65.7
  20
-10.938525
  30
0
  11
-15.7
  21
-10.938525
  31
0
  0
LINE
  5
151
  100
AcDbEntity
  8
INFTOTAL
  100
AcDbLine
  10
-15.7
  20
-10.938525
  30
0
  11
-15.7
  21
17.7
  31
0
  0
ENDSEC
  0
SECTION
  2
OBJECTS
  0
DICTIONARY
  5
152
  330
0
100
AcDbDictionary
281
    1
  3
ACAD_GROUP
  350
153
  0
DICTIONARY
  5
153
102
{ACAD_REACTORS
  330
152
102
}
  330
152
100
AcDbDictionary
281
    1
  0
ENDSEC
  0
EOF
