  0
SECTION
  2
HEADER
  9
$ACADVER
  1
AC1015
  9
$DWGCODEPAGE
  3
ANSI_932
  9
$HANDSEED
  5
106AB90
  0
ENDSEC
  0
SECTION
  2
CLASSES
  0
CLASS
  1
IMAGEDEF
  2
AcDbRasterImageDef
  3
ISM
  90
0
  91
4
  280
0
  281
0
  0
CLASS
  1
IMAGE
  2
AcDbRasterImage
  3
ISM
  90
127
  91
5
  280
0
  281
1
  0
CLASS
  1
IMAGEDEF_REACTOR
  2
AcDbRasterImageDefReactor
  3
ISM
  90
1
  91
4
  280
0
  281
0
  0
ENDSEC
  0
SECTION
  2
TABLES
  0
TABLE
  2
VPORT
  5
2
  330
0
  100
AcDbSymbolTable
  70
    0
  0
ENDTAB
  0
TABLE
  2
LTYPE
  5
3
  330
0
  100
AcDbSymbolTable
  70
    4
  0
LTYPE
  5
4
  330
3
  100
AcDbSymbolTableRecord
  100
AcDbLinetypeTableRecord
  2
ByBlock
  70
    0
  3

  72
65
  73
    0
  40
0
  0
LTYPE
  5
5
  330
3
  100
AcDbSymbolTableRecord
  100
AcDbLinetypeTableRecord
  2
ByLayer
  70
    0
  3

  72
65
  73
    0
  40
0
  0
LTYPE
  5
6
  330
3
  100
AcDbSymbolTableRecord
  100
AcDbLinetypeTableRecord
  2
CONTINUOUS
  70
    0
  3
Solid Line
  72
65
  73
    0
  40
0
  0
LTYPE
  5
7
  330
3
  100
AcDbSymbolTableRecord
  100
AcDbLinetypeTableRecord
  2
DASH
  70
    0
  3
Hidden
  72
65
  73
2
  40
2.5
  49
1.5
  74
0
  49
-1
  74
0
  0
LTYPE
  5
8
  330
3
  100
AcDbSymbolTableRecord
  100
AcDbLinetypeTableRecord
  2
LONGDASHDASH
  70
    0
  3
__ . __
  72
65
  73
    4
  40
7
  49
4
  74
    0
  49
-1
  74
    0
  49
1
  74
    0
  49
-1
  74
    0
  0
ENDTAB
  0
TABLE
  2
LAYER
  5
9
  330
0
  100
AcDbSymbolTable
  70
    40
  0
LAYER
  5
a
  330
9
  100
AcDbSymbolTableRecord
  100
AcDbLayerTableRecord
  2
0
  70
    0
  62
    0
  6
CONTINUOUS
  390
0
  0
LAYER
  5
c
  330
9
  100
AcDbSymbolTableRecord
  100
AcDbLayerTableRecord
  2
1
  70
    0
  62
    4
  6
CONTINUOUS
  370
50
  390
0
  0
LAYER
  5
d
  330
9
  100
AcDbSymbolTableRecord
  100
AcDbLayerTableRecord
  2
2
  70
    0
  62
    7
  6
CONTINUOUS
  370
25
  390
0
  0
LAYER
  5
f
  330
9
  100
AcDbSymbolTableRecord
  100
AcDbLayerTableRecord
  2
4
  70
    0
  62
    2
  6
LONGDASHDASH
  370
25
  390
0
  0
LAYER
  5
13
  330
9
  100
AcDbSymbolTableRecord
  100
AcDbLayerTableRecord
  2
SK1
  70
    0
  62
    4
  6
CONTINUOUS
  370
50
  390
0
  0
LAYER
  5
14
  330
9
  100
AcDbSymbolTableRecord
  100
AcDbLayerTableRecord
  2
SK2
  70
    0
  62
    7
  6
CONTINUOUS
  370
25
  390
0
  0
LAYER
  5
16
  330
9
  100
AcDbSymbolTableRecord
  100
AcDbLayerTableRecord
  2
SK4
  70
    0
  62
    2
  6
LONGDASHDASH
  370
25
  390
0
  0
LAYER
  5
21
  330
9
  100
AcDbSymbolTableRecord
  100
AcDbLayerTableRecord
  2
NOCUT
  70
    0
  62
    7
  6
CONTINUOUS
  370
25
  390
0
  0
LAYER
  5
22
  330
9
  100
AcDbSymbolTableRecord
  100
AcDbLayerTableRecord
  2
CUT
  70
    0
  62
    1
  6
CONTINUOUS
  370
25
  390
0
  0
LAYER
  5
26
  330
9
  100
AcDbSymbolTableRecord
  100
AcDbLayerTableRecord
  2
INFTOTAL
  70
    0
  62
    9
  6
CONTINUOUS
  370
18
  390
0
  0
ENDTAB
  0
TABLE
  2
STYLE
  5
27
  330
0
  100
AcDbSymbolTable
  70
    1
  0
STYLE
  5
28
  330
27
  100
AcDbSymbolTableRecord
  100
AcDbTextStyleTableRecord
  2
Monospac821 BT
  70
    0
  40
    3.5
  41
1
  50
0
  71
0
  42
3
  3

  4

  1001
ACAD
  1000
Monospac821 BT
  1071
256
  0
ENDTAB
  0
TABLE
  2
VIEW
  5
29
  330
0
  100
AcDbSymbolTable
  70
    0
  0
ENDTAB
  0
TABLE
  2
UCS
  5
2a
  330
0
  100
AcDbSymbolTable
  70
    0
  0
ENDTAB
  0
TABLE
  2
APPID
  5
2b
  330
0
  100
AcDbSymbolTable
  70
    1
  0
APPID
  5
2c
  330
2b
  100
AcDbSymbolTableRecord
  100
AcDbRegAppTableRecord
  2
ACAD
  70
    0
  0
ENDTAB
  0
TABLE
  2
DIMSTYLE
  5
2d
  330
0
  100
AcDbSymbolTable
  70
    1
  100
AcDbDimStyleTable
  0
DIMSTYLE
  105
2e
  330
2d
  100
AcDbSymbolTableRecord
  100
AcDbDimStyleTableRecord
  2
STANDARD
  70
    0
  41
    3
  42
0.5
  44
1
  73
0
  77
1
  78
1
  140
3.5
  141
2.5
  143
0.03937
  147
0.8
  172
1
  174
1
  178
0
  179
1
  271
2
  279
1
  284
1
  340
28
  0
ENDTAB
  0
TABLE
  2
BLOCK_RECORD
  5
2f
  330
0
  100
AcDbSymbolTable
  70
    2
  0
BLOCK_RECORD
  5
30
  330
2f
  100
AcDbSymbolTableRecord
  100
AcDbBlockTableRecord
  2
*Model_Space
  0
BLOCK_RECORD
  5
31
  330
2f
  100
AcDbSymbolTableRecord
  100
AcDbBlockTableRecord
  2
*Paper_Space
  0
BLOCK_RECORD
  5
d9
  330
2f
  100
AcDbSymbolTableRecord
  100
AcDbBlockTableRecord
  2
*Dd8
  340
0
  0
BLOCK_RECORD
  5
e7
  330
2f
  100
AcDbSymbolTableRecord
  100
AcDbBlockTableRecord
  2
*De6
  340
0
  0
BLOCK_RECORD
  5
f5
  330
2f
  100
AcDbSymbolTableRecord
  100
AcDbBlockTableRecord
  2
*Df4
  340
0
  0
BLOCK_RECORD
  5
103
  330
2f
  100
AcDbSymbolTableRecord
  100
AcDbBlockTableRecord
  2
*D102
  340
0
  0
BLOCK_RECORD
  5
111
  330
2f
  100
AcDbSymbolTableRecord
  100
AcDbBlockTableRecord
  2
*D110
  340
0
  0
BLOCK_RECORD
  5
11f
  330
2f
  100
AcDbSymbolTableRecord
  100
AcDbBlockTableRecord
  2
*D11e
  340
0
  0
BLOCK_RECORD
  5
12d
  330
2f
  100
AcDbSymbolTableRecord
  100
AcDbBlockTableRecord
  2
*D12c
  340
0
  0
BLOCK_RECORD
  5
13b
  330
2f
  100
AcDbSymbolTableRecord
  100
AcDbBlockTableRecord
  2
*D13a
  340
0
  0
ENDTAB
  0
ENDSEC
  0
SECTION
  2
BLOCKS
  0
BLOCK
  5
32
  330
30
  100
AcDbEntity
  8
0
  100
AcDbBlockBegin
  2
*Model_Space
  70
    0
  10
0
  20
0
  30
0
  3
*Model_Space
  1

  0
ENDBLK
  5
33
  330
30
  100
AcDbEntity
  8
0
  100
AcDbBlockEnd
  0
BLOCK
  5
34
  330
31
  100
AcDbEntity
  8
0
  100
AcDbBlockBegin
  2
*Paper_Space
  70
    0
  10
0
  20
0
  30
0
  3
*Paper_Space
  1

  0
ENDBLK
  5
35
  330
31
  100
AcDbEntity
  8
0
  100
AcDbBlockEnd
  0
BLOCK
  5
d7
  330
d9
  100
AcDbEntity
  8
SK2
  100
AcDbBlockBegin
  2
*Dd8
  70
1
  10
0
  20
0
  30
0
  3
*Dd8
  1

  0
LINE
  5
da
  330
d9
  100
AcDbEntity
  8
SK2
  100
AcDbLine
  10
0
  20
1.3
  30
0
  11
0
  21
14
  31
0
  0
LINE
  5
db
  330
d9
  100
AcDbEntity
  8
SK2
  100
AcDbLine
  10
60
  20
0.75
  30
0
  11
60
  21
14
  31
0
  0
LINE
  5
dc
  330
d9
  100
AcDbEntity
  8
SK2
  100
AcDbLine
  10
0
  20
12
  30
0
  11
60
  21
12
  31
0
  0
SOLID
  5
dd
  330
d9
  100
AcDbEntity
  8
SK2
  100
AcDbTrace
  10
0
  20
12
  30
0
  11
2.478612
  21
12.326315
  31
0
  12
2.478612
  22
11.673685
  32
0
  13
2.478612
  23
11.673685
  33
0
  0
SOLID
  5
de
  330
d9
  100
AcDbEntity
  8
SK2
  100
AcDbTrace
  10
60
  20
12
  30
0
  11
57.521388
  21
11.673685
  31
0
  12
57.521388
  22
12.326315
  32
0
  13
57.521388
  23
12.326315
  33
0
  0
MTEXT
  5
df
  330
d9
  100
AcDbEntity
  8
SK2
  100
AcDbMText
  10
30
  20
12
  30
0
  11
1
  21
0
  31
0
  40
2
  41
0
  71
8
  72
1
  1
60
  0
POINT
  5
e0
  330
d9
  100
AcDbEntity
  8
SK2
  62
0
  100
AcDbPoint
  10
0
  20
1.3
  30
0
  0
POINT
  5
e1
  330
d9
  100
AcDbEntity
  8
SK2
  62
0
  100
AcDbPoint
  10
60
  20
0.75
  30
0
  0
POINT
  5
e2
  330
d9
  100
AcDbEntity
  8
SK2
  62
0
  100
AcDbPoint
  10
60
  20
12
  30
0
  0
ENDBLK
  5
e3
  330
d9
  100
AcDbEntity
  8
SK2
  100
AcDbBlockEnd
  0
BLOCK
  5
e5
  330
e7
  100
AcDbEntity
  8
SK2
  100
AcDbBlockBegin
  2
*De6
  70
1
  10
0
  20
0
  30
0
  3
*De6
  1

  0
LINE
  5
e8
  330
e7
  100
AcDbEntity
  8
SK2
  100
AcDbLine
  10
0
  20
1.3
  30
0
  11
0
  21
9.037689
  31
0
  0
LINE
  5
e9
  330
e7
  100
AcDbEntity
  8
SK2
  100
AcDbLine
  10
30
  20
2
  30
0
  11
30
  21
9.037689
  31
0
  0
LINE
  5
ea
  330
e7
  100
AcDbEntity
  8
SK2
  100
AcDbLine
  10
0
  20
7.037689
  30
0
  11
30
  21
7.037689
  31
0
  0
SOLID
  5
eb
  330
e7
  100
AcDbEntity
  8
SK2
  100
AcDbTrace
  10
0
  20
7.037689
  30
0
  11
2.478612
  21
7.364004
  31
0
  12
2.478612
  22
6.711373
  32
0
  13
2.478612
  23
6.711373
  33
0
  0
SOLID
  5
ec
  330
e7
  100
AcDbEntity
  8
SK2
  100
AcDbTrace
  10
30
  20
7.037689
  30
0
  11
27.521388
  21
6.711373
  31
0
  12
27.521388
  22
7.364004
  32
0
  13
27.521388
  23
7.364004
  33
0
  0
MTEXT
  5
ed
  330
e7
  100
AcDbEntity
  8
SK2
  100
AcDbMText
  10
15
  20
7.037689
  30
0
  11
1
  21
0
  31
0
  40
2
  41
0
  71
8
  72
1
  1
30
  0
POINT
  5
ee
  330
e7
  100
AcDbEntity
  8
SK2
  62
0
  100
AcDbPoint
  10
0
  20
1.3
  30
0
  0
POINT
  5
ef
  330
e7
  100
AcDbEntity
  8
SK2
  62
0
  100
AcDbPoint
  10
30
  20
2
  30
0
  0
POINT
  5
f0
  330
e7
  100
AcDbEntity
  8
SK2
  62
0
  100
AcDbPoint
  10
30
  20
7.037689
  30
0
  0
ENDBLK
  5
f1
  330
e7
  100
AcDbEntity
  8
SK2
  100
AcDbBlockEnd
  0
BLOCK
  5
f3
  330
f5
  100
AcDbEntity
  8
SK2
  100
AcDbBlockBegin
  2
*Df4
  70
1
  10
0
  20
0
  30
0
  3
*Df4
  1

  0
LINE
  5
f6
  330
f5
  100
AcDbEntity
  8
SK2
  100
AcDbLine
  10
0.7
  20
-2
  30
0
  11
-12
  21
-2
  31
0
  0
LINE
  5
f7
  330
f5
  100
AcDbEntity
  8
SK2
  100
AcDbLine
  10
0.7
  20
2
  30
0
  11
-12
  21
2
  31
0
  0
LINE
  5
f8
  330
f5
  100
AcDbEntity
  8
SK2
  100
AcDbLine
  10
-10
  20
-4.158416
  30
0
  11
-10
  21
2
  31
0
  0
SOLID
  5
f9
  330
f5
  100
AcDbEntity
  8
SK2
  100
AcDbTrace
  10
-10
  20
-2
  30
0
  11
-10.326315
  21
0.478612
  31
0
  12
-9.673685
  22
0.478612
  32
0
  13
-9.673685
  23
0.478612
  33
0
  0
SOLID
  5
fa
  330
f5
  100
AcDbEntity
  8
SK2
  100
AcDbTrace
  10
-10
  20
2
  30
0
  11
-9.673685
  21
-0.478612
  31
0
  12
-10.326315
  22
-0.478612
  32
0
  13
-10.326315
  23
-0.478612
  33
0
  0
MTEXT
  5
fb
  330
f5
  100
AcDbEntity
  8
SK2
  100
AcDbMText
  10
-10
  20
0
  30
0
  11
0
  21
1
  31
0
  40
2
  41
0
  71
8
  72
1
  1
ﾘ4
  0
POINT
  5
fc
  330
f5
  100
AcDbEntity
  8
SK2
  62
0
  100
AcDbPoint
  10
0.7
  20
-2
  30
0
  0
POINT
  5
fd
  330
f5
  100
AcDbEntity
  8
SK2
  62
0
  100
AcDbPoint
  10
0.7
  20
2
  30
0
  0
POINT
  5
fe
  330
f5
  100
AcDbEntity
  8
SK2
  62
0
  100
AcDbPoint
  10
-10
  20
2
  30
0
  0
ENDBLK
  5
ff
  330
f5
  100
AcDbEntity
  8
SK2
  100
AcDbBlockEnd
  0
BLOCK
  5
101
  330
103
  100
AcDbEntity
  8
2
  100
AcDbBlockBegin
  2
*D102
  70
1
  10
0
  20
0
  30
0
  3
*D102
  1

  0
LINE
  5
104
  330
103
  100
AcDbEntity
  8
2
  100
AcDbLine
  10
60
  20
-0.75
  30
0
  11
72
  21
-0.75
  31
0
  0
LINE
  5
105
  330
103
  100
AcDbEntity
  8
2
  100
AcDbLine
  10
60
  20
0.75
  30
0
  11
72
  21
0.75
  31
0
  0
LINE
  5
106
  330
103
  100
AcDbEntity
  8
2
  100
AcDbLine
  10
70
  20
-6.757426
  30
0
  11
70
  21
0.75
  31
0
  0
SOLID
  5
107
  330
103
  100
AcDbEntity
  8
2
  100
AcDbTrace
  10
70
  20
-0.75
  30
0
  11
69.673685
  21
1.728612
  31
0
  12
70.326315
  22
1.728612
  32
0
  13
70.326315
  23
1.728612
  33
0
  0
SOLID
  5
108
  330
103
  100
AcDbEntity
  8
2
  100
AcDbTrace
  10
70
  20
0.75
  30
0
  11
70.326315
  21
-1.728612
  31
0
  12
69.673685
  22
-1.728612
  32
0
  13
69.673685
  23
-1.728612
  33
0
  0
MTEXT
  5
109
  330
103
  100
AcDbEntity
  8
2
  100
AcDbMText
  10
70
  20
0
  30
0
  11
0
  21
1
  31
0
  40
2
  41
0
  71
8
  72
1
  1
ﾘ1.5
  0
POINT
  5
10a
  330
103
  100
AcDbEntity
  8
2
  62
0
  100
AcDbPoint
  10
60
  20
-0.75
  30
0
  0
POINT
  5
10b
  330
103
  100
AcDbEntity
  8
2
  62
0
  100
AcDbPoint
  10
60
  20
0.75
  30
0
  0
POINT
  5
10c
  330
103
  100
AcDbEntity
  8
2
  62
0
  100
AcDbPoint
  10
70
  20
0.75
  30
0
  0
ENDBLK
  5
10d
  330
103
  100
AcDbEntity
  8
2
  100
AcDbBlockEnd
  0
BLOCK
  5
10f
  330
111
  100
AcDbEntity
  8
2
  100
AcDbBlockBegin
  2
*D110
  70
1
  10
0
  20
0
  30
0
  3
*D110
  1

  0
LINE
  5
112
  330
111
  100
AcDbEntity
  8
2
  100
AcDbLine
  10
57.7
  20
-0.725
  30
0
  11
55.7
  21
-0.725
  31
0
  0
LINE
  5
113
  330
111
  100
AcDbEntity
  8
2
  100
AcDbLine
  10
57.7
  20
0.725
  30
0
  11
55.7
  21
0.725
  31
0
  0
LINE
  5
114
  330
111
  100
AcDbEntity
  8
2
  100
AcDbLine
  10
57.7
  20
-0.725
  30
0
  11
57.7
  21
9.096535
  31
0
  0
SOLID
  5
115
  330
111
  100
AcDbEntity
  8
2
  100
AcDbTrace
  10
57.7
  20
-0.725
  30
0
  11
57.373685
  21
1.753612
  31
0
  12
58.026315
  22
1.753612
  32
0
  13
58.026315
  23
1.753612
  33
0
  0
SOLID
  5
116
  330
111
  100
AcDbEntity
  8
2
  100
AcDbTrace
  10
57.7
  20
0.725
  30
0
  11
58.026315
  21
-1.753612
  31
0
  12
57.373685
  22
-1.753612
  32
0
  13
57.373685
  23
-1.753612
  33
0
  0
MTEXT
  5
117
  330
111
  100
AcDbEntity
  8
2
  100
AcDbMText
  10
57.7
  20
0.725
  30
0
  11
0
  21
1
  31
0
  40
2
  41
0
  71
8
  72
1
  1
ﾘ1.45
  0
POINT
  5
118
  330
111
  100
AcDbEntity
  8
2
  62
0
  100
AcDbPoint
  10
55.7
  20
-0.725
  30
0
  0
POINT
  5
119
  330
111
  100
AcDbEntity
  8
2
  62
0
  100
AcDbPoint
  10
55.7
  20
0.725
  30
0
  0
POINT
  5
11a
  330
111
  100
AcDbEntity
  8
2
  62
0
  100
AcDbPoint
  10
57.7
  20
9.096535
  30
0
  0
ENDBLK
  5
11b
  330
111
  100
AcDbEntity
  8
2
  100
AcDbBlockEnd
  0
BLOCK
  5
11d
  330
11f
  100
AcDbEntity
  8
2
  100
AcDbBlockBegin
  2
*D11e
  70
1
  10
0
  20
0
  30
0
  3
*D11e
  1

  0
LINE
  5
120
  330
11f
  100
AcDbEntity
  8
2
  100
AcDbLine
  10
57.7
  20
0.725
  30
0
  11
57.7
  21
9
  31
0
  0
LINE
  5
121
  330
11f
  100
AcDbEntity
  8
2
  100
AcDbLine
  10
35.39
  20
0.725
  30
0
  11
35.39
  21
9
  31
0
  0
LINE
  5
122
  330
11f
  100
AcDbEntity
  8
2
  100
AcDbLine
  10
57.7
  20
7
  30
0
  11
35.39
  21
7
  31
0
  0
SOLID
  5
123
  330
11f
  100
AcDbEntity
  8
2
  100
AcDbTrace
  10
57.7
  20
7
  30
0
  11
60.178612
  21
7.326315
  31
0
  12
60.178612
  22
6.673685
  32
0
  13
60.178612
  23
6.673685
  33
0
  0
SOLID
  5
124
  330
11f
  100
AcDbEntity
  8
2
  100
AcDbTrace
  10
35.39
  20
7
  30
0
  11
32.911388
  21
6.673685
  31
0
  12
32.911388
  22
7.326315
  32
0
  13
32.911388
  23
7.326315
  33
0
  0
MTEXT
  5
125
  330
11f
  100
AcDbEntity
  8
2
  100
AcDbMText
  10
50.95507
  20
7
  30
0
  11
1
  21
-0
  31
0
  40
2
  41
0
  71
8
  72
1
  1
22.31
  0
POINT
  5
126
  330
11f
  100
AcDbEntity
  8
2
  62
0
  100
AcDbPoint
  10
57.7
  20
0.725
  30
0
  0
POINT
  5
127
  330
11f
  100
AcDbEntity
  8
2
  62
0
  100
AcDbPoint
  10
35.39
  20
0.725
  30
0
  0
POINT
  5
128
  330
11f
  100
AcDbEntity
  8
2
  62
0
  100
AcDbPoint
  10
35.39
  20
7
  30
0
  0
ENDBLK
  5
129
  330
11f
  100
AcDbEntity
  8
2
  100
AcDbBlockEnd
  0
BLOCK
  5
12b
  330
12d
  100
AcDbEntity
  8
2
  100
AcDbBlockBegin
  2
*D12c
  70
1
  10
0
  20
0
  30
0
  3
*D12c
  1

  0
LINE
  5
12e
  330
12d
  100
AcDbEntity
  8
2
  100
AcDbLine
  10
60
  20
0.75
  30
0
  11
60
  21
14
  31
0
  0
LINE
  5
12f
  330
12d
  100
AcDbEntity
  8
2
  100
AcDbLine
  10
30
  20
2
  30
0
  11
30
  21
9
  31
0
  0
LINE
  5
130
  330
12d
  100
AcDbEntity
  8
2
  100
AcDbLine
  10
60
  20
7
  30
0
  11
30
  21
7
  31
0
  0
SOLID
  5
131
  330
12d
  100
AcDbEntity
  8
2
  100
AcDbTrace
  10
60
  20
7
  30
0
  11
62.478612
  21
7.326315
  31
0
  12
62.478612
  22
6.673685
  32
0
  13
62.478612
  23
6.673685
  33
0
  0
SOLID
  5
132
  330
12d
  100
AcDbEntity
  8
2
  100
AcDbTrace
  10
30
  20
7
  30
0
  11
27.521388
  21
6.673685
  31
0
  12
27.521388
  22
7.326315
  32
0
  13
27.521388
  23
7.326315
  33
0
  0
MTEXT
  5
133
  330
12d
  100
AcDbEntity
  8
2
  100
AcDbMText
  10
45
  20
7
  30
0
  11
1
  21
-0
  31
0
  40
2
  41
0
  71
8
  72
1
  1
30
  0
POINT
  5
134
  330
12d
  100
AcDbEntity
  8
2
  62
0
  100
AcDbPoint
  10
60
  20
14
  30
0
  0
POINT
  5
135
  330
12d
  100
AcDbEntity
  8
2
  62
0
  100
AcDbPoint
  10
30
  20
2
  30
0
  0
POINT
  5
136
  330
12d
  100
AcDbEntity
  8
2
  62
0
  100
AcDbPoint
  10
30
  20
7
  30
0
  0
ENDBLK
  5
137
  330
12d
  100
AcDbEntity
  8
2
  100
AcDbBlockEnd
  0
BLOCK
  5
139
  330
13b
  100
AcDbEntity
  8
2
  100
AcDbBlockBegin
  2
*D13a
  70
1
  10
0
  20
0
  30
0
  3
*D13a
  1

  0
LINE
  5
13c
  330
13b
  100
AcDbEntity
  8
2
  100
AcDbLine
  10
60
  20
-7.238525
  30
0
  11
60
  21
-0.75
  31
0
  0
LINE
  5
13d
  330
13b
  100
AcDbEntity
  8
2
  100
AcDbLine
  10
57.7
  20
-7.238525
  30
0
  11
57.7
  21
-0.725
  31
0
  0
LINE
  5
13e
  330
13b
  100
AcDbEntity
  8
2
  100
AcDbLine
  10
60
  20
-5.238525
  30
0
  11
54.189356
  21
-5.238525
  31
0
  0
SOLID
  5
13f
  330
13b
  100
AcDbEntity
  8
2
  100
AcDbTrace
  10
60
  20
-5.238525
  30
0
  11
62.478612
  21
-4.91221
  31
0
  12
62.478612
  22
-5.564841
  32
0
  13
62.478612
  23
-5.564841
  33
0
  0
SOLID
  5
140
  330
13b
  100
AcDbEntity
  8
2
  100
AcDbTrace
  10
57.7
  20
-5.238525
  30
0
  11
55.221388
  21
-5.564841
  31
0
  12
55.221388
  22
-4.91221
  32
0
  13
55.221388
  23
-4.91221
  33
0
  0
MTEXT
  5
141
  330
13b
  100
AcDbEntity
  8
2
  100
AcDbMText
  10
58.85
  20
-5.238525
  30
0
  11
1
  21
-0
  31
0
  40
2
  41
0
  71
8
  72
1
  1
2.3
  0
POINT
  5
142
  330
13b
  100
AcDbEntity
  8
2
  62
0
  100
AcDbPoint
  10
60
  20
-0.75
  30
0
  0
POINT
  5
143
  330
13b
  100
AcDbEntity
  8
2
  62
0
  100
AcDbPoint
  10
57.7
  20
-0.725
  30
0
  0
POINT
  5
144
  330
13b
  100
AcDbEntity
  8
2
  62
0
  100
AcDbPoint
  10
54.189356
  20
-5.238525
  30
0
  0
ENDBLK
  5
145
  330
13b
  100
AcDbEntity
  8
2
  100
AcDbBlockEnd
  0
ENDSEC
  0
SECTION
  2
ENTITIES
  0
DIMENSION
  5
e4
  100
AcDbEntity
  8
SK2
  100
AcDbDimension
  2
*Dd8
  10
60
  20
12
  30
0
  11
30
  21
12
  31
0
  70
160
  1
<>
  71
5
  3
STANDARD
  42
60
  100
AcDbAlignedDimension
  13
0
  23
1.3
  33
0
  14
60
  24
0.75
  34
0
  50
0
  100
AcDbRotatedDimension
  0
DIMENSION
  5
f2
  100
AcDbEntity
  8
SK2
  100
AcDbDimension
  2
*De6
  10
30
  20
7.037689
  30
0
  11
15
  21
7.037689
  31
0
  70
160
  1
<>
  71
5
  3
STANDARD
  42
30
  100
AcDbAlignedDimension
  13
0
  23
1.3
  33
0
  14
30
  24
2
  34
0
  50
0
  100
AcDbRotatedDimension
  0
DIMENSION
  5
100
  100
AcDbEntity
  8
SK2
  100
AcDbDimension
  2
*Df4
  10
-10
  20
2
  30
0
  11
-10
  21
0
  31
0
  70
160
  1
%%c<>
  71
5
  3
STANDARD
  42
4
  100
AcDbAlignedDimension
  13
0.7
  23
-2
  33
0
  14
0.7
  24
2
  34
0
  50
-90
  100
AcDbRotatedDimension
  0
DIMENSION
  5
10e
  100
AcDbEntity
  8
2
  100
AcDbDimension
  2
*D102
  10
70
  20
0.75
  30
0
  11
70
  21
0
  31
0
  70
160
  1
%%c<>
  71
5
  3
STANDARD
  42
1.5
  100
AcDbAlignedDimension
  13
60
  23
-0.75
  33
0
  14
60
  24
0.75
  34
0
  50
-90
  100
AcDbRotatedDimension
  0
DIMENSION
  5
11c
  100
AcDbEntity
  8
2
  100
AcDbDimension
  2
*D110
  10
57.7
  20
9.096535
  30
0
  11
57.7
  21
0.725
  31
0
  70
160
  1
%%c<>
  71
5
  3
STANDARD
  42
1.45
  100
AcDbAlignedDimension
  13
55.7
  23
-0.725
  33
0
  14
55.7
  24
0.725
  34
0
  50
-90
  100
AcDbRotatedDimension
  0
DIMENSION
  5
12a
  100
AcDbEntity
  8
2
  100
AcDbDimension
  2
*D11e
  10
35.39
  20
7
  30
0
  11
50.95507
  21
7
  31
0
  70
160
  1
<>
  71
5
  3
STANDARD
  42
22.31
  100
AcDbAlignedDimension
  13
57.7
  23
0.725
  33
0
  14
35.39
  24
0.725
  34
0
  50
0
  100
AcDbRotatedDimension
  0
DIMENSION
  5
138
  100
AcDbEntity
  8
2
  100
AcDbDimension
  2
*D12c
  10
30
  20
7
  30
0
  11
45
  21
7
  31
0
  70
160
  1
<>
  71
5
  3
STANDARD
  42
30
  100
AcDbAlignedDimension
  13
60
  23
14
  33
0
  14
30
  24
2
  34
0
  50
0
  100
AcDbRotatedDimension
  0
DIMENSION
  5
146
  100
AcDbEntity
  8
2
  100
AcDbDimension
  2
*D13a
  10
54.189356
  20
-5.238525
  30
0
  11
58.85
  21
-5.238525
  31
0
  70
160
  1
<>
  71
5
  3
STANDARD
  42
2.3
  100
AcDbAlignedDimension
  13
60
  23
-0.75
  33
0
  14
57.7
  24
-0.725
  34
0
  50
0
  100
AcDbRotatedDimension
  0
LINE
  5
36
  100
AcDbEntity
  8
1
  100
AcDbLine
  10
30
  20
-2
  30
0
  11
30
  21
2
  31
0
  0
LINE
  5
37
  100
AcDbEntity
  8
1
  100
AcDbLine
  10
30
  20
2
  30
0
  11
30
  21
-2
  31
0
  0
LINE
  5
38
  100
AcDbEntity
  8
1
  100
AcDbLine
  10
30.236678
  20
-2
  30
0
  11
30.236678
  21
2
  31
0
  0
LINE
  5
39
  100
AcDbEntity
  8
1
  100
AcDbLine
  10
57.5
  20
0.725
  30
0
  11
57.5
  21
0.564726
  31
0
  0
LINE
  5
3a
  100
AcDbEntity
  8
1
  100
AcDbLine
  10
57.5
  20
0.564726
  30
0
  11
57.6
  21
0.428403
  31
0
  0
LINE
  5
3b
  100
AcDbEntity
  8
1
  100
AcDbLine
  10
57.6
  20
0.428403
  30
0
  11
57.7
  21
0.380354
  31
0
  0
LINE
  5
3c
  100
AcDbEntity
  8
1
  100
AcDbLine
  10
57.7
  20
0.380354
  30
0
  11
57.7
  21
0.391254
  31
0
  0
LINE
  5
3d
  100
AcDbEntity
  8
1
  100
AcDbLine
  10
57.7
  20
0.391254
  30
0
  11
57.8
  21
0.340888
  31
0
  0
LINE
  5
3e
  100
AcDbEntity
  8
1
  100
AcDbLine
  10
57.8
  20
0.340888
  30
0
  11
57.9
  21
0.288502
  31
0
  0
LINE
  5
3f
  100
AcDbEntity
  8
1
  100
AcDbLine
  10
57.9
  20
0.288502
  30
0
  11
58
  21
0.234408
  31
0
  0
LINE
  5
40
  100
AcDbEntity
  8
1
  100
AcDbLine
  10
58
  20
0.234408
  30
0
  11
58.1
  21
0.178925
  31
0
  0
LINE
  5
41
  100
AcDbEntity
  8
1
  100
AcDbLine
  10
58.1
  20
0.178925
  30
0
  11
58.2
  21
0.122383
  31
0
  0
LINE
  5
42
  100
AcDbEntity
  8
1
  100
AcDbLine
  10
58.2
  20
0.122383
  30
0
  11
58.3
  21
0.065116
  31
0
  0
LINE
  5
43
  100
AcDbEntity
  8
1
  100
AcDbLine
  10
58.3
  20
0.065116
  30
0
  11
58.4
  21
0.007462
  31
0
  0
LINE
  5
44
  100
AcDbEntity
  8
1
  100
AcDbLine
  10
58.4
  20
0.007462
  30
0
  11
58.5
  21
-0.050235
  31
0
  0
LINE
  5
45
  100
AcDbEntity
  8
1
  100
AcDbLine
  10
58.5
  20
-0.050235
  30
0
  11
58.6
  21
-0.107635
  31
0
  0
LINE
  5
46
  100
AcDbEntity
  8
1
  100
AcDbLine
  10
58.6
  20
-0.107635
  30
0
  11
58.7
  21
-0.164397
  31
0
  0
LINE
  5
47
  100
AcDbEntity
  8
1
  100
AcDbLine
  10
58.7
  20
-0.164397
  30
0
  11
58.8
  21
-0.220185
  31
0
  0
LINE
  5
48
  100
AcDbEntity
  8
1
  100
AcDbLine
  10
58.8
  20
-0.220185
  30
0
  11
58.9
  21
-0.27467
  31
0
  0
LINE
  5
49
  100
AcDbEntity
  8
1
  100
AcDbLine
  10
58.9
  20
-0.27467
  30
0
  11
59
  21
-0.327527
  31
0
  0
LINE
  5
4a
  100
AcDbEntity
  8
1
  100
AcDbLine
  10
59
  20
-0.327527
  30
0
  11
59.1
  21
-0.378445
  31
0
  0
LINE
  5
4b
  100
AcDbEntity
  8
1
  100
AcDbLine
  10
59.1
  20
-0.378445
  30
0
  11
59.2
  21
-0.427121
  31
0
  0
LINE
  5
4c
  100
AcDbEntity
  8
1
  100
AcDbLine
  10
59.2
  20
-0.427121
  30
0
  11
59.3
  21
-0.473267
  31
0
  0
LINE
  5
4d
  100
AcDbEntity
  8
1
  100
AcDbLine
  10
59.3
  20
-0.473267
  30
0
  11
59.4
  21
-0.51661
  31
0
  0
LINE
  5
4e
  100
AcDbEntity
  8
1
  100
AcDbLine
  10
59.4
  20
-0.51661
  30
0
  11
59.5
  21
-0.556893
  31
0
  0
LINE
  5
4f
  100
AcDbEntity
  8
1
  100
AcDbLine
  10
59.5
  20
-0.556893
  30
0
  11
59.6
  21
-0.593877
  31
0
  0
LINE
  5
50
  100
AcDbEntity
  8
1
  100
AcDbLine
  10
59.6
  20
-0.593877
  30
0
  11
59.7
  21
-0.627345
  31
0
  0
LINE
  5
51
  100
AcDbEntity
  8
1
  100
AcDbLine
  10
59.7
  20
-0.627345
  30
0
  11
59.8
  21
-0.657096
  31
0
  0
LINE
  5
52
  100
AcDbEntity
  8
1
  100
AcDbLine
  10
59.8
  20
-0.657096
  30
0
  11
59.9
  21
-0.682955
  31
0
  0
LINE
  5
53
  100
AcDbEntity
  8
1
  100
AcDbLine
  10
59.9
  20
-0.682955
  30
0
  11
60
  21
-0.704769
  31
0
  0
LINE
  5
54
  100
AcDbEntity
  8
1
  100
AcDbLine
  10
60
  20
-0.736976
  30
0
  11
59.9
  21
-0.729114
  31
0
  0
LINE
  5
55
  100
AcDbEntity
  8
1
  100
AcDbLine
  10
59.9
  20
-0.729114
  30
0
  11
59.8
  21
-0.716932
  31
0
  0
LINE
  5
56
  100
AcDbEntity
  8
1
  100
AcDbLine
  10
59.8
  20
-0.716932
  30
0
  11
59.7
  21
-0.700505
  31
0
  0
LINE
  5
57
  100
AcDbEntity
  8
1
  100
AcDbLine
  10
59.7
  20
-0.700505
  30
0
  11
59.6
  21
-0.679928
  31
0
  0
LINE
  5
58
  100
AcDbEntity
  8
1
  100
AcDbLine
  10
59.6
  20
-0.679928
  30
0
  11
59.5
  21
-0.655324
  31
0
  0
LINE
  5
59
  100
AcDbEntity
  8
1
  100
AcDbLine
  10
59.5
  20
-0.655324
  30
0
  11
59.4
  21
-0.626839
  31
0
  0
LINE
  5
5a
  100
AcDbEntity
  8
1
  100
AcDbLine
  10
59.4
  20
-0.626839
  30
0
  11
59.3
  21
-0.59464
  31
0
  0
LINE
  5
5b
  100
AcDbEntity
  8
1
  100
AcDbLine
  10
59.3
  20
-0.59464
  30
0
  11
59.2
  21
-0.55892
  31
0
  0
LINE
  5
5c
  100
AcDbEntity
  8
1
  100
AcDbLine
  10
59.2
  20
-0.55892
  30
0
  11
59.1
  21
-0.519889
  31
0
  0
LINE
  5
5d
  100
AcDbEntity
  8
1
  100
AcDbLine
  10
59.1
  20
-0.519889
  30
0
  11
59
  21
-0.477779
  31
0
  0
LINE
  5
5e
  100
AcDbEntity
  8
1
  100
AcDbLine
  10
59
  20
-0.477779
  30
0
  11
58.9
  21
-0.432839
  31
0
  0
LINE
  5
5f
  100
AcDbEntity
  8
1
  100
AcDbLine
  10
58.9
  20
-0.432839
  30
0
  11
58.8
  21
-0.385336
  31
0
  0
LINE
  5
60
  100
AcDbEntity
  8
1
  100
AcDbLine
  10
58.8
  20
-0.385336
  30
0
  11
58.7
  21
-0.33555
  31
0
  0
LINE
  5
61
  100
AcDbEntity
  8
1
  100
AcDbLine
  10
58.7
  20
-0.33555
  30
0
  11
58.6
  21
-0.283776
  31
0
  0
LINE
  5
62
  100
AcDbEntity
  8
1
  100
AcDbLine
  10
58.6
  20
-0.283776
  30
0
  11
58.5
  21
-0.230322
  31
0
  0
LINE
  5
63
  100
AcDbEntity
  8
1
  100
AcDbLine
  10
58.5
  20
-0.230322
  30
0
  11
58.4
  21
-0.175503
  31
0
  0
LINE
  5
64
  100
AcDbEntity
  8
1
  100
AcDbLine
  10
58.4
  20
-0.175503
  30
0
  11
58.3
  21
-0.119646
  31
0
  0
LINE
  5
65
  100
AcDbEntity
  8
1
  100
AcDbLine
  10
58.3
  20
-0.119646
  30
0
  11
58.2
  21
-0.063079
  31
0
  0
LINE
  5
66
  100
AcDbEntity
  8
1
  100
AcDbLine
  10
58.2
  20
-0.063079
  30
0
  11
58.1
  21
-0.006139
  31
0
  0
LINE
  5
67
  100
AcDbEntity
  8
1
  100
AcDbLine
  10
58.1
  20
-0.006139
  30
0
  11
58
  21
0.050838
  31
0
  0
LINE
  5
68
  100
AcDbEntity
  8
1
  100
AcDbLine
  10
58
  20
0.050838
  30
0
  11
57.9
  21
0.107513
  31
0
  0
LINE
  5
69
  100
AcDbEntity
  8
1
  100
AcDbLine
  10
57.9
  20
0.107513
  30
0
  11
57.8
  21
0.163552
  31
0
  0
LINE
  5
6a
  100
AcDbEntity
  8
1
  100
AcDbLine
  10
57.7
  20
-0.75
  30
0
  11
57.7
  21
0.75
  31
0
  0
LINE
  5
6b
  100
AcDbEntity
  8
1
  100
AcDbLine
  10
57.7
  20
0.725
  30
0
  11
57.7
  21
-0.725
  31
0
  0
LINE
  5
6c
  100
AcDbEntity
  8
1
  100
AcDbLine
  10
57.5
  20
-0.725
  30
0
  11
57.5
  21
0.244895
  31
0
  0
LINE
  5
6d
  100
AcDbEntity
  8
1
  100
AcDbLine
  10
57.5
  20
0.244895
  30
0
  11
57.6
  21
0.201451
  31
0
  0
LINE
  5
6e
  100
AcDbEntity
  8
1
  100
AcDbLine
  10
57.6
  20
0.201451
  30
0
  11
57.7
  21
0.147297
  31
0
  0
LINE
  5
6f
  100
AcDbEntity
  8
1
  100
AcDbLine
  10
57.7
  20
0.147297
  30
0
  11
57.7
  21
0.148814
  31
0
  0
LINE
  5
70
  100
AcDbEntity
  8
1
  100
AcDbLine
  10
57.7
  20
0.148814
  30
0
  11
57.8
  21
0.091842
  31
0
  0
LINE
  5
71
  100
AcDbEntity
  8
1
  100
AcDbLine
  10
57.8
  20
0.091842
  30
0
  11
57.9
  21
0.034326
  31
0
  0
LINE
  5
72
  100
AcDbEntity
  8
1
  100
AcDbLine
  10
57.9
  20
0.034326
  30
0
  11
58
  21
-0.023393
  31
0
  0
LINE
  5
73
  100
AcDbEntity
  8
1
  100
AcDbLine
  10
58
  20
-0.023393
  30
0
  11
58.1
  21
-0.080974
  31
0
  0
LINE
  5
74
  100
AcDbEntity
  8
1
  100
AcDbLine
  10
58.1
  20
-0.080974
  30
0
  11
58.2
  21
-0.138075
  31
0
  0
LINE
  5
75
  100
AcDbEntity
  8
1
  100
AcDbLine
  10
58.2
  20
-0.138075
  30
0
  11
58.3
  21
-0.194358
  31
0
  0
LINE
  5
76
  100
AcDbEntity
  8
1
  100
AcDbLine
  10
58.3
  20
-0.194358
  30
0
  11
58.4
  21
-0.24949
  31
0
  0
LINE
  5
77
  100
AcDbEntity
  8
1
  100
AcDbLine
  10
58.4
  20
-0.24949
  30
0
  11
58.5
  21
-0.303144
  31
0
  0
LINE
  5
78
  100
AcDbEntity
  8
1
  100
AcDbLine
  10
58.5
  20
-0.303144
  30
0
  11
58.6
  21
-0.355003
  31
0
  0
LINE
  5
79
  100
AcDbEntity
  8
1
  100
AcDbLine
  10
58.6
  20
-0.355003
  30
0
  11
58.7
  21
-0.404759
  31
0
  0
LINE
  5
7a
  100
AcDbEntity
  8
1
  100
AcDbLine
  10
58.7
  20
-0.404759
  30
0
  11
58.8
  21
-0.452118
  31
0
  0
LINE
  5
7b
  100
AcDbEntity
  8
1
  100
AcDbLine
  10
58.8
  20
-0.452118
  30
0
  11
58.9
  21
-0.496799
  31
0
  0
LINE
  5
7c
  100
AcDbEntity
  8
1
  100
AcDbLine
  10
58.9
  20
-0.496799
  30
0
  11
59
  21
-0.538537
  31
0
  0
LINE
  5
7d
  100
AcDbEntity
  8
1
  100
AcDbLine
  10
59
  20
-0.538537
  30
0
  11
59.1
  21
-0.577086
  31
0
  0
LINE
  5
7e
  100
AcDbEntity
  8
1
  100
AcDbLine
  10
59.1
  20
-0.577086
  30
0
  11
59.2
  21
-0.612216
  31
0
  0
LINE
  5
7f
  100
AcDbEntity
  8
1
  100
AcDbLine
  10
59.2
  20
-0.612216
  30
0
  11
59.3
  21
-0.643721
  31
0
  0
LINE
  5
80
  100
AcDbEntity
  8
1
  100
AcDbLine
  10
59.3
  20
-0.643721
  30
0
  11
59.4
  21
-0.671412
  31
0
  0
LINE
  5
81
  100
AcDbEntity
  8
1
  100
AcDbLine
  10
59.4
  20
-0.671412
  30
0
  11
59.5
  21
-0.695127
  31
0
  0
LINE
  5
82
  100
AcDbEntity
  8
1
  100
AcDbLine
  10
59.5
  20
-0.695127
  30
0
  11
59.6
  21
-0.714724
  31
0
  0
LINE
  5
83
  100
AcDbEntity
  8
1
  100
AcDbLine
  10
59.6
  20
-0.714724
  30
0
  11
59.7
  21
-0.730089
  31
0
  0
LINE
  5
84
  100
AcDbEntity
  8
1
  100
AcDbLine
  10
59.7
  20
-0.730089
  30
0
  11
59.8
  21
-0.741129
  31
0
  0
LINE
  5
85
  100
AcDbEntity
  8
1
  100
AcDbLine
  10
59.8
  20
-0.741129
  30
0
  11
59.9
  21
-0.747779
  31
0
  0
LINE
  5
86
  100
AcDbEntity
  8
1
  100
AcDbLine
  10
59.9
  20
-0.747779
  30
0
  11
60
  21
-0.75
  31
0
  0
LINE
  5
87
  100
AcDbEntity
  8
1
  100
AcDbLine
  10
60
  20
-0.75
  30
0
  11
60
  21
0
  31
0
  0
LINE
  5
88
  100
AcDbEntity
  8
1
  100
AcDbLine
  10
60
  20
0
  30
0
  11
60
  21
0.75
  31
0
  0
LINE
  5
89
  100
AcDbEntity
  8
1
  100
AcDbLine
  10
60
  20
0.75
  30
0
  11
57.7
  21
0.75
  31
0
  0
LINE
  5
8a
  100
AcDbEntity
  8
1
  100
AcDbLine
  10
57.7
  20
0.75
  30
0
  11
57.7
  21
0.725
  31
0
  0
LINE
  5
8b
  100
AcDbEntity
  8
1
  100
AcDbLine
  10
57.7
  20
0.725
  30
0
  11
35.39
  21
0.725
  31
0
  0
ARC
  5
8c
  100
AcDbEntity
  8
1
  100
AcDbCircle
  10
35.39
  20
3.725
  30
0
  40
3
  100
AcDbArc
  50
255
  51
270
  0
LINE
  5
8d
  100
AcDbEntity
  8
1
  100
AcDbLine
  10
34.613543
  20
0.827223
  30
0
  11
30.236678
  21
2
  31
0
  0
LINE
  5
8e
  100
AcDbEntity
  8
1
  100
AcDbLine
  10
30.236678
  20
2
  30
0
  11
30
  21
2
  31
0
  0
LINE
  5
8f
  100
AcDbEntity
  8
1
  100
AcDbLine
  10
30
  20
2
  30
0
  11
30
  21
-2
  31
0
  0
LINE
  5
90
  100
AcDbEntity
  8
1
  100
AcDbLine
  10
30
  20
-2
  30
0
  11
30.236678
  21
-2
  31
0
  0
LINE
  5
91
  100
AcDbEntity
  8
1
  100
AcDbLine
  10
30.236678
  20
-2
  30
0
  11
34.613543
  21
-0.827223
  31
0
  0
LINE
  5
92
  100
AcDbEntity
  8
1
  100
AcDbLine
  10
34.613543
  20
-0.827223
  30
0
  11
34.613543
  21
0.827223
  31
0
  0
LINE
  5
93
  100
AcDbEntity
  8
1
  100
AcDbLine
  10
35.39
  20
0.725
  30
0
  11
35.39
  21
-0.725
  31
0
  0
ARC
  5
94
  100
AcDbEntity
  8
1
  100
AcDbCircle
  10
35.39
  20
-3.725
  30
0
  40
3
  100
AcDbArc
  50
90
  51
105
  0
LINE
  5
95
  100
AcDbEntity
  8
1
  100
AcDbLine
  10
35.39
  20
-0.725
  30
0
  11
57.7
  21
-0.725
  31
0
  0
LINE
  5
96
  100
AcDbEntity
  8
1
  100
AcDbLine
  10
57.7
  20
-0.725
  30
0
  11
57.7
  21
-0.75
  31
0
  0
LINE
  5
97
  100
AcDbEntity
  8
1
  100
AcDbLine
  10
57.7
  20
-0.75
  30
0
  11
60
  21
-0.75
  31
0
  0
LINE
  5
98
  100
AcDbEntity
  8
1
  100
AcDbLine
  10
60
  20
-0.75
  30
0
  11
60
  21
0.75
  31
0
  0
LINE
  5
99
  100
AcDbEntity
  8
SK1
  100
AcDbLine
  10
30
  20
2
  30
0
  11
0.7
  21
2
  31
0
  0
LINE
  5
9a
  100
AcDbEntity
  8
SK1
  100
AcDbLine
  10
0.7
  20
2
  30
0
  11
0
  21
1.3
  31
0
  0
LINE
  5
9b
  100
AcDbEntity
  8
SK1
  100
AcDbLine
  10
30
  20
-2
  30
0
  11
0.7
  21
-2
  31
0
  0
LINE
  5
9c
  100
AcDbEntity
  8
SK1
  100
AcDbLine
  10
0.7
  20
-2
  30
0
  11
0
  21
-1.3
  31
0
  0
LINE
  5
9d
  100
AcDbEntity
  8
SK1
  100
AcDbLine
  10
0.7
  20
2
  30
0
  11
0.7
  21
-2
  31
0
  0
LINE
  5
9e
  100
AcDbEntity
  8
SK1
  100
AcDbLine
  10
0
  20
1.3
  30
0
  11
0
  21
-1.3
  31
0
  0
LINE
  5
9f
  100
AcDbEntity
  8
SK1
  100
AcDbLine
  10
31.0401
  20
1.40688
  30
0
  11
31.4069
  21
1.0401
  31
0
  0
LINE
  5
a0
  100
AcDbEntity
  8
SK1
  100
AcDbLine
  10
30.5328
  20
1.66666
  30
0
  11
31.6667
  21
0.532833
  31
0
  0
LINE
  5
a1
  100
AcDbEntity
  8
SK1
  100
AcDbLine
  10
30.2154
  20
1.73657
  30
0
  11
31.7366
  21
0.215434
  31
0
  0
LINE
  5
a2
  100
AcDbEntity
  8
SK1
  100
AcDbLine
  10
30
  20
1.70452
  30
0
  11
31.7045
  21
0
  31
0
  0
LINE
  5
a3
  100
AcDbEntity
  8
SK1
  100
AcDbLine
  10
30
  20
1.45703
  30
0
  11
31.457
  21
0
  31
0
  0
LINE
  5
a4
  100
AcDbEntity
  8
SK1
  100
AcDbLine
  10
30
  20
1.20954
  30
0
  11
31.2095
  21
0
  31
0
  0
LINE
  5
a5
  100
AcDbEntity
  8
SK1
  100
AcDbLine
  10
30
  20
0.962054
  30
0
  11
30.9621
  21
0
  31
0
  0
LINE
  5
a6
  100
AcDbEntity
  8
SK1
  100
AcDbLine
  10
30
  20
0.714566
  30
0
  11
30.7146
  21
0
  31
0
  0
LINE
  5
a7
  100
AcDbEntity
  8
SK1
  100
AcDbLine
  10
30
  20
0.467079
  30
0
  11
30.4671
  21
0
  31
0
  0
LINE
  5
a8
  100
AcDbEntity
  8
SK1
  100
AcDbLine
  10
30
  20
0.219592
  30
0
  11
30.2196
  21
0
  31
0
  0
LINE
  5
a9
  100
AcDbEntity
  8
SK1
  100
AcDbLine
  10
30
  20
1.70452
  30
0
  11
30.0441
  21
1.74861
  31
0
  0
LINE
  5
aa
  100
AcDbEntity
  8
SK1
  100
AcDbLine
  10
30
  20
1.45703
  30
0
  11
30.271
  21
1.72802
  31
0
  0
LINE
  5
ab
  100
AcDbEntity
  8
SK1
  100
AcDbLine
  10
30
  20
1.20954
  30
0
  11
30.4742
  21
1.6837
  31
0
  0
LINE
  5
ac
  100
AcDbEntity
  8
SK1
  100
AcDbLine
  10
30
  20
0.962054
  30
0
  11
30.6588
  21
1.62082
  31
0
  0
LINE
  5
ad
  100
AcDbEntity
  8
SK1
  100
AcDbLine
  10
30
  20
0.714566
  30
0
  11
30.8271
  21
1.54167
  31
0
  0
LINE
  5
ae
  100
AcDbEntity
  8
SK1
  100
AcDbLine
  10
30
  20
0.467079
  30
0
  11
30.981
  21
1.44812
  31
0
  0
LINE
  5
af
  100
AcDbEntity
  8
SK1
  100
AcDbLine
  10
30
  20
0.219592
  30
0
  11
31.1226
  21
1.34216
  31
0
  0
LINE
  5
b0
  100
AcDbEntity
  8
SK1
  100
AcDbLine
  10
30.0279
  20
0
  30
0
  11
31.2508
  21
1.22288
  31
0
  0
LINE
  5
b1
  100
AcDbEntity
  8
SK1
  100
AcDbLine
  10
30.2754
  20
0
  30
0
  11
31.367
  21
1.09157
  31
0
  0
LINE
  5
b2
  100
AcDbEntity
  8
SK1
  100
AcDbLine
  10
30.5229
  20
0
  30
0
  11
31.4707
  21
0.947822
  31
0
  0
LINE
  5
b3
  100
AcDbEntity
  8
SK1
  100
AcDbLine
  10
30.7704
  20
0
  30
0
  11
31.5605
  21
0.790145
  31
0
  0
LINE
  5
b4
  100
AcDbEntity
  8
SK1
  100
AcDbLine
  10
31.0178
  20
0
  30
0
  11
31.6364
  21
0.618517
  31
0
  0
LINE
  5
b5
  100
AcDbEntity
  8
SK1
  100
AcDbLine
  10
31.2653
  20
0
  30
0
  11
31.696
  21
0.430696
  31
0
  0
LINE
  5
b6
  100
AcDbEntity
  8
SK1
  100
AcDbLine
  10
31.5128
  20
0
  30
0
  11
31.7356
  21
0.222827
  31
0
  0
LINE
  5
b7
  100
AcDbEntity
  8
SK1
  100
AcDbLine
  10
30
  20
0
  30
0
  11
30
  21
1.75
  31
0
  0
LINE
  5
b8
  100
AcDbEntity
  8
SK1
  100
AcDbLine
  10
30
  20
0
  30
0
  11
31.75
  21
0
  31
0
  0
ARC
  5
b9
  100
AcDbEntity
  8
SK1
  100
AcDbCircle
  10
30
  20
0
  30
0
  40
1.75
  100
AcDbArc
  50
0
  51
90
  0
ARC
  5
ba
  100
AcDbEntity
  8
SK1
  100
AcDbCircle
  10
30
  20
0
  30
0
  40
1.75
  100
AcDbArc
  50
90
  51
180
  0
LINE
  5
bb
  100
AcDbEntity
  8
SK1
  100
AcDbLine
  10
29.9721
  20
0
  30
0
  11
30
  21
-0.027896
  31
0
  0
LINE
  5
bc
  100
AcDbEntity
  8
SK1
  100
AcDbLine
  10
29.7246
  20
0
  30
0
  11
30
  21
-0.275383
  31
0
  0
LINE
  5
bd
  100
AcDbEntity
  8
SK1
  100
AcDbLine
  10
29.4771
  20
0
  30
0
  11
30
  21
-0.522871
  31
0
  0
LINE
  5
be
  100
AcDbEntity
  8
SK1
  100
AcDbLine
  10
29.2296
  20
0
  30
0
  11
30
  21
-0.770358
  31
0
  0
LINE
  5
bf
  100
AcDbEntity
  8
SK1
  100
AcDbLine
  10
28.9822
  20
0
  30
0
  11
30
  21
-1.01785
  31
0
  0
LINE
  5
c0
  100
AcDbEntity
  8
SK1
  100
AcDbLine
  10
28.7347
  20
0
  30
0
  11
30
  21
-1.26533
  31
0
  0
LINE
  5
c1
  100
AcDbEntity
  8
SK1
  100
AcDbLine
  10
28.4872
  20
0
  30
0
  11
30
  21
-1.51282
  31
0
  0
LINE
  5
c2
  100
AcDbEntity
  8
SK1
  100
AcDbLine
  10
28.2503
  20
-0.010642
  30
0
  11
29.9894
  21
-1.74967
  31
0
  0
LINE
  5
c3
  100
AcDbEntity
  8
SK1
  100
AcDbLine
  10
28.2736
  20
-0.281429
  30
0
  11
29.7186
  21
-1.72637
  31
0
  0
LINE
  5
c4
  100
AcDbEntity
  8
SK1
  100
AcDbLine
  10
28.3639
  20
-0.619147
  30
0
  11
29.3809
  21
-1.63613
  31
0
  0
LINE
  5
c5
  100
AcDbEntity
  8
SK1
  100
AcDbLine
  10
28.2514
  20
-0.044098
  30
0
  11
28.2955
  21
0
  31
0
  0
LINE
  5
c6
  100
AcDbEntity
  8
SK1
  100
AcDbLine
  10
28.272
  20
-0.270991
  30
0
  11
28.543
  21
0
  31
0
  0
LINE
  5
c7
  100
AcDbEntity
  8
SK1
  100
AcDbLine
  10
28.3163
  20
-0.474162
  30
0
  11
28.7905
  21
0
  31
0
  0
LINE
  5
c8
  100
AcDbEntity
  8
SK1
  100
AcDbLine
  10
28.3792
  20
-0.658762
  30
0
  11
29.0379
  21
0
  31
0
  0
LINE
  5
c9
  100
AcDbEntity
  8
SK1
  100
AcDbLine
  10
28.4583
  20
-0.827105
  30
0
  11
29.2854
  21
0
  31
0
  0
LINE
  5
ca
  100
AcDbEntity
  8
SK1
  100
AcDbLine
  10
28.5519
  20
-0.981039
  30
0
  11
29.5329
  21
0
  31
0
  0
LINE
  5
cb
  100
AcDbEntity
  8
SK1
  100
AcDbLine
  10
28.6578
  20
-1.12257
  30
0
  11
29.7804
  21
0
  31
0
  0
LINE
  5
cc
  100
AcDbEntity
  8
SK1
  100
AcDbLine
  10
28.7771
  20
-1.25077
  30
0
  11
30
  21
-0.027896
  31
0
  0
LINE
  5
cd
  100
AcDbEntity
  8
SK1
  100
AcDbLine
  10
28.9084
  20
-1.36695
  30
0
  11
30
  21
-0.275383
  31
0
  0
LINE
  5
ce
  100
AcDbEntity
  8
SK1
  100
AcDbLine
  10
29.0522
  20
-1.47069
  30
0
  11
30
  21
-0.522871
  31
0
  0
LINE
  5
cf
  100
AcDbEntity
  8
SK1
  100
AcDbLine
  10
29.2099
  20
-1.5605
  30
0
  11
30
  21
-0.770358
  31
0
  0
LINE
  5
d0
  100
AcDbEntity
  8
SK1
  100
AcDbLine
  10
29.3815
  20
-1.63636
  30
0
  11
30
  21
-1.01785
  31
0
  0
LINE
  5
d1
  100
AcDbEntity
  8
SK1
  100
AcDbLine
  10
29.5693
  20
-1.69603
  30
0
  11
30
  21
-1.26533
  31
0
  0
LINE
  5
d2
  100
AcDbEntity
  8
SK1
  100
AcDbLine
  10
29.7772
  20
-1.73565
  30
0
  11
30
  21
-1.51282
  31
0
  0
LINE
  5
d3
  100
AcDbEntity
  8
SK1
  100
AcDbLine
  10
30
  20
0
  30
0
  11
28.25
  21
0
  31
0
  0
LINE
  5
d4
  100
AcDbEntity
  8
SK1
  100
AcDbLine
  10
30
  20
-1.75
  30
0
  11
30
  21
0
  31
0
  0
ARC
  5
d5
  100
AcDbEntity
  8
SK1
  100
AcDbCircle
  10
30
  20
0
  30
0
  40
1.75
  100
AcDbArc
  50
180
  51
270
  0
ARC
  5
d6
  100
AcDbEntity
  8
SK1
  100
AcDbCircle
  10
30
  20
0
  30
0
  40
1.75
  100
AcDbArc
  50
270
  51
0
  0
LINE
  5
147
  100
AcDbEntity
  8
NOCUT
  100
AcDbLine
  10
57.7
  20
0
  30
0
  11
57.7
  21
0.725
  31
0
  0
LINE
  5
148
  100
AcDbEntity
  8
NOCUT
  100
AcDbLine
  10
57.7
  20
0.725
  30
0
  11
35.39
  21
0.725
  31
0
  0
ARC
  5
149
  100
AcDbEntity
  8
NOCUT
  100
AcDbCircle
  10
35.39
  20
3.725
  30
0
  40
3
  100
AcDbArc
  50
255
  51
270
  0
LINE
  5
14a
  100
AcDbEntity
  8
NOCUT
  100
AcDbLine
  10
34.613543
  20
0.827223
  30
0
  11
30.236678
  21
2
  31
0
  0
LINE
  5
14b
  100
AcDbEntity
  8
NOCUT
  100
AcDbLine
  10
30.236678
  20
2
  30
0
  11
30
  21
2
  31
0
  0
LINE
  5
14c
  100
AcDbEntity
  8
NOCUT
  100
AcDbLine
  10
30
  20
2
  30
0
  11
30
  21
0
  31
0
  0
LINE
  5
14d
  100
AcDbEntity
  8
NOCUT
  100
AcDbLine
  10
30
  20
0
  30
0
  11
57.7
  21
0
  31
0
  0
LINE
  5
14e
  100
AcDbEntity
  8
CUT
  100
AcDbLine
  10
60
  20
0
  30
0
  11
60
  21
0.75
  31
0
  0
LINE
  5
14f
  100
AcDbEntity
  8
CUT
  100
AcDbLine
  10
60
  20
0.75
  30
0
  11
57.7
  21
0.75
  31
0
  0
LINE
  5
150
  100
AcDbEntity
  8
CUT
  100
AcDbLine
  10
57.7
  20
0.75
  30
0
  11
57.7
  21
0
  31
0
  0
LINE
  5
151
  100
AcDbEntity
  8
CUT
  100
AcDbLine
  10
57.7
  20
0
  30
0
  11
60
  21
0
  31
0
  0
LINE
  5
152
  100
AcDbEntity
  8
4
  100
AcDbLine
  10
30
  20
0
  30
0
  11
60
  21
0
  31
0
  0
LINE
  5
153
  100
AcDbEntity
  8
SK4
  100
AcDbLine
  10
-1
  20
0
  30
0
  11
61
  21
0
  31
0
  0
LINE
  5
154
  100
AcDbEntity
  8
INFTOTAL
  100
AcDbLine
  10
-16.2
  20
18.2
  30
0
  11
76.2
  21
18.2
  31
0
  0
LINE
  5
155
  100
AcDbEntity
  8
INFTOTAL
  100
AcDbLine
  10
76.2
  20
18.2
  30
0
  11
76.2
  21
-11.438525
  31
0
  0
LINE
  5
156
  100
AcDbEntity
  8
INFTOTAL
  100
AcDbLine
  10
76.2
  20
-11.438525
  30
0
  11
-16.2
  21
-11.438525
  31
0
  0
LINE
  5
157
  100
AcDbEntity
  8
INFTOTAL
  100
AcDbLine
  10
-16.2
  20
-11.438525
  30
0
  11
-16.2
  21
18.2
  31
0
  0
ENDSEC
  0
SECTION
  2
OBJECTS
  0
DICTIONARY
  5
158
  330
0
100
AcDbDictionary
281
    1
  3
ACAD_GROUP
  350
159
  0
DICTIONARY
  5
159
102
{ACAD_REACTORS
  330
158
102
}
  330
158
100
AcDbDictionary
281
    1
  0
ENDSEC
  0
EOF
