  0
SECTION
  2
HEADER
  9
$ACADVER
  1
AC1015
  9
$DWGCODEPAGE
  3
ANSI_932
  9
$HANDSEED
  5
106AB90
  0
ENDSEC
  0
SECTION
  2
CLASSES
  0
CLASS
  1
IMAGEDEF
  2
AcDbRasterImageDef
  3
ISM
  90
0
  91
4
  280
0
  281
0
  0
CLASS
  1
IMAGE
  2
AcDbRasterImage
  3
ISM
  90
127
  91
5
  280
0
  281
1
  0
CLASS
  1
IMAGEDEF_REACTOR
  2
AcDbRasterImageDefReactor
  3
ISM
  90
1
  91
4
  280
0
  281
0
  0
ENDSEC
  0
SECTION
  2
TABLES
  0
TABLE
  2
VPORT
  5
2
  330
0
  100
AcDbSymbolTable
  70
    0
  0
ENDTAB
  0
TABLE
  2
LTYPE
  5
3
  330
0
  100
AcDbSymbolTable
  70
    4
  0
LTYPE
  5
4
  330
3
  100
AcDbSymbolTableRecord
  100
AcDbLinetypeTableRecord
  2
ByBlock
  70
    0
  3

  72
65
  73
    0
  40
0
  0
LTYPE
  5
5
  330
3
  100
AcDbSymbolTableRecord
  100
AcDbLinetypeTableRecord
  2
ByLayer
  70
    0
  3

  72
65
  73
    0
  40
0
  0
LTYPE
  5
6
  330
3
  100
AcDbSymbolTableRecord
  100
AcDbLinetypeTableRecord
  2
CONTINUOUS
  70
    0
  3
Solid Line
  72
65
  73
    0
  40
0
  0
LTYPE
  5
7
  330
3
  100
AcDbSymbolTableRecord
  100
AcDbLinetypeTableRecord
  2
DASH
  70
    0
  3
Hidden
  72
65
  73
2
  40
2.5
  49
1.5
  74
0
  49
-1
  74
0
  0
LTYPE
  5
8
  330
3
  100
AcDbSymbolTableRecord
  100
AcDbLinetypeTableRecord
  2
LONGDASHDASH
  70
    0
  3
__ . __
  72
65
  73
    4
  40
7
  49
4
  74
    0
  49
-1
  74
    0
  49
1
  74
    0
  49
-1
  74
    0
  0
ENDTAB
  0
TABLE
  2
LAYER
  5
9
  330
0
  100
AcDbSymbolTable
  70
    40
  0
LAYER
  5
a
  330
9
  100
AcDbSymbolTableRecord
  100
AcDbLayerTableRecord
  2
0
  70
    0
  62
    0
  6
CONTINUOUS
  390
0
  0
LAYER
  5
c
  330
9
  100
AcDbSymbolTableRecord
  100
AcDbLayerTableRecord
  2
1
  70
    0
  62
    4
  6
CONTINUOUS
  370
50
  390
0
  0
LAYER
  5
d
  330
9
  100
AcDbSymbolTableRecord
  100
AcDbLayerTableRecord
  2
2
  70
    0
  62
    7
  6
CONTINUOUS
  370
25
  390
0
  0
LAYER
  5
f
  330
9
  100
AcDbSymbolTableRecord
  100
AcDbLayerTableRecord
  2
4
  70
    0
  62
    2
  6
LONGDASHDASH
  370
25
  390
0
  0
LAYER
  5
13
  330
9
  100
AcDbSymbolTableRecord
  100
AcDbLayerTableRecord
  2
SK1
  70
    0
  62
    4
  6
CONTINUOUS
  370
50
  390
0
  0
LAYER
  5
14
  330
9
  100
AcDbSymbolTableRecord
  100
AcDbLayerTableRecord
  2
SK2
  70
    0
  62
    7
  6
CONTINUOUS
  370
25
  390
0
  0
LAYER
  5
16
  330
9
  100
AcDbSymbolTableRecord
  100
AcDbLayerTableRecord
  2
SK4
  70
    0
  62
    2
  6
LONGDASHDASH
  370
25
  390
0
  0
LAYER
  5
21
  330
9
  100
AcDbSymbolTableRecord
  100
AcDbLayerTableRecord
  2
NOCUT
  70
    0
  62
    7
  6
CONTINUOUS
  370
25
  390
0
  0
LAYER
  5
22
  330
9
  100
AcDbSymbolTableRecord
  100
AcDbLayerTableRecord
  2
CUT
  70
    0
  62
    1
  6
CONTINUOUS
  370
25
  390
0
  0
LAYER
  5
26
  330
9
  100
AcDbSymbolTableRecord
  100
AcDbLayerTableRecord
  2
INFTOTAL
  70
    0
  62
    9
  6
CONTINUOUS
  370
18
  390
0
  0
ENDTAB
  0
TABLE
  2
STYLE
  5
27
  330
0
  100
AcDbSymbolTable
  70
    1
  0
STYLE
  5
28
  330
27
  100
AcDbSymbolTableRecord
  100
AcDbTextStyleTableRecord
  2
Monospac821 BT
  70
    0
  40
    3.5
  41
1
  50
0
  71
0
  42
3
  3

  4

  1001
ACAD
  1000
Monospac821 BT
  1071
256
  0
ENDTAB
  0
TABLE
  2
VIEW
  5
29
  330
0
  100
AcDbSymbolTable
  70
    0
  0
ENDTAB
  0
TABLE
  2
UCS
  5
2a
  330
0
  100
AcDbSymbolTable
  70
    0
  0
ENDTAB
  0
TABLE
  2
APPID
  5
2b
  330
0
  100
AcDbSymbolTable
  70
    1
  0
APPID
  5
2c
  330
2b
  100
AcDbSymbolTableRecord
  100
AcDbRegAppTableRecord
  2
ACAD
  70
    0
  0
ENDTAB
  0
TABLE
  2
DIMSTYLE
  5
2d
  330
0
  100
AcDbSymbolTable
  70
    1
  100
AcDbDimStyleTable
  0
DIMSTYLE
  105
2e
  330
2d
  100
AcDbSymbolTableRecord
  100
AcDbDimStyleTableRecord
  2
STANDARD
  70
    0
  41
    3
  42
0.5
  44
1
  73
0
  77
1
  78
1
  140
3.5
  141
2.5
  143
0.03937
  147
0.8
  172
1
  174
1
  178
0
  179
1
  271
2
  279
1
  284
1
  340
28
  0
ENDTAB
  0
TABLE
  2
BLOCK_RECORD
  5
2f
  330
0
  100
AcDbSymbolTable
  70
    2
  0
BLOCK_RECORD
  5
30
  330
2f
  100
AcDbSymbolTableRecord
  100
AcDbBlockTableRecord
  2
*Model_Space
  0
BLOCK_RECORD
  5
31
  330
2f
  100
AcDbSymbolTableRecord
  100
AcDbBlockTableRecord
  2
*Paper_Space
  0
BLOCK_RECORD
  5
de
  330
2f
  100
AcDbSymbolTableRecord
  100
AcDbBlockTableRecord
  2
*Ddd
  340
0
  0
BLOCK_RECORD
  5
ec
  330
2f
  100
AcDbSymbolTableRecord
  100
AcDbBlockTableRecord
  2
*Deb
  340
0
  0
BLOCK_RECORD
  5
fa
  330
2f
  100
AcDbSymbolTableRecord
  100
AcDbBlockTableRecord
  2
*Df9
  340
0
  0
BLOCK_RECORD
  5
108
  330
2f
  100
AcDbSymbolTableRecord
  100
AcDbBlockTableRecord
  2
*D107
  340
0
  0
BLOCK_RECORD
  5
116
  330
2f
  100
AcDbSymbolTableRecord
  100
AcDbBlockTableRecord
  2
*D115
  340
0
  0
BLOCK_RECORD
  5
124
  330
2f
  100
AcDbSymbolTableRecord
  100
AcDbBlockTableRecord
  2
*D123
  340
0
  0
BLOCK_RECORD
  5
132
  330
2f
  100
AcDbSymbolTableRecord
  100
AcDbBlockTableRecord
  2
*D131
  340
0
  0
BLOCK_RECORD
  5
140
  330
2f
  100
AcDbSymbolTableRecord
  100
AcDbBlockTableRecord
  2
*D13f
  340
0
  0
ENDTAB
  0
ENDSEC
  0
SECTION
  2
BLOCKS
  0
BLOCK
  5
32
  330
30
  100
AcDbEntity
  8
0
  100
AcDbBlockBegin
  2
*Model_Space
  70
    0
  10
0
  20
0
  30
0
  3
*Model_Space
  1

  0
ENDBLK
  5
33
  330
30
  100
AcDbEntity
  8
0
  100
AcDbBlockEnd
  0
BLOCK
  5
34
  330
31
  100
AcDbEntity
  8
0
  100
AcDbBlockBegin
  2
*Paper_Space
  70
    0
  10
0
  20
0
  30
0
  3
*Paper_Space
  1

  0
ENDBLK
  5
35
  330
31
  100
AcDbEntity
  8
0
  100
AcDbBlockEnd
  0
BLOCK
  5
dc
  330
de
  100
AcDbEntity
  8
SK2
  100
AcDbBlockBegin
  2
*Ddd
  70
1
  10
0
  20
0
  30
0
  3
*Ddd
  1

  0
LINE
  5
df
  330
de
  100
AcDbEntity
  8
SK2
  100
AcDbLine
  10
0
  20
1.3
  30
0
  11
0
  21
14
  31
0
  0
LINE
  5
e0
  330
de
  100
AcDbEntity
  8
SK2
  100
AcDbLine
  10
45
  20
0.8
  30
0
  11
45
  21
14
  31
0
  0
LINE
  5
e1
  330
de
  100
AcDbEntity
  8
SK2
  100
AcDbLine
  10
0
  20
12
  30
0
  11
45
  21
12
  31
0
  0
SOLID
  5
e2
  330
de
  100
AcDbEntity
  8
SK2
  100
AcDbTrace
  10
0
  20
12
  30
0
  11
2.478612
  21
12.326315
  31
0
  12
2.478612
  22
11.673685
  32
0
  13
2.478612
  23
11.673685
  33
0
  0
SOLID
  5
e3
  330
de
  100
AcDbEntity
  8
SK2
  100
AcDbTrace
  10
45
  20
12
  30
0
  11
42.521388
  21
11.673685
  31
0
  12
42.521388
  22
12.326315
  32
0
  13
42.521388
  23
12.326315
  33
0
  0
MTEXT
  5
e4
  330
de
  100
AcDbEntity
  8
SK2
  100
AcDbMText
  10
22.5
  20
12
  30
0
  11
1
  21
0
  31
0
  40
2
  41
0
  71
8
  72
1
  1
45
  0
POINT
  5
e5
  330
de
  100
AcDbEntity
  8
SK2
  62
0
  100
AcDbPoint
  10
0
  20
1.3
  30
0
  0
POINT
  5
e6
  330
de
  100
AcDbEntity
  8
SK2
  62
0
  100
AcDbPoint
  10
45
  20
0.8
  30
0
  0
POINT
  5
e7
  330
de
  100
AcDbEntity
  8
SK2
  62
0
  100
AcDbPoint
  10
45
  20
12
  30
0
  0
ENDBLK
  5
e8
  330
de
  100
AcDbEntity
  8
SK2
  100
AcDbBlockEnd
  0
BLOCK
  5
ea
  330
ec
  100
AcDbEntity
  8
SK2
  100
AcDbBlockBegin
  2
*Deb
  70
1
  10
0
  20
0
  30
0
  3
*Deb
  1

  0
LINE
  5
ed
  330
ec
  100
AcDbEntity
  8
SK2
  100
AcDbLine
  10
0
  20
1.3
  30
0
  11
0
  21
9.037689
  31
0
  0
LINE
  5
ee
  330
ec
  100
AcDbEntity
  8
SK2
  100
AcDbLine
  10
28.2
  20
2
  30
0
  11
28.2
  21
9.037689
  31
0
  0
LINE
  5
ef
  330
ec
  100
AcDbEntity
  8
SK2
  100
AcDbLine
  10
0
  20
7.037689
  30
0
  11
28.2
  21
7.037689
  31
0
  0
SOLID
  5
f0
  330
ec
  100
AcDbEntity
  8
SK2
  100
AcDbTrace
  10
0
  20
7.037689
  30
0
  11
2.478612
  21
7.364004
  31
0
  12
2.478612
  22
6.711373
  32
0
  13
2.478612
  23
6.711373
  33
0
  0
SOLID
  5
f1
  330
ec
  100
AcDbEntity
  8
SK2
  100
AcDbTrace
  10
28.2
  20
7.037689
  30
0
  11
25.721388
  21
6.711373
  31
0
  12
25.721388
  22
7.364004
  32
0
  13
25.721388
  23
7.364004
  33
0
  0
MTEXT
  5
f2
  330
ec
  100
AcDbEntity
  8
SK2
  100
AcDbMText
  10
14.1
  20
7.037689
  30
0
  11
1
  21
0
  31
0
  40
2
  41
0
  71
8
  72
1
  1
28.2
  0
POINT
  5
f3
  330
ec
  100
AcDbEntity
  8
SK2
  62
0
  100
AcDbPoint
  10
0
  20
1.3
  30
0
  0
POINT
  5
f4
  330
ec
  100
AcDbEntity
  8
SK2
  62
0
  100
AcDbPoint
  10
28.2
  20
2
  30
0
  0
POINT
  5
f5
  330
ec
  100
AcDbEntity
  8
SK2
  62
0
  100
AcDbPoint
  10
28.2
  20
7.037689
  30
0
  0
ENDBLK
  5
f6
  330
ec
  100
AcDbEntity
  8
SK2
  100
AcDbBlockEnd
  0
BLOCK
  5
f8
  330
fa
  100
AcDbEntity
  8
SK2
  100
AcDbBlockBegin
  2
*Df9
  70
1
  10
0
  20
0
  30
0
  3
*Df9
  1

  0
LINE
  5
fb
  330
fa
  100
AcDbEntity
  8
SK2
  100
AcDbLine
  10
0.7
  20
-2
  30
0
  11
-12
  21
-2
  31
0
  0
LINE
  5
fc
  330
fa
  100
AcDbEntity
  8
SK2
  100
AcDbLine
  10
0.7
  20
2
  30
0
  11
-12
  21
2
  31
0
  0
LINE
  5
fd
  330
fa
  100
AcDbEntity
  8
SK2
  100
AcDbLine
  10
-10
  20
-4.158416
  30
0
  11
-10
  21
2
  31
0
  0
SOLID
  5
fe
  330
fa
  100
AcDbEntity
  8
SK2
  100
AcDbTrace
  10
-10
  20
-2
  30
0
  11
-10.326315
  21
0.478612
  31
0
  12
-9.673685
  22
0.478612
  32
0
  13
-9.673685
  23
0.478612
  33
0
  0
SOLID
  5
ff
  330
fa
  100
AcDbEntity
  8
SK2
  100
AcDbTrace
  10
-10
  20
2
  30
0
  11
-9.673685
  21
-0.478612
  31
0
  12
-10.326315
  22
-0.478612
  32
0
  13
-10.326315
  23
-0.478612
  33
0
  0
MTEXT
  5
100
  330
fa
  100
AcDbEntity
  8
SK2
  100
AcDbMText
  10
-10
  20
0
  30
0
  11
0
  21
1
  31
0
  40
2
  41
0
  71
8
  72
1
  1
ﾘ4
  0
POINT
  5
101
  330
fa
  100
AcDbEntity
  8
SK2
  62
0
  100
AcDbPoint
  10
0.7
  20
-2
  30
0
  0
POINT
  5
102
  330
fa
  100
AcDbEntity
  8
SK2
  62
0
  100
AcDbPoint
  10
0.7
  20
2
  30
0
  0
POINT
  5
103
  330
fa
  100
AcDbEntity
  8
SK2
  62
0
  100
AcDbPoint
  10
-10
  20
2
  30
0
  0
ENDBLK
  5
104
  330
fa
  100
AcDbEntity
  8
SK2
  100
AcDbBlockEnd
  0
BLOCK
  5
106
  330
108
  100
AcDbEntity
  8
2
  100
AcDbBlockBegin
  2
*D107
  70
1
  10
0
  20
0
  30
0
  3
*D107
  1

  0
LINE
  5
109
  330
108
  100
AcDbEntity
  8
2
  100
AcDbLine
  10
45
  20
-0.8
  30
0
  11
57
  21
-0.8
  31
0
  0
LINE
  5
10a
  330
108
  100
AcDbEntity
  8
2
  100
AcDbLine
  10
45
  20
0.8
  30
0
  11
57
  21
0.8
  31
0
  0
LINE
  5
10b
  330
108
  100
AcDbEntity
  8
2
  100
AcDbLine
  10
55
  20
-6.757426
  30
0
  11
55
  21
0.8
  31
0
  0
SOLID
  5
10c
  330
108
  100
AcDbEntity
  8
2
  100
AcDbTrace
  10
55
  20
-0.8
  30
0
  11
54.673685
  21
1.678612
  31
0
  12
55.326315
  22
1.678612
  32
0
  13
55.326315
  23
1.678612
  33
0
  0
SOLID
  5
10d
  330
108
  100
AcDbEntity
  8
2
  100
AcDbTrace
  10
55
  20
0.8
  30
0
  11
55.326315
  21
-1.678612
  31
0
  12
54.673685
  22
-1.678612
  32
0
  13
54.673685
  23
-1.678612
  33
0
  0
MTEXT
  5
10e
  330
108
  100
AcDbEntity
  8
2
  100
AcDbMText
  10
55
  20
0
  30
0
  11
0
  21
1
  31
0
  40
2
  41
0
  71
8
  72
1
  1
ﾘ1.6
  0
POINT
  5
10f
  330
108
  100
AcDbEntity
  8
2
  62
0
  100
AcDbPoint
  10
45
  20
-0.8
  30
0
  0
POINT
  5
110
  330
108
  100
AcDbEntity
  8
2
  62
0
  100
AcDbPoint
  10
45
  20
0.8
  30
0
  0
POINT
  5
111
  330
108
  100
AcDbEntity
  8
2
  62
0
  100
AcDbPoint
  10
55
  20
0.8
  30
0
  0
ENDBLK
  5
112
  330
108
  100
AcDbEntity
  8
2
  100
AcDbBlockEnd
  0
BLOCK
  5
114
  330
116
  100
AcDbEntity
  8
2
  100
AcDbBlockBegin
  2
*D115
  70
1
  10
0
  20
0
  30
0
  3
*D115
  1

  0
LINE
  5
117
  330
116
  100
AcDbEntity
  8
2
  100
AcDbLine
  10
42.6
  20
-0.775
  30
0
  11
40.6
  21
-0.775
  31
0
  0
LINE
  5
118
  330
116
  100
AcDbEntity
  8
2
  100
AcDbLine
  10
42.6
  20
0.775
  30
0
  11
40.6
  21
0.775
  31
0
  0
LINE
  5
119
  330
116
  100
AcDbEntity
  8
2
  100
AcDbLine
  10
42.6
  20
-0.775
  30
0
  11
42.6
  21
9.096535
  31
0
  0
SOLID
  5
11a
  330
116
  100
AcDbEntity
  8
2
  100
AcDbTrace
  10
42.6
  20
-0.775
  30
0
  11
42.273685
  21
1.703612
  31
0
  12
42.926315
  22
1.703612
  32
0
  13
42.926315
  23
1.703612
  33
0
  0
SOLID
  5
11b
  330
116
  100
AcDbEntity
  8
2
  100
AcDbTrace
  10
42.6
  20
0.775
  30
0
  11
42.926315
  21
-1.703612
  31
0
  12
42.273685
  22
-1.703612
  32
0
  13
42.273685
  23
-1.703612
  33
0
  0
MTEXT
  5
11c
  330
116
  100
AcDbEntity
  8
2
  100
AcDbMText
  10
42.6
  20
0.775
  30
0
  11
0
  21
1
  31
0
  40
2
  41
0
  71
8
  72
1
  1
ﾘ1.55
  0
POINT
  5
11d
  330
116
  100
AcDbEntity
  8
2
  62
0
  100
AcDbPoint
  10
40.6
  20
-0.775
  30
0
  0
POINT
  5
11e
  330
116
  100
AcDbEntity
  8
2
  62
0
  100
AcDbPoint
  10
40.6
  20
0.775
  30
0
  0
POINT
  5
11f
  330
116
  100
AcDbEntity
  8
2
  62
0
  100
AcDbPoint
  10
42.6
  20
9.096535
  30
0
  0
ENDBLK
  5
120
  330
116
  100
AcDbEntity
  8
2
  100
AcDbBlockEnd
  0
BLOCK
  5
122
  330
124
  100
AcDbEntity
  8
2
  100
AcDbBlockBegin
  2
*D123
  70
1
  10
0
  20
0
  30
0
  3
*D123
  1

  0
LINE
  5
125
  330
124
  100
AcDbEntity
  8
2
  100
AcDbLine
  10
42.6
  20
0.775
  30
0
  11
42.6
  21
9
  31
0
  0
LINE
  5
126
  330
124
  100
AcDbEntity
  8
2
  100
AcDbLine
  10
33.39
  20
0.775
  30
0
  11
33.39
  21
9
  31
0
  0
LINE
  5
127
  330
124
  100
AcDbEntity
  8
2
  100
AcDbLine
  10
42.6
  20
7
  30
0
  11
32.617574
  21
7
  31
0
  0
SOLID
  5
128
  330
124
  100
AcDbEntity
  8
2
  100
AcDbTrace
  10
42.6
  20
7
  30
0
  11
45.078612
  21
7.326315
  31
0
  12
45.078612
  22
6.673685
  32
0
  13
45.078612
  23
6.673685
  33
0
  0
SOLID
  5
129
  330
124
  100
AcDbEntity
  8
2
  100
AcDbTrace
  10
33.39
  20
7
  30
0
  11
30.911388
  21
6.673685
  31
0
  12
30.911388
  22
7.326315
  32
0
  13
30.911388
  23
7.326315
  33
0
  0
MTEXT
  5
12a
  330
124
  100
AcDbEntity
  8
2
  100
AcDbMText
  10
35.85507
  20
7
  30
0
  11
1
  21
-0
  31
0
  40
2
  41
0
  71
8
  72
1
  1
9.21
  0
POINT
  5
12b
  330
124
  100
AcDbEntity
  8
2
  62
0
  100
AcDbPoint
  10
42.6
  20
0.775
  30
0
  0
POINT
  5
12c
  330
124
  100
AcDbEntity
  8
2
  62
0
  100
AcDbPoint
  10
33.39
  20
0.775
  30
0
  0
POINT
  5
12d
  330
124
  100
AcDbEntity
  8
2
  62
0
  100
AcDbPoint
  10
32.617574
  20
7
  30
0
  0
ENDBLK
  5
12e
  330
124
  100
AcDbEntity
  8
2
  100
AcDbBlockEnd
  0
BLOCK
  5
130
  330
132
  100
AcDbEntity
  8
2
  100
AcDbBlockBegin
  2
*D131
  70
1
  10
0
  20
0
  30
0
  3
*D131
  1

  0
LINE
  5
133
  330
132
  100
AcDbEntity
  8
2
  100
AcDbLine
  10
45
  20
0.8
  30
0
  11
45
  21
14
  31
0
  0
LINE
  5
134
  330
132
  100
AcDbEntity
  8
2
  100
AcDbLine
  10
28.2
  20
2
  30
0
  11
28.2
  21
9
  31
0
  0
LINE
  5
135
  330
132
  100
AcDbEntity
  8
2
  100
AcDbLine
  10
45
  20
7
  30
0
  11
28.2
  21
7
  31
0
  0
SOLID
  5
136
  330
132
  100
AcDbEntity
  8
2
  100
AcDbTrace
  10
45
  20
7
  30
0
  11
47.478612
  21
7.326315
  31
0
  12
47.478612
  22
6.673685
  32
0
  13
47.478612
  23
6.673685
  33
0
  0
SOLID
  5
137
  330
132
  100
AcDbEntity
  8
2
  100
AcDbTrace
  10
28.2
  20
7
  30
0
  11
25.721388
  21
6.673685
  31
0
  12
25.721388
  22
7.326315
  32
0
  13
25.721388
  23
7.326315
  33
0
  0
MTEXT
  5
138
  330
132
  100
AcDbEntity
  8
2
  100
AcDbMText
  10
36.6
  20
7
  30
0
  11
1
  21
-0
  31
0
  40
2
  41
0
  71
8
  72
1
  1
16.8
  0
POINT
  5
139
  330
132
  100
AcDbEntity
  8
2
  62
0
  100
AcDbPoint
  10
45
  20
14
  30
0
  0
POINT
  5
13a
  330
132
  100
AcDbEntity
  8
2
  62
0
  100
AcDbPoint
  10
28.2
  20
2
  30
0
  0
POINT
  5
13b
  330
132
  100
AcDbEntity
  8
2
  62
0
  100
AcDbPoint
  10
28.2
  20
7
  30
0
  0
ENDBLK
  5
13c
  330
132
  100
AcDbEntity
  8
2
  100
AcDbBlockEnd
  0
BLOCK
  5
13e
  330
140
  100
AcDbEntity
  8
2
  100
AcDbBlockBegin
  2
*D13f
  70
1
  10
0
  20
0
  30
0
  3
*D13f
  1

  0
LINE
  5
141
  330
140
  100
AcDbEntity
  8
2
  100
AcDbLine
  10
45
  20
-7.238525
  30
0
  11
45
  21
-0.8
  31
0
  0
LINE
  5
142
  330
140
  100
AcDbEntity
  8
2
  100
AcDbLine
  10
42.6
  20
-7.238525
  30
0
  11
42.6
  21
-0.775
  31
0
  0
LINE
  5
143
  330
140
  100
AcDbEntity
  8
2
  100
AcDbLine
  10
45
  20
-5.238525
  30
0
  11
39.375
  21
-5.238525
  31
0
  0
SOLID
  5
144
  330
140
  100
AcDbEntity
  8
2
  100
AcDbTrace
  10
45
  20
-5.238525
  30
0
  11
47.478612
  21
-4.91221
  31
0
  12
47.478612
  22
-5.564841
  32
0
  13
47.478612
  23
-5.564841
  33
0
  0
SOLID
  5
145
  330
140
  100
AcDbEntity
  8
2
  100
AcDbTrace
  10
42.6
  20
-5.238525
  30
0
  11
40.121388
  21
-5.564841
  31
0
  12
40.121388
  22
-4.91221
  32
0
  13
40.121388
  23
-4.91221
  33
0
  0
MTEXT
  5
146
  330
140
  100
AcDbEntity
  8
2
  100
AcDbMText
  10
43.8
  20
-5.238525
  30
0
  11
1
  21
0
  31
0
  40
2
  41
0
  71
8
  72
1
  1
2.4
  0
POINT
  5
147
  330
140
  100
AcDbEntity
  8
2
  62
0
  100
AcDbPoint
  10
45
  20
-0.8
  30
0
  0
POINT
  5
148
  330
140
  100
AcDbEntity
  8
2
  62
0
  100
AcDbPoint
  10
42.6
  20
-0.775
  30
0
  0
POINT
  5
149
  330
140
  100
AcDbEntity
  8
2
  62
0
  100
AcDbPoint
  10
39.375
  20
-5.238525
  30
0
  0
ENDBLK
  5
14a
  330
140
  100
AcDbEntity
  8
2
  100
AcDbBlockEnd
  0
ENDSEC
  0
SECTION
  2
ENTITIES
  0
DIMENSION
  5
e9
  100
AcDbEntity
  8
SK2
  100
AcDbDimension
  2
*Ddd
  10
45
  20
12
  30
0
  11
22.5
  21
12
  31
0
  70
160
  1
<>
  71
5
  3
STANDARD
  42
45
  100
AcDbAlignedDimension
  13
0
  23
1.3
  33
0
  14
45
  24
0.8
  34
0
  50
0
  100
AcDbRotatedDimension
  0
DIMENSION
  5
f7
  100
AcDbEntity
  8
SK2
  100
AcDbDimension
  2
*Deb
  10
28.2
  20
7.037689
  30
0
  11
14.1
  21
7.037689
  31
0
  70
160
  1
<>
  71
5
  3
STANDARD
  42
28.2
  100
AcDbAlignedDimension
  13
0
  23
1.3
  33
0
  14
28.2
  24
2
  34
0
  50
0
  100
AcDbRotatedDimension
  0
DIMENSION
  5
105
  100
AcDbEntity
  8
SK2
  100
AcDbDimension
  2
*Df9
  10
-10
  20
2
  30
0
  11
-10
  21
0
  31
0
  70
160
  1
%%c<>
  71
5
  3
STANDARD
  42
4
  100
AcDbAlignedDimension
  13
0.7
  23
-2
  33
0
  14
0.7
  24
2
  34
0
  50
-90
  100
AcDbRotatedDimension
  0
DIMENSION
  5
113
  100
AcDbEntity
  8
2
  100
AcDbDimension
  2
*D107
  10
55
  20
0.8
  30
0
  11
55
  21
0
  31
0
  70
160
  1
%%c<>
  71
5
  3
STANDARD
  42
1.6
  100
AcDbAlignedDimension
  13
45
  23
-0.8
  33
0
  14
45
  24
0.8
  34
0
  50
-90
  100
AcDbRotatedDimension
  0
DIMENSION
  5
121
  100
AcDbEntity
  8
2
  100
AcDbDimension
  2
*D115
  10
42.6
  20
9.096535
  30
0
  11
42.6
  21
0.775
  31
0
  70
160
  1
%%c<>
  71
5
  3
STANDARD
  42
1.55
  100
AcDbAlignedDimension
  13
40.6
  23
-0.775
  33
0
  14
40.6
  24
0.775
  34
0
  50
-90
  100
AcDbRotatedDimension
  0
DIMENSION
  5
12f
  100
AcDbEntity
  8
2
  100
AcDbDimension
  2
*D123
  10
32.617574
  20
7
  30
0
  11
35.85507
  21
7
  31
0
  70
160
  1
<>
  71
5
  3
STANDARD
  42
9.21
  100
AcDbAlignedDimension
  13
42.6
  23
0.775
  33
0
  14
33.39
  24
0.775
  34
0
  50
0
  100
AcDbRotatedDimension
  0
DIMENSION
  5
13d
  100
AcDbEntity
  8
2
  100
AcDbDimension
  2
*D131
  10
28.2
  20
7
  30
0
  11
36.6
  21
7
  31
0
  70
160
  1
<>
  71
5
  3
STANDARD
  42
16.8
  100
AcDbAlignedDimension
  13
45
  23
14
  33
0
  14
28.2
  24
2
  34
0
  50
0
  100
AcDbRotatedDimension
  0
DIMENSION
  5
14b
  100
AcDbEntity
  8
2
  100
AcDbDimension
  2
*D13f
  10
39.375
  20
-5.238525
  30
0
  11
43.8
  21
-5.238525
  31
0
  70
160
  1
<>
  71
5
  3
STANDARD
  42
2.4
  100
AcDbAlignedDimension
  13
45
  23
-0.8
  33
0
  14
42.6
  24
-0.775
  34
0
  50
0
  100
AcDbRotatedDimension
  0
LINE
  5
36
  100
AcDbEntity
  8
1
  100
AcDbLine
  10
28.2
  20
-2
  30
0
  11
28.2
  21
2
  31
0
  0
LINE
  5
37
  100
AcDbEntity
  8
1
  100
AcDbLine
  10
28.2
  20
2
  30
0
  11
28.2
  21
-2
  31
0
  0
LINE
  5
38
  100
AcDbEntity
  8
1
  100
AcDbLine
  10
28.42328
  20
-2
  30
0
  11
28.42328
  21
2
  31
0
  0
LINE
  5
39
  100
AcDbEntity
  8
1
  100
AcDbLine
  10
42.350961
  20
0.775
  30
0
  11
42.4
  21
0.557323
  31
0
  0
LINE
  5
3a
  100
AcDbEntity
  8
1
  100
AcDbLine
  10
42.4
  20
0.557323
  30
0
  11
42.5
  21
0.429886
  31
0
  0
LINE
  5
3b
  100
AcDbEntity
  8
1
  100
AcDbLine
  10
42.5
  20
0.429886
  30
0
  11
42.6
  21
0.380745
  31
0
  0
LINE
  5
3c
  100
AcDbEntity
  8
1
  100
AcDbLine
  10
42.6
  20
0.380745
  30
0
  11
42.6
  21
0.390765
  31
0
  0
LINE
  5
3d
  100
AcDbEntity
  8
1
  100
AcDbLine
  10
42.6
  20
0.390765
  30
0
  11
42.7
  21
0.339413
  31
0
  0
LINE
  5
3e
  100
AcDbEntity
  8
1
  100
AcDbLine
  10
42.7
  20
0.339413
  30
0
  11
42.8
  21
0.286294
  31
0
  0
LINE
  5
3f
  100
AcDbEntity
  8
1
  100
AcDbLine
  10
42.8
  20
0.286294
  30
0
  11
42.9
  21
0.231684
  31
0
  0
LINE
  5
40
  100
AcDbEntity
  8
1
  100
AcDbLine
  10
42.9
  20
0.231684
  30
0
  11
43
  21
0.175868
  31
0
  0
LINE
  5
41
  100
AcDbEntity
  8
1
  100
AcDbLine
  10
43
  20
0.175868
  30
0
  11
43.1
  21
0.119136
  31
0
  0
LINE
  5
42
  100
AcDbEntity
  8
1
  100
AcDbLine
  10
43.1
  20
0.119136
  30
0
  11
43.2
  21
0.061785
  31
0
  0
LINE
  5
43
  100
AcDbEntity
  8
1
  100
AcDbLine
  10
43.2
  20
0.061785
  30
0
  11
43.3
  21
0.004111
  31
0
  0
LINE
  5
44
  100
AcDbEntity
  8
1
  100
AcDbLine
  10
43.3
  20
0.004111
  30
0
  11
43.4
  21
-0.053584
  31
0
  0
LINE
  5
45
  100
AcDbEntity
  8
1
  100
AcDbLine
  10
43.4
  20
-0.053584
  30
0
  11
43.5
  21
-0.111
  31
0
  0
LINE
  5
46
  100
AcDbEntity
  8
1
  100
AcDbLine
  10
43.5
  20
-0.111
  30
0
  11
43.6
  21
-0.167838
  31
0
  0
LINE
  5
47
  100
AcDbEntity
  8
1
  100
AcDbLine
  10
43.6
  20
-0.167838
  30
0
  11
43.7
  21
-0.223802
  31
0
  0
LINE
  5
48
  100
AcDbEntity
  8
1
  100
AcDbLine
  10
43.7
  20
-0.223802
  30
0
  11
43.8
  21
-0.278601
  31
0
  0
LINE
  5
49
  100
AcDbEntity
  8
1
  100
AcDbLine
  10
43.8
  20
-0.278601
  30
0
  11
43.9
  21
-0.33195
  31
0
  0
LINE
  5
4a
  100
AcDbEntity
  8
1
  100
AcDbLine
  10
43.9
  20
-0.33195
  30
0
  11
44
  21
-0.38357
  31
0
  0
LINE
  5
4b
  100
AcDbEntity
  8
1
  100
AcDbLine
  10
44
  20
-0.38357
  30
0
  11
44.1
  21
-0.433194
  31
0
  0
LINE
  5
4c
  100
AcDbEntity
  8
1
  100
AcDbLine
  10
44.1
  20
-0.433194
  30
0
  11
44.2
  21
-0.480562
  31
0
  0
LINE
  5
4d
  100
AcDbEntity
  8
1
  100
AcDbLine
  10
44.2
  20
-0.480562
  30
0
  11
44.3
  21
-0.525429
  31
0
  0
LINE
  5
4e
  100
AcDbEntity
  8
1
  100
AcDbLine
  10
44.3
  20
-0.525429
  30
0
  11
44.4
  21
-0.56756
  31
0
  0
LINE
  5
4f
  100
AcDbEntity
  8
1
  100
AcDbLine
  10
44.4
  20
-0.56756
  30
0
  11
44.5
  21
-0.606737
  31
0
  0
LINE
  5
50
  100
AcDbEntity
  8
1
  100
AcDbLine
  10
44.5
  20
-0.606737
  30
0
  11
44.6
  21
-0.642754
  31
0
  0
LINE
  5
51
  100
AcDbEntity
  8
1
  100
AcDbLine
  10
44.6
  20
-0.642754
  30
0
  11
44.7
  21
-0.675426
  31
0
  0
LINE
  5
52
  100
AcDbEntity
  8
1
  100
AcDbLine
  10
44.7
  20
-0.675426
  30
0
  11
44.8
  21
-0.704581
  31
0
  0
LINE
  5
53
  100
AcDbEntity
  8
1
  100
AcDbLine
  10
44.8
  20
-0.704581
  30
0
  11
44.9
  21
-0.730068
  31
0
  0
LINE
  5
54
  100
AcDbEntity
  8
1
  100
AcDbLine
  10
44.9
  20
-0.730068
  30
0
  11
45
  21
-0.751754
  31
0
  0
LINE
  5
55
  100
AcDbEntity
  8
1
  100
AcDbLine
  10
45
  20
-0.786108
  30
0
  11
44.9
  21
-0.778381
  31
0
  0
LINE
  5
56
  100
AcDbEntity
  8
1
  100
AcDbLine
  10
44.9
  20
-0.778381
  30
0
  11
44.8
  21
-0.766602
  31
0
  0
LINE
  5
57
  100
AcDbEntity
  8
1
  100
AcDbLine
  10
44.8
  20
-0.766602
  30
0
  11
44.7
  21
-0.750831
  31
0
  0
LINE
  5
58
  100
AcDbEntity
  8
1
  100
AcDbLine
  10
44.7
  20
-0.750831
  30
0
  11
44.6
  21
-0.731152
  31
0
  0
LINE
  5
59
  100
AcDbEntity
  8
1
  100
AcDbLine
  10
44.6
  20
-0.731152
  30
0
  11
44.5
  21
-0.707666
  31
0
  0
LINE
  5
5a
  100
AcDbEntity
  8
1
  100
AcDbLine
  10
44.5
  20
-0.707666
  30
0
  11
44.4
  21
-0.680496
  31
0
  0
LINE
  5
5b
  100
AcDbEntity
  8
1
  100
AcDbLine
  10
44.4
  20
-0.680496
  30
0
  11
44.3
  21
-0.649784
  31
0
  0
LINE
  5
5c
  100
AcDbEntity
  8
1
  100
AcDbLine
  10
44.3
  20
-0.649784
  30
0
  11
44.2
  21
-0.615688
  31
0
  0
LINE
  5
5d
  100
AcDbEntity
  8
1
  100
AcDbLine
  10
44.2
  20
-0.615688
  30
0
  11
44.1
  21
-0.578387
  31
0
  0
LINE
  5
5e
  100
AcDbEntity
  8
1
  100
AcDbLine
  10
44.1
  20
-0.578387
  30
0
  11
44
  21
-0.538076
  31
0
  0
LINE
  5
5f
  100
AcDbEntity
  8
1
  100
AcDbLine
  10
44
  20
-0.538076
  30
0
  11
43.9
  21
-0.494962
  31
0
  0
LINE
  5
60
  100
AcDbEntity
  8
1
  100
AcDbLine
  10
43.9
  20
-0.494962
  30
0
  11
43.8
  21
-0.449273
  31
0
  0
LINE
  5
61
  100
AcDbEntity
  8
1
  100
AcDbLine
  10
43.8
  20
-0.449273
  30
0
  11
43.7
  21
-0.401244
  31
0
  0
LINE
  5
62
  100
AcDbEntity
  8
1
  100
AcDbLine
  10
43.7
  20
-0.401244
  30
0
  11
43.6
  21
-0.351126
  31
0
  0
LINE
  5
63
  100
AcDbEntity
  8
1
  100
AcDbLine
  10
43.6
  20
-0.351126
  30
0
  11
43.5
  21
-0.29918
  31
0
  0
LINE
  5
64
  100
AcDbEntity
  8
1
  100
AcDbLine
  10
43.5
  20
-0.29918
  30
0
  11
43.4
  21
-0.245677
  31
0
  0
LINE
  5
65
  100
AcDbEntity
  8
1
  100
AcDbLine
  10
43.4
  20
-0.245677
  30
0
  11
43.3
  21
-0.190894
  31
0
  0
LINE
  5
66
  100
AcDbEntity
  8
1
  100
AcDbLine
  10
43.3
  20
-0.190894
  30
0
  11
43.2
  21
-0.135118
  31
0
  0
LINE
  5
67
  100
AcDbEntity
  8
1
  100
AcDbLine
  10
43.2
  20
-0.135118
  30
0
  11
43.1
  21
-0.078639
  31
0
  0
LINE
  5
68
  100
AcDbEntity
  8
1
  100
AcDbLine
  10
43.1
  20
-0.078639
  30
0
  11
43
  21
-0.02175
  31
0
  0
LINE
  5
69
  100
AcDbEntity
  8
1
  100
AcDbLine
  10
43
  20
-0.02175
  30
0
  11
42.9
  21
0.035253
  31
0
  0
LINE
  5
6a
  100
AcDbEntity
  8
1
  100
AcDbLine
  10
42.9
  20
0.035253
  30
0
  11
42.8
  21
0.092071
  31
0
  0
LINE
  5
6b
  100
AcDbEntity
  8
1
  100
AcDbLine
  10
42.8
  20
0.092071
  30
0
  11
42.7
  21
0.148411
  31
0
  0
LINE
  5
6c
  100
AcDbEntity
  8
1
  100
AcDbLine
  10
42.6
  20
-0.8
  30
0
  11
42.6
  21
0.8
  31
0
  0
LINE
  5
6d
  100
AcDbEntity
  8
1
  100
AcDbLine
  10
42.6
  20
0.775
  30
0
  11
42.6
  21
-0.775
  31
0
  0
LINE
  5
6e
  100
AcDbEntity
  8
1
  100
AcDbLine
  10
42.350961
  20
-0.775
  30
0
  11
42.3
  21
-0.536119
  31
0
  0
LINE
  5
6f
  100
AcDbEntity
  8
1
  100
AcDbLine
  10
42.3
  20
-0.536119
  30
0
  11
42.3
  21
-0.503282
  31
0
  0
LINE
  5
70
  100
AcDbEntity
  8
1
  100
AcDbLine
  10
42.3
  20
-0.503282
  30
0
  11
42.4
  21
0.230311
  31
0
  0
LINE
  5
71
  100
AcDbEntity
  8
1
  100
AcDbLine
  10
42.4
  20
0.230311
  30
0
  11
42.5
  21
0.182681
  31
0
  0
LINE
  5
72
  100
AcDbEntity
  8
1
  100
AcDbLine
  10
42.5
  20
0.182681
  30
0
  11
42.6
  21
0.127899
  31
0
  0
LINE
  5
73
  100
AcDbEntity
  8
1
  100
AcDbLine
  10
42.6
  20
0.127899
  30
0
  11
42.6
  21
0.128445
  31
0
  0
LINE
  5
74
  100
AcDbEntity
  8
1
  100
AcDbLine
  10
42.6
  20
0.128445
  30
0
  11
42.7
  21
0.071174
  31
0
  0
LINE
  5
75
  100
AcDbEntity
  8
1
  100
AcDbLine
  10
42.7
  20
0.071174
  30
0
  11
42.8
  21
0.013533
  31
0
  0
LINE
  5
76
  100
AcDbEntity
  8
1
  100
AcDbLine
  10
42.8
  20
0.013533
  30
0
  11
42.9
  21
-0.044179
  31
0
  0
LINE
  5
77
  100
AcDbEntity
  8
1
  100
AcDbLine
  10
42.9
  20
-0.044179
  30
0
  11
43
  21
-0.101661
  31
0
  0
LINE
  5
78
  100
AcDbEntity
  8
1
  100
AcDbLine
  10
43
  20
-0.101661
  30
0
  11
43.1
  21
-0.158614
  31
0
  0
LINE
  5
79
  100
AcDbEntity
  8
1
  100
AcDbLine
  10
43.1
  20
-0.158614
  30
0
  11
43.2
  21
-0.21474
  31
0
  0
LINE
  5
7a
  100
AcDbEntity
  8
1
  100
AcDbLine
  10
43.2
  20
-0.21474
  30
0
  11
43.3
  21
-0.269749
  31
0
  0
LINE
  5
7b
  100
AcDbEntity
  8
1
  100
AcDbLine
  10
43.3
  20
-0.269749
  30
0
  11
43.4
  21
-0.323354
  31
0
  0
LINE
  5
7c
  100
AcDbEntity
  8
1
  100
AcDbLine
  10
43.4
  20
-0.323354
  30
0
  11
43.5
  21
-0.375275
  31
0
  0
LINE
  5
7d
  100
AcDbEntity
  8
1
  100
AcDbLine
  10
43.5
  20
-0.375275
  30
0
  11
43.6
  21
-0.425243
  31
0
  0
LINE
  5
7e
  100
AcDbEntity
  8
1
  100
AcDbLine
  10
43.6
  20
-0.425243
  30
0
  11
43.7
  21
-0.472996
  31
0
  0
LINE
  5
7f
  100
AcDbEntity
  8
1
  100
AcDbLine
  10
43.7
  20
-0.472996
  30
0
  11
43.8
  21
-0.518287
  31
0
  0
LINE
  5
80
  100
AcDbEntity
  8
1
  100
AcDbLine
  10
43.8
  20
-0.518287
  30
0
  11
43.9
  21
-0.56088
  31
0
  0
LINE
  5
81
  100
AcDbEntity
  8
1
  100
AcDbLine
  10
43.9
  20
-0.56088
  30
0
  11
44
  21
-0.600553
  31
0
  0
LINE
  5
82
  100
AcDbEntity
  8
1
  100
AcDbLine
  10
44
  20
-0.600553
  30
0
  11
44.1
  21
-0.6371
  31
0
  0
LINE
  5
83
  100
AcDbEntity
  8
1
  100
AcDbLine
  10
44.1
  20
-0.6371
  30
0
  11
44.2
  21
-0.670329
  31
0
  0
LINE
  5
84
  100
AcDbEntity
  8
1
  100
AcDbLine
  10
44.2
  20
-0.670329
  30
0
  11
44.3
  21
-0.700069
  31
0
  0
LINE
  5
85
  100
AcDbEntity
  8
1
  100
AcDbLine
  10
44.3
  20
-0.700069
  30
0
  11
44.4
  21
-0.726165
  31
0
  0
LINE
  5
86
  100
AcDbEntity
  8
1
  100
AcDbLine
  10
44.4
  20
-0.726165
  30
0
  11
44.5
  21
-0.748479
  31
0
  0
LINE
  5
87
  100
AcDbEntity
  8
1
  100
AcDbLine
  10
44.5
  20
-0.748479
  30
0
  11
44.6
  21
-0.766898
  31
0
  0
LINE
  5
88
  100
AcDbEntity
  8
1
  100
AcDbLine
  10
44.6
  20
-0.766898
  30
0
  11
44.7
  21
-0.781323
  31
0
  0
LINE
  5
89
  100
AcDbEntity
  8
1
  100
AcDbLine
  10
44.7
  20
-0.781323
  30
0
  11
44.8
  21
-0.791681
  31
0
  0
LINE
  5
8a
  100
AcDbEntity
  8
1
  100
AcDbLine
  10
44.8
  20
-0.791681
  30
0
  11
44.9
  21
-0.797918
  31
0
  0
LINE
  5
8b
  100
AcDbEntity
  8
1
  100
AcDbLine
  10
44.9
  20
-0.797918
  30
0
  11
45
  21
-0.8
  31
0
  0
LINE
  5
8c
  100
AcDbEntity
  8
1
  100
AcDbLine
  10
45
  20
-0.8
  30
0
  11
45
  21
0
  31
0
  0
LINE
  5
8d
  100
AcDbEntity
  8
1
  100
AcDbLine
  10
45
  20
0
  30
0
  11
45
  21
0.8
  31
0
  0
LINE
  5
8e
  100
AcDbEntity
  8
1
  100
AcDbLine
  10
45
  20
0.8
  30
0
  11
42.6
  21
0.8
  31
0
  0
LINE
  5
8f
  100
AcDbEntity
  8
1
  100
AcDbLine
  10
42.6
  20
0.8
  30
0
  11
42.6
  21
0.775
  31
0
  0
LINE
  5
90
  100
AcDbEntity
  8
1
  100
AcDbLine
  10
42.6
  20
0.775
  30
0
  11
33.39
  21
0.775
  31
0
  0
ARC
  5
91
  100
AcDbEntity
  8
1
  100
AcDbCircle
  10
33.39
  20
3.775
  30
0
  40
3
  100
AcDbArc
  50
255
  51
270
  0
LINE
  5
92
  100
AcDbEntity
  8
1
  100
AcDbLine
  10
32.613543
  20
0.877223
  30
0
  11
28.42328
  21
2
  31
0
  0
LINE
  5
93
  100
AcDbEntity
  8
1
  100
AcDbLine
  10
28.42328
  20
2
  30
0
  11
28.2
  21
2
  31
0
  0
LINE
  5
94
  100
AcDbEntity
  8
1
  100
AcDbLine
  10
28.2
  20
2
  30
0
  11
28.2
  21
-2
  31
0
  0
LINE
  5
95
  100
AcDbEntity
  8
1
  100
AcDbLine
  10
28.2
  20
-2
  30
0
  11
28.42328
  21
-2
  31
0
  0
LINE
  5
96
  100
AcDbEntity
  8
1
  100
AcDbLine
  10
28.42328
  20
-2
  30
0
  11
32.613543
  21
-0.877223
  31
0
  0
LINE
  5
97
  100
AcDbEntity
  8
1
  100
AcDbLine
  10
32.613543
  20
-0.877223
  30
0
  11
32.613543
  21
0.877223
  31
0
  0
LINE
  5
98
  100
AcDbEntity
  8
1
  100
AcDbLine
  10
33.39
  20
0.775
  30
0
  11
33.39
  21
-0.775
  31
0
  0
ARC
  5
99
  100
AcDbEntity
  8
1
  100
AcDbCircle
  10
33.39
  20
-3.775
  30
0
  40
3
  100
AcDbArc
  50
90
  51
105
  0
LINE
  5
9a
  100
AcDbEntity
  8
1
  100
AcDbLine
  10
33.39
  20
-0.775
  30
0
  11
42.6
  21
-0.775
  31
0
  0
LINE
  5
9b
  100
AcDbEntity
  8
1
  100
AcDbLine
  10
42.6
  20
-0.775
  30
0
  11
42.6
  21
-0.8
  31
0
  0
LINE
  5
9c
  100
AcDbEntity
  8
1
  100
AcDbLine
  10
42.6
  20
-0.8
  30
0
  11
45
  21
-0.8
  31
0
  0
LINE
  5
9d
  100
AcDbEntity
  8
1
  100
AcDbLine
  10
45
  20
-0.8
  30
0
  11
45
  21
0.8
  31
0
  0
LINE
  5
9e
  100
AcDbEntity
  8
SK1
  100
AcDbLine
  10
28.2
  20
2
  30
0
  11
0.7
  21
2
  31
0
  0
LINE
  5
9f
  100
AcDbEntity
  8
SK1
  100
AcDbLine
  10
0.7
  20
2
  30
0
  11
0
  21
1.3
  31
0
  0
LINE
  5
a0
  100
AcDbEntity
  8
SK1
  100
AcDbLine
  10
28.2
  20
-2
  30
0
  11
0.7
  21
-2
  31
0
  0
LINE
  5
a1
  100
AcDbEntity
  8
SK1
  100
AcDbLine
  10
0.7
  20
-2
  30
0
  11
0
  21
-1.3
  31
0
  0
LINE
  5
a2
  100
AcDbEntity
  8
SK1
  100
AcDbLine
  10
0.7
  20
2
  30
0
  11
0.7
  21
-2
  31
0
  0
LINE
  5
a3
  100
AcDbEntity
  8
SK1
  100
AcDbLine
  10
0
  20
1.3
  30
0
  11
0
  21
-1.3
  31
0
  0
LINE
  5
a4
  100
AcDbEntity
  8
SK1
  100
AcDbLine
  10
29.2401
  20
1.40688
  30
0
  11
29.6069
  21
1.0401
  31
0
  0
LINE
  5
a5
  100
AcDbEntity
  8
SK1
  100
AcDbLine
  10
28.7328
  20
1.66666
  30
0
  11
29.8667
  21
0.532833
  31
0
  0
LINE
  5
a6
  100
AcDbEntity
  8
SK1
  100
AcDbLine
  10
28.4154
  20
1.73657
  30
0
  11
29.9366
  21
0.215434
  31
0
  0
LINE
  5
a7
  100
AcDbEntity
  8
SK1
  100
AcDbLine
  10
28.2
  20
1.70452
  30
0
  11
29.9045
  21
0
  31
0
  0
LINE
  5
a8
  100
AcDbEntity
  8
SK1
  100
AcDbLine
  10
28.2
  20
1.45703
  30
0
  11
29.657
  21
0
  31
0
  0
LINE
  5
a9
  100
AcDbEntity
  8
SK1
  100
AcDbLine
  10
28.2
  20
1.20954
  30
0
  11
29.4095
  21
0
  31
0
  0
LINE
  5
aa
  100
AcDbEntity
  8
SK1
  100
AcDbLine
  10
28.2
  20
0.962054
  30
0
  11
29.1621
  21
0
  31
0
  0
LINE
  5
ab
  100
AcDbEntity
  8
SK1
  100
AcDbLine
  10
28.2
  20
0.714566
  30
0
  11
28.9146
  21
0
  31
0
  0
LINE
  5
ac
  100
AcDbEntity
  8
SK1
  100
AcDbLine
  10
28.2
  20
0.467079
  30
0
  11
28.6671
  21
0
  31
0
  0
LINE
  5
ad
  100
AcDbEntity
  8
SK1
  100
AcDbLine
  10
28.2
  20
0.219592
  30
0
  11
28.4196
  21
0
  31
0
  0
LINE
  5
ae
  100
AcDbEntity
  8
SK1
  100
AcDbLine
  10
28.2
  20
1.70452
  30
0
  11
28.2441
  21
1.74861
  31
0
  0
LINE
  5
af
  100
AcDbEntity
  8
SK1
  100
AcDbLine
  10
28.2
  20
1.45703
  30
0
  11
28.471
  21
1.72802
  31
0
  0
LINE
  5
b0
  100
AcDbEntity
  8
SK1
  100
AcDbLine
  10
28.2
  20
1.20954
  30
0
  11
28.6742
  21
1.6837
  31
0
  0
LINE
  5
b1
  100
AcDbEntity
  8
SK1
  100
AcDbLine
  10
28.2
  20
0.962054
  30
0
  11
28.8588
  21
1.62082
  31
0
  0
LINE
  5
b2
  100
AcDbEntity
  8
SK1
  100
AcDbLine
  10
28.2
  20
0.714566
  30
0
  11
29.0271
  21
1.54167
  31
0
  0
LINE
  5
b3
  100
AcDbEntity
  8
SK1
  100
AcDbLine
  10
28.2
  20
0.467079
  30
0
  11
29.181
  21
1.44812
  31
0
  0
LINE
  5
b4
  100
AcDbEntity
  8
SK1
  100
AcDbLine
  10
28.2
  20
0.219592
  30
0
  11
29.3226
  21
1.34216
  31
0
  0
LINE
  5
b5
  100
AcDbEntity
  8
SK1
  100
AcDbLine
  10
28.2279
  20
0
  30
0
  11
29.4508
  21
1.22288
  31
0
  0
LINE
  5
b6
  100
AcDbEntity
  8
SK1
  100
AcDbLine
  10
28.4754
  20
0
  30
0
  11
29.567
  21
1.09157
  31
0
  0
LINE
  5
b7
  100
AcDbEntity
  8
SK1
  100
AcDbLine
  10
28.7229
  20
0
  30
0
  11
29.6707
  21
0.947822
  31
0
  0
LINE
  5
b8
  100
AcDbEntity
  8
SK1
  100
AcDbLine
  10
28.9704
  20
0
  30
0
  11
29.7605
  21
0.790145
  31
0
  0
LINE
  5
b9
  100
AcDbEntity
  8
SK1
  100
AcDbLine
  10
29.2178
  20
0
  30
0
  11
29.8364
  21
0.618517
  31
0
  0
LINE
  5
ba
  100
AcDbEntity
  8
SK1
  100
AcDbLine
  10
29.4653
  20
0
  30
0
  11
29.896
  21
0.430696
  31
0
  0
LINE
  5
bb
  100
AcDbEntity
  8
SK1
  100
AcDbLine
  10
29.7128
  20
0
  30
0
  11
29.9356
  21
0.222827
  31
0
  0
LINE
  5
bc
  100
AcDbEntity
  8
SK1
  100
AcDbLine
  10
28.2
  20
0
  30
0
  11
28.2
  21
1.75
  31
0
  0
LINE
  5
bd
  100
AcDbEntity
  8
SK1
  100
AcDbLine
  10
28.2
  20
0
  30
0
  11
29.95
  21
0
  31
0
  0
ARC
  5
be
  100
AcDbEntity
  8
SK1
  100
AcDbCircle
  10
28.2
  20
0
  30
0
  40
1.75
  100
AcDbArc
  50
0
  51
90
  0
ARC
  5
bf
  100
AcDbEntity
  8
SK1
  100
AcDbCircle
  10
28.2
  20
0
  30
0
  40
1.75
  100
AcDbArc
  50
90
  51
180
  0
LINE
  5
c0
  100
AcDbEntity
  8
SK1
  100
AcDbLine
  10
28.1721
  20
0
  30
0
  11
28.2
  21
-0.027896
  31
0
  0
LINE
  5
c1
  100
AcDbEntity
  8
SK1
  100
AcDbLine
  10
27.9246
  20
0
  30
0
  11
28.2
  21
-0.275383
  31
0
  0
LINE
  5
c2
  100
AcDbEntity
  8
SK1
  100
AcDbLine
  10
27.6771
  20
0
  30
0
  11
28.2
  21
-0.522871
  31
0
  0
LINE
  5
c3
  100
AcDbEntity
  8
SK1
  100
AcDbLine
  10
27.4296
  20
0
  30
0
  11
28.2
  21
-0.770358
  31
0
  0
LINE
  5
c4
  100
AcDbEntity
  8
SK1
  100
AcDbLine
  10
27.1822
  20
0
  30
0
  11
28.2
  21
-1.01785
  31
0
  0
LINE
  5
c5
  100
AcDbEntity
  8
SK1
  100
AcDbLine
  10
26.9347
  20
0
  30
0
  11
28.2
  21
-1.26533
  31
0
  0
LINE
  5
c6
  100
AcDbEntity
  8
SK1
  100
AcDbLine
  10
26.6872
  20
0
  30
0
  11
28.2
  21
-1.51282
  31
0
  0
LINE
  5
c7
  100
AcDbEntity
  8
SK1
  100
AcDbLine
  10
26.4503
  20
-0.010642
  30
0
  11
28.1894
  21
-1.74967
  31
0
  0
LINE
  5
c8
  100
AcDbEntity
  8
SK1
  100
AcDbLine
  10
26.4736
  20
-0.281429
  30
0
  11
27.9186
  21
-1.72637
  31
0
  0
LINE
  5
c9
  100
AcDbEntity
  8
SK1
  100
AcDbLine
  10
26.5639
  20
-0.619147
  30
0
  11
27.5809
  21
-1.63613
  31
0
  0
LINE
  5
ca
  100
AcDbEntity
  8
SK1
  100
AcDbLine
  10
26.4514
  20
-0.044098
  30
0
  11
26.4955
  21
0
  31
0
  0
LINE
  5
cb
  100
AcDbEntity
  8
SK1
  100
AcDbLine
  10
26.472
  20
-0.270991
  30
0
  11
26.743
  21
0
  31
0
  0
LINE
  5
cc
  100
AcDbEntity
  8
SK1
  100
AcDbLine
  10
26.5163
  20
-0.474162
  30
0
  11
26.9905
  21
0
  31
0
  0
LINE
  5
cd
  100
AcDbEntity
  8
SK1
  100
AcDbLine
  10
26.5792
  20
-0.658762
  30
0
  11
27.2379
  21
0
  31
0
  0
LINE
  5
ce
  100
AcDbEntity
  8
SK1
  100
AcDbLine
  10
26.6583
  20
-0.827105
  30
0
  11
27.4854
  21
0
  31
0
  0
LINE
  5
cf
  100
AcDbEntity
  8
SK1
  100
AcDbLine
  10
26.7519
  20
-0.981039
  30
0
  11
27.7329
  21
0
  31
0
  0
LINE
  5
d0
  100
AcDbEntity
  8
SK1
  100
AcDbLine
  10
26.8578
  20
-1.12257
  30
0
  11
27.9804
  21
0
  31
0
  0
LINE
  5
d1
  100
AcDbEntity
  8
SK1
  100
AcDbLine
  10
26.9771
  20
-1.25077
  30
0
  11
28.2
  21
-0.027896
  31
0
  0
LINE
  5
d2
  100
AcDbEntity
  8
SK1
  100
AcDbLine
  10
27.1084
  20
-1.36695
  30
0
  11
28.2
  21
-0.275383
  31
0
  0
LINE
  5
d3
  100
AcDbEntity
  8
SK1
  100
AcDbLine
  10
27.2522
  20
-1.47069
  30
0
  11
28.2
  21
-0.522871
  31
0
  0
LINE
  5
d4
  100
AcDbEntity
  8
SK1
  100
AcDbLine
  10
27.4099
  20
-1.5605
  30
0
  11
28.2
  21
-0.770358
  31
0
  0
LINE
  5
d5
  100
AcDbEntity
  8
SK1
  100
AcDbLine
  10
27.5815
  20
-1.63636
  30
0
  11
28.2
  21
-1.01785
  31
0
  0
LINE
  5
d6
  100
AcDbEntity
  8
SK1
  100
AcDbLine
  10
27.7693
  20
-1.69603
  30
0
  11
28.2
  21
-1.26533
  31
0
  0
LINE
  5
d7
  100
AcDbEntity
  8
SK1
  100
AcDbLine
  10
27.9772
  20
-1.73565
  30
0
  11
28.2
  21
-1.51282
  31
0
  0
LINE
  5
d8
  100
AcDbEntity
  8
SK1
  100
AcDbLine
  10
28.2
  20
0
  30
0
  11
26.45
  21
0
  31
0
  0
LINE
  5
d9
  100
AcDbEntity
  8
SK1
  100
AcDbLine
  10
28.2
  20
-1.75
  30
0
  11
28.2
  21
0
  31
0
  0
ARC
  5
da
  100
AcDbEntity
  8
SK1
  100
AcDbCircle
  10
28.2
  20
0
  30
0
  40
1.75
  100
AcDbArc
  50
180
  51
270
  0
ARC
  5
db
  100
AcDbEntity
  8
SK1
  100
AcDbCircle
  10
28.2
  20
0
  30
0
  40
1.75
  100
AcDbArc
  50
270
  51
0
  0
LINE
  5
14c
  100
AcDbEntity
  8
NOCUT
  100
AcDbLine
  10
42.6
  20
0
  30
0
  11
42.6
  21
0.775
  31
0
  0
LINE
  5
14d
  100
AcDbEntity
  8
NOCUT
  100
AcDbLine
  10
42.6
  20
0.775
  30
0
  11
33.39
  21
0.775
  31
0
  0
ARC
  5
14e
  100
AcDbEntity
  8
NOCUT
  100
AcDbCircle
  10
33.39
  20
3.775
  30
0
  40
3
  100
AcDbArc
  50
255
  51
270
  0
LINE
  5
14f
  100
AcDbEntity
  8
NOCUT
  100
AcDbLine
  10
32.613543
  20
0.877223
  30
0
  11
28.42328
  21
2
  31
0
  0
LINE
  5
150
  100
AcDbEntity
  8
NOCUT
  100
AcDbLine
  10
28.42328
  20
2
  30
0
  11
28.2
  21
2
  31
0
  0
LINE
  5
151
  100
AcDbEntity
  8
NOCUT
  100
AcDbLine
  10
28.2
  20
2
  30
0
  11
28.2
  21
0
  31
0
  0
LINE
  5
152
  100
AcDbEntity
  8
NOCUT
  100
AcDbLine
  10
28.2
  20
0
  30
0
  11
42.6
  21
0
  31
0
  0
LINE
  5
153
  100
AcDbEntity
  8
CUT
  100
AcDbLine
  10
45
  20
0
  30
0
  11
45
  21
0.8
  31
0
  0
LINE
  5
154
  100
AcDbEntity
  8
CUT
  100
AcDbLine
  10
45
  20
0.8
  30
0
  11
42.6
  21
0.8
  31
0
  0
LINE
  5
155
  100
AcDbEntity
  8
CUT
  100
AcDbLine
  10
42.6
  20
0.8
  30
0
  11
42.6
  21
0
  31
0
  0
LINE
  5
156
  100
AcDbEntity
  8
CUT
  100
AcDbLine
  10
42.6
  20
0
  30
0
  11
45
  21
0
  31
0
  0
LINE
  5
157
  100
AcDbEntity
  8
4
  100
AcDbLine
  10
28.2
  20
0
  30
0
  11
45
  21
0
  31
0
  0
LINE
  5
158
  100
AcDbEntity
  8
SK4
  100
AcDbLine
  10
-1
  20
0
  30
0
  11
46
  21
0
  31
0
  0
LINE
  5
159
  100
AcDbEntity
  8
INFTOTAL
  100
AcDbLine
  10
-15.45
  20
17.45
  30
0
  11
60.45
  21
17.45
  31
0
  0
LINE
  5
15a
  100
AcDbEntity
  8
INFTOTAL
  100
AcDbLine
  10
60.45
  20
17.45
  30
0
  11
60.45
  21
-10.688525
  31
0
  0
LINE
  5
15b
  100
AcDbEntity
  8
INFTOTAL
  100
AcDbLine
  10
60.45
  20
-10.688525
  30
0
  11
-15.45
  21
-10.688525
  31
0
  0
LINE
  5
15c
  100
AcDbEntity
  8
INFTOTAL
  100
AcDbLine
  10
-15.45
  20
-10.688525
  30
0
  11
-15.45
  21
17.45
  31
0
  0
ENDSEC
  0
SECTION
  2
OBJECTS
  0
DICTIONARY
  5
15d
  330
0
100
AcDbDictionary
281
    1
  3
ACAD_GROUP
  350
15e
  0
DICTIONARY
  5
15e
102
{ACAD_REACTORS
  330
15d
102
}
  330
15d
100
AcDbDictionary
281
    1
  0
ENDSEC
  0
EOF
