  0
SECTION
  2
HEADER
  9
$ACADVER
  1
AC1015
  9
$DWGCODEPAGE
  3
ANSI_932
  9
$HANDSEED
  5
106AB90
  0
ENDSEC
  0
SECTION
  2
CLASSES
  0
CLASS
  1
IMAGEDEF
  2
AcDbRasterImageDef
  3
ISM
  90
0
  91
4
  280
0
  281
0
  0
CLASS
  1
IMAGE
  2
AcDbRasterImage
  3
ISM
  90
127
  91
5
  280
0
  281
1
  0
CLASS
  1
IMAGEDEF_REACTOR
  2
AcDbRasterImageDefReactor
  3
ISM
  90
1
  91
4
  280
0
  281
0
  0
ENDSEC
  0
SECTION
  2
TABLES
  0
TABLE
  2
VPORT
  5
2
  330
0
  100
AcDbSymbolTable
  70
    0
  0
ENDTAB
  0
TABLE
  2
LTYPE
  5
3
  330
0
  100
AcDbSymbolTable
  70
    4
  0
LTYPE
  5
4
  330
3
  100
AcDbSymbolTableRecord
  100
AcDbLinetypeTableRecord
  2
ByBlock
  70
    0
  3

  72
65
  73
    0
  40
0
  0
LTYPE
  5
5
  330
3
  100
AcDbSymbolTableRecord
  100
AcDbLinetypeTableRecord
  2
ByLayer
  70
    0
  3

  72
65
  73
    0
  40
0
  0
LTYPE
  5
6
  330
3
  100
AcDbSymbolTableRecord
  100
AcDbLinetypeTableRecord
  2
CONTINUOUS
  70
    0
  3
Solid Line
  72
65
  73
    0
  40
0
  0
LTYPE
  5
7
  330
3
  100
AcDbSymbolTableRecord
  100
AcDbLinetypeTableRecord
  2
DASH
  70
    0
  3
Hidden
  72
65
  73
2
  40
2.5
  49
1.5
  74
0
  49
-1
  74
0
  0
LTYPE
  5
8
  330
3
  100
AcDbSymbolTableRecord
  100
AcDbLinetypeTableRecord
  2
LONGDASHDASH
  70
    0
  3
__ . __
  72
65
  73
    4
  40
7
  49
4
  74
    0
  49
-1
  74
    0
  49
1
  74
    0
  49
-1
  74
    0
  0
ENDTAB
  0
TABLE
  2
LAYER
  5
9
  330
0
  100
AcDbSymbolTable
  70
    40
  0
LAYER
  5
a
  330
9
  100
AcDbSymbolTableRecord
  100
AcDbLayerTableRecord
  2
0
  70
    0
  62
    0
  6
CONTINUOUS
  390
0
  0
LAYER
  5
c
  330
9
  100
AcDbSymbolTableRecord
  100
AcDbLayerTableRecord
  2
1
  70
    0
  62
    4
  6
CONTINUOUS
  370
50
  390
0
  0
LAYER
  5
d
  330
9
  100
AcDbSymbolTableRecord
  100
AcDbLayerTableRecord
  2
2
  70
    0
  62
    7
  6
CONTINUOUS
  370
25
  390
0
  0
LAYER
  5
f
  330
9
  100
AcDbSymbolTableRecord
  100
AcDbLayerTableRecord
  2
4
  70
    0
  62
    2
  6
LONGDASHDASH
  370
25
  390
0
  0
LAYER
  5
13
  330
9
  100
AcDbSymbolTableRecord
  100
AcDbLayerTableRecord
  2
SK1
  70
    0
  62
    4
  6
CONTINUOUS
  370
50
  390
0
  0
LAYER
  5
14
  330
9
  100
AcDbSymbolTableRecord
  100
AcDbLayerTableRecord
  2
SK2
  70
    0
  62
    7
  6
CONTINUOUS
  370
25
  390
0
  0
LAYER
  5
16
  330
9
  100
AcDbSymbolTableRecord
  100
AcDbLayerTableRecord
  2
SK4
  70
    0
  62
    2
  6
LONGDASHDASH
  370
25
  390
0
  0
LAYER
  5
21
  330
9
  100
AcDbSymbolTableRecord
  100
AcDbLayerTableRecord
  2
NOCUT
  70
    0
  62
    7
  6
CONTINUOUS
  370
25
  390
0
  0
LAYER
  5
22
  330
9
  100
AcDbSymbolTableRecord
  100
AcDbLayerTableRecord
  2
CUT
  70
    0
  62
    1
  6
CONTINUOUS
  370
25
  390
0
  0
LAYER
  5
26
  330
9
  100
AcDbSymbolTableRecord
  100
AcDbLayerTableRecord
  2
INFTOTAL
  70
    0
  62
    9
  6
CONTINUOUS
  370
18
  390
0
  0
ENDTAB
  0
TABLE
  2
STYLE
  5
27
  330
0
  100
AcDbSymbolTable
  70
    1
  0
STYLE
  5
28
  330
27
  100
AcDbSymbolTableRecord
  100
AcDbTextStyleTableRecord
  2
Monospac821 BT
  70
    0
  40
    3.5
  41
1
  50
0
  71
0
  42
3
  3

  4

  1001
ACAD
  1000
Monospac821 BT
  1071
256
  0
ENDTAB
  0
TABLE
  2
VIEW
  5
29
  330
0
  100
AcDbSymbolTable
  70
    0
  0
ENDTAB
  0
TABLE
  2
UCS
  5
2a
  330
0
  100
AcDbSymbolTable
  70
    0
  0
ENDTAB
  0
TABLE
  2
APPID
  5
2b
  330
0
  100
AcDbSymbolTable
  70
    1
  0
APPID
  5
2c
  330
2b
  100
AcDbSymbolTableRecord
  100
AcDbRegAppTableRecord
  2
ACAD
  70
    0
  0
ENDTAB
  0
TABLE
  2
DIMSTYLE
  5
2d
  330
0
  100
AcDbSymbolTable
  70
    1
  100
AcDbDimStyleTable
  0
DIMSTYLE
  105
2e
  330
2d
  100
AcDbSymbolTableRecord
  100
AcDbDimStyleTableRecord
  2
STANDARD
  70
    0
  41
    3
  42
0.5
  44
1
  73
0
  77
1
  78
1
  140
3.5
  141
2.5
  143
0.03937
  147
0.8
  172
1
  174
1
  178
0
  179
1
  271
2
  279
1
  284
1
  340
28
  0
ENDTAB
  0
TABLE
  2
BLOCK_RECORD
  5
2f
  330
0
  100
AcDbSymbolTable
  70
    2
  0
BLOCK_RECORD
  5
30
  330
2f
  100
AcDbSymbolTableRecord
  100
AcDbBlockTableRecord
  2
*Model_Space
  0
BLOCK_RECORD
  5
31
  330
2f
  100
AcDbSymbolTableRecord
  100
AcDbBlockTableRecord
  2
*Paper_Space
  0
BLOCK_RECORD
  5
e7
  330
2f
  100
AcDbSymbolTableRecord
  100
AcDbBlockTableRecord
  2
*De6
  340
0
  0
BLOCK_RECORD
  5
f5
  330
2f
  100
AcDbSymbolTableRecord
  100
AcDbBlockTableRecord
  2
*Df4
  340
0
  0
BLOCK_RECORD
  5
103
  330
2f
  100
AcDbSymbolTableRecord
  100
AcDbBlockTableRecord
  2
*D102
  340
0
  0
BLOCK_RECORD
  5
111
  330
2f
  100
AcDbSymbolTableRecord
  100
AcDbBlockTableRecord
  2
*D110
  340
0
  0
BLOCK_RECORD
  5
11f
  330
2f
  100
AcDbSymbolTableRecord
  100
AcDbBlockTableRecord
  2
*D11e
  340
0
  0
BLOCK_RECORD
  5
12d
  330
2f
  100
AcDbSymbolTableRecord
  100
AcDbBlockTableRecord
  2
*D12c
  340
0
  0
BLOCK_RECORD
  5
13b
  330
2f
  100
AcDbSymbolTableRecord
  100
AcDbBlockTableRecord
  2
*D13a
  340
0
  0
BLOCK_RECORD
  5
149
  330
2f
  100
AcDbSymbolTableRecord
  100
AcDbBlockTableRecord
  2
*D148
  340
0
  0
ENDTAB
  0
ENDSEC
  0
SECTION
  2
BLOCKS
  0
BLOCK
  5
32
  330
30
  100
AcDbEntity
  8
0
  100
AcDbBlockBegin
  2
*Model_Space
  70
    0
  10
0
  20
0
  30
0
  3
*Model_Space
  1

  0
ENDBLK
  5
33
  330
30
  100
AcDbEntity
  8
0
  100
AcDbBlockEnd
  0
BLOCK
  5
34
  330
31
  100
AcDbEntity
  8
0
  100
AcDbBlockBegin
  2
*Paper_Space
  70
    0
  10
0
  20
0
  30
0
  3
*Paper_Space
  1

  0
ENDBLK
  5
35
  330
31
  100
AcDbEntity
  8
0
  100
AcDbBlockEnd
  0
BLOCK
  5
e5
  330
e7
  100
AcDbEntity
  8
SK2
  100
AcDbBlockBegin
  2
*De6
  70
1
  10
0
  20
0
  30
0
  3
*De6
  1

  0
LINE
  5
e8
  330
e7
  100
AcDbEntity
  8
SK2
  100
AcDbLine
  10
0
  20
1.3
  30
0
  11
0
  21
14
  31
0
  0
LINE
  5
e9
  330
e7
  100
AcDbEntity
  8
SK2
  100
AcDbLine
  10
60
  20
0.9
  30
0
  11
60
  21
14
  31
0
  0
LINE
  5
ea
  330
e7
  100
AcDbEntity
  8
SK2
  100
AcDbLine
  10
0
  20
12
  30
0
  11
60
  21
12
  31
0
  0
SOLID
  5
eb
  330
e7
  100
AcDbEntity
  8
SK2
  100
AcDbTrace
  10
0
  20
12
  30
0
  11
2.478612
  21
12.326315
  31
0
  12
2.478612
  22
11.673685
  32
0
  13
2.478612
  23
11.673685
  33
0
  0
SOLID
  5
ec
  330
e7
  100
AcDbEntity
  8
SK2
  100
AcDbTrace
  10
60
  20
12
  30
0
  11
57.521388
  21
11.673685
  31
0
  12
57.521388
  22
12.326315
  32
0
  13
57.521388
  23
12.326315
  33
0
  0
MTEXT
  5
ed
  330
e7
  100
AcDbEntity
  8
SK2
  100
AcDbMText
  10
30
  20
12
  30
0
  11
1
  21
0
  31
0
  40
2
  41
0
  71
8
  72
1
  1
60
  0
POINT
  5
ee
  330
e7
  100
AcDbEntity
  8
SK2
  62
0
  100
AcDbPoint
  10
0
  20
1.3
  30
0
  0
POINT
  5
ef
  330
e7
  100
AcDbEntity
  8
SK2
  62
0
  100
AcDbPoint
  10
60
  20
0.9
  30
0
  0
POINT
  5
f0
  330
e7
  100
AcDbEntity
  8
SK2
  62
0
  100
AcDbPoint
  10
60
  20
12
  30
0
  0
ENDBLK
  5
f1
  330
e7
  100
AcDbEntity
  8
SK2
  100
AcDbBlockEnd
  0
BLOCK
  5
f3
  330
f5
  100
AcDbEntity
  8
SK2
  100
AcDbBlockBegin
  2
*Df4
  70
1
  10
0
  20
0
  30
0
  3
*Df4
  1

  0
LINE
  5
f6
  330
f5
  100
AcDbEntity
  8
SK2
  100
AcDbLine
  10
0
  20
1.3
  30
0
  11
0
  21
9.037689
  31
0
  0
LINE
  5
f7
  330
f5
  100
AcDbEntity
  8
SK2
  100
AcDbLine
  10
30.3
  20
2
  30
0
  11
30.3
  21
9.037689
  31
0
  0
LINE
  5
f8
  330
f5
  100
AcDbEntity
  8
SK2
  100
AcDbLine
  10
0
  20
7.037689
  30
0
  11
30.3
  21
7.037689
  31
0
  0
SOLID
  5
f9
  330
f5
  100
AcDbEntity
  8
SK2
  100
AcDbTrace
  10
0
  20
7.037689
  30
0
  11
2.478612
  21
7.364004
  31
0
  12
2.478612
  22
6.711373
  32
0
  13
2.478612
  23
6.711373
  33
0
  0
SOLID
  5
fa
  330
f5
  100
AcDbEntity
  8
SK2
  100
AcDbTrace
  10
30.3
  20
7.037689
  30
0
  11
27.821388
  21
6.711373
  31
0
  12
27.821388
  22
7.364004
  32
0
  13
27.821388
  23
7.364004
  33
0
  0
MTEXT
  5
fb
  330
f5
  100
AcDbEntity
  8
SK2
  100
AcDbMText
  10
15.15
  20
7.037689
  30
0
  11
1
  21
0
  31
0
  40
2
  41
0
  71
8
  72
1
  1
30.3
  0
POINT
  5
fc
  330
f5
  100
AcDbEntity
  8
SK2
  62
0
  100
AcDbPoint
  10
0
  20
1.3
  30
0
  0
POINT
  5
fd
  330
f5
  100
AcDbEntity
  8
SK2
  62
0
  100
AcDbPoint
  10
30.3
  20
2
  30
0
  0
POINT
  5
fe
  330
f5
  100
AcDbEntity
  8
SK2
  62
0
  100
AcDbPoint
  10
30.3
  20
7.037689
  30
0
  0
ENDBLK
  5
ff
  330
f5
  100
AcDbEntity
  8
SK2
  100
AcDbBlockEnd
  0
BLOCK
  5
101
  330
103
  100
AcDbEntity
  8
SK2
  100
AcDbBlockBegin
  2
*D102
  70
1
  10
0
  20
0
  30
0
  3
*D102
  1

  0
LINE
  5
104
  330
103
  100
AcDbEntity
  8
SK2
  100
AcDbLine
  10
0.7
  20
-2
  30
0
  11
-12
  21
-2
  31
0
  0
LINE
  5
105
  330
103
  100
AcDbEntity
  8
SK2
  100
AcDbLine
  10
0.7
  20
2
  30
0
  11
-12
  21
2
  31
0
  0
LINE
  5
106
  330
103
  100
AcDbEntity
  8
SK2
  100
AcDbLine
  10
-10
  20
-4.158416
  30
0
  11
-10
  21
2
  31
0
  0
SOLID
  5
107
  330
103
  100
AcDbEntity
  8
SK2
  100
AcDbTrace
  10
-10
  20
-2
  30
0
  11
-10.326315
  21
0.478612
  31
0
  12
-9.673685
  22
0.478612
  32
0
  13
-9.673685
  23
0.478612
  33
0
  0
SOLID
  5
108
  330
103
  100
AcDbEntity
  8
SK2
  100
AcDbTrace
  10
-10
  20
2
  30
0
  11
-9.673685
  21
-0.478612
  31
0
  12
-10.326315
  22
-0.478612
  32
0
  13
-10.326315
  23
-0.478612
  33
0
  0
MTEXT
  5
109
  330
103
  100
AcDbEntity
  8
SK2
  100
AcDbMText
  10
-10
  20
0
  30
0
  11
0
  21
1
  31
0
  40
2
  41
0
  71
8
  72
1
  1
ﾘ4
  0
POINT
  5
10a
  330
103
  100
AcDbEntity
  8
SK2
  62
0
  100
AcDbPoint
  10
0.7
  20
-2
  30
0
  0
POINT
  5
10b
  330
103
  100
AcDbEntity
  8
SK2
  62
0
  100
AcDbPoint
  10
0.7
  20
2
  30
0
  0
POINT
  5
10c
  330
103
  100
AcDbEntity
  8
SK2
  62
0
  100
AcDbPoint
  10
-10
  20
2
  30
0
  0
ENDBLK
  5
10d
  330
103
  100
AcDbEntity
  8
SK2
  100
AcDbBlockEnd
  0
BLOCK
  5
10f
  330
111
  100
AcDbEntity
  8
2
  100
AcDbBlockBegin
  2
*D110
  70
1
  10
0
  20
0
  30
0
  3
*D110
  1

  0
LINE
  5
112
  330
111
  100
AcDbEntity
  8
2
  100
AcDbLine
  10
60
  20
-0.9
  30
0
  11
72
  21
-0.9
  31
0
  0
LINE
  5
113
  330
111
  100
AcDbEntity
  8
2
  100
AcDbLine
  10
60
  20
0.9
  30
0
  11
72
  21
0.9
  31
0
  0
LINE
  5
114
  330
111
  100
AcDbEntity
  8
2
  100
AcDbLine
  10
70
  20
-6.757426
  30
0
  11
70
  21
0.9
  31
0
  0
SOLID
  5
115
  330
111
  100
AcDbEntity
  8
2
  100
AcDbTrace
  10
70
  20
-0.9
  30
0
  11
69.673685
  21
1.578612
  31
0
  12
70.326315
  22
1.578612
  32
0
  13
70.326315
  23
1.578612
  33
0
  0
SOLID
  5
116
  330
111
  100
AcDbEntity
  8
2
  100
AcDbTrace
  10
70
  20
0.9
  30
0
  11
70.326315
  21
-1.578612
  31
0
  12
69.673685
  22
-1.578612
  32
0
  13
69.673685
  23
-1.578612
  33
0
  0
MTEXT
  5
117
  330
111
  100
AcDbEntity
  8
2
  100
AcDbMText
  10
70
  20
0
  30
0
  11
0
  21
1
  31
0
  40
2
  41
0
  71
8
  72
1
  1
ﾘ1.8
  0
POINT
  5
118
  330
111
  100
AcDbEntity
  8
2
  62
0
  100
AcDbPoint
  10
60
  20
-0.9
  30
0
  0
POINT
  5
119
  330
111
  100
AcDbEntity
  8
2
  62
0
  100
AcDbPoint
  10
60
  20
0.9
  30
0
  0
POINT
  5
11a
  330
111
  100
AcDbEntity
  8
2
  62
0
  100
AcDbPoint
  10
70
  20
0.9
  30
0
  0
ENDBLK
  5
11b
  330
111
  100
AcDbEntity
  8
2
  100
AcDbBlockEnd
  0
BLOCK
  5
11d
  330
11f
  100
AcDbEntity
  8
2
  100
AcDbBlockBegin
  2
*D11e
  70
1
  10
0
  20
0
  30
0
  3
*D11e
  1

  0
LINE
  5
120
  330
11f
  100
AcDbEntity
  8
2
  100
AcDbLine
  10
57.3
  20
-0.875
  30
0
  11
55.3
  21
-0.875
  31
0
  0
LINE
  5
121
  330
11f
  100
AcDbEntity
  8
2
  100
AcDbLine
  10
57.3
  20
0.875
  30
0
  11
55.3
  21
0.875
  31
0
  0
LINE
  5
122
  330
11f
  100
AcDbEntity
  8
2
  100
AcDbLine
  10
57.3
  20
-0.875
  30
0
  11
57.3
  21
9.356436
  31
0
  0
SOLID
  5
123
  330
11f
  100
AcDbEntity
  8
2
  100
AcDbTrace
  10
57.3
  20
-0.875
  30
0
  11
56.973685
  21
1.603612
  31
0
  12
57.626315
  22
1.603612
  32
0
  13
57.626315
  23
1.603612
  33
0
  0
SOLID
  5
124
  330
11f
  100
AcDbEntity
  8
2
  100
AcDbTrace
  10
57.3
  20
0.875
  30
0
  11
57.626315
  21
-1.603612
  31
0
  12
56.973685
  22
-1.603612
  32
0
  13
56.973685
  23
-1.603612
  33
0
  0
MTEXT
  5
125
  330
11f
  100
AcDbEntity
  8
2
  100
AcDbMText
  10
57.3
  20
0.875
  30
0
  11
0
  21
1
  31
0
  40
2
  41
0
  71
8
  72
1
  1
ﾘ1.75
  0
POINT
  5
126
  330
11f
  100
AcDbEntity
  8
2
  62
0
  100
AcDbPoint
  10
55.3
  20
-0.875
  30
0
  0
POINT
  5
127
  330
11f
  100
AcDbEntity
  8
2
  62
0
  100
AcDbPoint
  10
55.3
  20
0.875
  30
0
  0
POINT
  5
128
  330
11f
  100
AcDbEntity
  8
2
  62
0
  100
AcDbPoint
  10
57.3
  20
9.356436
  30
0
  0
ENDBLK
  5
129
  330
11f
  100
AcDbEntity
  8
2
  100
AcDbBlockEnd
  0
BLOCK
  5
12b
  330
12d
  100
AcDbEntity
  8
2
  100
AcDbBlockBegin
  2
*D12c
  70
1
  10
0
  20
0
  30
0
  3
*D12c
  1

  0
LINE
  5
12e
  330
12d
  100
AcDbEntity
  8
2
  100
AcDbLine
  10
57.3
  20
0.875
  30
0
  11
57.3
  21
9
  31
0
  0
LINE
  5
12f
  330
12d
  100
AcDbEntity
  8
2
  100
AcDbLine
  10
35.25
  20
0.875
  30
0
  11
35.25
  21
9
  31
0
  0
LINE
  5
130
  330
12d
  100
AcDbEntity
  8
2
  100
AcDbLine
  10
57.3
  20
7
  30
0
  11
35.25
  21
7
  31
0
  0
SOLID
  5
131
  330
12d
  100
AcDbEntity
  8
2
  100
AcDbTrace
  10
57.3
  20
7
  30
0
  11
59.778612
  21
7.326315
  31
0
  12
59.778612
  22
6.673685
  32
0
  13
59.778612
  23
6.673685
  33
0
  0
SOLID
  5
132
  330
12d
  100
AcDbEntity
  8
2
  100
AcDbTrace
  10
35.25
  20
7
  30
0
  11
32.771388
  21
6.673685
  31
0
  12
32.771388
  22
7.326315
  32
0
  13
32.771388
  23
7.326315
  33
0
  0
MTEXT
  5
133
  330
12d
  100
AcDbEntity
  8
2
  100
AcDbMText
  10
50.55507
  20
7
  30
0
  11
1
  21
-0
  31
0
  40
2
  41
0
  71
8
  72
1
  1
22.05
  0
POINT
  5
134
  330
12d
  100
AcDbEntity
  8
2
  62
0
  100
AcDbPoint
  10
57.3
  20
0.875
  30
0
  0
POINT
  5
135
  330
12d
  100
AcDbEntity
  8
2
  62
0
  100
AcDbPoint
  10
35.25
  20
0.875
  30
0
  0
POINT
  5
136
  330
12d
  100
AcDbEntity
  8
2
  62
0
  100
AcDbPoint
  10
35.25
  20
7
  30
0
  0
ENDBLK
  5
137
  330
12d
  100
AcDbEntity
  8
2
  100
AcDbBlockEnd
  0
BLOCK
  5
139
  330
13b
  100
AcDbEntity
  8
2
  100
AcDbBlockBegin
  2
*D13a
  70
1
  10
0
  20
0
  30
0
  3
*D13a
  1

  0
LINE
  5
13c
  330
13b
  100
AcDbEntity
  8
2
  100
AcDbLine
  10
60
  20
0.9
  30
0
  11
60
  21
14
  31
0
  0
LINE
  5
13d
  330
13b
  100
AcDbEntity
  8
2
  100
AcDbLine
  10
30.3
  20
2
  30
0
  11
30.3
  21
9
  31
0
  0
LINE
  5
13e
  330
13b
  100
AcDbEntity
  8
2
  100
AcDbLine
  10
60
  20
7
  30
0
  11
30.3
  21
7
  31
0
  0
SOLID
  5
13f
  330
13b
  100
AcDbEntity
  8
2
  100
AcDbTrace
  10
60
  20
7
  30
0
  11
62.478612
  21
7.326315
  31
0
  12
62.478612
  22
6.673685
  32
0
  13
62.478612
  23
6.673685
  33
0
  0
SOLID
  5
140
  330
13b
  100
AcDbEntity
  8
2
  100
AcDbTrace
  10
30.3
  20
7
  30
0
  11
27.821388
  21
6.673685
  31
0
  12
27.821388
  22
7.326315
  32
0
  13
27.821388
  23
7.326315
  33
0
  0
MTEXT
  5
141
  330
13b
  100
AcDbEntity
  8
2
  100
AcDbMText
  10
45.15
  20
7
  30
0
  11
1
  21
-0
  31
0
  40
2
  41
0
  71
8
  72
1
  1
29.7
  0
POINT
  5
142
  330
13b
  100
AcDbEntity
  8
2
  62
0
  100
AcDbPoint
  10
60
  20
14
  30
0
  0
POINT
  5
143
  330
13b
  100
AcDbEntity
  8
2
  62
0
  100
AcDbPoint
  10
30.3
  20
2
  30
0
  0
POINT
  5
144
  330
13b
  100
AcDbEntity
  8
2
  62
0
  100
AcDbPoint
  10
30.3
  20
7
  30
0
  0
ENDBLK
  5
145
  330
13b
  100
AcDbEntity
  8
2
  100
AcDbBlockEnd
  0
BLOCK
  5
147
  330
149
  100
AcDbEntity
  8
2
  100
AcDbBlockBegin
  2
*D148
  70
1
  10
0
  20
0
  30
0
  3
*D148
  1

  0
LINE
  5
14a
  330
149
  100
AcDbEntity
  8
2
  100
AcDbLine
  10
60
  20
-7.238525
  30
0
  11
60
  21
-0.9
  31
0
  0
LINE
  5
14b
  330
149
  100
AcDbEntity
  8
2
  100
AcDbLine
  10
57.3
  20
-7.238525
  30
0
  11
57.3
  21
-0.875
  31
0
  0
LINE
  5
14c
  330
149
  100
AcDbEntity
  8
2
  100
AcDbLine
  10
60
  20
-5.238525
  30
0
  11
54.189356
  21
-5.238525
  31
0
  0
SOLID
  5
14d
  330
149
  100
AcDbEntity
  8
2
  100
AcDbTrace
  10
60
  20
-5.238525
  30
0
  11
62.478612
  21
-4.91221
  31
0
  12
62.478612
  22
-5.564841
  32
0
  13
62.478612
  23
-5.564841
  33
0
  0
SOLID
  5
14e
  330
149
  100
AcDbEntity
  8
2
  100
AcDbTrace
  10
57.3
  20
-5.238525
  30
0
  11
54.821388
  21
-5.564841
  31
0
  12
54.821388
  22
-4.91221
  32
0
  13
54.821388
  23
-4.91221
  33
0
  0
MTEXT
  5
14f
  330
149
  100
AcDbEntity
  8
2
  100
AcDbMText
  10
58.65
  20
-5.238525
  30
0
  11
1
  21
-0
  31
0
  40
2
  41
0
  71
8
  72
1
  1
2.7
  0
POINT
  5
150
  330
149
  100
AcDbEntity
  8
2
  62
0
  100
AcDbPoint
  10
60
  20
-0.9
  30
0
  0
POINT
  5
151
  330
149
  100
AcDbEntity
  8
2
  62
0
  100
AcDbPoint
  10
57.3
  20
-0.875
  30
0
  0
POINT
  5
152
  330
149
  100
AcDbEntity
  8
2
  62
0
  100
AcDbPoint
  10
54.189356
  20
-5.238525
  30
0
  0
ENDBLK
  5
153
  330
149
  100
AcDbEntity
  8
2
  100
AcDbBlockEnd
  0
ENDSEC
  0
SECTION
  2
ENTITIES
  0
DIMENSION
  5
f2
  100
AcDbEntity
  8
SK2
  100
AcDbDimension
  2
*De6
  10
60
  20
12
  30
0
  11
30
  21
12
  31
0
  70
160
  1
<>
  71
5
  3
STANDARD
  42
60
  100
AcDbAlignedDimension
  13
0
  23
1.3
  33
0
  14
60
  24
0.9
  34
0
  50
0
  100
AcDbRotatedDimension
  0
DIMENSION
  5
100
  100
AcDbEntity
  8
SK2
  100
AcDbDimension
  2
*Df4
  10
30.3
  20
7.037689
  30
0
  11
15.15
  21
7.037689
  31
0
  70
160
  1
<>
  71
5
  3
STANDARD
  42
30.3
  100
AcDbAlignedDimension
  13
0
  23
1.3
  33
0
  14
30.3
  24
2
  34
0
  50
0
  100
AcDbRotatedDimension
  0
DIMENSION
  5
10e
  100
AcDbEntity
  8
SK2
  100
AcDbDimension
  2
*D102
  10
-10
  20
2
  30
0
  11
-10
  21
0
  31
0
  70
160
  1
%%c<>
  71
5
  3
STANDARD
  42
4
  100
AcDbAlignedDimension
  13
0.7
  23
-2
  33
0
  14
0.7
  24
2
  34
0
  50
-90
  100
AcDbRotatedDimension
  0
DIMENSION
  5
11c
  100
AcDbEntity
  8
2
  100
AcDbDimension
  2
*D110
  10
70
  20
0.9
  30
0
  11
70
  21
0
  31
0
  70
160
  1
%%c<>
  71
5
  3
STANDARD
  42
1.8
  100
AcDbAlignedDimension
  13
60
  23
-0.9
  33
0
  14
60
  24
0.9
  34
0
  50
-90
  100
AcDbRotatedDimension
  0
DIMENSION
  5
12a
  100
AcDbEntity
  8
2
  100
AcDbDimension
  2
*D11e
  10
57.3
  20
9.356436
  30
0
  11
57.3
  21
0.875
  31
0
  70
160
  1
%%c<>
  71
5
  3
STANDARD
  42
1.75
  100
AcDbAlignedDimension
  13
55.3
  23
-0.875
  33
0
  14
55.3
  24
0.875
  34
0
  50
-90
  100
AcDbRotatedDimension
  0
DIMENSION
  5
138
  100
AcDbEntity
  8
2
  100
AcDbDimension
  2
*D12c
  10
35.25
  20
7
  30
0
  11
50.55507
  21
7
  31
0
  70
160
  1
<>
  71
5
  3
STANDARD
  42
22.05
  100
AcDbAlignedDimension
  13
57.3
  23
0.875
  33
0
  14
35.25
  24
0.875
  34
0
  50
0
  100
AcDbRotatedDimension
  0
DIMENSION
  5
146
  100
AcDbEntity
  8
2
  100
AcDbDimension
  2
*D13a
  10
30.3
  20
7
  30
0
  11
45.15
  21
7
  31
0
  70
160
  1
<>
  71
5
  3
STANDARD
  42
29.7
  100
AcDbAlignedDimension
  13
60
  23
14
  33
0
  14
30.3
  24
2
  34
0
  50
0
  100
AcDbRotatedDimension
  0
DIMENSION
  5
154
  100
AcDbEntity
  8
2
  100
AcDbDimension
  2
*D148
  10
54.189356
  20
-5.238525
  30
0
  11
58.65
  21
-5.238525
  31
0
  70
160
  1
<>
  71
5
  3
STANDARD
  42
2.7
  100
AcDbAlignedDimension
  13
60
  23
-0.9
  33
0
  14
57.3
  24
-0.875
  34
0
  50
0
  100
AcDbRotatedDimension
  0
LINE
  5
36
  100
AcDbEntity
  8
1
  100
AcDbLine
  10
30.3
  20
-2
  30
0
  11
30.3
  21
2
  31
0
  0
LINE
  5
37
  100
AcDbEntity
  8
1
  100
AcDbLine
  10
30.3
  20
2
  30
0
  11
30.3
  21
-2
  31
0
  0
LINE
  5
38
  100
AcDbEntity
  8
1
  100
AcDbLine
  10
30.464459
  20
-2
  30
0
  11
30.464459
  21
2
  31
0
  0
LINE
  5
39
  100
AcDbEntity
  8
1
  100
AcDbLine
  10
57
  20
0.875
  30
0
  11
57
  21
0.873797
  31
0
  0
LINE
  5
3a
  100
AcDbEntity
  8
1
  100
AcDbLine
  10
57
  20
0.873797
  30
0
  11
57.1
  21
0.572238
  31
0
  0
LINE
  5
3b
  100
AcDbEntity
  8
1
  100
AcDbLine
  10
57.1
  20
0.572238
  30
0
  11
57.2
  21
0.478391
  31
0
  0
LINE
  5
3c
  100
AcDbEntity
  8
1
  100
AcDbLine
  10
57.2
  20
0.478391
  30
0
  11
57.3
  21
0.429591
  31
0
  0
LINE
  5
3d
  100
AcDbEntity
  8
1
  100
AcDbLine
  10
57.3
  20
0.429591
  30
0
  11
57.3
  21
0.439611
  31
0
  0
LINE
  5
3e
  100
AcDbEntity
  8
1
  100
AcDbLine
  10
57.3
  20
0.439611
  30
0
  11
57.4
  21
0.388363
  31
0
  0
LINE
  5
3f
  100
AcDbEntity
  8
1
  100
AcDbLine
  10
57.4
  20
0.388363
  30
0
  11
57.5
  21
0.335516
  31
0
  0
LINE
  5
40
  100
AcDbEntity
  8
1
  100
AcDbLine
  10
57.5
  20
0.335516
  30
0
  11
57.6
  21
0.28129
  31
0
  0
LINE
  5
41
  100
AcDbEntity
  8
1
  100
AcDbLine
  10
57.6
  20
0.28129
  30
0
  11
57.7
  21
0.225906
  31
0
  0
LINE
  5
42
  100
AcDbEntity
  8
1
  100
AcDbLine
  10
57.7
  20
0.225906
  30
0
  11
57.8
  21
0.169593
  31
0
  0
LINE
  5
43
  100
AcDbEntity
  8
1
  100
AcDbLine
  10
57.8
  20
0.169593
  30
0
  11
57.9
  21
0.112582
  31
0
  0
LINE
  5
44
  100
AcDbEntity
  8
1
  100
AcDbLine
  10
57.9
  20
0.112582
  30
0
  11
58
  21
0.055109
  31
0
  0
LINE
  5
45
  100
AcDbEntity
  8
1
  100
AcDbLine
  10
58
  20
0.055109
  30
0
  11
58.1
  21
-0.002592
  31
0
  0
LINE
  5
46
  100
AcDbEntity
  8
1
  100
AcDbLine
  10
58.1
  20
-0.002592
  30
0
  11
58.2
  21
-0.060282
  31
0
  0
LINE
  5
47
  100
AcDbEntity
  8
1
  100
AcDbLine
  10
58.2
  20
-0.060282
  30
0
  11
58.3
  21
-0.117724
  31
0
  0
LINE
  5
48
  100
AcDbEntity
  8
1
  100
AcDbLine
  10
58.3
  20
-0.117724
  30
0
  11
58.4
  21
-0.174681
  31
0
  0
LINE
  5
49
  100
AcDbEntity
  8
1
  100
AcDbLine
  10
58.4
  20
-0.174681
  30
0
  11
58.5
  21
-0.23092
  31
0
  0
LINE
  5
4a
  100
AcDbEntity
  8
1
  100
AcDbLine
  10
58.5
  20
-0.23092
  30
0
  11
58.6
  21
-0.286209
  31
0
  0
LINE
  5
4b
  100
AcDbEntity
  8
1
  100
AcDbLine
  10
58.6
  20
-0.286209
  30
0
  11
58.7
  21
-0.340321
  31
0
  0
LINE
  5
4c
  100
AcDbEntity
  8
1
  100
AcDbLine
  10
58.7
  20
-0.340321
  30
0
  11
58.8
  21
-0.393032
  31
0
  0
LINE
  5
4d
  100
AcDbEntity
  8
1
  100
AcDbLine
  10
58.8
  20
-0.393032
  30
0
  11
58.9
  21
-0.444127
  31
0
  0
LINE
  5
4e
  100
AcDbEntity
  8
1
  100
AcDbLine
  10
58.9
  20
-0.444127
  30
0
  11
59
  21
-0.493395
  31
0
  0
LINE
  5
4f
  100
AcDbEntity
  8
1
  100
AcDbLine
  10
59
  20
-0.493395
  30
0
  11
59.1
  21
-0.540633
  31
0
  0
LINE
  5
50
  100
AcDbEntity
  8
1
  100
AcDbLine
  10
59.1
  20
-0.540633
  30
0
  11
59.2
  21
-0.585647
  31
0
  0
LINE
  5
51
  100
AcDbEntity
  8
1
  100
AcDbLine
  10
59.2
  20
-0.585647
  30
0
  11
59.3
  21
-0.628251
  31
0
  0
LINE
  5
52
  100
AcDbEntity
  8
1
  100
AcDbLine
  10
59.3
  20
-0.628251
  30
0
  11
59.4
  21
-0.668271
  31
0
  0
LINE
  5
53
  100
AcDbEntity
  8
1
  100
AcDbLine
  10
59.4
  20
-0.668271
  30
0
  11
59.5
  21
-0.705542
  31
0
  0
LINE
  5
54
  100
AcDbEntity
  8
1
  100
AcDbLine
  10
59.5
  20
-0.705542
  30
0
  11
59.6
  21
-0.739911
  31
0
  0
LINE
  5
55
  100
AcDbEntity
  8
1
  100
AcDbLine
  10
59.6
  20
-0.739911
  30
0
  11
59.7
  21
-0.771235
  31
0
  0
LINE
  5
56
  100
AcDbEntity
  8
1
  100
AcDbLine
  10
59.7
  20
-0.771235
  30
0
  11
59.8
  21
-0.799387
  31
0
  0
LINE
  5
57
  100
AcDbEntity
  8
1
  100
AcDbLine
  10
59.8
  20
-0.799387
  30
0
  11
59.9
  21
-0.824251
  31
0
  0
LINE
  5
58
  100
AcDbEntity
  8
1
  100
AcDbLine
  10
59.9
  20
-0.824251
  30
0
  11
60
  21
-0.845723
  31
0
  0
LINE
  5
59
  100
AcDbEntity
  8
1
  100
AcDbLine
  10
60
  20
-0.884372
  30
0
  11
59.9
  21
-0.876871
  31
0
  0
LINE
  5
5a
  100
AcDbEntity
  8
1
  100
AcDbLine
  10
59.9
  20
-0.876871
  30
0
  11
59.8
  21
-0.865762
  31
0
  0
LINE
  5
5b
  100
AcDbEntity
  8
1
  100
AcDbLine
  10
59.8
  20
-0.865762
  30
0
  11
59.7
  21
-0.851093
  31
0
  0
LINE
  5
5c
  100
AcDbEntity
  8
1
  100
AcDbLine
  10
59.7
  20
-0.851093
  30
0
  11
59.6
  21
-0.832922
  31
0
  0
LINE
  5
5d
  100
AcDbEntity
  8
1
  100
AcDbLine
  10
59.6
  20
-0.832922
  30
0
  11
59.5
  21
-0.811324
  31
0
  0
LINE
  5
5e
  100
AcDbEntity
  8
1
  100
AcDbLine
  10
59.5
  20
-0.811324
  30
0
  11
59.4
  21
-0.786389
  31
0
  0
LINE
  5
5f
  100
AcDbEntity
  8
1
  100
AcDbLine
  10
59.4
  20
-0.786389
  30
0
  11
59.3
  21
-0.758219
  31
0
  0
LINE
  5
60
  100
AcDbEntity
  8
1
  100
AcDbLine
  10
59.3
  20
-0.758219
  30
0
  11
59.2
  21
-0.726929
  31
0
  0
LINE
  5
61
  100
AcDbEntity
  8
1
  100
AcDbLine
  10
59.2
  20
-0.726929
  30
0
  11
59.1
  21
-0.692649
  31
0
  0
LINE
  5
62
  100
AcDbEntity
  8
1
  100
AcDbLine
  10
59.1
  20
-0.692649
  30
0
  11
59
  21
-0.65552
  31
0
  0
LINE
  5
63
  100
AcDbEntity
  8
1
  100
AcDbLine
  10
59
  20
-0.65552
  30
0
  11
58.9
  21
-0.615694
  31
0
  0
LINE
  5
64
  100
AcDbEntity
  8
1
  100
AcDbLine
  10
58.9
  20
-0.615694
  30
0
  11
58.8
  21
-0.573335
  31
0
  0
LINE
  5
65
  100
AcDbEntity
  8
1
  100
AcDbLine
  10
58.8
  20
-0.573335
  30
0
  11
58.7
  21
-0.528618
  31
0
  0
LINE
  5
66
  100
AcDbEntity
  8
1
  100
AcDbLine
  10
58.7
  20
-0.528618
  30
0
  11
58.6
  21
-0.481726
  31
0
  0
LINE
  5
67
  100
AcDbEntity
  8
1
  100
AcDbLine
  10
58.6
  20
-0.481726
  30
0
  11
58.5
  21
-0.432852
  31
0
  0
LINE
  5
68
  100
AcDbEntity
  8
1
  100
AcDbLine
  10
58.5
  20
-0.432852
  30
0
  11
58.4
  21
-0.382197
  31
0
  0
LINE
  5
69
  100
AcDbEntity
  8
1
  100
AcDbLine
  10
58.4
  20
-0.382197
  30
0
  11
58.3
  21
-0.329971
  31
0
  0
LINE
  5
6a
  100
AcDbEntity
  8
1
  100
AcDbLine
  10
58.3
  20
-0.329971
  30
0
  11
58.2
  21
-0.276386
  31
0
  0
LINE
  5
6b
  100
AcDbEntity
  8
1
  100
AcDbLine
  10
58.2
  20
-0.276386
  30
0
  11
58.1
  21
-0.221665
  31
0
  0
LINE
  5
6c
  100
AcDbEntity
  8
1
  100
AcDbLine
  10
58.1
  20
-0.221665
  30
0
  11
58
  21
-0.166032
  31
0
  0
LINE
  5
6d
  100
AcDbEntity
  8
1
  100
AcDbLine
  10
58
  20
-0.166032
  30
0
  11
57.9
  21
-0.109716
  31
0
  0
LINE
  5
6e
  100
AcDbEntity
  8
1
  100
AcDbLine
  10
57.9
  20
-0.109716
  30
0
  11
57.8
  21
-0.052948
  31
0
  0
LINE
  5
6f
  100
AcDbEntity
  8
1
  100
AcDbLine
  10
57.8
  20
-0.052948
  30
0
  11
57.7
  21
0.004037
  31
0
  0
LINE
  5
70
  100
AcDbEntity
  8
1
  100
AcDbLine
  10
57.7
  20
0.004037
  30
0
  11
57.6
  21
0.061006
  31
0
  0
LINE
  5
71
  100
AcDbEntity
  8
1
  100
AcDbLine
  10
57.6
  20
0.061006
  30
0
  11
57.5
  21
0.117723
  31
0
  0
LINE
  5
72
  100
AcDbEntity
  8
1
  100
AcDbLine
  10
57.5
  20
0.117723
  30
0
  11
57.4
  21
0.173957
  31
0
  0
LINE
  5
73
  100
AcDbEntity
  8
1
  100
AcDbLine
  10
57.3
  20
-0.9
  30
0
  11
57.3
  21
0.9
  31
0
  0
LINE
  5
74
  100
AcDbEntity
  8
1
  100
AcDbLine
  10
57.3
  20
0.875
  30
0
  11
57.3
  21
-0.875
  31
0
  0
LINE
  5
75
  100
AcDbEntity
  8
1
  100
AcDbLine
  10
57
  20
-0.875
  30
0
  11
57
  21
0.081022
  31
0
  0
LINE
  5
76
  100
AcDbEntity
  8
1
  100
AcDbLine
  10
57
  20
0.081022
  30
0
  11
57.1
  21
0.25149
  31
0
  0
LINE
  5
77
  100
AcDbEntity
  8
1
  100
AcDbLine
  10
57.1
  20
0.25149
  30
0
  11
57.2
  21
0.198987
  31
0
  0
LINE
  5
78
  100
AcDbEntity
  8
1
  100
AcDbLine
  10
57.2
  20
0.198987
  30
0
  11
57.3
  21
0.143955
  31
0
  0
LINE
  5
79
  100
AcDbEntity
  8
1
  100
AcDbLine
  10
57.3
  20
0.143955
  30
0
  11
57.3
  21
0.144501
  31
0
  0
LINE
  5
7a
  100
AcDbEntity
  8
1
  100
AcDbLine
  10
57.3
  20
0.144501
  30
0
  11
57.4
  21
0.087257
  31
0
  0
LINE
  5
7b
  100
AcDbEntity
  8
1
  100
AcDbLine
  10
57.4
  20
0.087257
  30
0
  11
57.5
  21
0.029654
  31
0
  0
LINE
  5
7c
  100
AcDbEntity
  8
1
  100
AcDbLine
  10
57.5
  20
0.029654
  30
0
  11
57.6
  21
-0.028071
  31
0
  0
LINE
  5
7d
  100
AcDbEntity
  8
1
  100
AcDbLine
  10
57.6
  20
-0.028071
  30
0
  11
57.7
  21
-0.085681
  31
0
  0
LINE
  5
7e
  100
AcDbEntity
  8
1
  100
AcDbLine
  10
57.7
  20
-0.085681
  30
0
  11
57.8
  21
-0.142938
  31
0
  0
LINE
  5
7f
  100
AcDbEntity
  8
1
  100
AcDbLine
  10
57.8
  20
-0.142938
  30
0
  11
57.9
  21
-0.199607
  31
0
  0
LINE
  5
80
  100
AcDbEntity
  8
1
  100
AcDbLine
  10
57.9
  20
-0.199607
  30
0
  11
58
  21
-0.255455
  31
0
  0
LINE
  5
81
  100
AcDbEntity
  8
1
  100
AcDbLine
  10
58
  20
-0.255455
  30
0
  11
58.1
  21
-0.310252
  31
0
  0
LINE
  5
82
  100
AcDbEntity
  8
1
  100
AcDbLine
  10
58.1
  20
-0.310252
  30
0
  11
58.2
  21
-0.363773
  31
0
  0
LINE
  5
83
  100
AcDbEntity
  8
1
  100
AcDbLine
  10
58.2
  20
-0.363773
  30
0
  11
58.3
  21
-0.415797
  31
0
  0
LINE
  5
84
  100
AcDbEntity
  8
1
  100
AcDbLine
  10
58.3
  20
-0.415797
  30
0
  11
58.4
  21
-0.466111
  31
0
  0
LINE
  5
85
  100
AcDbEntity
  8
1
  100
AcDbLine
  10
58.4
  20
-0.466111
  30
0
  11
58.5
  21
-0.514507
  31
0
  0
LINE
  5
86
  100
AcDbEntity
  8
1
  100
AcDbLine
  10
58.5
  20
-0.514507
  30
0
  11
58.6
  21
-0.560787
  31
0
  0
LINE
  5
87
  100
AcDbEntity
  8
1
  100
AcDbLine
  10
58.6
  20
-0.560787
  30
0
  11
58.7
  21
-0.60476
  31
0
  0
LINE
  5
88
  100
AcDbEntity
  8
1
  100
AcDbLine
  10
58.7
  20
-0.60476
  30
0
  11
58.8
  21
-0.646245
  31
0
  0
LINE
  5
89
  100
AcDbEntity
  8
1
  100
AcDbLine
  10
58.8
  20
-0.646245
  30
0
  11
58.9
  21
-0.685071
  31
0
  0
LINE
  5
8a
  100
AcDbEntity
  8
1
  100
AcDbLine
  10
58.9
  20
-0.685071
  30
0
  11
59
  21
-0.721079
  31
0
  0
LINE
  5
8b
  100
AcDbEntity
  8
1
  100
AcDbLine
  10
59
  20
-0.721079
  30
0
  11
59.1
  21
-0.754121
  31
0
  0
LINE
  5
8c
  100
AcDbEntity
  8
1
  100
AcDbLine
  10
59.1
  20
-0.754121
  30
0
  11
59.2
  21
-0.78406
  31
0
  0
LINE
  5
8d
  100
AcDbEntity
  8
1
  100
AcDbLine
  10
59.2
  20
-0.78406
  30
0
  11
59.3
  21
-0.810774
  31
0
  0
LINE
  5
8e
  100
AcDbEntity
  8
1
  100
AcDbLine
  10
59.3
  20
-0.810774
  30
0
  11
59.4
  21
-0.834152
  31
0
  0
LINE
  5
8f
  100
AcDbEntity
  8
1
  100
AcDbLine
  10
59.4
  20
-0.834152
  30
0
  11
59.5
  21
-0.854099
  31
0
  0
LINE
  5
90
  100
AcDbEntity
  8
1
  100
AcDbLine
  10
59.5
  20
-0.854099
  30
0
  11
59.6
  21
-0.870533
  31
0
  0
LINE
  5
91
  100
AcDbEntity
  8
1
  100
AcDbLine
  10
59.6
  20
-0.870533
  30
0
  11
59.7
  21
-0.883385
  31
0
  0
LINE
  5
92
  100
AcDbEntity
  8
1
  100
AcDbLine
  10
59.7
  20
-0.883385
  30
0
  11
59.8
  21
-0.892603
  31
0
  0
LINE
  5
93
  100
AcDbEntity
  8
1
  100
AcDbLine
  10
59.8
  20
-0.892603
  30
0
  11
59.9
  21
-0.898149
  31
0
  0
LINE
  5
94
  100
AcDbEntity
  8
1
  100
AcDbLine
  10
59.9
  20
-0.898149
  30
0
  11
60
  21
-0.9
  31
0
  0
LINE
  5
95
  100
AcDbEntity
  8
1
  100
AcDbLine
  10
60
  20
-0.9
  30
0
  11
60
  21
0
  31
0
  0
LINE
  5
96
  100
AcDbEntity
  8
1
  100
AcDbLine
  10
60
  20
0
  30
0
  11
60
  21
0.9
  31
0
  0
LINE
  5
97
  100
AcDbEntity
  8
1
  100
AcDbLine
  10
60
  20
0.9
  30
0
  11
57.3
  21
0.9
  31
0
  0
LINE
  5
98
  100
AcDbEntity
  8
1
  100
AcDbLine
  10
57.3
  20
0.9
  30
0
  11
57.3
  21
0.875
  31
0
  0
LINE
  5
99
  100
AcDbEntity
  8
1
  100
AcDbLine
  10
57.3
  20
0.875
  30
0
  11
35.25
  21
0.875
  31
0
  0
ARC
  5
9a
  100
AcDbEntity
  8
1
  100
AcDbCircle
  10
36.121557
  20
10.836947
  30
0
  40
10
  100
AcDbArc
  50
255
  51
265
  0
LINE
  5
9b
  100
AcDbEntity
  8
1
  100
AcDbLine
  10
33.533367
  20
1.177689
  30
0
  11
30.464459
  21
2
  31
0
  0
LINE
  5
9c
  100
AcDbEntity
  8
1
  100
AcDbLine
  10
30.464459
  20
2
  30
0
  11
30.3
  21
2
  31
0
  0
LINE
  5
9d
  100
AcDbEntity
  8
1
  100
AcDbLine
  10
30.3
  20
2
  30
0
  11
30.3
  21
-2
  31
0
  0
LINE
  5
9e
  100
AcDbEntity
  8
1
  100
AcDbLine
  10
30.3
  20
-2
  30
0
  11
30.464459
  21
-2
  31
0
  0
LINE
  5
9f
  100
AcDbEntity
  8
1
  100
AcDbLine
  10
30.464459
  20
-2
  30
0
  11
33.533367
  21
-1.177689
  31
0
  0
LINE
  5
a0
  100
AcDbEntity
  8
1
  100
AcDbLine
  10
33.533367
  20
-1.177689
  30
0
  11
33.533367
  21
1.177689
  31
0
  0
LINE
  5
a1
  100
AcDbEntity
  8
1
  100
AcDbLine
  10
35.25
  20
0.875
  30
0
  11
35.25
  21
-0.875
  31
0
  0
ARC
  5
a2
  100
AcDbEntity
  8
1
  100
AcDbCircle
  10
36.121557
  20
-10.836947
  30
0
  40
10
  100
AcDbArc
  50
95
  51
105
  0
LINE
  5
a3
  100
AcDbEntity
  8
1
  100
AcDbLine
  10
35.25
  20
-0.875
  30
0
  11
57.3
  21
-0.875
  31
0
  0
LINE
  5
a4
  100
AcDbEntity
  8
1
  100
AcDbLine
  10
57.3
  20
-0.875
  30
0
  11
57.3
  21
-0.9
  31
0
  0
LINE
  5
a5
  100
AcDbEntity
  8
1
  100
AcDbLine
  10
57.3
  20
-0.9
  30
0
  11
60
  21
-0.9
  31
0
  0
LINE
  5
a6
  100
AcDbEntity
  8
1
  100
AcDbLine
  10
60
  20
-0.9
  30
0
  11
60
  21
0.9
  31
0
  0
LINE
  5
a7
  100
AcDbEntity
  8
SK1
  100
AcDbLine
  10
30.3
  20
2
  30
0
  11
0.7
  21
2
  31
0
  0
LINE
  5
a8
  100
AcDbEntity
  8
SK1
  100
AcDbLine
  10
0.7
  20
2
  30
0
  11
0
  21
1.3
  31
0
  0
LINE
  5
a9
  100
AcDbEntity
  8
SK1
  100
AcDbLine
  10
30.3
  20
-2
  30
0
  11
0.7
  21
-2
  31
0
  0
LINE
  5
aa
  100
AcDbEntity
  8
SK1
  100
AcDbLine
  10
0.7
  20
-2
  30
0
  11
0
  21
-1.3
  31
0
  0
LINE
  5
ab
  100
AcDbEntity
  8
SK1
  100
AcDbLine
  10
0.7
  20
2
  30
0
  11
0.7
  21
-2
  31
0
  0
LINE
  5
ac
  100
AcDbEntity
  8
SK1
  100
AcDbLine
  10
0
  20
1.3
  30
0
  11
0
  21
-1.3
  31
0
  0
LINE
  5
ad
  100
AcDbEntity
  8
SK1
  100
AcDbLine
  10
31.3401
  20
1.40688
  30
0
  11
31.7069
  21
1.0401
  31
0
  0
LINE
  5
ae
  100
AcDbEntity
  8
SK1
  100
AcDbLine
  10
30.8328
  20
1.66666
  30
0
  11
31.9667
  21
0.532833
  31
0
  0
LINE
  5
af
  100
AcDbEntity
  8
SK1
  100
AcDbLine
  10
30.5154
  20
1.73657
  30
0
  11
32.0366
  21
0.215434
  31
0
  0
LINE
  5
b0
  100
AcDbEntity
  8
SK1
  100
AcDbLine
  10
30.3
  20
1.70452
  30
0
  11
32.0045
  21
0
  31
0
  0
LINE
  5
b1
  100
AcDbEntity
  8
SK1
  100
AcDbLine
  10
30.3
  20
1.45703
  30
0
  11
31.757
  21
0
  31
0
  0
LINE
  5
b2
  100
AcDbEntity
  8
SK1
  100
AcDbLine
  10
30.3
  20
1.20954
  30
0
  11
31.5095
  21
0
  31
0
  0
LINE
  5
b3
  100
AcDbEntity
  8
SK1
  100
AcDbLine
  10
30.3
  20
0.962054
  30
0
  11
31.2621
  21
0
  31
0
  0
LINE
  5
b4
  100
AcDbEntity
  8
SK1
  100
AcDbLine
  10
30.3
  20
0.714566
  30
0
  11
31.0146
  21
0
  31
0
  0
LINE
  5
b5
  100
AcDbEntity
  8
SK1
  100
AcDbLine
  10
30.3
  20
0.467079
  30
0
  11
30.7671
  21
0
  31
0
  0
LINE
  5
b6
  100
AcDbEntity
  8
SK1
  100
AcDbLine
  10
30.3
  20
0.219592
  30
0
  11
30.5196
  21
0
  31
0
  0
LINE
  5
b7
  100
AcDbEntity
  8
SK1
  100
AcDbLine
  10
30.3
  20
1.70452
  30
0
  11
30.3441
  21
1.74861
  31
0
  0
LINE
  5
b8
  100
AcDbEntity
  8
SK1
  100
AcDbLine
  10
30.3
  20
1.45703
  30
0
  11
30.571
  21
1.72802
  31
0
  0
LINE
  5
b9
  100
AcDbEntity
  8
SK1
  100
AcDbLine
  10
30.3
  20
1.20954
  30
0
  11
30.7742
  21
1.6837
  31
0
  0
LINE
  5
ba
  100
AcDbEntity
  8
SK1
  100
AcDbLine
  10
30.3
  20
0.962054
  30
0
  11
30.9588
  21
1.62082
  31
0
  0
LINE
  5
bb
  100
AcDbEntity
  8
SK1
  100
AcDbLine
  10
30.3
  20
0.714566
  30
0
  11
31.1271
  21
1.54167
  31
0
  0
LINE
  5
bc
  100
AcDbEntity
  8
SK1
  100
AcDbLine
  10
30.3
  20
0.467079
  30
0
  11
31.281
  21
1.44812
  31
0
  0
LINE
  5
bd
  100
AcDbEntity
  8
SK1
  100
AcDbLine
  10
30.3
  20
0.219592
  30
0
  11
31.4226
  21
1.34216
  31
0
  0
LINE
  5
be
  100
AcDbEntity
  8
SK1
  100
AcDbLine
  10
30.3279
  20
0
  30
0
  11
31.5508
  21
1.22288
  31
0
  0
LINE
  5
bf
  100
AcDbEntity
  8
SK1
  100
AcDbLine
  10
30.5754
  20
0
  30
0
  11
31.667
  21
1.09157
  31
0
  0
LINE
  5
c0
  100
AcDbEntity
  8
SK1
  100
AcDbLine
  10
30.8229
  20
0
  30
0
  11
31.7707
  21
0.947822
  31
0
  0
LINE
  5
c1
  100
AcDbEntity
  8
SK1
  100
AcDbLine
  10
31.0704
  20
0
  30
0
  11
31.8605
  21
0.790145
  31
0
  0
LINE
  5
c2
  100
AcDbEntity
  8
SK1
  100
AcDbLine
  10
31.3178
  20
0
  30
0
  11
31.9364
  21
0.618517
  31
0
  0
LINE
  5
c3
  100
AcDbEntity
  8
SK1
  100
AcDbLine
  10
31.5653
  20
0
  30
0
  11
31.996
  21
0.430696
  31
0
  0
LINE
  5
c4
  100
AcDbEntity
  8
SK1
  100
AcDbLine
  10
31.8128
  20
0
  30
0
  11
32.0356
  21
0.222827
  31
0
  0
LINE
  5
c5
  100
AcDbEntity
  8
SK1
  100
AcDbLine
  10
30.3
  20
0
  30
0
  11
30.3
  21
1.75
  31
0
  0
LINE
  5
c6
  100
AcDbEntity
  8
SK1
  100
AcDbLine
  10
30.3
  20
0
  30
0
  11
32.05
  21
0
  31
0
  0
ARC
  5
c7
  100
AcDbEntity
  8
SK1
  100
AcDbCircle
  10
30.3
  20
0
  30
0
  40
1.75
  100
AcDbArc
  50
0
  51
90
  0
ARC
  5
c8
  100
AcDbEntity
  8
SK1
  100
AcDbCircle
  10
30.3
  20
0
  30
0
  40
1.75
  100
AcDbArc
  50
90
  51
180
  0
LINE
  5
c9
  100
AcDbEntity
  8
SK1
  100
AcDbLine
  10
30.2721
  20
0
  30
0
  11
30.3
  21
-0.027896
  31
0
  0
LINE
  5
ca
  100
AcDbEntity
  8
SK1
  100
AcDbLine
  10
30.0246
  20
0
  30
0
  11
30.3
  21
-0.275383
  31
0
  0
LINE
  5
cb
  100
AcDbEntity
  8
SK1
  100
AcDbLine
  10
29.7771
  20
0
  30
0
  11
30.3
  21
-0.522871
  31
0
  0
LINE
  5
cc
  100
AcDbEntity
  8
SK1
  100
AcDbLine
  10
29.5296
  20
0
  30
0
  11
30.3
  21
-0.770358
  31
0
  0
LINE
  5
cd
  100
AcDbEntity
  8
SK1
  100
AcDbLine
  10
29.2822
  20
0
  30
0
  11
30.3
  21
-1.01785
  31
0
  0
LINE
  5
ce
  100
AcDbEntity
  8
SK1
  100
AcDbLine
  10
29.0347
  20
0
  30
0
  11
30.3
  21
-1.26533
  31
0
  0
LINE
  5
cf
  100
AcDbEntity
  8
SK1
  100
AcDbLine
  10
28.7872
  20
0
  30
0
  11
30.3
  21
-1.51282
  31
0
  0
LINE
  5
d0
  100
AcDbEntity
  8
SK1
  100
AcDbLine
  10
28.5503
  20
-0.010642
  30
0
  11
30.2894
  21
-1.74967
  31
0
  0
LINE
  5
d1
  100
AcDbEntity
  8
SK1
  100
AcDbLine
  10
28.5736
  20
-0.281429
  30
0
  11
30.0186
  21
-1.72637
  31
0
  0
LINE
  5
d2
  100
AcDbEntity
  8
SK1
  100
AcDbLine
  10
28.6639
  20
-0.619147
  30
0
  11
29.6809
  21
-1.63613
  31
0
  0
LINE
  5
d3
  100
AcDbEntity
  8
SK1
  100
AcDbLine
  10
28.5514
  20
-0.044098
  30
0
  11
28.5955
  21
0
  31
0
  0
LINE
  5
d4
  100
AcDbEntity
  8
SK1
  100
AcDbLine
  10
28.572
  20
-0.270991
  30
0
  11
28.843
  21
0
  31
0
  0
LINE
  5
d5
  100
AcDbEntity
  8
SK1
  100
AcDbLine
  10
28.6163
  20
-0.474162
  30
0
  11
29.0905
  21
0
  31
0
  0
LINE
  5
d6
  100
AcDbEntity
  8
SK1
  100
AcDbLine
  10
28.6792
  20
-0.658762
  30
0
  11
29.3379
  21
0
  31
0
  0
LINE
  5
d7
  100
AcDbEntity
  8
SK1
  100
AcDbLine
  10
28.7583
  20
-0.827105
  30
0
  11
29.5854
  21
0
  31
0
  0
LINE
  5
d8
  100
AcDbEntity
  8
SK1
  100
AcDbLine
  10
28.8519
  20
-0.981039
  30
0
  11
29.8329
  21
0
  31
0
  0
LINE
  5
d9
  100
AcDbEntity
  8
SK1
  100
AcDbLine
  10
28.9578
  20
-1.12257
  30
0
  11
30.0804
  21
0
  31
0
  0
LINE
  5
da
  100
AcDbEntity
  8
SK1
  100
AcDbLine
  10
29.0771
  20
-1.25077
  30
0
  11
30.3
  21
-0.027896
  31
0
  0
LINE
  5
db
  100
AcDbEntity
  8
SK1
  100
AcDbLine
  10
29.2084
  20
-1.36695
  30
0
  11
30.3
  21
-0.275383
  31
0
  0
LINE
  5
dc
  100
AcDbEntity
  8
SK1
  100
AcDbLine
  10
29.3522
  20
-1.47069
  30
0
  11
30.3
  21
-0.522871
  31
0
  0
LINE
  5
dd
  100
AcDbEntity
  8
SK1
  100
AcDbLine
  10
29.5099
  20
-1.5605
  30
0
  11
30.3
  21
-0.770358
  31
0
  0
LINE
  5
de
  100
AcDbEntity
  8
SK1
  100
AcDbLine
  10
29.6815
  20
-1.63636
  30
0
  11
30.3
  21
-1.01785
  31
0
  0
LINE
  5
df
  100
AcDbEntity
  8
SK1
  100
AcDbLine
  10
29.8693
  20
-1.69603
  30
0
  11
30.3
  21
-1.26533
  31
0
  0
LINE
  5
e0
  100
AcDbEntity
  8
SK1
  100
AcDbLine
  10
30.0772
  20
-1.73565
  30
0
  11
30.3
  21
-1.51282
  31
0
  0
LINE
  5
e1
  100
AcDbEntity
  8
SK1
  100
AcDbLine
  10
30.3
  20
0
  30
0
  11
28.55
  21
0
  31
0
  0
LINE
  5
e2
  100
AcDbEntity
  8
SK1
  100
AcDbLine
  10
30.3
  20
-1.75
  30
0
  11
30.3
  21
0
  31
0
  0
ARC
  5
e3
  100
AcDbEntity
  8
SK1
  100
AcDbCircle
  10
30.3
  20
0
  30
0
  40
1.75
  100
AcDbArc
  50
180
  51
270
  0
ARC
  5
e4
  100
AcDbEntity
  8
SK1
  100
AcDbCircle
  10
30.3
  20
0
  30
0
  40
1.75
  100
AcDbArc
  50
270
  51
0
  0
LINE
  5
155
  100
AcDbEntity
  8
NOCUT
  100
AcDbLine
  10
57.3
  20
0
  30
0
  11
57.3
  21
0.875
  31
0
  0
LINE
  5
156
  100
AcDbEntity
  8
NOCUT
  100
AcDbLine
  10
57.3
  20
0.875
  30
0
  11
35.25
  21
0.875
  31
0
  0
ARC
  5
157
  100
AcDbEntity
  8
NOCUT
  100
AcDbCircle
  10
36.121557
  20
10.836947
  30
0
  40
10
  100
AcDbArc
  50
255
  51
265
  0
LINE
  5
158
  100
AcDbEntity
  8
NOCUT
  100
AcDbLine
  10
33.533367
  20
1.177689
  30
0
  11
30.464459
  21
2
  31
0
  0
LINE
  5
159
  100
AcDbEntity
  8
NOCUT
  100
AcDbLine
  10
30.464459
  20
2
  30
0
  11
30.3
  21
2
  31
0
  0
LINE
  5
15a
  100
AcDbEntity
  8
NOCUT
  100
AcDbLine
  10
30.3
  20
2
  30
0
  11
30.3
  21
0
  31
0
  0
LINE
  5
15b
  100
AcDbEntity
  8
NOCUT
  100
AcDbLine
  10
30.3
  20
0
  30
0
  11
57.3
  21
0
  31
0
  0
LINE
  5
15c
  100
AcDbEntity
  8
CUT
  100
AcDbLine
  10
60
  20
0
  30
0
  11
60
  21
0.9
  31
0
  0
LINE
  5
15d
  100
AcDbEntity
  8
CUT
  100
AcDbLine
  10
60
  20
0.9
  30
0
  11
57.3
  21
0.9
  31
0
  0
LINE
  5
15e
  100
AcDbEntity
  8
CUT
  100
AcDbLine
  10
57.3
  20
0.9
  30
0
  11
57.3
  21
0
  31
0
  0
LINE
  5
15f
  100
AcDbEntity
  8
CUT
  100
AcDbLine
  10
57.3
  20
0
  30
0
  11
60
  21
0
  31
0
  0
LINE
  5
160
  100
AcDbEntity
  8
4
  100
AcDbLine
  10
30.3
  20
0
  30
0
  11
60
  21
0
  31
0
  0
LINE
  5
161
  100
AcDbEntity
  8
SK4
  100
AcDbLine
  10
-1
  20
0
  30
0
  11
61
  21
0
  31
0
  0
LINE
  5
162
  100
AcDbEntity
  8
INFTOTAL
  100
AcDbLine
  10
-16.2
  20
18.2
  30
0
  11
76.2
  21
18.2
  31
0
  0
LINE
  5
163
  100
AcDbEntity
  8
INFTOTAL
  100
AcDbLine
  10
76.2
  20
18.2
  30
0
  11
76.2
  21
-15.036947
  31
0
  0
LINE
  5
164
  100
AcDbEntity
  8
INFTOTAL
  100
AcDbLine
  10
76.2
  20
-15.036947
  30
0
  11
-16.2
  21
-15.036947
  31
0
  0
LINE
  5
165
  100
AcDbEntity
  8
INFTOTAL
  100
AcDbLine
  10
-16.2
  20
-15.036947
  30
0
  11
-16.2
  21
18.2
  31
0
  0
ENDSEC
  0
SECTION
  2
OBJECTS
  0
DICTIONARY
  5
166
  330
0
100
AcDbDictionary
281
    1
  3
ACAD_GROUP
  350
167
  0
DICTIONARY
  5
167
102
{ACAD_REACTORS
  330
166
102
}
  330
166
100
AcDbDictionary
281
    1
  0
ENDSEC
  0
EOF
