  0
SECTION
  2
HEADER
  9
$ACADVER
  1
AC1015
  9
$DWGCODEPAGE
  3
ANSI_932
  9
$HANDSEED
  5
106AB90
  0
ENDSEC
  0
SECTION
  2
CLASSES
  0
CLASS
  1
IMAGEDEF
  2
AcDbRasterImageDef
  3
ISM
  90
0
  91
4
  280
0
  281
0
  0
CLASS
  1
IMAGE
  2
AcDbRasterImage
  3
ISM
  90
127
  91
5
  280
0
  281
1
  0
CLASS
  1
IMAGEDEF_REACTOR
  2
AcDbRasterImageDefReactor
  3
ISM
  90
1
  91
4
  280
0
  281
0
  0
ENDSEC
  0
SECTION
  2
TABLES
  0
TABLE
  2
VPORT
  5
2
  330
0
  100
AcDbSymbolTable
  70
    0
  0
ENDTAB
  0
TABLE
  2
LTYPE
  5
3
  330
0
  100
AcDbSymbolTable
  70
    4
  0
LTYPE
  5
4
  330
3
  100
AcDbSymbolTableRecord
  100
AcDbLinetypeTableRecord
  2
ByBlock
  70
    0
  3

  72
65
  73
    0
  40
0
  0
LTYPE
  5
5
  330
3
  100
AcDbSymbolTableRecord
  100
AcDbLinetypeTableRecord
  2
ByLayer
  70
    0
  3

  72
65
  73
    0
  40
0
  0
LTYPE
  5
6
  330
3
  100
AcDbSymbolTableRecord
  100
AcDbLinetypeTableRecord
  2
CONTINUOUS
  70
    0
  3
Solid Line
  72
65
  73
    0
  40
0
  0
LTYPE
  5
7
  330
3
  100
AcDbSymbolTableRecord
  100
AcDbLinetypeTableRecord
  2
DASH
  70
    0
  3
Hidden
  72
65
  73
2
  40
2.5
  49
1.5
  74
0
  49
-1
  74
0
  0
LTYPE
  5
8
  330
3
  100
AcDbSymbolTableRecord
  100
AcDbLinetypeTableRecord
  2
LONGDASHDASH
  70
    0
  3
__ . __
  72
65
  73
    4
  40
7
  49
4
  74
    0
  49
-1
  74
    0
  49
1
  74
    0
  49
-1
  74
    0
  0
ENDTAB
  0
TABLE
  2
LAYER
  5
9
  330
0
  100
AcDbSymbolTable
  70
    40
  0
LAYER
  5
a
  330
9
  100
AcDbSymbolTableRecord
  100
AcDbLayerTableRecord
  2
0
  70
    0
  62
    0
  6
CONTINUOUS
  390
0
  0
LAYER
  5
c
  330
9
  100
AcDbSymbolTableRecord
  100
AcDbLayerTableRecord
  2
1
  70
    0
  62
    4
  6
CONTINUOUS
  370
50
  390
0
  0
LAYER
  5
d
  330
9
  100
AcDbSymbolTableRecord
  100
AcDbLayerTableRecord
  2
2
  70
    0
  62
    7
  6
CONTINUOUS
  370
25
  390
0
  0
LAYER
  5
f
  330
9
  100
AcDbSymbolTableRecord
  100
AcDbLayerTableRecord
  2
4
  70
    0
  62
    2
  6
LONGDASHDASH
  370
25
  390
0
  0
LAYER
  5
13
  330
9
  100
AcDbSymbolTableRecord
  100
AcDbLayerTableRecord
  2
SK1
  70
    0
  62
    4
  6
CONTINUOUS
  370
50
  390
0
  0
LAYER
  5
14
  330
9
  100
AcDbSymbolTableRecord
  100
AcDbLayerTableRecord
  2
SK2
  70
    0
  62
    7
  6
CONTINUOUS
  370
25
  390
0
  0
LAYER
  5
16
  330
9
  100
AcDbSymbolTableRecord
  100
AcDbLayerTableRecord
  2
SK4
  70
    0
  62
    2
  6
LONGDASHDASH
  370
25
  390
0
  0
LAYER
  5
21
  330
9
  100
AcDbSymbolTableRecord
  100
AcDbLayerTableRecord
  2
NOCUT
  70
    0
  62
    7
  6
CONTINUOUS
  370
25
  390
0
  0
LAYER
  5
22
  330
9
  100
AcDbSymbolTableRecord
  100
AcDbLayerTableRecord
  2
CUT
  70
    0
  62
    1
  6
CONTINUOUS
  370
25
  390
0
  0
LAYER
  5
26
  330
9
  100
AcDbSymbolTableRecord
  100
AcDbLayerTableRecord
  2
INFTOTAL
  70
    0
  62
    9
  6
CONTINUOUS
  370
18
  390
0
  0
ENDTAB
  0
TABLE
  2
STYLE
  5
27
  330
0
  100
AcDbSymbolTable
  70
    1
  0
STYLE
  5
28
  330
27
  100
AcDbSymbolTableRecord
  100
AcDbTextStyleTableRecord
  2
Monospac821 BT
  70
    0
  40
    3.5
  41
1
  50
0
  71
0
  42
3
  3

  4

  1001
ACAD
  1000
Monospac821 BT
  1071
256
  0
ENDTAB
  0
TABLE
  2
VIEW
  5
29
  330
0
  100
AcDbSymbolTable
  70
    0
  0
ENDTAB
  0
TABLE
  2
UCS
  5
2a
  330
0
  100
AcDbSymbolTable
  70
    0
  0
ENDTAB
  0
TABLE
  2
APPID
  5
2b
  330
0
  100
AcDbSymbolTable
  70
    1
  0
APPID
  5
2c
  330
2b
  100
AcDbSymbolTableRecord
  100
AcDbRegAppTableRecord
  2
ACAD
  70
    0
  0
ENDTAB
  0
TABLE
  2
DIMSTYLE
  5
2d
  330
0
  100
AcDbSymbolTable
  70
    1
  100
AcDbDimStyleTable
  0
DIMSTYLE
  105
2e
  330
2d
  100
AcDbSymbolTableRecord
  100
AcDbDimStyleTableRecord
  2
STANDARD
  70
    0
  41
    3
  42
0.5
  44
1
  73
0
  77
1
  78
1
  140
3.5
  141
2.5
  143
0.03937
  147
0.8
  172
1
  174
1
  178
0
  179
1
  271
2
  279
1
  284
1
  340
28
  0
ENDTAB
  0
TABLE
  2
BLOCK_RECORD
  5
2f
  330
0
  100
AcDbSymbolTable
  70
    2
  0
BLOCK_RECORD
  5
30
  330
2f
  100
AcDbSymbolTableRecord
  100
AcDbBlockTableRecord
  2
*Model_Space
  0
BLOCK_RECORD
  5
31
  330
2f
  100
AcDbSymbolTableRecord
  100
AcDbBlockTableRecord
  2
*Paper_Space
  0
BLOCK_RECORD
  5
f0
  330
2f
  100
AcDbSymbolTableRecord
  100
AcDbBlockTableRecord
  2
*Def
  340
0
  0
BLOCK_RECORD
  5
fe
  330
2f
  100
AcDbSymbolTableRecord
  100
AcDbBlockTableRecord
  2
*Dfd
  340
0
  0
BLOCK_RECORD
  5
10c
  330
2f
  100
AcDbSymbolTableRecord
  100
AcDbBlockTableRecord
  2
*D10b
  340
0
  0
BLOCK_RECORD
  5
11a
  330
2f
  100
AcDbSymbolTableRecord
  100
AcDbBlockTableRecord
  2
*D119
  340
0
  0
BLOCK_RECORD
  5
128
  330
2f
  100
AcDbSymbolTableRecord
  100
AcDbBlockTableRecord
  2
*D127
  340
0
  0
BLOCK_RECORD
  5
136
  330
2f
  100
AcDbSymbolTableRecord
  100
AcDbBlockTableRecord
  2
*D135
  340
0
  0
BLOCK_RECORD
  5
144
  330
2f
  100
AcDbSymbolTableRecord
  100
AcDbBlockTableRecord
  2
*D143
  340
0
  0
BLOCK_RECORD
  5
152
  330
2f
  100
AcDbSymbolTableRecord
  100
AcDbBlockTableRecord
  2
*D151
  340
0
  0
ENDTAB
  0
ENDSEC
  0
SECTION
  2
BLOCKS
  0
BLOCK
  5
32
  330
30
  100
AcDbEntity
  8
0
  100
AcDbBlockBegin
  2
*Model_Space
  70
    0
  10
0
  20
0
  30
0
  3
*Model_Space
  1

  0
ENDBLK
  5
33
  330
30
  100
AcDbEntity
  8
0
  100
AcDbBlockEnd
  0
BLOCK
  5
34
  330
31
  100
AcDbEntity
  8
0
  100
AcDbBlockBegin
  2
*Paper_Space
  70
    0
  10
0
  20
0
  30
0
  3
*Paper_Space
  1

  0
ENDBLK
  5
35
  330
31
  100
AcDbEntity
  8
0
  100
AcDbBlockEnd
  0
BLOCK
  5
ee
  330
f0
  100
AcDbEntity
  8
SK2
  100
AcDbBlockBegin
  2
*Def
  70
1
  10
0
  20
0
  30
0
  3
*Def
  1

  0
LINE
  5
f1
  330
f0
  100
AcDbEntity
  8
SK2
  100
AcDbLine
  10
0
  20
1.3
  30
0
  11
0
  21
19
  31
0
  0
LINE
  5
f2
  330
f0
  100
AcDbEntity
  8
SK2
  100
AcDbLine
  10
50
  20
1
  30
0
  11
50
  21
19
  31
0
  0
LINE
  5
f3
  330
f0
  100
AcDbEntity
  8
SK2
  100
AcDbLine
  10
0
  20
17
  30
0
  11
50
  21
17
  31
0
  0
SOLID
  5
f4
  330
f0
  100
AcDbEntity
  8
SK2
  100
AcDbTrace
  10
0
  20
17
  30
0
  11
2.478612
  21
17.326315
  31
0
  12
2.478612
  22
16.673685
  32
0
  13
2.478612
  23
16.673685
  33
0
  0
SOLID
  5
f5
  330
f0
  100
AcDbEntity
  8
SK2
  100
AcDbTrace
  10
50
  20
17
  30
0
  11
47.521388
  21
16.673685
  31
0
  12
47.521388
  22
17.326315
  32
0
  13
47.521388
  23
17.326315
  33
0
  0
MTEXT
  5
f6
  330
f0
  100
AcDbEntity
  8
SK2
  100
AcDbMText
  10
25
  20
17
  30
0
  11
1
  21
0
  31
0
  40
2
  41
0
  71
8
  72
1
  1
50
  0
POINT
  5
f7
  330
f0
  100
AcDbEntity
  8
SK2
  62
0
  100
AcDbPoint
  10
0
  20
1.3
  30
0
  0
POINT
  5
f8
  330
f0
  100
AcDbEntity
  8
SK2
  62
0
  100
AcDbPoint
  10
50
  20
1
  30
0
  0
POINT
  5
f9
  330
f0
  100
AcDbEntity
  8
SK2
  62
0
  100
AcDbPoint
  10
50
  20
17
  30
0
  0
ENDBLK
  5
fa
  330
f0
  100
AcDbEntity
  8
SK2
  100
AcDbBlockEnd
  0
BLOCK
  5
fc
  330
fe
  100
AcDbEntity
  8
SK2
  100
AcDbBlockBegin
  2
*Dfd
  70
1
  10
0
  20
0
  30
0
  3
*Dfd
  1

  0
LINE
  5
ff
  330
fe
  100
AcDbEntity
  8
SK2
  100
AcDbLine
  10
31.6
  20
2
  30
0
  11
31.6
  21
8.790387
  31
0
  0
LINE
  5
100
  330
fe
  100
AcDbEntity
  8
SK2
  100
AcDbLine
  10
0
  20
1.3
  30
0
  11
0
  21
8.790387
  31
0
  0
LINE
  5
101
  330
fe
  100
AcDbEntity
  8
SK2
  100
AcDbLine
  10
31.6
  20
6.790387
  30
0
  11
0
  21
6.790387
  31
0
  0
SOLID
  5
102
  330
fe
  100
AcDbEntity
  8
SK2
  100
AcDbTrace
  10
31.6
  20
6.790387
  30
0
  11
34.078612
  21
7.116702
  31
0
  12
34.078612
  22
6.464071
  32
0
  13
34.078612
  23
6.464071
  33
0
  0
SOLID
  5
103
  330
fe
  100
AcDbEntity
  8
SK2
  100
AcDbTrace
  10
0
  20
6.790387
  30
0
  11
-2.478612
  21
6.464071
  31
0
  12
-2.478612
  22
7.116702
  32
0
  13
-2.478612
  23
7.116702
  33
0
  0
MTEXT
  5
104
  330
fe
  100
AcDbEntity
  8
SK2
  100
AcDbMText
  10
15.8
  20
6.790387
  30
0
  11
1
  21
-0
  31
0
  40
2
  41
0
  71
8
  72
1
  1
31.6
  0
POINT
  5
105
  330
fe
  100
AcDbEntity
  8
SK2
  62
0
  100
AcDbPoint
  10
31.6
  20
2
  30
0
  0
POINT
  5
106
  330
fe
  100
AcDbEntity
  8
SK2
  62
0
  100
AcDbPoint
  10
0
  20
1.3
  30
0
  0
POINT
  5
107
  330
fe
  100
AcDbEntity
  8
SK2
  62
0
  100
AcDbPoint
  10
0
  20
6.790387
  30
0
  0
ENDBLK
  5
108
  330
fe
  100
AcDbEntity
  8
SK2
  100
AcDbBlockEnd
  0
BLOCK
  5
10a
  330
10c
  100
AcDbEntity
  8
SK2
  100
AcDbBlockBegin
  2
*D10b
  70
1
  10
0
  20
0
  30
0
  3
*D10b
  1

  0
LINE
  5
10d
  330
10c
  100
AcDbEntity
  8
SK2
  100
AcDbLine
  10
0.7
  20
-2
  30
0
  11
-12
  21
-2
  31
0
  0
LINE
  5
10e
  330
10c
  100
AcDbEntity
  8
SK2
  100
AcDbLine
  10
0.7
  20
2
  30
0
  11
-12
  21
2
  31
0
  0
LINE
  5
10f
  330
10c
  100
AcDbEntity
  8
SK2
  100
AcDbLine
  10
-10
  20
-4.158416
  30
0
  11
-10
  21
2
  31
0
  0
SOLID
  5
110
  330
10c
  100
AcDbEntity
  8
SK2
  100
AcDbTrace
  10
-10
  20
-2
  30
0
  11
-10.326315
  21
0.478612
  31
0
  12
-9.673685
  22
0.478612
  32
0
  13
-9.673685
  23
0.478612
  33
0
  0
SOLID
  5
111
  330
10c
  100
AcDbEntity
  8
SK2
  100
AcDbTrace
  10
-10
  20
2
  30
0
  11
-9.673685
  21
-0.478612
  31
0
  12
-10.326315
  22
-0.478612
  32
0
  13
-10.326315
  23
-0.478612
  33
0
  0
MTEXT
  5
112
  330
10c
  100
AcDbEntity
  8
SK2
  100
AcDbMText
  10
-10
  20
0
  30
0
  11
0
  21
1
  31
0
  40
2
  41
0
  71
8
  72
1
  1
ﾘ4
  0
POINT
  5
113
  330
10c
  100
AcDbEntity
  8
SK2
  62
0
  100
AcDbPoint
  10
0.7
  20
-2
  30
0
  0
POINT
  5
114
  330
10c
  100
AcDbEntity
  8
SK2
  62
0
  100
AcDbPoint
  10
0.7
  20
2
  30
0
  0
POINT
  5
115
  330
10c
  100
AcDbEntity
  8
SK2
  62
0
  100
AcDbPoint
  10
-10
  20
2
  30
0
  0
ENDBLK
  5
116
  330
10c
  100
AcDbEntity
  8
SK2
  100
AcDbBlockEnd
  0
BLOCK
  5
118
  330
11a
  100
AcDbEntity
  8
2
  100
AcDbBlockBegin
  2
*D119
  70
1
  10
0
  20
0
  30
0
  3
*D119
  1

  0
LINE
  5
11b
  330
11a
  100
AcDbEntity
  8
2
  100
AcDbLine
  10
50
  20
-1
  30
0
  11
62
  21
-1
  31
0
  0
LINE
  5
11c
  330
11a
  100
AcDbEntity
  8
2
  100
AcDbLine
  10
50
  20
1
  30
0
  11
62
  21
1
  31
0
  0
LINE
  5
11d
  330
11a
  100
AcDbEntity
  8
2
  100
AcDbLine
  10
60
  20
-4.158416
  30
0
  11
60
  21
1
  31
0
  0
SOLID
  5
11e
  330
11a
  100
AcDbEntity
  8
2
  100
AcDbTrace
  10
60
  20
-1
  30
0
  11
59.673685
  21
1.478612
  31
0
  12
60.326315
  22
1.478612
  32
0
  13
60.326315
  23
1.478612
  33
0
  0
SOLID
  5
11f
  330
11a
  100
AcDbEntity
  8
2
  100
AcDbTrace
  10
60
  20
1
  30
0
  11
60.326315
  21
-1.478612
  31
0
  12
59.673685
  22
-1.478612
  32
0
  13
59.673685
  23
-1.478612
  33
0
  0
MTEXT
  5
120
  330
11a
  100
AcDbEntity
  8
2
  100
AcDbMText
  10
60
  20
0
  30
0
  11
0
  21
1
  31
0
  40
2
  41
0
  71
8
  72
1
  1
ﾘ2
  0
POINT
  5
121
  330
11a
  100
AcDbEntity
  8
2
  62
0
  100
AcDbPoint
  10
50
  20
-1
  30
0
  0
POINT
  5
122
  330
11a
  100
AcDbEntity
  8
2
  62
0
  100
AcDbPoint
  10
50
  20
1
  30
0
  0
POINT
  5
123
  330
11a
  100
AcDbEntity
  8
2
  62
0
  100
AcDbPoint
  10
60
  20
1
  30
0
  0
ENDBLK
  5
124
  330
11a
  100
AcDbEntity
  8
2
  100
AcDbBlockEnd
  0
BLOCK
  5
126
  330
128
  100
AcDbEntity
  8
2
  100
AcDbBlockBegin
  2
*D127
  70
1
  10
0
  20
0
  30
0
  3
*D127
  1

  0
LINE
  5
129
  330
128
  100
AcDbEntity
  8
2
  100
AcDbLine
  10
47
  20
-0.975
  30
0
  11
45
  21
-0.975
  31
0
  0
LINE
  5
12a
  330
128
  100
AcDbEntity
  8
2
  100
AcDbLine
  10
47
  20
0.975
  30
0
  11
45
  21
0.975
  31
0
  0
LINE
  5
12b
  330
128
  100
AcDbEntity
  8
2
  100
AcDbLine
  10
47
  20
-0.975
  30
0
  11
47
  21
9.356436
  31
0
  0
SOLID
  5
12c
  330
128
  100
AcDbEntity
  8
2
  100
AcDbTrace
  10
47
  20
-0.975
  30
0
  11
46.673685
  21
1.503612
  31
0
  12
47.326315
  22
1.503612
  32
0
  13
47.326315
  23
1.503612
  33
0
  0
SOLID
  5
12d
  330
128
  100
AcDbEntity
  8
2
  100
AcDbTrace
  10
47
  20
0.975
  30
0
  11
47.326315
  21
-1.503612
  31
0
  12
46.673685
  22
-1.503612
  32
0
  13
46.673685
  23
-1.503612
  33
0
  0
MTEXT
  5
12e
  330
128
  100
AcDbEntity
  8
2
  100
AcDbMText
  10
47
  20
0.975
  30
0
  11
0
  21
1
  31
0
  40
2
  41
0
  71
8
  72
1
  1
ﾘ1.95
  0
POINT
  5
12f
  330
128
  100
AcDbEntity
  8
2
  62
0
  100
AcDbPoint
  10
45
  20
-0.975
  30
0
  0
POINT
  5
130
  330
128
  100
AcDbEntity
  8
2
  62
0
  100
AcDbPoint
  10
45
  20
0.975
  30
0
  0
POINT
  5
131
  330
128
  100
AcDbEntity
  8
2
  62
0
  100
AcDbPoint
  10
47
  20
9.356436
  30
0
  0
ENDBLK
  5
132
  330
128
  100
AcDbEntity
  8
2
  100
AcDbBlockEnd
  0
BLOCK
  5
134
  330
136
  100
AcDbEntity
  8
2
  100
AcDbBlockBegin
  2
*D135
  70
1
  10
0
  20
0
  30
0
  3
*D135
  1

  0
LINE
  5
137
  330
136
  100
AcDbEntity
  8
2
  100
AcDbLine
  10
47
  20
0.975
  30
0
  11
47
  21
9
  31
0
  0
LINE
  5
138
  330
136
  100
AcDbEntity
  8
2
  100
AcDbLine
  10
36.25
  20
0.975
  30
0
  11
36.25
  21
9
  31
0
  0
LINE
  5
139
  330
136
  100
AcDbEntity
  8
2
  100
AcDbLine
  10
47
  20
7
  30
0
  11
36.25
  21
7
  31
0
  0
SOLID
  5
13a
  330
136
  100
AcDbEntity
  8
2
  100
AcDbTrace
  10
47
  20
7
  30
0
  11
49.478612
  21
7.326315
  31
0
  12
49.478612
  22
6.673685
  32
0
  13
49.478612
  23
6.673685
  33
0
  0
SOLID
  5
13b
  330
136
  100
AcDbEntity
  8
2
  100
AcDbTrace
  10
36.25
  20
7
  30
0
  11
33.771388
  21
6.673685
  31
0
  12
33.771388
  22
7.326315
  32
0
  13
33.771388
  23
7.326315
  33
0
  0
MTEXT
  5
13c
  330
136
  100
AcDbEntity
  8
2
  100
AcDbMText
  10
41.625
  20
7
  30
0
  11
1
  21
-0
  31
0
  40
2
  41
0
  71
8
  72
1
  1
10.75
  0
POINT
  5
13d
  330
136
  100
AcDbEntity
  8
2
  62
0
  100
AcDbPoint
  10
47
  20
0.975
  30
0
  0
POINT
  5
13e
  330
136
  100
AcDbEntity
  8
2
  62
0
  100
AcDbPoint
  10
36.25
  20
0.975
  30
0
  0
POINT
  5
13f
  330
136
  100
AcDbEntity
  8
2
  62
0
  100
AcDbPoint
  10
36.25
  20
7
  30
0
  0
ENDBLK
  5
140
  330
136
  100
AcDbEntity
  8
2
  100
AcDbBlockEnd
  0
BLOCK
  5
142
  330
144
  100
AcDbEntity
  8
2
  100
AcDbBlockBegin
  2
*D143
  70
1
  10
0
  20
0
  30
0
  3
*D143
  1

  0
LINE
  5
145
  330
144
  100
AcDbEntity
  8
2
  100
AcDbLine
  10
50
  20
1
  30
0
  11
50
  21
19
  31
0
  0
LINE
  5
146
  330
144
  100
AcDbEntity
  8
2
  100
AcDbLine
  10
31.6
  20
2
  30
0
  11
31.6
  21
9
  31
0
  0
LINE
  5
147
  330
144
  100
AcDbEntity
  8
2
  100
AcDbLine
  10
50
  20
7
  30
0
  11
31.6
  21
7
  31
0
  0
SOLID
  5
148
  330
144
  100
AcDbEntity
  8
2
  100
AcDbTrace
  10
50
  20
7
  30
0
  11
52.478612
  21
7.326315
  31
0
  12
52.478612
  22
6.673685
  32
0
  13
52.478612
  23
6.673685
  33
0
  0
SOLID
  5
149
  330
144
  100
AcDbEntity
  8
2
  100
AcDbTrace
  10
31.6
  20
7
  30
0
  11
29.121388
  21
6.673685
  31
0
  12
29.121388
  22
7.326315
  32
0
  13
29.121388
  23
7.326315
  33
0
  0
MTEXT
  5
14a
  330
144
  100
AcDbEntity
  8
2
  100
AcDbMText
  10
40.8
  20
7
  30
0
  11
1
  21
-0
  31
0
  40
2
  41
0
  71
8
  72
1
  1
18.4
  0
POINT
  5
14b
  330
144
  100
AcDbEntity
  8
2
  62
0
  100
AcDbPoint
  10
50
  20
19
  30
0
  0
POINT
  5
14c
  330
144
  100
AcDbEntity
  8
2
  62
0
  100
AcDbPoint
  10
31.6
  20
2
  30
0
  0
POINT
  5
14d
  330
144
  100
AcDbEntity
  8
2
  62
0
  100
AcDbPoint
  10
31.6
  20
7
  30
0
  0
ENDBLK
  5
14e
  330
144
  100
AcDbEntity
  8
2
  100
AcDbBlockEnd
  0
BLOCK
  5
150
  330
152
  100
AcDbEntity
  8
2
  100
AcDbBlockBegin
  2
*D151
  70
1
  10
0
  20
0
  30
0
  3
*D151
  1

  0
LINE
  5
153
  330
152
  100
AcDbEntity
  8
2
  100
AcDbLine
  10
50
  20
-7.238525
  30
0
  11
50
  21
-1
  31
0
  0
LINE
  5
154
  330
152
  100
AcDbEntity
  8
2
  100
AcDbLine
  10
47
  20
-7.238525
  30
0
  11
47
  21
-0.975
  31
0
  0
LINE
  5
155
  330
152
  100
AcDbEntity
  8
2
  100
AcDbLine
  10
50
  20
-5.238525
  30
0
  11
47
  21
-5.238525
  31
0
  0
SOLID
  5
156
  330
152
  100
AcDbEntity
  8
2
  100
AcDbTrace
  10
50
  20
-5.238525
  30
0
  11
52.478612
  21
-4.91221
  31
0
  12
52.478612
  22
-5.564841
  32
0
  13
52.478612
  23
-5.564841
  33
0
  0
SOLID
  5
157
  330
152
  100
AcDbEntity
  8
2
  100
AcDbTrace
  10
47
  20
-5.238525
  30
0
  11
44.521388
  21
-5.564841
  31
0
  12
44.521388
  22
-4.91221
  32
0
  13
44.521388
  23
-4.91221
  33
0
  0
MTEXT
  5
158
  330
152
  100
AcDbEntity
  8
2
  100
AcDbMText
  10
48.5
  20
-5.238525
  30
0
  11
1
  21
-0
  31
0
  40
2
  41
0
  71
8
  72
1
  1
3
  0
POINT
  5
159
  330
152
  100
AcDbEntity
  8
2
  62
0
  100
AcDbPoint
  10
50
  20
-1
  30
0
  0
POINT
  5
15a
  330
152
  100
AcDbEntity
  8
2
  62
0
  100
AcDbPoint
  10
47
  20
-0.975
  30
0
  0
POINT
  5
15b
  330
152
  100
AcDbEntity
  8
2
  62
0
  100
AcDbPoint
  10
47
  20
-5.238525
  30
0
  0
ENDBLK
  5
15c
  330
152
  100
AcDbEntity
  8
2
  100
AcDbBlockEnd
  0
ENDSEC
  0
SECTION
  2
ENTITIES
  0
DIMENSION
  5
fb
  100
AcDbEntity
  8
SK2
  100
AcDbDimension
  2
*Def
  10
50
  20
17
  30
0
  11
25
  21
17
  31
0
  70
160
  1
<>
  71
5
  3
STANDARD
  42
50
  100
AcDbAlignedDimension
  13
0
  23
1.3
  33
0
  14
50
  24
1
  34
0
  50
0
  100
AcDbRotatedDimension
  0
DIMENSION
  5
109
  100
AcDbEntity
  8
SK2
  100
AcDbDimension
  2
*Dfd
  10
0
  20
6.790387
  30
0
  11
15.8
  21
6.790387
  31
0
  70
160
  1
<>
  71
5
  3
STANDARD
  42
31.6
  100
AcDbAlignedDimension
  13
31.6
  23
2
  33
0
  14
0
  24
1.3
  34
0
  50
0
  100
AcDbRotatedDimension
  0
DIMENSION
  5
117
  100
AcDbEntity
  8
SK2
  100
AcDbDimension
  2
*D10b
  10
-10
  20
2
  30
0
  11
-10
  21
0
  31
0
  70
160
  1
%%c<>
  71
5
  3
STANDARD
  42
4
  100
AcDbAlignedDimension
  13
0.7
  23
-2
  33
0
  14
0.7
  24
2
  34
0
  50
-90
  100
AcDbRotatedDimension
  0
DIMENSION
  5
125
  100
AcDbEntity
  8
2
  100
AcDbDimension
  2
*D119
  10
60
  20
1
  30
0
  11
60
  21
0
  31
0
  70
160
  1
%%c<>
  71
5
  3
STANDARD
  42
2
  100
AcDbAlignedDimension
  13
50
  23
-1
  33
0
  14
50
  24
1
  34
0
  50
-90
  100
AcDbRotatedDimension
  0
DIMENSION
  5
133
  100
AcDbEntity
  8
2
  100
AcDbDimension
  2
*D127
  10
47
  20
9.356436
  30
0
  11
47
  21
0.975
  31
0
  70
160
  1
%%c<>
  71
5
  3
STANDARD
  42
1.95
  100
AcDbAlignedDimension
  13
45
  23
-0.975
  33
0
  14
45
  24
0.975
  34
0
  50
-90
  100
AcDbRotatedDimension
  0
DIMENSION
  5
141
  100
AcDbEntity
  8
2
  100
AcDbDimension
  2
*D135
  10
36.25
  20
7
  30
0
  11
41.625
  21
7
  31
0
  70
160
  1
<>
  71
5
  3
STANDARD
  42
10.75
  100
AcDbAlignedDimension
  13
47
  23
0.975
  33
0
  14
36.25
  24
0.975
  34
0
  50
0
  100
AcDbRotatedDimension
  0
DIMENSION
  5
14f
  100
AcDbEntity
  8
2
  100
AcDbDimension
  2
*D143
  10
31.6
  20
7
  30
0
  11
40.8
  21
7
  31
0
  70
160
  1
<>
  71
5
  3
STANDARD
  42
18.4
  100
AcDbAlignedDimension
  13
50
  23
19
  33
0
  14
31.6
  24
2
  34
0
  50
0
  100
AcDbRotatedDimension
  0
DIMENSION
  5
15d
  100
AcDbEntity
  8
2
  100
AcDbDimension
  2
*D151
  10
47
  20
-5.238525
  30
0
  11
48.5
  21
-5.238525
  31
0
  70
160
  1
<>
  71
5
  3
STANDARD
  42
3
  100
AcDbAlignedDimension
  13
50
  23
-1
  33
0
  14
47
  24
-0.975
  34
0
  50
0
  100
AcDbRotatedDimension
  0
LINE
  5
36
  100
AcDbEntity
  8
1
  100
AcDbLine
  10
31.6
  20
-2
  30
0
  11
31.6
  21
2
  31
0
  0
LINE
  5
37
  100
AcDbEntity
  8
1
  100
AcDbLine
  10
31.6
  20
2
  30
0
  11
31.6
  21
-2
  31
0
  0
LINE
  5
38
  100
AcDbEntity
  8
1
  100
AcDbLine
  10
31.837665
  20
-2
  30
0
  11
31.837665
  21
2
  31
0
  0
LINE
  5
39
  100
AcDbEntity
  8
1
  100
AcDbLine
  10
46.7
  20
0.975
  30
0
  11
46.7
  21
0.87675
  31
0
  0
LINE
  5
3a
  100
AcDbEntity
  8
1
  100
AcDbLine
  10
46.7
  20
0.87675
  30
0
  11
46.8
  21
0.602618
  31
0
  0
LINE
  5
3b
  100
AcDbEntity
  8
1
  100
AcDbLine
  10
46.8
  20
0.602618
  30
0
  11
46.9
  21
0.527147
  31
0
  0
LINE
  5
3c
  100
AcDbEntity
  8
1
  100
AcDbLine
  10
46.9
  20
0.527147
  30
0
  11
47
  21
0.478437
  31
0
  0
LINE
  5
3d
  100
AcDbEntity
  8
1
  100
AcDbLine
  10
47
  20
0.478437
  30
0
  11
47
  21
0.488457
  31
0
  0
LINE
  5
3e
  100
AcDbEntity
  8
1
  100
AcDbLine
  10
47
  20
0.488457
  30
0
  11
47.1
  21
0.437292
  31
0
  0
LINE
  5
3f
  100
AcDbEntity
  8
1
  100
AcDbLine
  10
47.1
  20
0.437292
  30
0
  11
47.2
  21
0.38467
  31
0
  0
LINE
  5
40
  100
AcDbEntity
  8
1
  100
AcDbLine
  10
47.2
  20
0.38467
  30
0
  11
47.3
  21
0.330766
  31
0
  0
LINE
  5
41
  100
AcDbEntity
  8
1
  100
AcDbLine
  10
47.3
  20
0.330766
  30
0
  11
47.4
  21
0.27576
  31
0
  0
LINE
  5
42
  100
AcDbEntity
  8
1
  100
AcDbLine
  10
47.4
  20
0.27576
  30
0
  11
47.5
  21
0.219835
  31
0
  0
LINE
  5
43
  100
AcDbEntity
  8
1
  100
AcDbLine
  10
47.5
  20
0.219835
  30
0
  11
47.6
  21
0.163177
  31
0
  0
LINE
  5
44
  100
AcDbEntity
  8
1
  100
AcDbLine
  10
47.6
  20
0.163177
  30
0
  11
47.7
  21
0.105976
  31
0
  0
LINE
  5
45
  100
AcDbEntity
  8
1
  100
AcDbLine
  10
47.7
  20
0.105976
  30
0
  11
47.8
  21
0.048421
  31
0
  0
LINE
  5
46
  100
AcDbEntity
  8
1
  100
AcDbLine
  10
47.8
  20
0.048421
  30
0
  11
47.9
  21
-0.009295
  31
0
  0
LINE
  5
47
  100
AcDbEntity
  8
1
  100
AcDbLine
  10
47.9
  20
-0.009295
  30
0
  11
48
  21
-0.06698
  31
0
  0
LINE
  5
48
  100
AcDbEntity
  8
1
  100
AcDbLine
  10
48
  20
-0.06698
  30
0
  11
48.1
  21
-0.124442
  31
0
  0
LINE
  5
49
  100
AcDbEntity
  8
1
  100
AcDbLine
  10
48.1
  20
-0.124442
  30
0
  11
48.2
  21
-0.181489
  31
0
  0
LINE
  5
4a
  100
AcDbEntity
  8
1
  100
AcDbLine
  10
48.2
  20
-0.181489
  30
0
  11
48.3
  21
-0.237931
  31
0
  0
LINE
  5
4b
  100
AcDbEntity
  8
1
  100
AcDbLine
  10
48.3
  20
-0.237931
  30
0
  11
48.4
  21
-0.29358
  31
0
  0
LINE
  5
4c
  100
AcDbEntity
  8
1
  100
AcDbLine
  10
48.4
  20
-0.29358
  30
0
  11
48.5
  21
-0.348251
  31
0
  0
LINE
  5
4d
  100
AcDbEntity
  8
1
  100
AcDbLine
  10
48.5
  20
-0.348251
  30
0
  11
48.6
  21
-0.401762
  31
0
  0
LINE
  5
4e
  100
AcDbEntity
  8
1
  100
AcDbLine
  10
48.6
  20
-0.401762
  30
0
  11
48.7
  21
-0.453934
  31
0
  0
LINE
  5
4f
  100
AcDbEntity
  8
1
  100
AcDbLine
  10
48.7
  20
-0.453934
  30
0
  11
48.8
  21
-0.504593
  31
0
  0
LINE
  5
50
  100
AcDbEntity
  8
1
  100
AcDbLine
  10
48.8
  20
-0.504593
  30
0
  11
48.9
  21
-0.55357
  31
0
  0
LINE
  5
51
  100
AcDbEntity
  8
1
  100
AcDbLine
  10
48.9
  20
-0.55357
  30
0
  11
49
  21
-0.600703
  31
0
  0
LINE
  5
52
  100
AcDbEntity
  8
1
  100
AcDbLine
  10
49
  20
-0.600703
  30
0
  11
49.1
  21
-0.645834
  31
0
  0
LINE
  5
53
  100
AcDbEntity
  8
1
  100
AcDbLine
  10
49.1
  20
-0.645834
  30
0
  11
49.2
  21
-0.688813
  31
0
  0
LINE
  5
54
  100
AcDbEntity
  8
1
  100
AcDbLine
  10
49.2
  20
-0.688813
  30
0
  11
49.3
  21
-0.729496
  31
0
  0
LINE
  5
55
  100
AcDbEntity
  8
1
  100
AcDbLine
  10
49.3
  20
-0.729496
  30
0
  11
49.4
  21
-0.767749
  31
0
  0
LINE
  5
56
  100
AcDbEntity
  8
1
  100
AcDbLine
  10
49.4
  20
-0.767749
  30
0
  11
49.5
  21
-0.803443
  31
0
  0
LINE
  5
57
  100
AcDbEntity
  8
1
  100
AcDbLine
  10
49.5
  20
-0.803443
  30
0
  11
49.6
  21
-0.836459
  31
0
  0
LINE
  5
58
  100
AcDbEntity
  8
1
  100
AcDbLine
  10
49.6
  20
-0.836459
  30
0
  11
49.7
  21
-0.866689
  31
0
  0
LINE
  5
59
  100
AcDbEntity
  8
1
  100
AcDbLine
  10
49.7
  20
-0.866689
  30
0
  11
49.8
  21
-0.89403
  31
0
  0
LINE
  5
5a
  100
AcDbEntity
  8
1
  100
AcDbLine
  10
49.8
  20
-0.89403
  30
0
  11
49.9
  21
-0.918391
  31
0
  0
LINE
  5
5b
  100
AcDbEntity
  8
1
  100
AcDbLine
  10
49.9
  20
-0.918391
  30
0
  11
50
  21
-0.939693
  31
0
  0
LINE
  5
5c
  100
AcDbEntity
  8
1
  100
AcDbLine
  10
50
  20
-0.982635
  30
0
  11
49.9
  21
-0.975315
  31
0
  0
LINE
  5
5d
  100
AcDbEntity
  8
1
  100
AcDbLine
  10
49.9
  20
-0.975315
  30
0
  11
49.8
  21
-0.964745
  31
0
  0
LINE
  5
5e
  100
AcDbEntity
  8
1
  100
AcDbLine
  10
49.8
  20
-0.964745
  30
0
  11
49.7
  21
-0.95096
  31
0
  0
LINE
  5
5f
  100
AcDbEntity
  8
1
  100
AcDbLine
  10
49.7
  20
-0.95096
  30
0
  11
49.6
  21
-0.934006
  31
0
  0
LINE
  5
60
  100
AcDbEntity
  8
1
  100
AcDbLine
  10
49.6
  20
-0.934006
  30
0
  11
49.5
  21
-0.91394
  31
0
  0
LINE
  5
61
  100
AcDbEntity
  8
1
  100
AcDbLine
  10
49.5
  20
-0.91394
  30
0
  11
49.4
  21
-0.890828
  31
0
  0
LINE
  5
62
  100
AcDbEntity
  8
1
  100
AcDbLine
  10
49.4
  20
-0.890828
  30
0
  11
49.3
  21
-0.864747
  31
0
  0
LINE
  5
63
  100
AcDbEntity
  8
1
  100
AcDbLine
  10
49.3
  20
-0.864747
  30
0
  11
49.2
  21
-0.835785
  31
0
  0
LINE
  5
64
  100
AcDbEntity
  8
1
  100
AcDbLine
  10
49.2
  20
-0.835785
  30
0
  11
49.1
  21
-0.804037
  31
0
  0
LINE
  5
65
  100
AcDbEntity
  8
1
  100
AcDbLine
  10
49.1
  20
-0.804037
  30
0
  11
49
  21
-0.76961
  31
0
  0
LINE
  5
66
  100
AcDbEntity
  8
1
  100
AcDbLine
  10
49
  20
-0.76961
  30
0
  11
48.9
  21
-0.732619
  31
0
  0
LINE
  5
67
  100
AcDbEntity
  8
1
  100
AcDbLine
  10
48.9
  20
-0.732619
  30
0
  11
48.8
  21
-0.693186
  31
0
  0
LINE
  5
68
  100
AcDbEntity
  8
1
  100
AcDbLine
  10
48.8
  20
-0.693186
  30
0
  11
48.7
  21
-0.651443
  31
0
  0
LINE
  5
69
  100
AcDbEntity
  8
1
  100
AcDbLine
  10
48.7
  20
-0.651443
  30
0
  11
48.6
  21
-0.607529
  31
0
  0
LINE
  5
6a
  100
AcDbEntity
  8
1
  100
AcDbLine
  10
48.6
  20
-0.607529
  30
0
  11
48.5
  21
-0.561591
  31
0
  0
LINE
  5
6b
  100
AcDbEntity
  8
1
  100
AcDbLine
  10
48.5
  20
-0.561591
  30
0
  11
48.4
  21
-0.513781
  31
0
  0
LINE
  5
6c
  100
AcDbEntity
  8
1
  100
AcDbLine
  10
48.4
  20
-0.513781
  30
0
  11
48.3
  21
-0.464259
  31
0
  0
LINE
  5
6d
  100
AcDbEntity
  8
1
  100
AcDbLine
  10
48.3
  20
-0.464259
  30
0
  11
48.2
  21
-0.41319
  31
0
  0
LINE
  5
6e
  100
AcDbEntity
  8
1
  100
AcDbLine
  10
48.2
  20
-0.41319
  30
0
  11
48.1
  21
-0.360744
  31
0
  0
LINE
  5
6f
  100
AcDbEntity
  8
1
  100
AcDbLine
  10
48.1
  20
-0.360744
  30
0
  11
48
  21
-0.307096
  31
0
  0
LINE
  5
70
  100
AcDbEntity
  8
1
  100
AcDbLine
  10
48
  20
-0.307096
  30
0
  11
47.9
  21
-0.252424
  31
0
  0
LINE
  5
71
  100
AcDbEntity
  8
1
  100
AcDbLine
  10
47.9
  20
-0.252424
  30
0
  11
47.8
  21
-0.196912
  31
0
  0
LINE
  5
72
  100
AcDbEntity
  8
1
  100
AcDbLine
  10
47.8
  20
-0.196912
  30
0
  11
47.7
  21
-0.140743
  31
0
  0
LINE
  5
73
  100
AcDbEntity
  8
1
  100
AcDbLine
  10
47.7
  20
-0.140743
  30
0
  11
47.6
  21
-0.084105
  31
0
  0
LINE
  5
74
  100
AcDbEntity
  8
1
  100
AcDbLine
  10
47.6
  20
-0.084105
  30
0
  11
47.5
  21
-0.027187
  31
0
  0
LINE
  5
75
  100
AcDbEntity
  8
1
  100
AcDbLine
  10
47.5
  20
-0.027187
  30
0
  11
47.4
  21
0.029822
  31
0
  0
LINE
  5
76
  100
AcDbEntity
  8
1
  100
AcDbLine
  10
47.4
  20
0.029822
  30
0
  11
47.3
  21
0.086731
  31
0
  0
LINE
  5
77
  100
AcDbEntity
  8
1
  100
AcDbLine
  10
47.3
  20
0.086731
  30
0
  11
47.2
  21
0.143351
  31
0
  0
LINE
  5
78
  100
AcDbEntity
  8
1
  100
AcDbLine
  10
47.2
  20
0.143351
  30
0
  11
47.1
  21
0.199494
  31
0
  0
LINE
  5
79
  100
AcDbEntity
  8
1
  100
AcDbLine
  10
47
  20
-1
  30
0
  11
47
  21
1
  31
0
  0
LINE
  5
7a
  100
AcDbEntity
  8
1
  100
AcDbLine
  10
47
  20
0.975
  30
0
  11
47
  21
-0.975
  31
0
  0
LINE
  5
7b
  100
AcDbEntity
  8
1
  100
AcDbLine
  10
46.7
  20
-0.975
  30
0
  11
46.7
  21
0.253689
  31
0
  0
LINE
  5
7c
  100
AcDbEntity
  8
1
  100
AcDbLine
  10
46.7
  20
0.253689
  30
0
  11
46.8
  21
0.269215
  31
0
  0
LINE
  5
7d
  100
AcDbEntity
  8
1
  100
AcDbLine
  10
46.8
  20
0.269215
  30
0
  11
46.9
  21
0.215241
  31
0
  0
LINE
  5
7e
  100
AcDbEntity
  8
1
  100
AcDbLine
  10
46.9
  20
0.215241
  30
0
  11
47
  21
0.16001
  31
0
  0
LINE
  5
7f
  100
AcDbEntity
  8
1
  100
AcDbLine
  10
47
  20
0.16001
  30
0
  11
47
  21
0.160557
  31
0
  0
LINE
  5
80
  100
AcDbEntity
  8
1
  100
AcDbLine
  10
47
  20
0.160557
  30
0
  11
47.1
  21
0.103335
  31
0
  0
LINE
  5
81
  100
AcDbEntity
  8
1
  100
AcDbLine
  10
47.1
  20
0.103335
  30
0
  11
47.2
  21
0.045768
  31
0
  0
LINE
  5
82
  100
AcDbEntity
  8
1
  100
AcDbLine
  10
47.2
  20
0.045768
  30
0
  11
47.3
  21
-0.01195
  31
0
  0
LINE
  5
83
  100
AcDbEntity
  8
1
  100
AcDbLine
  10
47.3
  20
-0.01195
  30
0
  11
47.4
  21
-0.069629
  31
0
  0
LINE
  5
84
  100
AcDbEntity
  8
1
  100
AcDbLine
  10
47.4
  20
-0.069629
  30
0
  11
47.5
  21
-0.127076
  31
0
  0
LINE
  5
85
  100
AcDbEntity
  8
1
  100
AcDbLine
  10
47.5
  20
-0.127076
  30
0
  11
47.6
  21
-0.1841
  31
0
  0
LINE
  5
86
  100
AcDbEntity
  8
1
  100
AcDbLine
  10
47.6
  20
-0.1841
  30
0
  11
47.7
  21
-0.240509
  31
0
  0
LINE
  5
87
  100
AcDbEntity
  8
1
  100
AcDbLine
  10
47.7
  20
-0.240509
  30
0
  11
47.8
  21
-0.296118
  31
0
  0
LINE
  5
88
  100
AcDbEntity
  8
1
  100
AcDbLine
  10
47.8
  20
-0.296118
  30
0
  11
47.9
  21
-0.35074
  31
0
  0
LINE
  5
89
  100
AcDbEntity
  8
1
  100
AcDbLine
  10
47.9
  20
-0.35074
  30
0
  11
48
  21
-0.404192
  31
0
  0
LINE
  5
8a
  100
AcDbEntity
  8
1
  100
AcDbLine
  10
48
  20
-0.404192
  30
0
  11
48.1
  21
-0.456298
  31
0
  0
LINE
  5
8b
  100
AcDbEntity
  8
1
  100
AcDbLine
  10
48.1
  20
-0.456298
  30
0
  11
48.2
  21
-0.506884
  31
0
  0
LINE
  5
8c
  100
AcDbEntity
  8
1
  100
AcDbLine
  10
48.2
  20
-0.506884
  30
0
  11
48.3
  21
-0.55578
  31
0
  0
LINE
  5
8d
  100
AcDbEntity
  8
1
  100
AcDbLine
  10
48.3
  20
-0.55578
  30
0
  11
48.4
  21
-0.602824
  31
0
  0
LINE
  5
8e
  100
AcDbEntity
  8
1
  100
AcDbLine
  10
48.4
  20
-0.602824
  30
0
  11
48.5
  21
-0.647859
  31
0
  0
LINE
  5
8f
  100
AcDbEntity
  8
1
  100
AcDbLine
  10
48.5
  20
-0.647859
  30
0
  11
48.6
  21
-0.690736
  31
0
  0
LINE
  5
90
  100
AcDbEntity
  8
1
  100
AcDbLine
  10
48.6
  20
-0.690736
  30
0
  11
48.7
  21
-0.73131
  31
0
  0
LINE
  5
91
  100
AcDbEntity
  8
1
  100
AcDbLine
  10
48.7
  20
-0.73131
  30
0
  11
48.8
  21
-0.769448
  31
0
  0
LINE
  5
92
  100
AcDbEntity
  8
1
  100
AcDbLine
  10
48.8
  20
-0.769448
  30
0
  11
48.9
  21
-0.805021
  31
0
  0
LINE
  5
93
  100
AcDbEntity
  8
1
  100
AcDbLine
  10
48.9
  20
-0.805021
  30
0
  11
49
  21
-0.837912
  31
0
  0
LINE
  5
94
  100
AcDbEntity
  8
1
  100
AcDbLine
  10
49
  20
-0.837912
  30
0
  11
49.1
  21
-0.86801
  31
0
  0
LINE
  5
95
  100
AcDbEntity
  8
1
  100
AcDbLine
  10
49.1
  20
-0.86801
  30
0
  11
49.2
  21
-0.895216
  31
0
  0
LINE
  5
96
  100
AcDbEntity
  8
1
  100
AcDbLine
  10
49.2
  20
-0.895216
  30
0
  11
49.3
  21
-0.919439
  31
0
  0
LINE
  5
97
  100
AcDbEntity
  8
1
  100
AcDbLine
  10
49.3
  20
-0.919439
  30
0
  11
49.4
  21
-0.940598
  31
0
  0
LINE
  5
98
  100
AcDbEntity
  8
1
  100
AcDbLine
  10
49.4
  20
-0.940598
  30
0
  11
49.5
  21
-0.958622
  31
0
  0
LINE
  5
99
  100
AcDbEntity
  8
1
  100
AcDbLine
  10
49.5
  20
-0.958622
  30
0
  11
49.6
  21
-0.973452
  31
0
  0
LINE
  5
9a
  100
AcDbEntity
  8
1
  100
AcDbLine
  10
49.6
  20
-0.973452
  30
0
  11
49.7
  21
-0.985037
  31
0
  0
LINE
  5
9b
  100
AcDbEntity
  8
1
  100
AcDbLine
  10
49.7
  20
-0.985037
  30
0
  11
49.8
  21
-0.993341
  31
0
  0
LINE
  5
9c
  100
AcDbEntity
  8
1
  100
AcDbLine
  10
49.8
  20
-0.993341
  30
0
  11
49.9
  21
-0.998334
  31
0
  0
LINE
  5
9d
  100
AcDbEntity
  8
1
  100
AcDbLine
  10
49.9
  20
-0.998334
  30
0
  11
50
  21
-1
  31
0
  0
LINE
  5
9e
  100
AcDbEntity
  8
1
  100
AcDbLine
  10
50
  20
-1
  30
0
  11
50
  21
0
  31
0
  0
LINE
  5
9f
  100
AcDbEntity
  8
1
  100
AcDbLine
  10
50
  20
0
  30
0
  11
50
  21
1
  31
0
  0
LINE
  5
a0
  100
AcDbEntity
  8
1
  100
AcDbLine
  10
50
  20
1
  30
0
  11
47
  21
1
  31
0
  0
LINE
  5
a1
  100
AcDbEntity
  8
1
  100
AcDbLine
  10
47
  20
1
  30
0
  11
47
  21
0.975
  31
0
  0
LINE
  5
a2
  100
AcDbEntity
  8
1
  100
AcDbLine
  10
47
  20
0.975
  30
0
  11
36.25
  21
0.975
  31
0
  0
ARC
  5
a3
  100
AcDbEntity
  8
1
  100
AcDbCircle
  10
37.121557
  20
10.936947
  30
0
  40
10
  100
AcDbArc
  50
255
  51
265
  0
LINE
  5
a4
  100
AcDbEntity
  8
1
  100
AcDbLine
  10
34.533367
  20
1.277689
  30
0
  11
31.837665
  21
2
  31
0
  0
LINE
  5
a5
  100
AcDbEntity
  8
1
  100
AcDbLine
  10
31.837665
  20
2
  30
0
  11
31.6
  21
2
  31
0
  0
LINE
  5
a6
  100
AcDbEntity
  8
1
  100
AcDbLine
  10
31.6
  20
2
  30
0
  11
31.6
  21
-2
  31
0
  0
LINE
  5
a7
  100
AcDbEntity
  8
1
  100
AcDbLine
  10
31.6
  20
-2
  30
0
  11
31.837665
  21
-2
  31
0
  0
LINE
  5
a8
  100
AcDbEntity
  8
1
  100
AcDbLine
  10
31.837665
  20
-2
  30
0
  11
34.533367
  21
-1.277689
  31
0
  0
LINE
  5
a9
  100
AcDbEntity
  8
1
  100
AcDbLine
  10
34.533367
  20
-1.277689
  30
0
  11
34.533367
  21
1.277689
  31
0
  0
LINE
  5
aa
  100
AcDbEntity
  8
1
  100
AcDbLine
  10
36.25
  20
0.975
  30
0
  11
36.25
  21
-0.975
  31
0
  0
ARC
  5
ab
  100
AcDbEntity
  8
1
  100
AcDbCircle
  10
37.121557
  20
-10.936947
  30
0
  40
10
  100
AcDbArc
  50
95
  51
105
  0
LINE
  5
ac
  100
AcDbEntity
  8
1
  100
AcDbLine
  10
36.25
  20
-0.975
  30
0
  11
47
  21
-0.975
  31
0
  0
LINE
  5
ad
  100
AcDbEntity
  8
1
  100
AcDbLine
  10
47
  20
-0.975
  30
0
  11
47
  21
-1
  31
0
  0
LINE
  5
ae
  100
AcDbEntity
  8
1
  100
AcDbLine
  10
47
  20
-1
  30
0
  11
50
  21
-1
  31
0
  0
LINE
  5
af
  100
AcDbEntity
  8
1
  100
AcDbLine
  10
50
  20
-1
  30
0
  11
50
  21
1
  31
0
  0
LINE
  5
b0
  100
AcDbEntity
  8
SK1
  100
AcDbLine
  10
31.6
  20
2
  30
0
  11
0.7
  21
2
  31
0
  0
LINE
  5
b1
  100
AcDbEntity
  8
SK1
  100
AcDbLine
  10
0.7
  20
2
  30
0
  11
0
  21
1.3
  31
0
  0
LINE
  5
b2
  100
AcDbEntity
  8
SK1
  100
AcDbLine
  10
31.6
  20
-2
  30
0
  11
0.7
  21
-2
  31
0
  0
LINE
  5
b3
  100
AcDbEntity
  8
SK1
  100
AcDbLine
  10
0.7
  20
-2
  30
0
  11
0
  21
-1.3
  31
0
  0
LINE
  5
b4
  100
AcDbEntity
  8
SK1
  100
AcDbLine
  10
0.7
  20
2
  30
0
  11
0.7
  21
-2
  31
0
  0
LINE
  5
b5
  100
AcDbEntity
  8
SK1
  100
AcDbLine
  10
0
  20
1.3
  30
0
  11
0
  21
-1.3
  31
0
  0
LINE
  5
b6
  100
AcDbEntity
  8
SK1
  100
AcDbLine
  10
32.6401
  20
1.40688
  30
0
  11
33.0069
  21
1.0401
  31
0
  0
LINE
  5
b7
  100
AcDbEntity
  8
SK1
  100
AcDbLine
  10
32.1328
  20
1.66666
  30
0
  11
33.2667
  21
0.532833
  31
0
  0
LINE
  5
b8
  100
AcDbEntity
  8
SK1
  100
AcDbLine
  10
31.8154
  20
1.73657
  30
0
  11
33.3366
  21
0.215434
  31
0
  0
LINE
  5
b9
  100
AcDbEntity
  8
SK1
  100
AcDbLine
  10
31.6
  20
1.70452
  30
0
  11
33.3045
  21
0
  31
0
  0
LINE
  5
ba
  100
AcDbEntity
  8
SK1
  100
AcDbLine
  10
31.6
  20
1.45703
  30
0
  11
33.057
  21
0
  31
0
  0
LINE
  5
bb
  100
AcDbEntity
  8
SK1
  100
AcDbLine
  10
31.6
  20
1.20954
  30
0
  11
32.8095
  21
0
  31
0
  0
LINE
  5
bc
  100
AcDbEntity
  8
SK1
  100
AcDbLine
  10
31.6
  20
0.962054
  30
0
  11
32.5621
  21
0
  31
0
  0
LINE
  5
bd
  100
AcDbEntity
  8
SK1
  100
AcDbLine
  10
31.6
  20
0.714566
  30
0
  11
32.3146
  21
0
  31
0
  0
LINE
  5
be
  100
AcDbEntity
  8
SK1
  100
AcDbLine
  10
31.6
  20
0.467079
  30
0
  11
32.0671
  21
0
  31
0
  0
LINE
  5
bf
  100
AcDbEntity
  8
SK1
  100
AcDbLine
  10
31.6
  20
0.219592
  30
0
  11
31.8196
  21
0
  31
0
  0
LINE
  5
c0
  100
AcDbEntity
  8
SK1
  100
AcDbLine
  10
31.6
  20
1.70452
  30
0
  11
31.6441
  21
1.74861
  31
0
  0
LINE
  5
c1
  100
AcDbEntity
  8
SK1
  100
AcDbLine
  10
31.6
  20
1.45703
  30
0
  11
31.871
  21
1.72802
  31
0
  0
LINE
  5
c2
  100
AcDbEntity
  8
SK1
  100
AcDbLine
  10
31.6
  20
1.20954
  30
0
  11
32.0742
  21
1.6837
  31
0
  0
LINE
  5
c3
  100
AcDbEntity
  8
SK1
  100
AcDbLine
  10
31.6
  20
0.962054
  30
0
  11
32.2588
  21
1.62082
  31
0
  0
LINE
  5
c4
  100
AcDbEntity
  8
SK1
  100
AcDbLine
  10
31.6
  20
0.714566
  30
0
  11
32.4271
  21
1.54167
  31
0
  0
LINE
  5
c5
  100
AcDbEntity
  8
SK1
  100
AcDbLine
  10
31.6
  20
0.467079
  30
0
  11
32.581
  21
1.44812
  31
0
  0
LINE
  5
c6
  100
AcDbEntity
  8
SK1
  100
AcDbLine
  10
31.6
  20
0.219592
  30
0
  11
32.7226
  21
1.34216
  31
0
  0
LINE
  5
c7
  100
AcDbEntity
  8
SK1
  100
AcDbLine
  10
31.6279
  20
0
  30
0
  11
32.8508
  21
1.22288
  31
0
  0
LINE
  5
c8
  100
AcDbEntity
  8
SK1
  100
AcDbLine
  10
31.8754
  20
0
  30
0
  11
32.967
  21
1.09157
  31
0
  0
LINE
  5
c9
  100
AcDbEntity
  8
SK1
  100
AcDbLine
  10
32.1229
  20
0
  30
0
  11
33.0707
  21
0.947822
  31
0
  0
LINE
  5
ca
  100
AcDbEntity
  8
SK1
  100
AcDbLine
  10
32.3704
  20
0
  30
0
  11
33.1605
  21
0.790145
  31
0
  0
LINE
  5
cb
  100
AcDbEntity
  8
SK1
  100
AcDbLine
  10
32.6178
  20
0
  30
0
  11
33.2364
  21
0.618517
  31
0
  0
LINE
  5
cc
  100
AcDbEntity
  8
SK1
  100
AcDbLine
  10
32.8653
  20
0
  30
0
  11
33.296
  21
0.430696
  31
0
  0
LINE
  5
cd
  100
AcDbEntity
  8
SK1
  100
AcDbLine
  10
33.1128
  20
0
  30
0
  11
33.3356
  21
0.222827
  31
0
  0
LINE
  5
ce
  100
AcDbEntity
  8
SK1
  100
AcDbLine
  10
31.6
  20
0
  30
0
  11
31.6
  21
1.75
  31
0
  0
LINE
  5
cf
  100
AcDbEntity
  8
SK1
  100
AcDbLine
  10
31.6
  20
0
  30
0
  11
33.35
  21
0
  31
0
  0
ARC
  5
d0
  100
AcDbEntity
  8
SK1
  100
AcDbCircle
  10
31.6
  20
0
  30
0
  40
1.75
  100
AcDbArc
  50
0
  51
90
  0
ARC
  5
d1
  100
AcDbEntity
  8
SK1
  100
AcDbCircle
  10
31.6
  20
0
  30
0
  40
1.75
  100
AcDbArc
  50
90
  51
180
  0
LINE
  5
d2
  100
AcDbEntity
  8
SK1
  100
AcDbLine
  10
31.5721
  20
0
  30
0
  11
31.6
  21
-0.027896
  31
0
  0
LINE
  5
d3
  100
AcDbEntity
  8
SK1
  100
AcDbLine
  10
31.3246
  20
0
  30
0
  11
31.6
  21
-0.275383
  31
0
  0
LINE
  5
d4
  100
AcDbEntity
  8
SK1
  100
AcDbLine
  10
31.0771
  20
0
  30
0
  11
31.6
  21
-0.522871
  31
0
  0
LINE
  5
d5
  100
AcDbEntity
  8
SK1
  100
AcDbLine
  10
30.8296
  20
0
  30
0
  11
31.6
  21
-0.770358
  31
0
  0
LINE
  5
d6
  100
AcDbEntity
  8
SK1
  100
AcDbLine
  10
30.5822
  20
0
  30
0
  11
31.6
  21
-1.01785
  31
0
  0
LINE
  5
d7
  100
AcDbEntity
  8
SK1
  100
AcDbLine
  10
30.3347
  20
0
  30
0
  11
31.6
  21
-1.26533
  31
0
  0
LINE
  5
d8
  100
AcDbEntity
  8
SK1
  100
AcDbLine
  10
30.0872
  20
0
  30
0
  11
31.6
  21
-1.51282
  31
0
  0
LINE
  5
d9
  100
AcDbEntity
  8
SK1
  100
AcDbLine
  10
29.8503
  20
-0.010642
  30
0
  11
31.5894
  21
-1.74967
  31
0
  0
LINE
  5
da
  100
AcDbEntity
  8
SK1
  100
AcDbLine
  10
29.8736
  20
-0.281429
  30
0
  11
31.3186
  21
-1.72637
  31
0
  0
LINE
  5
db
  100
AcDbEntity
  8
SK1
  100
AcDbLine
  10
29.9639
  20
-0.619147
  30
0
  11
30.9809
  21
-1.63613
  31
0
  0
LINE
  5
dc
  100
AcDbEntity
  8
SK1
  100
AcDbLine
  10
29.8514
  20
-0.044098
  30
0
  11
29.8955
  21
0
  31
0
  0
LINE
  5
dd
  100
AcDbEntity
  8
SK1
  100
AcDbLine
  10
29.872
  20
-0.270991
  30
0
  11
30.143
  21
0
  31
0
  0
LINE
  5
de
  100
AcDbEntity
  8
SK1
  100
AcDbLine
  10
29.9163
  20
-0.474162
  30
0
  11
30.3905
  21
0
  31
0
  0
LINE
  5
df
  100
AcDbEntity
  8
SK1
  100
AcDbLine
  10
29.9792
  20
-0.658762
  30
0
  11
30.6379
  21
0
  31
0
  0
LINE
  5
e0
  100
AcDbEntity
  8
SK1
  100
AcDbLine
  10
30.0583
  20
-0.827105
  30
0
  11
30.8854
  21
0
  31
0
  0
LINE
  5
e1
  100
AcDbEntity
  8
SK1
  100
AcDbLine
  10
30.1519
  20
-0.981039
  30
0
  11
31.1329
  21
0
  31
0
  0
LINE
  5
e2
  100
AcDbEntity
  8
SK1
  100
AcDbLine
  10
30.2578
  20
-1.12257
  30
0
  11
31.3804
  21
0
  31
0
  0
LINE
  5
e3
  100
AcDbEntity
  8
SK1
  100
AcDbLine
  10
30.3771
  20
-1.25077
  30
0
  11
31.6
  21
-0.027896
  31
0
  0
LINE
  5
e4
  100
AcDbEntity
  8
SK1
  100
AcDbLine
  10
30.5084
  20
-1.36695
  30
0
  11
31.6
  21
-0.275383
  31
0
  0
LINE
  5
e5
  100
AcDbEntity
  8
SK1
  100
AcDbLine
  10
30.6522
  20
-1.47069
  30
0
  11
31.6
  21
-0.522871
  31
0
  0
LINE
  5
e6
  100
AcDbEntity
  8
SK1
  100
AcDbLine
  10
30.8099
  20
-1.5605
  30
0
  11
31.6
  21
-0.770358
  31
0
  0
LINE
  5
e7
  100
AcDbEntity
  8
SK1
  100
AcDbLine
  10
30.9815
  20
-1.63636
  30
0
  11
31.6
  21
-1.01785
  31
0
  0
LINE
  5
e8
  100
AcDbEntity
  8
SK1
  100
AcDbLine
  10
31.1693
  20
-1.69603
  30
0
  11
31.6
  21
-1.26533
  31
0
  0
LINE
  5
e9
  100
AcDbEntity
  8
SK1
  100
AcDbLine
  10
31.3772
  20
-1.73565
  30
0
  11
31.6
  21
-1.51282
  31
0
  0
LINE
  5
ea
  100
AcDbEntity
  8
SK1
  100
AcDbLine
  10
31.6
  20
0
  30
0
  11
29.85
  21
0
  31
0
  0
LINE
  5
eb
  100
AcDbEntity
  8
SK1
  100
AcDbLine
  10
31.6
  20
-1.75
  30
0
  11
31.6
  21
0
  31
0
  0
ARC
  5
ec
  100
AcDbEntity
  8
SK1
  100
AcDbCircle
  10
31.6
  20
0
  30
0
  40
1.75
  100
AcDbArc
  50
180
  51
270
  0
ARC
  5
ed
  100
AcDbEntity
  8
SK1
  100
AcDbCircle
  10
31.6
  20
0
  30
0
  40
1.75
  100
AcDbArc
  50
270
  51
0
  0
LINE
  5
15e
  100
AcDbEntity
  8
NOCUT
  100
AcDbLine
  10
47
  20
0
  30
0
  11
47
  21
0.975
  31
0
  0
LINE
  5
15f
  100
AcDbEntity
  8
NOCUT
  100
AcDbLine
  10
47
  20
0.975
  30
0
  11
36.25
  21
0.975
  31
0
  0
ARC
  5
160
  100
AcDbEntity
  8
NOCUT
  100
AcDbCircle
  10
37.121557
  20
10.936947
  30
0
  40
10
  100
AcDbArc
  50
255
  51
265
  0
LINE
  5
161
  100
AcDbEntity
  8
NOCUT
  100
AcDbLine
  10
34.533367
  20
1.277689
  30
0
  11
31.837665
  21
2
  31
0
  0
LINE
  5
162
  100
AcDbEntity
  8
NOCUT
  100
AcDbLine
  10
31.837665
  20
2
  30
0
  11
31.6
  21
2
  31
0
  0
LINE
  5
163
  100
AcDbEntity
  8
NOCUT
  100
AcDbLine
  10
31.6
  20
2
  30
0
  11
31.6
  21
0
  31
0
  0
LINE
  5
164
  100
AcDbEntity
  8
NOCUT
  100
AcDbLine
  10
31.6
  20
0
  30
0
  11
47
  21
0
  31
0
  0
LINE
  5
165
  100
AcDbEntity
  8
CUT
  100
AcDbLine
  10
50
  20
0
  30
0
  11
50
  21
1
  31
0
  0
LINE
  5
166
  100
AcDbEntity
  8
CUT
  100
AcDbLine
  10
50
  20
1
  30
0
  11
47
  21
1
  31
0
  0
LINE
  5
167
  100
AcDbEntity
  8
CUT
  100
AcDbLine
  10
47
  20
1
  30
0
  11
47
  21
0
  31
0
  0
LINE
  5
168
  100
AcDbEntity
  8
CUT
  100
AcDbLine
  10
47
  20
0
  30
0
  11
50
  21
0
  31
0
  0
LINE
  5
169
  100
AcDbEntity
  8
4
  100
AcDbLine
  10
31.6
  20
0
  30
0
  11
50
  21
0
  31
0
  0
LINE
  5
16a
  100
AcDbEntity
  8
SK4
  100
AcDbLine
  10
-1
  20
0
  30
0
  11
51
  21
0
  31
0
  0
LINE
  5
16b
  100
AcDbEntity
  8
INFTOTAL
  100
AcDbLine
  10
-15.7
  20
22.7
  30
0
  11
65.7
  21
22.7
  31
0
  0
LINE
  5
16c
  100
AcDbEntity
  8
INFTOTAL
  100
AcDbLine
  10
65.7
  20
22.7
  30
0
  11
65.7
  21
-14.636947
  31
0
  0
LINE
  5
16d
  100
AcDbEntity
  8
INFTOTAL
  100
AcDbLine
  10
65.7
  20
-14.636947
  30
0
  11
-15.7
  21
-14.636947
  31
0
  0
LINE
  5
16e
  100
AcDbEntity
  8
INFTOTAL
  100
AcDbLine
  10
-15.7
  20
-14.636947
  30
0
  11
-15.7
  21
22.7
  31
0
  0
ENDSEC
  0
SECTION
  2
OBJECTS
  0
DICTIONARY
  5
16f
  330
0
100
AcDbDictionary
281
    1
  3
ACAD_GROUP
  350
170
  0
DICTIONARY
  5
170
102
{ACAD_REACTORS
  330
16f
102
}
  330
16f
100
AcDbDictionary
281
    1
  0
ENDSEC
  0
EOF
