  0
SECTION
  2
HEADER
  9
$ACADVER
  1
AC1015
  9
$DWGCODEPAGE
  3
ANSI_932
  9
$HANDSEED
  5
106AB90
  0
ENDSEC
  0
SECTION
  2
CLASSES
  0
CLASS
  1
IMAGEDEF
  2
AcDbRasterImageDef
  3
ISM
  90
0
  91
4
  280
0
  281
0
  0
CLASS
  1
IMAGE
  2
AcDbRasterImage
  3
ISM
  90
127
  91
5
  280
0
  281
1
  0
CLASS
  1
IMAGEDEF_REACTOR
  2
AcDbRasterImageDefReactor
  3
ISM
  90
1
  91
4
  280
0
  281
0
  0
ENDSEC
  0
SECTION
  2
TABLES
  0
TABLE
  2
VPORT
  5
2
  330
0
  100
AcDbSymbolTable
  70
    0
  0
ENDTAB
  0
TABLE
  2
LTYPE
  5
3
  330
0
  100
AcDbSymbolTable
  70
    4
  0
LTYPE
  5
4
  330
3
  100
AcDbSymbolTableRecord
  100
AcDbLinetypeTableRecord
  2
ByBlock
  70
    0
  3

  72
65
  73
    0
  40
0
  0
LTYPE
  5
5
  330
3
  100
AcDbSymbolTableRecord
  100
AcDbLinetypeTableRecord
  2
ByLayer
  70
    0
  3

  72
65
  73
    0
  40
0
  0
LTYPE
  5
6
  330
3
  100
AcDbSymbolTableRecord
  100
AcDbLinetypeTableRecord
  2
CONTINUOUS
  70
    0
  3
Solid Line
  72
65
  73
    0
  40
0
  0
LTYPE
  5
7
  330
3
  100
AcDbSymbolTableRecord
  100
AcDbLinetypeTableRecord
  2
DASH
  70
    0
  3
Hidden
  72
65
  73
2
  40
2.5
  49
1.5
  74
0
  49
-1
  74
0
  0
LTYPE
  5
8
  330
3
  100
AcDbSymbolTableRecord
  100
AcDbLinetypeTableRecord
  2
LONGDASHDASH
  70
    0
  3
__ . __
  72
65
  73
    4
  40
7
  49
4
  74
    0
  49
-1
  74
    0
  49
1
  74
    0
  49
-1
  74
    0
  0
ENDTAB
  0
TABLE
  2
LAYER
  5
9
  330
0
  100
AcDbSymbolTable
  70
    40
  0
LAYER
  5
a
  330
9
  100
AcDbSymbolTableRecord
  100
AcDbLayerTableRecord
  2
0
  70
    0
  62
    0
  6
CONTINUOUS
  390
0
  0
LAYER
  5
c
  330
9
  100
AcDbSymbolTableRecord
  100
AcDbLayerTableRecord
  2
1
  70
    0
  62
    4
  6
CONTINUOUS
  370
50
  390
0
  0
LAYER
  5
d
  330
9
  100
AcDbSymbolTableRecord
  100
AcDbLayerTableRecord
  2
2
  70
    0
  62
    7
  6
CONTINUOUS
  370
25
  390
0
  0
LAYER
  5
f
  330
9
  100
AcDbSymbolTableRecord
  100
AcDbLayerTableRecord
  2
4
  70
    0
  62
    2
  6
LONGDASHDASH
  370
25
  390
0
  0
LAYER
  5
13
  330
9
  100
AcDbSymbolTableRecord
  100
AcDbLayerTableRecord
  2
SK1
  70
    0
  62
    4
  6
CONTINUOUS
  370
50
  390
0
  0
LAYER
  5
14
  330
9
  100
AcDbSymbolTableRecord
  100
AcDbLayerTableRecord
  2
SK2
  70
    0
  62
    7
  6
CONTINUOUS
  370
25
  390
0
  0
LAYER
  5
16
  330
9
  100
AcDbSymbolTableRecord
  100
AcDbLayerTableRecord
  2
SK4
  70
    0
  62
    2
  6
LONGDASHDASH
  370
25
  390
0
  0
LAYER
  5
21
  330
9
  100
AcDbSymbolTableRecord
  100
AcDbLayerTableRecord
  2
NOCUT
  70
    0
  62
    7
  6
CONTINUOUS
  370
25
  390
0
  0
LAYER
  5
22
  330
9
  100
AcDbSymbolTableRecord
  100
AcDbLayerTableRecord
  2
CUT
  70
    0
  62
    1
  6
CONTINUOUS
  370
25
  390
0
  0
LAYER
  5
26
  330
9
  100
AcDbSymbolTableRecord
  100
AcDbLayerTableRecord
  2
INFTOTAL
  70
    0
  62
    9
  6
CONTINUOUS
  370
18
  390
0
  0
ENDTAB
  0
TABLE
  2
STYLE
  5
27
  330
0
  100
AcDbSymbolTable
  70
    1
  0
STYLE
  5
28
  330
27
  100
AcDbSymbolTableRecord
  100
AcDbTextStyleTableRecord
  2
Monospac821 BT
  70
    0
  40
    3.5
  41
1
  50
0
  71
0
  42
3
  3

  4

  1001
ACAD
  1000
Monospac821 BT
  1071
256
  0
ENDTAB
  0
TABLE
  2
VIEW
  5
29
  330
0
  100
AcDbSymbolTable
  70
    0
  0
ENDTAB
  0
TABLE
  2
UCS
  5
2a
  330
0
  100
AcDbSymbolTable
  70
    0
  0
ENDTAB
  0
TABLE
  2
APPID
  5
2b
  330
0
  100
AcDbSymbolTable
  70
    1
  0
APPID
  5
2c
  330
2b
  100
AcDbSymbolTableRecord
  100
AcDbRegAppTableRecord
  2
ACAD
  70
    0
  0
ENDTAB
  0
TABLE
  2
DIMSTYLE
  5
2d
  330
0
  100
AcDbSymbolTable
  70
    1
  100
AcDbDimStyleTable
  0
DIMSTYLE
  105
2e
  330
2d
  100
AcDbSymbolTableRecord
  100
AcDbDimStyleTableRecord
  2
STANDARD
  70
    0
  41
    3
  42
0.5
  44
1
  73
0
  77
1
  78
1
  140
3.5
  141
2.5
  143
0.03937
  147
0.8
  172
1
  174
1
  178
0
  179
1
  271
2
  279
1
  284
1
  340
28
  0
ENDTAB
  0
TABLE
  2
BLOCK_RECORD
  5
2f
  330
0
  100
AcDbSymbolTable
  70
    2
  0
BLOCK_RECORD
  5
30
  330
2f
  100
AcDbSymbolTableRecord
  100
AcDbBlockTableRecord
  2
*Model_Space
  0
BLOCK_RECORD
  5
31
  330
2f
  100
AcDbSymbolTableRecord
  100
AcDbBlockTableRecord
  2
*Paper_Space
  0
BLOCK_RECORD
  5
123
  330
2f
  100
AcDbSymbolTableRecord
  100
AcDbBlockTableRecord
  2
*D122
  340
0
  0
BLOCK_RECORD
  5
131
  330
2f
  100
AcDbSymbolTableRecord
  100
AcDbBlockTableRecord
  2
*D130
  340
0
  0
BLOCK_RECORD
  5
13f
  330
2f
  100
AcDbSymbolTableRecord
  100
AcDbBlockTableRecord
  2
*D13e
  340
0
  0
BLOCK_RECORD
  5
14d
  330
2f
  100
AcDbSymbolTableRecord
  100
AcDbBlockTableRecord
  2
*D14c
  340
0
  0
BLOCK_RECORD
  5
15b
  330
2f
  100
AcDbSymbolTableRecord
  100
AcDbBlockTableRecord
  2
*D15a
  340
0
  0
BLOCK_RECORD
  5
169
  330
2f
  100
AcDbSymbolTableRecord
  100
AcDbBlockTableRecord
  2
*D168
  340
0
  0
BLOCK_RECORD
  5
177
  330
2f
  100
AcDbSymbolTableRecord
  100
AcDbBlockTableRecord
  2
*D176
  340
0
  0
BLOCK_RECORD
  5
185
  330
2f
  100
AcDbSymbolTableRecord
  100
AcDbBlockTableRecord
  2
*D184
  340
0
  0
ENDTAB
  0
ENDSEC
  0
SECTION
  2
BLOCKS
  0
BLOCK
  5
32
  330
30
  100
AcDbEntity
  8
0
  100
AcDbBlockBegin
  2
*Model_Space
  70
    0
  10
0
  20
0
  30
0
  3
*Model_Space
  1

  0
ENDBLK
  5
33
  330
30
  100
AcDbEntity
  8
0
  100
AcDbBlockEnd
  0
BLOCK
  5
34
  330
31
  100
AcDbEntity
  8
0
  100
AcDbBlockBegin
  2
*Paper_Space
  70
    0
  10
0
  20
0
  30
0
  3
*Paper_Space
  1

  0
ENDBLK
  5
35
  330
31
  100
AcDbEntity
  8
0
  100
AcDbBlockEnd
  0
BLOCK
  5
121
  330
123
  100
AcDbEntity
  8
SK2
  100
AcDbBlockBegin
  2
*D122
  70
1
  10
0
  20
0
  30
0
  3
*D122
  1

  0
LINE
  5
124
  330
123
  100
AcDbEntity
  8
SK2
  100
AcDbLine
  10
0
  20
2.3
  30
0
  11
0
  21
19
  31
0
  0
LINE
  5
125
  330
123
  100
AcDbEntity
  8
SK2
  100
AcDbLine
  10
90
  20
1.5
  30
0
  11
90
  21
19
  31
0
  0
LINE
  5
126
  330
123
  100
AcDbEntity
  8
SK2
  100
AcDbLine
  10
0
  20
17
  30
0
  11
90
  21
17
  31
0
  0
SOLID
  5
127
  330
123
  100
AcDbEntity
  8
SK2
  100
AcDbTrace
  10
0
  20
17
  30
0
  11
2.478612
  21
17.326315
  31
0
  12
2.478612
  22
16.673685
  32
0
  13
2.478612
  23
16.673685
  33
0
  0
SOLID
  5
128
  330
123
  100
AcDbEntity
  8
SK2
  100
AcDbTrace
  10
90
  20
17
  30
0
  11
87.521388
  21
16.673685
  31
0
  12
87.521388
  22
17.326315
  32
0
  13
87.521388
  23
17.326315
  33
0
  0
MTEXT
  5
129
  330
123
  100
AcDbEntity
  8
SK2
  100
AcDbMText
  10
45
  20
17
  30
0
  11
1
  21
0
  31
0
  40
2
  41
0
  71
8
  72
1
  1
90
  0
POINT
  5
12a
  330
123
  100
AcDbEntity
  8
SK2
  62
0
  100
AcDbPoint
  10
0
  20
2.3
  30
0
  0
POINT
  5
12b
  330
123
  100
AcDbEntity
  8
SK2
  62
0
  100
AcDbPoint
  10
90
  20
1.5
  30
0
  0
POINT
  5
12c
  330
123
  100
AcDbEntity
  8
SK2
  62
0
  100
AcDbPoint
  10
90
  20
17
  30
0
  0
ENDBLK
  5
12d
  330
123
  100
AcDbEntity
  8
SK2
  100
AcDbBlockEnd
  0
BLOCK
  5
12f
  330
131
  100
AcDbEntity
  8
SK2
  100
AcDbBlockBegin
  2
*D130
  70
1
  10
0
  20
0
  30
0
  3
*D130
  1

  0
LINE
  5
132
  330
131
  100
AcDbEntity
  8
SK2
  100
AcDbLine
  10
49
  20
3
  30
0
  11
49
  21
8.790387
  31
0
  0
LINE
  5
133
  330
131
  100
AcDbEntity
  8
SK2
  100
AcDbLine
  10
0
  20
2.3
  30
0
  11
0
  21
8.790387
  31
0
  0
LINE
  5
134
  330
131
  100
AcDbEntity
  8
SK2
  100
AcDbLine
  10
49
  20
6.790387
  30
0
  11
0
  21
6.790387
  31
0
  0
SOLID
  5
135
  330
131
  100
AcDbEntity
  8
SK2
  100
AcDbTrace
  10
49
  20
6.790387
  30
0
  11
51.478612
  21
7.116702
  31
0
  12
51.478612
  22
6.464071
  32
0
  13
51.478612
  23
6.464071
  33
0
  0
SOLID
  5
136
  330
131
  100
AcDbEntity
  8
SK2
  100
AcDbTrace
  10
0
  20
6.790387
  30
0
  11
-2.478612
  21
6.464071
  31
0
  12
-2.478612
  22
7.116702
  32
0
  13
-2.478612
  23
7.116702
  33
0
  0
MTEXT
  5
137
  330
131
  100
AcDbEntity
  8
SK2
  100
AcDbMText
  10
24.5
  20
6.790387
  30
0
  11
1
  21
-0
  31
0
  40
2
  41
0
  71
8
  72
1
  1
49
  0
POINT
  5
138
  330
131
  100
AcDbEntity
  8
SK2
  62
0
  100
AcDbPoint
  10
49
  20
3
  30
0
  0
POINT
  5
139
  330
131
  100
AcDbEntity
  8
SK2
  62
0
  100
AcDbPoint
  10
0
  20
2.3
  30
0
  0
POINT
  5
13a
  330
131
  100
AcDbEntity
  8
SK2
  62
0
  100
AcDbPoint
  10
0
  20
6.790387
  30
0
  0
ENDBLK
  5
13b
  330
131
  100
AcDbEntity
  8
SK2
  100
AcDbBlockEnd
  0
BLOCK
  5
13d
  330
13f
  100
AcDbEntity
  8
SK2
  100
AcDbBlockBegin
  2
*D13e
  70
1
  10
0
  20
0
  30
0
  3
*D13e
  1

  0
LINE
  5
140
  330
13f
  100
AcDbEntity
  8
SK2
  100
AcDbLine
  10
0.7
  20
-3
  30
0
  11
-12
  21
-3
  31
0
  0
LINE
  5
141
  330
13f
  100
AcDbEntity
  8
SK2
  100
AcDbLine
  10
0.7
  20
3
  30
0
  11
-12
  21
3
  31
0
  0
LINE
  5
142
  330
13f
  100
AcDbEntity
  8
SK2
  100
AcDbLine
  10
-10
  20
-3
  30
0
  11
-10
  21
3
  31
0
  0
SOLID
  5
143
  330
13f
  100
AcDbEntity
  8
SK2
  100
AcDbTrace
  10
-10
  20
-3
  30
0
  11
-10.326315
  21
-0.521388
  31
0
  12
-9.673685
  22
-0.521388
  32
0
  13
-9.673685
  23
-0.521388
  33
0
  0
SOLID
  5
144
  330
13f
  100
AcDbEntity
  8
SK2
  100
AcDbTrace
  10
-10
  20
3
  30
0
  11
-9.673685
  21
0.521388
  31
0
  12
-10.326315
  22
0.521388
  32
0
  13
-10.326315
  23
0.521388
  33
0
  0
MTEXT
  5
145
  330
13f
  100
AcDbEntity
  8
SK2
  100
AcDbMText
  10
-10
  20
0
  30
0
  11
0
  21
1
  31
0
  40
2
  41
0
  71
8
  72
1
  1
ﾘ6
  0
POINT
  5
146
  330
13f
  100
AcDbEntity
  8
SK2
  62
0
  100
AcDbPoint
  10
0.7
  20
-3
  30
0
  0
POINT
  5
147
  330
13f
  100
AcDbEntity
  8
SK2
  62
0
  100
AcDbPoint
  10
0.7
  20
3
  30
0
  0
POINT
  5
148
  330
13f
  100
AcDbEntity
  8
SK2
  62
0
  100
AcDbPoint
  10
-10
  20
3
  30
0
  0
ENDBLK
  5
149
  330
13f
  100
AcDbEntity
  8
SK2
  100
AcDbBlockEnd
  0
BLOCK
  5
14b
  330
14d
  100
AcDbEntity
  8
2
  100
AcDbBlockBegin
  2
*D14c
  70
1
  10
0
  20
0
  30
0
  3
*D14c
  1

  0
LINE
  5
14e
  330
14d
  100
AcDbEntity
  8
2
  100
AcDbLine
  10
90
  20
-1.5
  30
0
  11
102
  21
-1.5
  31
0
  0
LINE
  5
14f
  330
14d
  100
AcDbEntity
  8
2
  100
AcDbLine
  10
90
  20
1.5
  30
0
  11
102
  21
1.5
  31
0
  0
LINE
  5
150
  330
14d
  100
AcDbEntity
  8
2
  100
AcDbLine
  10
100
  20
-4.158416
  30
0
  11
100
  21
1.5
  31
0
  0
SOLID
  5
151
  330
14d
  100
AcDbEntity
  8
2
  100
AcDbTrace
  10
100
  20
-1.5
  30
0
  11
99.673685
  21
0.978612
  31
0
  12
100.326315
  22
0.978612
  32
0
  13
100.326315
  23
0.978612
  33
0
  0
SOLID
  5
152
  330
14d
  100
AcDbEntity
  8
2
  100
AcDbTrace
  10
100
  20
1.5
  30
0
  11
100.326315
  21
-0.978612
  31
0
  12
99.673685
  22
-0.978612
  32
0
  13
99.673685
  23
-0.978612
  33
0
  0
MTEXT
  5
153
  330
14d
  100
AcDbEntity
  8
2
  100
AcDbMText
  10
100
  20
0
  30
0
  11
0
  21
1
  31
0
  40
2
  41
0
  71
8
  72
1
  1
ﾘ3
  0
POINT
  5
154
  330
14d
  100
AcDbEntity
  8
2
  62
0
  100
AcDbPoint
  10
90
  20
-1.5
  30
0
  0
POINT
  5
155
  330
14d
  100
AcDbEntity
  8
2
  62
0
  100
AcDbPoint
  10
90
  20
1.5
  30
0
  0
POINT
  5
156
  330
14d
  100
AcDbEntity
  8
2
  62
0
  100
AcDbPoint
  10
100
  20
1.5
  30
0
  0
ENDBLK
  5
157
  330
14d
  100
AcDbEntity
  8
2
  100
AcDbBlockEnd
  0
BLOCK
  5
159
  330
15b
  100
AcDbEntity
  8
2
  100
AcDbBlockBegin
  2
*D15a
  70
1
  10
0
  20
0
  30
0
  3
*D15a
  1

  0
LINE
  5
15c
  330
15b
  100
AcDbEntity
  8
2
  100
AcDbLine
  10
85.5
  20
-1.425
  30
0
  11
83.5
  21
-1.425
  31
0
  0
LINE
  5
15d
  330
15b
  100
AcDbEntity
  8
2
  100
AcDbLine
  10
85.5
  20
1.425
  30
0
  11
83.5
  21
1.425
  31
0
  0
LINE
  5
15e
  330
15b
  100
AcDbEntity
  8
2
  100
AcDbLine
  10
85.5
  20
-1.425
  30
0
  11
85.5
  21
9.876238
  31
0
  0
SOLID
  5
15f
  330
15b
  100
AcDbEntity
  8
2
  100
AcDbTrace
  10
85.5
  20
-1.425
  30
0
  11
85.173685
  21
1.053612
  31
0
  12
85.826315
  22
1.053612
  32
0
  13
85.826315
  23
1.053612
  33
0
  0
SOLID
  5
160
  330
15b
  100
AcDbEntity
  8
2
  100
AcDbTrace
  10
85.5
  20
1.425
  30
0
  11
85.826315
  21
-1.053612
  31
0
  12
85.173685
  22
-1.053612
  32
0
  13
85.173685
  23
-1.053612
  33
0
  0
MTEXT
  5
161
  330
15b
  100
AcDbEntity
  8
2
  100
AcDbMText
  10
85.5
  20
1.425
  30
0
  11
0
  21
1
  31
0
  40
2
  41
0
  71
8
  72
1
  1
ﾘ2.85
  0
POINT
  5
162
  330
15b
  100
AcDbEntity
  8
2
  62
0
  100
AcDbPoint
  10
83.5
  20
-1.425
  30
0
  0
POINT
  5
163
  330
15b
  100
AcDbEntity
  8
2
  62
0
  100
AcDbPoint
  10
83.5
  20
1.425
  30
0
  0
POINT
  5
164
  330
15b
  100
AcDbEntity
  8
2
  62
0
  100
AcDbPoint
  10
85.5
  20
9.876238
  30
0
  0
ENDBLK
  5
165
  330
15b
  100
AcDbEntity
  8
2
  100
AcDbBlockEnd
  0
BLOCK
  5
167
  330
169
  100
AcDbEntity
  8
2
  100
AcDbBlockBegin
  2
*D168
  70
1
  10
0
  20
0
  30
0
  3
*D168
  1

  0
LINE
  5
16a
  330
169
  100
AcDbEntity
  8
2
  100
AcDbLine
  10
85.5
  20
1.425
  30
0
  11
85.5
  21
10
  31
0
  0
LINE
  5
16b
  330
169
  100
AcDbEntity
  8
2
  100
AcDbLine
  10
55.63
  20
1.425
  30
0
  11
55.63
  21
10
  31
0
  0
LINE
  5
16c
  330
169
  100
AcDbEntity
  8
2
  100
AcDbLine
  10
85.5
  20
8
  30
0
  11
55.63
  21
8
  31
0
  0
SOLID
  5
16d
  330
169
  100
AcDbEntity
  8
2
  100
AcDbTrace
  10
85.5
  20
8
  30
0
  11
87.978612
  21
8.326315
  31
0
  12
87.978612
  22
7.673685
  32
0
  13
87.978612
  23
7.673685
  33
0
  0
SOLID
  5
16e
  330
169
  100
AcDbEntity
  8
2
  100
AcDbTrace
  10
55.63
  20
8
  30
0
  11
53.151388
  21
7.673685
  31
0
  12
53.151388
  22
8.326315
  32
0
  13
53.151388
  23
8.326315
  33
0
  0
MTEXT
  5
16f
  330
169
  100
AcDbEntity
  8
2
  100
AcDbMText
  10
70.565
  20
8
  30
0
  11
1
  21
-0
  31
0
  40
2
  41
0
  71
8
  72
1
  1
29.87
  0
POINT
  5
170
  330
169
  100
AcDbEntity
  8
2
  62
0
  100
AcDbPoint
  10
85.5
  20
1.425
  30
0
  0
POINT
  5
171
  330
169
  100
AcDbEntity
  8
2
  62
0
  100
AcDbPoint
  10
55.63
  20
1.425
  30
0
  0
POINT
  5
172
  330
169
  100
AcDbEntity
  8
2
  62
0
  100
AcDbPoint
  10
55.63
  20
8
  30
0
  0
ENDBLK
  5
173
  330
169
  100
AcDbEntity
  8
2
  100
AcDbBlockEnd
  0
BLOCK
  5
175
  330
177
  100
AcDbEntity
  8
2
  100
AcDbBlockBegin
  2
*D176
  70
1
  10
0
  20
0
  30
0
  3
*D176
  1

  0
LINE
  5
178
  330
177
  100
AcDbEntity
  8
2
  100
AcDbLine
  10
90
  20
1.5
  30
0
  11
90
  21
19
  31
0
  0
LINE
  5
179
  330
177
  100
AcDbEntity
  8
2
  100
AcDbLine
  10
49
  20
3
  30
0
  11
49
  21
10
  31
0
  0
LINE
  5
17a
  330
177
  100
AcDbEntity
  8
2
  100
AcDbLine
  10
90
  20
8
  30
0
  11
49
  21
8
  31
0
  0
SOLID
  5
17b
  330
177
  100
AcDbEntity
  8
2
  100
AcDbTrace
  10
90
  20
8
  30
0
  11
92.478612
  21
8.326315
  31
0
  12
92.478612
  22
7.673685
  32
0
  13
92.478612
  23
7.673685
  33
0
  0
SOLID
  5
17c
  330
177
  100
AcDbEntity
  8
2
  100
AcDbTrace
  10
49
  20
8
  30
0
  11
46.521388
  21
7.673685
  31
0
  12
46.521388
  22
8.326315
  32
0
  13
46.521388
  23
8.326315
  33
0
  0
MTEXT
  5
17d
  330
177
  100
AcDbEntity
  8
2
  100
AcDbMText
  10
69.5
  20
8
  30
0
  11
1
  21
-0
  31
0
  40
2
  41
0
  71
8
  72
1
  1
41
  0
POINT
  5
17e
  330
177
  100
AcDbEntity
  8
2
  62
0
  100
AcDbPoint
  10
90
  20
19
  30
0
  0
POINT
  5
17f
  330
177
  100
AcDbEntity
  8
2
  62
0
  100
AcDbPoint
  10
49
  20
3
  30
0
  0
POINT
  5
180
  330
177
  100
AcDbEntity
  8
2
  62
0
  100
AcDbPoint
  10
49
  20
8
  30
0
  0
ENDBLK
  5
181
  330
177
  100
AcDbEntity
  8
2
  100
AcDbBlockEnd
  0
BLOCK
  5
183
  330
185
  100
AcDbEntity
  8
2
  100
AcDbBlockBegin
  2
*D184
  70
1
  10
0
  20
0
  30
0
  3
*D184
  1

  0
LINE
  5
186
  330
185
  100
AcDbEntity
  8
2
  100
AcDbLine
  10
90
  20
-7.238525
  30
0
  11
90
  21
-1.5
  31
0
  0
LINE
  5
187
  330
185
  100
AcDbEntity
  8
2
  100
AcDbLine
  10
85.5
  20
-7.238525
  30
0
  11
85.5
  21
-1.425
  31
0
  0
LINE
  5
188
  330
185
  100
AcDbEntity
  8
2
  100
AcDbLine
  10
90
  20
-5.238525
  30
0
  11
83.298267
  21
-5.238525
  31
0
  0
SOLID
  5
189
  330
185
  100
AcDbEntity
  8
2
  100
AcDbTrace
  10
90
  20
-5.238525
  30
0
  11
92.478612
  21
-4.91221
  31
0
  12
92.478612
  22
-5.564841
  32
0
  13
92.478612
  23
-5.564841
  33
0
  0
SOLID
  5
18a
  330
185
  100
AcDbEntity
  8
2
  100
AcDbTrace
  10
85.5
  20
-5.238525
  30
0
  11
83.021388
  21
-5.564841
  31
0
  12
83.021388
  22
-4.91221
  32
0
  13
83.021388
  23
-4.91221
  33
0
  0
MTEXT
  5
18b
  330
185
  100
AcDbEntity
  8
2
  100
AcDbMText
  10
87.75
  20
-5.238525
  30
0
  11
1
  21
-0
  31
0
  40
2
  41
0
  71
8
  72
1
  1
4.5
  0
POINT
  5
18c
  330
185
  100
AcDbEntity
  8
2
  62
0
  100
AcDbPoint
  10
90
  20
-1.5
  30
0
  0
POINT
  5
18d
  330
185
  100
AcDbEntity
  8
2
  62
0
  100
AcDbPoint
  10
85.5
  20
-1.425
  30
0
  0
POINT
  5
18e
  330
185
  100
AcDbEntity
  8
2
  62
0
  100
AcDbPoint
  10
83.298267
  20
-5.238525
  30
0
  0
ENDBLK
  5
18f
  330
185
  100
AcDbEntity
  8
2
  100
AcDbBlockEnd
  0
ENDSEC
  0
SECTION
  2
ENTITIES
  0
DIMENSION
  5
12e
  100
AcDbEntity
  8
SK2
  100
AcDbDimension
  2
*D122
  10
90
  20
17
  30
0
  11
45
  21
17
  31
0
  70
160
  1
<>
  71
5
  3
STANDARD
  42
90
  100
AcDbAlignedDimension
  13
0
  23
2.3
  33
0
  14
90
  24
1.5
  34
0
  50
0
  100
AcDbRotatedDimension
  0
DIMENSION
  5
13c
  100
AcDbEntity
  8
SK2
  100
AcDbDimension
  2
*D130
  10
0
  20
6.790387
  30
0
  11
24.5
  21
6.790387
  31
0
  70
160
  1
<>
  71
5
  3
STANDARD
  42
49
  100
AcDbAlignedDimension
  13
49
  23
3
  33
0
  14
0
  24
2.3
  34
0
  50
0
  100
AcDbRotatedDimension
  0
DIMENSION
  5
14a
  100
AcDbEntity
  8
SK2
  100
AcDbDimension
  2
*D13e
  10
-10
  20
3
  30
0
  11
-10
  21
0
  31
0
  70
160
  1
%%c<>
  71
5
  3
STANDARD
  42
6
  100
AcDbAlignedDimension
  13
0.7
  23
-3
  33
0
  14
0.7
  24
3
  34
0
  50
-90
  100
AcDbRotatedDimension
  0
DIMENSION
  5
158
  100
AcDbEntity
  8
2
  100
AcDbDimension
  2
*D14c
  10
100
  20
1.5
  30
0
  11
100
  21
0
  31
0
  70
160
  1
%%c<>
  71
5
  3
STANDARD
  42
3
  100
AcDbAlignedDimension
  13
90
  23
-1.5
  33
0
  14
90
  24
1.5
  34
0
  50
-90
  100
AcDbRotatedDimension
  0
DIMENSION
  5
166
  100
AcDbEntity
  8
2
  100
AcDbDimension
  2
*D15a
  10
85.5
  20
9.876238
  30
0
  11
85.5
  21
1.425
  31
0
  70
160
  1
%%c<>
  71
5
  3
STANDARD
  42
2.85
  100
AcDbAlignedDimension
  13
83.5
  23
-1.425
  33
0
  14
83.5
  24
1.425
  34
0
  50
-90
  100
AcDbRotatedDimension
  0
DIMENSION
  5
174
  100
AcDbEntity
  8
2
  100
AcDbDimension
  2
*D168
  10
55.63
  20
8
  30
0
  11
70.565
  21
8
  31
0
  70
160
  1
<>
  71
5
  3
STANDARD
  42
29.87
  100
AcDbAlignedDimension
  13
85.5
  23
1.425
  33
0
  14
55.63
  24
1.425
  34
0
  50
0
  100
AcDbRotatedDimension
  0
DIMENSION
  5
182
  100
AcDbEntity
  8
2
  100
AcDbDimension
  2
*D176
  10
49
  20
8
  30
0
  11
69.5
  21
8
  31
0
  70
160
  1
<>
  71
5
  3
STANDARD
  42
41
  100
AcDbAlignedDimension
  13
90
  23
19
  33
0
  14
49
  24
3
  34
0
  50
0
  100
AcDbRotatedDimension
  0
DIMENSION
  5
190
  100
AcDbEntity
  8
2
  100
AcDbDimension
  2
*D184
  10
83.298267
  20
-5.238525
  30
0
  11
87.75
  21
-5.238525
  31
0
  70
160
  1
<>
  71
5
  3
STANDARD
  42
4.5
  100
AcDbAlignedDimension
  13
90
  23
-1.5
  33
0
  14
85.5
  24
-1.425
  34
0
  50
0
  100
AcDbRotatedDimension
  0
LINE
  5
36
  100
AcDbEntity
  8
1
  100
AcDbLine
  10
49
  20
-3
  30
0
  11
49
  21
3
  31
0
  0
LINE
  5
37
  100
AcDbEntity
  8
1
  100
AcDbLine
  10
49
  20
3
  30
0
  11
49
  21
-3
  31
0
  0
LINE
  5
38
  100
AcDbEntity
  8
1
  100
AcDbLine
  10
49.165037
  20
-3
  30
0
  11
49.165037
  21
3
  31
0
  0
LINE
  5
39
  100
AcDbEntity
  8
1
  100
AcDbLine
  10
85
  20
1.425
  30
0
  11
85
  21
1.423217
  31
0
  0
LINE
  5
3a
  100
AcDbEntity
  8
1
  100
AcDbLine
  10
85
  20
1.423217
  30
0
  11
85.1
  21
1.100676
  31
0
  0
LINE
  5
3b
  100
AcDbEntity
  8
1
  100
AcDbLine
  10
85.1
  20
1.100676
  30
0
  11
85.2
  21
0.883787
  31
0
  0
LINE
  5
3c
  100
AcDbEntity
  8
1
  100
AcDbLine
  10
85.2
  20
0.883787
  30
0
  11
85.3
  21
0.799811
  31
0
  0
LINE
  5
3d
  100
AcDbEntity
  8
1
  100
AcDbLine
  10
85.3
  20
0.799811
  30
0
  11
85.4
  21
0.749869
  31
0
  0
LINE
  5
3e
  100
AcDbEntity
  8
1
  100
AcDbLine
  10
85.4
  20
0.749869
  30
0
  11
85.5
  21
0.70262
  31
0
  0
LINE
  5
3f
  100
AcDbEntity
  8
1
  100
AcDbLine
  10
85.5
  20
0.70262
  30
0
  11
85.5
  21
0.732685
  31
0
  0
LINE
  5
40
  100
AcDbEntity
  8
1
  100
AcDbLine
  10
85.5
  20
0.732685
  30
0
  11
85.6
  21
0.681776
  31
0
  0
LINE
  5
41
  100
AcDbEntity
  8
1
  100
AcDbLine
  10
85.6
  20
0.681776
  30
0
  11
85.7
  21
0.629857
  31
0
  0
LINE
  5
42
  100
AcDbEntity
  8
1
  100
AcDbLine
  10
85.7
  20
0.629857
  30
0
  11
85.8
  21
0.577005
  31
0
  0
LINE
  5
43
  100
AcDbEntity
  8
1
  100
AcDbLine
  10
85.8
  20
0.577005
  30
0
  11
85.9
  21
0.523298
  31
0
  0
LINE
  5
44
  100
AcDbEntity
  8
1
  100
AcDbLine
  10
85.9
  20
0.523298
  30
0
  11
86
  21
0.468816
  31
0
  0
LINE
  5
45
  100
AcDbEntity
  8
1
  100
AcDbLine
  10
86
  20
0.468816
  30
0
  11
86.1
  21
0.41364
  31
0
  0
LINE
  5
46
  100
AcDbEntity
  8
1
  100
AcDbLine
  10
86.1
  20
0.41364
  30
0
  11
86.2
  21
0.357851
  31
0
  0
LINE
  5
47
  100
AcDbEntity
  8
1
  100
AcDbLine
  10
86.2
  20
0.357851
  30
0
  11
86.3
  21
0.301532
  31
0
  0
LINE
  5
48
  100
AcDbEntity
  8
1
  100
AcDbLine
  10
86.3
  20
0.301532
  30
0
  11
86.4
  21
0.244766
  31
0
  0
LINE
  5
49
  100
AcDbEntity
  8
1
  100
AcDbLine
  10
86.4
  20
0.244766
  30
0
  11
86.5
  21
0.187637
  31
0
  0
LINE
  5
4a
  100
AcDbEntity
  8
1
  100
AcDbLine
  10
86.5
  20
0.187637
  30
0
  11
86.6
  21
0.130231
  31
0
  0
LINE
  5
4b
  100
AcDbEntity
  8
1
  100
AcDbLine
  10
86.6
  20
0.130231
  30
0
  11
86.7
  21
0.072632
  31
0
  0
LINE
  5
4c
  100
AcDbEntity
  8
1
  100
AcDbLine
  10
86.7
  20
0.072632
  30
0
  11
86.8
  21
0.014925
  31
0
  0
LINE
  5
4d
  100
AcDbEntity
  8
1
  100
AcDbLine
  10
86.8
  20
0.014925
  30
0
  11
86.9
  21
-0.042804
  31
0
  0
LINE
  5
4e
  100
AcDbEntity
  8
1
  100
AcDbLine
  10
86.9
  20
-0.042804
  30
0
  11
87
  21
-0.10047
  31
0
  0
LINE
  5
4f
  100
AcDbEntity
  8
1
  100
AcDbLine
  10
87
  20
-0.10047
  30
0
  11
87.1
  21
-0.157986
  31
0
  0
LINE
  5
50
  100
AcDbEntity
  8
1
  100
AcDbLine
  10
87.1
  20
-0.157986
  30
0
  11
87.2
  21
-0.215269
  31
0
  0
LINE
  5
51
  100
AcDbEntity
  8
1
  100
AcDbLine
  10
87.2
  20
-0.215269
  30
0
  11
87.3
  21
-0.272233
  31
0
  0
LINE
  5
52
  100
AcDbEntity
  8
1
  100
AcDbLine
  10
87.3
  20
-0.272233
  30
0
  11
87.4
  21
-0.328793
  31
0
  0
LINE
  5
53
  100
AcDbEntity
  8
1
  100
AcDbLine
  10
87.4
  20
-0.328793
  30
0
  11
87.5
  21
-0.384867
  31
0
  0
LINE
  5
54
  100
AcDbEntity
  8
1
  100
AcDbLine
  10
87.5
  20
-0.384867
  30
0
  11
87.6
  21
-0.44037
  31
0
  0
LINE
  5
55
  100
AcDbEntity
  8
1
  100
AcDbLine
  10
87.6
  20
-0.44037
  30
0
  11
87.7
  21
-0.495222
  31
0
  0
LINE
  5
56
  100
AcDbEntity
  8
1
  100
AcDbLine
  10
87.7
  20
-0.495222
  30
0
  11
87.8
  21
-0.549339
  31
0
  0
LINE
  5
57
  100
AcDbEntity
  8
1
  100
AcDbLine
  10
87.8
  20
-0.549339
  30
0
  11
87.9
  21
-0.602643
  31
0
  0
LINE
  5
58
  100
AcDbEntity
  8
1
  100
AcDbLine
  10
87.9
  20
-0.602643
  30
0
  11
88
  21
-0.655054
  31
0
  0
LINE
  5
59
  100
AcDbEntity
  8
1
  100
AcDbLine
  10
88
  20
-0.655054
  30
0
  11
88.1
  21
-0.706495
  31
0
  0
LINE
  5
5a
  100
AcDbEntity
  8
1
  100
AcDbLine
  10
88.1
  20
-0.706495
  30
0
  11
88.2
  21
-0.756889
  31
0
  0
LINE
  5
5b
  100
AcDbEntity
  8
1
  100
AcDbLine
  10
88.2
  20
-0.756889
  30
0
  11
88.3
  21
-0.806162
  31
0
  0
LINE
  5
5c
  100
AcDbEntity
  8
1
  100
AcDbLine
  10
88.3
  20
-0.806162
  30
0
  11
88.4
  21
-0.854241
  31
0
  0
LINE
  5
5d
  100
AcDbEntity
  8
1
  100
AcDbLine
  10
88.4
  20
-0.854241
  30
0
  11
88.5
  21
-0.901055
  31
0
  0
LINE
  5
5e
  100
AcDbEntity
  8
1
  100
AcDbLine
  10
88.5
  20
-0.901055
  30
0
  11
88.6
  21
-0.946533
  31
0
  0
LINE
  5
5f
  100
AcDbEntity
  8
1
  100
AcDbLine
  10
88.6
  20
-0.946533
  30
0
  11
88.7
  21
-0.99061
  31
0
  0
LINE
  5
60
  100
AcDbEntity
  8
1
  100
AcDbLine
  10
88.7
  20
-0.99061
  30
0
  11
88.8
  21
-1.033219
  31
0
  0
LINE
  5
61
  100
AcDbEntity
  8
1
  100
AcDbLine
  10
88.8
  20
-1.033219
  30
0
  11
88.9
  21
-1.074298
  31
0
  0
LINE
  5
62
  100
AcDbEntity
  8
1
  100
AcDbLine
  10
88.9
  20
-1.074298
  30
0
  11
89
  21
-1.113786
  31
0
  0
LINE
  5
63
  100
AcDbEntity
  8
1
  100
AcDbLine
  10
89
  20
-1.113786
  30
0
  11
89.1
  21
-1.151623
  31
0
  0
LINE
  5
64
  100
AcDbEntity
  8
1
  100
AcDbLine
  10
89.1
  20
-1.151623
  30
0
  11
89.2
  21
-1.187755
  31
0
  0
LINE
  5
65
  100
AcDbEntity
  8
1
  100
AcDbLine
  10
89.2
  20
-1.187755
  30
0
  11
89.3
  21
-1.222127
  31
0
  0
LINE
  5
66
  100
AcDbEntity
  8
1
  100
AcDbLine
  10
89.3
  20
-1.222127
  30
0
  11
89.4
  21
-1.254689
  31
0
  0
LINE
  5
67
  100
AcDbEntity
  8
1
  100
AcDbLine
  10
89.4
  20
-1.254689
  30
0
  11
89.5
  21
-1.285392
  31
0
  0
LINE
  5
68
  100
AcDbEntity
  8
1
  100
AcDbLine
  10
89.5
  20
-1.285392
  30
0
  11
89.6
  21
-1.314192
  31
0
  0
LINE
  5
69
  100
AcDbEntity
  8
1
  100
AcDbLine
  10
89.6
  20
-1.314192
  30
0
  11
89.7
  21
-1.341044
  31
0
  0
LINE
  5
6a
  100
AcDbEntity
  8
1
  100
AcDbLine
  10
89.7
  20
-1.341044
  30
0
  11
89.8
  21
-1.36591
  31
0
  0
LINE
  5
6b
  100
AcDbEntity
  8
1
  100
AcDbLine
  10
89.8
  20
-1.36591
  30
0
  11
89.9
  21
-1.388753
  31
0
  0
LINE
  5
6c
  100
AcDbEntity
  8
1
  100
AcDbLine
  10
89.9
  20
-1.388753
  30
0
  11
90
  21
-1.409539
  31
0
  0
LINE
  5
6d
  100
AcDbEntity
  8
1
  100
AcDbLine
  10
90
  20
-1.473953
  30
0
  11
89.9
  21
-1.467177
  31
0
  0
LINE
  5
6e
  100
AcDbEntity
  8
1
  100
AcDbLine
  10
89.9
  20
-1.467177
  30
0
  11
89.8
  21
-1.458227
  31
0
  0
LINE
  5
6f
  100
AcDbEntity
  8
1
  100
AcDbLine
  10
89.8
  20
-1.458227
  30
0
  11
89.7
  21
-1.447118
  31
0
  0
LINE
  5
70
  100
AcDbEntity
  8
1
  100
AcDbLine
  10
89.7
  20
-1.447118
  30
0
  11
89.6
  21
-1.433865
  31
0
  0
LINE
  5
71
  100
AcDbEntity
  8
1
  100
AcDbLine
  10
89.6
  20
-1.433865
  30
0
  11
89.5
  21
-1.418488
  31
0
  0
LINE
  5
72
  100
AcDbEntity
  8
1
  100
AcDbLine
  10
89.5
  20
-1.418488
  30
0
  11
89.4
  21
-1.401009
  31
0
  0
LINE
  5
73
  100
AcDbEntity
  8
1
  100
AcDbLine
  10
89.4
  20
-1.401009
  30
0
  11
89.3
  21
-1.381456
  31
0
  0
LINE
  5
74
  100
AcDbEntity
  8
1
  100
AcDbLine
  10
89.3
  20
-1.381456
  30
0
  11
89.2
  21
-1.359856
  31
0
  0
LINE
  5
75
  100
AcDbEntity
  8
1
  100
AcDbLine
  10
89.2
  20
-1.359856
  30
0
  11
89.1
  21
-1.336242
  31
0
  0
LINE
  5
76
  100
AcDbEntity
  8
1
  100
AcDbLine
  10
89.1
  20
-1.336242
  30
0
  11
89
  21
-1.310648
  31
0
  0
LINE
  5
77
  100
AcDbEntity
  8
1
  100
AcDbLine
  10
89
  20
-1.310648
  30
0
  11
88.9
  21
-1.283113
  31
0
  0
LINE
  5
78
  100
AcDbEntity
  8
1
  100
AcDbLine
  10
88.9
  20
-1.283113
  30
0
  11
88.8
  21
-1.253677
  31
0
  0
LINE
  5
79
  100
AcDbEntity
  8
1
  100
AcDbLine
  10
88.8
  20
-1.253677
  30
0
  11
88.7
  21
-1.222384
  31
0
  0
LINE
  5
7a
  100
AcDbEntity
  8
1
  100
AcDbLine
  10
88.7
  20
-1.222384
  30
0
  11
88.6
  21
-1.189281
  31
0
  0
LINE
  5
7b
  100
AcDbEntity
  8
1
  100
AcDbLine
  10
88.6
  20
-1.189281
  30
0
  11
88.5
  21
-1.154415
  31
0
  0
LINE
  5
7c
  100
AcDbEntity
  8
1
  100
AcDbLine
  10
88.5
  20
-1.154415
  30
0
  11
88.4
  21
-1.11784
  31
0
  0
LINE
  5
7d
  100
AcDbEntity
  8
1
  100
AcDbLine
  10
88.4
  20
-1.11784
  30
0
  11
88.3
  21
-1.079609
  31
0
  0
LINE
  5
7e
  100
AcDbEntity
  8
1
  100
AcDbLine
  10
88.3
  20
-1.079609
  30
0
  11
88.2
  21
-1.039779
  31
0
  0
LINE
  5
7f
  100
AcDbEntity
  8
1
  100
AcDbLine
  10
88.2
  20
-1.039779
  30
0
  11
88.1
  21
-0.998408
  31
0
  0
LINE
  5
80
  100
AcDbEntity
  8
1
  100
AcDbLine
  10
88.1
  20
-0.998408
  30
0
  11
88
  21
-0.955559
  31
0
  0
LINE
  5
81
  100
AcDbEntity
  8
1
  100
AcDbLine
  10
88
  20
-0.955559
  30
0
  11
87.9
  21
-0.911294
  31
0
  0
LINE
  5
82
  100
AcDbEntity
  8
1
  100
AcDbLine
  10
87.9
  20
-0.911294
  30
0
  11
87.8
  21
-0.865679
  31
0
  0
LINE
  5
83
  100
AcDbEntity
  8
1
  100
AcDbLine
  10
87.8
  20
-0.865679
  30
0
  11
87.7
  21
-0.818781
  31
0
  0
LINE
  5
84
  100
AcDbEntity
  8
1
  100
AcDbLine
  10
87.7
  20
-0.818781
  30
0
  11
87.6
  21
-0.770671
  31
0
  0
LINE
  5
85
  100
AcDbEntity
  8
1
  100
AcDbLine
  10
87.6
  20
-0.770671
  30
0
  11
87.5
  21
-0.72142
  31
0
  0
LINE
  5
86
  100
AcDbEntity
  8
1
  100
AcDbLine
  10
87.5
  20
-0.72142
  30
0
  11
87.4
  21
-0.671099
  31
0
  0
LINE
  5
87
  100
AcDbEntity
  8
1
  100
AcDbLine
  10
87.4
  20
-0.671099
  30
0
  11
87.3
  21
-0.619785
  31
0
  0
LINE
  5
88
  100
AcDbEntity
  8
1
  100
AcDbLine
  10
87.3
  20
-0.619785
  30
0
  11
87.2
  21
-0.567552
  31
0
  0
LINE
  5
89
  100
AcDbEntity
  8
1
  100
AcDbLine
  10
87.2
  20
-0.567552
  30
0
  11
87.1
  21
-0.514479
  31
0
  0
LINE
  5
8a
  100
AcDbEntity
  8
1
  100
AcDbLine
  10
87.1
  20
-0.514479
  30
0
  11
87
  21
-0.460644
  31
0
  0
LINE
  5
8b
  100
AcDbEntity
  8
1
  100
AcDbLine
  10
87
  20
-0.460644
  30
0
  11
86.9
  21
-0.406126
  31
0
  0
LINE
  5
8c
  100
AcDbEntity
  8
1
  100
AcDbLine
  10
86.9
  20
-0.406126
  30
0
  11
86.8
  21
-0.351007
  31
0
  0
LINE
  5
8d
  100
AcDbEntity
  8
1
  100
AcDbLine
  10
86.8
  20
-0.351007
  30
0
  11
86.7
  21
-0.295368
  31
0
  0
LINE
  5
8e
  100
AcDbEntity
  8
1
  100
AcDbLine
  10
86.7
  20
-0.295368
  30
0
  11
86.6
  21
-0.239291
  31
0
  0
LINE
  5
8f
  100
AcDbEntity
  8
1
  100
AcDbLine
  10
86.6
  20
-0.239291
  30
0
  11
86.5
  21
-0.18286
  31
0
  0
LINE
  5
90
  100
AcDbEntity
  8
1
  100
AcDbLine
  10
86.5
  20
-0.18286
  30
0
  11
86.4
  21
-0.126158
  31
0
  0
LINE
  5
91
  100
AcDbEntity
  8
1
  100
AcDbLine
  10
86.4
  20
-0.126158
  30
0
  11
86.3
  21
-0.069269
  31
0
  0
LINE
  5
92
  100
AcDbEntity
  8
1
  100
AcDbLine
  10
86.3
  20
-0.069269
  30
0
  11
86.2
  21
-0.012277
  31
0
  0
LINE
  5
93
  100
AcDbEntity
  8
1
  100
AcDbLine
  10
86.2
  20
-0.012277
  30
0
  11
86.1
  21
0.044732
  31
0
  0
LINE
  5
94
  100
AcDbEntity
  8
1
  100
AcDbLine
  10
86.1
  20
0.044732
  30
0
  11
86
  21
0.101676
  31
0
  0
LINE
  5
95
  100
AcDbEntity
  8
1
  100
AcDbLine
  10
86
  20
0.101676
  30
0
  11
85.9
  21
0.158469
  31
0
  0
LINE
  5
96
  100
AcDbEntity
  8
1
  100
AcDbLine
  10
85.9
  20
0.158469
  30
0
  11
85.8
  21
0.215027
  31
0
  0
LINE
  5
97
  100
AcDbEntity
  8
1
  100
AcDbLine
  10
85.8
  20
0.215027
  30
0
  11
85.7
  21
0.271266
  31
0
  0
LINE
  5
98
  100
AcDbEntity
  8
1
  100
AcDbLine
  10
85.7
  20
0.271266
  30
0
  11
85.6
  21
0.327104
  31
0
  0
LINE
  5
99
  100
AcDbEntity
  8
1
  100
AcDbLine
  10
85.6
  20
0.327104
  30
0
  11
85.5
  21
0.382457
  31
0
  0
LINE
  5
9a
  100
AcDbEntity
  8
1
  100
AcDbLine
  10
85.5
  20
0.382457
  30
0
  11
85.5
  21
0.380449
  31
0
  0
LINE
  5
9b
  100
AcDbEntity
  8
1
  100
AcDbLine
  10
85.5
  20
-1.5
  30
0
  11
85.5
  21
1.5
  31
0
  0
LINE
  5
9c
  100
AcDbEntity
  8
1
  100
AcDbLine
  10
85.5
  20
1.425
  30
0
  11
85.5
  21
-1.425
  31
0
  0
LINE
  5
9d
  100
AcDbEntity
  8
1
  100
AcDbLine
  10
85
  20
-1.425
  30
0
  11
85
  21
0.136752
  31
0
  0
LINE
  5
9e
  100
AcDbEntity
  8
1
  100
AcDbLine
  10
85
  20
0.136752
  30
0
  11
85.1
  21
0.427109
  31
0
  0
LINE
  5
9f
  100
AcDbEntity
  8
1
  100
AcDbLine
  10
85.1
  20
0.427109
  30
0
  11
85.2
  21
0.398664
  31
0
  0
LINE
  5
a0
  100
AcDbEntity
  8
1
  100
AcDbLine
  10
85.2
  20
0.398664
  30
0
  11
85.3
  21
0.346515
  31
0
  0
LINE
  5
a1
  100
AcDbEntity
  8
1
  100
AcDbLine
  10
85.3
  20
0.346515
  30
0
  11
85.4
  21
0.293076
  31
0
  0
LINE
  5
a2
  100
AcDbEntity
  8
1
  100
AcDbLine
  10
85.4
  20
0.293076
  30
0
  11
85.5
  21
0.239196
  31
0
  0
LINE
  5
a3
  100
AcDbEntity
  8
1
  100
AcDbLine
  10
85.5
  20
0.239196
  30
0
  11
85.5
  21
0.240835
  31
0
  0
LINE
  5
a4
  100
AcDbEntity
  8
1
  100
AcDbLine
  10
85.5
  20
0.240835
  30
0
  11
85.6
  21
0.183684
  31
0
  0
LINE
  5
a5
  100
AcDbEntity
  8
1
  100
AcDbLine
  10
85.6
  20
0.183684
  30
0
  11
85.7
  21
0.126262
  31
0
  0
LINE
  5
a6
  100
AcDbEntity
  8
1
  100
AcDbLine
  10
85.7
  20
0.126262
  30
0
  11
85.8
  21
0.068653
  31
0
  0
LINE
  5
a7
  100
AcDbEntity
  8
1
  100
AcDbLine
  10
85.8
  20
0.068653
  30
0
  11
85.9
  21
0.010942
  31
0
  0
LINE
  5
a8
  100
AcDbEntity
  8
1
  100
AcDbLine
  10
85.9
  20
0.010942
  30
0
  11
86
  21
-0.046786
  31
0
  0
LINE
  5
a9
  100
AcDbEntity
  8
1
  100
AcDbLine
  10
86
  20
-0.046786
  30
0
  11
86.1
  21
-0.104444
  31
0
  0
LINE
  5
aa
  100
AcDbEntity
  8
1
  100
AcDbLine
  10
86.1
  20
-0.104444
  30
0
  11
86.2
  21
-0.161947
  31
0
  0
LINE
  5
ab
  100
AcDbEntity
  8
1
  100
AcDbLine
  10
86.2
  20
-0.161947
  30
0
  11
86.3
  21
-0.219211
  31
0
  0
LINE
  5
ac
  100
AcDbEntity
  8
1
  100
AcDbLine
  10
86.3
  20
-0.219211
  30
0
  11
86.4
  21
-0.276149
  31
0
  0
LINE
  5
ad
  100
AcDbEntity
  8
1
  100
AcDbLine
  10
86.4
  20
-0.276149
  30
0
  11
86.5
  21
-0.332679
  31
0
  0
LINE
  5
ae
  100
AcDbEntity
  8
1
  100
AcDbLine
  10
86.5
  20
-0.332679
  30
0
  11
86.6
  21
-0.388716
  31
0
  0
LINE
  5
af
  100
AcDbEntity
  8
1
  100
AcDbLine
  10
86.6
  20
-0.388716
  30
0
  11
86.7
  21
-0.444177
  31
0
  0
LINE
  5
b0
  100
AcDbEntity
  8
1
  100
AcDbLine
  10
86.7
  20
-0.444177
  30
0
  11
86.8
  21
-0.49898
  31
0
  0
LINE
  5
b1
  100
AcDbEntity
  8
1
  100
AcDbLine
  10
86.8
  20
-0.49898
  30
0
  11
86.9
  21
-0.553044
  31
0
  0
LINE
  5
b2
  100
AcDbEntity
  8
1
  100
AcDbLine
  10
86.9
  20
-0.553044
  30
0
  11
87
  21
-0.606289
  31
0
  0
LINE
  5
b3
  100
AcDbEntity
  8
1
  100
AcDbLine
  10
87
  20
-0.606289
  30
0
  11
87.1
  21
-0.658635
  31
0
  0
LINE
  5
b4
  100
AcDbEntity
  8
1
  100
AcDbLine
  10
87.1
  20
-0.658635
  30
0
  11
87.2
  21
-0.710006
  31
0
  0
LINE
  5
b5
  100
AcDbEntity
  8
1
  100
AcDbLine
  10
87.2
  20
-0.710006
  30
0
  11
87.3
  21
-0.760326
  31
0
  0
LINE
  5
b6
  100
AcDbEntity
  8
1
  100
AcDbLine
  10
87.3
  20
-0.760326
  30
0
  11
87.4
  21
-0.809519
  31
0
  0
LINE
  5
b7
  100
AcDbEntity
  8
1
  100
AcDbLine
  10
87.4
  20
-0.809519
  30
0
  11
87.5
  21
-0.857512
  31
0
  0
LINE
  5
b8
  100
AcDbEntity
  8
1
  100
AcDbLine
  10
87.5
  20
-0.857512
  30
0
  11
87.6
  21
-0.904236
  31
0
  0
LINE
  5
b9
  100
AcDbEntity
  8
1
  100
AcDbLine
  10
87.6
  20
-0.904236
  30
0
  11
87.7
  21
-0.94962
  31
0
  0
LINE
  5
ba
  100
AcDbEntity
  8
1
  100
AcDbLine
  10
87.7
  20
-0.94962
  30
0
  11
87.8
  21
-0.993598
  31
0
  0
LINE
  5
bb
  100
AcDbEntity
  8
1
  100
AcDbLine
  10
87.8
  20
-0.993598
  30
0
  11
87.9
  21
-1.036104
  31
0
  0
LINE
  5
bc
  100
AcDbEntity
  8
1
  100
AcDbLine
  10
87.9
  20
-1.036104
  30
0
  11
88
  21
-1.077074
  31
0
  0
LINE
  5
bd
  100
AcDbEntity
  8
1
  100
AcDbLine
  10
88
  20
-1.077074
  30
0
  11
88.1
  21
-1.11645
  31
0
  0
LINE
  5
be
  100
AcDbEntity
  8
1
  100
AcDbLine
  10
88.1
  20
-1.11645
  30
0
  11
88.2
  21
-1.154172
  31
0
  0
LINE
  5
bf
  100
AcDbEntity
  8
1
  100
AcDbLine
  10
88.2
  20
-1.154172
  30
0
  11
88.3
  21
-1.190184
  31
0
  0
LINE
  5
c0
  100
AcDbEntity
  8
1
  100
AcDbLine
  10
88.3
  20
-1.190184
  30
0
  11
88.4
  21
-1.224433
  31
0
  0
LINE
  5
c1
  100
AcDbEntity
  8
1
  100
AcDbLine
  10
88.4
  20
-1.224433
  30
0
  11
88.5
  21
-1.256868
  31
0
  0
LINE
  5
c2
  100
AcDbEntity
  8
1
  100
AcDbLine
  10
88.5
  20
-1.256868
  30
0
  11
88.6
  21
-1.287441
  31
0
  0
LINE
  5
c3
  100
AcDbEntity
  8
1
  100
AcDbLine
  10
88.6
  20
-1.287441
  30
0
  11
88.7
  21
-1.316108
  31
0
  0
LINE
  5
c4
  100
AcDbEntity
  8
1
  100
AcDbLine
  10
88.7
  20
-1.316108
  30
0
  11
88.8
  21
-1.342824
  31
0
  0
LINE
  5
c5
  100
AcDbEntity
  8
1
  100
AcDbLine
  10
88.8
  20
-1.342824
  30
0
  11
88.9
  21
-1.367552
  31
0
  0
LINE
  5
c6
  100
AcDbEntity
  8
1
  100
AcDbLine
  10
88.9
  20
-1.367552
  30
0
  11
89
  21
-1.390254
  31
0
  0
LINE
  5
c7
  100
AcDbEntity
  8
1
  100
AcDbLine
  10
89
  20
-1.390254
  30
0
  11
89.1
  21
-1.410896
  31
0
  0
LINE
  5
c8
  100
AcDbEntity
  8
1
  100
AcDbLine
  10
89.1
  20
-1.410896
  30
0
  11
89.2
  21
-1.429449
  31
0
  0
LINE
  5
c9
  100
AcDbEntity
  8
1
  100
AcDbLine
  10
89.2
  20
-1.429449
  30
0
  11
89.3
  21
-1.445884
  31
0
  0
LINE
  5
ca
  100
AcDbEntity
  8
1
  100
AcDbLine
  10
89.3
  20
-1.445884
  30
0
  11
89.4
  21
-1.460177
  31
0
  0
LINE
  5
cb
  100
AcDbEntity
  8
1
  100
AcDbLine
  10
89.4
  20
-1.460177
  30
0
  11
89.5
  21
-1.472308
  31
0
  0
LINE
  5
cc
  100
AcDbEntity
  8
1
  100
AcDbLine
  10
89.5
  20
-1.472308
  30
0
  11
89.6
  21
-1.482257
  31
0
  0
LINE
  5
cd
  100
AcDbEntity
  8
1
  100
AcDbLine
  10
89.6
  20
-1.482257
  30
0
  11
89.7
  21
-1.490011
  31
0
  0
LINE
  5
ce
  100
AcDbEntity
  8
1
  100
AcDbLine
  10
89.7
  20
-1.490011
  30
0
  11
89.8
  21
-1.495558
  31
0
  0
LINE
  5
cf
  100
AcDbEntity
  8
1
  100
AcDbLine
  10
89.8
  20
-1.495558
  30
0
  11
89.9
  21
-1.498889
  31
0
  0
LINE
  5
d0
  100
AcDbEntity
  8
1
  100
AcDbLine
  10
89.9
  20
-1.498889
  30
0
  11
90
  21
-1.5
  31
0
  0
LINE
  5
d1
  100
AcDbEntity
  8
1
  100
AcDbLine
  10
90
  20
-1.5
  30
0
  11
90
  21
0
  31
0
  0
LINE
  5
d2
  100
AcDbEntity
  8
1
  100
AcDbLine
  10
90
  20
0
  30
0
  11
90
  21
1.5
  31
0
  0
LINE
  5
d3
  100
AcDbEntity
  8
1
  100
AcDbLine
  10
90
  20
1.5
  30
0
  11
85.5
  21
1.5
  31
0
  0
LINE
  5
d4
  100
AcDbEntity
  8
1
  100
AcDbLine
  10
85.5
  20
1.5
  30
0
  11
85.5
  21
1.425
  31
0
  0
LINE
  5
d5
  100
AcDbEntity
  8
1
  100
AcDbLine
  10
85.5
  20
1.425
  30
0
  11
55.63
  21
1.425
  31
0
  0
ARC
  5
d6
  100
AcDbEntity
  8
1
  100
AcDbCircle
  10
56.501557
  20
11.386947
  30
0
  40
10
  100
AcDbArc
  50
255
  51
265
  0
LINE
  5
d7
  100
AcDbEntity
  8
1
  100
AcDbLine
  10
53.913367
  20
1.727689
  30
0
  11
49.165037
  21
3
  31
0
  0
LINE
  5
d8
  100
AcDbEntity
  8
1
  100
AcDbLine
  10
49.165037
  20
3
  30
0
  11
49
  21
3
  31
0
  0
LINE
  5
d9
  100
AcDbEntity
  8
1
  100
AcDbLine
  10
49
  20
3
  30
0
  11
49
  21
-3
  31
0
  0
LINE
  5
da
  100
AcDbEntity
  8
1
  100
AcDbLine
  10
49
  20
-3
  30
0
  11
49.165037
  21
-3
  31
0
  0
LINE
  5
db
  100
AcDbEntity
  8
1
  100
AcDbLine
  10
49.165037
  20
-3
  30
0
  11
53.913367
  21
-1.727689
  31
0
  0
LINE
  5
dc
  100
AcDbEntity
  8
1
  100
AcDbLine
  10
53.913367
  20
-1.727689
  30
0
  11
53.913367
  21
1.727689
  31
0
  0
LINE
  5
dd
  100
AcDbEntity
  8
1
  100
AcDbLine
  10
55.63
  20
1.425
  30
0
  11
55.63
  21
-1.425
  31
0
  0
ARC
  5
de
  100
AcDbEntity
  8
1
  100
AcDbCircle
  10
56.501557
  20
-11.386947
  30
0
  40
10
  100
AcDbArc
  50
95
  51
105
  0
LINE
  5
df
  100
AcDbEntity
  8
1
  100
AcDbLine
  10
55.63
  20
-1.425
  30
0
  11
85.5
  21
-1.425
  31
0
  0
LINE
  5
e0
  100
AcDbEntity
  8
1
  100
AcDbLine
  10
85.5
  20
-1.425
  30
0
  11
85.5
  21
-1.5
  31
0
  0
LINE
  5
e1
  100
AcDbEntity
  8
1
  100
AcDbLine
  10
85.5
  20
-1.5
  30
0
  11
90
  21
-1.5
  31
0
  0
LINE
  5
e2
  100
AcDbEntity
  8
1
  100
AcDbLine
  10
90
  20
-1.5
  30
0
  11
90
  21
1.5
  31
0
  0
LINE
  5
e3
  100
AcDbEntity
  8
SK1
  100
AcDbLine
  10
49
  20
3
  30
0
  11
0.7
  21
3
  31
0
  0
LINE
  5
e4
  100
AcDbEntity
  8
SK1
  100
AcDbLine
  10
0.7
  20
3
  30
0
  11
0
  21
2.3
  31
0
  0
LINE
  5
e5
  100
AcDbEntity
  8
SK1
  100
AcDbLine
  10
49
  20
-3
  30
0
  11
0.7
  21
-3
  31
0
  0
LINE
  5
e6
  100
AcDbEntity
  8
SK1
  100
AcDbLine
  10
0.7
  20
-3
  30
0
  11
0
  21
-2.3
  31
0
  0
LINE
  5
e7
  100
AcDbEntity
  8
SK1
  100
AcDbLine
  10
0.7
  20
3
  30
0
  11
0.7
  21
-3
  31
0
  0
LINE
  5
e8
  100
AcDbEntity
  8
SK1
  100
AcDbLine
  10
0
  20
2.3
  30
0
  11
0
  21
-2.3
  31
0
  0
LINE
  5
e9
  100
AcDbEntity
  8
SK1
  100
AcDbLine
  10
50.0401
  20
1.40688
  30
0
  11
50.4069
  21
1.0401
  31
0
  0
LINE
  5
ea
  100
AcDbEntity
  8
SK1
  100
AcDbLine
  10
49.5328
  20
1.66666
  30
0
  11
50.6667
  21
0.532833
  31
0
  0
LINE
  5
eb
  100
AcDbEntity
  8
SK1
  100
AcDbLine
  10
49.2154
  20
1.73657
  30
0
  11
50.7366
  21
0.215434
  31
0
  0
LINE
  5
ec
  100
AcDbEntity
  8
SK1
  100
AcDbLine
  10
49
  20
1.70452
  30
0
  11
50.7045
  21
0
  31
0
  0
LINE
  5
ed
  100
AcDbEntity
  8
SK1
  100
AcDbLine
  10
49
  20
1.45703
  30
0
  11
50.457
  21
0
  31
0
  0
LINE
  5
ee
  100
AcDbEntity
  8
SK1
  100
AcDbLine
  10
49
  20
1.20954
  30
0
  11
50.2095
  21
0
  31
0
  0
LINE
  5
ef
  100
AcDbEntity
  8
SK1
  100
AcDbLine
  10
49
  20
0.962054
  30
0
  11
49.9621
  21
0
  31
0
  0
LINE
  5
f0
  100
AcDbEntity
  8
SK1
  100
AcDbLine
  10
49
  20
0.714566
  30
0
  11
49.7146
  21
0
  31
0
  0
LINE
  5
f1
  100
AcDbEntity
  8
SK1
  100
AcDbLine
  10
49
  20
0.467079
  30
0
  11
49.4671
  21
0
  31
0
  0
LINE
  5
f2
  100
AcDbEntity
  8
SK1
  100
AcDbLine
  10
49
  20
0.219592
  30
0
  11
49.2196
  21
0
  31
0
  0
LINE
  5
f3
  100
AcDbEntity
  8
SK1
  100
AcDbLine
  10
49
  20
1.70452
  30
0
  11
49.0441
  21
1.74861
  31
0
  0
LINE
  5
f4
  100
AcDbEntity
  8
SK1
  100
AcDbLine
  10
49
  20
1.45703
  30
0
  11
49.271
  21
1.72802
  31
0
  0
LINE
  5
f5
  100
AcDbEntity
  8
SK1
  100
AcDbLine
  10
49
  20
1.20954
  30
0
  11
49.4742
  21
1.6837
  31
0
  0
LINE
  5
f6
  100
AcDbEntity
  8
SK1
  100
AcDbLine
  10
49
  20
0.962054
  30
0
  11
49.6588
  21
1.62082
  31
0
  0
LINE
  5
f7
  100
AcDbEntity
  8
SK1
  100
AcDbLine
  10
49
  20
0.714566
  30
0
  11
49.8271
  21
1.54167
  31
0
  0
LINE
  5
f8
  100
AcDbEntity
  8
SK1
  100
AcDbLine
  10
49
  20
0.467079
  30
0
  11
49.981
  21
1.44812
  31
0
  0
LINE
  5
f9
  100
AcDbEntity
  8
SK1
  100
AcDbLine
  10
49
  20
0.219592
  30
0
  11
50.1226
  21
1.34216
  31
0
  0
LINE
  5
fa
  100
AcDbEntity
  8
SK1
  100
AcDbLine
  10
49.0279
  20
0
  30
0
  11
50.2508
  21
1.22288
  31
0
  0
LINE
  5
fb
  100
AcDbEntity
  8
SK1
  100
AcDbLine
  10
49.2754
  20
0
  30
0
  11
50.367
  21
1.09157
  31
0
  0
LINE
  5
fc
  100
AcDbEntity
  8
SK1
  100
AcDbLine
  10
49.5229
  20
0
  30
0
  11
50.4707
  21
0.947822
  31
0
  0
LINE
  5
fd
  100
AcDbEntity
  8
SK1
  100
AcDbLine
  10
49.7704
  20
0
  30
0
  11
50.5605
  21
0.790145
  31
0
  0
LINE
  5
fe
  100
AcDbEntity
  8
SK1
  100
AcDbLine
  10
50.0178
  20
0
  30
0
  11
50.6364
  21
0.618517
  31
0
  0
LINE
  5
ff
  100
AcDbEntity
  8
SK1
  100
AcDbLine
  10
50.2653
  20
0
  30
0
  11
50.696
  21
0.430696
  31
0
  0
LINE
  5
100
  100
AcDbEntity
  8
SK1
  100
AcDbLine
  10
50.5128
  20
0
  30
0
  11
50.7356
  21
0.222827
  31
0
  0
LINE
  5
101
  100
AcDbEntity
  8
SK1
  100
AcDbLine
  10
49
  20
0
  30
0
  11
49
  21
1.75
  31
0
  0
LINE
  5
102
  100
AcDbEntity
  8
SK1
  100
AcDbLine
  10
49
  20
0
  30
0
  11
50.75
  21
0
  31
0
  0
ARC
  5
103
  100
AcDbEntity
  8
SK1
  100
AcDbCircle
  10
49
  20
0
  30
0
  40
1.75
  100
AcDbArc
  50
0
  51
90
  0
ARC
  5
104
  100
AcDbEntity
  8
SK1
  100
AcDbCircle
  10
49
  20
0
  30
0
  40
1.75
  100
AcDbArc
  50
90
  51
180
  0
LINE
  5
105
  100
AcDbEntity
  8
SK1
  100
AcDbLine
  10
48.9721
  20
0
  30
0
  11
49
  21
-0.027896
  31
0
  0
LINE
  5
106
  100
AcDbEntity
  8
SK1
  100
AcDbLine
  10
48.7246
  20
0
  30
0
  11
49
  21
-0.275383
  31
0
  0
LINE
  5
107
  100
AcDbEntity
  8
SK1
  100
AcDbLine
  10
48.4771
  20
0
  30
0
  11
49
  21
-0.522871
  31
0
  0
LINE
  5
108
  100
AcDbEntity
  8
SK1
  100
AcDbLine
  10
48.2296
  20
0
  30
0
  11
49
  21
-0.770358
  31
0
  0
LINE
  5
109
  100
AcDbEntity
  8
SK1
  100
AcDbLine
  10
47.9822
  20
0
  30
0
  11
49
  21
-1.01785
  31
0
  0
LINE
  5
10a
  100
AcDbEntity
  8
SK1
  100
AcDbLine
  10
47.7347
  20
0
  30
0
  11
49
  21
-1.26533
  31
0
  0
LINE
  5
10b
  100
AcDbEntity
  8
SK1
  100
AcDbLine
  10
47.4872
  20
0
  30
0
  11
49
  21
-1.51282
  31
0
  0
LINE
  5
10c
  100
AcDbEntity
  8
SK1
  100
AcDbLine
  10
47.2503
  20
-0.010642
  30
0
  11
48.9894
  21
-1.74967
  31
0
  0
LINE
  5
10d
  100
AcDbEntity
  8
SK1
  100
AcDbLine
  10
47.2736
  20
-0.281429
  30
0
  11
48.7186
  21
-1.72637
  31
0
  0
LINE
  5
10e
  100
AcDbEntity
  8
SK1
  100
AcDbLine
  10
47.3639
  20
-0.619147
  30
0
  11
48.3809
  21
-1.63613
  31
0
  0
LINE
  5
10f
  100
AcDbEntity
  8
SK1
  100
AcDbLine
  10
47.2514
  20
-0.044098
  30
0
  11
47.2955
  21
0
  31
0
  0
LINE
  5
110
  100
AcDbEntity
  8
SK1
  100
AcDbLine
  10
47.272
  20
-0.270991
  30
0
  11
47.543
  21
0
  31
0
  0
LINE
  5
111
  100
AcDbEntity
  8
SK1
  100
AcDbLine
  10
47.3163
  20
-0.474162
  30
0
  11
47.7905
  21
0
  31
0
  0
LINE
  5
112
  100
AcDbEntity
  8
SK1
  100
AcDbLine
  10
47.3792
  20
-0.658762
  30
0
  11
48.0379
  21
0
  31
0
  0
LINE
  5
113
  100
AcDbEntity
  8
SK1
  100
AcDbLine
  10
47.4583
  20
-0.827105
  30
0
  11
48.2854
  21
0
  31
0
  0
LINE
  5
114
  100
AcDbEntity
  8
SK1
  100
AcDbLine
  10
47.5519
  20
-0.981039
  30
0
  11
48.5329
  21
0
  31
0
  0
LINE
  5
115
  100
AcDbEntity
  8
SK1
  100
AcDbLine
  10
47.6578
  20
-1.12257
  30
0
  11
48.7804
  21
0
  31
0
  0
LINE
  5
116
  100
AcDbEntity
  8
SK1
  100
AcDbLine
  10
47.7771
  20
-1.25077
  30
0
  11
49
  21
-0.027896
  31
0
  0
LINE
  5
117
  100
AcDbEntity
  8
SK1
  100
AcDbLine
  10
47.9084
  20
-1.36695
  30
0
  11
49
  21
-0.275383
  31
0
  0
LINE
  5
118
  100
AcDbEntity
  8
SK1
  100
AcDbLine
  10
48.0522
  20
-1.47069
  30
0
  11
49
  21
-0.522871
  31
0
  0
LINE
  5
119
  100
AcDbEntity
  8
SK1
  100
AcDbLine
  10
48.2099
  20
-1.5605
  30
0
  11
49
  21
-0.770358
  31
0
  0
LINE
  5
11a
  100
AcDbEntity
  8
SK1
  100
AcDbLine
  10
48.3815
  20
-1.63636
  30
0
  11
49
  21
-1.01785
  31
0
  0
LINE
  5
11b
  100
AcDbEntity
  8
SK1
  100
AcDbLine
  10
48.5693
  20
-1.69603
  30
0
  11
49
  21
-1.26533
  31
0
  0
LINE
  5
11c
  100
AcDbEntity
  8
SK1
  100
AcDbLine
  10
48.7772
  20
-1.73565
  30
0
  11
49
  21
-1.51282
  31
0
  0
LINE
  5
11d
  100
AcDbEntity
  8
SK1
  100
AcDbLine
  10
49
  20
0
  30
0
  11
47.25
  21
0
  31
0
  0
LINE
  5
11e
  100
AcDbEntity
  8
SK1
  100
AcDbLine
  10
49
  20
-1.75
  30
0
  11
49
  21
0
  31
0
  0
ARC
  5
11f
  100
AcDbEntity
  8
SK1
  100
AcDbCircle
  10
49
  20
0
  30
0
  40
1.75
  100
AcDbArc
  50
180
  51
270
  0
ARC
  5
120
  100
AcDbEntity
  8
SK1
  100
AcDbCircle
  10
49
  20
0
  30
0
  40
1.75
  100
AcDbArc
  50
270
  51
0
  0
LINE
  5
191
  100
AcDbEntity
  8
NOCUT
  100
AcDbLine
  10
85.5
  20
0
  30
0
  11
85.5
  21
1.425
  31
0
  0
LINE
  5
192
  100
AcDbEntity
  8
NOCUT
  100
AcDbLine
  10
85.5
  20
1.425
  30
0
  11
55.63
  21
1.425
  31
0
  0
ARC
  5
193
  100
AcDbEntity
  8
NOCUT
  100
AcDbCircle
  10
56.501557
  20
11.386947
  30
0
  40
10
  100
AcDbArc
  50
255
  51
265
  0
LINE
  5
194
  100
AcDbEntity
  8
NOCUT
  100
AcDbLine
  10
53.913367
  20
1.727689
  30
0
  11
49.165037
  21
3
  31
0
  0
LINE
  5
195
  100
AcDbEntity
  8
NOCUT
  100
AcDbLine
  10
49.165037
  20
3
  30
0
  11
49
  21
3
  31
0
  0
LINE
  5
196
  100
AcDbEntity
  8
NOCUT
  100
AcDbLine
  10
49
  20
3
  30
0
  11
49
  21
0
  31
0
  0
LINE
  5
197
  100
AcDbEntity
  8
NOCUT
  100
AcDbLine
  10
49
  20
0
  30
0
  11
85.5
  21
0
  31
0
  0
LINE
  5
198
  100
AcDbEntity
  8
CUT
  100
AcDbLine
  10
90
  20
0
  30
0
  11
90
  21
1.5
  31
0
  0
LINE
  5
199
  100
AcDbEntity
  8
CUT
  100
AcDbLine
  10
90
  20
1.5
  30
0
  11
85.5
  21
1.5
  31
0
  0
LINE
  5
19a
  100
AcDbEntity
  8
CUT
  100
AcDbLine
  10
85.5
  20
1.5
  30
0
  11
85.5
  21
0
  31
0
  0
LINE
  5
19b
  100
AcDbEntity
  8
CUT
  100
AcDbLine
  10
85.5
  20
0
  30
0
  11
90
  21
0
  31
0
  0
LINE
  5
19c
  100
AcDbEntity
  8
4
  100
AcDbLine
  10
49
  20
0
  30
0
  11
90
  21
0
  31
0
  0
LINE
  5
19d
  100
AcDbEntity
  8
SK4
  100
AcDbLine
  10
-1
  20
0
  30
0
  11
91
  21
0
  31
0
  0
LINE
  5
19e
  100
AcDbEntity
  8
INFTOTAL
  100
AcDbLine
  10
-17.7
  20
24.7
  30
0
  11
107.7
  21
24.7
  31
0
  0
LINE
  5
19f
  100
AcDbEntity
  8
INFTOTAL
  100
AcDbLine
  10
107.7
  20
24.7
  30
0
  11
107.7
  21
-17.086947
  31
0
  0
LINE
  5
1a0
  100
AcDbEntity
  8
INFTOTAL
  100
AcDbLine
  10
107.7
  20
-17.086947
  30
0
  11
-17.7
  21
-17.086947
  31
0
  0
LINE
  5
1a1
  100
AcDbEntity
  8
INFTOTAL
  100
AcDbLine
  10
-17.7
  20
-17.086947
  30
0
  11
-17.7
  21
24.7
  31
0
  0
ENDSEC
  0
SECTION
  2
OBJECTS
  0
DICTIONARY
  5
1a2
  330
0
100
AcDbDictionary
281
    1
  3
ACAD_GROUP
  350
1a3
  0
DICTIONARY
  5
1a3
102
{ACAD_REACTORS
  330
1a2
102
}
  330
1a2
100
AcDbDictionary
281
    1
  0
ENDSEC
  0
EOF
