  0
SECTION
  2
HEADER
  9
$ACADVER
  1
AC1015
  9
$DWGCODEPAGE
  3
ANSI_932
  9
$HANDSEED
  5
106AB90
  0
ENDSEC
  0
SECTION
  2
CLASSES
  0
CLASS
  1
IMAGEDEF
  2
AcDbRasterImageDef
  3
ISM
  90
0
  91
4
  280
0
  281
0
  0
CLASS
  1
IMAGE
  2
AcDbRasterImage
  3
ISM
  90
127
  91
5
  280
0
  281
1
  0
CLASS
  1
IMAGEDEF_REACTOR
  2
AcDbRasterImageDefReactor
  3
ISM
  90
1
  91
4
  280
0
  281
0
  0
ENDSEC
  0
SECTION
  2
TABLES
  0
TABLE
  2
VPORT
  5
2
  330
0
  100
AcDbSymbolTable
  70
    0
  0
ENDTAB
  0
TABLE
  2
LTYPE
  5
3
  330
0
  100
AcDbSymbolTable
  70
    4
  0
LTYPE
  5
4
  330
3
  100
AcDbSymbolTableRecord
  100
AcDbLinetypeTableRecord
  2
ByBlock
  70
    0
  3

  72
65
  73
    0
  40
0
  0
LTYPE
  5
5
  330
3
  100
AcDbSymbolTableRecord
  100
AcDbLinetypeTableRecord
  2
ByLayer
  70
    0
  3

  72
65
  73
    0
  40
0
  0
LTYPE
  5
6
  330
3
  100
AcDbSymbolTableRecord
  100
AcDbLinetypeTableRecord
  2
CONTINUOUS
  70
    0
  3
Solid Line
  72
65
  73
    0
  40
0
  0
LTYPE
  5
7
  330
3
  100
AcDbSymbolTableRecord
  100
AcDbLinetypeTableRecord
  2
DASH
  70
    0
  3
Hidden
  72
65
  73
2
  40
2.5
  49
1.5
  74
0
  49
-1
  74
0
  0
LTYPE
  5
8
  330
3
  100
AcDbSymbolTableRecord
  100
AcDbLinetypeTableRecord
  2
LONGDASHDASH
  70
    0
  3
__ . __
  72
65
  73
    4
  40
7
  49
4
  74
    0
  49
-1
  74
    0
  49
1
  74
    0
  49
-1
  74
    0
  0
ENDTAB
  0
TABLE
  2
LAYER
  5
9
  330
0
  100
AcDbSymbolTable
  70
    40
  0
LAYER
  5
a
  330
9
  100
AcDbSymbolTableRecord
  100
AcDbLayerTableRecord
  2
0
  70
    0
  62
    0
  6
CONTINUOUS
  390
0
  0
LAYER
  5
c
  330
9
  100
AcDbSymbolTableRecord
  100
AcDbLayerTableRecord
  2
1
  70
    0
  62
    4
  6
CONTINUOUS
  370
50
  390
0
  0
LAYER
  5
d
  330
9
  100
AcDbSymbolTableRecord
  100
AcDbLayerTableRecord
  2
2
  70
    0
  62
    7
  6
CONTINUOUS
  370
25
  390
0
  0
LAYER
  5
f
  330
9
  100
AcDbSymbolTableRecord
  100
AcDbLayerTableRecord
  2
4
  70
    0
  62
    2
  6
LONGDASHDASH
  370
25
  390
0
  0
LAYER
  5
13
  330
9
  100
AcDbSymbolTableRecord
  100
AcDbLayerTableRecord
  2
SK1
  70
    0
  62
    4
  6
CONTINUOUS
  370
50
  390
0
  0
LAYER
  5
14
  330
9
  100
AcDbSymbolTableRecord
  100
AcDbLayerTableRecord
  2
SK2
  70
    0
  62
    7
  6
CONTINUOUS
  370
25
  390
0
  0
LAYER
  5
16
  330
9
  100
AcDbSymbolTableRecord
  100
AcDbLayerTableRecord
  2
SK4
  70
    0
  62
    2
  6
LONGDASHDASH
  370
25
  390
0
  0
LAYER
  5
21
  330
9
  100
AcDbSymbolTableRecord
  100
AcDbLayerTableRecord
  2
NOCUT
  70
    0
  62
    7
  6
CONTINUOUS
  370
25
  390
0
  0
LAYER
  5
22
  330
9
  100
AcDbSymbolTableRecord
  100
AcDbLayerTableRecord
  2
CUT
  70
    0
  62
    1
  6
CONTINUOUS
  370
25
  390
0
  0
LAYER
  5
26
  330
9
  100
AcDbSymbolTableRecord
  100
AcDbLayerTableRecord
  2
INFTOTAL
  70
    0
  62
    9
  6
CONTINUOUS
  370
18
  390
0
  0
ENDTAB
  0
TABLE
  2
STYLE
  5
27
  330
0
  100
AcDbSymbolTable
  70
    1
  0
STYLE
  5
28
  330
27
  100
AcDbSymbolTableRecord
  100
AcDbTextStyleTableRecord
  2
Monospac821 BT
  70
    0
  40
    3.5
  41
1
  50
0
  71
0
  42
3
  3

  4

  1001
ACAD
  1000
Monospac821 BT
  1071
256
  0
ENDTAB
  0
TABLE
  2
VIEW
  5
29
  330
0
  100
AcDbSymbolTable
  70
    0
  0
ENDTAB
  0
TABLE
  2
UCS
  5
2a
  330
0
  100
AcDbSymbolTable
  70
    0
  0
ENDTAB
  0
TABLE
  2
APPID
  5
2b
  330
0
  100
AcDbSymbolTable
  70
    1
  0
APPID
  5
2c
  330
2b
  100
AcDbSymbolTableRecord
  100
AcDbRegAppTableRecord
  2
ACAD
  70
    0
  0
ENDTAB
  0
TABLE
  2
DIMSTYLE
  5
2d
  330
0
  100
AcDbSymbolTable
  70
    1
  100
AcDbDimStyleTable
  0
DIMSTYLE
  105
2e
  330
2d
  100
AcDbSymbolTableRecord
  100
AcDbDimStyleTableRecord
  2
STANDARD
  70
    0
  41
    3
  42
0.5
  44
1
  73
0
  77
1
  78
1
  140
3.5
  141
2.5
  143
0.03937
  147
0.8
  172
1
  174
1
  178
0
  179
1
  271
2
  279
1
  284
1
  340
28
  0
ENDTAB
  0
TABLE
  2
BLOCK_RECORD
  5
2f
  330
0
  100
AcDbSymbolTable
  70
    2
  0
BLOCK_RECORD
  5
30
  330
2f
  100
AcDbSymbolTableRecord
  100
AcDbBlockTableRecord
  2
*Model_Space
  0
BLOCK_RECORD
  5
31
  330
2f
  100
AcDbSymbolTableRecord
  100
AcDbBlockTableRecord
  2
*Paper_Space
  0
BLOCK_RECORD
  5
154
  330
2f
  100
AcDbSymbolTableRecord
  100
AcDbBlockTableRecord
  2
*D153
  340
0
  0
BLOCK_RECORD
  5
162
  330
2f
  100
AcDbSymbolTableRecord
  100
AcDbBlockTableRecord
  2
*D161
  340
0
  0
BLOCK_RECORD
  5
170
  330
2f
  100
AcDbSymbolTableRecord
  100
AcDbBlockTableRecord
  2
*D16f
  340
0
  0
BLOCK_RECORD
  5
17e
  330
2f
  100
AcDbSymbolTableRecord
  100
AcDbBlockTableRecord
  2
*D17d
  340
0
  0
BLOCK_RECORD
  5
18c
  330
2f
  100
AcDbSymbolTableRecord
  100
AcDbBlockTableRecord
  2
*D18b
  340
0
  0
BLOCK_RECORD
  5
19a
  330
2f
  100
AcDbSymbolTableRecord
  100
AcDbBlockTableRecord
  2
*D199
  340
0
  0
BLOCK_RECORD
  5
1a8
  330
2f
  100
AcDbSymbolTableRecord
  100
AcDbBlockTableRecord
  2
*D1a7
  340
0
  0
BLOCK_RECORD
  5
1b6
  330
2f
  100
AcDbSymbolTableRecord
  100
AcDbBlockTableRecord
  2
*D1b5
  340
0
  0
ENDTAB
  0
ENDSEC
  0
SECTION
  2
BLOCKS
  0
BLOCK
  5
32
  330
30
  100
AcDbEntity
  8
0
  100
AcDbBlockBegin
  2
*Model_Space
  70
    0
  10
0
  20
0
  30
0
  3
*Model_Space
  1

  0
ENDBLK
  5
33
  330
30
  100
AcDbEntity
  8
0
  100
AcDbBlockEnd
  0
BLOCK
  5
34
  330
31
  100
AcDbEntity
  8
0
  100
AcDbBlockBegin
  2
*Paper_Space
  70
    0
  10
0
  20
0
  30
0
  3
*Paper_Space
  1

  0
ENDBLK
  5
35
  330
31
  100
AcDbEntity
  8
0
  100
AcDbBlockEnd
  0
BLOCK
  5
152
  330
154
  100
AcDbEntity
  8
SK2
  100
AcDbBlockBegin
  2
*D153
  70
1
  10
0
  20
0
  30
0
  3
*D153
  1

  0
LINE
  5
155
  330
154
  100
AcDbEntity
  8
SK2
  100
AcDbLine
  10
0
  20
2.3
  30
0
  11
0
  21
19
  31
0
  0
LINE
  5
156
  330
154
  100
AcDbEntity
  8
SK2
  100
AcDbLine
  10
100
  20
2
  30
0
  11
100
  21
19
  31
0
  0
LINE
  5
157
  330
154
  100
AcDbEntity
  8
SK2
  100
AcDbLine
  10
0
  20
17
  30
0
  11
100
  21
17
  31
0
  0
SOLID
  5
158
  330
154
  100
AcDbEntity
  8
SK2
  100
AcDbTrace
  10
0
  20
17
  30
0
  11
2.478612
  21
17.326315
  31
0
  12
2.478612
  22
16.673685
  32
0
  13
2.478612
  23
16.673685
  33
0
  0
SOLID
  5
159
  330
154
  100
AcDbEntity
  8
SK2
  100
AcDbTrace
  10
100
  20
17
  30
0
  11
97.521388
  21
16.673685
  31
0
  12
97.521388
  22
17.326315
  32
0
  13
97.521388
  23
17.326315
  33
0
  0
MTEXT
  5
15a
  330
154
  100
AcDbEntity
  8
SK2
  100
AcDbMText
  10
50
  20
17
  30
0
  11
1
  21
0
  31
0
  40
2
  41
0
  71
8
  72
1
  1
100
  0
POINT
  5
15b
  330
154
  100
AcDbEntity
  8
SK2
  62
0
  100
AcDbPoint
  10
0
  20
2.3
  30
0
  0
POINT
  5
15c
  330
154
  100
AcDbEntity
  8
SK2
  62
0
  100
AcDbPoint
  10
100
  20
2
  30
0
  0
POINT
  5
15d
  330
154
  100
AcDbEntity
  8
SK2
  62
0
  100
AcDbPoint
  10
100
  20
17
  30
0
  0
ENDBLK
  5
15e
  330
154
  100
AcDbEntity
  8
SK2
  100
AcDbBlockEnd
  0
BLOCK
  5
160
  330
162
  100
AcDbEntity
  8
SK2
  100
AcDbBlockBegin
  2
*D161
  70
1
  10
0
  20
0
  30
0
  3
*D161
  1

  0
LINE
  5
163
  330
162
  100
AcDbEntity
  8
SK2
  100
AcDbLine
  10
45.8
  20
3
  30
0
  11
45.8
  21
8.790387
  31
0
  0
LINE
  5
164
  330
162
  100
AcDbEntity
  8
SK2
  100
AcDbLine
  10
0
  20
2.3
  30
0
  11
0
  21
8.790387
  31
0
  0
LINE
  5
165
  330
162
  100
AcDbEntity
  8
SK2
  100
AcDbLine
  10
45.8
  20
6.790387
  30
0
  11
0
  21
6.790387
  31
0
  0
SOLID
  5
166
  330
162
  100
AcDbEntity
  8
SK2
  100
AcDbTrace
  10
45.8
  20
6.790387
  30
0
  11
48.278612
  21
7.116702
  31
0
  12
48.278612
  22
6.464071
  32
0
  13
48.278612
  23
6.464071
  33
0
  0
SOLID
  5
167
  330
162
  100
AcDbEntity
  8
SK2
  100
AcDbTrace
  10
0
  20
6.790387
  30
0
  11
-2.478612
  21
6.464071
  31
0
  12
-2.478612
  22
7.116702
  32
0
  13
-2.478612
  23
7.116702
  33
0
  0
MTEXT
  5
168
  330
162
  100
AcDbEntity
  8
SK2
  100
AcDbMText
  10
22.9
  20
6.790387
  30
0
  11
1
  21
-0
  31
0
  40
2
  41
0
  71
8
  72
1
  1
45.8
  0
POINT
  5
169
  330
162
  100
AcDbEntity
  8
SK2
  62
0
  100
AcDbPoint
  10
45.8
  20
3
  30
0
  0
POINT
  5
16a
  330
162
  100
AcDbEntity
  8
SK2
  62
0
  100
AcDbPoint
  10
0
  20
2.3
  30
0
  0
POINT
  5
16b
  330
162
  100
AcDbEntity
  8
SK2
  62
0
  100
AcDbPoint
  10
0
  20
6.790387
  30
0
  0
ENDBLK
  5
16c
  330
162
  100
AcDbEntity
  8
SK2
  100
AcDbBlockEnd
  0
BLOCK
  5
16e
  330
170
  100
AcDbEntity
  8
SK2
  100
AcDbBlockBegin
  2
*D16f
  70
1
  10
0
  20
0
  30
0
  3
*D16f
  1

  0
LINE
  5
171
  330
170
  100
AcDbEntity
  8
SK2
  100
AcDbLine
  10
0.7
  20
-3
  30
0
  11
-12
  21
-3
  31
0
  0
LINE
  5
172
  330
170
  100
AcDbEntity
  8
SK2
  100
AcDbLine
  10
0.7
  20
3
  30
0
  11
-12
  21
3
  31
0
  0
LINE
  5
173
  330
170
  100
AcDbEntity
  8
SK2
  100
AcDbLine
  10
-10
  20
-3
  30
0
  11
-10
  21
3
  31
0
  0
SOLID
  5
174
  330
170
  100
AcDbEntity
  8
SK2
  100
AcDbTrace
  10
-10
  20
-3
  30
0
  11
-10.326315
  21
-0.521388
  31
0
  12
-9.673685
  22
-0.521388
  32
0
  13
-9.673685
  23
-0.521388
  33
0
  0
SOLID
  5
175
  330
170
  100
AcDbEntity
  8
SK2
  100
AcDbTrace
  10
-10
  20
3
  30
0
  11
-9.673685
  21
0.521388
  31
0
  12
-10.326315
  22
0.521388
  32
0
  13
-10.326315
  23
0.521388
  33
0
  0
MTEXT
  5
176
  330
170
  100
AcDbEntity
  8
SK2
  100
AcDbMText
  10
-10
  20
0
  30
0
  11
0
  21
1
  31
0
  40
2
  41
0
  71
8
  72
1
  1
ﾘ6
  0
POINT
  5
177
  330
170
  100
AcDbEntity
  8
SK2
  62
0
  100
AcDbPoint
  10
0.7
  20
-3
  30
0
  0
POINT
  5
178
  330
170
  100
AcDbEntity
  8
SK2
  62
0
  100
AcDbPoint
  10
0.7
  20
3
  30
0
  0
POINT
  5
179
  330
170
  100
AcDbEntity
  8
SK2
  62
0
  100
AcDbPoint
  10
-10
  20
3
  30
0
  0
ENDBLK
  5
17a
  330
170
  100
AcDbEntity
  8
SK2
  100
AcDbBlockEnd
  0
BLOCK
  5
17c
  330
17e
  100
AcDbEntity
  8
2
  100
AcDbBlockBegin
  2
*D17d
  70
1
  10
0
  20
0
  30
0
  3
*D17d
  1

  0
LINE
  5
17f
  330
17e
  100
AcDbEntity
  8
2
  100
AcDbLine
  10
100
  20
-2
  30
0
  11
112
  21
-2
  31
0
  0
LINE
  5
180
  330
17e
  100
AcDbEntity
  8
2
  100
AcDbLine
  10
100
  20
2
  30
0
  11
112
  21
2
  31
0
  0
LINE
  5
181
  330
17e
  100
AcDbEntity
  8
2
  100
AcDbLine
  10
110
  20
-4.158416
  30
0
  11
110
  21
2
  31
0
  0
SOLID
  5
182
  330
17e
  100
AcDbEntity
  8
2
  100
AcDbTrace
  10
110
  20
-2
  30
0
  11
109.673685
  21
0.478612
  31
0
  12
110.326315
  22
0.478612
  32
0
  13
110.326315
  23
0.478612
  33
0
  0
SOLID
  5
183
  330
17e
  100
AcDbEntity
  8
2
  100
AcDbTrace
  10
110
  20
2
  30
0
  11
110.326315
  21
-0.478612
  31
0
  12
109.673685
  22
-0.478612
  32
0
  13
109.673685
  23
-0.478612
  33
0
  0
MTEXT
  5
184
  330
17e
  100
AcDbEntity
  8
2
  100
AcDbMText
  10
110
  20
0
  30
0
  11
0
  21
1
  31
0
  40
2
  41
0
  71
8
  72
1
  1
ﾘ4
  0
POINT
  5
185
  330
17e
  100
AcDbEntity
  8
2
  62
0
  100
AcDbPoint
  10
100
  20
-2
  30
0
  0
POINT
  5
186
  330
17e
  100
AcDbEntity
  8
2
  62
0
  100
AcDbPoint
  10
100
  20
2
  30
0
  0
POINT
  5
187
  330
17e
  100
AcDbEntity
  8
2
  62
0
  100
AcDbPoint
  10
110
  20
2
  30
0
  0
ENDBLK
  5
188
  330
17e
  100
AcDbEntity
  8
2
  100
AcDbBlockEnd
  0
BLOCK
  5
18a
  330
18c
  100
AcDbEntity
  8
2
  100
AcDbBlockBegin
  2
*D18b
  70
1
  10
0
  20
0
  30
0
  3
*D18b
  1

  0
LINE
  5
18d
  330
18c
  100
AcDbEntity
  8
2
  100
AcDbLine
  10
94
  20
-1.925
  30
0
  11
92
  21
-1.925
  31
0
  0
LINE
  5
18e
  330
18c
  100
AcDbEntity
  8
2
  100
AcDbLine
  10
94
  20
1.925
  30
0
  11
92
  21
1.925
  31
0
  0
LINE
  5
18f
  330
18c
  100
AcDbEntity
  8
2
  100
AcDbLine
  10
94
  20
-1.925
  30
0
  11
94
  21
10.39604
  31
0
  0
SOLID
  5
190
  330
18c
  100
AcDbEntity
  8
2
  100
AcDbTrace
  10
94
  20
-1.925
  30
0
  11
93.673685
  21
0.553612
  31
0
  12
94.326315
  22
0.553612
  32
0
  13
94.326315
  23
0.553612
  33
0
  0
SOLID
  5
191
  330
18c
  100
AcDbEntity
  8
2
  100
AcDbTrace
  10
94
  20
1.925
  30
0
  11
94.326315
  21
-0.553612
  31
0
  12
93.673685
  22
-0.553612
  32
0
  13
93.673685
  23
-0.553612
  33
0
  0
MTEXT
  5
192
  330
18c
  100
AcDbEntity
  8
2
  100
AcDbMText
  10
94
  20
1.925
  30
0
  11
0
  21
1
  31
0
  40
2
  41
0
  71
8
  72
1
  1
ﾘ3.85
  0
POINT
  5
193
  330
18c
  100
AcDbEntity
  8
2
  62
0
  100
AcDbPoint
  10
92
  20
-1.925
  30
0
  0
POINT
  5
194
  330
18c
  100
AcDbEntity
  8
2
  62
0
  100
AcDbPoint
  10
92
  20
1.925
  30
0
  0
POINT
  5
195
  330
18c
  100
AcDbEntity
  8
2
  62
0
  100
AcDbPoint
  10
94
  20
10.39604
  30
0
  0
ENDBLK
  5
196
  330
18c
  100
AcDbEntity
  8
2
  100
AcDbBlockEnd
  0
BLOCK
  5
198
  330
19a
  100
AcDbEntity
  8
2
  100
AcDbBlockBegin
  2
*D199
  70
1
  10
0
  20
0
  30
0
  3
*D199
  1

  0
LINE
  5
19b
  330
19a
  100
AcDbEntity
  8
2
  100
AcDbLine
  10
94
  20
1.925
  30
0
  11
94
  21
10
  31
0
  0
LINE
  5
19c
  330
19a
  100
AcDbEntity
  8
2
  100
AcDbLine
  10
50.63
  20
1.925
  30
0
  11
50.63
  21
10
  31
0
  0
LINE
  5
19d
  330
19a
  100
AcDbEntity
  8
2
  100
AcDbLine
  10
94
  20
8
  30
0
  11
50.63
  21
8
  31
0
  0
SOLID
  5
19e
  330
19a
  100
AcDbEntity
  8
2
  100
AcDbTrace
  10
94
  20
8
  30
0
  11
96.478612
  21
8.326315
  31
0
  12
96.478612
  22
7.673685
  32
0
  13
96.478612
  23
7.673685
  33
0
  0
SOLID
  5
19f
  330
19a
  100
AcDbEntity
  8
2
  100
AcDbTrace
  10
50.63
  20
8
  30
0
  11
48.151388
  21
7.673685
  31
0
  12
48.151388
  22
8.326315
  32
0
  13
48.151388
  23
8.326315
  33
0
  0
MTEXT
  5
1a0
  330
19a
  100
AcDbEntity
  8
2
  100
AcDbMText
  10
72.315
  20
8
  30
0
  11
1
  21
-0
  31
0
  40
2
  41
0
  71
8
  72
1
  1
43.37
  0
POINT
  5
1a1
  330
19a
  100
AcDbEntity
  8
2
  62
0
  100
AcDbPoint
  10
94
  20
1.925
  30
0
  0
POINT
  5
1a2
  330
19a
  100
AcDbEntity
  8
2
  62
0
  100
AcDbPoint
  10
50.63
  20
1.925
  30
0
  0
POINT
  5
1a3
  330
19a
  100
AcDbEntity
  8
2
  62
0
  100
AcDbPoint
  10
50.63
  20
8
  30
0
  0
ENDBLK
  5
1a4
  330
19a
  100
AcDbEntity
  8
2
  100
AcDbBlockEnd
  0
BLOCK
  5
1a6
  330
1a8
  100
AcDbEntity
  8
2
  100
AcDbBlockBegin
  2
*D1a7
  70
1
  10
0
  20
0
  30
0
  3
*D1a7
  1

  0
LINE
  5
1a9
  330
1a8
  100
AcDbEntity
  8
2
  100
AcDbLine
  10
100
  20
2
  30
0
  11
100
  21
19
  31
0
  0
LINE
  5
1aa
  330
1a8
  100
AcDbEntity
  8
2
  100
AcDbLine
  10
45.8
  20
3
  30
0
  11
45.8
  21
10
  31
0
  0
LINE
  5
1ab
  330
1a8
  100
AcDbEntity
  8
2
  100
AcDbLine
  10
100
  20
8
  30
0
  11
45.8
  21
8
  31
0
  0
SOLID
  5
1ac
  330
1a8
  100
AcDbEntity
  8
2
  100
AcDbTrace
  10
100
  20
8
  30
0
  11
102.478612
  21
8.326315
  31
0
  12
102.478612
  22
7.673685
  32
0
  13
102.478612
  23
7.673685
  33
0
  0
SOLID
  5
1ad
  330
1a8
  100
AcDbEntity
  8
2
  100
AcDbTrace
  10
45.8
  20
8
  30
0
  11
43.321388
  21
7.673685
  31
0
  12
43.321388
  22
8.326315
  32
0
  13
43.321388
  23
8.326315
  33
0
  0
MTEXT
  5
1ae
  330
1a8
  100
AcDbEntity
  8
2
  100
AcDbMText
  10
72.9
  20
8
  30
0
  11
1
  21
-0
  31
0
  40
2
  41
0
  71
8
  72
1
  1
54.2
  0
POINT
  5
1af
  330
1a8
  100
AcDbEntity
  8
2
  62
0
  100
AcDbPoint
  10
100
  20
19
  30
0
  0
POINT
  5
1b0
  330
1a8
  100
AcDbEntity
  8
2
  62
0
  100
AcDbPoint
  10
45.8
  20
3
  30
0
  0
POINT
  5
1b1
  330
1a8
  100
AcDbEntity
  8
2
  62
0
  100
AcDbPoint
  10
45.8
  20
8
  30
0
  0
ENDBLK
  5
1b2
  330
1a8
  100
AcDbEntity
  8
2
  100
AcDbBlockEnd
  0
BLOCK
  5
1b4
  330
1b6
  100
AcDbEntity
  8
2
  100
AcDbBlockBegin
  2
*D1b5
  70
1
  10
0
  20
0
  30
0
  3
*D1b5
  1

  0
LINE
  5
1b7
  330
1b6
  100
AcDbEntity
  8
2
  100
AcDbLine
  10
100
  20
-7.238525
  30
0
  11
100
  21
-2
  31
0
  0
LINE
  5
1b8
  330
1b6
  100
AcDbEntity
  8
2
  100
AcDbLine
  10
94
  20
-7.238525
  30
0
  11
94
  21
-1.925
  31
0
  0
LINE
  5
1b9
  330
1b6
  100
AcDbEntity
  8
2
  100
AcDbLine
  10
100
  20
-5.238525
  30
0
  11
94
  21
-5.238525
  31
0
  0
SOLID
  5
1ba
  330
1b6
  100
AcDbEntity
  8
2
  100
AcDbTrace
  10
100
  20
-5.238525
  30
0
  11
102.478612
  21
-4.91221
  31
0
  12
102.478612
  22
-5.564841
  32
0
  13
102.478612
  23
-5.564841
  33
0
  0
SOLID
  5
1bb
  330
1b6
  100
AcDbEntity
  8
2
  100
AcDbTrace
  10
94
  20
-5.238525
  30
0
  11
91.521388
  21
-5.564841
  31
0
  12
91.521388
  22
-4.91221
  32
0
  13
91.521388
  23
-4.91221
  33
0
  0
MTEXT
  5
1bc
  330
1b6
  100
AcDbEntity
  8
2
  100
AcDbMText
  10
97
  20
-5.238525
  30
0
  11
1
  21
-0
  31
0
  40
2
  41
0
  71
8
  72
1
  1
6
  0
POINT
  5
1bd
  330
1b6
  100
AcDbEntity
  8
2
  62
0
  100
AcDbPoint
  10
100
  20
-2
  30
0
  0
POINT
  5
1be
  330
1b6
  100
AcDbEntity
  8
2
  62
0
  100
AcDbPoint
  10
94
  20
-1.925
  30
0
  0
POINT
  5
1bf
  330
1b6
  100
AcDbEntity
  8
2
  62
0
  100
AcDbPoint
  10
94
  20
-5.238525
  30
0
  0
ENDBLK
  5
1c0
  330
1b6
  100
AcDbEntity
  8
2
  100
AcDbBlockEnd
  0
ENDSEC
  0
SECTION
  2
ENTITIES
  0
DIMENSION
  5
15f
  100
AcDbEntity
  8
SK2
  100
AcDbDimension
  2
*D153
  10
100
  20
17
  30
0
  11
50
  21
17
  31
0
  70
160
  1
<>
  71
5
  3
STANDARD
  42
100
  100
AcDbAlignedDimension
  13
0
  23
2.3
  33
0
  14
100
  24
2
  34
0
  50
0
  100
AcDbRotatedDimension
  0
DIMENSION
  5
16d
  100
AcDbEntity
  8
SK2
  100
AcDbDimension
  2
*D161
  10
0
  20
6.790387
  30
0
  11
22.9
  21
6.790387
  31
0
  70
160
  1
<>
  71
5
  3
STANDARD
  42
45.8
  100
AcDbAlignedDimension
  13
45.8
  23
3
  33
0
  14
0
  24
2.3
  34
0
  50
0
  100
AcDbRotatedDimension
  0
DIMENSION
  5
17b
  100
AcDbEntity
  8
SK2
  100
AcDbDimension
  2
*D16f
  10
-10
  20
3
  30
0
  11
-10
  21
0
  31
0
  70
160
  1
%%c<>
  71
5
  3
STANDARD
  42
6
  100
AcDbAlignedDimension
  13
0.7
  23
-3
  33
0
  14
0.7
  24
3
  34
0
  50
-90
  100
AcDbRotatedDimension
  0
DIMENSION
  5
189
  100
AcDbEntity
  8
2
  100
AcDbDimension
  2
*D17d
  10
110
  20
2
  30
0
  11
110
  21
0
  31
0
  70
160
  1
%%c<>
  71
5
  3
STANDARD
  42
4
  100
AcDbAlignedDimension
  13
100
  23
-2
  33
0
  14
100
  24
2
  34
0
  50
-90
  100
AcDbRotatedDimension
  0
DIMENSION
  5
197
  100
AcDbEntity
  8
2
  100
AcDbDimension
  2
*D18b
  10
94
  20
10.39604
  30
0
  11
94
  21
1.925
  31
0
  70
160
  1
%%c<>
  71
5
  3
STANDARD
  42
3.85
  100
AcDbAlignedDimension
  13
92
  23
-1.925
  33
0
  14
92
  24
1.925
  34
0
  50
-90
  100
AcDbRotatedDimension
  0
DIMENSION
  5
1a5
  100
AcDbEntity
  8
2
  100
AcDbDimension
  2
*D199
  10
50.63
  20
8
  30
0
  11
72.315
  21
8
  31
0
  70
160
  1
<>
  71
5
  3
STANDARD
  42
43.37
  100
AcDbAlignedDimension
  13
94
  23
1.925
  33
0
  14
50.63
  24
1.925
  34
0
  50
0
  100
AcDbRotatedDimension
  0
DIMENSION
  5
1b3
  100
AcDbEntity
  8
2
  100
AcDbDimension
  2
*D1a7
  10
45.8
  20
8
  30
0
  11
72.9
  21
8
  31
0
  70
160
  1
<>
  71
5
  3
STANDARD
  42
54.2
  100
AcDbAlignedDimension
  13
100
  23
19
  33
0
  14
45.8
  24
3
  34
0
  50
0
  100
AcDbRotatedDimension
  0
DIMENSION
  5
1c1
  100
AcDbEntity
  8
2
  100
AcDbDimension
  2
*D1b5
  10
94
  20
-5.238525
  30
0
  11
97
  21
-5.238525
  31
0
  70
160
  1
<>
  71
5
  3
STANDARD
  42
6
  100
AcDbAlignedDimension
  13
100
  23
-2
  33
0
  14
94
  24
-1.925
  34
0
  50
0
  100
AcDbRotatedDimension
  0
LINE
  5
36
  100
AcDbEntity
  8
1
  100
AcDbLine
  10
45.8
  20
-3
  30
0
  11
45.8
  21
3
  31
0
  0
LINE
  5
37
  100
AcDbEntity
  8
1
  100
AcDbLine
  10
45.8
  20
3
  30
0
  11
45.8
  21
-3
  31
0
  0
LINE
  5
38
  100
AcDbEntity
  8
1
  100
AcDbLine
  10
46.031062
  20
-3
  30
0
  11
46.031062
  21
3
  31
0
  0
LINE
  5
39
  100
AcDbEntity
  8
1
  100
AcDbLine
  10
93.334763
  20
1.925
  30
0
  11
93.4
  21
1.732146
  31
0
  0
LINE
  5
3a
  100
AcDbEntity
  8
1
  100
AcDbLine
  10
93.4
  20
1.732146
  30
0
  11
93.5
  21
1.38522
  31
0
  0
LINE
  5
3b
  100
AcDbEntity
  8
1
  100
AcDbLine
  10
93.5
  20
1.38522
  30
0
  11
93.6
  21
1.19181
  31
0
  0
LINE
  5
3c
  100
AcDbEntity
  8
1
  100
AcDbLine
  10
93.6
  20
1.19181
  30
0
  11
93.7
  21
1.098961
  31
0
  0
LINE
  5
3d
  100
AcDbEntity
  8
1
  100
AcDbLine
  10
93.7
  20
1.098961
  30
0
  11
93.8
  21
1.042944
  31
0
  0
LINE
  5
3e
  100
AcDbEntity
  8
1
  100
AcDbLine
  10
93.8
  20
1.042944
  30
0
  11
93.9
  21
0.994848
  31
0
  0
LINE
  5
3f
  100
AcDbEntity
  8
1
  100
AcDbLine
  10
93.9
  20
0.994848
  30
0
  11
94
  21
0.946851
  31
0
  0
LINE
  5
40
  100
AcDbEntity
  8
1
  100
AcDbLine
  10
94
  20
0.946851
  30
0
  11
94
  21
0.976914
  31
0
  0
LINE
  5
41
  100
AcDbEntity
  8
1
  100
AcDbLine
  10
94
  20
0.976914
  30
0
  11
94.1
  21
0.926135
  31
0
  0
LINE
  5
42
  100
AcDbEntity
  8
1
  100
AcDbLine
  10
94.1
  20
0.926135
  30
0
  11
94.2
  21
0.874584
  31
0
  0
LINE
  5
43
  100
AcDbEntity
  8
1
  100
AcDbLine
  10
94.2
  20
0.874584
  30
0
  11
94.3
  21
0.822305
  31
0
  0
LINE
  5
44
  100
AcDbEntity
  8
1
  100
AcDbLine
  10
94.3
  20
0.822305
  30
0
  11
94.4
  21
0.76934
  31
0
  0
LINE
  5
45
  100
AcDbEntity
  8
1
  100
AcDbLine
  10
94.4
  20
0.76934
  30
0
  11
94.5
  21
0.715734
  31
0
  0
LINE
  5
46
  100
AcDbEntity
  8
1
  100
AcDbLine
  10
94.5
  20
0.715734
  30
0
  11
94.6
  21
0.661532
  31
0
  0
LINE
  5
47
  100
AcDbEntity
  8
1
  100
AcDbLine
  10
94.6
  20
0.661532
  30
0
  11
94.7
  21
0.606779
  31
0
  0
LINE
  5
48
  100
AcDbEntity
  8
1
  100
AcDbLine
  10
94.7
  20
0.606779
  30
0
  11
94.8
  21
0.55152
  31
0
  0
LINE
  5
49
  100
AcDbEntity
  8
1
  100
AcDbLine
  10
94.8
  20
0.55152
  30
0
  11
94.9
  21
0.495801
  31
0
  0
LINE
  5
4a
  100
AcDbEntity
  8
1
  100
AcDbLine
  10
94.9
  20
0.495801
  30
0
  11
95
  21
0.43967
  31
0
  0
LINE
  5
4b
  100
AcDbEntity
  8
1
  100
AcDbLine
  10
95
  20
0.43967
  30
0
  11
95.1
  21
0.383172
  31
0
  0
LINE
  5
4c
  100
AcDbEntity
  8
1
  100
AcDbLine
  10
95.1
  20
0.383172
  30
0
  11
95.2
  21
0.326354
  31
0
  0
LINE
  5
4d
  100
AcDbEntity
  8
1
  100
AcDbLine
  10
95.2
  20
0.326354
  30
0
  11
95.3
  21
0.269265
  31
0
  0
LINE
  5
4e
  100
AcDbEntity
  8
1
  100
AcDbLine
  10
95.3
  20
0.269265
  30
0
  11
95.4
  21
0.211952
  31
0
  0
LINE
  5
4f
  100
AcDbEntity
  8
1
  100
AcDbLine
  10
95.4
  20
0.211952
  30
0
  11
95.5
  21
0.154461
  31
0
  0
LINE
  5
50
  100
AcDbEntity
  8
1
  100
AcDbLine
  10
95.5
  20
0.154461
  30
0
  11
95.6
  21
0.096842
  31
0
  0
LINE
  5
51
  100
AcDbEntity
  8
1
  100
AcDbLine
  10
95.6
  20
0.096842
  30
0
  11
95.7
  21
0.039143
  31
0
  0
LINE
  5
52
  100
AcDbEntity
  8
1
  100
AcDbLine
  10
95.7
  20
0.039143
  30
0
  11
95.8
  21
-0.01859
  31
0
  0
LINE
  5
53
  100
AcDbEntity
  8
1
  100
AcDbLine
  10
95.8
  20
-0.01859
  30
0
  11
95.9
  21
-0.076306
  31
0
  0
LINE
  5
54
  100
AcDbEntity
  8
1
  100
AcDbLine
  10
95.9
  20
-0.076306
  30
0
  11
96
  21
-0.13396
  31
0
  0
LINE
  5
55
  100
AcDbEntity
  8
1
  100
AcDbLine
  10
96
  20
-0.13396
  30
0
  11
96.1
  21
-0.191501
  31
0
  0
LINE
  5
56
  100
AcDbEntity
  8
1
  100
AcDbLine
  10
96.1
  20
-0.191501
  30
0
  11
96.2
  21
-0.248883
  31
0
  0
LINE
  5
57
  100
AcDbEntity
  8
1
  100
AcDbLine
  10
96.2
  20
-0.248883
  30
0
  11
96.3
  21
-0.306058
  31
0
  0
LINE
  5
58
  100
AcDbEntity
  8
1
  100
AcDbLine
  10
96.3
  20
-0.306058
  30
0
  11
96.4
  21
-0.362977
  31
0
  0
LINE
  5
59
  100
AcDbEntity
  8
1
  100
AcDbLine
  10
96.4
  20
-0.362977
  30
0
  11
96.5
  21
-0.419594
  31
0
  0
LINE
  5
5a
  100
AcDbEntity
  8
1
  100
AcDbLine
  10
96.5
  20
-0.419594
  30
0
  11
96.6
  21
-0.475862
  31
0
  0
LINE
  5
5b
  100
AcDbEntity
  8
1
  100
AcDbLine
  10
96.6
  20
-0.475862
  30
0
  11
96.7
  21
-0.531733
  31
0
  0
LINE
  5
5c
  100
AcDbEntity
  8
1
  100
AcDbLine
  10
96.7
  20
-0.531733
  30
0
  11
96.8
  21
-0.587161
  31
0
  0
LINE
  5
5d
  100
AcDbEntity
  8
1
  100
AcDbLine
  10
96.8
  20
-0.587161
  30
0
  11
96.9
  21
-0.642099
  31
0
  0
LINE
  5
5e
  100
AcDbEntity
  8
1
  100
AcDbLine
  10
96.9
  20
-0.642099
  30
0
  11
97
  21
-0.696503
  31
0
  0
LINE
  5
5f
  100
AcDbEntity
  8
1
  100
AcDbLine
  10
97
  20
-0.696503
  30
0
  11
97.1
  21
-0.750326
  31
0
  0
LINE
  5
60
  100
AcDbEntity
  8
1
  100
AcDbLine
  10
97.1
  20
-0.750326
  30
0
  11
97.2
  21
-0.803524
  31
0
  0
LINE
  5
61
  100
AcDbEntity
  8
1
  100
AcDbLine
  10
97.2
  20
-0.803524
  30
0
  11
97.3
  21
-0.856052
  31
0
  0
LINE
  5
62
  100
AcDbEntity
  8
1
  100
AcDbLine
  10
97.3
  20
-0.856052
  30
0
  11
97.4
  21
-0.907867
  31
0
  0
LINE
  5
63
  100
AcDbEntity
  8
1
  100
AcDbLine
  10
97.4
  20
-0.907867
  30
0
  11
97.5
  21
-0.958926
  31
0
  0
LINE
  5
64
  100
AcDbEntity
  8
1
  100
AcDbLine
  10
97.5
  20
-0.958926
  30
0
  11
97.6
  21
-1.009185
  31
0
  0
LINE
  5
65
  100
AcDbEntity
  8
1
  100
AcDbLine
  10
97.6
  20
-1.009185
  30
0
  11
97.7
  21
-1.058604
  31
0
  0
LINE
  5
66
  100
AcDbEntity
  8
1
  100
AcDbLine
  10
97.7
  20
-1.058604
  30
0
  11
97.8
  21
-1.10714
  31
0
  0
LINE
  5
67
  100
AcDbEntity
  8
1
  100
AcDbLine
  10
97.8
  20
-1.10714
  30
0
  11
97.9
  21
-1.154754
  31
0
  0
LINE
  5
68
  100
AcDbEntity
  8
1
  100
AcDbLine
  10
97.9
  20
-1.154754
  30
0
  11
98
  21
-1.201406
  31
0
  0
LINE
  5
69
  100
AcDbEntity
  8
1
  100
AcDbLine
  10
98
  20
-1.201406
  30
0
  11
98.1
  21
-1.247057
  31
0
  0
LINE
  5
6a
  100
AcDbEntity
  8
1
  100
AcDbLine
  10
98.1
  20
-1.247057
  30
0
  11
98.2
  21
-1.291668
  31
0
  0
LINE
  5
6b
  100
AcDbEntity
  8
1
  100
AcDbLine
  10
98.2
  20
-1.291668
  30
0
  11
98.3
  21
-1.335203
  31
0
  0
LINE
  5
6c
  100
AcDbEntity
  8
1
  100
AcDbLine
  10
98.3
  20
-1.335203
  30
0
  11
98.4
  21
-1.377626
  31
0
  0
LINE
  5
6d
  100
AcDbEntity
  8
1
  100
AcDbLine
  10
98.4
  20
-1.377626
  30
0
  11
98.5
  21
-1.4189
  31
0
  0
LINE
  5
6e
  100
AcDbEntity
  8
1
  100
AcDbLine
  10
98.5
  20
-1.4189
  30
0
  11
98.6
  21
-1.458993
  31
0
  0
LINE
  5
6f
  100
AcDbEntity
  8
1
  100
AcDbLine
  10
98.6
  20
-1.458993
  30
0
  11
98.7
  21
-1.497869
  31
0
  0
LINE
  5
70
  100
AcDbEntity
  8
1
  100
AcDbLine
  10
98.7
  20
-1.497869
  30
0
  11
98.8
  21
-1.535498
  31
0
  0
LINE
  5
71
  100
AcDbEntity
  8
1
  100
AcDbLine
  10
98.8
  20
-1.535498
  30
0
  11
98.9
  21
-1.571846
  31
0
  0
LINE
  5
72
  100
AcDbEntity
  8
1
  100
AcDbLine
  10
98.9
  20
-1.571846
  30
0
  11
99
  21
-1.606886
  31
0
  0
LINE
  5
73
  100
AcDbEntity
  8
1
  100
AcDbLine
  10
99
  20
-1.606886
  30
0
  11
99.1
  21
-1.640586
  31
0
  0
LINE
  5
74
  100
AcDbEntity
  8
1
  100
AcDbLine
  10
99.1
  20
-1.640586
  30
0
  11
99.2
  21
-1.672919
  31
0
  0
LINE
  5
75
  100
AcDbEntity
  8
1
  100
AcDbLine
  10
99.2
  20
-1.672919
  30
0
  11
99.3
  21
-1.703858
  31
0
  0
LINE
  5
76
  100
AcDbEntity
  8
1
  100
AcDbLine
  10
99.3
  20
-1.703858
  30
0
  11
99.4
  21
-1.733377
  31
0
  0
LINE
  5
77
  100
AcDbEntity
  8
1
  100
AcDbLine
  10
99.4
  20
-1.733377
  30
0
  11
99.5
  21
-1.761452
  31
0
  0
LINE
  5
78
  100
AcDbEntity
  8
1
  100
AcDbLine
  10
99.5
  20
-1.761452
  30
0
  11
99.6
  21
-1.788059
  31
0
  0
LINE
  5
79
  100
AcDbEntity
  8
1
  100
AcDbLine
  10
99.6
  20
-1.788059
  30
0
  11
99.7
  21
-1.813176
  31
0
  0
LINE
  5
7a
  100
AcDbEntity
  8
1
  100
AcDbLine
  10
99.7
  20
-1.813176
  30
0
  11
99.8
  21
-1.836783
  31
0
  0
LINE
  5
7b
  100
AcDbEntity
  8
1
  100
AcDbLine
  10
99.8
  20
-1.836783
  30
0
  11
99.9
  21
-1.858858
  31
0
  0
LINE
  5
7c
  100
AcDbEntity
  8
1
  100
AcDbLine
  10
99.9
  20
-1.858858
  30
0
  11
100
  21
-1.879385
  31
0
  0
LINE
  5
7d
  100
AcDbEntity
  8
1
  100
AcDbLine
  10
100
  20
-1.96527
  30
0
  11
99.9
  21
-1.958767
  31
0
  0
LINE
  5
7e
  100
AcDbEntity
  8
1
  100
AcDbLine
  10
99.9
  20
-1.958767
  30
0
  11
99.8
  21
-1.950631
  31
0
  0
LINE
  5
7f
  100
AcDbEntity
  8
1
  100
AcDbLine
  10
99.8
  20
-1.950631
  30
0
  11
99.7
  21
-1.940869
  31
0
  0
LINE
  5
80
  100
AcDbEntity
  8
1
  100
AcDbLine
  10
99.7
  20
-1.940869
  30
0
  11
99.6
  21
-1.92949
  31
0
  0
LINE
  5
81
  100
AcDbEntity
  8
1
  100
AcDbLine
  10
99.6
  20
-1.92949
  30
0
  11
99.5
  21
-1.916504
  31
0
  0
LINE
  5
82
  100
AcDbEntity
  8
1
  100
AcDbLine
  10
99.5
  20
-1.916504
  30
0
  11
99.4
  21
-1.901921
  31
0
  0
LINE
  5
83
  100
AcDbEntity
  8
1
  100
AcDbLine
  10
99.4
  20
-1.901921
  30
0
  11
99.3
  21
-1.885752
  31
0
  0
LINE
  5
84
  100
AcDbEntity
  8
1
  100
AcDbLine
  10
99.3
  20
-1.885752
  30
0
  11
99.2
  21
-1.868013
  31
0
  0
LINE
  5
85
  100
AcDbEntity
  8
1
  100
AcDbLine
  10
99.2
  20
-1.868013
  30
0
  11
99.1
  21
-1.848716
  31
0
  0
LINE
  5
86
  100
AcDbEntity
  8
1
  100
AcDbLine
  10
99.1
  20
-1.848716
  30
0
  11
99
  21
-1.82788
  31
0
  0
LINE
  5
87
  100
AcDbEntity
  8
1
  100
AcDbLine
  10
99
  20
-1.82788
  30
0
  11
98.9
  21
-1.80552
  31
0
  0
LINE
  5
88
  100
AcDbEntity
  8
1
  100
AcDbLine
  10
98.9
  20
-1.80552
  30
0
  11
98.8
  21
-1.781656
  31
0
  0
LINE
  5
89
  100
AcDbEntity
  8
1
  100
AcDbLine
  10
98.8
  20
-1.781656
  30
0
  11
98.7
  21
-1.756307
  31
0
  0
LINE
  5
8a
  100
AcDbEntity
  8
1
  100
AcDbLine
  10
98.7
  20
-1.756307
  30
0
  11
98.6
  21
-1.729494
  31
0
  0
LINE
  5
8b
  100
AcDbEntity
  8
1
  100
AcDbLine
  10
98.6
  20
-1.729494
  30
0
  11
98.5
  21
-1.701241
  31
0
  0
LINE
  5
8c
  100
AcDbEntity
  8
1
  100
AcDbLine
  10
98.5
  20
-1.701241
  30
0
  11
98.4
  21
-1.671569
  31
0
  0
LINE
  5
8d
  100
AcDbEntity
  8
1
  100
AcDbLine
  10
98.4
  20
-1.671569
  30
0
  11
98.3
  21
-1.640505
  31
0
  0
LINE
  5
8e
  100
AcDbEntity
  8
1
  100
AcDbLine
  10
98.3
  20
-1.640505
  30
0
  11
98.2
  21
-1.608074
  31
0
  0
LINE
  5
8f
  100
AcDbEntity
  8
1
  100
AcDbLine
  10
98.2
  20
-1.608074
  30
0
  11
98.1
  21
-1.574303
  31
0
  0
LINE
  5
90
  100
AcDbEntity
  8
1
  100
AcDbLine
  10
98.1
  20
-1.574303
  30
0
  11
98
  21
-1.539221
  31
0
  0
LINE
  5
91
  100
AcDbEntity
  8
1
  100
AcDbLine
  10
98
  20
-1.539221
  30
0
  11
97.9
  21
-1.502855
  31
0
  0
LINE
  5
92
  100
AcDbEntity
  8
1
  100
AcDbLine
  10
97.9
  20
-1.502855
  30
0
  11
97.8
  21
-1.465237
  31
0
  0
LINE
  5
93
  100
AcDbEntity
  8
1
  100
AcDbLine
  10
97.8
  20
-1.465237
  30
0
  11
97.7
  21
-1.426399
  31
0
  0
LINE
  5
94
  100
AcDbEntity
  8
1
  100
AcDbLine
  10
97.7
  20
-1.426399
  30
0
  11
97.6
  21
-1.386372
  31
0
  0
LINE
  5
95
  100
AcDbEntity
  8
1
  100
AcDbLine
  10
97.6
  20
-1.386372
  30
0
  11
97.5
  21
-1.345189
  31
0
  0
LINE
  5
96
  100
AcDbEntity
  8
1
  100
AcDbLine
  10
97.5
  20
-1.345189
  30
0
  11
97.4
  21
-1.302886
  31
0
  0
LINE
  5
97
  100
AcDbEntity
  8
1
  100
AcDbLine
  10
97.4
  20
-1.302886
  30
0
  11
97.3
  21
-1.259497
  31
0
  0
LINE
  5
98
  100
AcDbEntity
  8
1
  100
AcDbLine
  10
97.3
  20
-1.259497
  30
0
  11
97.2
  21
-1.215058
  31
0
  0
LINE
  5
99
  100
AcDbEntity
  8
1
  100
AcDbLine
  10
97.2
  20
-1.215058
  30
0
  11
97.1
  21
-1.169607
  31
0
  0
LINE
  5
9a
  100
AcDbEntity
  8
1
  100
AcDbLine
  10
97.1
  20
-1.169607
  30
0
  11
97
  21
-1.123181
  31
0
  0
LINE
  5
9b
  100
AcDbEntity
  8
1
  100
AcDbLine
  10
97
  20
-1.123181
  30
0
  11
96.9
  21
-1.07582
  31
0
  0
LINE
  5
9c
  100
AcDbEntity
  8
1
  100
AcDbLine
  10
96.9
  20
-1.07582
  30
0
  11
96.8
  21
-1.027562
  31
0
  0
LINE
  5
9d
  100
AcDbEntity
  8
1
  100
AcDbLine
  10
96.8
  20
-1.027562
  30
0
  11
96.7
  21
-0.978448
  31
0
  0
LINE
  5
9e
  100
AcDbEntity
  8
1
  100
AcDbLine
  10
96.7
  20
-0.978448
  30
0
  11
96.6
  21
-0.928518
  31
0
  0
LINE
  5
9f
  100
AcDbEntity
  8
1
  100
AcDbLine
  10
96.6
  20
-0.928518
  30
0
  11
96.5
  21
-0.877815
  31
0
  0
LINE
  5
a0
  100
AcDbEntity
  8
1
  100
AcDbLine
  10
96.5
  20
-0.877815
  30
0
  11
96.4
  21
-0.82638
  31
0
  0
LINE
  5
a1
  100
AcDbEntity
  8
1
  100
AcDbLine
  10
96.4
  20
-0.82638
  30
0
  11
96.3
  21
-0.774257
  31
0
  0
LINE
  5
a2
  100
AcDbEntity
  8
1
  100
AcDbLine
  10
96.3
  20
-0.774257
  30
0
  11
96.2
  21
-0.721488
  31
0
  0
LINE
  5
a3
  100
AcDbEntity
  8
1
  100
AcDbLine
  10
96.2
  20
-0.721488
  30
0
  11
96.1
  21
-0.668118
  31
0
  0
LINE
  5
a4
  100
AcDbEntity
  8
1
  100
AcDbLine
  10
96.1
  20
-0.668118
  30
0
  11
96
  21
-0.614192
  31
0
  0
LINE
  5
a5
  100
AcDbEntity
  8
1
  100
AcDbLine
  10
96
  20
-0.614192
  30
0
  11
95.9
  21
-0.559754
  31
0
  0
LINE
  5
a6
  100
AcDbEntity
  8
1
  100
AcDbLine
  10
95.9
  20
-0.559754
  30
0
  11
95.8
  21
-0.504849
  31
0
  0
LINE
  5
a7
  100
AcDbEntity
  8
1
  100
AcDbLine
  10
95.8
  20
-0.504849
  30
0
  11
95.7
  21
-0.449524
  31
0
  0
LINE
  5
a8
  100
AcDbEntity
  8
1
  100
AcDbLine
  10
95.7
  20
-0.449524
  30
0
  11
95.6
  21
-0.393824
  31
0
  0
LINE
  5
a9
  100
AcDbEntity
  8
1
  100
AcDbLine
  10
95.6
  20
-0.393824
  30
0
  11
95.5
  21
-0.337796
  31
0
  0
LINE
  5
aa
  100
AcDbEntity
  8
1
  100
AcDbLine
  10
95.5
  20
-0.337796
  30
0
  11
95.4
  21
-0.281486
  31
0
  0
LINE
  5
ab
  100
AcDbEntity
  8
1
  100
AcDbLine
  10
95.4
  20
-0.281486
  30
0
  11
95.3
  21
-0.224942
  31
0
  0
LINE
  5
ac
  100
AcDbEntity
  8
1
  100
AcDbLine
  10
95.3
  20
-0.224942
  30
0
  11
95.2
  21
-0.16821
  31
0
  0
LINE
  5
ad
  100
AcDbEntity
  8
1
  100
AcDbLine
  10
95.2
  20
-0.16821
  30
0
  11
95.1
  21
-0.111339
  31
0
  0
LINE
  5
ae
  100
AcDbEntity
  8
1
  100
AcDbLine
  10
95.1
  20
-0.111339
  30
0
  11
95
  21
-0.054374
  31
0
  0
LINE
  5
af
  100
AcDbEntity
  8
1
  100
AcDbLine
  10
95
  20
-0.054374
  30
0
  11
94.9
  21
0.002636
  31
0
  0
LINE
  5
b0
  100
AcDbEntity
  8
1
  100
AcDbLine
  10
94.9
  20
0.002636
  30
0
  11
94.8
  21
0.059643
  31
0
  0
LINE
  5
b1
  100
AcDbEntity
  8
1
  100
AcDbLine
  10
94.8
  20
0.059643
  30
0
  11
94.7
  21
0.116601
  31
0
  0
LINE
  5
b2
  100
AcDbEntity
  8
1
  100
AcDbLine
  10
94.7
  20
0.116601
  30
0
  11
94.6
  21
0.173462
  31
0
  0
LINE
  5
b3
  100
AcDbEntity
  8
1
  100
AcDbLine
  10
94.6
  20
0.173462
  30
0
  11
94.5
  21
0.230178
  31
0
  0
LINE
  5
b4
  100
AcDbEntity
  8
1
  100
AcDbLine
  10
94.5
  20
0.230178
  30
0
  11
94.4
  21
0.286702
  31
0
  0
LINE
  5
b5
  100
AcDbEntity
  8
1
  100
AcDbLine
  10
94.4
  20
0.286702
  30
0
  11
94.3
  21
0.342988
  31
0
  0
LINE
  5
b6
  100
AcDbEntity
  8
1
  100
AcDbLine
  10
94.3
  20
0.342988
  30
0
  11
94.2
  21
0.398988
  31
0
  0
LINE
  5
b7
  100
AcDbEntity
  8
1
  100
AcDbLine
  10
94.2
  20
0.398988
  30
0
  11
94.1
  21
0.454655
  31
0
  0
LINE
  5
b8
  100
AcDbEntity
  8
1
  100
AcDbLine
  10
94.1
  20
0.454655
  30
0
  11
94
  21
0.509943
  31
0
  0
LINE
  5
b9
  100
AcDbEntity
  8
1
  100
AcDbLine
  10
94
  20
0.509943
  30
0
  11
94
  21
0.507941
  31
0
  0
LINE
  5
ba
  100
AcDbEntity
  8
1
  100
AcDbLine
  10
94
  20
-2
  30
0
  11
94
  21
2
  31
0
  0
LINE
  5
bb
  100
AcDbEntity
  8
1
  100
AcDbLine
  10
94
  20
1.925
  30
0
  11
94
  21
-1.925
  31
0
  0
LINE
  5
bc
  100
AcDbEntity
  8
1
  100
AcDbLine
  10
93.334763
  20
-1.925
  30
0
  11
93.3
  21
-1.872261
  31
0
  0
LINE
  5
bd
  100
AcDbEntity
  8
1
  100
AcDbLine
  10
93.3
  20
-1.872261
  30
0
  11
93.3
  21
-0.205738
  31
0
  0
LINE
  5
be
  100
AcDbEntity
  8
1
  100
AcDbLine
  10
93.3
  20
-0.205738
  30
0
  11
93.4
  21
0.504354
  31
0
  0
LINE
  5
bf
  100
AcDbEntity
  8
1
  100
AcDbLine
  10
93.4
  20
0.504354
  30
0
  11
93.5
  21
0.573795
  31
0
  0
LINE
  5
c0
  100
AcDbEntity
  8
1
  100
AcDbLine
  10
93.5
  20
0.573795
  30
0
  11
93.6
  21
0.534991
  31
0
  0
LINE
  5
c1
  100
AcDbEntity
  8
1
  100
AcDbLine
  10
93.6
  20
0.534991
  30
0
  11
93.7
  21
0.482436
  31
0
  0
LINE
  5
c2
  100
AcDbEntity
  8
1
  100
AcDbLine
  10
93.7
  20
0.482436
  30
0
  11
93.8
  21
0.42848
  31
0
  0
LINE
  5
c3
  100
AcDbEntity
  8
1
  100
AcDbLine
  10
93.8
  20
0.42848
  30
0
  11
93.9
  21
0.374133
  31
0
  0
LINE
  5
c4
  100
AcDbEntity
  8
1
  100
AcDbLine
  10
93.9
  20
0.374133
  30
0
  11
94
  21
0.319475
  31
0
  0
LINE
  5
c5
  100
AcDbEntity
  8
1
  100
AcDbLine
  10
94
  20
0.319475
  30
0
  11
94
  21
0.321113
  31
0
  0
LINE
  5
c6
  100
AcDbEntity
  8
1
  100
AcDbLine
  10
94
  20
0.321113
  30
0
  11
94.1
  21
0.264001
  31
0
  0
LINE
  5
c7
  100
AcDbEntity
  8
1
  100
AcDbLine
  10
94.1
  20
0.264001
  30
0
  11
94.2
  21
0.206669
  31
0
  0
LINE
  5
c8
  100
AcDbEntity
  8
1
  100
AcDbLine
  10
94.2
  20
0.206669
  30
0
  11
94.3
  21
0.149165
  31
0
  0
LINE
  5
c9
  100
AcDbEntity
  8
1
  100
AcDbLine
  10
94.3
  20
0.149165
  30
0
  11
94.4
  21
0.091537
  31
0
  0
LINE
  5
ca
  100
AcDbEntity
  8
1
  100
AcDbLine
  10
94.4
  20
0.091537
  30
0
  11
94.5
  21
0.033832
  31
0
  0
LINE
  5
cb
  100
AcDbEntity
  8
1
  100
AcDbLine
  10
94.5
  20
0.033832
  30
0
  11
94.6
  21
-0.023901
  31
0
  0
LINE
  5
cc
  100
AcDbEntity
  8
1
  100
AcDbLine
  10
94.6
  20
-0.023901
  30
0
  11
94.7
  21
-0.081614
  31
0
  0
LINE
  5
cd
  100
AcDbEntity
  8
1
  100
AcDbLine
  10
94.7
  20
-0.081614
  30
0
  11
94.8
  21
-0.139258
  31
0
  0
LINE
  5
ce
  100
AcDbEntity
  8
1
  100
AcDbLine
  10
94.8
  20
-0.139258
  30
0
  11
94.9
  21
-0.196787
  31
0
  0
LINE
  5
cf
  100
AcDbEntity
  8
1
  100
AcDbLine
  10
94.9
  20
-0.196787
  30
0
  11
95
  21
-0.254152
  31
0
  0
LINE
  5
d0
  100
AcDbEntity
  8
1
  100
AcDbLine
  10
95
  20
-0.254152
  30
0
  11
95.1
  21
-0.311305
  31
0
  0
LINE
  5
d1
  100
AcDbEntity
  8
1
  100
AcDbLine
  10
95.1
  20
-0.311305
  30
0
  11
95.2
  21
-0.368199
  31
0
  0
LINE
  5
d2
  100
AcDbEntity
  8
1
  100
AcDbLine
  10
95.2
  20
-0.368199
  30
0
  11
95.3
  21
-0.424786
  31
0
  0
LINE
  5
d3
  100
AcDbEntity
  8
1
  100
AcDbLine
  10
95.3
  20
-0.424786
  30
0
  11
95.4
  21
-0.481019
  31
0
  0
LINE
  5
d4
  100
AcDbEntity
  8
1
  100
AcDbLine
  10
95.4
  20
-0.481019
  30
0
  11
95.5
  21
-0.536851
  31
0
  0
LINE
  5
d5
  100
AcDbEntity
  8
1
  100
AcDbLine
  10
95.5
  20
-0.536851
  30
0
  11
95.6
  21
-0.592236
  31
0
  0
LINE
  5
d6
  100
AcDbEntity
  8
1
  100
AcDbLine
  10
95.6
  20
-0.592236
  30
0
  11
95.7
  21
-0.647127
  31
0
  0
LINE
  5
d7
  100
AcDbEntity
  8
1
  100
AcDbLine
  10
95.7
  20
-0.647127
  30
0
  11
95.8
  21
-0.701479
  31
0
  0
LINE
  5
d8
  100
AcDbEntity
  8
1
  100
AcDbLine
  10
95.8
  20
-0.701479
  30
0
  11
95.9
  21
-0.755247
  31
0
  0
LINE
  5
d9
  100
AcDbEntity
  8
1
  100
AcDbLine
  10
95.9
  20
-0.755247
  30
0
  11
96
  21
-0.808385
  31
0
  0
LINE
  5
da
  100
AcDbEntity
  8
1
  100
AcDbLine
  10
96
  20
-0.808385
  30
0
  11
96.1
  21
-0.86085
  31
0
  0
LINE
  5
db
  100
AcDbEntity
  8
1
  100
AcDbLine
  10
96.1
  20
-0.86085
  30
0
  11
96.2
  21
-0.912597
  31
0
  0
LINE
  5
dc
  100
AcDbEntity
  8
1
  100
AcDbLine
  10
96.2
  20
-0.912597
  30
0
  11
96.3
  21
-0.963584
  31
0
  0
LINE
  5
dd
  100
AcDbEntity
  8
1
  100
AcDbLine
  10
96.3
  20
-0.963584
  30
0
  11
96.4
  21
-1.013767
  31
0
  0
LINE
  5
de
  100
AcDbEntity
  8
1
  100
AcDbLine
  10
96.4
  20
-1.013767
  30
0
  11
96.5
  21
-1.063107
  31
0
  0
LINE
  5
df
  100
AcDbEntity
  8
1
  100
AcDbLine
  10
96.5
  20
-1.063107
  30
0
  11
96.6
  21
-1.11156
  31
0
  0
LINE
  5
e0
  100
AcDbEntity
  8
1
  100
AcDbLine
  10
96.6
  20
-1.11156
  30
0
  11
96.7
  21
-1.159087
  31
0
  0
LINE
  5
e1
  100
AcDbEntity
  8
1
  100
AcDbLine
  10
96.7
  20
-1.159087
  30
0
  11
96.8
  21
-1.205648
  31
0
  0
LINE
  5
e2
  100
AcDbEntity
  8
1
  100
AcDbLine
  10
96.8
  20
-1.205648
  30
0
  11
96.9
  21
-1.251205
  31
0
  0
LINE
  5
e3
  100
AcDbEntity
  8
1
  100
AcDbLine
  10
96.9
  20
-1.251205
  30
0
  11
97
  21
-1.295719
  31
0
  0
LINE
  5
e4
  100
AcDbEntity
  8
1
  100
AcDbLine
  10
97
  20
-1.295719
  30
0
  11
97.1
  21
-1.339153
  31
0
  0
LINE
  5
e5
  100
AcDbEntity
  8
1
  100
AcDbLine
  10
97.1
  20
-1.339153
  30
0
  11
97.2
  21
-1.381471
  31
0
  0
LINE
  5
e6
  100
AcDbEntity
  8
1
  100
AcDbLine
  10
97.2
  20
-1.381471
  30
0
  11
97.3
  21
-1.422639
  31
0
  0
LINE
  5
e7
  100
AcDbEntity
  8
1
  100
AcDbLine
  10
97.3
  20
-1.422639
  30
0
  11
97.4
  21
-1.46262
  31
0
  0
LINE
  5
e8
  100
AcDbEntity
  8
1
  100
AcDbLine
  10
97.4
  20
-1.46262
  30
0
  11
97.5
  21
-1.501383
  31
0
  0
LINE
  5
e9
  100
AcDbEntity
  8
1
  100
AcDbLine
  10
97.5
  20
-1.501383
  30
0
  11
97.6
  21
-1.538895
  31
0
  0
LINE
  5
ea
  100
AcDbEntity
  8
1
  100
AcDbLine
  10
97.6
  20
-1.538895
  30
0
  11
97.7
  21
-1.575125
  31
0
  0
LINE
  5
eb
  100
AcDbEntity
  8
1
  100
AcDbLine
  10
97.7
  20
-1.575125
  30
0
  11
97.8
  21
-1.610042
  31
0
  0
LINE
  5
ec
  100
AcDbEntity
  8
1
  100
AcDbLine
  10
97.8
  20
-1.610042
  30
0
  11
97.9
  21
-1.643618
  31
0
  0
LINE
  5
ed
  100
AcDbEntity
  8
1
  100
AcDbLine
  10
97.9
  20
-1.643618
  30
0
  11
98
  21
-1.675824
  31
0
  0
LINE
  5
ee
  100
AcDbEntity
  8
1
  100
AcDbLine
  10
98
  20
-1.675824
  30
0
  11
98.1
  21
-1.706633
  31
0
  0
LINE
  5
ef
  100
AcDbEntity
  8
1
  100
AcDbLine
  10
98.1
  20
-1.706633
  30
0
  11
98.2
  21
-1.736021
  31
0
  0
LINE
  5
f0
  100
AcDbEntity
  8
1
  100
AcDbLine
  10
98.2
  20
-1.736021
  30
0
  11
98.3
  21
-1.763961
  31
0
  0
LINE
  5
f1
  100
AcDbEntity
  8
1
  100
AcDbLine
  10
98.3
  20
-1.763961
  30
0
  11
98.4
  21
-1.790432
  31
0
  0
LINE
  5
f2
  100
AcDbEntity
  8
1
  100
AcDbLine
  10
98.4
  20
-1.790432
  30
0
  11
98.5
  21
-1.815411
  31
0
  0
LINE
  5
f3
  100
AcDbEntity
  8
1
  100
AcDbLine
  10
98.5
  20
-1.815411
  30
0
  11
98.6
  21
-1.838878
  31
0
  0
LINE
  5
f4
  100
AcDbEntity
  8
1
  100
AcDbLine
  10
98.6
  20
-1.838878
  30
0
  11
98.7
  21
-1.860812
  31
0
  0
LINE
  5
f5
  100
AcDbEntity
  8
1
  100
AcDbLine
  10
98.7
  20
-1.860812
  30
0
  11
98.8
  21
-1.881195
  31
0
  0
LINE
  5
f6
  100
AcDbEntity
  8
1
  100
AcDbLine
  10
98.8
  20
-1.881195
  30
0
  11
98.9
  21
-1.900011
  31
0
  0
LINE
  5
f7
  100
AcDbEntity
  8
1
  100
AcDbLine
  10
98.9
  20
-1.900011
  30
0
  11
99
  21
-1.917244
  31
0
  0
LINE
  5
f8
  100
AcDbEntity
  8
1
  100
AcDbLine
  10
99
  20
-1.917244
  30
0
  11
99.1
  21
-1.932879
  31
0
  0
LINE
  5
f9
  100
AcDbEntity
  8
1
  100
AcDbLine
  10
99.1
  20
-1.932879
  30
0
  11
99.2
  21
-1.946903
  31
0
  0
LINE
  5
fa
  100
AcDbEntity
  8
1
  100
AcDbLine
  10
99.2
  20
-1.946903
  30
0
  11
99.3
  21
-1.959305
  31
0
  0
LINE
  5
fb
  100
AcDbEntity
  8
1
  100
AcDbLine
  10
99.3
  20
-1.959305
  30
0
  11
99.4
  21
-1.970075
  31
0
  0
LINE
  5
fc
  100
AcDbEntity
  8
1
  100
AcDbLine
  10
99.4
  20
-1.970075
  30
0
  11
99.5
  21
-1.979203
  31
0
  0
LINE
  5
fd
  100
AcDbEntity
  8
1
  100
AcDbLine
  10
99.5
  20
-1.979203
  30
0
  11
99.6
  21
-1.986681
  31
0
  0
LINE
  5
fe
  100
AcDbEntity
  8
1
  100
AcDbLine
  10
99.6
  20
-1.986681
  30
0
  11
99.7
  21
-1.992505
  31
0
  0
LINE
  5
ff
  100
AcDbEntity
  8
1
  100
AcDbLine
  10
99.7
  20
-1.992505
  30
0
  11
99.8
  21
-1.996668
  31
0
  0
LINE
  5
100
  100
AcDbEntity
  8
1
  100
AcDbLine
  10
99.8
  20
-1.996668
  30
0
  11
99.9
  21
-1.999167
  31
0
  0
LINE
  5
101
  100
AcDbEntity
  8
1
  100
AcDbLine
  10
99.9
  20
-1.999167
  30
0
  11
100
  21
-2
  31
0
  0
LINE
  5
102
  100
AcDbEntity
  8
1
  100
AcDbLine
  10
100
  20
-2
  30
0
  11
100
  21
0
  31
0
  0
LINE
  5
103
  100
AcDbEntity
  8
1
  100
AcDbLine
  10
100
  20
0
  30
0
  11
100
  21
2
  31
0
  0
LINE
  5
104
  100
AcDbEntity
  8
1
  100
AcDbLine
  10
100
  20
2
  30
0
  11
94
  21
2
  31
0
  0
LINE
  5
105
  100
AcDbEntity
  8
1
  100
AcDbLine
  10
94
  20
2
  30
0
  11
94
  21
1.925
  31
0
  0
LINE
  5
106
  100
AcDbEntity
  8
1
  100
AcDbLine
  10
94
  20
1.925
  30
0
  11
50.63
  21
1.925
  31
0
  0
ARC
  5
107
  100
AcDbEntity
  8
1
  100
AcDbCircle
  10
51.501557
  20
11.886947
  30
0
  40
10
  100
AcDbArc
  50
255
  51
265
  0
LINE
  5
108
  100
AcDbEntity
  8
1
  100
AcDbLine
  10
48.913367
  20
2.227689
  30
0
  11
46.031062
  21
3
  31
0
  0
LINE
  5
109
  100
AcDbEntity
  8
1
  100
AcDbLine
  10
46.031062
  20
3
  30
0
  11
45.8
  21
3
  31
0
  0
LINE
  5
10a
  100
AcDbEntity
  8
1
  100
AcDbLine
  10
45.8
  20
3
  30
0
  11
45.8
  21
-3
  31
0
  0
LINE
  5
10b
  100
AcDbEntity
  8
1
  100
AcDbLine
  10
45.8
  20
-3
  30
0
  11
46.031062
  21
-3
  31
0
  0
LINE
  5
10c
  100
AcDbEntity
  8
1
  100
AcDbLine
  10
46.031062
  20
-3
  30
0
  11
48.913367
  21
-2.227689
  31
0
  0
LINE
  5
10d
  100
AcDbEntity
  8
1
  100
AcDbLine
  10
48.913367
  20
-2.227689
  30
0
  11
48.913367
  21
2.227689
  31
0
  0
LINE
  5
10e
  100
AcDbEntity
  8
1
  100
AcDbLine
  10
50.63
  20
1.925
  30
0
  11
50.63
  21
-1.925
  31
0
  0
ARC
  5
10f
  100
AcDbEntity
  8
1
  100
AcDbCircle
  10
51.501557
  20
-11.886947
  30
0
  40
10
  100
AcDbArc
  50
95
  51
105
  0
LINE
  5
110
  100
AcDbEntity
  8
1
  100
AcDbLine
  10
50.63
  20
-1.925
  30
0
  11
94
  21
-1.925
  31
0
  0
LINE
  5
111
  100
AcDbEntity
  8
1
  100
AcDbLine
  10
94
  20
-1.925
  30
0
  11
94
  21
-2
  31
0
  0
LINE
  5
112
  100
AcDbEntity
  8
1
  100
AcDbLine
  10
94
  20
-2
  30
0
  11
100
  21
-2
  31
0
  0
LINE
  5
113
  100
AcDbEntity
  8
1
  100
AcDbLine
  10
100
  20
-2
  30
0
  11
100
  21
2
  31
0
  0
LINE
  5
114
  100
AcDbEntity
  8
SK1
  100
AcDbLine
  10
45.8
  20
3
  30
0
  11
0.7
  21
3
  31
0
  0
LINE
  5
115
  100
AcDbEntity
  8
SK1
  100
AcDbLine
  10
0.7
  20
3
  30
0
  11
0
  21
2.3
  31
0
  0
LINE
  5
116
  100
AcDbEntity
  8
SK1
  100
AcDbLine
  10
45.8
  20
-3
  30
0
  11
0.7
  21
-3
  31
0
  0
LINE
  5
117
  100
AcDbEntity
  8
SK1
  100
AcDbLine
  10
0.7
  20
-3
  30
0
  11
0
  21
-2.3
  31
0
  0
LINE
  5
118
  100
AcDbEntity
  8
SK1
  100
AcDbLine
  10
0.7
  20
3
  30
0
  11
0.7
  21
-3
  31
0
  0
LINE
  5
119
  100
AcDbEntity
  8
SK1
  100
AcDbLine
  10
0
  20
2.3
  30
0
  11
0
  21
-2.3
  31
0
  0
LINE
  5
11a
  100
AcDbEntity
  8
SK1
  100
AcDbLine
  10
46.8401
  20
1.40688
  30
0
  11
47.2069
  21
1.0401
  31
0
  0
LINE
  5
11b
  100
AcDbEntity
  8
SK1
  100
AcDbLine
  10
46.3328
  20
1.66666
  30
0
  11
47.4667
  21
0.532833
  31
0
  0
LINE
  5
11c
  100
AcDbEntity
  8
SK1
  100
AcDbLine
  10
46.0154
  20
1.73657
  30
0
  11
47.5366
  21
0.215434
  31
0
  0
LINE
  5
11d
  100
AcDbEntity
  8
SK1
  100
AcDbLine
  10
45.8
  20
1.70452
  30
0
  11
47.5045
  21
0
  31
0
  0
LINE
  5
11e
  100
AcDbEntity
  8
SK1
  100
AcDbLine
  10
45.8
  20
1.45703
  30
0
  11
47.257
  21
0
  31
0
  0
LINE
  5
11f
  100
AcDbEntity
  8
SK1
  100
AcDbLine
  10
45.8
  20
1.20954
  30
0
  11
47.0095
  21
0
  31
0
  0
LINE
  5
120
  100
AcDbEntity
  8
SK1
  100
AcDbLine
  10
45.8
  20
0.962054
  30
0
  11
46.7621
  21
0
  31
0
  0
LINE
  5
121
  100
AcDbEntity
  8
SK1
  100
AcDbLine
  10
45.8
  20
0.714566
  30
0
  11
46.5146
  21
0
  31
0
  0
LINE
  5
122
  100
AcDbEntity
  8
SK1
  100
AcDbLine
  10
45.8
  20
0.467079
  30
0
  11
46.2671
  21
0
  31
0
  0
LINE
  5
123
  100
AcDbEntity
  8
SK1
  100
AcDbLine
  10
45.8
  20
0.219592
  30
0
  11
46.0196
  21
0
  31
0
  0
LINE
  5
124
  100
AcDbEntity
  8
SK1
  100
AcDbLine
  10
45.8
  20
1.70452
  30
0
  11
45.8441
  21
1.74861
  31
0
  0
LINE
  5
125
  100
AcDbEntity
  8
SK1
  100
AcDbLine
  10
45.8
  20
1.45703
  30
0
  11
46.071
  21
1.72802
  31
0
  0
LINE
  5
126
  100
AcDbEntity
  8
SK1
  100
AcDbLine
  10
45.8
  20
1.20954
  30
0
  11
46.2742
  21
1.6837
  31
0
  0
LINE
  5
127
  100
AcDbEntity
  8
SK1
  100
AcDbLine
  10
45.8
  20
0.962054
  30
0
  11
46.4588
  21
1.62082
  31
0
  0
LINE
  5
128
  100
AcDbEntity
  8
SK1
  100
AcDbLine
  10
45.8
  20
0.714566
  30
0
  11
46.6271
  21
1.54167
  31
0
  0
LINE
  5
129
  100
AcDbEntity
  8
SK1
  100
AcDbLine
  10
45.8
  20
0.467079
  30
0
  11
46.781
  21
1.44812
  31
0
  0
LINE
  5
12a
  100
AcDbEntity
  8
SK1
  100
AcDbLine
  10
45.8
  20
0.219592
  30
0
  11
46.9226
  21
1.34216
  31
0
  0
LINE
  5
12b
  100
AcDbEntity
  8
SK1
  100
AcDbLine
  10
45.8279
  20
0
  30
0
  11
47.0508
  21
1.22288
  31
0
  0
LINE
  5
12c
  100
AcDbEntity
  8
SK1
  100
AcDbLine
  10
46.0754
  20
0
  30
0
  11
47.167
  21
1.09157
  31
0
  0
LINE
  5
12d
  100
AcDbEntity
  8
SK1
  100
AcDbLine
  10
46.3229
  20
0
  30
0
  11
47.2707
  21
0.947822
  31
0
  0
LINE
  5
12e
  100
AcDbEntity
  8
SK1
  100
AcDbLine
  10
46.5704
  20
0
  30
0
  11
47.3605
  21
0.790145
  31
0
  0
LINE
  5
12f
  100
AcDbEntity
  8
SK1
  100
AcDbLine
  10
46.8178
  20
0
  30
0
  11
47.4364
  21
0.618517
  31
0
  0
LINE
  5
130
  100
AcDbEntity
  8
SK1
  100
AcDbLine
  10
47.0653
  20
0
  30
0
  11
47.496
  21
0.430696
  31
0
  0
LINE
  5
131
  100
AcDbEntity
  8
SK1
  100
AcDbLine
  10
47.3128
  20
0
  30
0
  11
47.5356
  21
0.222827
  31
0
  0
LINE
  5
132
  100
AcDbEntity
  8
SK1
  100
AcDbLine
  10
45.8
  20
0
  30
0
  11
45.8
  21
1.75
  31
0
  0
LINE
  5
133
  100
AcDbEntity
  8
SK1
  100
AcDbLine
  10
45.8
  20
0
  30
0
  11
47.55
  21
0
  31
0
  0
ARC
  5
134
  100
AcDbEntity
  8
SK1
  100
AcDbCircle
  10
45.8
  20
0
  30
0
  40
1.75
  100
AcDbArc
  50
0
  51
90
  0
ARC
  5
135
  100
AcDbEntity
  8
SK1
  100
AcDbCircle
  10
45.8
  20
0
  30
0
  40
1.75
  100
AcDbArc
  50
90
  51
180
  0
LINE
  5
136
  100
AcDbEntity
  8
SK1
  100
AcDbLine
  10
45.7721
  20
0
  30
0
  11
45.8
  21
-0.027896
  31
0
  0
LINE
  5
137
  100
AcDbEntity
  8
SK1
  100
AcDbLine
  10
45.5246
  20
0
  30
0
  11
45.8
  21
-0.275383
  31
0
  0
LINE
  5
138
  100
AcDbEntity
  8
SK1
  100
AcDbLine
  10
45.2771
  20
0
  30
0
  11
45.8
  21
-0.522871
  31
0
  0
LINE
  5
139
  100
AcDbEntity
  8
SK1
  100
AcDbLine
  10
45.0296
  20
0
  30
0
  11
45.8
  21
-0.770358
  31
0
  0
LINE
  5
13a
  100
AcDbEntity
  8
SK1
  100
AcDbLine
  10
44.7822
  20
0
  30
0
  11
45.8
  21
-1.01785
  31
0
  0
LINE
  5
13b
  100
AcDbEntity
  8
SK1
  100
AcDbLine
  10
44.5347
  20
0
  30
0
  11
45.8
  21
-1.26533
  31
0
  0
LINE
  5
13c
  100
AcDbEntity
  8
SK1
  100
AcDbLine
  10
44.2872
  20
0
  30
0
  11
45.8
  21
-1.51282
  31
0
  0
LINE
  5
13d
  100
AcDbEntity
  8
SK1
  100
AcDbLine
  10
44.0503
  20
-0.010642
  30
0
  11
45.7894
  21
-1.74967
  31
0
  0
LINE
  5
13e
  100
AcDbEntity
  8
SK1
  100
AcDbLine
  10
44.0736
  20
-0.281429
  30
0
  11
45.5186
  21
-1.72637
  31
0
  0
LINE
  5
13f
  100
AcDbEntity
  8
SK1
  100
AcDbLine
  10
44.1639
  20
-0.619147
  30
0
  11
45.1809
  21
-1.63613
  31
0
  0
LINE
  5
140
  100
AcDbEntity
  8
SK1
  100
AcDbLine
  10
44.0514
  20
-0.044098
  30
0
  11
44.0955
  21
0
  31
0
  0
LINE
  5
141
  100
AcDbEntity
  8
SK1
  100
AcDbLine
  10
44.072
  20
-0.270991
  30
0
  11
44.343
  21
0
  31
0
  0
LINE
  5
142
  100
AcDbEntity
  8
SK1
  100
AcDbLine
  10
44.1163
  20
-0.474162
  30
0
  11
44.5905
  21
0
  31
0
  0
LINE
  5
143
  100
AcDbEntity
  8
SK1
  100
AcDbLine
  10
44.1792
  20
-0.658762
  30
0
  11
44.8379
  21
0
  31
0
  0
LINE
  5
144
  100
AcDbEntity
  8
SK1
  100
AcDbLine
  10
44.2583
  20
-0.827105
  30
0
  11
45.0854
  21
0
  31
0
  0
LINE
  5
145
  100
AcDbEntity
  8
SK1
  100
AcDbLine
  10
44.3519
  20
-0.981039
  30
0
  11
45.3329
  21
0
  31
0
  0
LINE
  5
146
  100
AcDbEntity
  8
SK1
  100
AcDbLine
  10
44.4578
  20
-1.12257
  30
0
  11
45.5804
  21
0
  31
0
  0
LINE
  5
147
  100
AcDbEntity
  8
SK1
  100
AcDbLine
  10
44.5771
  20
-1.25077
  30
0
  11
45.8
  21
-0.027896
  31
0
  0
LINE
  5
148
  100
AcDbEntity
  8
SK1
  100
AcDbLine
  10
44.7084
  20
-1.36695
  30
0
  11
45.8
  21
-0.275383
  31
0
  0
LINE
  5
149
  100
AcDbEntity
  8
SK1
  100
AcDbLine
  10
44.8522
  20
-1.47069
  30
0
  11
45.8
  21
-0.522871
  31
0
  0
LINE
  5
14a
  100
AcDbEntity
  8
SK1
  100
AcDbLine
  10
45.0099
  20
-1.5605
  30
0
  11
45.8
  21
-0.770358
  31
0
  0
LINE
  5
14b
  100
AcDbEntity
  8
SK1
  100
AcDbLine
  10
45.1815
  20
-1.63636
  30
0
  11
45.8
  21
-1.01785
  31
0
  0
LINE
  5
14c
  100
AcDbEntity
  8
SK1
  100
AcDbLine
  10
45.3693
  20
-1.69603
  30
0
  11
45.8
  21
-1.26533
  31
0
  0
LINE
  5
14d
  100
AcDbEntity
  8
SK1
  100
AcDbLine
  10
45.5772
  20
-1.73565
  30
0
  11
45.8
  21
-1.51282
  31
0
  0
LINE
  5
14e
  100
AcDbEntity
  8
SK1
  100
AcDbLine
  10
45.8
  20
0
  30
0
  11
44.05
  21
0
  31
0
  0
LINE
  5
14f
  100
AcDbEntity
  8
SK1
  100
AcDbLine
  10
45.8
  20
-1.75
  30
0
  11
45.8
  21
0
  31
0
  0
ARC
  5
150
  100
AcDbEntity
  8
SK1
  100
AcDbCircle
  10
45.8
  20
0
  30
0
  40
1.75
  100
AcDbArc
  50
180
  51
270
  0
ARC
  5
151
  100
AcDbEntity
  8
SK1
  100
AcDbCircle
  10
45.8
  20
0
  30
0
  40
1.75
  100
AcDbArc
  50
270
  51
0
  0
LINE
  5
1c2
  100
AcDbEntity
  8
NOCUT
  100
AcDbLine
  10
94
  20
0
  30
0
  11
94
  21
1.925
  31
0
  0
LINE
  5
1c3
  100
AcDbEntity
  8
NOCUT
  100
AcDbLine
  10
94
  20
1.925
  30
0
  11
50.63
  21
1.925
  31
0
  0
ARC
  5
1c4
  100
AcDbEntity
  8
NOCUT
  100
AcDbCircle
  10
51.501557
  20
11.886947
  30
0
  40
10
  100
AcDbArc
  50
255
  51
265
  0
LINE
  5
1c5
  100
AcDbEntity
  8
NOCUT
  100
AcDbLine
  10
48.913367
  20
2.227689
  30
0
  11
46.031062
  21
3
  31
0
  0
LINE
  5
1c6
  100
AcDbEntity
  8
NOCUT
  100
AcDbLine
  10
46.031062
  20
3
  30
0
  11
45.8
  21
3
  31
0
  0
LINE
  5
1c7
  100
AcDbEntity
  8
NOCUT
  100
AcDbLine
  10
45.8
  20
3
  30
0
  11
45.8
  21
0
  31
0
  0
LINE
  5
1c8
  100
AcDbEntity
  8
NOCUT
  100
AcDbLine
  10
45.8
  20
0
  30
0
  11
94
  21
0
  31
0
  0
LINE
  5
1c9
  100
AcDbEntity
  8
CUT
  100
AcDbLine
  10
100
  20
0
  30
0
  11
100
  21
2
  31
0
  0
LINE
  5
1ca
  100
AcDbEntity
  8
CUT
  100
AcDbLine
  10
100
  20
2
  30
0
  11
94
  21
2
  31
0
  0
LINE
  5
1cb
  100
AcDbEntity
  8
CUT
  100
AcDbLine
  10
94
  20
2
  30
0
  11
94
  21
0
  31
0
  0
LINE
  5
1cc
  100
AcDbEntity
  8
CUT
  100
AcDbLine
  10
94
  20
0
  30
0
  11
100
  21
0
  31
0
  0
LINE
  5
1cd
  100
AcDbEntity
  8
4
  100
AcDbLine
  10
45.8
  20
0
  30
0
  11
100
  21
0
  31
0
  0
LINE
  5
1ce
  100
AcDbEntity
  8
SK4
  100
AcDbLine
  10
-1
  20
0
  30
0
  11
101
  21
0
  31
0
  0
LINE
  5
1cf
  100
AcDbEntity
  8
INFTOTAL
  100
AcDbLine
  10
-18.2
  20
25.2
  30
0
  11
118.2
  21
25.2
  31
0
  0
LINE
  5
1d0
  100
AcDbEntity
  8
INFTOTAL
  100
AcDbLine
  10
118.2
  20
25.2
  30
0
  11
118.2
  21
-18.086947
  31
0
  0
LINE
  5
1d1
  100
AcDbEntity
  8
INFTOTAL
  100
AcDbLine
  10
118.2
  20
-18.086947
  30
0
  11
-18.2
  21
-18.086947
  31
0
  0
LINE
  5
1d2
  100
AcDbEntity
  8
INFTOTAL
  100
AcDbLine
  10
-18.2
  20
-18.086947
  30
0
  11
-18.2
  21
25.2
  31
0
  0
ENDSEC
  0
SECTION
  2
OBJECTS
  0
DICTIONARY
  5
1d3
  330
0
100
AcDbDictionary
281
    1
  3
ACAD_GROUP
  350
1d4
  0
DICTIONARY
  5
1d4
102
{ACAD_REACTORS
  330
1d3
102
}
  330
1d3
100
AcDbDictionary
281
    1
  0
ENDSEC
  0
EOF
