  0
SECTION
  2
HEADER
  9
$ACADVER
  1
AC1015
  9
$DWGCODEPAGE
  3
ANSI_932
  9
$HANDSEED
  5
106AB90
  0
ENDSEC
  0
SECTION
  2
CLASSES
  0
CLASS
  1
IMAGEDEF
  2
AcDbRasterImageDef
  3
ISM
  90
0
  91
4
  280
0
  281
0
  0
CLASS
  1
IMAGE
  2
AcDbRasterImage
  3
ISM
  90
127
  91
5
  280
0
  281
1
  0
CLASS
  1
IMAGEDEF_REACTOR
  2
AcDbRasterImageDefReactor
  3
ISM
  90
1
  91
4
  280
0
  281
0
  0
ENDSEC
  0
SECTION
  2
TABLES
  0
TABLE
  2
VPORT
  5
2
  330
0
  100
AcDbSymbolTable
  70
    0
  0
ENDTAB
  0
TABLE
  2
LTYPE
  5
3
  330
0
  100
AcDbSymbolTable
  70
    4
  0
LTYPE
  5
4
  330
3
  100
AcDbSymbolTableRecord
  100
AcDbLinetypeTableRecord
  2
ByBlock
  70
    0
  3

  72
65
  73
    0
  40
0
  0
LTYPE
  5
5
  330
3
  100
AcDbSymbolTableRecord
  100
AcDbLinetypeTableRecord
  2
ByLayer
  70
    0
  3

  72
65
  73
    0
  40
0
  0
LTYPE
  5
6
  330
3
  100
AcDbSymbolTableRecord
  100
AcDbLinetypeTableRecord
  2
CONTINUOUS
  70
    0
  3
Solid Line
  72
65
  73
    0
  40
0
  0
LTYPE
  5
7
  330
3
  100
AcDbSymbolTableRecord
  100
AcDbLinetypeTableRecord
  2
DASH
  70
    0
  3
Hidden
  72
65
  73
2
  40
2.5
  49
1.5
  74
0
  49
-1
  74
0
  0
LTYPE
  5
8
  330
3
  100
AcDbSymbolTableRecord
  100
AcDbLinetypeTableRecord
  2
LONGDASHDASH
  70
    0
  3
__ . __
  72
65
  73
    4
  40
7
  49
4
  74
    0
  49
-1
  74
    0
  49
1
  74
    0
  49
-1
  74
    0
  0
ENDTAB
  0
TABLE
  2
LAYER
  5
9
  330
0
  100
AcDbSymbolTable
  70
    40
  0
LAYER
  5
a
  330
9
  100
AcDbSymbolTableRecord
  100
AcDbLayerTableRecord
  2
0
  70
    0
  62
    0
  6
CONTINUOUS
  390
0
  0
LAYER
  5
c
  330
9
  100
AcDbSymbolTableRecord
  100
AcDbLayerTableRecord
  2
1
  70
    0
  62
    4
  6
CONTINUOUS
  370
50
  390
0
  0
LAYER
  5
d
  330
9
  100
AcDbSymbolTableRecord
  100
AcDbLayerTableRecord
  2
2
  70
    0
  62
    7
  6
CONTINUOUS
  370
25
  390
0
  0
LAYER
  5
f
  330
9
  100
AcDbSymbolTableRecord
  100
AcDbLayerTableRecord
  2
4
  70
    0
  62
    2
  6
LONGDASHDASH
  370
25
  390
0
  0
LAYER
  5
13
  330
9
  100
AcDbSymbolTableRecord
  100
AcDbLayerTableRecord
  2
SK1
  70
    0
  62
    4
  6
CONTINUOUS
  370
50
  390
0
  0
LAYER
  5
14
  330
9
  100
AcDbSymbolTableRecord
  100
AcDbLayerTableRecord
  2
SK2
  70
    0
  62
    7
  6
CONTINUOUS
  370
25
  390
0
  0
LAYER
  5
16
  330
9
  100
AcDbSymbolTableRecord
  100
AcDbLayerTableRecord
  2
SK4
  70
    0
  62
    2
  6
LONGDASHDASH
  370
25
  390
0
  0
LAYER
  5
21
  330
9
  100
AcDbSymbolTableRecord
  100
AcDbLayerTableRecord
  2
NOCUT
  70
    0
  62
    7
  6
CONTINUOUS
  370
25
  390
0
  0
LAYER
  5
22
  330
9
  100
AcDbSymbolTableRecord
  100
AcDbLayerTableRecord
  2
CUT
  70
    0
  62
    1
  6
CONTINUOUS
  370
25
  390
0
  0
LAYER
  5
26
  330
9
  100
AcDbSymbolTableRecord
  100
AcDbLayerTableRecord
  2
INFTOTAL
  70
    0
  62
    9
  6
CONTINUOUS
  370
18
  390
0
  0
ENDTAB
  0
TABLE
  2
STYLE
  5
27
  330
0
  100
AcDbSymbolTable
  70
    1
  0
STYLE
  5
28
  330
27
  100
AcDbSymbolTableRecord
  100
AcDbTextStyleTableRecord
  2
Monospac821 BT
  70
    0
  40
    3.5
  41
1
  50
0
  71
0
  42
3
  3

  4

  1001
ACAD
  1000
Monospac821 BT
  1071
256
  0
ENDTAB
  0
TABLE
  2
VIEW
  5
29
  330
0
  100
AcDbSymbolTable
  70
    0
  0
ENDTAB
  0
TABLE
  2
UCS
  5
2a
  330
0
  100
AcDbSymbolTable
  70
    0
  0
ENDTAB
  0
TABLE
  2
APPID
  5
2b
  330
0
  100
AcDbSymbolTable
  70
    1
  0
APPID
  5
2c
  330
2b
  100
AcDbSymbolTableRecord
  100
AcDbRegAppTableRecord
  2
ACAD
  70
    0
  0
ENDTAB
  0
TABLE
  2
DIMSTYLE
  5
2d
  330
0
  100
AcDbSymbolTable
  70
    1
  100
AcDbDimStyleTable
  0
DIMSTYLE
  105
2e
  330
2d
  100
AcDbSymbolTableRecord
  100
AcDbDimStyleTableRecord
  2
STANDARD
  70
    0
  41
    3
  42
0.5
  44
1
  73
0
  77
1
  78
1
  140
3.5
  141
2.5
  143
0.03937
  147
0.8
  172
1
  174
1
  178
0
  179
1
  271
2
  279
1
  284
1
  340
28
  0
ENDTAB
  0
TABLE
  2
BLOCK_RECORD
  5
2f
  330
0
  100
AcDbSymbolTable
  70
    2
  0
BLOCK_RECORD
  5
30
  330
2f
  100
AcDbSymbolTableRecord
  100
AcDbBlockTableRecord
  2
*Model_Space
  0
BLOCK_RECORD
  5
31
  330
2f
  100
AcDbSymbolTableRecord
  100
AcDbBlockTableRecord
  2
*Paper_Space
  0
BLOCK_RECORD
  5
185
  330
2f
  100
AcDbSymbolTableRecord
  100
AcDbBlockTableRecord
  2
*D184
  340
0
  0
BLOCK_RECORD
  5
193
  330
2f
  100
AcDbSymbolTableRecord
  100
AcDbBlockTableRecord
  2
*D192
  340
0
  0
BLOCK_RECORD
  5
1a1
  330
2f
  100
AcDbSymbolTableRecord
  100
AcDbBlockTableRecord
  2
*D1a0
  340
0
  0
BLOCK_RECORD
  5
1af
  330
2f
  100
AcDbSymbolTableRecord
  100
AcDbBlockTableRecord
  2
*D1ae
  340
0
  0
BLOCK_RECORD
  5
1bd
  330
2f
  100
AcDbSymbolTableRecord
  100
AcDbBlockTableRecord
  2
*D1bc
  340
0
  0
BLOCK_RECORD
  5
1cb
  330
2f
  100
AcDbSymbolTableRecord
  100
AcDbBlockTableRecord
  2
*D1ca
  340
0
  0
BLOCK_RECORD
  5
1d9
  330
2f
  100
AcDbSymbolTableRecord
  100
AcDbBlockTableRecord
  2
*D1d8
  340
0
  0
BLOCK_RECORD
  5
1e7
  330
2f
  100
AcDbSymbolTableRecord
  100
AcDbBlockTableRecord
  2
*D1e6
  340
0
  0
ENDTAB
  0
ENDSEC
  0
SECTION
  2
BLOCKS
  0
BLOCK
  5
32
  330
30
  100
AcDbEntity
  8
0
  100
AcDbBlockBegin
  2
*Model_Space
  70
    0
  10
0
  20
0
  30
0
  3
*Model_Space
  1

  0
ENDBLK
  5
33
  330
30
  100
AcDbEntity
  8
0
  100
AcDbBlockEnd
  0
BLOCK
  5
34
  330
31
  100
AcDbEntity
  8
0
  100
AcDbBlockBegin
  2
*Paper_Space
  70
    0
  10
0
  20
0
  30
0
  3
*Paper_Space
  1

  0
ENDBLK
  5
35
  330
31
  100
AcDbEntity
  8
0
  100
AcDbBlockEnd
  0
BLOCK
  5
183
  330
185
  100
AcDbEntity
  8
SK2
  100
AcDbBlockBegin
  2
*D184
  70
1
  10
0
  20
0
  30
0
  3
*D184
  1

  0
LINE
  5
186
  330
185
  100
AcDbEntity
  8
SK2
  100
AcDbLine
  10
0
  20
2.3
  30
0
  11
0
  21
19
  31
0
  0
LINE
  5
187
  330
185
  100
AcDbEntity
  8
SK2
  100
AcDbLine
  10
110
  20
2.5
  30
0
  11
110
  21
19
  31
0
  0
LINE
  5
188
  330
185
  100
AcDbEntity
  8
SK2
  100
AcDbLine
  10
0
  20
17
  30
0
  11
110
  21
17
  31
0
  0
SOLID
  5
189
  330
185
  100
AcDbEntity
  8
SK2
  100
AcDbTrace
  10
0
  20
17
  30
0
  11
2.478612
  21
17.326315
  31
0
  12
2.478612
  22
16.673685
  32
0
  13
2.478612
  23
16.673685
  33
0
  0
SOLID
  5
18a
  330
185
  100
AcDbEntity
  8
SK2
  100
AcDbTrace
  10
110
  20
17
  30
0
  11
107.521388
  21
16.673685
  31
0
  12
107.521388
  22
17.326315
  32
0
  13
107.521388
  23
17.326315
  33
0
  0
MTEXT
  5
18b
  330
185
  100
AcDbEntity
  8
SK2
  100
AcDbMText
  10
55
  20
17
  30
0
  11
1
  21
0
  31
0
  40
2
  41
0
  71
8
  72
1
  1
110
  0
POINT
  5
18c
  330
185
  100
AcDbEntity
  8
SK2
  62
0
  100
AcDbPoint
  10
0
  20
2.3
  30
0
  0
POINT
  5
18d
  330
185
  100
AcDbEntity
  8
SK2
  62
0
  100
AcDbPoint
  10
110
  20
2.5
  30
0
  0
POINT
  5
18e
  330
185
  100
AcDbEntity
  8
SK2
  62
0
  100
AcDbPoint
  10
110
  20
17
  30
0
  0
ENDBLK
  5
18f
  330
185
  100
AcDbEntity
  8
SK2
  100
AcDbBlockEnd
  0
BLOCK
  5
191
  330
193
  100
AcDbEntity
  8
SK2
  100
AcDbBlockBegin
  2
*D192
  70
1
  10
0
  20
0
  30
0
  3
*D192
  1

  0
LINE
  5
194
  330
193
  100
AcDbEntity
  8
SK2
  100
AcDbLine
  10
57.7
  20
3
  30
0
  11
57.7
  21
8.790387
  31
0
  0
LINE
  5
195
  330
193
  100
AcDbEntity
  8
SK2
  100
AcDbLine
  10
0
  20
2.3
  30
0
  11
0
  21
8.790387
  31
0
  0
LINE
  5
196
  330
193
  100
AcDbEntity
  8
SK2
  100
AcDbLine
  10
57.7
  20
6.790387
  30
0
  11
0
  21
6.790387
  31
0
  0
SOLID
  5
197
  330
193
  100
AcDbEntity
  8
SK2
  100
AcDbTrace
  10
57.7
  20
6.790387
  30
0
  11
60.178612
  21
7.116702
  31
0
  12
60.178612
  22
6.464071
  32
0
  13
60.178612
  23
6.464071
  33
0
  0
SOLID
  5
198
  330
193
  100
AcDbEntity
  8
SK2
  100
AcDbTrace
  10
0
  20
6.790387
  30
0
  11
-2.478612
  21
6.464071
  31
0
  12
-2.478612
  22
7.116702
  32
0
  13
-2.478612
  23
7.116702
  33
0
  0
MTEXT
  5
199
  330
193
  100
AcDbEntity
  8
SK2
  100
AcDbMText
  10
28.85
  20
6.790387
  30
0
  11
1
  21
-0
  31
0
  40
2
  41
0
  71
8
  72
1
  1
57.7
  0
POINT
  5
19a
  330
193
  100
AcDbEntity
  8
SK2
  62
0
  100
AcDbPoint
  10
57.7
  20
3
  30
0
  0
POINT
  5
19b
  330
193
  100
AcDbEntity
  8
SK2
  62
0
  100
AcDbPoint
  10
0
  20
2.3
  30
0
  0
POINT
  5
19c
  330
193
  100
AcDbEntity
  8
SK2
  62
0
  100
AcDbPoint
  10
0
  20
6.790387
  30
0
  0
ENDBLK
  5
19d
  330
193
  100
AcDbEntity
  8
SK2
  100
AcDbBlockEnd
  0
BLOCK
  5
19f
  330
1a1
  100
AcDbEntity
  8
SK2
  100
AcDbBlockBegin
  2
*D1a0
  70
1
  10
0
  20
0
  30
0
  3
*D1a0
  1

  0
LINE
  5
1a2
  330
1a1
  100
AcDbEntity
  8
SK2
  100
AcDbLine
  10
0.7
  20
-3
  30
0
  11
-12
  21
-3
  31
0
  0
LINE
  5
1a3
  330
1a1
  100
AcDbEntity
  8
SK2
  100
AcDbLine
  10
0.7
  20
3
  30
0
  11
-12
  21
3
  31
0
  0
LINE
  5
1a4
  330
1a1
  100
AcDbEntity
  8
SK2
  100
AcDbLine
  10
-10
  20
-3
  30
0
  11
-10
  21
3
  31
0
  0
SOLID
  5
1a5
  330
1a1
  100
AcDbEntity
  8
SK2
  100
AcDbTrace
  10
-10
  20
-3
  30
0
  11
-10.326315
  21
-0.521388
  31
0
  12
-9.673685
  22
-0.521388
  32
0
  13
-9.673685
  23
-0.521388
  33
0
  0
SOLID
  5
1a6
  330
1a1
  100
AcDbEntity
  8
SK2
  100
AcDbTrace
  10
-10
  20
3
  30
0
  11
-9.673685
  21
0.521388
  31
0
  12
-10.326315
  22
0.521388
  32
0
  13
-10.326315
  23
0.521388
  33
0
  0
MTEXT
  5
1a7
  330
1a1
  100
AcDbEntity
  8
SK2
  100
AcDbMText
  10
-10
  20
0
  30
0
  11
0
  21
1
  31
0
  40
2
  41
0
  71
8
  72
1
  1
ﾘ6
  0
POINT
  5
1a8
  330
1a1
  100
AcDbEntity
  8
SK2
  62
0
  100
AcDbPoint
  10
0.7
  20
-3
  30
0
  0
POINT
  5
1a9
  330
1a1
  100
AcDbEntity
  8
SK2
  62
0
  100
AcDbPoint
  10
0.7
  20
3
  30
0
  0
POINT
  5
1aa
  330
1a1
  100
AcDbEntity
  8
SK2
  62
0
  100
AcDbPoint
  10
-10
  20
3
  30
0
  0
ENDBLK
  5
1ab
  330
1a1
  100
AcDbEntity
  8
SK2
  100
AcDbBlockEnd
  0
BLOCK
  5
1ad
  330
1af
  100
AcDbEntity
  8
2
  100
AcDbBlockBegin
  2
*D1ae
  70
1
  10
0
  20
0
  30
0
  3
*D1ae
  1

  0
LINE
  5
1b0
  330
1af
  100
AcDbEntity
  8
2
  100
AcDbLine
  10
110
  20
-2.5
  30
0
  11
122
  21
-2.5
  31
0
  0
LINE
  5
1b1
  330
1af
  100
AcDbEntity
  8
2
  100
AcDbLine
  10
110
  20
2.5
  30
0
  11
122
  21
2.5
  31
0
  0
LINE
  5
1b2
  330
1af
  100
AcDbEntity
  8
2
  100
AcDbLine
  10
120
  20
-2.5
  30
0
  11
120
  21
2.5
  31
0
  0
SOLID
  5
1b3
  330
1af
  100
AcDbEntity
  8
2
  100
AcDbTrace
  10
120
  20
-2.5
  30
0
  11
119.673685
  21
-0.021388
  31
0
  12
120.326315
  22
-0.021388
  32
0
  13
120.326315
  23
-0.021388
  33
0
  0
SOLID
  5
1b4
  330
1af
  100
AcDbEntity
  8
2
  100
AcDbTrace
  10
120
  20
2.5
  30
0
  11
120.326315
  21
0.021388
  31
0
  12
119.673685
  22
0.021388
  32
0
  13
119.673685
  23
0.021388
  33
0
  0
MTEXT
  5
1b5
  330
1af
  100
AcDbEntity
  8
2
  100
AcDbMText
  10
120
  20
0
  30
0
  11
0
  21
1
  31
0
  40
2
  41
0
  71
8
  72
1
  1
ﾘ5
  0
POINT
  5
1b6
  330
1af
  100
AcDbEntity
  8
2
  62
0
  100
AcDbPoint
  10
110
  20
-2.5
  30
0
  0
POINT
  5
1b7
  330
1af
  100
AcDbEntity
  8
2
  62
0
  100
AcDbPoint
  10
110
  20
2.5
  30
0
  0
POINT
  5
1b8
  330
1af
  100
AcDbEntity
  8
2
  62
0
  100
AcDbPoint
  10
120
  20
2.5
  30
0
  0
ENDBLK
  5
1b9
  330
1af
  100
AcDbEntity
  8
2
  100
AcDbBlockEnd
  0
BLOCK
  5
1bb
  330
1bd
  100
AcDbEntity
  8
2
  100
AcDbBlockBegin
  2
*D1bc
  70
1
  10
0
  20
0
  30
0
  3
*D1bc
  1

  0
LINE
  5
1be
  330
1bd
  100
AcDbEntity
  8
2
  100
AcDbLine
  10
102.5
  20
-2.425
  30
0
  11
100.5
  21
-2.425
  31
0
  0
LINE
  5
1bf
  330
1bd
  100
AcDbEntity
  8
2
  100
AcDbLine
  10
102.5
  20
2.425
  30
0
  11
100.5
  21
2.425
  31
0
  0
LINE
  5
1c0
  330
1bd
  100
AcDbEntity
  8
2
  100
AcDbLine
  10
102.5
  20
-2.425
  30
0
  11
102.5
  21
10.915842
  31
0
  0
SOLID
  5
1c1
  330
1bd
  100
AcDbEntity
  8
2
  100
AcDbTrace
  10
102.5
  20
-2.425
  30
0
  11
102.173685
  21
0.053612
  31
0
  12
102.826315
  22
0.053612
  32
0
  13
102.826315
  23
0.053612
  33
0
  0
SOLID
  5
1c2
  330
1bd
  100
AcDbEntity
  8
2
  100
AcDbTrace
  10
102.5
  20
2.425
  30
0
  11
102.826315
  21
-0.053612
  31
0
  12
102.173685
  22
-0.053612
  32
0
  13
102.173685
  23
-0.053612
  33
0
  0
MTEXT
  5
1c3
  330
1bd
  100
AcDbEntity
  8
2
  100
AcDbMText
  10
102.5
  20
2.425
  30
0
  11
0
  21
1
  31
0
  40
2
  41
0
  71
8
  72
1
  1
ﾘ4.85
  0
POINT
  5
1c4
  330
1bd
  100
AcDbEntity
  8
2
  62
0
  100
AcDbPoint
  10
100.5
  20
-2.425
  30
0
  0
POINT
  5
1c5
  330
1bd
  100
AcDbEntity
  8
2
  62
0
  100
AcDbPoint
  10
100.5
  20
2.425
  30
0
  0
POINT
  5
1c6
  330
1bd
  100
AcDbEntity
  8
2
  62
0
  100
AcDbPoint
  10
102.5
  20
10.915842
  30
0
  0
ENDBLK
  5
1c7
  330
1bd
  100
AcDbEntity
  8
2
  100
AcDbBlockEnd
  0
BLOCK
  5
1c9
  330
1cb
  100
AcDbEntity
  8
2
  100
AcDbBlockBegin
  2
*D1ca
  70
1
  10
0
  20
0
  30
0
  3
*D1ca
  1

  0
LINE
  5
1cc
  330
1cb
  100
AcDbEntity
  8
2
  100
AcDbLine
  10
102.5
  20
2.425
  30
0
  11
102.5
  21
10
  31
0
  0
LINE
  5
1cd
  330
1cb
  100
AcDbEntity
  8
2
  100
AcDbLine
  10
60.63
  20
2.425
  30
0
  11
60.63
  21
10
  31
0
  0
LINE
  5
1ce
  330
1cb
  100
AcDbEntity
  8
2
  100
AcDbLine
  10
102.5
  20
8
  30
0
  11
60.63
  21
8
  31
0
  0
SOLID
  5
1cf
  330
1cb
  100
AcDbEntity
  8
2
  100
AcDbTrace
  10
102.5
  20
8
  30
0
  11
104.978612
  21
8.326315
  31
0
  12
104.978612
  22
7.673685
  32
0
  13
104.978612
  23
7.673685
  33
0
  0
SOLID
  5
1d0
  330
1cb
  100
AcDbEntity
  8
2
  100
AcDbTrace
  10
60.63
  20
8
  30
0
  11
58.151388
  21
7.673685
  31
0
  12
58.151388
  22
8.326315
  32
0
  13
58.151388
  23
8.326315
  33
0
  0
MTEXT
  5
1d1
  330
1cb
  100
AcDbEntity
  8
2
  100
AcDbMText
  10
81.565
  20
8
  30
0
  11
1
  21
-0
  31
0
  40
2
  41
0
  71
8
  72
1
  1
41.87
  0
POINT
  5
1d2
  330
1cb
  100
AcDbEntity
  8
2
  62
0
  100
AcDbPoint
  10
102.5
  20
2.425
  30
0
  0
POINT
  5
1d3
  330
1cb
  100
AcDbEntity
  8
2
  62
0
  100
AcDbPoint
  10
60.63
  20
2.425
  30
0
  0
POINT
  5
1d4
  330
1cb
  100
AcDbEntity
  8
2
  62
0
  100
AcDbPoint
  10
60.63
  20
8
  30
0
  0
ENDBLK
  5
1d5
  330
1cb
  100
AcDbEntity
  8
2
  100
AcDbBlockEnd
  0
BLOCK
  5
1d7
  330
1d9
  100
AcDbEntity
  8
2
  100
AcDbBlockBegin
  2
*D1d8
  70
1
  10
0
  20
0
  30
0
  3
*D1d8
  1

  0
LINE
  5
1da
  330
1d9
  100
AcDbEntity
  8
2
  100
AcDbLine
  10
110
  20
2.5
  30
0
  11
110
  21
19
  31
0
  0
LINE
  5
1db
  330
1d9
  100
AcDbEntity
  8
2
  100
AcDbLine
  10
57.7
  20
3
  30
0
  11
57.7
  21
10
  31
0
  0
LINE
  5
1dc
  330
1d9
  100
AcDbEntity
  8
2
  100
AcDbLine
  10
110
  20
8
  30
0
  11
57.7
  21
8
  31
0
  0
SOLID
  5
1dd
  330
1d9
  100
AcDbEntity
  8
2
  100
AcDbTrace
  10
110
  20
8
  30
0
  11
112.478612
  21
8.326315
  31
0
  12
112.478612
  22
7.673685
  32
0
  13
112.478612
  23
7.673685
  33
0
  0
SOLID
  5
1de
  330
1d9
  100
AcDbEntity
  8
2
  100
AcDbTrace
  10
57.7
  20
8
  30
0
  11
55.221388
  21
7.673685
  31
0
  12
55.221388
  22
8.326315
  32
0
  13
55.221388
  23
8.326315
  33
0
  0
MTEXT
  5
1df
  330
1d9
  100
AcDbEntity
  8
2
  100
AcDbMText
  10
83.85
  20
8
  30
0
  11
1
  21
-0
  31
0
  40
2
  41
0
  71
8
  72
1
  1
52.3
  0
POINT
  5
1e0
  330
1d9
  100
AcDbEntity
  8
2
  62
0
  100
AcDbPoint
  10
110
  20
19
  30
0
  0
POINT
  5
1e1
  330
1d9
  100
AcDbEntity
  8
2
  62
0
  100
AcDbPoint
  10
57.7
  20
3
  30
0
  0
POINT
  5
1e2
  330
1d9
  100
AcDbEntity
  8
2
  62
0
  100
AcDbPoint
  10
57.7
  20
8
  30
0
  0
ENDBLK
  5
1e3
  330
1d9
  100
AcDbEntity
  8
2
  100
AcDbBlockEnd
  0
BLOCK
  5
1e5
  330
1e7
  100
AcDbEntity
  8
2
  100
AcDbBlockBegin
  2
*D1e6
  70
1
  10
0
  20
0
  30
0
  3
*D1e6
  1

  0
LINE
  5
1e8
  330
1e7
  100
AcDbEntity
  8
2
  100
AcDbLine
  10
110
  20
-7.238525
  30
0
  11
110
  21
-2.5
  31
0
  0
LINE
  5
1e9
  330
1e7
  100
AcDbEntity
  8
2
  100
AcDbLine
  10
102.5
  20
-7.238525
  30
0
  11
102.5
  21
-2.425
  31
0
  0
LINE
  5
1ea
  330
1e7
  100
AcDbEntity
  8
2
  100
AcDbLine
  10
110
  20
-5.238525
  30
0
  11
102.5
  21
-5.238525
  31
0
  0
SOLID
  5
1eb
  330
1e7
  100
AcDbEntity
  8
2
  100
AcDbTrace
  10
110
  20
-5.238525
  30
0
  11
112.478612
  21
-4.91221
  31
0
  12
112.478612
  22
-5.564841
  32
0
  13
112.478612
  23
-5.564841
  33
0
  0
SOLID
  5
1ec
  330
1e7
  100
AcDbEntity
  8
2
  100
AcDbTrace
  10
102.5
  20
-5.238525
  30
0
  11
100.021388
  21
-5.564841
  31
0
  12
100.021388
  22
-4.91221
  32
0
  13
100.021388
  23
-4.91221
  33
0
  0
MTEXT
  5
1ed
  330
1e7
  100
AcDbEntity
  8
2
  100
AcDbMText
  10
106.25
  20
-5.238525
  30
0
  11
1
  21
-0
  31
0
  40
2
  41
0
  71
8
  72
1
  1
7.5
  0
POINT
  5
1ee
  330
1e7
  100
AcDbEntity
  8
2
  62
0
  100
AcDbPoint
  10
110
  20
-2.5
  30
0
  0
POINT
  5
1ef
  330
1e7
  100
AcDbEntity
  8
2
  62
0
  100
AcDbPoint
  10
102.5
  20
-2.425
  30
0
  0
POINT
  5
1f0
  330
1e7
  100
AcDbEntity
  8
2
  62
0
  100
AcDbPoint
  10
102.5
  20
-5.238525
  30
0
  0
ENDBLK
  5
1f1
  330
1e7
  100
AcDbEntity
  8
2
  100
AcDbBlockEnd
  0
ENDSEC
  0
SECTION
  2
ENTITIES
  0
DIMENSION
  5
190
  100
AcDbEntity
  8
SK2
  100
AcDbDimension
  2
*D184
  10
110
  20
17
  30
0
  11
55
  21
17
  31
0
  70
160
  1
<>
  71
5
  3
STANDARD
  42
110
  100
AcDbAlignedDimension
  13
0
  23
2.3
  33
0
  14
110
  24
2.5
  34
0
  50
0
  100
AcDbRotatedDimension
  0
DIMENSION
  5
19e
  100
AcDbEntity
  8
SK2
  100
AcDbDimension
  2
*D192
  10
0
  20
6.790387
  30
0
  11
28.85
  21
6.790387
  31
0
  70
160
  1
<>
  71
5
  3
STANDARD
  42
57.7
  100
AcDbAlignedDimension
  13
57.7
  23
3
  33
0
  14
0
  24
2.3
  34
0
  50
0
  100
AcDbRotatedDimension
  0
DIMENSION
  5
1ac
  100
AcDbEntity
  8
SK2
  100
AcDbDimension
  2
*D1a0
  10
-10
  20
3
  30
0
  11
-10
  21
0
  31
0
  70
160
  1
%%c<>
  71
5
  3
STANDARD
  42
6
  100
AcDbAlignedDimension
  13
0.7
  23
-3
  33
0
  14
0.7
  24
3
  34
0
  50
-90
  100
AcDbRotatedDimension
  0
DIMENSION
  5
1ba
  100
AcDbEntity
  8
2
  100
AcDbDimension
  2
*D1ae
  10
120
  20
2.5
  30
0
  11
120
  21
0
  31
0
  70
160
  1
%%c<>
  71
5
  3
STANDARD
  42
5
  100
AcDbAlignedDimension
  13
110
  23
-2.5
  33
0
  14
110
  24
2.5
  34
0
  50
-90
  100
AcDbRotatedDimension
  0
DIMENSION
  5
1c8
  100
AcDbEntity
  8
2
  100
AcDbDimension
  2
*D1bc
  10
102.5
  20
10.915842
  30
0
  11
102.5
  21
2.425
  31
0
  70
160
  1
%%c<>
  71
5
  3
STANDARD
  42
4.85
  100
AcDbAlignedDimension
  13
100.5
  23
-2.425
  33
0
  14
100.5
  24
2.425
  34
0
  50
-90
  100
AcDbRotatedDimension
  0
DIMENSION
  5
1d6
  100
AcDbEntity
  8
2
  100
AcDbDimension
  2
*D1ca
  10
60.63
  20
8
  30
0
  11
81.565
  21
8
  31
0
  70
160
  1
<>
  71
5
  3
STANDARD
  42
41.87
  100
AcDbAlignedDimension
  13
102.5
  23
2.425
  33
0
  14
60.63
  24
2.425
  34
0
  50
0
  100
AcDbRotatedDimension
  0
DIMENSION
  5
1e4
  100
AcDbEntity
  8
2
  100
AcDbDimension
  2
*D1d8
  10
57.7
  20
8
  30
0
  11
83.85
  21
8
  31
0
  70
160
  1
<>
  71
5
  3
STANDARD
  42
52.3
  100
AcDbAlignedDimension
  13
110
  23
19
  33
0
  14
57.7
  24
3
  34
0
  50
0
  100
AcDbRotatedDimension
  0
DIMENSION
  5
1f2
  100
AcDbEntity
  8
2
  100
AcDbDimension
  2
*D1e6
  10
102.5
  20
-5.238525
  30
0
  11
106.25
  21
-5.238525
  31
0
  70
160
  1
<>
  71
5
  3
STANDARD
  42
7.5
  100
AcDbAlignedDimension
  13
110
  23
-2.5
  33
0
  14
102.5
  24
-2.425
  34
0
  50
0
  100
AcDbRotatedDimension
  0
LINE
  5
36
  100
AcDbEntity
  8
1
  100
AcDbLine
  10
57.7
  20
3
  30
0
  11
57.7
  21
-3
  31
0
  0
LINE
  5
37
  100
AcDbEntity
  8
1
  100
AcDbLine
  10
57.7
  20
-3
  30
0
  11
57.7
  21
3
  31
0
  0
LINE
  5
38
  100
AcDbEntity
  8
1
  100
AcDbLine
  10
60.63
  20
-2.425
  30
0
  11
60.63
  21
2.425
  31
0
  0
LINE
  5
39
  100
AcDbEntity
  8
1
  100
AcDbLine
  10
101.664523
  20
2.425
  30
0
  11
101.7
  21
2.357519
  31
0
  0
LINE
  5
3a
  100
AcDbEntity
  8
1
  100
AcDbLine
  10
101.7
  20
2.357519
  30
0
  11
101.8
  21
1.987359
  31
0
  0
LINE
  5
3b
  100
AcDbEntity
  8
1
  100
AcDbLine
  10
101.8
  20
1.987359
  30
0
  11
101.9
  21
1.679778
  31
0
  0
LINE
  5
3c
  100
AcDbEntity
  8
1
  100
AcDbLine
  10
101.9
  20
1.679778
  30
0
  11
102
  21
1.499833
  31
0
  0
LINE
  5
3d
  100
AcDbEntity
  8
1
  100
AcDbLine
  10
102
  20
1.499833
  30
0
  11
102.1
  21
1.4006
  31
0
  0
LINE
  5
3e
  100
AcDbEntity
  8
1
  100
AcDbLine
  10
102.1
  20
1.4006
  30
0
  11
102.2
  21
1.338033
  31
0
  0
LINE
  5
3f
  100
AcDbEntity
  8
1
  100
AcDbLine
  10
102.2
  20
1.338033
  30
0
  11
102.3
  21
1.287659
  31
0
  0
LINE
  5
40
  100
AcDbEntity
  8
1
  100
AcDbLine
  10
102.3
  20
1.287659
  30
0
  11
102.4
  21
1.239546
  31
0
  0
LINE
  5
41
  100
AcDbEntity
  8
1
  100
AcDbLine
  10
102.4
  20
1.239546
  30
0
  11
102.5
  21
1.19108
  31
0
  0
LINE
  5
42
  100
AcDbEntity
  8
1
  100
AcDbLine
  10
102.5
  20
1.19108
  30
0
  11
102.5
  21
1.221142
  31
0
  0
LINE
  5
43
  100
AcDbEntity
  8
1
  100
AcDbLine
  10
102.5
  20
1.221142
  30
0
  11
102.6
  21
1.170442
  31
0
  0
LINE
  5
44
  100
AcDbEntity
  8
1
  100
AcDbLine
  10
102.6
  20
1.170442
  30
0
  11
102.7
  21
1.119118
  31
0
  0
LINE
  5
45
  100
AcDbEntity
  8
1
  100
AcDbLine
  10
102.7
  20
1.119118
  30
0
  11
102.8
  21
1.067197
  31
0
  0
LINE
  5
46
  100
AcDbEntity
  8
1
  100
AcDbLine
  10
102.8
  20
1.067197
  30
0
  11
102.9
  21
1.014706
  31
0
  0
LINE
  5
47
  100
AcDbEntity
  8
1
  100
AcDbLine
  10
102.9
  20
1.014706
  30
0
  11
103
  21
0.961675
  31
0
  0
LINE
  5
48
  100
AcDbEntity
  8
1
  100
AcDbLine
  10
103
  20
0.961675
  30
0
  11
103.1
  21
0.908131
  31
0
  0
LINE
  5
49
  100
AcDbEntity
  8
1
  100
AcDbLine
  10
103.1
  20
0.908131
  30
0
  11
103.2
  21
0.854102
  31
0
  0
LINE
  5
4a
  100
AcDbEntity
  8
1
  100
AcDbLine
  10
103.2
  20
0.854102
  30
0
  11
103.3
  21
0.799618
  31
0
  0
LINE
  5
4b
  100
AcDbEntity
  8
1
  100
AcDbLine
  10
103.3
  20
0.799618
  30
0
  11
103.4
  21
0.744708
  31
0
  0
LINE
  5
4c
  100
AcDbEntity
  8
1
  100
AcDbLine
  10
103.4
  20
0.744708
  30
0
  11
103.5
  21
0.6894
  31
0
  0
LINE
  5
4d
  100
AcDbEntity
  8
1
  100
AcDbLine
  10
103.5
  20
0.6894
  30
0
  11
103.6
  21
0.633725
  31
0
  0
LINE
  5
4e
  100
AcDbEntity
  8
1
  100
AcDbLine
  10
103.6
  20
0.633725
  30
0
  11
103.7
  21
0.577711
  31
0
  0
LINE
  5
4f
  100
AcDbEntity
  8
1
  100
AcDbLine
  10
103.7
  20
0.577711
  30
0
  11
103.8
  21
0.52139
  31
0
  0
LINE
  5
50
  100
AcDbEntity
  8
1
  100
AcDbLine
  10
103.8
  20
0.52139
  30
0
  11
103.9
  21
0.46479
  31
0
  0
LINE
  5
51
  100
AcDbEntity
  8
1
  100
AcDbLine
  10
103.9
  20
0.46479
  30
0
  11
104
  21
0.407943
  31
0
  0
LINE
  5
52
  100
AcDbEntity
  8
1
  100
AcDbLine
  10
104
  20
0.407943
  30
0
  11
104.1
  21
0.350878
  31
0
  0
LINE
  5
53
  100
AcDbEntity
  8
1
  100
AcDbLine
  10
104.1
  20
0.350878
  30
0
  11
104.2
  21
0.293626
  31
0
  0
LINE
  5
54
  100
AcDbEntity
  8
1
  100
AcDbLine
  10
104.2
  20
0.293626
  30
0
  11
104.3
  21
0.236217
  31
0
  0
LINE
  5
55
  100
AcDbEntity
  8
1
  100
AcDbLine
  10
104.3
  20
0.236217
  30
0
  11
104.4
  21
0.178683
  31
0
  0
LINE
  5
56
  100
AcDbEntity
  8
1
  100
AcDbLine
  10
104.4
  20
0.178683
  30
0
  11
104.5
  21
0.121053
  31
0
  0
LINE
  5
57
  100
AcDbEntity
  8
1
  100
AcDbLine
  10
104.5
  20
0.121053
  30
0
  11
104.6
  21
0.063358
  31
0
  0
LINE
  5
58
  100
AcDbEntity
  8
1
  100
AcDbLine
  10
104.6
  20
0.063358
  30
0
  11
104.7
  21
0.00563
  31
0
  0
LINE
  5
59
  100
AcDbEntity
  8
1
  100
AcDbLine
  10
104.7
  20
0.00563
  30
0
  11
104.8
  21
-0.052101
  31
0
  0
LINE
  5
5a
  100
AcDbEntity
  8
1
  100
AcDbLine
  10
104.8
  20
-0.052101
  30
0
  11
104.9
  21
-0.109804
  31
0
  0
LINE
  5
5b
  100
AcDbEntity
  8
1
  100
AcDbLine
  10
104.9
  20
-0.109804
  30
0
  11
105
  21
-0.167449
  31
0
  0
LINE
  5
5c
  100
AcDbEntity
  8
1
  100
AcDbLine
  10
105
  20
-0.167449
  30
0
  11
105.1
  21
-0.225005
  31
0
  0
LINE
  5
5d
  100
AcDbEntity
  8
1
  100
AcDbLine
  10
105.1
  20
-0.225005
  30
0
  11
105.2
  21
-0.282441
  31
0
  0
LINE
  5
5e
  100
AcDbEntity
  8
1
  100
AcDbLine
  10
105.2
  20
-0.282441
  30
0
  11
105.3
  21
-0.339726
  31
0
  0
LINE
  5
5f
  100
AcDbEntity
  8
1
  100
AcDbLine
  10
105.3
  20
-0.339726
  30
0
  11
105.4
  21
-0.396829
  31
0
  0
LINE
  5
60
  100
AcDbEntity
  8
1
  100
AcDbLine
  10
105.4
  20
-0.396829
  30
0
  11
105.5
  21
-0.453722
  31
0
  0
LINE
  5
61
  100
AcDbEntity
  8
1
  100
AcDbLine
  10
105.5
  20
-0.453722
  30
0
  11
105.6
  21
-0.510372
  31
0
  0
LINE
  5
62
  100
AcDbEntity
  8
1
  100
AcDbLine
  10
105.6
  20
-0.510372
  30
0
  11
105.7
  21
-0.56675
  31
0
  0
LINE
  5
63
  100
AcDbEntity
  8
1
  100
AcDbLine
  10
105.7
  20
-0.56675
  30
0
  11
105.8
  21
-0.622825
  31
0
  0
LINE
  5
64
  100
AcDbEntity
  8
1
  100
AcDbLine
  10
105.8
  20
-0.622825
  30
0
  11
105.9
  21
-0.678569
  31
0
  0
LINE
  5
65
  100
AcDbEntity
  8
1
  100
AcDbLine
  10
105.9
  20
-0.678569
  30
0
  11
106
  21
-0.733951
  31
0
  0
LINE
  5
66
  100
AcDbEntity
  8
1
  100
AcDbLine
  10
106
  20
-0.733951
  30
0
  11
106.1
  21
-0.788941
  31
0
  0
LINE
  5
67
  100
AcDbEntity
  8
1
  100
AcDbLine
  10
106.1
  20
-0.788941
  30
0
  11
106.2
  21
-0.843511
  31
0
  0
LINE
  5
68
  100
AcDbEntity
  8
1
  100
AcDbLine
  10
106.2
  20
-0.843511
  30
0
  11
106.3
  21
-0.89763
  31
0
  0
LINE
  5
69
  100
AcDbEntity
  8
1
  100
AcDbLine
  10
106.3
  20
-0.89763
  30
0
  11
106.4
  21
-0.951271
  31
0
  0
LINE
  5
6a
  100
AcDbEntity
  8
1
  100
AcDbLine
  10
106.4
  20
-0.951271
  30
0
  11
106.5
  21
-1.004405
  31
0
  0
LINE
  5
6b
  100
AcDbEntity
  8
1
  100
AcDbLine
  10
106.5
  20
-1.004405
  30
0
  11
106.6
  21
-1.057003
  31
0
  0
LINE
  5
6c
  100
AcDbEntity
  8
1
  100
AcDbLine
  10
106.6
  20
-1.057003
  30
0
  11
106.7
  21
-1.109037
  31
0
  0
LINE
  5
6d
  100
AcDbEntity
  8
1
  100
AcDbLine
  10
106.7
  20
-1.109037
  30
0
  11
106.8
  21
-1.16048
  31
0
  0
LINE
  5
6e
  100
AcDbEntity
  8
1
  100
AcDbLine
  10
106.8
  20
-1.16048
  30
0
  11
106.9
  21
-1.211304
  31
0
  0
LINE
  5
6f
  100
AcDbEntity
  8
1
  100
AcDbLine
  10
106.9
  20
-1.211304
  30
0
  11
107
  21
-1.261482
  31
0
  0
LINE
  5
70
  100
AcDbEntity
  8
1
  100
AcDbLine
  10
107
  20
-1.261482
  30
0
  11
107.1
  21
-1.310987
  31
0
  0
LINE
  5
71
  100
AcDbEntity
  8
1
  100
AcDbLine
  10
107.1
  20
-1.310987
  30
0
  11
107.2
  21
-1.359793
  31
0
  0
LINE
  5
72
  100
AcDbEntity
  8
1
  100
AcDbLine
  10
107.2
  20
-1.359793
  30
0
  11
107.3
  21
-1.407874
  31
0
  0
LINE
  5
73
  100
AcDbEntity
  8
1
  100
AcDbLine
  10
107.3
  20
-1.407874
  30
0
  11
107.4
  21
-1.455204
  31
0
  0
LINE
  5
74
  100
AcDbEntity
  8
1
  100
AcDbLine
  10
107.4
  20
-1.455204
  30
0
  11
107.5
  21
-1.501758
  31
0
  0
LINE
  5
75
  100
AcDbEntity
  8
1
  100
AcDbLine
  10
107.5
  20
-1.501758
  30
0
  11
107.6
  21
-1.547511
  31
0
  0
LINE
  5
76
  100
AcDbEntity
  8
1
  100
AcDbLine
  10
107.6
  20
-1.547511
  30
0
  11
107.7
  21
-1.592438
  31
0
  0
LINE
  5
77
  100
AcDbEntity
  8
1
  100
AcDbLine
  10
107.7
  20
-1.592438
  30
0
  11
107.8
  21
-1.636517
  31
0
  0
LINE
  5
78
  100
AcDbEntity
  8
1
  100
AcDbLine
  10
107.8
  20
-1.636517
  30
0
  11
107.9
  21
-1.679722
  31
0
  0
LINE
  5
79
  100
AcDbEntity
  8
1
  100
AcDbLine
  10
107.9
  20
-1.679722
  30
0
  11
108
  21
-1.722032
  31
0
  0
LINE
  5
7a
  100
AcDbEntity
  8
1
  100
AcDbLine
  10
108
  20
-1.722032
  30
0
  11
108.1
  21
-1.763424
  31
0
  0
LINE
  5
7b
  100
AcDbEntity
  8
1
  100
AcDbLine
  10
108.1
  20
-1.763424
  30
0
  11
108.2
  21
-1.803875
  31
0
  0
LINE
  5
7c
  100
AcDbEntity
  8
1
  100
AcDbLine
  10
108.2
  20
-1.803875
  30
0
  11
108.3
  21
-1.843364
  31
0
  0
LINE
  5
7d
  100
AcDbEntity
  8
1
  100
AcDbLine
  10
108.3
  20
-1.843364
  30
0
  11
108.4
  21
-1.88187
  31
0
  0
LINE
  5
7e
  100
AcDbEntity
  8
1
  100
AcDbLine
  10
108.4
  20
-1.88187
  30
0
  11
108.5
  21
-1.919372
  31
0
  0
LINE
  5
7f
  100
AcDbEntity
  8
1
  100
AcDbLine
  10
108.5
  20
-1.919372
  30
0
  11
108.6
  21
-1.955851
  31
0
  0
LINE
  5
80
  100
AcDbEntity
  8
1
  100
AcDbLine
  10
108.6
  20
-1.955851
  30
0
  11
108.7
  21
-1.991286
  31
0
  0
LINE
  5
81
  100
AcDbEntity
  8
1
  100
AcDbLine
  10
108.7
  20
-1.991286
  30
0
  11
108.8
  21
-2.02566
  31
0
  0
LINE
  5
82
  100
AcDbEntity
  8
1
  100
AcDbLine
  10
108.8
  20
-2.02566
  30
0
  11
108.9
  21
-2.058953
  31
0
  0
LINE
  5
83
  100
AcDbEntity
  8
1
  100
AcDbLine
  10
108.9
  20
-2.058953
  30
0
  11
109
  21
-2.091148
  31
0
  0
LINE
  5
84
  100
AcDbEntity
  8
1
  100
AcDbLine
  10
109
  20
-2.091148
  30
0
  11
109.1
  21
-2.122228
  31
0
  0
LINE
  5
85
  100
AcDbEntity
  8
1
  100
AcDbLine
  10
109.1
  20
-2.122228
  30
0
  11
109.2
  21
-2.152177
  31
0
  0
LINE
  5
86
  100
AcDbEntity
  8
1
  100
AcDbLine
  10
109.2
  20
-2.152177
  30
0
  11
109.3
  21
-2.180977
  31
0
  0
LINE
  5
87
  100
AcDbEntity
  8
1
  100
AcDbLine
  10
109.3
  20
-2.180977
  30
0
  11
109.4
  21
-2.208615
  31
0
  0
LINE
  5
88
  100
AcDbEntity
  8
1
  100
AcDbLine
  10
109.4
  20
-2.208615
  30
0
  11
109.5
  21
-2.235074
  31
0
  0
LINE
  5
89
  100
AcDbEntity
  8
1
  100
AcDbLine
  10
109.5
  20
-2.235074
  30
0
  11
109.6
  21
-2.260341
  31
0
  0
LINE
  5
8a
  100
AcDbEntity
  8
1
  100
AcDbLine
  10
109.6
  20
-2.260341
  30
0
  11
109.7
  21
-2.284403
  31
0
  0
LINE
  5
8b
  100
AcDbEntity
  8
1
  100
AcDbLine
  10
109.7
  20
-2.284403
  30
0
  11
109.8
  21
-2.307247
  31
0
  0
LINE
  5
8c
  100
AcDbEntity
  8
1
  100
AcDbLine
  10
109.8
  20
-2.307247
  30
0
  11
109.9
  21
-2.32886
  31
0
  0
LINE
  5
8d
  100
AcDbEntity
  8
1
  100
AcDbLine
  10
109.9
  20
-2.32886
  30
0
  11
110
  21
-2.349232
  31
0
  0
LINE
  5
8e
  100
AcDbEntity
  8
1
  100
AcDbLine
  10
110
  20
-2.456588
  30
0
  11
109.9
  21
-2.450248
  31
0
  0
LINE
  5
8f
  100
AcDbEntity
  8
1
  100
AcDbLine
  10
109.9
  20
-2.450248
  30
0
  11
109.8
  21
-2.442601
  31
0
  0
LINE
  5
90
  100
AcDbEntity
  8
1
  100
AcDbLine
  10
109.8
  20
-2.442601
  30
0
  11
109.7
  21
-2.433651
  31
0
  0
LINE
  5
91
  100
AcDbEntity
  8
1
  100
AcDbLine
  10
109.7
  20
-2.433651
  30
0
  11
109.6
  21
-2.423403
  31
0
  0
LINE
  5
92
  100
AcDbEntity
  8
1
  100
AcDbLine
  10
109.6
  20
-2.423403
  30
0
  11
109.5
  21
-2.411863
  31
0
  0
LINE
  5
93
  100
AcDbEntity
  8
1
  100
AcDbLine
  10
109.5
  20
-2.411863
  30
0
  11
109.4
  21
-2.399037
  31
0
  0
LINE
  5
94
  100
AcDbEntity
  8
1
  100
AcDbLine
  10
109.4
  20
-2.399037
  30
0
  11
109.3
  21
-2.384931
  31
0
  0
LINE
  5
95
  100
AcDbEntity
  8
1
  100
AcDbLine
  10
109.3
  20
-2.384931
  30
0
  11
109.2
  21
-2.369553
  31
0
  0
LINE
  5
96
  100
AcDbEntity
  8
1
  100
AcDbLine
  10
109.2
  20
-2.369553
  30
0
  11
109.1
  21
-2.352912
  31
0
  0
LINE
  5
97
  100
AcDbEntity
  8
1
  100
AcDbLine
  10
109.1
  20
-2.352912
  30
0
  11
109
  21
-2.335016
  31
0
  0
LINE
  5
98
  100
AcDbEntity
  8
1
  100
AcDbLine
  10
109
  20
-2.335016
  30
0
  11
108.9
  21
-2.315874
  31
0
  0
LINE
  5
99
  100
AcDbEntity
  8
1
  100
AcDbLine
  10
108.9
  20
-2.315874
  30
0
  11
108.8
  21
-2.295498
  31
0
  0
LINE
  5
9a
  100
AcDbEntity
  8
1
  100
AcDbLine
  10
108.8
  20
-2.295498
  30
0
  11
108.7
  21
-2.273897
  31
0
  0
LINE
  5
9b
  100
AcDbEntity
  8
1
  100
AcDbLine
  10
108.7
  20
-2.273897
  30
0
  11
108.6
  21
-2.251083
  31
0
  0
LINE
  5
9c
  100
AcDbEntity
  8
1
  100
AcDbLine
  10
108.6
  20
-2.251083
  30
0
  11
108.5
  21
-2.227069
  31
0
  0
LINE
  5
9d
  100
AcDbEntity
  8
1
  100
AcDbLine
  10
108.5
  20
-2.227069
  30
0
  11
108.4
  21
-2.201868
  31
0
  0
LINE
  5
9e
  100
AcDbEntity
  8
1
  100
AcDbLine
  10
108.4
  20
-2.201868
  30
0
  11
108.3
  21
-2.175492
  31
0
  0
LINE
  5
9f
  100
AcDbEntity
  8
1
  100
AcDbLine
  10
108.3
  20
-2.175492
  30
0
  11
108.2
  21
-2.147956
  31
0
  0
LINE
  5
a0
  100
AcDbEntity
  8
1
  100
AcDbLine
  10
108.2
  20
-2.147956
  30
0
  11
108.1
  21
-2.119274
  31
0
  0
LINE
  5
a1
  100
AcDbEntity
  8
1
  100
AcDbLine
  10
108.1
  20
-2.119274
  30
0
  11
108
  21
-2.089462
  31
0
  0
LINE
  5
a2
  100
AcDbEntity
  8
1
  100
AcDbLine
  10
108
  20
-2.089462
  30
0
  11
107.9
  21
-2.058536
  31
0
  0
LINE
  5
a3
  100
AcDbEntity
  8
1
  100
AcDbLine
  10
107.9
  20
-2.058536
  30
0
  11
107.8
  21
-2.026511
  31
0
  0
LINE
  5
a4
  100
AcDbEntity
  8
1
  100
AcDbLine
  10
107.8
  20
-2.026511
  30
0
  11
107.7
  21
-1.993407
  31
0
  0
LINE
  5
a5
  100
AcDbEntity
  8
1
  100
AcDbLine
  10
107.7
  20
-1.993407
  30
0
  11
107.6
  21
-1.959239
  31
0
  0
LINE
  5
a6
  100
AcDbEntity
  8
1
  100
AcDbLine
  10
107.6
  20
-1.959239
  30
0
  11
107.5
  21
-1.924026
  31
0
  0
LINE
  5
a7
  100
AcDbEntity
  8
1
  100
AcDbLine
  10
107.5
  20
-1.924026
  30
0
  11
107.4
  21
-1.887787
  31
0
  0
LINE
  5
a8
  100
AcDbEntity
  8
1
  100
AcDbLine
  10
107.4
  20
-1.887787
  30
0
  11
107.3
  21
-1.850541
  31
0
  0
LINE
  5
a9
  100
AcDbEntity
  8
1
  100
AcDbLine
  10
107.3
  20
-1.850541
  30
0
  11
107.2
  21
-1.812308
  31
0
  0
LINE
  5
aa
  100
AcDbEntity
  8
1
  100
AcDbLine
  10
107.2
  20
-1.812308
  30
0
  11
107.1
  21
-1.773109
  31
0
  0
LINE
  5
ab
  100
AcDbEntity
  8
1
  100
AcDbLine
  10
107.1
  20
-1.773109
  30
0
  11
107
  21
-1.732964
  31
0
  0
LINE
  5
ac
  100
AcDbEntity
  8
1
  100
AcDbLine
  10
107
  20
-1.732964
  30
0
  11
106.9
  21
-1.691895
  31
0
  0
LINE
  5
ad
  100
AcDbEntity
  8
1
  100
AcDbLine
  10
106.9
  20
-1.691895
  30
0
  11
106.8
  21
-1.649924
  31
0
  0
LINE
  5
ae
  100
AcDbEntity
  8
1
  100
AcDbLine
  10
106.8
  20
-1.649924
  30
0
  11
106.7
  21
-1.607073
  31
0
  0
LINE
  5
af
  100
AcDbEntity
  8
1
  100
AcDbLine
  10
106.7
  20
-1.607073
  30
0
  11
106.6
  21
-1.563365
  31
0
  0
LINE
  5
b0
  100
AcDbEntity
  8
1
  100
AcDbLine
  10
106.6
  20
-1.563365
  30
0
  11
106.5
  21
-1.518823
  31
0
  0
LINE
  5
b1
  100
AcDbEntity
  8
1
  100
AcDbLine
  10
106.5
  20
-1.518823
  30
0
  11
106.4
  21
-1.47347
  31
0
  0
LINE
  5
b2
  100
AcDbEntity
  8
1
  100
AcDbLine
  10
106.4
  20
-1.47347
  30
0
  11
106.3
  21
-1.427333
  31
0
  0
LINE
  5
b3
  100
AcDbEntity
  8
1
  100
AcDbLine
  10
106.3
  20
-1.427333
  30
0
  11
106.2
  21
-1.380434
  31
0
  0
LINE
  5
b4
  100
AcDbEntity
  8
1
  100
AcDbLine
  10
106.2
  20
-1.380434
  30
0
  11
106.1
  21
-1.332798
  31
0
  0
LINE
  5
b5
  100
AcDbEntity
  8
1
  100
AcDbLine
  10
106.1
  20
-1.332798
  30
0
  11
106
  21
-1.284452
  31
0
  0
LINE
  5
b6
  100
AcDbEntity
  8
1
  100
AcDbLine
  10
106
  20
-1.284452
  30
0
  11
105.9
  21
-1.235421
  31
0
  0
LINE
  5
b7
  100
AcDbEntity
  8
1
  100
AcDbLine
  10
105.9
  20
-1.235421
  30
0
  11
105.8
  21
-1.185731
  31
0
  0
LINE
  5
b8
  100
AcDbEntity
  8
1
  100
AcDbLine
  10
105.8
  20
-1.185731
  30
0
  11
105.7
  21
-1.135409
  31
0
  0
LINE
  5
b9
  100
AcDbEntity
  8
1
  100
AcDbLine
  10
105.7
  20
-1.135409
  30
0
  11
105.6
  21
-1.084481
  31
0
  0
LINE
  5
ba
  100
AcDbEntity
  8
1
  100
AcDbLine
  10
105.6
  20
-1.084481
  30
0
  11
105.5
  21
-1.032975
  31
0
  0
LINE
  5
bb
  100
AcDbEntity
  8
1
  100
AcDbLine
  10
105.5
  20
-1.032975
  30
0
  11
105.4
  21
-0.980918
  31
0
  0
LINE
  5
bc
  100
AcDbEntity
  8
1
  100
AcDbLine
  10
105.4
  20
-0.980918
  30
0
  11
105.3
  21
-0.928338
  31
0
  0
LINE
  5
bd
  100
AcDbEntity
  8
1
  100
AcDbLine
  10
105.3
  20
-0.928338
  30
0
  11
105.2
  21
-0.875262
  31
0
  0
LINE
  5
be
  100
AcDbEntity
  8
1
  100
AcDbLine
  10
105.2
  20
-0.875262
  30
0
  11
105.1
  21
-0.82172
  31
0
  0
LINE
  5
bf
  100
AcDbEntity
  8
1
  100
AcDbLine
  10
105.1
  20
-0.82172
  30
0
  11
105
  21
-0.76774
  31
0
  0
LINE
  5
c0
  100
AcDbEntity
  8
1
  100
AcDbLine
  10
105
  20
-0.76774
  30
0
  11
104.9
  21
-0.71335
  31
0
  0
LINE
  5
c1
  100
AcDbEntity
  8
1
  100
AcDbLine
  10
104.9
  20
-0.71335
  30
0
  11
104.8
  21
-0.65858
  31
0
  0
LINE
  5
c2
  100
AcDbEntity
  8
1
  100
AcDbLine
  10
104.8
  20
-0.65858
  30
0
  11
104.7
  21
-0.603458
  31
0
  0
LINE
  5
c3
  100
AcDbEntity
  8
1
  100
AcDbLine
  10
104.7
  20
-0.603458
  30
0
  11
104.6
  21
-0.548015
  31
0
  0
LINE
  5
c4
  100
AcDbEntity
  8
1
  100
AcDbLine
  10
104.6
  20
-0.548015
  30
0
  11
104.5
  21
-0.49228
  31
0
  0
LINE
  5
c5
  100
AcDbEntity
  8
1
  100
AcDbLine
  10
104.5
  20
-0.49228
  30
0
  11
104.4
  21
-0.436282
  31
0
  0
LINE
  5
c6
  100
AcDbEntity
  8
1
  100
AcDbLine
  10
104.4
  20
-0.436282
  30
0
  11
104.3
  21
-0.380051
  31
0
  0
LINE
  5
c7
  100
AcDbEntity
  8
1
  100
AcDbLine
  10
104.3
  20
-0.380051
  30
0
  11
104.2
  21
-0.323617
  31
0
  0
LINE
  5
c8
  100
AcDbEntity
  8
1
  100
AcDbLine
  10
104.2
  20
-0.323617
  30
0
  11
104.1
  21
-0.267011
  31
0
  0
LINE
  5
c9
  100
AcDbEntity
  8
1
  100
AcDbLine
  10
104.1
  20
-0.267011
  30
0
  11
104
  21
-0.210263
  31
0
  0
LINE
  5
ca
  100
AcDbEntity
  8
1
  100
AcDbLine
  10
104
  20
-0.210263
  30
0
  11
103.9
  21
-0.153402
  31
0
  0
LINE
  5
cb
  100
AcDbEntity
  8
1
  100
AcDbLine
  10
103.9
  20
-0.153402
  30
0
  11
103.8
  21
-0.09646
  31
0
  0
LINE
  5
cc
  100
AcDbEntity
  8
1
  100
AcDbLine
  10
103.8
  20
-0.09646
  30
0
  11
103.7
  21
-0.039466
  31
0
  0
LINE
  5
cd
  100
AcDbEntity
  8
1
  100
AcDbLine
  10
103.7
  20
-0.039466
  30
0
  11
103.6
  21
0.017549
  31
0
  0
LINE
  5
ce
  100
AcDbEntity
  8
1
  100
AcDbLine
  10
103.6
  20
0.017549
  30
0
  11
103.5
  21
0.074554
  31
0
  0
LINE
  5
cf
  100
AcDbEntity
  8
1
  100
AcDbLine
  10
103.5
  20
0.074554
  30
0
  11
103.4
  21
0.13152
  31
0
  0
LINE
  5
d0
  100
AcDbEntity
  8
1
  100
AcDbLine
  10
103.4
  20
0.13152
  30
0
  11
103.3
  21
0.188415
  31
0
  0
LINE
  5
d1
  100
AcDbEntity
  8
1
  100
AcDbLine
  10
103.3
  20
0.188415
  30
0
  11
103.2
  21
0.24521
  31
0
  0
LINE
  5
d2
  100
AcDbEntity
  8
1
  100
AcDbLine
  10
103.2
  20
0.24521
  30
0
  11
103.1
  21
0.301875
  31
0
  0
LINE
  5
d3
  100
AcDbEntity
  8
1
  100
AcDbLine
  10
103.1
  20
0.301875
  30
0
  11
103
  21
0.358378
  31
0
  0
LINE
  5
d4
  100
AcDbEntity
  8
1
  100
AcDbLine
  10
103
  20
0.358378
  30
0
  11
102.9
  21
0.41469
  31
0
  0
LINE
  5
d5
  100
AcDbEntity
  8
1
  100
AcDbLine
  10
102.9
  20
0.41469
  30
0
  11
102.8
  21
0.470781
  31
0
  0
LINE
  5
d6
  100
AcDbEntity
  8
1
  100
AcDbLine
  10
102.8
  20
0.470781
  30
0
  11
102.7
  21
0.526621
  31
0
  0
LINE
  5
d7
  100
AcDbEntity
  8
1
  100
AcDbLine
  10
102.7
  20
0.526621
  30
0
  11
102.6
  21
0.58218
  31
0
  0
LINE
  5
d8
  100
AcDbEntity
  8
1
  100
AcDbLine
  10
102.6
  20
0.58218
  30
0
  11
102.5
  21
0.637429
  31
0
  0
LINE
  5
d9
  100
AcDbEntity
  8
1
  100
AcDbLine
  10
102.5
  20
0.637429
  30
0
  11
102.5
  21
0.63543
  31
0
  0
LINE
  5
da
  100
AcDbEntity
  8
1
  100
AcDbLine
  10
102.5
  20
-2.5
  30
0
  11
102.5
  21
2.5
  31
0
  0
LINE
  5
db
  100
AcDbEntity
  8
1
  100
AcDbLine
  10
102.5
  20
2.425
  30
0
  11
102.5
  21
-2.425
  31
0
  0
LINE
  5
dc
  100
AcDbEntity
  8
1
  100
AcDbLine
  10
101.664523
  20
-2.425
  30
0
  11
101.6
  21
-2.193875
  31
0
  0
LINE
  5
dd
  100
AcDbEntity
  8
1
  100
AcDbLine
  10
101.6
  20
-2.193875
  30
0
  11
101.6
  21
-0.702363
  31
0
  0
LINE
  5
de
  100
AcDbEntity
  8
1
  100
AcDbLine
  10
101.6
  20
-0.702363
  30
0
  11
101.7
  21
0.4532
  31
0
  0
LINE
  5
df
  100
AcDbEntity
  8
1
  100
AcDbLine
  10
101.7
  20
0.4532
  30
0
  11
101.8
  21
0.704018
  31
0
  0
LINE
  5
e0
  100
AcDbEntity
  8
1
  100
AcDbLine
  10
101.8
  20
0.704018
  30
0
  11
101.9
  21
0.714374
  31
0
  0
LINE
  5
e1
  100
AcDbEntity
  8
1
  100
AcDbLine
  10
101.9
  20
0.714374
  30
0
  11
102
  21
0.671318
  31
0
  0
LINE
  5
e2
  100
AcDbEntity
  8
1
  100
AcDbLine
  10
102
  20
0.671318
  30
0
  11
102.1
  21
0.618589
  31
0
  0
LINE
  5
e3
  100
AcDbEntity
  8
1
  100
AcDbLine
  10
102.1
  20
0.618589
  30
0
  11
102.2
  21
0.564369
  31
0
  0
LINE
  5
e4
  100
AcDbEntity
  8
1
  100
AcDbLine
  10
102.2
  20
0.564369
  30
0
  11
102.3
  21
0.509761
  31
0
  0
LINE
  5
e5
  100
AcDbEntity
  8
1
  100
AcDbLine
  10
102.3
  20
0.509761
  30
0
  11
102.4
  21
0.454878
  31
0
  0
LINE
  5
e6
  100
AcDbEntity
  8
1
  100
AcDbLine
  10
102.4
  20
0.454878
  30
0
  11
102.5
  21
0.399753
  31
0
  0
LINE
  5
e7
  100
AcDbEntity
  8
1
  100
AcDbLine
  10
102.5
  20
0.399753
  30
0
  11
102.5
  21
0.401391
  31
0
  0
LINE
  5
e8
  100
AcDbEntity
  8
1
  100
AcDbLine
  10
102.5
  20
0.401391
  30
0
  11
102.6
  21
0.344303
  31
0
  0
LINE
  5
e9
  100
AcDbEntity
  8
1
  100
AcDbLine
  10
102.6
  20
0.344303
  30
0
  11
102.7
  21
0.287032
  31
0
  0
LINE
  5
ea
  100
AcDbEntity
  8
1
  100
AcDbLine
  10
102.7
  20
0.287032
  30
0
  11
102.8
  21
0.229607
  31
0
  0
LINE
  5
eb
  100
AcDbEntity
  8
1
  100
AcDbLine
  10
102.8
  20
0.229607
  30
0
  11
102.9
  21
0.17206
  31
0
  0
LINE
  5
ec
  100
AcDbEntity
  8
1
  100
AcDbLine
  10
102.9
  20
0.17206
  30
0
  11
103
  21
0.114421
  31
0
  0
LINE
  5
ed
  100
AcDbEntity
  8
1
  100
AcDbLine
  10
103
  20
0.114421
  30
0
  11
103.1
  21
0.056721
  31
0
  0
LINE
  5
ee
  100
AcDbEntity
  8
1
  100
AcDbLine
  10
103.1
  20
0.056721
  30
0
  11
103.2
  21
-0.001009
  31
0
  0
LINE
  5
ef
  100
AcDbEntity
  8
1
  100
AcDbLine
  10
103.2
  20
-0.001009
  30
0
  11
103.3
  21
-0.058739
  31
0
  0
LINE
  5
f0
  100
AcDbEntity
  8
1
  100
AcDbLine
  10
103.3
  20
-0.058739
  30
0
  11
103.4
  21
-0.116437
  31
0
  0
LINE
  5
f1
  100
AcDbEntity
  8
1
  100
AcDbLine
  10
103.4
  20
-0.116437
  30
0
  11
103.5
  21
-0.174073
  31
0
  0
LINE
  5
f2
  100
AcDbEntity
  8
1
  100
AcDbLine
  10
103.5
  20
-0.174073
  30
0
  11
103.6
  21
-0.231616
  31
0
  0
LINE
  5
f3
  100
AcDbEntity
  8
1
  100
AcDbLine
  10
103.6
  20
-0.231616
  30
0
  11
103.7
  21
-0.289036
  31
0
  0
LINE
  5
f4
  100
AcDbEntity
  8
1
  100
AcDbLine
  10
103.7
  20
-0.289036
  30
0
  11
103.8
  21
-0.346302
  31
0
  0
LINE
  5
f5
  100
AcDbEntity
  8
1
  100
AcDbLine
  10
103.8
  20
-0.346302
  30
0
  11
103.9
  21
-0.403383
  31
0
  0
LINE
  5
f6
  100
AcDbEntity
  8
1
  100
AcDbLine
  10
103.9
  20
-0.403383
  30
0
  11
104
  21
-0.460249
  31
0
  0
LINE
  5
f7
  100
AcDbEntity
  8
1
  100
AcDbLine
  10
104
  20
-0.460249
  30
0
  11
104.1
  21
-0.516869
  31
0
  0
LINE
  5
f8
  100
AcDbEntity
  8
1
  100
AcDbLine
  10
104.1
  20
-0.516869
  30
0
  11
104.2
  21
-0.573214
  31
0
  0
LINE
  5
f9
  100
AcDbEntity
  8
1
  100
AcDbLine
  10
104.2
  20
-0.573214
  30
0
  11
104.3
  21
-0.629253
  31
0
  0
LINE
  5
fa
  100
AcDbEntity
  8
1
  100
AcDbLine
  10
104.3
  20
-0.629253
  30
0
  11
104.4
  21
-0.684957
  31
0
  0
LINE
  5
fb
  100
AcDbEntity
  8
1
  100
AcDbLine
  10
104.4
  20
-0.684957
  30
0
  11
104.5
  21
-0.740295
  31
0
  0
LINE
  5
fc
  100
AcDbEntity
  8
1
  100
AcDbLine
  10
104.5
  20
-0.740295
  30
0
  11
104.6
  21
-0.795238
  31
0
  0
LINE
  5
fd
  100
AcDbEntity
  8
1
  100
AcDbLine
  10
104.6
  20
-0.795238
  30
0
  11
104.7
  21
-0.849758
  31
0
  0
LINE
  5
fe
  100
AcDbEntity
  8
1
  100
AcDbLine
  10
104.7
  20
-0.849758
  30
0
  11
104.8
  21
-0.903824
  31
0
  0
LINE
  5
ff
  100
AcDbEntity
  8
1
  100
AcDbLine
  10
104.8
  20
-0.903824
  30
0
  11
104.9
  21
-0.957408
  31
0
  0
LINE
  5
100
  100
AcDbEntity
  8
1
  100
AcDbLine
  10
104.9
  20
-0.957408
  30
0
  11
105
  21
-1.010481
  31
0
  0
LINE
  5
101
  100
AcDbEntity
  8
1
  100
AcDbLine
  10
105
  20
-1.010481
  30
0
  11
105.1
  21
-1.063016
  31
0
  0
LINE
  5
102
  100
AcDbEntity
  8
1
  100
AcDbLine
  10
105.1
  20
-1.063016
  30
0
  11
105.2
  21
-1.114983
  31
0
  0
LINE
  5
103
  100
AcDbEntity
  8
1
  100
AcDbLine
  10
105.2
  20
-1.114983
  30
0
  11
105.3
  21
-1.166356
  31
0
  0
LINE
  5
104
  100
AcDbEntity
  8
1
  100
AcDbLine
  10
105.3
  20
-1.166356
  30
0
  11
105.4
  21
-1.217107
  31
0
  0
LINE
  5
105
  100
AcDbEntity
  8
1
  100
AcDbLine
  10
105.4
  20
-1.217107
  30
0
  11
105.5
  21
-1.267209
  31
0
  0
LINE
  5
106
  100
AcDbEntity
  8
1
  100
AcDbLine
  10
105.5
  20
-1.267209
  30
0
  11
105.6
  21
-1.316635
  31
0
  0
LINE
  5
107
  100
AcDbEntity
  8
1
  100
AcDbLine
  10
105.6
  20
-1.316635
  30
0
  11
105.7
  21
-1.365359
  31
0
  0
LINE
  5
108
  100
AcDbEntity
  8
1
  100
AcDbLine
  10
105.7
  20
-1.365359
  30
0
  11
105.8
  21
-1.413355
  31
0
  0
LINE
  5
109
  100
AcDbEntity
  8
1
  100
AcDbLine
  10
105.8
  20
-1.413355
  30
0
  11
105.9
  21
-1.460597
  31
0
  0
LINE
  5
10a
  100
AcDbEntity
  8
1
  100
AcDbLine
  10
105.9
  20
-1.460597
  30
0
  11
106
  21
-1.50706
  31
0
  0
LINE
  5
10b
  100
AcDbEntity
  8
1
  100
AcDbLine
  10
106
  20
-1.50706
  30
0
  11
106.1
  21
-1.55272
  31
0
  0
LINE
  5
10c
  100
AcDbEntity
  8
1
  100
AcDbLine
  10
106.1
  20
-1.55272
  30
0
  11
106.2
  21
-1.597551
  31
0
  0
LINE
  5
10d
  100
AcDbEntity
  8
1
  100
AcDbLine
  10
106.2
  20
-1.597551
  30
0
  11
106.3
  21
-1.64153
  31
0
  0
LINE
  5
10e
  100
AcDbEntity
  8
1
  100
AcDbLine
  10
106.3
  20
-1.64153
  30
0
  11
106.4
  21
-1.684634
  31
0
  0
LINE
  5
10f
  100
AcDbEntity
  8
1
  100
AcDbLine
  10
106.4
  20
-1.684634
  30
0
  11
106.5
  21
-1.726839
  31
0
  0
LINE
  5
110
  100
AcDbEntity
  8
1
  100
AcDbLine
  10
106.5
  20
-1.726839
  30
0
  11
106.6
  21
-1.768124
  31
0
  0
LINE
  5
111
  100
AcDbEntity
  8
1
  100
AcDbLine
  10
106.6
  20
-1.768124
  30
0
  11
106.7
  21
-1.808465
  31
0
  0
LINE
  5
112
  100
AcDbEntity
  8
1
  100
AcDbLine
  10
106.7
  20
-1.808465
  30
0
  11
106.8
  21
-1.847842
  31
0
  0
LINE
  5
113
  100
AcDbEntity
  8
1
  100
AcDbLine
  10
106.8
  20
-1.847842
  30
0
  11
106.9
  21
-1.886234
  31
0
  0
LINE
  5
114
  100
AcDbEntity
  8
1
  100
AcDbLine
  10
106.9
  20
-1.886234
  30
0
  11
107
  21
-1.923619
  31
0
  0
LINE
  5
115
  100
AcDbEntity
  8
1
  100
AcDbLine
  10
107
  20
-1.923619
  30
0
  11
107.1
  21
-1.959979
  31
0
  0
LINE
  5
116
  100
AcDbEntity
  8
1
  100
AcDbLine
  10
107.1
  20
-1.959979
  30
0
  11
107.2
  21
-1.995293
  31
0
  0
LINE
  5
117
  100
AcDbEntity
  8
1
  100
AcDbLine
  10
107.2
  20
-1.995293
  30
0
  11
107.3
  21
-2.029544
  31
0
  0
LINE
  5
118
  100
AcDbEntity
  8
1
  100
AcDbLine
  10
107.3
  20
-2.029544
  30
0
  11
107.4
  21
-2.062712
  31
0
  0
LINE
  5
119
  100
AcDbEntity
  8
1
  100
AcDbLine
  10
107.4
  20
-2.062712
  30
0
  11
107.5
  21
-2.09478
  31
0
  0
LINE
  5
11a
  100
AcDbEntity
  8
1
  100
AcDbLine
  10
107.5
  20
-2.09478
  30
0
  11
107.6
  21
-2.12573
  31
0
  0
LINE
  5
11b
  100
AcDbEntity
  8
1
  100
AcDbLine
  10
107.6
  20
-2.12573
  30
0
  11
107.7
  21
-2.155547
  31
0
  0
LINE
  5
11c
  100
AcDbEntity
  8
1
  100
AcDbLine
  10
107.7
  20
-2.155547
  30
0
  11
107.8
  21
-2.184215
  31
0
  0
LINE
  5
11d
  100
AcDbEntity
  8
1
  100
AcDbLine
  10
107.8
  20
-2.184215
  30
0
  11
107.9
  21
-2.211717
  31
0
  0
LINE
  5
11e
  100
AcDbEntity
  8
1
  100
AcDbLine
  10
107.9
  20
-2.211717
  30
0
  11
108
  21
-2.23804
  31
0
  0
LINE
  5
11f
  100
AcDbEntity
  8
1
  100
AcDbLine
  10
108
  20
-2.23804
  30
0
  11
108.1
  21
-2.26317
  31
0
  0
LINE
  5
120
  100
AcDbEntity
  8
1
  100
AcDbLine
  10
108.1
  20
-2.26317
  30
0
  11
108.2
  21
-2.287093
  31
0
  0
LINE
  5
121
  100
AcDbEntity
  8
1
  100
AcDbLine
  10
108.2
  20
-2.287093
  30
0
  11
108.3
  21
-2.309795
  31
0
  0
LINE
  5
122
  100
AcDbEntity
  8
1
  100
AcDbLine
  10
108.3
  20
-2.309795
  30
0
  11
108.4
  21
-2.331266
  31
0
  0
LINE
  5
123
  100
AcDbEntity
  8
1
  100
AcDbLine
  10
108.4
  20
-2.331266
  30
0
  11
108.5
  21
-2.351494
  31
0
  0
LINE
  5
124
  100
AcDbEntity
  8
1
  100
AcDbLine
  10
108.5
  20
-2.351494
  30
0
  11
108.6
  21
-2.370468
  31
0
  0
LINE
  5
125
  100
AcDbEntity
  8
1
  100
AcDbLine
  10
108.6
  20
-2.370468
  30
0
  11
108.7
  21
-2.388177
  31
0
  0
LINE
  5
126
  100
AcDbEntity
  8
1
  100
AcDbLine
  10
108.7
  20
-2.388177
  30
0
  11
108.8
  21
-2.404613
  31
0
  0
LINE
  5
127
  100
AcDbEntity
  8
1
  100
AcDbLine
  10
108.8
  20
-2.404613
  30
0
  11
108.9
  21
-2.419766
  31
0
  0
LINE
  5
128
  100
AcDbEntity
  8
1
  100
AcDbLine
  10
108.9
  20
-2.419766
  30
0
  11
109
  21
-2.433629
  31
0
  0
LINE
  5
129
  100
AcDbEntity
  8
1
  100
AcDbLine
  10
109
  20
-2.433629
  30
0
  11
109.1
  21
-2.446194
  31
0
  0
LINE
  5
12a
  100
AcDbEntity
  8
1
  100
AcDbLine
  10
109.1
  20
-2.446194
  30
0
  11
109.2
  21
-2.457455
  31
0
  0
LINE
  5
12b
  100
AcDbEntity
  8
1
  100
AcDbLine
  10
109.2
  20
-2.457455
  30
0
  11
109.3
  21
-2.467404
  31
0
  0
LINE
  5
12c
  100
AcDbEntity
  8
1
  100
AcDbLine
  10
109.3
  20
-2.467404
  30
0
  11
109.4
  21
-2.476038
  31
0
  0
LINE
  5
12d
  100
AcDbEntity
  8
1
  100
AcDbLine
  10
109.4
  20
-2.476038
  30
0
  11
109.5
  21
-2.483352
  31
0
  0
LINE
  5
12e
  100
AcDbEntity
  8
1
  100
AcDbLine
  10
109.5
  20
-2.483352
  30
0
  11
109.6
  21
-2.489341
  31
0
  0
LINE
  5
12f
  100
AcDbEntity
  8
1
  100
AcDbLine
  10
109.6
  20
-2.489341
  30
0
  11
109.7
  21
-2.494002
  31
0
  0
LINE
  5
130
  100
AcDbEntity
  8
1
  100
AcDbLine
  10
109.7
  20
-2.494002
  30
0
  11
109.8
  21
-2.497334
  31
0
  0
LINE
  5
131
  100
AcDbEntity
  8
1
  100
AcDbLine
  10
109.8
  20
-2.497334
  30
0
  11
109.9
  21
-2.499333
  31
0
  0
LINE
  5
132
  100
AcDbEntity
  8
1
  100
AcDbLine
  10
109.9
  20
-2.499333
  30
0
  11
110
  21
-2.5
  31
0
  0
LINE
  5
133
  100
AcDbEntity
  8
1
  100
AcDbLine
  10
110
  20
-2.5
  30
0
  11
110
  21
0
  31
0
  0
LINE
  5
134
  100
AcDbEntity
  8
1
  100
AcDbLine
  10
110
  20
0
  30
0
  11
110
  21
2.5
  31
0
  0
LINE
  5
135
  100
AcDbEntity
  8
1
  100
AcDbLine
  10
110
  20
2.5
  30
0
  11
102.5
  21
2.5
  31
0
  0
LINE
  5
136
  100
AcDbEntity
  8
1
  100
AcDbLine
  10
102.5
  20
2.5
  30
0
  11
102.5
  21
2.425
  31
0
  0
LINE
  5
137
  100
AcDbEntity
  8
1
  100
AcDbLine
  10
102.5
  20
2.425
  30
0
  11
60.63
  21
2.425
  31
0
  0
ARC
  5
138
  100
AcDbEntity
  8
1
  100
AcDbCircle
  10
61.501557
  20
12.386947
  30
0
  40
10
  100
AcDbArc
  50
255
  51
265
  0
LINE
  5
139
  100
AcDbEntity
  8
1
  100
AcDbLine
  10
58.913367
  20
2.727689
  30
0
  11
57.897087
  21
3
  31
0
  0
LINE
  5
13a
  100
AcDbEntity
  8
1
  100
AcDbLine
  10
57.897087
  20
3
  30
0
  11
57.7
  21
3
  31
0
  0
LINE
  5
13b
  100
AcDbEntity
  8
1
  100
AcDbLine
  10
57.7
  20
3
  30
0
  11
57.7
  21
-3
  31
0
  0
LINE
  5
13c
  100
AcDbEntity
  8
1
  100
AcDbLine
  10
57.7
  20
-3
  30
0
  11
57.897087
  21
-3
  31
0
  0
LINE
  5
13d
  100
AcDbEntity
  8
1
  100
AcDbLine
  10
57.897087
  20
-3
  30
0
  11
58.913367
  21
-2.727689
  31
0
  0
LINE
  5
13e
  100
AcDbEntity
  8
1
  100
AcDbLine
  10
58.913367
  20
-2.727689
  30
0
  11
58.913367
  21
2.727689
  31
0
  0
LINE
  5
13f
  100
AcDbEntity
  8
1
  100
AcDbLine
  10
57.897087
  20
3
  30
0
  11
57.897087
  21
-3
  31
0
  0
ARC
  5
140
  100
AcDbEntity
  8
1
  100
AcDbCircle
  10
61.501557
  20
-12.386947
  30
0
  40
10
  100
AcDbArc
  50
95
  51
105
  0
LINE
  5
141
  100
AcDbEntity
  8
1
  100
AcDbLine
  10
60.63
  20
-2.425
  30
0
  11
102.5
  21
-2.425
  31
0
  0
LINE
  5
142
  100
AcDbEntity
  8
1
  100
AcDbLine
  10
102.5
  20
-2.425
  30
0
  11
102.5
  21
-2.5
  31
0
  0
LINE
  5
143
  100
AcDbEntity
  8
1
  100
AcDbLine
  10
102.5
  20
-2.5
  30
0
  11
110
  21
-2.5
  31
0
  0
LINE
  5
144
  100
AcDbEntity
  8
1
  100
AcDbLine
  10
110
  20
-2.5
  30
0
  11
110
  21
2.5
  31
0
  0
LINE
  5
145
  100
AcDbEntity
  8
SK1
  100
AcDbLine
  10
57.7
  20
3
  30
0
  11
0.7
  21
3
  31
0
  0
LINE
  5
146
  100
AcDbEntity
  8
SK1
  100
AcDbLine
  10
0.7
  20
3
  30
0
  11
0
  21
2.3
  31
0
  0
LINE
  5
147
  100
AcDbEntity
  8
SK1
  100
AcDbLine
  10
57.7
  20
-3
  30
0
  11
0.7
  21
-3
  31
0
  0
LINE
  5
148
  100
AcDbEntity
  8
SK1
  100
AcDbLine
  10
0.7
  20
-3
  30
0
  11
0
  21
-2.3
  31
0
  0
LINE
  5
149
  100
AcDbEntity
  8
SK1
  100
AcDbLine
  10
0.7
  20
3
  30
0
  11
0.7
  21
-3
  31
0
  0
LINE
  5
14a
  100
AcDbEntity
  8
SK1
  100
AcDbLine
  10
0
  20
2.3
  30
0
  11
0
  21
-2.3
  31
0
  0
LINE
  5
14b
  100
AcDbEntity
  8
SK1
  100
AcDbLine
  10
58.7401
  20
1.40688
  30
0
  11
59.1069
  21
1.0401
  31
0
  0
LINE
  5
14c
  100
AcDbEntity
  8
SK1
  100
AcDbLine
  10
58.2328
  20
1.66666
  30
0
  11
59.3667
  21
0.532833
  31
0
  0
LINE
  5
14d
  100
AcDbEntity
  8
SK1
  100
AcDbLine
  10
57.9154
  20
1.73657
  30
0
  11
59.4366
  21
0.215434
  31
0
  0
LINE
  5
14e
  100
AcDbEntity
  8
SK1
  100
AcDbLine
  10
57.7
  20
1.70452
  30
0
  11
59.4045
  21
0
  31
0
  0
LINE
  5
14f
  100
AcDbEntity
  8
SK1
  100
AcDbLine
  10
57.7
  20
1.45703
  30
0
  11
59.157
  21
0
  31
0
  0
LINE
  5
150
  100
AcDbEntity
  8
SK1
  100
AcDbLine
  10
57.7
  20
1.20954
  30
0
  11
58.9095
  21
0
  31
0
  0
LINE
  5
151
  100
AcDbEntity
  8
SK1
  100
AcDbLine
  10
57.7
  20
0.962054
  30
0
  11
58.6621
  21
0
  31
0
  0
LINE
  5
152
  100
AcDbEntity
  8
SK1
  100
AcDbLine
  10
57.7
  20
0.714566
  30
0
  11
58.4146
  21
0
  31
0
  0
LINE
  5
153
  100
AcDbEntity
  8
SK1
  100
AcDbLine
  10
57.7
  20
0.467079
  30
0
  11
58.1671
  21
0
  31
0
  0
LINE
  5
154
  100
AcDbEntity
  8
SK1
  100
AcDbLine
  10
57.7
  20
0.219592
  30
0
  11
57.9196
  21
0
  31
0
  0
LINE
  5
155
  100
AcDbEntity
  8
SK1
  100
AcDbLine
  10
57.7
  20
1.70452
  30
0
  11
57.7441
  21
1.74861
  31
0
  0
LINE
  5
156
  100
AcDbEntity
  8
SK1
  100
AcDbLine
  10
57.7
  20
1.45703
  30
0
  11
57.971
  21
1.72802
  31
0
  0
LINE
  5
157
  100
AcDbEntity
  8
SK1
  100
AcDbLine
  10
57.7
  20
1.20954
  30
0
  11
58.1742
  21
1.6837
  31
0
  0
LINE
  5
158
  100
AcDbEntity
  8
SK1
  100
AcDbLine
  10
57.7
  20
0.962054
  30
0
  11
58.3588
  21
1.62082
  31
0
  0
LINE
  5
159
  100
AcDbEntity
  8
SK1
  100
AcDbLine
  10
57.7
  20
0.714566
  30
0
  11
58.5271
  21
1.54167
  31
0
  0
LINE
  5
15a
  100
AcDbEntity
  8
SK1
  100
AcDbLine
  10
57.7
  20
0.467079
  30
0
  11
58.681
  21
1.44812
  31
0
  0
LINE
  5
15b
  100
AcDbEntity
  8
SK1
  100
AcDbLine
  10
57.7
  20
0.219592
  30
0
  11
58.8226
  21
1.34216
  31
0
  0
LINE
  5
15c
  100
AcDbEntity
  8
SK1
  100
AcDbLine
  10
57.7279
  20
0
  30
0
  11
58.9508
  21
1.22288
  31
0
  0
LINE
  5
15d
  100
AcDbEntity
  8
SK1
  100
AcDbLine
  10
57.9754
  20
0
  30
0
  11
59.067
  21
1.09157
  31
0
  0
LINE
  5
15e
  100
AcDbEntity
  8
SK1
  100
AcDbLine
  10
58.2229
  20
0
  30
0
  11
59.1707
  21
0.947822
  31
0
  0
LINE
  5
15f
  100
AcDbEntity
  8
SK1
  100
AcDbLine
  10
58.4704
  20
0
  30
0
  11
59.2605
  21
0.790145
  31
0
  0
LINE
  5
160
  100
AcDbEntity
  8
SK1
  100
AcDbLine
  10
58.7178
  20
0
  30
0
  11
59.3364
  21
0.618517
  31
0
  0
LINE
  5
161
  100
AcDbEntity
  8
SK1
  100
AcDbLine
  10
58.9653
  20
0
  30
0
  11
59.396
  21
0.430696
  31
0
  0
LINE
  5
162
  100
AcDbEntity
  8
SK1
  100
AcDbLine
  10
59.2128
  20
0
  30
0
  11
59.4356
  21
0.222827
  31
0
  0
LINE
  5
163
  100
AcDbEntity
  8
SK1
  100
AcDbLine
  10
57.7
  20
0
  30
0
  11
57.7
  21
1.75
  31
0
  0
LINE
  5
164
  100
AcDbEntity
  8
SK1
  100
AcDbLine
  10
57.7
  20
0
  30
0
  11
59.45
  21
0
  31
0
  0
ARC
  5
165
  100
AcDbEntity
  8
SK1
  100
AcDbCircle
  10
57.7
  20
0
  30
0
  40
1.75
  100
AcDbArc
  50
0
  51
90
  0
ARC
  5
166
  100
AcDbEntity
  8
SK1
  100
AcDbCircle
  10
57.7
  20
0
  30
0
  40
1.75
  100
AcDbArc
  50
90
  51
180
  0
LINE
  5
167
  100
AcDbEntity
  8
SK1
  100
AcDbLine
  10
57.6721
  20
0
  30
0
  11
57.7
  21
-0.027896
  31
0
  0
LINE
  5
168
  100
AcDbEntity
  8
SK1
  100
AcDbLine
  10
57.4246
  20
0
  30
0
  11
57.7
  21
-0.275383
  31
0
  0
LINE
  5
169
  100
AcDbEntity
  8
SK1
  100
AcDbLine
  10
57.1771
  20
0
  30
0
  11
57.7
  21
-0.522871
  31
0
  0
LINE
  5
16a
  100
AcDbEntity
  8
SK1
  100
AcDbLine
  10
56.9296
  20
0
  30
0
  11
57.7
  21
-0.770358
  31
0
  0
LINE
  5
16b
  100
AcDbEntity
  8
SK1
  100
AcDbLine
  10
56.6822
  20
0
  30
0
  11
57.7
  21
-1.01785
  31
0
  0
LINE
  5
16c
  100
AcDbEntity
  8
SK1
  100
AcDbLine
  10
56.4347
  20
0
  30
0
  11
57.7
  21
-1.26533
  31
0
  0
LINE
  5
16d
  100
AcDbEntity
  8
SK1
  100
AcDbLine
  10
56.1872
  20
0
  30
0
  11
57.7
  21
-1.51282
  31
0
  0
LINE
  5
16e
  100
AcDbEntity
  8
SK1
  100
AcDbLine
  10
55.9503
  20
-0.010642
  30
0
  11
57.6894
  21
-1.74967
  31
0
  0
LINE
  5
16f
  100
AcDbEntity
  8
SK1
  100
AcDbLine
  10
55.9736
  20
-0.281429
  30
0
  11
57.4186
  21
-1.72637
  31
0
  0
LINE
  5
170
  100
AcDbEntity
  8
SK1
  100
AcDbLine
  10
56.0639
  20
-0.619147
  30
0
  11
57.0809
  21
-1.63613
  31
0
  0
LINE
  5
171
  100
AcDbEntity
  8
SK1
  100
AcDbLine
  10
55.9514
  20
-0.044098
  30
0
  11
55.9955
  21
0
  31
0
  0
LINE
  5
172
  100
AcDbEntity
  8
SK1
  100
AcDbLine
  10
55.972
  20
-0.270991
  30
0
  11
56.243
  21
0
  31
0
  0
LINE
  5
173
  100
AcDbEntity
  8
SK1
  100
AcDbLine
  10
56.0163
  20
-0.474162
  30
0
  11
56.4905
  21
0
  31
0
  0
LINE
  5
174
  100
AcDbEntity
  8
SK1
  100
AcDbLine
  10
56.0792
  20
-0.658762
  30
0
  11
56.7379
  21
0
  31
0
  0
LINE
  5
175
  100
AcDbEntity
  8
SK1
  100
AcDbLine
  10
56.1583
  20
-0.827105
  30
0
  11
56.9854
  21
0
  31
0
  0
LINE
  5
176
  100
AcDbEntity
  8
SK1
  100
AcDbLine
  10
56.2519
  20
-0.981039
  30
0
  11
57.2329
  21
0
  31
0
  0
LINE
  5
177
  100
AcDbEntity
  8
SK1
  100
AcDbLine
  10
56.3578
  20
-1.12257
  30
0
  11
57.4804
  21
0
  31
0
  0
LINE
  5
178
  100
AcDbEntity
  8
SK1
  100
AcDbLine
  10
56.4771
  20
-1.25077
  30
0
  11
57.7
  21
-0.027896
  31
0
  0
LINE
  5
179
  100
AcDbEntity
  8
SK1
  100
AcDbLine
  10
56.6084
  20
-1.36695
  30
0
  11
57.7
  21
-0.275383
  31
0
  0
LINE
  5
17a
  100
AcDbEntity
  8
SK1
  100
AcDbLine
  10
56.7522
  20
-1.47069
  30
0
  11
57.7
  21
-0.522871
  31
0
  0
LINE
  5
17b
  100
AcDbEntity
  8
SK1
  100
AcDbLine
  10
56.9099
  20
-1.5605
  30
0
  11
57.7
  21
-0.770358
  31
0
  0
LINE
  5
17c
  100
AcDbEntity
  8
SK1
  100
AcDbLine
  10
57.0815
  20
-1.63636
  30
0
  11
57.7
  21
-1.01785
  31
0
  0
LINE
  5
17d
  100
AcDbEntity
  8
SK1
  100
AcDbLine
  10
57.2693
  20
-1.69603
  30
0
  11
57.7
  21
-1.26533
  31
0
  0
LINE
  5
17e
  100
AcDbEntity
  8
SK1
  100
AcDbLine
  10
57.4772
  20
-1.73565
  30
0
  11
57.7
  21
-1.51282
  31
0
  0
LINE
  5
17f
  100
AcDbEntity
  8
SK1
  100
AcDbLine
  10
57.7
  20
0
  30
0
  11
55.95
  21
0
  31
0
  0
LINE
  5
180
  100
AcDbEntity
  8
SK1
  100
AcDbLine
  10
57.7
  20
-1.75
  30
0
  11
57.7
  21
0
  31
0
  0
ARC
  5
181
  100
AcDbEntity
  8
SK1
  100
AcDbCircle
  10
57.7
  20
0
  30
0
  40
1.75
  100
AcDbArc
  50
180
  51
270
  0
ARC
  5
182
  100
AcDbEntity
  8
SK1
  100
AcDbCircle
  10
57.7
  20
0
  30
0
  40
1.75
  100
AcDbArc
  50
270
  51
0
  0
LINE
  5
1f3
  100
AcDbEntity
  8
NOCUT
  100
AcDbLine
  10
102.5
  20
0
  30
0
  11
102.5
  21
2.425
  31
0
  0
LINE
  5
1f4
  100
AcDbEntity
  8
NOCUT
  100
AcDbLine
  10
102.5
  20
2.425
  30
0
  11
60.63
  21
2.425
  31
0
  0
ARC
  5
1f5
  100
AcDbEntity
  8
NOCUT
  100
AcDbCircle
  10
61.501557
  20
12.386947
  30
0
  40
10
  100
AcDbArc
  50
255
  51
265
  0
LINE
  5
1f6
  100
AcDbEntity
  8
NOCUT
  100
AcDbLine
  10
58.913367
  20
2.727689
  30
0
  11
57.897087
  21
3
  31
0
  0
LINE
  5
1f7
  100
AcDbEntity
  8
NOCUT
  100
AcDbLine
  10
57.897087
  20
3
  30
0
  11
57.7
  21
3
  31
0
  0
LINE
  5
1f8
  100
AcDbEntity
  8
NOCUT
  100
AcDbLine
  10
57.7
  20
3
  30
0
  11
57.7
  21
0
  31
0
  0
LINE
  5
1f9
  100
AcDbEntity
  8
NOCUT
  100
AcDbLine
  10
57.7
  20
0
  30
0
  11
102.5
  21
0
  31
0
  0
LINE
  5
1fa
  100
AcDbEntity
  8
CUT
  100
AcDbLine
  10
110
  20
0
  30
0
  11
110
  21
2.5
  31
0
  0
LINE
  5
1fb
  100
AcDbEntity
  8
CUT
  100
AcDbLine
  10
110
  20
2.5
  30
0
  11
102.5
  21
2.5
  31
0
  0
LINE
  5
1fc
  100
AcDbEntity
  8
CUT
  100
AcDbLine
  10
102.5
  20
2.5
  30
0
  11
102.5
  21
0
  31
0
  0
LINE
  5
1fd
  100
AcDbEntity
  8
CUT
  100
AcDbLine
  10
102.5
  20
0
  30
0
  11
110
  21
0
  31
0
  0
LINE
  5
1fe
  100
AcDbEntity
  8
4
  100
AcDbLine
  10
57.7
  20
0
  30
0
  11
110
  21
0
  31
0
  0
LINE
  5
1ff
  100
AcDbEntity
  8
SK4
  100
AcDbLine
  10
-1
  20
0
  30
0
  11
111
  21
0
  31
0
  0
LINE
  5
200
  100
AcDbEntity
  8
INFTOTAL
  100
AcDbLine
  10
-18.7
  20
25.7
  30
0
  11
128.7
  21
25.7
  31
0
  0
LINE
  5
201
  100
AcDbEntity
  8
INFTOTAL
  100
AcDbLine
  10
128.7
  20
25.7
  30
0
  11
128.7
  21
-19.086947
  31
0
  0
LINE
  5
202
  100
AcDbEntity
  8
INFTOTAL
  100
AcDbLine
  10
128.7
  20
-19.086947
  30
0
  11
-18.7
  21
-19.086947
  31
0
  0
LINE
  5
203
  100
AcDbEntity
  8
INFTOTAL
  100
AcDbLine
  10
-18.7
  20
-19.086947
  30
0
  11
-18.7
  21
25.7
  31
0
  0
ENDSEC
  0
SECTION
  2
OBJECTS
  0
DICTIONARY
  5
204
  330
0
100
AcDbDictionary
281
    1
  3
ACAD_GROUP
  350
205
  0
DICTIONARY
  5
205
102
{ACAD_REACTORS
  330
204
102
}
  330
204
100
AcDbDictionary
281
    1
  0
ENDSEC
  0
EOF
