  0
SECTION
  2
HEADER
  9
$ACADVER
  1
AC1015
  9
$DWGCODEPAGE
  3
ANSI_932
  9
$HANDSEED
  5
106AB90
  0
ENDSEC
  0
SECTION
  2
CLASSES
  0
CLASS
  1
IMAGEDEF
  2
AcDbRasterImageDef
  3
ISM
  90
0
  91
4
  280
0
  281
0
  0
CLASS
  1
IMAGE
  2
AcDbRasterImage
  3
ISM
  90
127
  91
5
  280
0
  281
1
  0
CLASS
  1
IMAGEDEF_REACTOR
  2
AcDbRasterImageDefReactor
  3
ISM
  90
1
  91
4
  280
0
  281
0
  0
ENDSEC
  0
SECTION
  2
TABLES
  0
TABLE
  2
VPORT
  5
2
  330
0
  100
AcDbSymbolTable
  70
    0
  0
ENDTAB
  0
TABLE
  2
LTYPE
  5
3
  330
0
  100
AcDbSymbolTable
  70
    4
  0
LTYPE
  5
4
  330
3
  100
AcDbSymbolTableRecord
  100
AcDbLinetypeTableRecord
  2
ByBlock
  70
    0
  3

  72
65
  73
    0
  40
0
  0
LTYPE
  5
5
  330
3
  100
AcDbSymbolTableRecord
  100
AcDbLinetypeTableRecord
  2
ByLayer
  70
    0
  3

  72
65
  73
    0
  40
0
  0
LTYPE
  5
6
  330
3
  100
AcDbSymbolTableRecord
  100
AcDbLinetypeTableRecord
  2
CONTINUOUS
  70
    0
  3
Solid Line
  72
65
  73
    0
  40
0
  0
LTYPE
  5
7
  330
3
  100
AcDbSymbolTableRecord
  100
AcDbLinetypeTableRecord
  2
DASH
  70
    0
  3
Hidden
  72
65
  73
2
  40
2.5
  49
1.5
  74
0
  49
-1
  74
0
  0
LTYPE
  5
8
  330
3
  100
AcDbSymbolTableRecord
  100
AcDbLinetypeTableRecord
  2
LONGDASHDASH
  70
    0
  3
__ . __
  72
65
  73
    4
  40
7
  49
4
  74
    0
  49
-1
  74
    0
  49
1
  74
    0
  49
-1
  74
    0
  0
ENDTAB
  0
TABLE
  2
LAYER
  5
9
  330
0
  100
AcDbSymbolTable
  70
    40
  0
LAYER
  5
a
  330
9
  100
AcDbSymbolTableRecord
  100
AcDbLayerTableRecord
  2
0
  70
    0
  62
    0
  6
CONTINUOUS
  390
0
  0
LAYER
  5
c
  330
9
  100
AcDbSymbolTableRecord
  100
AcDbLayerTableRecord
  2
1
  70
    0
  62
    4
  6
CONTINUOUS
  370
50
  390
0
  0
LAYER
  5
d
  330
9
  100
AcDbSymbolTableRecord
  100
AcDbLayerTableRecord
  2
2
  70
    0
  62
    7
  6
CONTINUOUS
  370
25
  390
0
  0
LAYER
  5
f
  330
9
  100
AcDbSymbolTableRecord
  100
AcDbLayerTableRecord
  2
4
  70
    0
  62
    2
  6
LONGDASHDASH
  370
25
  390
0
  0
LAYER
  5
13
  330
9
  100
AcDbSymbolTableRecord
  100
AcDbLayerTableRecord
  2
SK1
  70
    0
  62
    4
  6
CONTINUOUS
  370
50
  390
0
  0
LAYER
  5
14
  330
9
  100
AcDbSymbolTableRecord
  100
AcDbLayerTableRecord
  2
SK2
  70
    0
  62
    7
  6
CONTINUOUS
  370
25
  390
0
  0
LAYER
  5
16
  330
9
  100
AcDbSymbolTableRecord
  100
AcDbLayerTableRecord
  2
SK4
  70
    0
  62
    2
  6
LONGDASHDASH
  370
25
  390
0
  0
LAYER
  5
21
  330
9
  100
AcDbSymbolTableRecord
  100
AcDbLayerTableRecord
  2
NOCUT
  70
    0
  62
    7
  6
CONTINUOUS
  370
25
  390
0
  0
LAYER
  5
22
  330
9
  100
AcDbSymbolTableRecord
  100
AcDbLayerTableRecord
  2
CUT
  70
    0
  62
    1
  6
CONTINUOUS
  370
25
  390
0
  0
LAYER
  5
26
  330
9
  100
AcDbSymbolTableRecord
  100
AcDbLayerTableRecord
  2
INFTOTAL
  70
    0
  62
    9
  6
CONTINUOUS
  370
18
  390
0
  0
ENDTAB
  0
TABLE
  2
STYLE
  5
27
  330
0
  100
AcDbSymbolTable
  70
    1
  0
STYLE
  5
28
  330
27
  100
AcDbSymbolTableRecord
  100
AcDbTextStyleTableRecord
  2
Monospac821 BT
  70
    0
  40
    3.5
  41
1
  50
0
  71
0
  42
3
  3

  4

  1001
ACAD
  1000
Monospac821 BT
  1071
256
  0
ENDTAB
  0
TABLE
  2
VIEW
  5
29
  330
0
  100
AcDbSymbolTable
  70
    0
  0
ENDTAB
  0
TABLE
  2
UCS
  5
2a
  330
0
  100
AcDbSymbolTable
  70
    0
  0
ENDTAB
  0
TABLE
  2
APPID
  5
2b
  330
0
  100
AcDbSymbolTable
  70
    1
  0
APPID
  5
2c
  330
2b
  100
AcDbSymbolTableRecord
  100
AcDbRegAppTableRecord
  2
ACAD
  70
    0
  0
ENDTAB
  0
TABLE
  2
DIMSTYLE
  5
2d
  330
0
  100
AcDbSymbolTable
  70
    1
  100
AcDbDimStyleTable
  0
DIMSTYLE
  105
2e
  330
2d
  100
AcDbSymbolTableRecord
  100
AcDbDimStyleTableRecord
  2
STANDARD
  70
    0
  41
    3
  42
0.5
  44
1
  73
0
  77
1
  78
1
  140
3.5
  141
2.5
  143
0.03937
  147
0.8
  172
1
  174
1
  178
0
  179
1
  271
2
  279
1
  284
1
  340
28
  0
ENDTAB
  0
TABLE
  2
BLOCK_RECORD
  5
2f
  330
0
  100
AcDbSymbolTable
  70
    2
  0
BLOCK_RECORD
  5
30
  330
2f
  100
AcDbSymbolTableRecord
  100
AcDbBlockTableRecord
  2
*Model_Space
  0
BLOCK_RECORD
  5
31
  330
2f
  100
AcDbSymbolTableRecord
  100
AcDbBlockTableRecord
  2
*Paper_Space
  0
BLOCK_RECORD
  5
f3
  330
2f
  100
AcDbSymbolTableRecord
  100
AcDbBlockTableRecord
  2
*Df2
  340
0
  0
BLOCK_RECORD
  5
101
  330
2f
  100
AcDbSymbolTableRecord
  100
AcDbBlockTableRecord
  2
*D100
  340
0
  0
BLOCK_RECORD
  5
10f
  330
2f
  100
AcDbSymbolTableRecord
  100
AcDbBlockTableRecord
  2
*D10e
  340
0
  0
BLOCK_RECORD
  5
11d
  330
2f
  100
AcDbSymbolTableRecord
  100
AcDbBlockTableRecord
  2
*D11c
  340
0
  0
BLOCK_RECORD
  5
12b
  330
2f
  100
AcDbSymbolTableRecord
  100
AcDbBlockTableRecord
  2
*D12a
  340
0
  0
BLOCK_RECORD
  5
139
  330
2f
  100
AcDbSymbolTableRecord
  100
AcDbBlockTableRecord
  2
*D138
  340
0
  0
BLOCK_RECORD
  5
147
  330
2f
  100
AcDbSymbolTableRecord
  100
AcDbBlockTableRecord
  2
*D146
  340
0
  0
BLOCK_RECORD
  5
155
  330
2f
  100
AcDbSymbolTableRecord
  100
AcDbBlockTableRecord
  2
*D154
  340
0
  0
ENDTAB
  0
ENDSEC
  0
SECTION
  2
BLOCKS
  0
BLOCK
  5
32
  330
30
  100
AcDbEntity
  8
0
  100
AcDbBlockBegin
  2
*Model_Space
  70
    0
  10
0
  20
0
  30
0
  3
*Model_Space
  1

  0
ENDBLK
  5
33
  330
30
  100
AcDbEntity
  8
0
  100
AcDbBlockEnd
  0
BLOCK
  5
34
  330
31
  100
AcDbEntity
  8
0
  100
AcDbBlockBegin
  2
*Paper_Space
  70
    0
  10
0
  20
0
  30
0
  3
*Paper_Space
  1

  0
ENDBLK
  5
35
  330
31
  100
AcDbEntity
  8
0
  100
AcDbBlockEnd
  0
BLOCK
  5
f1
  330
f3
  100
AcDbEntity
  8
SK2
  100
AcDbBlockBegin
  2
*Df2
  70
1
  10
0
  20
0
  30
0
  3
*Df2
  1

  0
LINE
  5
f4
  330
f3
  100
AcDbEntity
  8
SK2
  100
AcDbLine
  10
0
  20
1.3
  30
0
  11
0
  21
14
  31
0
  0
LINE
  5
f5
  330
f3
  100
AcDbEntity
  8
SK2
  100
AcDbLine
  10
45
  20
0.5
  30
0
  11
45
  21
14
  31
0
  0
LINE
  5
f6
  330
f3
  100
AcDbEntity
  8
SK2
  100
AcDbLine
  10
0
  20
12
  30
0
  11
45
  21
12
  31
0
  0
SOLID
  5
f7
  330
f3
  100
AcDbEntity
  8
SK2
  100
AcDbTrace
  10
0
  20
12
  30
0
  11
2.478612
  21
12.326315
  31
0
  12
2.478612
  22
11.673685
  32
0
  13
2.478612
  23
11.673685
  33
0
  0
SOLID
  5
f8
  330
f3
  100
AcDbEntity
  8
SK2
  100
AcDbTrace
  10
45
  20
12
  30
0
  11
42.521388
  21
11.673685
  31
0
  12
42.521388
  22
12.326315
  32
0
  13
42.521388
  23
12.326315
  33
0
  0
MTEXT
  5
f9
  330
f3
  100
AcDbEntity
  8
SK2
  100
AcDbMText
  10
37.397052
  20
12
  30
0
  11
1
  21
0
  31
0
  40
2
  41
0
  71
8
  72
1
  1
45
  0
POINT
  5
fa
  330
f3
  100
AcDbEntity
  8
SK2
  62
0
  100
AcDbPoint
  10
0
  20
1.3
  30
0
  0
POINT
  5
fb
  330
f3
  100
AcDbEntity
  8
SK2
  62
0
  100
AcDbPoint
  10
45
  20
0.5
  30
0
  0
POINT
  5
fc
  330
f3
  100
AcDbEntity
  8
SK2
  62
0
  100
AcDbPoint
  10
45
  20
12
  30
0
  0
ENDBLK
  5
fd
  330
f3
  100
AcDbEntity
  8
SK2
  100
AcDbBlockEnd
  0
BLOCK
  5
ff
  330
101
  100
AcDbEntity
  8
SK2
  100
AcDbBlockBegin
  2
*D100
  70
1
  10
0
  20
0
  30
0
  3
*D100
  1

  0
LINE
  5
102
  330
101
  100
AcDbEntity
  8
SK2
  100
AcDbLine
  10
0
  20
1.3
  30
0
  11
0
  21
8.990662
  31
0
  0
LINE
  5
103
  330
101
  100
AcDbEntity
  8
SK2
  100
AcDbLine
  10
35.2
  20
2
  30
0
  11
35.2
  21
8.990662
  31
0
  0
LINE
  5
104
  330
101
  100
AcDbEntity
  8
SK2
  100
AcDbLine
  10
0
  20
6.990662
  30
0
  11
35.2
  21
6.990662
  31
0
  0
SOLID
  5
105
  330
101
  100
AcDbEntity
  8
SK2
  100
AcDbTrace
  10
0
  20
6.990662
  30
0
  11
2.478612
  21
7.316978
  31
0
  12
2.478612
  22
6.664347
  32
0
  13
2.478612
  23
6.664347
  33
0
  0
SOLID
  5
106
  330
101
  100
AcDbEntity
  8
SK2
  100
AcDbTrace
  10
35.2
  20
6.990662
  30
0
  11
32.721388
  21
6.664347
  31
0
  12
32.721388
  22
7.316978
  32
0
  13
32.721388
  23
7.316978
  33
0
  0
MTEXT
  5
107
  330
101
  100
AcDbEntity
  8
SK2
  100
AcDbMText
  10
17.6
  20
6.990662
  30
0
  11
1
  21
0
  31
0
  40
2
  41
0
  71
8
  72
1
  1
35.2
  0
POINT
  5
108
  330
101
  100
AcDbEntity
  8
SK2
  62
0
  100
AcDbPoint
  10
0
  20
1.3
  30
0
  0
POINT
  5
109
  330
101
  100
AcDbEntity
  8
SK2
  62
0
  100
AcDbPoint
  10
35.2
  20
2
  30
0
  0
POINT
  5
10a
  330
101
  100
AcDbEntity
  8
SK2
  62
0
  100
AcDbPoint
  10
35.2
  20
6.990662
  30
0
  0
ENDBLK
  5
10b
  330
101
  100
AcDbEntity
  8
SK2
  100
AcDbBlockEnd
  0
BLOCK
  5
10d
  330
10f
  100
AcDbEntity
  8
SK2
  100
AcDbBlockBegin
  2
*D10e
  70
1
  10
0
  20
0
  30
0
  3
*D10e
  1

  0
LINE
  5
110
  330
10f
  100
AcDbEntity
  8
SK2
  100
AcDbLine
  10
45
  20
-0.5
  30
0
  11
57
  21
-0.5
  31
0
  0
LINE
  5
111
  330
10f
  100
AcDbEntity
  8
SK2
  100
AcDbLine
  10
45
  20
0.5
  30
0
  11
57
  21
0.5
  31
0
  0
LINE
  5
112
  330
10f
  100
AcDbEntity
  8
SK2
  100
AcDbLine
  10
55
  20
-4.158416
  30
0
  11
55
  21
0.5
  31
0
  0
SOLID
  5
113
  330
10f
  100
AcDbEntity
  8
SK2
  100
AcDbTrace
  10
55
  20
-0.5
  30
0
  11
54.673685
  21
1.978612
  31
0
  12
55.326315
  22
1.978612
  32
0
  13
55.326315
  23
1.978612
  33
0
  0
SOLID
  5
114
  330
10f
  100
AcDbEntity
  8
SK2
  100
AcDbTrace
  10
55
  20
0.5
  30
0
  11
55.326315
  21
-1.978612
  31
0
  12
54.673685
  22
-1.978612
  32
0
  13
54.673685
  23
-1.978612
  33
0
  0
MTEXT
  5
115
  330
10f
  100
AcDbEntity
  8
SK2
  100
AcDbMText
  10
55
  20
0
  30
0
  11
0
  21
1
  31
0
  40
2
  41
0
  71
8
  72
1
  1
ﾘ1
  0
POINT
  5
116
  330
10f
  100
AcDbEntity
  8
SK2
  62
0
  100
AcDbPoint
  10
45
  20
-0.5
  30
0
  0
POINT
  5
117
  330
10f
  100
AcDbEntity
  8
SK2
  62
0
  100
AcDbPoint
  10
45
  20
0.5
  30
0
  0
POINT
  5
118
  330
10f
  100
AcDbEntity
  8
SK2
  62
0
  100
AcDbPoint
  10
55
  20
0.5
  30
0
  0
ENDBLK
  5
119
  330
10f
  100
AcDbEntity
  8
SK2
  100
AcDbBlockEnd
  0
BLOCK
  5
11b
  330
11d
  100
AcDbEntity
  8
SK2
  100
AcDbBlockBegin
  2
*D11c
  70
1
  10
0
  20
0
  30
0
  3
*D11c
  1

  0
LINE
  5
11e
  330
11d
  100
AcDbEntity
  8
SK2
  100
AcDbLine
  10
0.7
  20
-2
  30
0
  11
-12
  21
-2
  31
0
  0
LINE
  5
11f
  330
11d
  100
AcDbEntity
  8
SK2
  100
AcDbLine
  10
0.7
  20
2
  30
0
  11
-12
  21
2
  31
0
  0
LINE
  5
120
  330
11d
  100
AcDbEntity
  8
SK2
  100
AcDbLine
  10
-10
  20
-4.158416
  30
0
  11
-10
  21
2
  31
0
  0
SOLID
  5
121
  330
11d
  100
AcDbEntity
  8
SK2
  100
AcDbTrace
  10
-10
  20
-2
  30
0
  11
-10.326315
  21
0.478612
  31
0
  12
-9.673685
  22
0.478612
  32
0
  13
-9.673685
  23
0.478612
  33
0
  0
SOLID
  5
122
  330
11d
  100
AcDbEntity
  8
SK2
  100
AcDbTrace
  10
-10
  20
2
  30
0
  11
-9.673685
  21
-0.478612
  31
0
  12
-10.326315
  22
-0.478612
  32
0
  13
-10.326315
  23
-0.478612
  33
0
  0
MTEXT
  5
123
  330
11d
  100
AcDbEntity
  8
SK2
  100
AcDbMText
  10
-10
  20
0
  30
0
  11
0
  21
1
  31
0
  40
2
  41
0
  71
8
  72
1
  1
ﾘ4
  0
POINT
  5
124
  330
11d
  100
AcDbEntity
  8
SK2
  62
0
  100
AcDbPoint
  10
0.7
  20
-2
  30
0
  0
POINT
  5
125
  330
11d
  100
AcDbEntity
  8
SK2
  62
0
  100
AcDbPoint
  10
0.7
  20
2
  30
0
  0
POINT
  5
126
  330
11d
  100
AcDbEntity
  8
SK2
  62
0
  100
AcDbPoint
  10
-10
  20
2
  30
0
  0
ENDBLK
  5
127
  330
11d
  100
AcDbEntity
  8
SK2
  100
AcDbBlockEnd
  0
BLOCK
  5
129
  330
12b
  100
AcDbEntity
  8
2
  100
AcDbBlockBegin
  2
*D12a
  70
1
  10
0
  20
0
  30
0
  3
*D12a
  1

  0
LINE
  5
12c
  330
12b
  100
AcDbEntity
  8
2
  100
AcDbLine
  10
43.5
  20
-0.475
  30
0
  11
41.5
  21
-0.475
  31
0
  0
LINE
  5
12d
  330
12b
  100
AcDbEntity
  8
2
  100
AcDbLine
  10
43.5
  20
0.475
  30
0
  11
41.5
  21
0.475
  31
0
  0
LINE
  5
12e
  330
12b
  100
AcDbEntity
  8
2
  100
AcDbLine
  10
43.5
  20
-0.475
  30
0
  11
43.5
  21
8.836634
  31
0
  0
SOLID
  5
12f
  330
12b
  100
AcDbEntity
  8
2
  100
AcDbTrace
  10
43.5
  20
-0.475
  30
0
  11
43.173685
  21
2.003612
  31
0
  12
43.826315
  22
2.003612
  32
0
  13
43.826315
  23
2.003612
  33
0
  0
SOLID
  5
130
  330
12b
  100
AcDbEntity
  8
2
  100
AcDbTrace
  10
43.5
  20
0.475
  30
0
  11
43.826315
  21
-2.003612
  31
0
  12
43.173685
  22
-2.003612
  32
0
  13
43.173685
  23
-2.003612
  33
0
  0
MTEXT
  5
131
  330
12b
  100
AcDbEntity
  8
2
  100
AcDbMText
  10
43.5
  20
0.475
  30
0
  11
0
  21
1
  31
0
  40
2
  41
0
  71
8
  72
1
  1
ﾘ0.95
  0
POINT
  5
132
  330
12b
  100
AcDbEntity
  8
2
  62
0
  100
AcDbPoint
  10
41.5
  20
-0.475
  30
0
  0
POINT
  5
133
  330
12b
  100
AcDbEntity
  8
2
  62
0
  100
AcDbPoint
  10
41.5
  20
0.475
  30
0
  0
POINT
  5
134
  330
12b
  100
AcDbEntity
  8
2
  62
0
  100
AcDbPoint
  10
43.5
  20
8.836634
  30
0
  0
ENDBLK
  5
135
  330
12b
  100
AcDbEntity
  8
2
  100
AcDbBlockEnd
  0
BLOCK
  5
137
  330
139
  100
AcDbEntity
  8
2
  100
AcDbBlockBegin
  2
*D138
  70
1
  10
0
  20
0
  30
0
  3
*D138
  1

  0
LINE
  5
13a
  330
139
  100
AcDbEntity
  8
2
  100
AcDbLine
  10
43.5
  20
0.475
  30
0
  11
43.5
  21
9
  31
0
  0
LINE
  5
13b
  330
139
  100
AcDbEntity
  8
2
  100
AcDbLine
  10
41.02
  20
0.475
  30
0
  11
41.02
  21
9
  31
0
  0
LINE
  5
13c
  330
139
  100
AcDbEntity
  8
2
  100
AcDbLine
  10
43.5
  20
7
  30
0
  11
35.996287
  21
7
  31
0
  0
SOLID
  5
13d
  330
139
  100
AcDbEntity
  8
2
  100
AcDbTrace
  10
43.5
  20
7
  30
0
  11
45.978612
  21
7.326315
  31
0
  12
45.978612
  22
6.673685
  32
0
  13
45.978612
  23
6.673685
  33
0
  0
SOLID
  5
13e
  330
139
  100
AcDbEntity
  8
2
  100
AcDbTrace
  10
41.02
  20
7
  30
0
  11
38.541388
  21
6.673685
  31
0
  12
38.541388
  22
7.326315
  32
0
  13
38.541388
  23
7.326315
  33
0
  0
MTEXT
  5
13f
  330
139
  100
AcDbEntity
  8
2
  100
AcDbMText
  10
42.26
  20
7
  30
0
  11
1
  21
-0
  31
0
  40
2
  41
0
  71
8
  72
1
  1
2.48
  0
POINT
  5
140
  330
139
  100
AcDbEntity
  8
2
  62
0
  100
AcDbPoint
  10
43.5
  20
0.475
  30
0
  0
POINT
  5
141
  330
139
  100
AcDbEntity
  8
2
  62
0
  100
AcDbPoint
  10
41.02
  20
0.475
  30
0
  0
POINT
  5
142
  330
139
  100
AcDbEntity
  8
2
  62
0
  100
AcDbPoint
  10
35.996287
  20
7
  30
0
  0
ENDBLK
  5
143
  330
139
  100
AcDbEntity
  8
2
  100
AcDbBlockEnd
  0
BLOCK
  5
145
  330
147
  100
AcDbEntity
  8
2
  100
AcDbBlockBegin
  2
*D146
  70
1
  10
0
  20
0
  30
0
  3
*D146
  1

  0
LINE
  5
148
  330
147
  100
AcDbEntity
  8
2
  100
AcDbLine
  10
45
  20
0.5
  30
0
  11
45
  21
14
  31
0
  0
LINE
  5
149
  330
147
  100
AcDbEntity
  8
2
  100
AcDbLine
  10
35.2
  20
2
  30
0
  11
35.2
  21
9
  31
0
  0
LINE
  5
14a
  330
147
  100
AcDbEntity
  8
2
  100
AcDbLine
  10
45
  20
7
  30
0
  11
35.2
  21
7
  31
0
  0
SOLID
  5
14b
  330
147
  100
AcDbEntity
  8
2
  100
AcDbTrace
  10
45
  20
7
  30
0
  11
47.478612
  21
7.326315
  31
0
  12
47.478612
  22
6.673685
  32
0
  13
47.478612
  23
6.673685
  33
0
  0
SOLID
  5
14c
  330
147
  100
AcDbEntity
  8
2
  100
AcDbTrace
  10
35.2
  20
7
  30
0
  11
32.721388
  21
6.673685
  31
0
  12
32.721388
  22
7.326315
  32
0
  13
32.721388
  23
7.326315
  33
0
  0
MTEXT
  5
14d
  330
147
  100
AcDbEntity
  8
2
  100
AcDbMText
  10
40.1
  20
7
  30
0
  11
1
  21
-0
  31
0
  40
2
  41
0
  71
8
  72
1
  1
9.8
  0
POINT
  5
14e
  330
147
  100
AcDbEntity
  8
2
  62
0
  100
AcDbPoint
  10
45
  20
14
  30
0
  0
POINT
  5
14f
  330
147
  100
AcDbEntity
  8
2
  62
0
  100
AcDbPoint
  10
35.2
  20
2
  30
0
  0
POINT
  5
150
  330
147
  100
AcDbEntity
  8
2
  62
0
  100
AcDbPoint
  10
35.2
  20
7
  30
0
  0
ENDBLK
  5
151
  330
147
  100
AcDbEntity
  8
2
  100
AcDbBlockEnd
  0
BLOCK
  5
153
  330
155
  100
AcDbEntity
  8
2
  100
AcDbBlockBegin
  2
*D154
  70
1
  10
0
  20
0
  30
0
  3
*D154
  1

  0
LINE
  5
156
  330
155
  100
AcDbEntity
  8
2
  100
AcDbLine
  10
45
  20
-10.291202
  30
0
  11
45
  21
0
  31
0
  0
LINE
  5
157
  330
155
  100
AcDbEntity
  8
2
  100
AcDbLine
  10
43.5
  20
-10.291202
  30
0
  11
43.5
  21
-0.475
  31
0
  0
LINE
  5
158
  330
155
  100
AcDbEntity
  8
2
  100
AcDbLine
  10
45
  20
-8.291202
  30
0
  11
39.634901
  21
-8.291202
  31
0
  0
SOLID
  5
159
  330
155
  100
AcDbEntity
  8
2
  100
AcDbTrace
  10
45
  20
-8.291202
  30
0
  11
47.478612
  21
-7.964887
  31
0
  12
47.478612
  22
-8.617518
  32
0
  13
47.478612
  23
-8.617518
  33
0
  0
SOLID
  5
15a
  330
155
  100
AcDbEntity
  8
2
  100
AcDbTrace
  10
43.5
  20
-8.291202
  30
0
  11
41.021388
  21
-8.617518
  31
0
  12
41.021388
  22
-7.964887
  32
0
  13
41.021388
  23
-7.964887
  33
0
  0
MTEXT
  5
15b
  330
155
  100
AcDbEntity
  8
2
  100
AcDbMText
  10
44.25
  20
-8.291202
  30
0
  11
1
  21
-0
  31
0
  40
2
  41
0
  71
8
  72
1
  1
1.5
  0
POINT
  5
15c
  330
155
  100
AcDbEntity
  8
2
  62
0
  100
AcDbPoint
  10
45
  20
0
  30
0
  0
POINT
  5
15d
  330
155
  100
AcDbEntity
  8
2
  62
0
  100
AcDbPoint
  10
43.5
  20
-0.475
  30
0
  0
POINT
  5
15e
  330
155
  100
AcDbEntity
  8
2
  62
0
  100
AcDbPoint
  10
39.634901
  20
-8.291202
  30
0
  0
ENDBLK
  5
15f
  330
155
  100
AcDbEntity
  8
2
  100
AcDbBlockEnd
  0
ENDSEC
  0
SECTION
  2
ENTITIES
  0
DIMENSION
  5
fe
  100
AcDbEntity
  8
SK2
  100
AcDbDimension
  2
*Df2
  10
45
  20
12
  30
0
  11
37.397052
  21
12
  31
0
  70
160
  1
<>
  71
5
  3
STANDARD
  42
45
  100
AcDbAlignedDimension
  13
0
  23
1.3
  33
0
  14
45
  24
0.5
  34
0
  50
0
  100
AcDbRotatedDimension
  0
DIMENSION
  5
10c
  100
AcDbEntity
  8
SK2
  100
AcDbDimension
  2
*D100
  10
35.2
  20
6.990662
  30
0
  11
17.6
  21
6.990662
  31
0
  70
160
  1
<>
  71
5
  3
STANDARD
  42
35.2
  100
AcDbAlignedDimension
  13
0
  23
1.3
  33
0
  14
35.2
  24
2
  34
0
  50
0
  100
AcDbRotatedDimension
  0
DIMENSION
  5
11a
  100
AcDbEntity
  8
SK2
  100
AcDbDimension
  2
*D10e
  10
55
  20
0.5
  30
0
  11
55
  21
0
  31
0
  70
160
  1
%%c<>
  71
5
  3
STANDARD
  42
1
  100
AcDbAlignedDimension
  13
45
  23
-0.5
  33
0
  14
45
  24
0.5
  34
0
  50
-90
  100
AcDbRotatedDimension
  0
DIMENSION
  5
128
  100
AcDbEntity
  8
SK2
  100
AcDbDimension
  2
*D11c
  10
-10
  20
2
  30
0
  11
-10
  21
0
  31
0
  70
160
  1
%%c<>
  71
5
  3
STANDARD
  42
4
  100
AcDbAlignedDimension
  13
0.7
  23
-2
  33
0
  14
0.7
  24
2
  34
0
  50
-90
  100
AcDbRotatedDimension
  0
DIMENSION
  5
136
  100
AcDbEntity
  8
2
  100
AcDbDimension
  2
*D12a
  10
43.5
  20
8.836634
  30
0
  11
43.5
  21
0.475
  31
0
  70
160
  1
%%c<>
  71
5
  3
STANDARD
  42
0.95
  100
AcDbAlignedDimension
  13
41.5
  23
-0.475
  33
0
  14
41.5
  24
0.475
  34
0
  50
-90
  100
AcDbRotatedDimension
  0
DIMENSION
  5
144
  100
AcDbEntity
  8
2
  100
AcDbDimension
  2
*D138
  10
35.996287
  20
7
  30
0
  11
42.26
  21
7
  31
0
  70
160
  1
<>
  71
5
  3
STANDARD
  42
2.48
  100
AcDbAlignedDimension
  13
43.5
  23
0.475
  33
0
  14
41.02
  24
0.475
  34
0
  50
0
  100
AcDbRotatedDimension
  0
DIMENSION
  5
152
  100
AcDbEntity
  8
2
  100
AcDbDimension
  2
*D146
  10
35.2
  20
7
  30
0
  11
40.1
  21
7
  31
0
  70
160
  1
<>
  71
5
  3
STANDARD
  42
9.8
  100
AcDbAlignedDimension
  13
45
  23
14
  33
0
  14
35.2
  24
2
  34
0
  50
0
  100
AcDbRotatedDimension
  0
DIMENSION
  5
160
  100
AcDbEntity
  8
2
  100
AcDbDimension
  2
*D154
  10
39.634901
  20
-8.291202
  30
0
  11
44.25
  21
-8.291202
  31
0
  70
160
  1
<>
  71
5
  3
STANDARD
  42
1.5
  100
AcDbAlignedDimension
  13
45
  23
0
  33
0
  14
43.5
  24
-0.475
  34
0
  50
0
  100
AcDbRotatedDimension
  0
LINE
  5
36
  100
AcDbEntity
  8
1
  100
AcDbLine
  10
43.5
  20
-0.5
  30
0
  11
43.5
  21
0.5
  31
0
  0
LINE
  5
37
  100
AcDbEntity
  8
1
  100
AcDbLine
  10
43.5
  20
0.475
  30
0
  11
43.5
  21
-0.475
  31
0
  0
LINE
  5
38
  100
AcDbEntity
  8
1
  100
AcDbLine
  10
43.4
  20
-0.475
  30
0
  11
43.4
  21
-0.45599
  31
0
  0
LINE
  5
39
  100
AcDbEntity
  8
1
  100
AcDbLine
  10
43.4
  20
-0.45599
  30
0
  11
43.5
  21
-0.46826
  31
0
  0
LINE
  5
3a
  100
AcDbEntity
  8
1
  100
AcDbLine
  10
43.5
  20
-0.46826
  30
0
  11
43.5
  21
-0.493513
  31
0
  0
LINE
  5
3b
  100
AcDbEntity
  8
1
  100
AcDbLine
  10
43.5
  20
-0.493513
  30
0
  11
43.6
  21
-0.499476
  31
0
  0
LINE
  5
3c
  100
AcDbEntity
  8
1
  100
AcDbLine
  10
43.6
  20
-0.499476
  30
0
  11
43.639661
  21
-0.5
  31
0
  0
LINE
  5
3d
  100
AcDbEntity
  8
1
  100
AcDbLine
  10
43.6
  20
-0.488549
  30
0
  11
43.7
  21
-0.493554
  31
0
  0
LINE
  5
3e
  100
AcDbEntity
  8
1
  100
AcDbLine
  10
43.7
  20
-0.493554
  30
0
  11
43.726176
  21
-0.5
  31
0
  0
LINE
  5
3f
  100
AcDbEntity
  8
1
  100
AcDbLine
  10
43.911738
  20
-0.5
  30
0
  11
43.9
  21
-0.499954
  31
0
  0
LINE
  5
40
  100
AcDbEntity
  8
1
  100
AcDbLine
  10
43.9
  20
-0.499954
  30
0
  11
43.8
  21
-0.495845
  31
0
  0
LINE
  5
41
  100
AcDbEntity
  8
1
  100
AcDbLine
  10
43.8
  20
-0.495845
  30
0
  11
43.7
  21
-0.485132
  31
0
  0
LINE
  5
42
  100
AcDbEntity
  8
1
  100
AcDbLine
  10
43.7
  20
-0.485132
  30
0
  11
43.6
  21
-0.467958
  31
0
  0
LINE
  5
43
  100
AcDbEntity
  8
1
  100
AcDbLine
  10
43.6
  20
-0.467958
  30
0
  11
43.5
  21
-0.444552
  31
0
  0
LINE
  5
44
  100
AcDbEntity
  8
1
  100
AcDbLine
  10
43.5
  20
-0.444552
  30
0
  11
43.5
  21
-0.421802
  31
0
  0
LINE
  5
45
  100
AcDbEntity
  8
1
  100
AcDbLine
  10
43.5
  20
-0.421802
  30
0
  11
43.4
  21
-0.38924
  31
0
  0
LINE
  5
46
  100
AcDbEntity
  8
1
  100
AcDbLine
  10
43.4
  20
-0.38924
  30
0
  11
43.4
  21
0.133033
  31
0
  0
LINE
  5
47
  100
AcDbEntity
  8
1
  100
AcDbLine
  10
43.4
  20
0.133033
  30
0
  11
43.5
  21
0.079732
  31
0
  0
LINE
  5
48
  100
AcDbEntity
  8
1
  100
AcDbLine
  10
43.5
  20
0.079732
  30
0
  11
43.5
  21
0.080278
  31
0
  0
LINE
  5
49
  100
AcDbEntity
  8
1
  100
AcDbLine
  10
43.5
  20
0.080278
  30
0
  11
43.6
  21
0.022884
  31
0
  0
LINE
  5
4a
  100
AcDbEntity
  8
1
  100
AcDbLine
  10
43.6
  20
0.022884
  30
0
  11
43.7
  21
-0.034815
  31
0
  0
LINE
  5
4b
  100
AcDbEntity
  8
1
  100
AcDbLine
  10
43.7
  20
-0.034815
  30
0
  11
43.8
  21
-0.09205
  31
0
  0
LINE
  5
4c
  100
AcDbEntity
  8
1
  100
AcDbLine
  10
43.8
  20
-0.09205
  30
0
  11
43.9
  21
-0.148059
  31
0
  0
LINE
  5
4d
  100
AcDbEntity
  8
1
  100
AcDbLine
  10
43.9
  20
-0.148059
  30
0
  11
44
  21
-0.202096
  31
0
  0
LINE
  5
4e
  100
AcDbEntity
  8
1
  100
AcDbLine
  10
44
  20
-0.202096
  30
0
  11
44.1
  21
-0.253442
  31
0
  0
LINE
  5
4f
  100
AcDbEntity
  8
1
  100
AcDbLine
  10
44.1
  20
-0.253442
  30
0
  11
44.2
  21
-0.301412
  31
0
  0
LINE
  5
50
  100
AcDbEntity
  8
1
  100
AcDbLine
  10
44.2
  20
-0.301412
  30
0
  11
44.3
  21
-0.345368
  31
0
  0
LINE
  5
51
  100
AcDbEntity
  8
1
  100
AcDbLine
  10
44.3
  20
-0.345368
  30
0
  11
44.4
  21
-0.384724
  31
0
  0
LINE
  5
52
  100
AcDbEntity
  8
1
  100
AcDbLine
  10
44.4
  20
-0.384724
  30
0
  11
44.5
  21
-0.418956
  31
0
  0
LINE
  5
53
  100
AcDbEntity
  8
1
  100
AcDbLine
  10
44.5
  20
-0.418956
  30
0
  11
44.6
  21
-0.447608
  31
0
  0
LINE
  5
54
  100
AcDbEntity
  8
1
  100
AcDbLine
  10
44.6
  20
-0.447608
  30
0
  11
44.7
  21
-0.470299
  31
0
  0
LINE
  5
55
  100
AcDbEntity
  8
1
  100
AcDbLine
  10
44.7
  20
-0.470299
  30
0
  11
44.8
  21
-0.486726
  31
0
  0
LINE
  5
56
  100
AcDbEntity
  8
1
  100
AcDbLine
  10
44.8
  20
-0.486726
  30
0
  11
44.9
  21
-0.49667
  31
0
  0
LINE
  5
57
  100
AcDbEntity
  8
1
  100
AcDbLine
  10
44.9
  20
-0.49667
  30
0
  11
45
  21
-0.5
  31
0
  0
LINE
  5
58
  100
AcDbEntity
  8
1
  100
AcDbLine
  10
45
  20
-0.5
  30
0
  11
45
  21
0
  31
0
  0
LINE
  5
59
  100
AcDbEntity
  8
1
  100
AcDbLine
  10
45
  20
0.04924
  30
0
  11
44.9
  21
0.105519
  31
0
  0
LINE
  5
5a
  100
AcDbEntity
  8
1
  100
AcDbLine
  10
44.9
  20
0.105519
  30
0
  11
44.8
  21
0.160392
  31
0
  0
LINE
  5
5b
  100
AcDbEntity
  8
1
  100
AcDbLine
  10
44.8
  20
0.160392
  30
0
  11
44.7
  21
0.213129
  31
0
  0
LINE
  5
5c
  100
AcDbEntity
  8
1
  100
AcDbLine
  10
44.7
  20
0.213129
  30
0
  11
44.6
  21
0.263028
  31
0
  0
LINE
  5
5d
  100
AcDbEntity
  8
1
  100
AcDbLine
  10
44.6
  20
0.263028
  30
0
  11
44.5
  21
0.309423
  31
0
  0
LINE
  5
5e
  100
AcDbEntity
  8
1
  100
AcDbLine
  10
44.5
  20
0.309423
  30
0
  11
44.4
  21
0.351697
  31
0
  0
LINE
  5
5f
  100
AcDbEntity
  8
1
  100
AcDbLine
  10
44.4
  20
0.351697
  30
0
  11
44.3
  21
0.389287
  31
0
  0
LINE
  5
60
  100
AcDbEntity
  8
1
  100
AcDbLine
  10
44.3
  20
0.389287
  30
0
  11
44.2
  21
0.421693
  31
0
  0
LINE
  5
61
  100
AcDbEntity
  8
1
  100
AcDbLine
  10
44.2
  20
0.421693
  30
0
  11
44.1
  21
0.448482
  31
0
  0
LINE
  5
62
  100
AcDbEntity
  8
1
  100
AcDbLine
  10
44.1
  20
0.448482
  30
0
  11
44
  21
0.469298
  31
0
  0
LINE
  5
63
  100
AcDbEntity
  8
1
  100
AcDbLine
  10
44
  20
0.469298
  30
0
  11
43.9
  21
0.483864
  31
0
  0
LINE
  5
64
  100
AcDbEntity
  8
1
  100
AcDbLine
  10
43.9
  20
0.483864
  30
0
  11
43.8
  21
0.491985
  31
0
  0
LINE
  5
65
  100
AcDbEntity
  8
1
  100
AcDbLine
  10
43.8
  20
0.491985
  30
0
  11
43.726176
  21
0.5
  31
0
  0
LINE
  5
66
  100
AcDbEntity
  8
1
  100
AcDbLine
  10
43.639661
  20
0.5
  30
0
  11
43.7
  21
0.498786
  31
0
  0
LINE
  5
67
  100
AcDbEntity
  8
1
  100
AcDbLine
  10
43.7
  20
0.498786
  30
0
  11
43.8
  21
0.491454
  31
0
  0
LINE
  5
68
  100
AcDbEntity
  8
1
  100
AcDbLine
  10
43.8
  20
0.491454
  30
0
  11
43.9
  21
0.477576
  31
0
  0
LINE
  5
69
  100
AcDbEntity
  8
1
  100
AcDbLine
  10
43.9
  20
0.477576
  30
0
  11
44
  21
0.457337
  31
0
  0
LINE
  5
6a
  100
AcDbEntity
  8
1
  100
AcDbLine
  10
44
  20
0.457337
  30
0
  11
44.1
  21
0.431007
  31
0
  0
LINE
  5
6b
  100
AcDbEntity
  8
1
  100
AcDbLine
  10
44.1
  20
0.431007
  30
0
  11
44.2
  21
0.398937
  31
0
  0
LINE
  5
6c
  100
AcDbEntity
  8
1
  100
AcDbLine
  10
44.2
  20
0.398937
  30
0
  11
44.3
  21
0.361554
  31
0
  0
LINE
  5
6d
  100
AcDbEntity
  8
1
  100
AcDbLine
  10
44.3
  20
0.361554
  30
0
  11
44.4
  21
0.319355
  31
0
  0
LINE
  5
6e
  100
AcDbEntity
  8
1
  100
AcDbLine
  10
44.4
  20
0.319355
  30
0
  11
44.5
  21
0.272903
  31
0
  0
LINE
  5
6f
  100
AcDbEntity
  8
1
  100
AcDbLine
  10
44.5
  20
0.272903
  30
0
  11
44.6
  21
0.222816
  31
0
  0
LINE
  5
70
  100
AcDbEntity
  8
1
  100
AcDbLine
  10
44.6
  20
0.222816
  30
0
  11
44.7
  21
0.169762
  31
0
  0
LINE
  5
71
  100
AcDbEntity
  8
1
  100
AcDbLine
  10
44.7
  20
0.169762
  30
0
  11
44.8
  21
0.114446
  31
0
  0
LINE
  5
72
  100
AcDbEntity
  8
1
  100
AcDbLine
  10
44.8
  20
0.114446
  30
0
  11
44.9
  21
0.057607
  31
0
  0
LINE
  5
73
  100
AcDbEntity
  8
1
  100
AcDbLine
  10
44.9
  20
0.057607
  30
0
  11
45
  21
0
  31
0
  0
LINE
  5
74
  100
AcDbEntity
  8
1
  100
AcDbLine
  10
45
  20
0
  30
0
  11
45
  21
0.5
  31
0
  0
LINE
  5
75
  100
AcDbEntity
  8
1
  100
AcDbLine
  10
45
  20
0.5
  30
0
  11
43.5
  21
0.5
  31
0
  0
LINE
  5
76
  100
AcDbEntity
  8
1
  100
AcDbLine
  10
43.5
  20
0.5
  30
0
  11
43.5
  21
0.475
  31
0
  0
LINE
  5
77
  100
AcDbEntity
  8
1
  100
AcDbLine
  10
43.5
  20
0.475
  30
0
  11
41.02
  21
0.475
  31
0
  0
ARC
  5
78
  100
AcDbEntity
  8
1
  100
AcDbCircle
  10
41.02
  20
1.475
  30
0
  40
1
  100
AcDbArc
  50
255
  51
270
  0
LINE
  5
79
  100
AcDbEntity
  8
1
  100
AcDbLine
  10
40.761181
  20
0.509074
  30
0
  11
35.2
  21
1.999188
  31
0
  0
LINE
  5
7a
  100
AcDbEntity
  8
1
  100
AcDbLine
  10
35.2
  20
1.999188
  30
0
  11
35.2
  21
-1.999188
  31
0
  0
LINE
  5
7b
  100
AcDbEntity
  8
1
  100
AcDbLine
  10
35.2
  20
-1.999188
  30
0
  11
40.761181
  21
-0.509074
  31
0
  0
LINE
  5
7c
  100
AcDbEntity
  8
1
  100
AcDbLine
  10
40.761181
  20
-0.509074
  30
0
  11
40.761181
  21
0.509074
  31
0
  0
LINE
  5
7d
  100
AcDbEntity
  8
1
  100
AcDbLine
  10
41.02
  20
0.475
  30
0
  11
41.02
  21
-0.475
  31
0
  0
ARC
  5
7e
  100
AcDbEntity
  8
1
  100
AcDbCircle
  10
41.02
  20
-1.475
  30
0
  40
1
  100
AcDbArc
  50
90
  51
105
  0
LINE
  5
7f
  100
AcDbEntity
  8
1
  100
AcDbLine
  10
41.02
  20
-0.475
  30
0
  11
43.5
  21
-0.475
  31
0
  0
LINE
  5
80
  100
AcDbEntity
  8
1
  100
AcDbLine
  10
43.5
  20
-0.475
  30
0
  11
43.5
  21
-0.5
  31
0
  0
LINE
  5
81
  100
AcDbEntity
  8
1
  100
AcDbLine
  10
43.5
  20
-0.5
  30
0
  11
45
  21
-0.5
  31
0
  0
LINE
  5
82
  100
AcDbEntity
  8
1
  100
AcDbLine
  10
45
  20
-0.5
  30
0
  11
45
  21
0.5
  31
0
  0
LINE
  5
83
  100
AcDbEntity
  8
1
  100
AcDbLine
  10
45
  20
0.154508
  30
0
  11
44.9
  21
0.208267
  31
0
  0
LINE
  5
84
  100
AcDbEntity
  8
1
  100
AcDbLine
  10
44.9
  20
0.208267
  30
0
  11
44.8
  21
0.259252
  31
0
  0
LINE
  5
85
  100
AcDbEntity
  8
1
  100
AcDbLine
  10
44.8
  20
0.259252
  30
0
  11
44.7
  21
0.306783
  31
0
  0
LINE
  5
86
  100
AcDbEntity
  8
1
  100
AcDbLine
  10
44.7
  20
0.306783
  30
0
  11
44.6
  21
0.350229
  31
0
  0
LINE
  5
87
  100
AcDbEntity
  8
1
  100
AcDbLine
  10
44.6
  20
0.350229
  30
0
  11
44.5
  21
0.38901
  31
0
  0
LINE
  5
88
  100
AcDbEntity
  8
1
  100
AcDbLine
  10
44.5
  20
0.38901
  30
0
  11
44.4
  21
0.422611
  31
0
  0
LINE
  5
89
  100
AcDbEntity
  8
1
  100
AcDbLine
  10
44.4
  20
0.422611
  30
0
  11
44.3
  21
0.450583
  31
0
  0
LINE
  5
8a
  100
AcDbEntity
  8
1
  100
AcDbLine
  10
44.3
  20
0.450583
  30
0
  11
44.2
  21
0.472553
  31
0
  0
LINE
  5
8b
  100
AcDbEntity
  8
1
  100
AcDbLine
  10
44.2
  20
0.472553
  30
0
  11
44.1
  21
0.48823
  31
0
  0
LINE
  5
8c
  100
AcDbEntity
  8
1
  100
AcDbLine
  10
44.1
  20
0.48823
  30
0
  11
44
  21
0.497404
  31
0
  0
LINE
  5
8d
  100
AcDbEntity
  8
1
  100
AcDbLine
  10
44
  20
0.497404
  30
0
  11
43.911738
  21
0.5
  31
0
  0
LINE
  5
8e
  100
AcDbEntity
  8
1
  100
AcDbLine
  10
43.4
  20
0.475
  30
0
  11
43.4
  21
0.272245
  31
0
  0
LINE
  5
8f
  100
AcDbEntity
  8
1
  100
AcDbLine
  10
43.4
  20
0.272245
  30
0
  11
43.5
  21
0.218422
  31
0
  0
LINE
  5
90
  100
AcDbEntity
  8
1
  100
AcDbLine
  10
43.5
  20
0.218422
  30
0
  11
43.5
  21
0.228853
  31
0
  0
LINE
  5
91
  100
AcDbEntity
  8
1
  100
AcDbLine
  10
43.5
  20
0.228853
  30
0
  11
43.6
  21
0.176111
  31
0
  0
LINE
  5
92
  100
AcDbEntity
  8
1
  100
AcDbLine
  10
43.6
  20
0.176111
  30
0
  11
43.7
  21
0.121023
  31
0
  0
LINE
  5
93
  100
AcDbEntity
  8
1
  100
AcDbLine
  10
43.7
  20
0.121023
  30
0
  11
43.8
  21
0.064323
  31
0
  0
LINE
  5
94
  100
AcDbEntity
  8
1
  100
AcDbLine
  10
43.8
  20
0.064323
  30
0
  11
43.9
  21
0.006767
  31
0
  0
LINE
  5
95
  100
AcDbEntity
  8
1
  100
AcDbLine
  10
43.9
  20
0.006767
  30
0
  11
44
  21
-0.05088
  31
0
  0
LINE
  5
96
  100
AcDbEntity
  8
1
  100
AcDbLine
  10
44
  20
-0.05088
  30
0
  11
44.1
  21
-0.107849
  31
0
  0
LINE
  5
97
  100
AcDbEntity
  8
1
  100
AcDbLine
  10
44.1
  20
-0.107849
  30
0
  11
44.2
  21
-0.163382
  31
0
  0
LINE
  5
98
  100
AcDbEntity
  8
1
  100
AcDbLine
  10
44.2
  20
-0.163382
  30
0
  11
44.3
  21
-0.216738
  31
0
  0
LINE
  5
99
  100
AcDbEntity
  8
1
  100
AcDbLine
  10
44.3
  20
-0.216738
  30
0
  11
44.4
  21
-0.267208
  31
0
  0
LINE
  5
9a
  100
AcDbEntity
  8
1
  100
AcDbLine
  10
44.4
  20
-0.267208
  30
0
  11
44.5
  21
-0.314119
  31
0
  0
LINE
  5
9b
  100
AcDbEntity
  8
1
  100
AcDbLine
  10
44.5
  20
-0.314119
  30
0
  11
44.6
  21
-0.356847
  31
0
  0
LINE
  5
9c
  100
AcDbEntity
  8
1
  100
AcDbLine
  10
44.6
  20
-0.356847
  30
0
  11
44.7
  21
-0.394821
  31
0
  0
LINE
  5
9d
  100
AcDbEntity
  8
1
  100
AcDbLine
  10
44.7
  20
-0.394821
  30
0
  11
44.8
  21
-0.427538
  31
0
  0
LINE
  5
9e
  100
AcDbEntity
  8
1
  100
AcDbLine
  10
44.8
  20
-0.427538
  30
0
  11
44.9
  21
-0.45456
  31
0
  0
LINE
  5
9f
  100
AcDbEntity
  8
1
  100
AcDbLine
  10
44.9
  20
-0.45456
  30
0
  11
45
  21
-0.475528
  31
0
  0
LINE
  5
a0
  100
AcDbEntity
  8
1
  100
AcDbLine
  10
45
  20
-0.491318
  30
0
  11
44.9
  21
-0.482373
  31
0
  0
LINE
  5
a1
  100
AcDbEntity
  8
1
  100
AcDbLine
  10
44.9
  20
-0.482373
  30
0
  11
44.8
  21
-0.467003
  31
0
  0
LINE
  5
a2
  100
AcDbEntity
  8
1
  100
AcDbLine
  10
44.8
  20
-0.467003
  30
0
  11
44.7
  21
-0.445414
  31
0
  0
LINE
  5
a3
  100
AcDbEntity
  8
1
  100
AcDbLine
  10
44.7
  20
-0.445414
  30
0
  11
44.6
  21
-0.417892
  31
0
  0
LINE
  5
a4
  100
AcDbEntity
  8
1
  100
AcDbLine
  10
44.6
  20
-0.417892
  30
0
  11
44.5
  21
-0.384805
  31
0
  0
LINE
  5
a5
  100
AcDbEntity
  8
1
  100
AcDbLine
  10
44.5
  20
-0.384805
  30
0
  11
44.4
  21
-0.346593
  31
0
  0
LINE
  5
a6
  100
AcDbEntity
  8
1
  100
AcDbLine
  10
44.4
  20
-0.346593
  30
0
  11
44.3
  21
-0.303765
  31
0
  0
LINE
  5
a7
  100
AcDbEntity
  8
1
  100
AcDbLine
  10
44.3
  20
-0.303765
  30
0
  11
44.2
  21
-0.25689
  31
0
  0
LINE
  5
a8
  100
AcDbEntity
  8
1
  100
AcDbLine
  10
44.2
  20
-0.25689
  30
0
  11
44.1
  21
-0.206595
  31
0
  0
LINE
  5
a9
  100
AcDbEntity
  8
1
  100
AcDbLine
  10
44.1
  20
-0.206595
  30
0
  11
44
  21
-0.153548
  31
0
  0
LINE
  5
aa
  100
AcDbEntity
  8
1
  100
AcDbLine
  10
44
  20
-0.153548
  30
0
  11
43.9
  21
-0.098456
  31
0
  0
LINE
  5
ab
  100
AcDbEntity
  8
1
  100
AcDbLine
  10
43.9
  20
-0.098456
  30
0
  11
43.8
  21
-0.042053
  31
0
  0
LINE
  5
ac
  100
AcDbEntity
  8
1
  100
AcDbLine
  10
43.8
  20
-0.042053
  30
0
  11
43.7
  21
0.014911
  31
0
  0
LINE
  5
ad
  100
AcDbEntity
  8
1
  100
AcDbLine
  10
43.7
  20
0.014911
  30
0
  11
43.6
  21
0.071676
  31
0
  0
LINE
  5
ae
  100
AcDbEntity
  8
SK1
  100
AcDbLine
  10
35.2
  20
1.999188
  30
0
  11
35.19697
  21
2
  31
0
  0
LINE
  5
af
  100
AcDbEntity
  8
SK1
  100
AcDbLine
  10
35.19697
  20
2
  30
0
  11
35.2
  21
2
  31
0
  0
LINE
  5
b0
  100
AcDbEntity
  8
SK1
  100
AcDbLine
  10
35.2
  20
2
  30
0
  11
0.7
  21
2
  31
0
  0
LINE
  5
b1
  100
AcDbEntity
  8
SK1
  100
AcDbLine
  10
0.7
  20
2
  30
0
  11
0
  21
1.3
  31
0
  0
LINE
  5
b2
  100
AcDbEntity
  8
SK1
  100
AcDbLine
  10
35.2
  20
-1.999188
  30
0
  11
35.19697
  21
-2
  31
0
  0
LINE
  5
b3
  100
AcDbEntity
  8
SK1
  100
AcDbLine
  10
35.19697
  20
-2
  30
0
  11
35.2
  21
-2
  31
0
  0
LINE
  5
b4
  100
AcDbEntity
  8
SK1
  100
AcDbLine
  10
35.2
  20
-2
  30
0
  11
0.7
  21
-2
  31
0
  0
LINE
  5
b5
  100
AcDbEntity
  8
SK1
  100
AcDbLine
  10
0.7
  20
-2
  30
0
  11
0
  21
-1.3
  31
0
  0
LINE
  5
b6
  100
AcDbEntity
  8
SK1
  100
AcDbLine
  10
35.19697
  20
2
  30
0
  11
35.19697
  21
-2
  31
0
  0
LINE
  5
b7
  100
AcDbEntity
  8
SK1
  100
AcDbLine
  10
0.7
  20
2
  30
0
  11
0.7
  21
-2
  31
0
  0
LINE
  5
b8
  100
AcDbEntity
  8
SK1
  100
AcDbLine
  10
0
  20
1.3
  30
0
  11
0
  21
-1.3
  31
0
  0
LINE
  5
b9
  100
AcDbEntity
  8
SK1
  100
AcDbLine
  10
36.2401
  20
1.40688
  30
0
  11
36.6069
  21
1.0401
  31
0
  0
LINE
  5
ba
  100
AcDbEntity
  8
SK1
  100
AcDbLine
  10
35.7328
  20
1.66666
  30
0
  11
36.8667
  21
0.532833
  31
0
  0
LINE
  5
bb
  100
AcDbEntity
  8
SK1
  100
AcDbLine
  10
35.4154
  20
1.73657
  30
0
  11
36.9366
  21
0.215434
  31
0
  0
LINE
  5
bc
  100
AcDbEntity
  8
SK1
  100
AcDbLine
  10
35.2
  20
1.70452
  30
0
  11
36.9045
  21
0
  31
0
  0
LINE
  5
bd
  100
AcDbEntity
  8
SK1
  100
AcDbLine
  10
35.2
  20
1.45703
  30
0
  11
36.657
  21
0
  31
0
  0
LINE
  5
be
  100
AcDbEntity
  8
SK1
  100
AcDbLine
  10
35.2
  20
1.20954
  30
0
  11
36.4095
  21
0
  31
0
  0
LINE
  5
bf
  100
AcDbEntity
  8
SK1
  100
AcDbLine
  10
35.2
  20
0.962054
  30
0
  11
36.1621
  21
0
  31
0
  0
LINE
  5
c0
  100
AcDbEntity
  8
SK1
  100
AcDbLine
  10
35.2
  20
0.714566
  30
0
  11
35.9146
  21
0
  31
0
  0
LINE
  5
c1
  100
AcDbEntity
  8
SK1
  100
AcDbLine
  10
35.2
  20
0.467079
  30
0
  11
35.6671
  21
0
  31
0
  0
LINE
  5
c2
  100
AcDbEntity
  8
SK1
  100
AcDbLine
  10
35.2
  20
0.219592
  30
0
  11
35.4196
  21
0
  31
0
  0
LINE
  5
c3
  100
AcDbEntity
  8
SK1
  100
AcDbLine
  10
35.2
  20
1.70452
  30
0
  11
35.2441
  21
1.74861
  31
0
  0
LINE
  5
c4
  100
AcDbEntity
  8
SK1
  100
AcDbLine
  10
35.2
  20
1.45703
  30
0
  11
35.471
  21
1.72802
  31
0
  0
LINE
  5
c5
  100
AcDbEntity
  8
SK1
  100
AcDbLine
  10
35.2
  20
1.20954
  30
0
  11
35.6742
  21
1.6837
  31
0
  0
LINE
  5
c6
  100
AcDbEntity
  8
SK1
  100
AcDbLine
  10
35.2
  20
0.962054
  30
0
  11
35.8588
  21
1.62082
  31
0
  0
LINE
  5
c7
  100
AcDbEntity
  8
SK1
  100
AcDbLine
  10
35.2
  20
0.714566
  30
0
  11
36.0271
  21
1.54167
  31
0
  0
LINE
  5
c8
  100
AcDbEntity
  8
SK1
  100
AcDbLine
  10
35.2
  20
0.467079
  30
0
  11
36.181
  21
1.44812
  31
0
  0
LINE
  5
c9
  100
AcDbEntity
  8
SK1
  100
AcDbLine
  10
35.2
  20
0.219592
  30
0
  11
36.3226
  21
1.34216
  31
0
  0
LINE
  5
ca
  100
AcDbEntity
  8
SK1
  100
AcDbLine
  10
35.2279
  20
0
  30
0
  11
36.4508
  21
1.22288
  31
0
  0
LINE
  5
cb
  100
AcDbEntity
  8
SK1
  100
AcDbLine
  10
35.4754
  20
0
  30
0
  11
36.567
  21
1.09157
  31
0
  0
LINE
  5
cc
  100
AcDbEntity
  8
SK1
  100
AcDbLine
  10
35.7229
  20
0
  30
0
  11
36.6707
  21
0.947822
  31
0
  0
LINE
  5
cd
  100
AcDbEntity
  8
SK1
  100
AcDbLine
  10
35.9704
  20
0
  30
0
  11
36.7605
  21
0.790145
  31
0
  0
LINE
  5
ce
  100
AcDbEntity
  8
SK1
  100
AcDbLine
  10
36.2178
  20
0
  30
0
  11
36.8364
  21
0.618517
  31
0
  0
LINE
  5
cf
  100
AcDbEntity
  8
SK1
  100
AcDbLine
  10
36.4653
  20
0
  30
0
  11
36.896
  21
0.430696
  31
0
  0
LINE
  5
d0
  100
AcDbEntity
  8
SK1
  100
AcDbLine
  10
36.7128
  20
0
  30
0
  11
36.9356
  21
0.222827
  31
0
  0
LINE
  5
d1
  100
AcDbEntity
  8
SK1
  100
AcDbLine
  10
35.2
  20
0
  30
0
  11
35.2
  21
1.75
  31
0
  0
LINE
  5
d2
  100
AcDbEntity
  8
SK1
  100
AcDbLine
  10
35.2
  20
0
  30
0
  11
36.95
  21
0
  31
0
  0
ARC
  5
d3
  100
AcDbEntity
  8
SK1
  100
AcDbCircle
  10
35.2
  20
0
  30
0
  40
1.75
  100
AcDbArc
  50
0
  51
90
  0
ARC
  5
d4
  100
AcDbEntity
  8
SK1
  100
AcDbCircle
  10
35.2
  20
0
  30
0
  40
1.75
  100
AcDbArc
  50
90
  51
180
  0
LINE
  5
d5
  100
AcDbEntity
  8
SK1
  100
AcDbLine
  10
35.1721
  20
0
  30
0
  11
35.2
  21
-0.027896
  31
0
  0
LINE
  5
d6
  100
AcDbEntity
  8
SK1
  100
AcDbLine
  10
34.9246
  20
0
  30
0
  11
35.2
  21
-0.275383
  31
0
  0
LINE
  5
d7
  100
AcDbEntity
  8
SK1
  100
AcDbLine
  10
34.6771
  20
0
  30
0
  11
35.2
  21
-0.522871
  31
0
  0
LINE
  5
d8
  100
AcDbEntity
  8
SK1
  100
AcDbLine
  10
34.4296
  20
0
  30
0
  11
35.2
  21
-0.770358
  31
0
  0
LINE
  5
d9
  100
AcDbEntity
  8
SK1
  100
AcDbLine
  10
34.1822
  20
0
  30
0
  11
35.2
  21
-1.01785
  31
0
  0
LINE
  5
da
  100
AcDbEntity
  8
SK1
  100
AcDbLine
  10
33.9347
  20
0
  30
0
  11
35.2
  21
-1.26533
  31
0
  0
LINE
  5
db
  100
AcDbEntity
  8
SK1
  100
AcDbLine
  10
33.6872
  20
0
  30
0
  11
35.2
  21
-1.51282
  31
0
  0
LINE
  5
dc
  100
AcDbEntity
  8
SK1
  100
AcDbLine
  10
33.4503
  20
-0.010642
  30
0
  11
35.1894
  21
-1.74967
  31
0
  0
LINE
  5
dd
  100
AcDbEntity
  8
SK1
  100
AcDbLine
  10
33.4736
  20
-0.281429
  30
0
  11
34.9186
  21
-1.72637
  31
0
  0
LINE
  5
de
  100
AcDbEntity
  8
SK1
  100
AcDbLine
  10
33.5639
  20
-0.619147
  30
0
  11
34.5809
  21
-1.63613
  31
0
  0
LINE
  5
df
  100
AcDbEntity
  8
SK1
  100
AcDbLine
  10
33.4514
  20
-0.044098
  30
0
  11
33.4955
  21
0
  31
0
  0
LINE
  5
e0
  100
AcDbEntity
  8
SK1
  100
AcDbLine
  10
33.472
  20
-0.270991
  30
0
  11
33.743
  21
0
  31
0
  0
LINE
  5
e1
  100
AcDbEntity
  8
SK1
  100
AcDbLine
  10
33.5163
  20
-0.474162
  30
0
  11
33.9905
  21
0
  31
0
  0
LINE
  5
e2
  100
AcDbEntity
  8
SK1
  100
AcDbLine
  10
33.5792
  20
-0.658762
  30
0
  11
34.2379
  21
0
  31
0
  0
LINE
  5
e3
  100
AcDbEntity
  8
SK1
  100
AcDbLine
  10
33.6583
  20
-0.827105
  30
0
  11
34.4854
  21
0
  31
0
  0
LINE
  5
e4
  100
AcDbEntity
  8
SK1
  100
AcDbLine
  10
33.7519
  20
-0.981039
  30
0
  11
34.7329
  21
0
  31
0
  0
LINE
  5
e5
  100
AcDbEntity
  8
SK1
  100
AcDbLine
  10
33.8578
  20
-1.12257
  30
0
  11
34.9804
  21
0
  31
0
  0
LINE
  5
e6
  100
AcDbEntity
  8
SK1
  100
AcDbLine
  10
33.9771
  20
-1.25077
  30
0
  11
35.2
  21
-0.027896
  31
0
  0
LINE
  5
e7
  100
AcDbEntity
  8
SK1
  100
AcDbLine
  10
34.1084
  20
-1.36695
  30
0
  11
35.2
  21
-0.275383
  31
0
  0
LINE
  5
e8
  100
AcDbEntity
  8
SK1
  100
AcDbLine
  10
34.2522
  20
-1.47069
  30
0
  11
35.2
  21
-0.522871
  31
0
  0
LINE
  5
e9
  100
AcDbEntity
  8
SK1
  100
AcDbLine
  10
34.4099
  20
-1.5605
  30
0
  11
35.2
  21
-0.770358
  31
0
  0
LINE
  5
ea
  100
AcDbEntity
  8
SK1
  100
AcDbLine
  10
34.5815
  20
-1.63636
  30
0
  11
35.2
  21
-1.01785
  31
0
  0
LINE
  5
eb
  100
AcDbEntity
  8
SK1
  100
AcDbLine
  10
34.7693
  20
-1.69603
  30
0
  11
35.2
  21
-1.26533
  31
0
  0
LINE
  5
ec
  100
AcDbEntity
  8
SK1
  100
AcDbLine
  10
34.9772
  20
-1.73565
  30
0
  11
35.2
  21
-1.51282
  31
0
  0
LINE
  5
ed
  100
AcDbEntity
  8
SK1
  100
AcDbLine
  10
35.2
  20
0
  30
0
  11
33.45
  21
0
  31
0
  0
LINE
  5
ee
  100
AcDbEntity
  8
SK1
  100
AcDbLine
  10
35.2
  20
-1.75
  30
0
  11
35.2
  21
0
  31
0
  0
ARC
  5
ef
  100
AcDbEntity
  8
SK1
  100
AcDbCircle
  10
35.2
  20
0
  30
0
  40
1.75
  100
AcDbArc
  50
180
  51
270
  0
ARC
  5
f0
  100
AcDbEntity
  8
SK1
  100
AcDbCircle
  10
35.2
  20
0
  30
0
  40
1.75
  100
AcDbArc
  50
270
  51
0
  0
LINE
  5
161
  100
AcDbEntity
  8
NOCUT
  100
AcDbLine
  10
43.5
  20
0
  30
0
  11
43.5
  21
0.475
  31
0
  0
LINE
  5
162
  100
AcDbEntity
  8
NOCUT
  100
AcDbLine
  10
43.5
  20
0.475
  30
0
  11
41.02
  21
0.475
  31
0
  0
ARC
  5
163
  100
AcDbEntity
  8
NOCUT
  100
AcDbCircle
  10
41.02
  20
1.475
  30
0
  40
1
  100
AcDbArc
  50
255
  51
270
  0
LINE
  5
164
  100
AcDbEntity
  8
NOCUT
  100
AcDbLine
  10
40.761181
  20
0.509074
  30
0
  11
35.2
  21
1.999188
  31
0
  0
LINE
  5
165
  100
AcDbEntity
  8
NOCUT
  100
AcDbLine
  10
35.2
  20
1.999188
  30
0
  11
35.2
  21
0
  31
0
  0
LINE
  5
166
  100
AcDbEntity
  8
NOCUT
  100
AcDbLine
  10
35.2
  20
0
  30
0
  11
43.5
  21
0
  31
0
  0
LINE
  5
167
  100
AcDbEntity
  8
CUT
  100
AcDbLine
  10
45
  20
0
  30
0
  11
45
  21
0.5
  31
0
  0
LINE
  5
168
  100
AcDbEntity
  8
CUT
  100
AcDbLine
  10
45
  20
0.5
  30
0
  11
43.5
  21
0.5
  31
0
  0
LINE
  5
169
  100
AcDbEntity
  8
CUT
  100
AcDbLine
  10
43.5
  20
0.5
  30
0
  11
43.5
  21
0
  31
0
  0
LINE
  5
16a
  100
AcDbEntity
  8
CUT
  100
AcDbLine
  10
43.5
  20
0
  30
0
  11
45
  21
0
  31
0
  0
LINE
  5
16b
  100
AcDbEntity
  8
4
  100
AcDbLine
  10
35.2
  20
0
  30
0
  11
45
  21
0
  31
0
  0
LINE
  5
16c
  100
AcDbEntity
  8
SK4
  100
AcDbLine
  10
-1
  20
0
  30
0
  11
46
  21
0
  31
0
  0
LINE
  5
16d
  100
AcDbEntity
  8
INFTOTAL
  100
AcDbLine
  10
-15.45
  20
17.45
  30
0
  11
60.45
  21
17.45
  31
0
  0
LINE
  5
16e
  100
AcDbEntity
  8
INFTOTAL
  100
AcDbLine
  10
60.45
  20
17.45
  30
0
  11
60.45
  21
-13.741202
  31
0
  0
LINE
  5
16f
  100
AcDbEntity
  8
INFTOTAL
  100
AcDbLine
  10
60.45
  20
-13.741202
  30
0
  11
-15.45
  21
-13.741202
  31
0
  0
LINE
  5
170
  100
AcDbEntity
  8
INFTOTAL
  100
AcDbLine
  10
-15.45
  20
-13.741202
  30
0
  11
-15.45
  21
17.45
  31
0
  0
ENDSEC
  0
SECTION
  2
OBJECTS
  0
DICTIONARY
  5
171
  330
0
100
AcDbDictionary
281
    1
  3
ACAD_GROUP
  350
172
  0
DICTIONARY
  5
172
102
{ACAD_REACTORS
  330
171
102
}
  330
171
100
AcDbDictionary
281
    1
  0
ENDSEC
  0
EOF
