  0
SECTION
  2
HEADER
  9
$ACADVER
  1
AC1015
  9
$DWGCODEPAGE
  3
ANSI_932
  9
$HANDSEED
  5
106AB90
  0
ENDSEC
  0
SECTION
  2
CLASSES
  0
CLASS
  1
IMAGEDEF
  2
AcDbRasterImageDef
  3
ISM
  90
0
  91
4
  280
0
  281
0
  0
CLASS
  1
IMAGE
  2
AcDbRasterImage
  3
ISM
  90
127
  91
5
  280
0
  281
1
  0
CLASS
  1
IMAGEDEF_REACTOR
  2
AcDbRasterImageDefReactor
  3
ISM
  90
1
  91
4
  280
0
  281
0
  0
ENDSEC
  0
SECTION
  2
TABLES
  0
TABLE
  2
VPORT
  5
2
  330
0
  100
AcDbSymbolTable
  70
    0
  0
ENDTAB
  0
TABLE
  2
LTYPE
  5
3
  330
0
  100
AcDbSymbolTable
  70
    4
  0
LTYPE
  5
4
  330
3
  100
AcDbSymbolTableRecord
  100
AcDbLinetypeTableRecord
  2
ByBlock
  70
    0
  3

  72
65
  73
    0
  40
0
  0
LTYPE
  5
5
  330
3
  100
AcDbSymbolTableRecord
  100
AcDbLinetypeTableRecord
  2
ByLayer
  70
    0
  3

  72
65
  73
    0
  40
0
  0
LTYPE
  5
6
  330
3
  100
AcDbSymbolTableRecord
  100
AcDbLinetypeTableRecord
  2
CONTINUOUS
  70
    0
  3
Solid Line
  72
65
  73
    0
  40
0
  0
LTYPE
  5
7
  330
3
  100
AcDbSymbolTableRecord
  100
AcDbLinetypeTableRecord
  2
DASH
  70
    0
  3
Hidden
  72
65
  73
2
  40
2.5
  49
1.5
  74
0
  49
-1
  74
0
  0
LTYPE
  5
8
  330
3
  100
AcDbSymbolTableRecord
  100
AcDbLinetypeTableRecord
  2
LONGDASHDASH
  70
    0
  3
__ . __
  72
65
  73
    4
  40
7
  49
4
  74
    0
  49
-1
  74
    0
  49
1
  74
    0
  49
-1
  74
    0
  0
ENDTAB
  0
TABLE
  2
LAYER
  5
9
  330
0
  100
AcDbSymbolTable
  70
    40
  0
LAYER
  5
a
  330
9
  100
AcDbSymbolTableRecord
  100
AcDbLayerTableRecord
  2
0
  70
    0
  62
    0
  6
CONTINUOUS
  390
0
  0
LAYER
  5
c
  330
9
  100
AcDbSymbolTableRecord
  100
AcDbLayerTableRecord
  2
1
  70
    0
  62
    4
  6
CONTINUOUS
  370
50
  390
0
  0
LAYER
  5
d
  330
9
  100
AcDbSymbolTableRecord
  100
AcDbLayerTableRecord
  2
2
  70
    0
  62
    7
  6
CONTINUOUS
  370
25
  390
0
  0
LAYER
  5
f
  330
9
  100
AcDbSymbolTableRecord
  100
AcDbLayerTableRecord
  2
4
  70
    0
  62
    2
  6
LONGDASHDASH
  370
25
  390
0
  0
LAYER
  5
13
  330
9
  100
AcDbSymbolTableRecord
  100
AcDbLayerTableRecord
  2
SK1
  70
    0
  62
    4
  6
CONTINUOUS
  370
50
  390
0
  0
LAYER
  5
14
  330
9
  100
AcDbSymbolTableRecord
  100
AcDbLayerTableRecord
  2
SK2
  70
    0
  62
    7
  6
CONTINUOUS
  370
25
  390
0
  0
LAYER
  5
16
  330
9
  100
AcDbSymbolTableRecord
  100
AcDbLayerTableRecord
  2
SK4
  70
    0
  62
    2
  6
LONGDASHDASH
  370
25
  390
0
  0
LAYER
  5
21
  330
9
  100
AcDbSymbolTableRecord
  100
AcDbLayerTableRecord
  2
NOCUT
  70
    0
  62
    7
  6
CONTINUOUS
  370
25
  390
0
  0
LAYER
  5
22
  330
9
  100
AcDbSymbolTableRecord
  100
AcDbLayerTableRecord
  2
CUT
  70
    0
  62
    1
  6
CONTINUOUS
  370
25
  390
0
  0
LAYER
  5
26
  330
9
  100
AcDbSymbolTableRecord
  100
AcDbLayerTableRecord
  2
INFTOTAL
  70
    0
  62
    9
  6
CONTINUOUS
  370
18
  390
0
  0
ENDTAB
  0
TABLE
  2
STYLE
  5
27
  330
0
  100
AcDbSymbolTable
  70
    1
  0
STYLE
  5
28
  330
27
  100
AcDbSymbolTableRecord
  100
AcDbTextStyleTableRecord
  2
Monospac821 BT
  70
    0
  40
    3.5
  41
1
  50
0
  71
0
  42
3
  3

  4

  1001
ACAD
  1000
Monospac821 BT
  1071
256
  0
ENDTAB
  0
TABLE
  2
VIEW
  5
29
  330
0
  100
AcDbSymbolTable
  70
    0
  0
ENDTAB
  0
TABLE
  2
UCS
  5
2a
  330
0
  100
AcDbSymbolTable
  70
    0
  0
ENDTAB
  0
TABLE
  2
APPID
  5
2b
  330
0
  100
AcDbSymbolTable
  70
    1
  0
APPID
  5
2c
  330
2b
  100
AcDbSymbolTableRecord
  100
AcDbRegAppTableRecord
  2
ACAD
  70
    0
  0
ENDTAB
  0
TABLE
  2
DIMSTYLE
  5
2d
  330
0
  100
AcDbSymbolTable
  70
    1
  100
AcDbDimStyleTable
  0
DIMSTYLE
  105
2e
  330
2d
  100
AcDbSymbolTableRecord
  100
AcDbDimStyleTableRecord
  2
STANDARD
  70
    0
  41
    3
  42
0.5
  44
1
  73
0
  77
1
  78
1
  140
3.5
  141
2.5
  143
0.03937
  147
0.8
  172
1
  174
1
  178
0
  179
1
  271
2
  279
1
  284
1
  340
28
  0
ENDTAB
  0
TABLE
  2
BLOCK_RECORD
  5
2f
  330
0
  100
AcDbSymbolTable
  70
    2
  0
BLOCK_RECORD
  5
30
  330
2f
  100
AcDbSymbolTableRecord
  100
AcDbBlockTableRecord
  2
*Model_Space
  0
BLOCK_RECORD
  5
31
  330
2f
  100
AcDbSymbolTableRecord
  100
AcDbBlockTableRecord
  2
*Paper_Space
  0
BLOCK_RECORD
  5
127
  330
2f
  100
AcDbSymbolTableRecord
  100
AcDbBlockTableRecord
  2
*D126
  340
0
  0
BLOCK_RECORD
  5
135
  330
2f
  100
AcDbSymbolTableRecord
  100
AcDbBlockTableRecord
  2
*D134
  340
0
  0
BLOCK_RECORD
  5
143
  330
2f
  100
AcDbSymbolTableRecord
  100
AcDbBlockTableRecord
  2
*D142
  340
0
  0
BLOCK_RECORD
  5
151
  330
2f
  100
AcDbSymbolTableRecord
  100
AcDbBlockTableRecord
  2
*D150
  340
0
  0
BLOCK_RECORD
  5
15f
  330
2f
  100
AcDbSymbolTableRecord
  100
AcDbBlockTableRecord
  2
*D15e
  340
0
  0
BLOCK_RECORD
  5
16d
  330
2f
  100
AcDbSymbolTableRecord
  100
AcDbBlockTableRecord
  2
*D16c
  340
0
  0
BLOCK_RECORD
  5
17b
  330
2f
  100
AcDbSymbolTableRecord
  100
AcDbBlockTableRecord
  2
*D17a
  340
0
  0
BLOCK_RECORD
  5
189
  330
2f
  100
AcDbSymbolTableRecord
  100
AcDbBlockTableRecord
  2
*D188
  340
0
  0
ENDTAB
  0
ENDSEC
  0
SECTION
  2
BLOCKS
  0
BLOCK
  5
32
  330
30
  100
AcDbEntity
  8
0
  100
AcDbBlockBegin
  2
*Model_Space
  70
    0
  10
0
  20
0
  30
0
  3
*Model_Space
  1

  0
ENDBLK
  5
33
  330
30
  100
AcDbEntity
  8
0
  100
AcDbBlockEnd
  0
BLOCK
  5
34
  330
31
  100
AcDbEntity
  8
0
  100
AcDbBlockBegin
  2
*Paper_Space
  70
    0
  10
0
  20
0
  30
0
  3
*Paper_Space
  1

  0
ENDBLK
  5
35
  330
31
  100
AcDbEntity
  8
0
  100
AcDbBlockEnd
  0
BLOCK
  5
125
  330
127
  100
AcDbEntity
  8
SK2
  100
AcDbBlockBegin
  2
*D126
  70
1
  10
0
  20
0
  30
0
  3
*D126
  1

  0
LINE
  5
128
  330
127
  100
AcDbEntity
  8
SK2
  100
AcDbLine
  10
0
  20
1.3
  30
0
  11
0
  21
14
  31
0
  0
LINE
  5
129
  330
127
  100
AcDbEntity
  8
SK2
  100
AcDbLine
  10
45
  20
0.75
  30
0
  11
45
  21
14
  31
0
  0
LINE
  5
12a
  330
127
  100
AcDbEntity
  8
SK2
  100
AcDbLine
  10
0
  20
12
  30
0
  11
45
  21
12
  31
0
  0
SOLID
  5
12b
  330
127
  100
AcDbEntity
  8
SK2
  100
AcDbTrace
  10
0
  20
12
  30
0
  11
2.478612
  21
12.326315
  31
0
  12
2.478612
  22
11.673685
  32
0
  13
2.478612
  23
11.673685
  33
0
  0
SOLID
  5
12c
  330
127
  100
AcDbEntity
  8
SK2
  100
AcDbTrace
  10
45
  20
12
  30
0
  11
42.521388
  21
11.673685
  31
0
  12
42.521388
  22
12.326315
  32
0
  13
42.521388
  23
12.326315
  33
0
  0
MTEXT
  5
12d
  330
127
  100
AcDbEntity
  8
SK2
  100
AcDbMText
  10
37.397052
  20
12
  30
0
  11
1
  21
0
  31
0
  40
2
  41
0
  71
8
  72
1
  1
45
  0
POINT
  5
12e
  330
127
  100
AcDbEntity
  8
SK2
  62
0
  100
AcDbPoint
  10
0
  20
1.3
  30
0
  0
POINT
  5
12f
  330
127
  100
AcDbEntity
  8
SK2
  62
0
  100
AcDbPoint
  10
45
  20
0.75
  30
0
  0
POINT
  5
130
  330
127
  100
AcDbEntity
  8
SK2
  62
0
  100
AcDbPoint
  10
45
  20
12
  30
0
  0
ENDBLK
  5
131
  330
127
  100
AcDbEntity
  8
SK2
  100
AcDbBlockEnd
  0
BLOCK
  5
133
  330
135
  100
AcDbEntity
  8
SK2
  100
AcDbBlockBegin
  2
*D134
  70
1
  10
0
  20
0
  30
0
  3
*D134
  1

  0
LINE
  5
136
  330
135
  100
AcDbEntity
  8
SK2
  100
AcDbLine
  10
0
  20
1.3
  30
0
  11
0
  21
8.990662
  31
0
  0
LINE
  5
137
  330
135
  100
AcDbEntity
  8
SK2
  100
AcDbLine
  10
28
  20
2
  30
0
  11
28
  21
8.990662
  31
0
  0
LINE
  5
138
  330
135
  100
AcDbEntity
  8
SK2
  100
AcDbLine
  10
0
  20
6.990662
  30
0
  11
28
  21
6.990662
  31
0
  0
SOLID
  5
139
  330
135
  100
AcDbEntity
  8
SK2
  100
AcDbTrace
  10
0
  20
6.990662
  30
0
  11
2.478612
  21
7.316978
  31
0
  12
2.478612
  22
6.664347
  32
0
  13
2.478612
  23
6.664347
  33
0
  0
SOLID
  5
13a
  330
135
  100
AcDbEntity
  8
SK2
  100
AcDbTrace
  10
28
  20
6.990662
  30
0
  11
25.521388
  21
6.664347
  31
0
  12
25.521388
  22
7.316978
  32
0
  13
25.521388
  23
7.316978
  33
0
  0
MTEXT
  5
13b
  330
135
  100
AcDbEntity
  8
SK2
  100
AcDbMText
  10
14
  20
6.990662
  30
0
  11
1
  21
0
  31
0
  40
2
  41
0
  71
8
  72
1
  1
28
  0
POINT
  5
13c
  330
135
  100
AcDbEntity
  8
SK2
  62
0
  100
AcDbPoint
  10
0
  20
1.3
  30
0
  0
POINT
  5
13d
  330
135
  100
AcDbEntity
  8
SK2
  62
0
  100
AcDbPoint
  10
28
  20
2
  30
0
  0
POINT
  5
13e
  330
135
  100
AcDbEntity
  8
SK2
  62
0
  100
AcDbPoint
  10
28
  20
6.990662
  30
0
  0
ENDBLK
  5
13f
  330
135
  100
AcDbEntity
  8
SK2
  100
AcDbBlockEnd
  0
BLOCK
  5
141
  330
143
  100
AcDbEntity
  8
SK2
  100
AcDbBlockBegin
  2
*D142
  70
1
  10
0
  20
0
  30
0
  3
*D142
  1

  0
LINE
  5
144
  330
143
  100
AcDbEntity
  8
SK2
  100
AcDbLine
  10
0.7
  20
-2
  30
0
  11
-12
  21
-2
  31
0
  0
LINE
  5
145
  330
143
  100
AcDbEntity
  8
SK2
  100
AcDbLine
  10
0.7
  20
2
  30
0
  11
-12
  21
2
  31
0
  0
LINE
  5
146
  330
143
  100
AcDbEntity
  8
SK2
  100
AcDbLine
  10
-10
  20
-4.158416
  30
0
  11
-10
  21
2
  31
0
  0
SOLID
  5
147
  330
143
  100
AcDbEntity
  8
SK2
  100
AcDbTrace
  10
-10
  20
-2
  30
0
  11
-10.326315
  21
0.478612
  31
0
  12
-9.673685
  22
0.478612
  32
0
  13
-9.673685
  23
0.478612
  33
0
  0
SOLID
  5
148
  330
143
  100
AcDbEntity
  8
SK2
  100
AcDbTrace
  10
-10
  20
2
  30
0
  11
-9.673685
  21
-0.478612
  31
0
  12
-10.326315
  22
-0.478612
  32
0
  13
-10.326315
  23
-0.478612
  33
0
  0
MTEXT
  5
149
  330
143
  100
AcDbEntity
  8
SK2
  100
AcDbMText
  10
-10
  20
0
  30
0
  11
0
  21
1
  31
0
  40
2
  41
0
  71
8
  72
1
  1
ﾘ4
  0
POINT
  5
14a
  330
143
  100
AcDbEntity
  8
SK2
  62
0
  100
AcDbPoint
  10
0.7
  20
-2
  30
0
  0
POINT
  5
14b
  330
143
  100
AcDbEntity
  8
SK2
  62
0
  100
AcDbPoint
  10
0.7
  20
2
  30
0
  0
POINT
  5
14c
  330
143
  100
AcDbEntity
  8
SK2
  62
0
  100
AcDbPoint
  10
-10
  20
2
  30
0
  0
ENDBLK
  5
14d
  330
143
  100
AcDbEntity
  8
SK2
  100
AcDbBlockEnd
  0
BLOCK
  5
14f
  330
151
  100
AcDbEntity
  8
2
  100
AcDbBlockBegin
  2
*D150
  70
1
  10
0
  20
0
  30
0
  3
*D150
  1

  0
LINE
  5
152
  330
151
  100
AcDbEntity
  8
2
  100
AcDbLine
  10
45
  20
-0.75
  30
0
  11
57
  21
-0.75
  31
0
  0
LINE
  5
153
  330
151
  100
AcDbEntity
  8
2
  100
AcDbLine
  10
45
  20
0.75
  30
0
  11
57
  21
0.75
  31
0
  0
LINE
  5
154
  330
151
  100
AcDbEntity
  8
2
  100
AcDbLine
  10
55
  20
-6.757426
  30
0
  11
55
  21
0.75
  31
0
  0
SOLID
  5
155
  330
151
  100
AcDbEntity
  8
2
  100
AcDbTrace
  10
55
  20
-0.75
  30
0
  11
54.673685
  21
1.728612
  31
0
  12
55.326315
  22
1.728612
  32
0
  13
55.326315
  23
1.728612
  33
0
  0
SOLID
  5
156
  330
151
  100
AcDbEntity
  8
2
  100
AcDbTrace
  10
55
  20
0.75
  30
0
  11
55.326315
  21
-1.728612
  31
0
  12
54.673685
  22
-1.728612
  32
0
  13
54.673685
  23
-1.728612
  33
0
  0
MTEXT
  5
157
  330
151
  100
AcDbEntity
  8
2
  100
AcDbMText
  10
55
  20
0
  30
0
  11
0
  21
1
  31
0
  40
2
  41
0
  71
8
  72
1
  1
ﾘ1.5
  0
POINT
  5
158
  330
151
  100
AcDbEntity
  8
2
  62
0
  100
AcDbPoint
  10
45
  20
-0.75
  30
0
  0
POINT
  5
159
  330
151
  100
AcDbEntity
  8
2
  62
0
  100
AcDbPoint
  10
45
  20
0.75
  30
0
  0
POINT
  5
15a
  330
151
  100
AcDbEntity
  8
2
  62
0
  100
AcDbPoint
  10
55
  20
0.75
  30
0
  0
ENDBLK
  5
15b
  330
151
  100
AcDbEntity
  8
2
  100
AcDbBlockEnd
  0
BLOCK
  5
15d
  330
15f
  100
AcDbEntity
  8
2
  100
AcDbBlockBegin
  2
*D15e
  70
1
  10
0
  20
0
  30
0
  3
*D15e
  1

  0
LINE
  5
160
  330
15f
  100
AcDbEntity
  8
2
  100
AcDbLine
  10
42.7
  20
-0.725
  30
0
  11
40.7
  21
-0.725
  31
0
  0
LINE
  5
161
  330
15f
  100
AcDbEntity
  8
2
  100
AcDbLine
  10
42.7
  20
0.725
  30
0
  11
40.7
  21
0.725
  31
0
  0
LINE
  5
162
  330
15f
  100
AcDbEntity
  8
2
  100
AcDbLine
  10
42.7
  20
-0.725
  30
0
  11
42.7
  21
9.096535
  31
0
  0
SOLID
  5
163
  330
15f
  100
AcDbEntity
  8
2
  100
AcDbTrace
  10
42.7
  20
-0.725
  30
0
  11
42.373685
  21
1.753612
  31
0
  12
43.026315
  22
1.753612
  32
0
  13
43.026315
  23
1.753612
  33
0
  0
SOLID
  5
164
  330
15f
  100
AcDbEntity
  8
2
  100
AcDbTrace
  10
42.7
  20
0.725
  30
0
  11
43.026315
  21
-1.753612
  31
0
  12
42.373685
  22
-1.753612
  32
0
  13
42.373685
  23
-1.753612
  33
0
  0
MTEXT
  5
165
  330
15f
  100
AcDbEntity
  8
2
  100
AcDbMText
  10
42.7
  20
0.725
  30
0
  11
0
  21
1
  31
0
  40
2
  41
0
  71
8
  72
1
  1
ﾘ1.45
  0
POINT
  5
166
  330
15f
  100
AcDbEntity
  8
2
  62
0
  100
AcDbPoint
  10
40.7
  20
-0.725
  30
0
  0
POINT
  5
167
  330
15f
  100
AcDbEntity
  8
2
  62
0
  100
AcDbPoint
  10
40.7
  20
0.725
  30
0
  0
POINT
  5
168
  330
15f
  100
AcDbEntity
  8
2
  62
0
  100
AcDbPoint
  10
42.7
  20
9.096535
  30
0
  0
ENDBLK
  5
169
  330
15f
  100
AcDbEntity
  8
2
  100
AcDbBlockEnd
  0
BLOCK
  5
16b
  330
16d
  100
AcDbEntity
  8
2
  100
AcDbBlockBegin
  2
*D16c
  70
1
  10
0
  20
0
  30
0
  3
*D16c
  1

  0
LINE
  5
16e
  330
16d
  100
AcDbEntity
  8
2
  100
AcDbLine
  10
42.7
  20
0.725
  30
0
  11
42.7
  21
9
  31
0
  0
LINE
  5
16f
  330
16d
  100
AcDbEntity
  8
2
  100
AcDbLine
  10
33.19
  20
0.725
  30
0
  11
33.19
  21
9
  31
0
  0
LINE
  5
170
  330
16d
  100
AcDbEntity
  8
2
  100
AcDbLine
  10
42.7
  20
7
  30
0
  11
33.19
  21
7
  31
0
  0
SOLID
  5
171
  330
16d
  100
AcDbEntity
  8
2
  100
AcDbTrace
  10
42.7
  20
7
  30
0
  11
45.178612
  21
7.326315
  31
0
  12
45.178612
  22
6.673685
  32
0
  13
45.178612
  23
6.673685
  33
0
  0
SOLID
  5
172
  330
16d
  100
AcDbEntity
  8
2
  100
AcDbTrace
  10
33.19
  20
7
  30
0
  11
30.711388
  21
6.673685
  31
0
  12
30.711388
  22
7.326315
  32
0
  13
30.711388
  23
7.326315
  33
0
  0
MTEXT
  5
173
  330
16d
  100
AcDbEntity
  8
2
  100
AcDbMText
  10
37.945
  20
7
  30
0
  11
1
  21
-0
  31
0
  40
2
  41
0
  71
8
  72
1
  1
9.51
  0
POINT
  5
174
  330
16d
  100
AcDbEntity
  8
2
  62
0
  100
AcDbPoint
  10
42.7
  20
0.725
  30
0
  0
POINT
  5
175
  330
16d
  100
AcDbEntity
  8
2
  62
0
  100
AcDbPoint
  10
33.19
  20
0.725
  30
0
  0
POINT
  5
176
  330
16d
  100
AcDbEntity
  8
2
  62
0
  100
AcDbPoint
  10
33.19
  20
7
  30
0
  0
ENDBLK
  5
177
  330
16d
  100
AcDbEntity
  8
2
  100
AcDbBlockEnd
  0
BLOCK
  5
179
  330
17b
  100
AcDbEntity
  8
2
  100
AcDbBlockBegin
  2
*D17a
  70
1
  10
0
  20
0
  30
0
  3
*D17a
  1

  0
LINE
  5
17c
  330
17b
  100
AcDbEntity
  8
2
  100
AcDbLine
  10
45
  20
0.75
  30
0
  11
45
  21
14
  31
0
  0
LINE
  5
17d
  330
17b
  100
AcDbEntity
  8
2
  100
AcDbLine
  10
28
  20
2
  30
0
  11
28
  21
9
  31
0
  0
LINE
  5
17e
  330
17b
  100
AcDbEntity
  8
2
  100
AcDbLine
  10
45
  20
7
  30
0
  11
28
  21
7
  31
0
  0
SOLID
  5
17f
  330
17b
  100
AcDbEntity
  8
2
  100
AcDbTrace
  10
45
  20
7
  30
0
  11
47.478612
  21
7.326315
  31
0
  12
47.478612
  22
6.673685
  32
0
  13
47.478612
  23
6.673685
  33
0
  0
SOLID
  5
180
  330
17b
  100
AcDbEntity
  8
2
  100
AcDbTrace
  10
28
  20
7
  30
0
  11
25.521388
  21
6.673685
  31
0
  12
25.521388
  22
7.326315
  32
0
  13
25.521388
  23
7.326315
  33
0
  0
MTEXT
  5
181
  330
17b
  100
AcDbEntity
  8
2
  100
AcDbMText
  10
36.5
  20
7
  30
0
  11
1
  21
-0
  31
0
  40
2
  41
0
  71
8
  72
1
  1
17
  0
POINT
  5
182
  330
17b
  100
AcDbEntity
  8
2
  62
0
  100
AcDbPoint
  10
45
  20
14
  30
0
  0
POINT
  5
183
  330
17b
  100
AcDbEntity
  8
2
  62
0
  100
AcDbPoint
  10
28
  20
2
  30
0
  0
POINT
  5
184
  330
17b
  100
AcDbEntity
  8
2
  62
0
  100
AcDbPoint
  10
28
  20
7
  30
0
  0
ENDBLK
  5
185
  330
17b
  100
AcDbEntity
  8
2
  100
AcDbBlockEnd
  0
BLOCK
  5
187
  330
189
  100
AcDbEntity
  8
2
  100
AcDbBlockBegin
  2
*D188
  70
1
  10
0
  20
0
  30
0
  3
*D188
  1

  0
LINE
  5
18a
  330
189
  100
AcDbEntity
  8
2
  100
AcDbLine
  10
45
  20
-10.291202
  30
0
  11
45
  21
0
  31
0
  0
LINE
  5
18b
  330
189
  100
AcDbEntity
  8
2
  100
AcDbLine
  10
42.7
  20
-10.291202
  30
0
  11
42.7
  21
-0.725
  31
0
  0
LINE
  5
18c
  330
189
  100
AcDbEntity
  8
2
  100
AcDbLine
  10
45
  20
-8.291202
  30
0
  11
39.375
  21
-8.291202
  31
0
  0
SOLID
  5
18d
  330
189
  100
AcDbEntity
  8
2
  100
AcDbTrace
  10
45
  20
-8.291202
  30
0
  11
47.478612
  21
-7.964887
  31
0
  12
47.478612
  22
-8.617518
  32
0
  13
47.478612
  23
-8.617518
  33
0
  0
SOLID
  5
18e
  330
189
  100
AcDbEntity
  8
2
  100
AcDbTrace
  10
42.7
  20
-8.291202
  30
0
  11
40.221388
  21
-8.617518
  31
0
  12
40.221388
  22
-7.964887
  32
0
  13
40.221388
  23
-7.964887
  33
0
  0
MTEXT
  5
18f
  330
189
  100
AcDbEntity
  8
2
  100
AcDbMText
  10
43.85
  20
-8.291202
  30
0
  11
1
  21
-0
  31
0
  40
2
  41
0
  71
8
  72
1
  1
2.3
  0
POINT
  5
190
  330
189
  100
AcDbEntity
  8
2
  62
0
  100
AcDbPoint
  10
45
  20
0
  30
0
  0
POINT
  5
191
  330
189
  100
AcDbEntity
  8
2
  62
0
  100
AcDbPoint
  10
42.7
  20
-0.725
  30
0
  0
POINT
  5
192
  330
189
  100
AcDbEntity
  8
2
  62
0
  100
AcDbPoint
  10
39.375
  20
-8.291202
  30
0
  0
ENDBLK
  5
193
  330
189
  100
AcDbEntity
  8
2
  100
AcDbBlockEnd
  0
ENDSEC
  0
SECTION
  2
ENTITIES
  0
DIMENSION
  5
132
  100
AcDbEntity
  8
SK2
  100
AcDbDimension
  2
*D126
  10
45
  20
12
  30
0
  11
37.397052
  21
12
  31
0
  70
160
  1
<>
  71
5
  3
STANDARD
  42
45
  100
AcDbAlignedDimension
  13
0
  23
1.3
  33
0
  14
45
  24
0.75
  34
0
  50
0
  100
AcDbRotatedDimension
  0
DIMENSION
  5
140
  100
AcDbEntity
  8
SK2
  100
AcDbDimension
  2
*D134
  10
28
  20
6.990662
  30
0
  11
14
  21
6.990662
  31
0
  70
160
  1
<>
  71
5
  3
STANDARD
  42
28
  100
AcDbAlignedDimension
  13
0
  23
1.3
  33
0
  14
28
  24
2
  34
0
  50
0
  100
AcDbRotatedDimension
  0
DIMENSION
  5
14e
  100
AcDbEntity
  8
SK2
  100
AcDbDimension
  2
*D142
  10
-10
  20
2
  30
0
  11
-10
  21
0
  31
0
  70
160
  1
%%c<>
  71
5
  3
STANDARD
  42
4
  100
AcDbAlignedDimension
  13
0.7
  23
-2
  33
0
  14
0.7
  24
2
  34
0
  50
-90
  100
AcDbRotatedDimension
  0
DIMENSION
  5
15c
  100
AcDbEntity
  8
2
  100
AcDbDimension
  2
*D150
  10
55
  20
0.75
  30
0
  11
55
  21
0
  31
0
  70
160
  1
%%c<>
  71
5
  3
STANDARD
  42
1.5
  100
AcDbAlignedDimension
  13
45
  23
-0.75
  33
0
  14
45
  24
0.75
  34
0
  50
-90
  100
AcDbRotatedDimension
  0
DIMENSION
  5
16a
  100
AcDbEntity
  8
2
  100
AcDbDimension
  2
*D15e
  10
42.7
  20
9.096535
  30
0
  11
42.7
  21
0.725
  31
0
  70
160
  1
%%c<>
  71
5
  3
STANDARD
  42
1.45
  100
AcDbAlignedDimension
  13
40.7
  23
-0.725
  33
0
  14
40.7
  24
0.725
  34
0
  50
-90
  100
AcDbRotatedDimension
  0
DIMENSION
  5
178
  100
AcDbEntity
  8
2
  100
AcDbDimension
  2
*D16c
  10
33.19
  20
7
  30
0
  11
37.945
  21
7
  31
0
  70
160
  1
<>
  71
5
  3
STANDARD
  42
9.51
  100
AcDbAlignedDimension
  13
42.7
  23
0.725
  33
0
  14
33.19
  24
0.725
  34
0
  50
0
  100
AcDbRotatedDimension
  0
DIMENSION
  5
186
  100
AcDbEntity
  8
2
  100
AcDbDimension
  2
*D17a
  10
28
  20
7
  30
0
  11
36.5
  21
7
  31
0
  70
160
  1
<>
  71
5
  3
STANDARD
  42
17
  100
AcDbAlignedDimension
  13
45
  23
14
  33
0
  14
28
  24
2
  34
0
  50
0
  100
AcDbRotatedDimension
  0
DIMENSION
  5
194
  100
AcDbEntity
  8
2
  100
AcDbDimension
  2
*D188
  10
39.375
  20
-8.291202
  30
0
  11
43.85
  21
-8.291202
  31
0
  70
160
  1
<>
  71
5
  3
STANDARD
  42
2.3
  100
AcDbAlignedDimension
  13
45
  23
0
  33
0
  14
42.7
  24
-0.725
  34
0
  50
0
  100
AcDbRotatedDimension
  0
LINE
  5
36
  100
AcDbEntity
  8
1
  100
AcDbLine
  10
42.959471
  20
-0.75
  30
0
  11
42.9
  21
-0.749214
  31
0
  0
LINE
  5
37
  100
AcDbEntity
  8
1
  100
AcDbLine
  10
42.9
  20
-0.749214
  30
0
  11
42.8
  21
-0.744355
  31
0
  0
LINE
  5
38
  100
AcDbEntity
  8
1
  100
AcDbLine
  10
42.8
  20
-0.744355
  30
0
  11
42.7
  21
-0.735088
  31
0
  0
LINE
  5
39
  100
AcDbEntity
  8
1
  100
AcDbLine
  10
42.7
  20
-0.735088
  30
0
  11
42.7
  21
-0.709879
  31
0
  0
LINE
  5
3a
  100
AcDbEntity
  8
1
  100
AcDbLine
  10
42.7
  20
-0.709879
  30
0
  11
42.6
  21
-0.69645
  31
0
  0
LINE
  5
3b
  100
AcDbEntity
  8
1
  100
AcDbLine
  10
42.6
  20
-0.69645
  30
0
  11
42.5
  21
-0.680482
  31
0
  0
LINE
  5
3c
  100
AcDbEntity
  8
1
  100
AcDbLine
  10
42.5
  20
-0.680482
  30
0
  11
42.5
  21
-0.725
  31
0
  0
LINE
  5
3d
  100
AcDbEntity
  8
1
  100
AcDbLine
  10
42.7
  20
-0.75
  30
0
  11
42.7
  21
0.75
  31
0
  0
LINE
  5
3e
  100
AcDbEntity
  8
1
  100
AcDbLine
  10
42.7
  20
0.725
  30
0
  11
42.7
  21
-0.725
  31
0
  0
LINE
  5
3f
  100
AcDbEntity
  8
1
  100
AcDbLine
  10
42.8
  20
-0.722385
  30
0
  11
42.9
  21
-0.732824
  31
0
  0
LINE
  5
40
  100
AcDbEntity
  8
1
  100
AcDbLine
  10
42.9
  20
-0.732824
  30
0
  11
43
  21
-0.738922
  31
0
  0
LINE
  5
41
  100
AcDbEntity
  8
1
  100
AcDbLine
  10
43
  20
-0.738922
  30
0
  11
43.089226
  21
-0.75
  31
0
  0
LINE
  5
42
  100
AcDbEntity
  8
1
  100
AcDbLine
  10
43.367573
  20
-0.75
  30
0
  11
43.3
  21
-0.748985
  31
0
  0
LINE
  5
43
  100
AcDbEntity
  8
1
  100
AcDbLine
  10
43.3
  20
-0.748985
  30
0
  11
43.2
  21
-0.743768
  31
0
  0
LINE
  5
44
  100
AcDbEntity
  8
1
  100
AcDbLine
  10
43.2
  20
-0.743768
  30
0
  11
43.1
  21
-0.734145
  31
0
  0
LINE
  5
45
  100
AcDbEntity
  8
1
  100
AcDbLine
  10
43.1
  20
-0.734145
  30
0
  11
43
  21
-0.720174
  31
0
  0
LINE
  5
46
  100
AcDbEntity
  8
1
  100
AcDbLine
  10
43
  20
-0.720174
  30
0
  11
42.9
  21
-0.701937
  31
0
  0
LINE
  5
47
  100
AcDbEntity
  8
1
  100
AcDbLine
  10
42.9
  20
-0.701937
  30
0
  11
42.8
  21
-0.679543
  31
0
  0
LINE
  5
48
  100
AcDbEntity
  8
1
  100
AcDbLine
  10
42.8
  20
-0.679543
  30
0
  11
42.7
  21
-0.653124
  31
0
  0
LINE
  5
49
  100
AcDbEntity
  8
1
  100
AcDbLine
  10
42.7
  20
-0.653124
  30
0
  11
42.7
  21
-0.630793
  31
0
  0
LINE
  5
4a
  100
AcDbEntity
  8
1
  100
AcDbLine
  10
42.7
  20
-0.630793
  30
0
  11
42.6
  21
-0.600909
  31
0
  0
LINE
  5
4b
  100
AcDbEntity
  8
1
  100
AcDbLine
  10
42.6
  20
-0.600909
  30
0
  11
42.5
  21
-0.528762
  31
0
  0
LINE
  5
4c
  100
AcDbEntity
  8
1
  100
AcDbLine
  10
42.5
  20
-0.528762
  30
0
  11
42.5
  21
0.250138
  31
0
  0
LINE
  5
4d
  100
AcDbEntity
  8
1
  100
AcDbLine
  10
42.5
  20
0.250138
  30
0
  11
42.6
  21
0.201452
  31
0
  0
LINE
  5
4e
  100
AcDbEntity
  8
1
  100
AcDbLine
  10
42.6
  20
0.201452
  30
0
  11
42.7
  21
0.147297
  31
0
  0
LINE
  5
4f
  100
AcDbEntity
  8
1
  100
AcDbLine
  10
42.7
  20
0.147297
  30
0
  11
42.7
  21
0.148814
  31
0
  0
LINE
  5
50
  100
AcDbEntity
  8
1
  100
AcDbLine
  10
42.7
  20
0.148814
  30
0
  11
42.8
  21
0.091842
  31
0
  0
LINE
  5
51
  100
AcDbEntity
  8
1
  100
AcDbLine
  10
42.8
  20
0.091842
  30
0
  11
42.9
  21
0.034326
  31
0
  0
LINE
  5
52
  100
AcDbEntity
  8
1
  100
AcDbLine
  10
42.9
  20
0.034326
  30
0
  11
43
  21
-0.023393
  31
0
  0
LINE
  5
53
  100
AcDbEntity
  8
1
  100
AcDbLine
  10
43
  20
-0.023393
  30
0
  11
43.1
  21
-0.080974
  31
0
  0
LINE
  5
54
  100
AcDbEntity
  8
1
  100
AcDbLine
  10
43.1
  20
-0.080974
  30
0
  11
43.2
  21
-0.138075
  31
0
  0
LINE
  5
55
  100
AcDbEntity
  8
1
  100
AcDbLine
  10
43.2
  20
-0.138075
  30
0
  11
43.3
  21
-0.194358
  31
0
  0
LINE
  5
56
  100
AcDbEntity
  8
1
  100
AcDbLine
  10
43.3
  20
-0.194358
  30
0
  11
43.4
  21
-0.24949
  31
0
  0
LINE
  5
57
  100
AcDbEntity
  8
1
  100
AcDbLine
  10
43.4
  20
-0.24949
  30
0
  11
43.5
  21
-0.303144
  31
0
  0
LINE
  5
58
  100
AcDbEntity
  8
1
  100
AcDbLine
  10
43.5
  20
-0.303144
  30
0
  11
43.6
  21
-0.355003
  31
0
  0
LINE
  5
59
  100
AcDbEntity
  8
1
  100
AcDbLine
  10
43.6
  20
-0.355003
  30
0
  11
43.7
  21
-0.404759
  31
0
  0
LINE
  5
5a
  100
AcDbEntity
  8
1
  100
AcDbLine
  10
43.7
  20
-0.404759
  30
0
  11
43.8
  21
-0.452118
  31
0
  0
LINE
  5
5b
  100
AcDbEntity
  8
1
  100
AcDbLine
  10
43.8
  20
-0.452118
  30
0
  11
43.9
  21
-0.496799
  31
0
  0
LINE
  5
5c
  100
AcDbEntity
  8
1
  100
AcDbLine
  10
43.9
  20
-0.496799
  30
0
  11
44
  21
-0.538537
  31
0
  0
LINE
  5
5d
  100
AcDbEntity
  8
1
  100
AcDbLine
  10
44
  20
-0.538537
  30
0
  11
44.1
  21
-0.577086
  31
0
  0
LINE
  5
5e
  100
AcDbEntity
  8
1
  100
AcDbLine
  10
44.1
  20
-0.577086
  30
0
  11
44.2
  21
-0.612216
  31
0
  0
LINE
  5
5f
  100
AcDbEntity
  8
1
  100
AcDbLine
  10
44.2
  20
-0.612216
  30
0
  11
44.3
  21
-0.643721
  31
0
  0
LINE
  5
60
  100
AcDbEntity
  8
1
  100
AcDbLine
  10
44.3
  20
-0.643721
  30
0
  11
44.4
  21
-0.671412
  31
0
  0
LINE
  5
61
  100
AcDbEntity
  8
1
  100
AcDbLine
  10
44.4
  20
-0.671412
  30
0
  11
44.5
  21
-0.695127
  31
0
  0
LINE
  5
62
  100
AcDbEntity
  8
1
  100
AcDbLine
  10
44.5
  20
-0.695127
  30
0
  11
44.6
  21
-0.714724
  31
0
  0
LINE
  5
63
  100
AcDbEntity
  8
1
  100
AcDbLine
  10
44.6
  20
-0.714724
  30
0
  11
44.7
  21
-0.730089
  31
0
  0
LINE
  5
64
  100
AcDbEntity
  8
1
  100
AcDbLine
  10
44.7
  20
-0.730089
  30
0
  11
44.8
  21
-0.741129
  31
0
  0
LINE
  5
65
  100
AcDbEntity
  8
1
  100
AcDbLine
  10
44.8
  20
-0.741129
  30
0
  11
44.9
  21
-0.747779
  31
0
  0
LINE
  5
66
  100
AcDbEntity
  8
1
  100
AcDbLine
  10
44.9
  20
-0.747779
  30
0
  11
45
  21
-0.75
  31
0
  0
LINE
  5
67
  100
AcDbEntity
  8
1
  100
AcDbLine
  10
45
  20
-0.75
  30
0
  11
45
  21
0
  31
0
  0
LINE
  5
68
  100
AcDbEntity
  8
1
  100
AcDbLine
  10
45
  20
0.073861
  30
0
  11
44.9
  21
0.130318
  31
0
  0
LINE
  5
69
  100
AcDbEntity
  8
1
  100
AcDbLine
  10
44.9
  20
0.130318
  30
0
  11
44.8
  21
0.186004
  31
0
  0
LINE
  5
6a
  100
AcDbEntity
  8
1
  100
AcDbLine
  10
44.8
  20
0.186004
  30
0
  11
44.7
  21
0.240588
  31
0
  0
LINE
  5
6b
  100
AcDbEntity
  8
1
  100
AcDbLine
  10
44.7
  20
0.240588
  30
0
  11
44.6
  21
0.293747
  31
0
  0
LINE
  5
6c
  100
AcDbEntity
  8
1
  100
AcDbLine
  10
44.6
  20
0.293747
  30
0
  11
44.5
  21
0.345167
  31
0
  0
LINE
  5
6d
  100
AcDbEntity
  8
1
  100
AcDbLine
  10
44.5
  20
0.345167
  30
0
  11
44.4
  21
0.394542
  31
0
  0
LINE
  5
6e
  100
AcDbEntity
  8
1
  100
AcDbLine
  10
44.4
  20
0.394542
  30
0
  11
44.3
  21
0.441579
  31
0
  0
LINE
  5
6f
  100
AcDbEntity
  8
1
  100
AcDbLine
  10
44.3
  20
0.441579
  30
0
  11
44.2
  21
0.486002
  31
0
  0
LINE
  5
70
  100
AcDbEntity
  8
1
  100
AcDbLine
  10
44.2
  20
0.486002
  30
0
  11
44.1
  21
0.527546
  31
0
  0
LINE
  5
71
  100
AcDbEntity
  8
1
  100
AcDbLine
  10
44.1
  20
0.527546
  30
0
  11
44
  21
0.565965
  31
0
  0
LINE
  5
72
  100
AcDbEntity
  8
1
  100
AcDbLine
  10
44
  20
0.565965
  30
0
  11
43.9
  21
0.601032
  31
0
  0
LINE
  5
73
  100
AcDbEntity
  8
1
  100
AcDbLine
  10
43.9
  20
0.601032
  30
0
  11
43.8
  21
0.632539
  31
0
  0
LINE
  5
74
  100
AcDbEntity
  8
1
  100
AcDbLine
  10
43.8
  20
0.632539
  30
0
  11
43.7
  21
0.6603
  31
0
  0
LINE
  5
75
  100
AcDbEntity
  8
1
  100
AcDbLine
  10
43.7
  20
0.6603
  30
0
  11
43.6
  21
0.68415
  31
0
  0
LINE
  5
76
  100
AcDbEntity
  8
1
  100
AcDbLine
  10
43.6
  20
0.68415
  30
0
  11
43.5
  21
0.703947
  31
0
  0
LINE
  5
77
  100
AcDbEntity
  8
1
  100
AcDbLine
  10
43.5
  20
0.703947
  30
0
  11
43.4
  21
0.719575
  31
0
  0
LINE
  5
78
  100
AcDbEntity
  8
1
  100
AcDbLine
  10
43.4
  20
0.719575
  30
0
  11
43.3
  21
0.730941
  31
0
  0
LINE
  5
79
  100
AcDbEntity
  8
1
  100
AcDbLine
  10
43.3
  20
0.730941
  30
0
  11
43.2
  21
0.737977
  31
0
  0
LINE
  5
7a
  100
AcDbEntity
  8
1
  100
AcDbLine
  10
43.2
  20
0.737977
  30
0
  11
43.1
  21
0.740643
  31
0
  0
LINE
  5
7b
  100
AcDbEntity
  8
1
  100
AcDbLine
  10
43.1
  20
0.740643
  30
0
  11
43.089226
  21
0.75
  31
0
  0
LINE
  5
7c
  100
AcDbEntity
  8
1
  100
AcDbLine
  10
42.959471
  20
0.75
  30
0
  11
43
  21
0.749635
  31
0
  0
LINE
  5
7d
  100
AcDbEntity
  8
1
  100
AcDbLine
  10
43
  20
0.749635
  30
0
  11
43.1
  21
0.745616
  31
0
  0
LINE
  5
7e
  100
AcDbEntity
  8
1
  100
AcDbLine
  10
43.1
  20
0.745616
  30
0
  11
43.2
  21
0.737181
  31
0
  0
LINE
  5
7f
  100
AcDbEntity
  8
1
  100
AcDbLine
  10
43.2
  20
0.737181
  30
0
  11
43.3
  21
0.724379
  31
0
  0
LINE
  5
80
  100
AcDbEntity
  8
1
  100
AcDbLine
  10
43.3
  20
0.724379
  30
0
  11
43.4
  21
0.707287
  31
0
  0
LINE
  5
81
  100
AcDbEntity
  8
1
  100
AcDbLine
  10
43.4
  20
0.707287
  30
0
  11
43.5
  21
0.686005
  31
0
  0
LINE
  5
82
  100
AcDbEntity
  8
1
  100
AcDbLine
  10
43.5
  20
0.686005
  30
0
  11
43.6
  21
0.660661
  31
0
  0
LINE
  5
83
  100
AcDbEntity
  8
1
  100
AcDbLine
  10
43.6
  20
0.660661
  30
0
  11
43.7
  21
0.631403
  31
0
  0
LINE
  5
84
  100
AcDbEntity
  8
1
  100
AcDbLine
  10
43.7
  20
0.631403
  30
0
  11
43.8
  21
0.598406
  31
0
  0
LINE
  5
85
  100
AcDbEntity
  8
1
  100
AcDbLine
  10
43.8
  20
0.598406
  30
0
  11
43.9
  21
0.561864
  31
0
  0
LINE
  5
86
  100
AcDbEntity
  8
1
  100
AcDbLine
  10
43.9
  20
0.561864
  30
0
  11
44
  21
0.521994
  31
0
  0
LINE
  5
87
  100
AcDbEntity
  8
1
  100
AcDbLine
  10
44
  20
0.521994
  30
0
  11
44.1
  21
0.479032
  31
0
  0
LINE
  5
88
  100
AcDbEntity
  8
1
  100
AcDbLine
  10
44.1
  20
0.479032
  30
0
  11
44.2
  21
0.433233
  31
0
  0
LINE
  5
89
  100
AcDbEntity
  8
1
  100
AcDbLine
  10
44.2
  20
0.433233
  30
0
  11
44.3
  21
0.384869
  31
0
  0
LINE
  5
8a
  100
AcDbEntity
  8
1
  100
AcDbLine
  10
44.3
  20
0.384869
  30
0
  11
44.4
  21
0.334224
  31
0
  0
LINE
  5
8b
  100
AcDbEntity
  8
1
  100
AcDbLine
  10
44.4
  20
0.334224
  30
0
  11
44.5
  21
0.2816
  31
0
  0
LINE
  5
8c
  100
AcDbEntity
  8
1
  100
AcDbLine
  10
44.5
  20
0.2816
  30
0
  11
44.6
  21
0.227308
  31
0
  0
LINE
  5
8d
  100
AcDbEntity
  8
1
  100
AcDbLine
  10
44.6
  20
0.227308
  30
0
  11
44.7
  21
0.17167
  31
0
  0
LINE
  5
8e
  100
AcDbEntity
  8
1
  100
AcDbLine
  10
44.7
  20
0.17167
  30
0
  11
44.8
  21
0.115014
  31
0
  0
LINE
  5
8f
  100
AcDbEntity
  8
1
  100
AcDbLine
  10
44.8
  20
0.115014
  30
0
  11
44.9
  21
0.057678
  31
0
  0
LINE
  5
90
  100
AcDbEntity
  8
1
  100
AcDbLine
  10
44.9
  20
0.057678
  30
0
  11
45
  21
0
  31
0
  0
LINE
  5
91
  100
AcDbEntity
  8
1
  100
AcDbLine
  10
45
  20
0
  30
0
  11
45
  21
0.75
  31
0
  0
LINE
  5
92
  100
AcDbEntity
  8
1
  100
AcDbLine
  10
45
  20
0.75
  30
0
  11
42.7
  21
0.75
  31
0
  0
LINE
  5
93
  100
AcDbEntity
  8
1
  100
AcDbLine
  10
42.7
  20
0.75
  30
0
  11
42.7
  21
0.725
  31
0
  0
LINE
  5
94
  100
AcDbEntity
  8
1
  100
AcDbLine
  10
42.7
  20
0.725
  30
0
  11
33.19
  21
0.725
  31
0
  0
ARC
  5
95
  100
AcDbEntity
  8
1
  100
AcDbCircle
  10
33.19
  20
3.725
  30
0
  40
3
  100
AcDbArc
  50
255
  51
270
  0
LINE
  5
96
  100
AcDbEntity
  8
1
  100
AcDbLine
  10
32.413543
  20
0.827223
  30
0
  11
28.036678
  21
2
  31
0
  0
LINE
  5
97
  100
AcDbEntity
  8
1
  100
AcDbLine
  10
28.036678
  20
2
  30
0
  11
28
  21
2
  31
0
  0
LINE
  5
98
  100
AcDbEntity
  8
1
  100
AcDbLine
  10
28
  20
2
  30
0
  11
28
  21
-2
  31
0
  0
LINE
  5
99
  100
AcDbEntity
  8
1
  100
AcDbLine
  10
28
  20
-2
  30
0
  11
28.036678
  21
-2
  31
0
  0
LINE
  5
9a
  100
AcDbEntity
  8
1
  100
AcDbLine
  10
28.036678
  20
-2
  30
0
  11
32.413543
  21
-0.827223
  31
0
  0
LINE
  5
9b
  100
AcDbEntity
  8
1
  100
AcDbLine
  10
32.413543
  20
-0.827223
  30
0
  11
32.413543
  21
0.827223
  31
0
  0
LINE
  5
9c
  100
AcDbEntity
  8
1
  100
AcDbLine
  10
33.19
  20
0.725
  30
0
  11
33.19
  21
-0.725
  31
0
  0
ARC
  5
9d
  100
AcDbEntity
  8
1
  100
AcDbCircle
  10
33.19
  20
-3.725
  30
0
  40
3
  100
AcDbArc
  50
90
  51
105
  0
LINE
  5
9e
  100
AcDbEntity
  8
1
  100
AcDbLine
  10
33.19
  20
-0.725
  30
0
  11
42.7
  21
-0.725
  31
0
  0
LINE
  5
9f
  100
AcDbEntity
  8
1
  100
AcDbLine
  10
42.7
  20
-0.725
  30
0
  11
42.7
  21
-0.75
  31
0
  0
LINE
  5
a0
  100
AcDbEntity
  8
1
  100
AcDbLine
  10
42.7
  20
-0.75
  30
0
  11
45
  21
-0.75
  31
0
  0
LINE
  5
a1
  100
AcDbEntity
  8
1
  100
AcDbLine
  10
45
  20
-0.75
  30
0
  11
45
  21
0.75
  31
0
  0
LINE
  5
a2
  100
AcDbEntity
  8
1
  100
AcDbLine
  10
45
  20
0.231763
  30
0
  11
44.9
  21
0.285931
  31
0
  0
LINE
  5
a3
  100
AcDbEntity
  8
1
  100
AcDbLine
  10
44.9
  20
0.285931
  30
0
  11
44.8
  21
0.338407
  31
0
  0
LINE
  5
a4
  100
AcDbEntity
  8
1
  100
AcDbLine
  10
44.8
  20
0.338407
  30
0
  11
44.7
  21
0.388877
  31
0
  0
LINE
  5
a5
  100
AcDbEntity
  8
1
  100
AcDbLine
  10
44.7
  20
0.388877
  30
0
  11
44.6
  21
0.437045
  31
0
  0
LINE
  5
a6
  100
AcDbEntity
  8
1
  100
AcDbLine
  10
44.6
  20
0.437045
  30
0
  11
44.5
  21
0.482624
  31
0
  0
LINE
  5
a7
  100
AcDbEntity
  8
1
  100
AcDbLine
  10
44.5
  20
0.482624
  30
0
  11
44.4
  21
0.525344
  31
0
  0
LINE
  5
a8
  100
AcDbEntity
  8
1
  100
AcDbLine
  10
44.4
  20
0.525344
  30
0
  11
44.3
  21
0.564952
  31
0
  0
LINE
  5
a9
  100
AcDbEntity
  8
1
  100
AcDbLine
  10
44.3
  20
0.564952
  30
0
  11
44.2
  21
0.601215
  31
0
  0
LINE
  5
aa
  100
AcDbEntity
  8
1
  100
AcDbLine
  10
44.2
  20
0.601215
  30
0
  11
44.1
  21
0.633916
  31
0
  0
LINE
  5
ab
  100
AcDbEntity
  8
1
  100
AcDbLine
  10
44.1
  20
0.633916
  30
0
  11
44
  21
0.662863
  31
0
  0
LINE
  5
ac
  100
AcDbEntity
  8
1
  100
AcDbLine
  10
44
  20
0.662863
  30
0
  11
43.9
  21
0.687883
  31
0
  0
LINE
  5
ad
  100
AcDbEntity
  8
1
  100
AcDbLine
  10
43.9
  20
0.687883
  30
0
  11
43.8
  21
0.70883
  31
0
  0
LINE
  5
ae
  100
AcDbEntity
  8
1
  100
AcDbLine
  10
43.8
  20
0.70883
  30
0
  11
43.7
  21
0.725578
  31
0
  0
LINE
  5
af
  100
AcDbEntity
  8
1
  100
AcDbLine
  10
43.7
  20
0.725578
  30
0
  11
43.6
  21
0.738028
  31
0
  0
LINE
  5
b0
  100
AcDbEntity
  8
1
  100
AcDbLine
  10
43.6
  20
0.738028
  30
0
  11
43.5
  21
0.746107
  31
0
  0
LINE
  5
b1
  100
AcDbEntity
  8
1
  100
AcDbLine
  10
43.5
  20
0.746107
  30
0
  11
43.4
  21
0.749766
  31
0
  0
LINE
  5
b2
  100
AcDbEntity
  8
1
  100
AcDbLine
  10
43.4
  20
0.749766
  30
0
  11
43.367573
  21
0.75
  31
0
  0
LINE
  5
b3
  100
AcDbEntity
  8
1
  100
AcDbLine
  10
42.8
  20
0.163552
  30
0
  11
42.9
  21
0.107513
  31
0
  0
LINE
  5
b4
  100
AcDbEntity
  8
1
  100
AcDbLine
  10
42.9
  20
0.107513
  30
0
  11
43
  21
0.050838
  31
0
  0
LINE
  5
b5
  100
AcDbEntity
  8
1
  100
AcDbLine
  10
43
  20
0.050838
  30
0
  11
43.1
  21
-0.006139
  31
0
  0
LINE
  5
b6
  100
AcDbEntity
  8
1
  100
AcDbLine
  10
43.1
  20
-0.006139
  30
0
  11
43.2
  21
-0.063079
  31
0
  0
LINE
  5
b7
  100
AcDbEntity
  8
1
  100
AcDbLine
  10
43.2
  20
-0.063079
  30
0
  11
43.3
  21
-0.119646
  31
0
  0
LINE
  5
b8
  100
AcDbEntity
  8
1
  100
AcDbLine
  10
43.3
  20
-0.119646
  30
0
  11
43.4
  21
-0.175503
  31
0
  0
LINE
  5
b9
  100
AcDbEntity
  8
1
  100
AcDbLine
  10
43.4
  20
-0.175503
  30
0
  11
43.5
  21
-0.230322
  31
0
  0
LINE
  5
ba
  100
AcDbEntity
  8
1
  100
AcDbLine
  10
43.5
  20
-0.230322
  30
0
  11
43.6
  21
-0.283776
  31
0
  0
LINE
  5
bb
  100
AcDbEntity
  8
1
  100
AcDbLine
  10
43.6
  20
-0.283776
  30
0
  11
43.7
  21
-0.33555
  31
0
  0
LINE
  5
bc
  100
AcDbEntity
  8
1
  100
AcDbLine
  10
43.7
  20
-0.33555
  30
0
  11
43.8
  21
-0.385336
  31
0
  0
LINE
  5
bd
  100
AcDbEntity
  8
1
  100
AcDbLine
  10
43.8
  20
-0.385336
  30
0
  11
43.9
  21
-0.432839
  31
0
  0
LINE
  5
be
  100
AcDbEntity
  8
1
  100
AcDbLine
  10
43.9
  20
-0.432839
  30
0
  11
44
  21
-0.477779
  31
0
  0
LINE
  5
bf
  100
AcDbEntity
  8
1
  100
AcDbLine
  10
44
  20
-0.477779
  30
0
  11
44.1
  21
-0.519889
  31
0
  0
LINE
  5
c0
  100
AcDbEntity
  8
1
  100
AcDbLine
  10
44.1
  20
-0.519889
  30
0
  11
44.2
  21
-0.55892
  31
0
  0
LINE
  5
c1
  100
AcDbEntity
  8
1
  100
AcDbLine
  10
44.2
  20
-0.55892
  30
0
  11
44.3
  21
-0.59464
  31
0
  0
LINE
  5
c2
  100
AcDbEntity
  8
1
  100
AcDbLine
  10
44.3
  20
-0.59464
  30
0
  11
44.4
  21
-0.626839
  31
0
  0
LINE
  5
c3
  100
AcDbEntity
  8
1
  100
AcDbLine
  10
44.4
  20
-0.626839
  30
0
  11
44.5
  21
-0.655324
  31
0
  0
LINE
  5
c4
  100
AcDbEntity
  8
1
  100
AcDbLine
  10
44.5
  20
-0.655324
  30
0
  11
44.6
  21
-0.679928
  31
0
  0
LINE
  5
c5
  100
AcDbEntity
  8
1
  100
AcDbLine
  10
44.6
  20
-0.679928
  30
0
  11
44.7
  21
-0.700505
  31
0
  0
LINE
  5
c6
  100
AcDbEntity
  8
1
  100
AcDbLine
  10
44.7
  20
-0.700505
  30
0
  11
44.8
  21
-0.716932
  31
0
  0
LINE
  5
c7
  100
AcDbEntity
  8
1
  100
AcDbLine
  10
44.8
  20
-0.716932
  30
0
  11
44.9
  21
-0.729114
  31
0
  0
LINE
  5
c8
  100
AcDbEntity
  8
1
  100
AcDbLine
  10
44.9
  20
-0.729114
  30
0
  11
45
  21
-0.736976
  31
0
  0
LINE
  5
c9
  100
AcDbEntity
  8
1
  100
AcDbLine
  10
45
  20
-0.713292
  30
0
  11
44.9
  21
-0.693356
  31
0
  0
LINE
  5
ca
  100
AcDbEntity
  8
1
  100
AcDbLine
  10
44.9
  20
-0.693356
  30
0
  11
44.8
  21
-0.669314
  31
0
  0
LINE
  5
cb
  100
AcDbEntity
  8
1
  100
AcDbLine
  10
44.8
  20
-0.669314
  30
0
  11
44.7
  21
-0.641307
  31
0
  0
LINE
  5
cc
  100
AcDbEntity
  8
1
  100
AcDbLine
  10
44.7
  20
-0.641307
  30
0
  11
44.6
  21
-0.609501
  31
0
  0
LINE
  5
cd
  100
AcDbEntity
  8
1
  100
AcDbLine
  10
44.6
  20
-0.609501
  30
0
  11
44.5
  21
-0.574086
  31
0
  0
LINE
  5
ce
  100
AcDbEntity
  8
1
  100
AcDbLine
  10
44.5
  20
-0.574086
  30
0
  11
44.4
  21
-0.53527
  31
0
  0
LINE
  5
cf
  100
AcDbEntity
  8
1
  100
AcDbLine
  10
44.4
  20
-0.53527
  30
0
  11
44.3
  21
-0.493284
  31
0
  0
LINE
  5
d0
  100
AcDbEntity
  8
1
  100
AcDbLine
  10
44.3
  20
-0.493284
  30
0
  11
44.2
  21
-0.448376
  31
0
  0
LINE
  5
d1
  100
AcDbEntity
  8
1
  100
AcDbLine
  10
44.2
  20
-0.448376
  30
0
  11
44.1
  21
-0.400812
  31
0
  0
LINE
  5
d2
  100
AcDbEntity
  8
1
  100
AcDbLine
  10
44.1
  20
-0.400812
  30
0
  11
44
  21
-0.350874
  31
0
  0
LINE
  5
d3
  100
AcDbEntity
  8
1
  100
AcDbLine
  10
44
  20
-0.350874
  30
0
  11
43.9
  21
-0.298858
  31
0
  0
LINE
  5
d4
  100
AcDbEntity
  8
1
  100
AcDbLine
  10
43.9
  20
-0.298858
  30
0
  11
43.8
  21
-0.245072
  31
0
  0
LINE
  5
d5
  100
AcDbEntity
  8
1
  100
AcDbLine
  10
43.8
  20
-0.245072
  30
0
  11
43.7
  21
-0.189835
  31
0
  0
LINE
  5
d6
  100
AcDbEntity
  8
1
  100
AcDbLine
  10
43.7
  20
-0.189835
  30
0
  11
43.6
  21
-0.133473
  31
0
  0
LINE
  5
d7
  100
AcDbEntity
  8
1
  100
AcDbLine
  10
43.6
  20
-0.133473
  30
0
  11
43.5
  21
-0.07632
  31
0
  0
LINE
  5
d8
  100
AcDbEntity
  8
1
  100
AcDbLine
  10
43.5
  20
-0.07632
  30
0
  11
43.4
  21
-0.018715
  31
0
  0
LINE
  5
d9
  100
AcDbEntity
  8
1
  100
AcDbLine
  10
43.4
  20
-0.018715
  30
0
  11
43.3
  21
0.039
  31
0
  0
LINE
  5
da
  100
AcDbEntity
  8
1
  100
AcDbLine
  10
43.3
  20
0.039
  30
0
  11
43.2
  21
0.096485
  31
0
  0
LINE
  5
db
  100
AcDbEntity
  8
1
  100
AcDbLine
  10
43.2
  20
0.096485
  30
0
  11
43.1
  21
0.153398
  31
0
  0
LINE
  5
dc
  100
AcDbEntity
  8
1
  100
AcDbLine
  10
43.1
  20
0.153398
  30
0
  11
43
  21
0.209402
  31
0
  0
LINE
  5
dd
  100
AcDbEntity
  8
1
  100
AcDbLine
  10
43
  20
0.209402
  30
0
  11
42.9
  21
0.264166
  31
0
  0
LINE
  5
de
  100
AcDbEntity
  8
1
  100
AcDbLine
  10
42.9
  20
0.264166
  30
0
  11
42.8
  21
0.317366
  31
0
  0
LINE
  5
df
  100
AcDbEntity
  8
1
  100
AcDbLine
  10
42.8
  20
0.317366
  30
0
  11
42.7
  21
0.368685
  31
0
  0
LINE
  5
e0
  100
AcDbEntity
  8
1
  100
AcDbLine
  10
42.7
  20
0.368685
  30
0
  11
42.7
  21
0.357386
  31
0
  0
LINE
  5
e1
  100
AcDbEntity
  8
1
  100
AcDbLine
  10
42.7
  20
0.357386
  30
0
  11
42.6
  21
0.405628
  31
0
  0
LINE
  5
e2
  100
AcDbEntity
  8
1
  100
AcDbLine
  10
42.6
  20
0.405628
  30
0
  11
42.5
  21
0.49602
  31
0
  0
LINE
  5
e3
  100
AcDbEntity
  8
1
  100
AcDbLine
  10
42.5
  20
0.49602
  30
0
  11
42.5
  21
0.725
  31
0
  0
LINE
  5
e4
  100
AcDbEntity
  8
1
  100
AcDbLine
  10
28.036678
  20
2
  30
0
  11
28.036678
  21
-2
  31
0
  0
LINE
  5
e5
  100
AcDbEntity
  8
1
  100
AcDbLine
  10
28
  20
2
  30
0
  11
28
  21
-2
  31
0
  0
LINE
  5
e6
  100
AcDbEntity
  8
1
  100
AcDbLine
  10
28
  20
-2
  30
0
  11
28
  21
2
  31
0
  0
LINE
  5
e7
  100
AcDbEntity
  8
SK1
  100
AcDbLine
  10
28
  20
2
  30
0
  11
0.7
  21
2
  31
0
  0
LINE
  5
e8
  100
AcDbEntity
  8
SK1
  100
AcDbLine
  10
0.7
  20
2
  30
0
  11
0
  21
1.3
  31
0
  0
LINE
  5
e9
  100
AcDbEntity
  8
SK1
  100
AcDbLine
  10
28
  20
-2
  30
0
  11
0.7
  21
-2
  31
0
  0
LINE
  5
ea
  100
AcDbEntity
  8
SK1
  100
AcDbLine
  10
0.7
  20
-2
  30
0
  11
0
  21
-1.3
  31
0
  0
LINE
  5
eb
  100
AcDbEntity
  8
SK1
  100
AcDbLine
  10
0.7
  20
2
  30
0
  11
0.7
  21
-2
  31
0
  0
LINE
  5
ec
  100
AcDbEntity
  8
SK1
  100
AcDbLine
  10
0
  20
1.3
  30
0
  11
0
  21
-1.3
  31
0
  0
LINE
  5
ed
  100
AcDbEntity
  8
SK1
  100
AcDbLine
  10
29.0401
  20
1.40688
  30
0
  11
29.4069
  21
1.0401
  31
0
  0
LINE
  5
ee
  100
AcDbEntity
  8
SK1
  100
AcDbLine
  10
28.5328
  20
1.66666
  30
0
  11
29.6667
  21
0.532833
  31
0
  0
LINE
  5
ef
  100
AcDbEntity
  8
SK1
  100
AcDbLine
  10
28.2154
  20
1.73657
  30
0
  11
29.7366
  21
0.215434
  31
0
  0
LINE
  5
f0
  100
AcDbEntity
  8
SK1
  100
AcDbLine
  10
28
  20
1.70452
  30
0
  11
29.7045
  21
0
  31
0
  0
LINE
  5
f1
  100
AcDbEntity
  8
SK1
  100
AcDbLine
  10
28
  20
1.45703
  30
0
  11
29.457
  21
0
  31
0
  0
LINE
  5
f2
  100
AcDbEntity
  8
SK1
  100
AcDbLine
  10
28
  20
1.20954
  30
0
  11
29.2095
  21
0
  31
0
  0
LINE
  5
f3
  100
AcDbEntity
  8
SK1
  100
AcDbLine
  10
28
  20
0.962054
  30
0
  11
28.9621
  21
0
  31
0
  0
LINE
  5
f4
  100
AcDbEntity
  8
SK1
  100
AcDbLine
  10
28
  20
0.714566
  30
0
  11
28.7146
  21
0
  31
0
  0
LINE
  5
f5
  100
AcDbEntity
  8
SK1
  100
AcDbLine
  10
28
  20
0.467079
  30
0
  11
28.4671
  21
0
  31
0
  0
LINE
  5
f6
  100
AcDbEntity
  8
SK1
  100
AcDbLine
  10
28
  20
0.219592
  30
0
  11
28.2196
  21
0
  31
0
  0
LINE
  5
f7
  100
AcDbEntity
  8
SK1
  100
AcDbLine
  10
28
  20
1.70452
  30
0
  11
28.0441
  21
1.74861
  31
0
  0
LINE
  5
f8
  100
AcDbEntity
  8
SK1
  100
AcDbLine
  10
28
  20
1.45703
  30
0
  11
28.271
  21
1.72802
  31
0
  0
LINE
  5
f9
  100
AcDbEntity
  8
SK1
  100
AcDbLine
  10
28
  20
1.20954
  30
0
  11
28.4742
  21
1.6837
  31
0
  0
LINE
  5
fa
  100
AcDbEntity
  8
SK1
  100
AcDbLine
  10
28
  20
0.962054
  30
0
  11
28.6588
  21
1.62082
  31
0
  0
LINE
  5
fb
  100
AcDbEntity
  8
SK1
  100
AcDbLine
  10
28
  20
0.714566
  30
0
  11
28.8271
  21
1.54167
  31
0
  0
LINE
  5
fc
  100
AcDbEntity
  8
SK1
  100
AcDbLine
  10
28
  20
0.467079
  30
0
  11
28.981
  21
1.44812
  31
0
  0
LINE
  5
fd
  100
AcDbEntity
  8
SK1
  100
AcDbLine
  10
28
  20
0.219592
  30
0
  11
29.1226
  21
1.34216
  31
0
  0
LINE
  5
fe
  100
AcDbEntity
  8
SK1
  100
AcDbLine
  10
28.0279
  20
0
  30
0
  11
29.2508
  21
1.22288
  31
0
  0
LINE
  5
ff
  100
AcDbEntity
  8
SK1
  100
AcDbLine
  10
28.2754
  20
0
  30
0
  11
29.367
  21
1.09157
  31
0
  0
LINE
  5
100
  100
AcDbEntity
  8
SK1
  100
AcDbLine
  10
28.5229
  20
0
  30
0
  11
29.4707
  21
0.947822
  31
0
  0
LINE
  5
101
  100
AcDbEntity
  8
SK1
  100
AcDbLine
  10
28.7704
  20
0
  30
0
  11
29.5605
  21
0.790145
  31
0
  0
LINE
  5
102
  100
AcDbEntity
  8
SK1
  100
AcDbLine
  10
29.0178
  20
0
  30
0
  11
29.6364
  21
0.618517
  31
0
  0
LINE
  5
103
  100
AcDbEntity
  8
SK1
  100
AcDbLine
  10
29.2653
  20
0
  30
0
  11
29.696
  21
0.430696
  31
0
  0
LINE
  5
104
  100
AcDbEntity
  8
SK1
  100
AcDbLine
  10
29.5128
  20
0
  30
0
  11
29.7356
  21
0.222827
  31
0
  0
LINE
  5
105
  100
AcDbEntity
  8
SK1
  100
AcDbLine
  10
28
  20
0
  30
0
  11
28
  21
1.75
  31
0
  0
LINE
  5
106
  100
AcDbEntity
  8
SK1
  100
AcDbLine
  10
28
  20
0
  30
0
  11
29.75
  21
0
  31
0
  0
ARC
  5
107
  100
AcDbEntity
  8
SK1
  100
AcDbCircle
  10
28
  20
0
  30
0
  40
1.75
  100
AcDbArc
  50
0
  51
90
  0
ARC
  5
108
  100
AcDbEntity
  8
SK1
  100
AcDbCircle
  10
28
  20
0
  30
0
  40
1.75
  100
AcDbArc
  50
90
  51
180
  0
LINE
  5
109
  100
AcDbEntity
  8
SK1
  100
AcDbLine
  10
27.9721
  20
0
  30
0
  11
28
  21
-0.027896
  31
0
  0
LINE
  5
10a
  100
AcDbEntity
  8
SK1
  100
AcDbLine
  10
27.7246
  20
0
  30
0
  11
28
  21
-0.275383
  31
0
  0
LINE
  5
10b
  100
AcDbEntity
  8
SK1
  100
AcDbLine
  10
27.4771
  20
0
  30
0
  11
28
  21
-0.522871
  31
0
  0
LINE
  5
10c
  100
AcDbEntity
  8
SK1
  100
AcDbLine
  10
27.2296
  20
0
  30
0
  11
28
  21
-0.770358
  31
0
  0
LINE
  5
10d
  100
AcDbEntity
  8
SK1
  100
AcDbLine
  10
26.9822
  20
0
  30
0
  11
28
  21
-1.01785
  31
0
  0
LINE
  5
10e
  100
AcDbEntity
  8
SK1
  100
AcDbLine
  10
26.7347
  20
0
  30
0
  11
28
  21
-1.26533
  31
0
  0
LINE
  5
10f
  100
AcDbEntity
  8
SK1
  100
AcDbLine
  10
26.4872
  20
0
  30
0
  11
28
  21
-1.51282
  31
0
  0
LINE
  5
110
  100
AcDbEntity
  8
SK1
  100
AcDbLine
  10
26.2503
  20
-0.010642
  30
0
  11
27.9894
  21
-1.74967
  31
0
  0
LINE
  5
111
  100
AcDbEntity
  8
SK1
  100
AcDbLine
  10
26.2736
  20
-0.281429
  30
0
  11
27.7186
  21
-1.72637
  31
0
  0
LINE
  5
112
  100
AcDbEntity
  8
SK1
  100
AcDbLine
  10
26.3639
  20
-0.619147
  30
0
  11
27.3809
  21
-1.63613
  31
0
  0
LINE
  5
113
  100
AcDbEntity
  8
SK1
  100
AcDbLine
  10
26.2514
  20
-0.044098
  30
0
  11
26.2955
  21
0
  31
0
  0
LINE
  5
114
  100
AcDbEntity
  8
SK1
  100
AcDbLine
  10
26.272
  20
-0.270991
  30
0
  11
26.543
  21
0
  31
0
  0
LINE
  5
115
  100
AcDbEntity
  8
SK1
  100
AcDbLine
  10
26.3163
  20
-0.474162
  30
0
  11
26.7905
  21
0
  31
0
  0
LINE
  5
116
  100
AcDbEntity
  8
SK1
  100
AcDbLine
  10
26.3792
  20
-0.658762
  30
0
  11
27.0379
  21
0
  31
0
  0
LINE
  5
117
  100
AcDbEntity
  8
SK1
  100
AcDbLine
  10
26.4583
  20
-0.827105
  30
0
  11
27.2854
  21
0
  31
0
  0
LINE
  5
118
  100
AcDbEntity
  8
SK1
  100
AcDbLine
  10
26.5519
  20
-0.981039
  30
0
  11
27.5329
  21
0
  31
0
  0
LINE
  5
119
  100
AcDbEntity
  8
SK1
  100
AcDbLine
  10
26.6578
  20
-1.12257
  30
0
  11
27.7804
  21
0
  31
0
  0
LINE
  5
11a
  100
AcDbEntity
  8
SK1
  100
AcDbLine
  10
26.7771
  20
-1.25077
  30
0
  11
28
  21
-0.027896
  31
0
  0
LINE
  5
11b
  100
AcDbEntity
  8
SK1
  100
AcDbLine
  10
26.9084
  20
-1.36695
  30
0
  11
28
  21
-0.275383
  31
0
  0
LINE
  5
11c
  100
AcDbEntity
  8
SK1
  100
AcDbLine
  10
27.0522
  20
-1.47069
  30
0
  11
28
  21
-0.522871
  31
0
  0
LINE
  5
11d
  100
AcDbEntity
  8
SK1
  100
AcDbLine
  10
27.2099
  20
-1.5605
  30
0
  11
28
  21
-0.770358
  31
0
  0
LINE
  5
11e
  100
AcDbEntity
  8
SK1
  100
AcDbLine
  10
27.3815
  20
-1.63636
  30
0
  11
28
  21
-1.01785
  31
0
  0
LINE
  5
11f
  100
AcDbEntity
  8
SK1
  100
AcDbLine
  10
27.5693
  20
-1.69603
  30
0
  11
28
  21
-1.26533
  31
0
  0
LINE
  5
120
  100
AcDbEntity
  8
SK1
  100
AcDbLine
  10
27.7772
  20
-1.73565
  30
0
  11
28
  21
-1.51282
  31
0
  0
LINE
  5
121
  100
AcDbEntity
  8
SK1
  100
AcDbLine
  10
28
  20
0
  30
0
  11
26.25
  21
0
  31
0
  0
LINE
  5
122
  100
AcDbEntity
  8
SK1
  100
AcDbLine
  10
28
  20
-1.75
  30
0
  11
28
  21
0
  31
0
  0
ARC
  5
123
  100
AcDbEntity
  8
SK1
  100
AcDbCircle
  10
28
  20
0
  30
0
  40
1.75
  100
AcDbArc
  50
180
  51
270
  0
ARC
  5
124
  100
AcDbEntity
  8
SK1
  100
AcDbCircle
  10
28
  20
0
  30
0
  40
1.75
  100
AcDbArc
  50
270
  51
0
  0
LINE
  5
195
  100
AcDbEntity
  8
NOCUT
  100
AcDbLine
  10
42.7
  20
0
  30
0
  11
42.7
  21
0.725
  31
0
  0
LINE
  5
196
  100
AcDbEntity
  8
NOCUT
  100
AcDbLine
  10
42.7
  20
0.725
  30
0
  11
33.19
  21
0.725
  31
0
  0
ARC
  5
197
  100
AcDbEntity
  8
NOCUT
  100
AcDbCircle
  10
33.19
  20
3.725
  30
0
  40
3
  100
AcDbArc
  50
255
  51
270
  0
LINE
  5
198
  100
AcDbEntity
  8
NOCUT
  100
AcDbLine
  10
32.413543
  20
0.827223
  30
0
  11
28.036678
  21
2
  31
0
  0
LINE
  5
199
  100
AcDbEntity
  8
NOCUT
  100
AcDbLine
  10
28.036678
  20
2
  30
0
  11
28
  21
2
  31
0
  0
LINE
  5
19a
  100
AcDbEntity
  8
NOCUT
  100
AcDbLine
  10
28
  20
2
  30
0
  11
28
  21
0
  31
0
  0
LINE
  5
19b
  100
AcDbEntity
  8
NOCUT
  100
AcDbLine
  10
28
  20
0
  30
0
  11
42.7
  21
0
  31
0
  0
LINE
  5
19c
  100
AcDbEntity
  8
CUT
  100
AcDbLine
  10
45
  20
0
  30
0
  11
45
  21
0.75
  31
0
  0
LINE
  5
19d
  100
AcDbEntity
  8
CUT
  100
AcDbLine
  10
45
  20
0.75
  30
0
  11
42.7
  21
0.75
  31
0
  0
LINE
  5
19e
  100
AcDbEntity
  8
CUT
  100
AcDbLine
  10
42.7
  20
0.75
  30
0
  11
42.7
  21
0
  31
0
  0
LINE
  5
19f
  100
AcDbEntity
  8
CUT
  100
AcDbLine
  10
42.7
  20
0
  30
0
  11
45
  21
0
  31
0
  0
LINE
  5
1a0
  100
AcDbEntity
  8
4
  100
AcDbLine
  10
28
  20
0
  30
0
  11
45
  21
0
  31
0
  0
LINE
  5
1a1
  100
AcDbEntity
  8
SK4
  100
AcDbLine
  10
-1
  20
0
  30
0
  11
46
  21
0
  31
0
  0
LINE
  5
1a2
  100
AcDbEntity
  8
INFTOTAL
  100
AcDbLine
  10
-15.45
  20
17.45
  30
0
  11
60.45
  21
17.45
  31
0
  0
LINE
  5
1a3
  100
AcDbEntity
  8
INFTOTAL
  100
AcDbLine
  10
60.45
  20
17.45
  30
0
  11
60.45
  21
-13.741202
  31
0
  0
LINE
  5
1a4
  100
AcDbEntity
  8
INFTOTAL
  100
AcDbLine
  10
60.45
  20
-13.741202
  30
0
  11
-15.45
  21
-13.741202
  31
0
  0
LINE
  5
1a5
  100
AcDbEntity
  8
INFTOTAL
  100
AcDbLine
  10
-15.45
  20
-13.741202
  30
0
  11
-15.45
  21
17.45
  31
0
  0
ENDSEC
  0
SECTION
  2
OBJECTS
  0
DICTIONARY
  5
1a6
  330
0
100
AcDbDictionary
281
    1
  3
ACAD_GROUP
  350
1a7
  0
DICTIONARY
  5
1a7
102
{ACAD_REACTORS
  330
1a6
102
}
  330
1a6
100
AcDbDictionary
281
    1
  0
ENDSEC
  0
EOF
