  0
SECTION
  2
HEADER
  9
$ACADVER
  1
AC1015
  9
$DWGCODEPAGE
  3
ANSI_932
  9
$HANDSEED
  5
106AB90
  0
ENDSEC
  0
SECTION
  2
CLASSES
  0
CLASS
  1
IMAGEDEF
  2
AcDbRasterImageDef
  3
ISM
  90
0
  91
4
  280
0
  281
0
  0
CLASS
  1
IMAGE
  2
AcDbRasterImage
  3
ISM
  90
127
  91
5
  280
0
  281
1
  0
CLASS
  1
IMAGEDEF_REACTOR
  2
AcDbRasterImageDefReactor
  3
ISM
  90
1
  91
4
  280
0
  281
0
  0
ENDSEC
  0
SECTION
  2
TABLES
  0
TABLE
  2
VPORT
  5
2
  330
0
  100
AcDbSymbolTable
  70
    0
  0
ENDTAB
  0
TABLE
  2
LTYPE
  5
3
  330
0
  100
AcDbSymbolTable
  70
    4
  0
LTYPE
  5
4
  330
3
  100
AcDbSymbolTableRecord
  100
AcDbLinetypeTableRecord
  2
ByBlock
  70
    0
  3

  72
65
  73
    0
  40
0
  0
LTYPE
  5
5
  330
3
  100
AcDbSymbolTableRecord
  100
AcDbLinetypeTableRecord
  2
ByLayer
  70
    0
  3

  72
65
  73
    0
  40
0
  0
LTYPE
  5
6
  330
3
  100
AcDbSymbolTableRecord
  100
AcDbLinetypeTableRecord
  2
CONTINUOUS
  70
    0
  3
Solid Line
  72
65
  73
    0
  40
0
  0
LTYPE
  5
7
  330
3
  100
AcDbSymbolTableRecord
  100
AcDbLinetypeTableRecord
  2
DASH
  70
    0
  3
Hidden
  72
65
  73
2
  40
2.5
  49
1.5
  74
0
  49
-1
  74
0
  0
LTYPE
  5
8
  330
3
  100
AcDbSymbolTableRecord
  100
AcDbLinetypeTableRecord
  2
LONGDASHDASH
  70
    0
  3
__ . __
  72
65
  73
    4
  40
7
  49
4
  74
    0
  49
-1
  74
    0
  49
1
  74
    0
  49
-1
  74
    0
  0
ENDTAB
  0
TABLE
  2
LAYER
  5
9
  330
0
  100
AcDbSymbolTable
  70
    40
  0
LAYER
  5
a
  330
9
  100
AcDbSymbolTableRecord
  100
AcDbLayerTableRecord
  2
0
  70
    0
  62
    0
  6
CONTINUOUS
  390
0
  0
LAYER
  5
c
  330
9
  100
AcDbSymbolTableRecord
  100
AcDbLayerTableRecord
  2
1
  70
    0
  62
    4
  6
CONTINUOUS
  370
50
  390
0
  0
LAYER
  5
d
  330
9
  100
AcDbSymbolTableRecord
  100
AcDbLayerTableRecord
  2
2
  70
    0
  62
    7
  6
CONTINUOUS
  370
25
  390
0
  0
LAYER
  5
f
  330
9
  100
AcDbSymbolTableRecord
  100
AcDbLayerTableRecord
  2
4
  70
    0
  62
    2
  6
LONGDASHDASH
  370
25
  390
0
  0
LAYER
  5
13
  330
9
  100
AcDbSymbolTableRecord
  100
AcDbLayerTableRecord
  2
SK1
  70
    0
  62
    4
  6
CONTINUOUS
  370
50
  390
0
  0
LAYER
  5
14
  330
9
  100
AcDbSymbolTableRecord
  100
AcDbLayerTableRecord
  2
SK2
  70
    0
  62
    7
  6
CONTINUOUS
  370
25
  390
0
  0
LAYER
  5
16
  330
9
  100
AcDbSymbolTableRecord
  100
AcDbLayerTableRecord
  2
SK4
  70
    0
  62
    2
  6
LONGDASHDASH
  370
25
  390
0
  0
LAYER
  5
21
  330
9
  100
AcDbSymbolTableRecord
  100
AcDbLayerTableRecord
  2
NOCUT
  70
    0
  62
    7
  6
CONTINUOUS
  370
25
  390
0
  0
LAYER
  5
22
  330
9
  100
AcDbSymbolTableRecord
  100
AcDbLayerTableRecord
  2
CUT
  70
    0
  62
    1
  6
CONTINUOUS
  370
25
  390
0
  0
LAYER
  5
26
  330
9
  100
AcDbSymbolTableRecord
  100
AcDbLayerTableRecord
  2
INFTOTAL
  70
    0
  62
    9
  6
CONTINUOUS
  370
18
  390
0
  0
ENDTAB
  0
TABLE
  2
STYLE
  5
27
  330
0
  100
AcDbSymbolTable
  70
    1
  0
STYLE
  5
28
  330
27
  100
AcDbSymbolTableRecord
  100
AcDbTextStyleTableRecord
  2
Monospac821 BT
  70
    0
  40
    3.5
  41
1
  50
0
  71
0
  42
3
  3

  4

  1001
ACAD
  1000
Monospac821 BT
  1071
256
  0
ENDTAB
  0
TABLE
  2
VIEW
  5
29
  330
0
  100
AcDbSymbolTable
  70
    0
  0
ENDTAB
  0
TABLE
  2
UCS
  5
2a
  330
0
  100
AcDbSymbolTable
  70
    0
  0
ENDTAB
  0
TABLE
  2
APPID
  5
2b
  330
0
  100
AcDbSymbolTable
  70
    1
  0
APPID
  5
2c
  330
2b
  100
AcDbSymbolTableRecord
  100
AcDbRegAppTableRecord
  2
ACAD
  70
    0
  0
ENDTAB
  0
TABLE
  2
DIMSTYLE
  5
2d
  330
0
  100
AcDbSymbolTable
  70
    1
  100
AcDbDimStyleTable
  0
DIMSTYLE
  105
2e
  330
2d
  100
AcDbSymbolTableRecord
  100
AcDbDimStyleTableRecord
  2
STANDARD
  70
    0
  41
    3
  42
0.5
  44
1
  73
0
  77
1
  78
1
  140
3.5
  141
2.5
  143
0.03937
  147
0.8
  172
1
  174
1
  178
0
  179
1
  271
2
  279
1
  284
1
  340
28
  0
ENDTAB
  0
TABLE
  2
BLOCK_RECORD
  5
2f
  330
0
  100
AcDbSymbolTable
  70
    2
  0
BLOCK_RECORD
  5
30
  330
2f
  100
AcDbSymbolTableRecord
  100
AcDbBlockTableRecord
  2
*Model_Space
  0
BLOCK_RECORD
  5
31
  330
2f
  100
AcDbSymbolTableRecord
  100
AcDbBlockTableRecord
  2
*Paper_Space
  0
BLOCK_RECORD
  5
131
  330
2f
  100
AcDbSymbolTableRecord
  100
AcDbBlockTableRecord
  2
*D130
  340
0
  0
BLOCK_RECORD
  5
13f
  330
2f
  100
AcDbSymbolTableRecord
  100
AcDbBlockTableRecord
  2
*D13e
  340
0
  0
BLOCK_RECORD
  5
14d
  330
2f
  100
AcDbSymbolTableRecord
  100
AcDbBlockTableRecord
  2
*D14c
  340
0
  0
BLOCK_RECORD
  5
15b
  330
2f
  100
AcDbSymbolTableRecord
  100
AcDbBlockTableRecord
  2
*D15a
  340
0
  0
BLOCK_RECORD
  5
169
  330
2f
  100
AcDbSymbolTableRecord
  100
AcDbBlockTableRecord
  2
*D168
  340
0
  0
BLOCK_RECORD
  5
177
  330
2f
  100
AcDbSymbolTableRecord
  100
AcDbBlockTableRecord
  2
*D176
  340
0
  0
BLOCK_RECORD
  5
185
  330
2f
  100
AcDbSymbolTableRecord
  100
AcDbBlockTableRecord
  2
*D184
  340
0
  0
BLOCK_RECORD
  5
193
  330
2f
  100
AcDbSymbolTableRecord
  100
AcDbBlockTableRecord
  2
*D192
  340
0
  0
ENDTAB
  0
ENDSEC
  0
SECTION
  2
BLOCKS
  0
BLOCK
  5
32
  330
30
  100
AcDbEntity
  8
0
  100
AcDbBlockBegin
  2
*Model_Space
  70
    0
  10
0
  20
0
  30
0
  3
*Model_Space
  1

  0
ENDBLK
  5
33
  330
30
  100
AcDbEntity
  8
0
  100
AcDbBlockEnd
  0
BLOCK
  5
34
  330
31
  100
AcDbEntity
  8
0
  100
AcDbBlockBegin
  2
*Paper_Space
  70
    0
  10
0
  20
0
  30
0
  3
*Paper_Space
  1

  0
ENDBLK
  5
35
  330
31
  100
AcDbEntity
  8
0
  100
AcDbBlockEnd
  0
BLOCK
  5
12f
  330
131
  100
AcDbEntity
  8
SK2
  100
AcDbBlockBegin
  2
*D130
  70
1
  10
0
  20
0
  30
0
  3
*D130
  1

  0
LINE
  5
132
  330
131
  100
AcDbEntity
  8
SK2
  100
AcDbLine
  10
0
  20
1.3
  30
0
  11
0
  21
14
  31
0
  0
LINE
  5
133
  330
131
  100
AcDbEntity
  8
SK2
  100
AcDbLine
  10
45
  20
0.8
  30
0
  11
45
  21
14
  31
0
  0
LINE
  5
134
  330
131
  100
AcDbEntity
  8
SK2
  100
AcDbLine
  10
0
  20
12
  30
0
  11
45
  21
12
  31
0
  0
SOLID
  5
135
  330
131
  100
AcDbEntity
  8
SK2
  100
AcDbTrace
  10
0
  20
12
  30
0
  11
2.478612
  21
12.326315
  31
0
  12
2.478612
  22
11.673685
  32
0
  13
2.478612
  23
11.673685
  33
0
  0
SOLID
  5
136
  330
131
  100
AcDbEntity
  8
SK2
  100
AcDbTrace
  10
45
  20
12
  30
0
  11
42.521388
  21
11.673685
  31
0
  12
42.521388
  22
12.326315
  32
0
  13
42.521388
  23
12.326315
  33
0
  0
MTEXT
  5
137
  330
131
  100
AcDbEntity
  8
SK2
  100
AcDbMText
  10
37.397052
  20
12
  30
0
  11
1
  21
0
  31
0
  40
2
  41
0
  71
8
  72
1
  1
45
  0
POINT
  5
138
  330
131
  100
AcDbEntity
  8
SK2
  62
0
  100
AcDbPoint
  10
0
  20
1.3
  30
0
  0
POINT
  5
139
  330
131
  100
AcDbEntity
  8
SK2
  62
0
  100
AcDbPoint
  10
45
  20
0.8
  30
0
  0
POINT
  5
13a
  330
131
  100
AcDbEntity
  8
SK2
  62
0
  100
AcDbPoint
  10
45
  20
12
  30
0
  0
ENDBLK
  5
13b
  330
131
  100
AcDbEntity
  8
SK2
  100
AcDbBlockEnd
  0
BLOCK
  5
13d
  330
13f
  100
AcDbEntity
  8
SK2
  100
AcDbBlockBegin
  2
*D13e
  70
1
  10
0
  20
0
  30
0
  3
*D13e
  1

  0
LINE
  5
140
  330
13f
  100
AcDbEntity
  8
SK2
  100
AcDbLine
  10
0
  20
1.3
  30
0
  11
0
  21
8.990662
  31
0
  0
LINE
  5
141
  330
13f
  100
AcDbEntity
  8
SK2
  100
AcDbLine
  10
30.2
  20
2
  30
0
  11
30.2
  21
8.990662
  31
0
  0
LINE
  5
142
  330
13f
  100
AcDbEntity
  8
SK2
  100
AcDbLine
  10
0
  20
6.990662
  30
0
  11
30.2
  21
6.990662
  31
0
  0
SOLID
  5
143
  330
13f
  100
AcDbEntity
  8
SK2
  100
AcDbTrace
  10
0
  20
6.990662
  30
0
  11
2.478612
  21
7.316978
  31
0
  12
2.478612
  22
6.664347
  32
0
  13
2.478612
  23
6.664347
  33
0
  0
SOLID
  5
144
  330
13f
  100
AcDbEntity
  8
SK2
  100
AcDbTrace
  10
30.2
  20
6.990662
  30
0
  11
27.721388
  21
6.664347
  31
0
  12
27.721388
  22
7.316978
  32
0
  13
27.721388
  23
7.316978
  33
0
  0
MTEXT
  5
145
  330
13f
  100
AcDbEntity
  8
SK2
  100
AcDbMText
  10
15.1
  20
6.990662
  30
0
  11
1
  21
0
  31
0
  40
2
  41
0
  71
8
  72
1
  1
30.2
  0
POINT
  5
146
  330
13f
  100
AcDbEntity
  8
SK2
  62
0
  100
AcDbPoint
  10
0
  20
1.3
  30
0
  0
POINT
  5
147
  330
13f
  100
AcDbEntity
  8
SK2
  62
0
  100
AcDbPoint
  10
30.2
  20
2
  30
0
  0
POINT
  5
148
  330
13f
  100
AcDbEntity
  8
SK2
  62
0
  100
AcDbPoint
  10
30.2
  20
6.990662
  30
0
  0
ENDBLK
  5
149
  330
13f
  100
AcDbEntity
  8
SK2
  100
AcDbBlockEnd
  0
BLOCK
  5
14b
  330
14d
  100
AcDbEntity
  8
SK2
  100
AcDbBlockBegin
  2
*D14c
  70
1
  10
0
  20
0
  30
0
  3
*D14c
  1

  0
LINE
  5
14e
  330
14d
  100
AcDbEntity
  8
SK2
  100
AcDbLine
  10
0.7
  20
-2
  30
0
  11
-12
  21
-2
  31
0
  0
LINE
  5
14f
  330
14d
  100
AcDbEntity
  8
SK2
  100
AcDbLine
  10
0.7
  20
2
  30
0
  11
-12
  21
2
  31
0
  0
LINE
  5
150
  330
14d
  100
AcDbEntity
  8
SK2
  100
AcDbLine
  10
-10
  20
-4.158416
  30
0
  11
-10
  21
2
  31
0
  0
SOLID
  5
151
  330
14d
  100
AcDbEntity
  8
SK2
  100
AcDbTrace
  10
-10
  20
-2
  30
0
  11
-10.326315
  21
0.478612
  31
0
  12
-9.673685
  22
0.478612
  32
0
  13
-9.673685
  23
0.478612
  33
0
  0
SOLID
  5
152
  330
14d
  100
AcDbEntity
  8
SK2
  100
AcDbTrace
  10
-10
  20
2
  30
0
  11
-9.673685
  21
-0.478612
  31
0
  12
-10.326315
  22
-0.478612
  32
0
  13
-10.326315
  23
-0.478612
  33
0
  0
MTEXT
  5
153
  330
14d
  100
AcDbEntity
  8
SK2
  100
AcDbMText
  10
-10
  20
0
  30
0
  11
0
  21
1
  31
0
  40
2
  41
0
  71
8
  72
1
  1
ﾘ4
  0
POINT
  5
154
  330
14d
  100
AcDbEntity
  8
SK2
  62
0
  100
AcDbPoint
  10
0.7
  20
-2
  30
0
  0
POINT
  5
155
  330
14d
  100
AcDbEntity
  8
SK2
  62
0
  100
AcDbPoint
  10
0.7
  20
2
  30
0
  0
POINT
  5
156
  330
14d
  100
AcDbEntity
  8
SK2
  62
0
  100
AcDbPoint
  10
-10
  20
2
  30
0
  0
ENDBLK
  5
157
  330
14d
  100
AcDbEntity
  8
SK2
  100
AcDbBlockEnd
  0
BLOCK
  5
159
  330
15b
  100
AcDbEntity
  8
2
  100
AcDbBlockBegin
  2
*D15a
  70
1
  10
0
  20
0
  30
0
  3
*D15a
  1

  0
LINE
  5
15c
  330
15b
  100
AcDbEntity
  8
2
  100
AcDbLine
  10
45
  20
-0.8
  30
0
  11
57
  21
-0.8
  31
0
  0
LINE
  5
15d
  330
15b
  100
AcDbEntity
  8
2
  100
AcDbLine
  10
45
  20
0.8
  30
0
  11
57
  21
0.8
  31
0
  0
LINE
  5
15e
  330
15b
  100
AcDbEntity
  8
2
  100
AcDbLine
  10
55
  20
-6.757426
  30
0
  11
55
  21
0.8
  31
0
  0
SOLID
  5
15f
  330
15b
  100
AcDbEntity
  8
2
  100
AcDbTrace
  10
55
  20
-0.8
  30
0
  11
54.673685
  21
1.678612
  31
0
  12
55.326315
  22
1.678612
  32
0
  13
55.326315
  23
1.678612
  33
0
  0
SOLID
  5
160
  330
15b
  100
AcDbEntity
  8
2
  100
AcDbTrace
  10
55
  20
0.8
  30
0
  11
55.326315
  21
-1.678612
  31
0
  12
54.673685
  22
-1.678612
  32
0
  13
54.673685
  23
-1.678612
  33
0
  0
MTEXT
  5
161
  330
15b
  100
AcDbEntity
  8
2
  100
AcDbMText
  10
55
  20
0
  30
0
  11
0
  21
1
  31
0
  40
2
  41
0
  71
8
  72
1
  1
ﾘ1.6
  0
POINT
  5
162
  330
15b
  100
AcDbEntity
  8
2
  62
0
  100
AcDbPoint
  10
45
  20
-0.8
  30
0
  0
POINT
  5
163
  330
15b
  100
AcDbEntity
  8
2
  62
0
  100
AcDbPoint
  10
45
  20
0.8
  30
0
  0
POINT
  5
164
  330
15b
  100
AcDbEntity
  8
2
  62
0
  100
AcDbPoint
  10
55
  20
0.8
  30
0
  0
ENDBLK
  5
165
  330
15b
  100
AcDbEntity
  8
2
  100
AcDbBlockEnd
  0
BLOCK
  5
167
  330
169
  100
AcDbEntity
  8
2
  100
AcDbBlockBegin
  2
*D168
  70
1
  10
0
  20
0
  30
0
  3
*D168
  1

  0
LINE
  5
16a
  330
169
  100
AcDbEntity
  8
2
  100
AcDbLine
  10
42.6
  20
-0.775
  30
0
  11
40.6
  21
-0.775
  31
0
  0
LINE
  5
16b
  330
169
  100
AcDbEntity
  8
2
  100
AcDbLine
  10
42.6
  20
0.775
  30
0
  11
40.6
  21
0.775
  31
0
  0
LINE
  5
16c
  330
169
  100
AcDbEntity
  8
2
  100
AcDbLine
  10
42.6
  20
-0.775
  30
0
  11
42.6
  21
9.096535
  31
0
  0
SOLID
  5
16d
  330
169
  100
AcDbEntity
  8
2
  100
AcDbTrace
  10
42.6
  20
-0.775
  30
0
  11
42.273685
  21
1.703612
  31
0
  12
42.926315
  22
1.703612
  32
0
  13
42.926315
  23
1.703612
  33
0
  0
SOLID
  5
16e
  330
169
  100
AcDbEntity
  8
2
  100
AcDbTrace
  10
42.6
  20
0.775
  30
0
  11
42.926315
  21
-1.703612
  31
0
  12
42.273685
  22
-1.703612
  32
0
  13
42.273685
  23
-1.703612
  33
0
  0
MTEXT
  5
16f
  330
169
  100
AcDbEntity
  8
2
  100
AcDbMText
  10
42.6
  20
0.775
  30
0
  11
0
  21
1
  31
0
  40
2
  41
0
  71
8
  72
1
  1
ﾘ1.55
  0
POINT
  5
170
  330
169
  100
AcDbEntity
  8
2
  62
0
  100
AcDbPoint
  10
40.6
  20
-0.775
  30
0
  0
POINT
  5
171
  330
169
  100
AcDbEntity
  8
2
  62
0
  100
AcDbPoint
  10
40.6
  20
0.775
  30
0
  0
POINT
  5
172
  330
169
  100
AcDbEntity
  8
2
  62
0
  100
AcDbPoint
  10
42.6
  20
9.096535
  30
0
  0
ENDBLK
  5
173
  330
169
  100
AcDbEntity
  8
2
  100
AcDbBlockEnd
  0
BLOCK
  5
175
  330
177
  100
AcDbEntity
  8
2
  100
AcDbBlockBegin
  2
*D176
  70
1
  10
0
  20
0
  30
0
  3
*D176
  1

  0
LINE
  5
178
  330
177
  100
AcDbEntity
  8
2
  100
AcDbLine
  10
42.6
  20
0.775
  30
0
  11
42.6
  21
9
  31
0
  0
LINE
  5
179
  330
177
  100
AcDbEntity
  8
2
  100
AcDbLine
  10
35.19
  20
0.775
  30
0
  11
35.19
  21
9
  31
0
  0
LINE
  5
17a
  330
177
  100
AcDbEntity
  8
2
  100
AcDbLine
  10
42.6
  20
7
  30
0
  11
35.19
  21
7
  31
0
  0
SOLID
  5
17b
  330
177
  100
AcDbEntity
  8
2
  100
AcDbTrace
  10
42.6
  20
7
  30
0
  11
45.078612
  21
7.326315
  31
0
  12
45.078612
  22
6.673685
  32
0
  13
45.078612
  23
6.673685
  33
0
  0
SOLID
  5
17c
  330
177
  100
AcDbEntity
  8
2
  100
AcDbTrace
  10
35.19
  20
7
  30
0
  11
32.711388
  21
6.673685
  31
0
  12
32.711388
  22
7.326315
  32
0
  13
32.711388
  23
7.326315
  33
0
  0
MTEXT
  5
17d
  330
177
  100
AcDbEntity
  8
2
  100
AcDbMText
  10
38.895
  20
7
  30
0
  11
1
  21
-0
  31
0
  40
2
  41
0
  71
8
  72
1
  1
7.41
  0
POINT
  5
17e
  330
177
  100
AcDbEntity
  8
2
  62
0
  100
AcDbPoint
  10
42.6
  20
0.775
  30
0
  0
POINT
  5
17f
  330
177
  100
AcDbEntity
  8
2
  62
0
  100
AcDbPoint
  10
35.19
  20
0.775
  30
0
  0
POINT
  5
180
  330
177
  100
AcDbEntity
  8
2
  62
0
  100
AcDbPoint
  10
35.19
  20
7
  30
0
  0
ENDBLK
  5
181
  330
177
  100
AcDbEntity
  8
2
  100
AcDbBlockEnd
  0
BLOCK
  5
183
  330
185
  100
AcDbEntity
  8
2
  100
AcDbBlockBegin
  2
*D184
  70
1
  10
0
  20
0
  30
0
  3
*D184
  1

  0
LINE
  5
186
  330
185
  100
AcDbEntity
  8
2
  100
AcDbLine
  10
45
  20
0.8
  30
0
  11
45
  21
14
  31
0
  0
LINE
  5
187
  330
185
  100
AcDbEntity
  8
2
  100
AcDbLine
  10
30.2
  20
2
  30
0
  11
30.2
  21
9
  31
0
  0
LINE
  5
188
  330
185
  100
AcDbEntity
  8
2
  100
AcDbLine
  10
45
  20
7
  30
0
  11
30.2
  21
7
  31
0
  0
SOLID
  5
189
  330
185
  100
AcDbEntity
  8
2
  100
AcDbTrace
  10
45
  20
7
  30
0
  11
47.478612
  21
7.326315
  31
0
  12
47.478612
  22
6.673685
  32
0
  13
47.478612
  23
6.673685
  33
0
  0
SOLID
  5
18a
  330
185
  100
AcDbEntity
  8
2
  100
AcDbTrace
  10
30.2
  20
7
  30
0
  11
27.721388
  21
6.673685
  31
0
  12
27.721388
  22
7.326315
  32
0
  13
27.721388
  23
7.326315
  33
0
  0
MTEXT
  5
18b
  330
185
  100
AcDbEntity
  8
2
  100
AcDbMText
  10
37.6
  20
7
  30
0
  11
1
  21
-0
  31
0
  40
2
  41
0
  71
8
  72
1
  1
14.8
  0
POINT
  5
18c
  330
185
  100
AcDbEntity
  8
2
  62
0
  100
AcDbPoint
  10
45
  20
14
  30
0
  0
POINT
  5
18d
  330
185
  100
AcDbEntity
  8
2
  62
0
  100
AcDbPoint
  10
30.2
  20
2
  30
0
  0
POINT
  5
18e
  330
185
  100
AcDbEntity
  8
2
  62
0
  100
AcDbPoint
  10
30.2
  20
7
  30
0
  0
ENDBLK
  5
18f
  330
185
  100
AcDbEntity
  8
2
  100
AcDbBlockEnd
  0
BLOCK
  5
191
  330
193
  100
AcDbEntity
  8
2
  100
AcDbBlockBegin
  2
*D192
  70
1
  10
0
  20
0
  30
0
  3
*D192
  1

  0
LINE
  5
194
  330
193
  100
AcDbEntity
  8
2
  100
AcDbLine
  10
45
  20
-10.291202
  30
0
  11
45
  21
0
  31
0
  0
LINE
  5
195
  330
193
  100
AcDbEntity
  8
2
  100
AcDbLine
  10
42.6
  20
-10.291202
  30
0
  11
42.6
  21
-0.775
  31
0
  0
LINE
  5
196
  330
193
  100
AcDbEntity
  8
2
  100
AcDbLine
  10
45
  20
-8.291202
  30
0
  11
39.375
  21
-8.291202
  31
0
  0
SOLID
  5
197
  330
193
  100
AcDbEntity
  8
2
  100
AcDbTrace
  10
45
  20
-8.291202
  30
0
  11
47.478612
  21
-7.964887
  31
0
  12
47.478612
  22
-8.617518
  32
0
  13
47.478612
  23
-8.617518
  33
0
  0
SOLID
  5
198
  330
193
  100
AcDbEntity
  8
2
  100
AcDbTrace
  10
42.6
  20
-8.291202
  30
0
  11
40.121388
  21
-8.617518
  31
0
  12
40.121388
  22
-7.964887
  32
0
  13
40.121388
  23
-7.964887
  33
0
  0
MTEXT
  5
199
  330
193
  100
AcDbEntity
  8
2
  100
AcDbMText
  10
43.8
  20
-8.291202
  30
0
  11
1
  21
-0
  31
0
  40
2
  41
0
  71
8
  72
1
  1
2.4
  0
POINT
  5
19a
  330
193
  100
AcDbEntity
  8
2
  62
0
  100
AcDbPoint
  10
45
  20
0
  30
0
  0
POINT
  5
19b
  330
193
  100
AcDbEntity
  8
2
  62
0
  100
AcDbPoint
  10
42.6
  20
-0.775
  30
0
  0
POINT
  5
19c
  330
193
  100
AcDbEntity
  8
2
  62
0
  100
AcDbPoint
  10
39.375
  20
-8.291202
  30
0
  0
ENDBLK
  5
19d
  330
193
  100
AcDbEntity
  8
2
  100
AcDbBlockEnd
  0
ENDSEC
  0
SECTION
  2
ENTITIES
  0
DIMENSION
  5
13c
  100
AcDbEntity
  8
SK2
  100
AcDbDimension
  2
*D130
  10
45
  20
12
  30
0
  11
37.397052
  21
12
  31
0
  70
160
  1
<>
  71
5
  3
STANDARD
  42
45
  100
AcDbAlignedDimension
  13
0
  23
1.3
  33
0
  14
45
  24
0.8
  34
0
  50
0
  100
AcDbRotatedDimension
  0
DIMENSION
  5
14a
  100
AcDbEntity
  8
SK2
  100
AcDbDimension
  2
*D13e
  10
30.2
  20
6.990662
  30
0
  11
15.1
  21
6.990662
  31
0
  70
160
  1
<>
  71
5
  3
STANDARD
  42
30.2
  100
AcDbAlignedDimension
  13
0
  23
1.3
  33
0
  14
30.2
  24
2
  34
0
  50
0
  100
AcDbRotatedDimension
  0
DIMENSION
  5
158
  100
AcDbEntity
  8
SK2
  100
AcDbDimension
  2
*D14c
  10
-10
  20
2
  30
0
  11
-10
  21
0
  31
0
  70
160
  1
%%c<>
  71
5
  3
STANDARD
  42
4
  100
AcDbAlignedDimension
  13
0.7
  23
-2
  33
0
  14
0.7
  24
2
  34
0
  50
-90
  100
AcDbRotatedDimension
  0
DIMENSION
  5
166
  100
AcDbEntity
  8
2
  100
AcDbDimension
  2
*D15a
  10
55
  20
0.8
  30
0
  11
55
  21
0
  31
0
  70
160
  1
%%c<>
  71
5
  3
STANDARD
  42
1.6
  100
AcDbAlignedDimension
  13
45
  23
-0.8
  33
0
  14
45
  24
0.8
  34
0
  50
-90
  100
AcDbRotatedDimension
  0
DIMENSION
  5
174
  100
AcDbEntity
  8
2
  100
AcDbDimension
  2
*D168
  10
42.6
  20
9.096535
  30
0
  11
42.6
  21
0.775
  31
0
  70
160
  1
%%c<>
  71
5
  3
STANDARD
  42
1.55
  100
AcDbAlignedDimension
  13
40.6
  23
-0.775
  33
0
  14
40.6
  24
0.775
  34
0
  50
-90
  100
AcDbRotatedDimension
  0
DIMENSION
  5
182
  100
AcDbEntity
  8
2
  100
AcDbDimension
  2
*D176
  10
35.19
  20
7
  30
0
  11
38.895
  21
7
  31
0
  70
160
  1
<>
  71
5
  3
STANDARD
  42
7.41
  100
AcDbAlignedDimension
  13
42.6
  23
0.775
  33
0
  14
35.19
  24
0.775
  34
0
  50
0
  100
AcDbRotatedDimension
  0
DIMENSION
  5
190
  100
AcDbEntity
  8
2
  100
AcDbDimension
  2
*D184
  10
30.2
  20
7
  30
0
  11
37.6
  21
7
  31
0
  70
160
  1
<>
  71
5
  3
STANDARD
  42
14.8
  100
AcDbAlignedDimension
  13
45
  23
14
  33
0
  14
30.2
  24
2
  34
0
  50
0
  100
AcDbRotatedDimension
  0
DIMENSION
  5
19e
  100
AcDbEntity
  8
2
  100
AcDbDimension
  2
*D192
  10
39.375
  20
-8.291202
  30
0
  11
43.8
  21
-8.291202
  31
0
  70
160
  1
<>
  71
5
  3
STANDARD
  42
2.4
  100
AcDbAlignedDimension
  13
45
  23
0
  33
0
  14
42.6
  24
-0.775
  34
0
  50
0
  100
AcDbRotatedDimension
  0
LINE
  5
36
  100
AcDbEntity
  8
1
  100
AcDbLine
  10
42.326294
  20
-0.775
  30
0
  11
42.4
  21
-0.738917
  31
0
  0
LINE
  5
37
  100
AcDbEntity
  8
1
  100
AcDbLine
  10
42.4
  20
-0.738917
  30
0
  11
42.5
  21
-0.753162
  31
0
  0
LINE
  5
38
  100
AcDbEntity
  8
1
  100
AcDbLine
  10
42.5
  20
-0.753162
  30
0
  11
42.6
  21
-0.764373
  31
0
  0
LINE
  5
39
  100
AcDbEntity
  8
1
  100
AcDbLine
  10
42.6
  20
-0.764373
  30
0
  11
42.6
  21
-0.789621
  31
0
  0
LINE
  5
3a
  100
AcDbEntity
  8
1
  100
AcDbLine
  10
42.6
  20
-0.789621
  30
0
  11
42.7
  21
-0.796828
  31
0
  0
LINE
  5
3b
  100
AcDbEntity
  8
1
  100
AcDbLine
  10
42.7
  20
-0.796828
  30
0
  11
42.8
  21
-0.799886
  31
0
  0
LINE
  5
3c
  100
AcDbEntity
  8
1
  100
AcDbLine
  10
42.8
  20
-0.799886
  30
0
  11
42.823449
  21
-0.8
  31
0
  0
LINE
  5
3d
  100
AcDbEntity
  8
1
  100
AcDbLine
  10
42.6
  20
-0.8
  30
0
  11
42.6
  21
0.8
  31
0
  0
LINE
  5
3e
  100
AcDbEntity
  8
1
  100
AcDbLine
  10
42.6
  20
0.775
  30
0
  11
42.6
  21
-0.775
  31
0
  0
LINE
  5
3f
  100
AcDbEntity
  8
1
  100
AcDbLine
  10
42.7
  20
-0.775982
  30
0
  11
42.8
  21
-0.784663
  31
0
  0
LINE
  5
40
  100
AcDbEntity
  8
1
  100
AcDbLine
  10
42.8
  20
-0.784663
  30
0
  11
42.9
  21
-0.789259
  31
0
  0
LINE
  5
41
  100
AcDbEntity
  8
1
  100
AcDbLine
  10
42.9
  20
-0.789259
  30
0
  11
42.961844
  21
-0.8
  31
0
  0
LINE
  5
42
  100
AcDbEntity
  8
1
  100
AcDbLine
  10
43.258749
  20
-0.8
  30
0
  11
43.2
  21
-0.799281
  31
0
  0
LINE
  5
43
  100
AcDbEntity
  8
1
  100
AcDbLine
  10
43.2
  20
-0.799281
  30
0
  11
43.1
  21
-0.794755
  31
0
  0
LINE
  5
44
  100
AcDbEntity
  8
1
  100
AcDbLine
  10
43.1
  20
-0.794755
  30
0
  11
43
  21
-0.786092
  31
0
  0
LINE
  5
45
  100
AcDbEntity
  8
1
  100
AcDbLine
  10
43
  20
-0.786092
  30
0
  11
42.9
  21
-0.773336
  31
0
  0
LINE
  5
46
  100
AcDbEntity
  8
1
  100
AcDbLine
  10
42.9
  20
-0.773336
  30
0
  11
42.8
  21
-0.756554
  31
0
  0
LINE
  5
47
  100
AcDbEntity
  8
1
  100
AcDbLine
  10
42.8
  20
-0.756554
  30
0
  11
42.7
  21
-0.735834
  31
0
  0
LINE
  5
48
  100
AcDbEntity
  8
1
  100
AcDbLine
  10
42.7
  20
-0.735834
  30
0
  11
42.6
  21
-0.711283
  31
0
  0
LINE
  5
49
  100
AcDbEntity
  8
1
  100
AcDbLine
  10
42.6
  20
-0.711283
  30
0
  11
42.6
  21
-0.688534
  31
0
  0
LINE
  5
4a
  100
AcDbEntity
  8
1
  100
AcDbLine
  10
42.6
  20
-0.688534
  30
0
  11
42.5
  21
-0.660679
  31
0
  0
LINE
  5
4b
  100
AcDbEntity
  8
1
  100
AcDbLine
  10
42.5
  20
-0.660679
  30
0
  11
42.4
  21
-0.599532
  31
0
  0
LINE
  5
4c
  100
AcDbEntity
  8
1
  100
AcDbLine
  10
42.4
  20
-0.599532
  30
0
  11
42.3
  21
-0.105069
  31
0
  0
LINE
  5
4d
  100
AcDbEntity
  8
1
  100
AcDbLine
  10
42.3
  20
-0.105069
  30
0
  11
42.3
  21
-0.083378
  31
0
  0
LINE
  5
4e
  100
AcDbEntity
  8
1
  100
AcDbLine
  10
42.3
  20
-0.083378
  30
0
  11
42.4
  21
0.233725
  31
0
  0
LINE
  5
4f
  100
AcDbEntity
  8
1
  100
AcDbLine
  10
42.4
  20
0.233725
  30
0
  11
42.5
  21
0.182681
  31
0
  0
LINE
  5
50
  100
AcDbEntity
  8
1
  100
AcDbLine
  10
42.5
  20
0.182681
  30
0
  11
42.6
  21
0.127899
  31
0
  0
LINE
  5
51
  100
AcDbEntity
  8
1
  100
AcDbLine
  10
42.6
  20
0.127899
  30
0
  11
42.6
  21
0.128445
  31
0
  0
LINE
  5
52
  100
AcDbEntity
  8
1
  100
AcDbLine
  10
42.6
  20
0.128445
  30
0
  11
42.7
  21
0.071174
  31
0
  0
LINE
  5
53
  100
AcDbEntity
  8
1
  100
AcDbLine
  10
42.7
  20
0.071174
  30
0
  11
42.8
  21
0.013533
  31
0
  0
LINE
  5
54
  100
AcDbEntity
  8
1
  100
AcDbLine
  10
42.8
  20
0.013533
  30
0
  11
42.9
  21
-0.044179
  31
0
  0
LINE
  5
55
  100
AcDbEntity
  8
1
  100
AcDbLine
  10
42.9
  20
-0.044179
  30
0
  11
43
  21
-0.101661
  31
0
  0
LINE
  5
56
  100
AcDbEntity
  8
1
  100
AcDbLine
  10
43
  20
-0.101661
  30
0
  11
43.1
  21
-0.158614
  31
0
  0
LINE
  5
57
  100
AcDbEntity
  8
1
  100
AcDbLine
  10
43.1
  20
-0.158614
  30
0
  11
43.2
  21
-0.21474
  31
0
  0
LINE
  5
58
  100
AcDbEntity
  8
1
  100
AcDbLine
  10
43.2
  20
-0.21474
  30
0
  11
43.3
  21
-0.269749
  31
0
  0
LINE
  5
59
  100
AcDbEntity
  8
1
  100
AcDbLine
  10
43.3
  20
-0.269749
  30
0
  11
43.4
  21
-0.323354
  31
0
  0
LINE
  5
5a
  100
AcDbEntity
  8
1
  100
AcDbLine
  10
43.4
  20
-0.323354
  30
0
  11
43.5
  21
-0.375275
  31
0
  0
LINE
  5
5b
  100
AcDbEntity
  8
1
  100
AcDbLine
  10
43.5
  20
-0.375275
  30
0
  11
43.6
  21
-0.425243
  31
0
  0
LINE
  5
5c
  100
AcDbEntity
  8
1
  100
AcDbLine
  10
43.6
  20
-0.425243
  30
0
  11
43.7
  21
-0.472996
  31
0
  0
LINE
  5
5d
  100
AcDbEntity
  8
1
  100
AcDbLine
  10
43.7
  20
-0.472996
  30
0
  11
43.8
  21
-0.518287
  31
0
  0
LINE
  5
5e
  100
AcDbEntity
  8
1
  100
AcDbLine
  10
43.8
  20
-0.518287
  30
0
  11
43.9
  21
-0.56088
  31
0
  0
LINE
  5
5f
  100
AcDbEntity
  8
1
  100
AcDbLine
  10
43.9
  20
-0.56088
  30
0
  11
44
  21
-0.600553
  31
0
  0
LINE
  5
60
  100
AcDbEntity
  8
1
  100
AcDbLine
  10
44
  20
-0.600553
  30
0
  11
44.1
  21
-0.6371
  31
0
  0
LINE
  5
61
  100
AcDbEntity
  8
1
  100
AcDbLine
  10
44.1
  20
-0.6371
  30
0
  11
44.2
  21
-0.670329
  31
0
  0
LINE
  5
62
  100
AcDbEntity
  8
1
  100
AcDbLine
  10
44.2
  20
-0.670329
  30
0
  11
44.3
  21
-0.700069
  31
0
  0
LINE
  5
63
  100
AcDbEntity
  8
1
  100
AcDbLine
  10
44.3
  20
-0.700069
  30
0
  11
44.4
  21
-0.726165
  31
0
  0
LINE
  5
64
  100
AcDbEntity
  8
1
  100
AcDbLine
  10
44.4
  20
-0.726165
  30
0
  11
44.5
  21
-0.748479
  31
0
  0
LINE
  5
65
  100
AcDbEntity
  8
1
  100
AcDbLine
  10
44.5
  20
-0.748479
  30
0
  11
44.6
  21
-0.766898
  31
0
  0
LINE
  5
66
  100
AcDbEntity
  8
1
  100
AcDbLine
  10
44.6
  20
-0.766898
  30
0
  11
44.7
  21
-0.781323
  31
0
  0
LINE
  5
67
  100
AcDbEntity
  8
1
  100
AcDbLine
  10
44.7
  20
-0.781323
  30
0
  11
44.8
  21
-0.791681
  31
0
  0
LINE
  5
68
  100
AcDbEntity
  8
1
  100
AcDbLine
  10
44.8
  20
-0.791681
  30
0
  11
44.9
  21
-0.797918
  31
0
  0
LINE
  5
69
  100
AcDbEntity
  8
1
  100
AcDbLine
  10
44.9
  20
-0.797918
  30
0
  11
45
  21
-0.8
  31
0
  0
LINE
  5
6a
  100
AcDbEntity
  8
1
  100
AcDbLine
  10
45
  20
-0.8
  30
0
  11
45
  21
0
  31
0
  0
LINE
  5
6b
  100
AcDbEntity
  8
1
  100
AcDbLine
  10
45
  20
0.078785
  30
0
  11
44.9
  21
0.135263
  31
0
  0
LINE
  5
6c
  100
AcDbEntity
  8
1
  100
AcDbLine
  10
44.9
  20
0.135263
  30
0
  11
44.8
  21
0.191037
  31
0
  0
LINE
  5
6d
  100
AcDbEntity
  8
1
  100
AcDbLine
  10
44.8
  20
0.191037
  30
0
  11
44.7
  21
0.245816
  31
0
  0
LINE
  5
6e
  100
AcDbEntity
  8
1
  100
AcDbLine
  10
44.7
  20
0.245816
  30
0
  11
44.6
  21
0.299316
  31
0
  0
LINE
  5
6f
  100
AcDbEntity
  8
1
  100
AcDbLine
  10
44.6
  20
0.299316
  30
0
  11
44.5
  21
0.351257
  31
0
  0
LINE
  5
70
  100
AcDbEntity
  8
1
  100
AcDbLine
  10
44.5
  20
0.351257
  30
0
  11
44.4
  21
0.40137
  31
0
  0
LINE
  5
71
  100
AcDbEntity
  8
1
  100
AcDbLine
  10
44.4
  20
0.40137
  30
0
  11
44.3
  21
0.449393
  31
0
  0
LINE
  5
72
  100
AcDbEntity
  8
1
  100
AcDbLine
  10
44.3
  20
0.449393
  30
0
  11
44.2
  21
0.495077
  31
0
  0
LINE
  5
73
  100
AcDbEntity
  8
1
  100
AcDbLine
  10
44.2
  20
0.495077
  30
0
  11
44.1
  21
0.538183
  31
0
  0
LINE
  5
74
  100
AcDbEntity
  8
1
  100
AcDbLine
  10
44.1
  20
0.538183
  30
0
  11
44
  21
0.578487
  31
0
  0
LINE
  5
75
  100
AcDbEntity
  8
1
  100
AcDbLine
  10
44
  20
0.578487
  30
0
  11
43.9
  21
0.61578
  31
0
  0
LINE
  5
76
  100
AcDbEntity
  8
1
  100
AcDbLine
  10
43.9
  20
0.61578
  30
0
  11
43.8
  21
0.649867
  31
0
  0
LINE
  5
77
  100
AcDbEntity
  8
1
  100
AcDbLine
  10
43.8
  20
0.649867
  30
0
  11
43.7
  21
0.680571
  31
0
  0
LINE
  5
78
  100
AcDbEntity
  8
1
  100
AcDbLine
  10
43.7
  20
0.680571
  30
0
  11
43.6
  21
0.707731
  31
0
  0
LINE
  5
79
  100
AcDbEntity
  8
1
  100
AcDbLine
  10
43.6
  20
0.707731
  30
0
  11
43.5
  21
0.731207
  31
0
  0
LINE
  5
7a
  100
AcDbEntity
  8
1
  100
AcDbLine
  10
43.5
  20
0.731207
  30
0
  11
43.4
  21
0.750877
  31
0
  0
LINE
  5
7b
  100
AcDbEntity
  8
1
  100
AcDbLine
  10
43.4
  20
0.750877
  30
0
  11
43.3
  21
0.766637
  31
0
  0
LINE
  5
7c
  100
AcDbEntity
  8
1
  100
AcDbLine
  10
43.3
  20
0.766637
  30
0
  11
43.2
  21
0.778406
  31
0
  0
LINE
  5
7d
  100
AcDbEntity
  8
1
  100
AcDbLine
  10
43.2
  20
0.778406
  30
0
  11
43.1
  21
0.786123
  31
0
  0
LINE
  5
7e
  100
AcDbEntity
  8
1
  100
AcDbLine
  10
43.1
  20
0.786123
  30
0
  11
43
  21
0.789747
  31
0
  0
LINE
  5
7f
  100
AcDbEntity
  8
1
  100
AcDbLine
  10
43
  20
0.789747
  30
0
  11
42.961844
  21
0.8
  31
0
  0
LINE
  5
80
  100
AcDbEntity
  8
1
  100
AcDbLine
  10
42.823449
  20
0.8
  30
0
  11
42.9
  21
0.798779
  31
0
  0
LINE
  5
81
  100
AcDbEntity
  8
1
  100
AcDbLine
  10
42.9
  20
0.798779
  30
0
  11
43
  21
0.793514
  31
0
  0
LINE
  5
82
  100
AcDbEntity
  8
1
  100
AcDbLine
  10
43
  20
0.793514
  30
0
  11
43.1
  21
0.784118
  31
0
  0
LINE
  5
83
  100
AcDbEntity
  8
1
  100
AcDbLine
  10
43.1
  20
0.784118
  30
0
  11
43.2
  21
0.77064
  31
0
  0
LINE
  5
84
  100
AcDbEntity
  8
1
  100
AcDbLine
  10
43.2
  20
0.77064
  30
0
  11
43.3
  21
0.75315
  31
0
  0
LINE
  5
85
  100
AcDbEntity
  8
1
  100
AcDbLine
  10
43.3
  20
0.75315
  30
0
  11
43.4
  21
0.731739
  31
0
  0
LINE
  5
86
  100
AcDbEntity
  8
1
  100
AcDbLine
  10
43.4
  20
0.731739
  30
0
  11
43.5
  21
0.706519
  31
0
  0
LINE
  5
87
  100
AcDbEntity
  8
1
  100
AcDbLine
  10
43.5
  20
0.706519
  30
0
  11
43.6
  21
0.67762
  31
0
  0
LINE
  5
88
  100
AcDbEntity
  8
1
  100
AcDbLine
  10
43.6
  20
0.67762
  30
0
  11
43.7
  21
0.645193
  31
0
  0
LINE
  5
89
  100
AcDbEntity
  8
1
  100
AcDbLine
  10
43.7
  20
0.645193
  30
0
  11
43.8
  21
0.609408
  31
0
  0
LINE
  5
8a
  100
AcDbEntity
  8
1
  100
AcDbLine
  10
43.8
  20
0.609408
  30
0
  11
43.9
  21
0.57045
  31
0
  0
LINE
  5
8b
  100
AcDbEntity
  8
1
  100
AcDbLine
  10
43.9
  20
0.57045
  30
0
  11
44
  21
0.528522
  31
0
  0
LINE
  5
8c
  100
AcDbEntity
  8
1
  100
AcDbLine
  10
44
  20
0.528522
  30
0
  11
44.1
  21
0.483843
  31
0
  0
LINE
  5
8d
  100
AcDbEntity
  8
1
  100
AcDbLine
  10
44.1
  20
0.483843
  30
0
  11
44.2
  21
0.436644
  31
0
  0
LINE
  5
8e
  100
AcDbEntity
  8
1
  100
AcDbLine
  10
44.2
  20
0.436644
  30
0
  11
44.3
  21
0.387173
  31
0
  0
LINE
  5
8f
  100
AcDbEntity
  8
1
  100
AcDbLine
  10
44.3
  20
0.387173
  30
0
  11
44.4
  21
0.335686
  31
0
  0
LINE
  5
90
  100
AcDbEntity
  8
1
  100
AcDbLine
  10
44.4
  20
0.335686
  30
0
  11
44.5
  21
0.282451
  31
0
  0
LINE
  5
91
  100
AcDbEntity
  8
1
  100
AcDbLine
  10
44.5
  20
0.282451
  30
0
  11
44.6
  21
0.227746
  31
0
  0
LINE
  5
92
  100
AcDbEntity
  8
1
  100
AcDbLine
  10
44.6
  20
0.227746
  30
0
  11
44.7
  21
0.171855
  31
0
  0
LINE
  5
93
  100
AcDbEntity
  8
1
  100
AcDbLine
  10
44.7
  20
0.171855
  30
0
  11
44.8
  21
0.11507
  31
0
  0
LINE
  5
94
  100
AcDbEntity
  8
1
  100
AcDbLine
  10
44.8
  20
0.11507
  30
0
  11
44.9
  21
0.057685
  31
0
  0
LINE
  5
95
  100
AcDbEntity
  8
1
  100
AcDbLine
  10
44.9
  20
0.057685
  30
0
  11
45
  21
0
  31
0
  0
LINE
  5
96
  100
AcDbEntity
  8
1
  100
AcDbLine
  10
45
  20
0
  30
0
  11
45
  21
0.8
  31
0
  0
LINE
  5
97
  100
AcDbEntity
  8
1
  100
AcDbLine
  10
45
  20
0.8
  30
0
  11
42.6
  21
0.8
  31
0
  0
LINE
  5
98
  100
AcDbEntity
  8
1
  100
AcDbLine
  10
42.6
  20
0.8
  30
0
  11
42.6
  21
0.775
  31
0
  0
LINE
  5
99
  100
AcDbEntity
  8
1
  100
AcDbLine
  10
42.6
  20
0.775
  30
0
  11
35.19
  21
0.775
  31
0
  0
ARC
  5
9a
  100
AcDbEntity
  8
1
  100
AcDbCircle
  10
35.19
  20
3.775
  30
0
  40
3
  100
AcDbArc
  50
255
  51
270
  0
LINE
  5
9b
  100
AcDbEntity
  8
1
  100
AcDbLine
  10
34.413543
  20
0.877223
  30
0
  11
30.22328
  21
2
  31
0
  0
LINE
  5
9c
  100
AcDbEntity
  8
1
  100
AcDbLine
  10
30.22328
  20
2
  30
0
  11
30.2
  21
2
  31
0
  0
LINE
  5
9d
  100
AcDbEntity
  8
1
  100
AcDbLine
  10
30.2
  20
2
  30
0
  11
30.2
  21
-2
  31
0
  0
LINE
  5
9e
  100
AcDbEntity
  8
1
  100
AcDbLine
  10
30.2
  20
-2
  30
0
  11
30.22328
  21
-2
  31
0
  0
LINE
  5
9f
  100
AcDbEntity
  8
1
  100
AcDbLine
  10
30.22328
  20
-2
  30
0
  11
34.413543
  21
-0.877223
  31
0
  0
LINE
  5
a0
  100
AcDbEntity
  8
1
  100
AcDbLine
  10
34.413543
  20
-0.877223
  30
0
  11
34.413543
  21
0.877223
  31
0
  0
LINE
  5
a1
  100
AcDbEntity
  8
1
  100
AcDbLine
  10
35.19
  20
0.775
  30
0
  11
35.19
  21
-0.775
  31
0
  0
ARC
  5
a2
  100
AcDbEntity
  8
1
  100
AcDbCircle
  10
35.19
  20
-3.775
  30
0
  40
3
  100
AcDbArc
  50
90
  51
105
  0
LINE
  5
a3
  100
AcDbEntity
  8
1
  100
AcDbLine
  10
35.19
  20
-0.775
  30
0
  11
42.6
  21
-0.775
  31
0
  0
LINE
  5
a4
  100
AcDbEntity
  8
1
  100
AcDbLine
  10
42.6
  20
-0.775
  30
0
  11
42.6
  21
-0.8
  31
0
  0
LINE
  5
a5
  100
AcDbEntity
  8
1
  100
AcDbLine
  10
42.6
  20
-0.8
  30
0
  11
45
  21
-0.8
  31
0
  0
LINE
  5
a6
  100
AcDbEntity
  8
1
  100
AcDbLine
  10
45
  20
-0.8
  30
0
  11
45
  21
0.8
  31
0
  0
LINE
  5
a7
  100
AcDbEntity
  8
1
  100
AcDbLine
  10
45
  20
0.247214
  30
0
  11
44.9
  21
0.301432
  31
0
  0
LINE
  5
a8
  100
AcDbEntity
  8
1
  100
AcDbLine
  10
44.9
  20
0.301432
  30
0
  11
44.8
  21
0.354081
  31
0
  0
LINE
  5
a9
  100
AcDbEntity
  8
1
  100
AcDbLine
  10
44.8
  20
0.354081
  30
0
  11
44.7
  21
0.404886
  31
0
  0
LINE
  5
aa
  100
AcDbEntity
  8
1
  100
AcDbLine
  10
44.7
  20
0.404886
  30
0
  11
44.6
  21
0.453584
  31
0
  0
LINE
  5
ab
  100
AcDbEntity
  8
1
  100
AcDbLine
  10
44.6
  20
0.453584
  30
0
  11
44.5
  21
0.49992
  31
0
  0
LINE
  5
ac
  100
AcDbEntity
  8
1
  100
AcDbLine
  10
44.5
  20
0.49992
  30
0
  11
44.4
  21
0.543653
  31
0
  0
LINE
  5
ad
  100
AcDbEntity
  8
1
  100
AcDbLine
  10
44.4
  20
0.543653
  30
0
  11
44.3
  21
0.584557
  31
0
  0
LINE
  5
ae
  100
AcDbEntity
  8
1
  100
AcDbLine
  10
44.3
  20
0.584557
  30
0
  11
44.2
  21
0.622417
  31
0
  0
LINE
  5
af
  100
AcDbEntity
  8
1
  100
AcDbLine
  10
44.2
  20
0.622417
  30
0
  11
44.1
  21
0.657036
  31
0
  0
LINE
  5
b0
  100
AcDbEntity
  8
1
  100
AcDbLine
  10
44.1
  20
0.657036
  30
0
  11
44
  21
0.688236
  31
0
  0
LINE
  5
b1
  100
AcDbEntity
  8
1
  100
AcDbLine
  10
44
  20
0.688236
  30
0
  11
43.9
  21
0.715852
  31
0
  0
LINE
  5
b2
  100
AcDbEntity
  8
1
  100
AcDbLine
  10
43.9
  20
0.715852
  30
0
  11
43.8
  21
0.739741
  31
0
  0
LINE
  5
b3
  100
AcDbEntity
  8
1
  100
AcDbLine
  10
43.8
  20
0.739741
  30
0
  11
43.7
  21
0.759779
  31
0
  0
LINE
  5
b4
  100
AcDbEntity
  8
1
  100
AcDbLine
  10
43.7
  20
0.759779
  30
0
  11
43.6
  21
0.775862
  31
0
  0
LINE
  5
b5
  100
AcDbEntity
  8
1
  100
AcDbLine
  10
43.6
  20
0.775862
  30
0
  11
43.5
  21
0.787906
  31
0
  0
LINE
  5
b6
  100
AcDbEntity
  8
1
  100
AcDbLine
  10
43.5
  20
0.787906
  30
0
  11
43.4
  21
0.795847
  31
0
  0
LINE
  5
b7
  100
AcDbEntity
  8
1
  100
AcDbLine
  10
43.4
  20
0.795847
  30
0
  11
43.3
  21
0.799646
  31
0
  0
LINE
  5
b8
  100
AcDbEntity
  8
1
  100
AcDbLine
  10
43.3
  20
0.799646
  30
0
  11
43.258749
  21
0.8
  31
0
  0
LINE
  5
b9
  100
AcDbEntity
  8
1
  100
AcDbLine
  10
42.7
  20
0.148411
  30
0
  11
42.8
  21
0.092071
  31
0
  0
LINE
  5
ba
  100
AcDbEntity
  8
1
  100
AcDbLine
  10
42.8
  20
0.092071
  30
0
  11
42.9
  21
0.035253
  31
0
  0
LINE
  5
bb
  100
AcDbEntity
  8
1
  100
AcDbLine
  10
42.9
  20
0.035253
  30
0
  11
43
  21
-0.02175
  31
0
  0
LINE
  5
bc
  100
AcDbEntity
  8
1
  100
AcDbLine
  10
43
  20
-0.02175
  30
0
  11
43.1
  21
-0.078639
  31
0
  0
LINE
  5
bd
  100
AcDbEntity
  8
1
  100
AcDbLine
  10
43.1
  20
-0.078639
  30
0
  11
43.2
  21
-0.135118
  31
0
  0
LINE
  5
be
  100
AcDbEntity
  8
1
  100
AcDbLine
  10
43.2
  20
-0.135118
  30
0
  11
43.3
  21
-0.190894
  31
0
  0
LINE
  5
bf
  100
AcDbEntity
  8
1
  100
AcDbLine
  10
43.3
  20
-0.190894
  30
0
  11
43.4
  21
-0.245677
  31
0
  0
LINE
  5
c0
  100
AcDbEntity
  8
1
  100
AcDbLine
  10
43.4
  20
-0.245677
  30
0
  11
43.5
  21
-0.29918
  31
0
  0
LINE
  5
c1
  100
AcDbEntity
  8
1
  100
AcDbLine
  10
43.5
  20
-0.29918
  30
0
  11
43.6
  21
-0.351126
  31
0
  0
LINE
  5
c2
  100
AcDbEntity
  8
1
  100
AcDbLine
  10
43.6
  20
-0.351126
  30
0
  11
43.7
  21
-0.401244
  31
0
  0
LINE
  5
c3
  100
AcDbEntity
  8
1
  100
AcDbLine
  10
43.7
  20
-0.401244
  30
0
  11
43.8
  21
-0.449273
  31
0
  0
LINE
  5
c4
  100
AcDbEntity
  8
1
  100
AcDbLine
  10
43.8
  20
-0.449273
  30
0
  11
43.9
  21
-0.494962
  31
0
  0
LINE
  5
c5
  100
AcDbEntity
  8
1
  100
AcDbLine
  10
43.9
  20
-0.494962
  30
0
  11
44
  21
-0.538076
  31
0
  0
LINE
  5
c6
  100
AcDbEntity
  8
1
  100
AcDbLine
  10
44
  20
-0.538076
  30
0
  11
44.1
  21
-0.578387
  31
0
  0
LINE
  5
c7
  100
AcDbEntity
  8
1
  100
AcDbLine
  10
44.1
  20
-0.578387
  30
0
  11
44.2
  21
-0.615688
  31
0
  0
LINE
  5
c8
  100
AcDbEntity
  8
1
  100
AcDbLine
  10
44.2
  20
-0.615688
  30
0
  11
44.3
  21
-0.649784
  31
0
  0
LINE
  5
c9
  100
AcDbEntity
  8
1
  100
AcDbLine
  10
44.3
  20
-0.649784
  30
0
  11
44.4
  21
-0.680496
  31
0
  0
LINE
  5
ca
  100
AcDbEntity
  8
1
  100
AcDbLine
  10
44.4
  20
-0.680496
  30
0
  11
44.5
  21
-0.707666
  31
0
  0
LINE
  5
cb
  100
AcDbEntity
  8
1
  100
AcDbLine
  10
44.5
  20
-0.707666
  30
0
  11
44.6
  21
-0.731152
  31
0
  0
LINE
  5
cc
  100
AcDbEntity
  8
1
  100
AcDbLine
  10
44.6
  20
-0.731152
  30
0
  11
44.7
  21
-0.750831
  31
0
  0
LINE
  5
cd
  100
AcDbEntity
  8
1
  100
AcDbLine
  10
44.7
  20
-0.750831
  30
0
  11
44.8
  21
-0.766602
  31
0
  0
LINE
  5
ce
  100
AcDbEntity
  8
1
  100
AcDbLine
  10
44.8
  20
-0.766602
  30
0
  11
44.9
  21
-0.778381
  31
0
  0
LINE
  5
cf
  100
AcDbEntity
  8
1
  100
AcDbLine
  10
44.9
  20
-0.778381
  30
0
  11
45
  21
-0.786108
  31
0
  0
LINE
  5
d0
  100
AcDbEntity
  8
1
  100
AcDbLine
  10
45
  20
-0.760845
  30
0
  11
44.9
  21
-0.741039
  31
0
  0
LINE
  5
d1
  100
AcDbEntity
  8
1
  100
AcDbLine
  10
44.9
  20
-0.741039
  30
0
  11
44.8
  21
-0.717375
  31
0
  0
LINE
  5
d2
  100
AcDbEntity
  8
1
  100
AcDbLine
  10
44.8
  20
-0.717375
  30
0
  11
44.7
  21
-0.689976
  31
0
  0
LINE
  5
d3
  100
AcDbEntity
  8
1
  100
AcDbLine
  10
44.7
  20
-0.689976
  30
0
  11
44.6
  21
-0.658986
  31
0
  0
LINE
  5
d4
  100
AcDbEntity
  8
1
  100
AcDbLine
  10
44.6
  20
-0.658986
  30
0
  11
44.5
  21
-0.624564
  31
0
  0
LINE
  5
d5
  100
AcDbEntity
  8
1
  100
AcDbLine
  10
44.5
  20
-0.624564
  30
0
  11
44.4
  21
-0.586891
  31
0
  0
LINE
  5
d6
  100
AcDbEntity
  8
1
  100
AcDbLine
  10
44.4
  20
-0.586891
  30
0
  11
44.3
  21
-0.546162
  31
0
  0
LINE
  5
d7
  100
AcDbEntity
  8
1
  100
AcDbLine
  10
44.3
  20
-0.546162
  30
0
  11
44.2
  21
-0.502591
  31
0
  0
LINE
  5
d8
  100
AcDbEntity
  8
1
  100
AcDbLine
  10
44.2
  20
-0.502591
  30
0
  11
44.1
  21
-0.456402
  31
0
  0
LINE
  5
d9
  100
AcDbEntity
  8
1
  100
AcDbLine
  10
44.1
  20
-0.456402
  30
0
  11
44
  21
-0.407838
  31
0
  0
LINE
  5
da
  100
AcDbEntity
  8
1
  100
AcDbLine
  10
44
  20
-0.407838
  30
0
  11
43.9
  21
-0.35715
  31
0
  0
LINE
  5
db
  100
AcDbEntity
  8
1
  100
AcDbLine
  10
43.9
  20
-0.35715
  30
0
  11
43.8
  21
-0.304603
  31
0
  0
LINE
  5
dc
  100
AcDbEntity
  8
1
  100
AcDbLine
  10
43.8
  20
-0.304603
  30
0
  11
43.7
  21
-0.25047
  31
0
  0
LINE
  5
dd
  100
AcDbEntity
  8
1
  100
AcDbLine
  10
43.7
  20
-0.25047
  30
0
  11
43.6
  21
-0.195034
  31
0
  0
LINE
  5
de
  100
AcDbEntity
  8
1
  100
AcDbLine
  10
43.6
  20
-0.195034
  30
0
  11
43.5
  21
-0.138582
  31
0
  0
LINE
  5
df
  100
AcDbEntity
  8
1
  100
AcDbLine
  10
43.5
  20
-0.138582
  30
0
  11
43.4
  21
-0.081408
  31
0
  0
LINE
  5
e0
  100
AcDbEntity
  8
1
  100
AcDbLine
  10
43.4
  20
-0.081408
  30
0
  11
43.3
  21
-0.023811
  31
0
  0
LINE
  5
e1
  100
AcDbEntity
  8
1
  100
AcDbLine
  10
43.3
  20
-0.023811
  30
0
  11
43.2
  21
0.033911
  31
0
  0
LINE
  5
e2
  100
AcDbEntity
  8
1
  100
AcDbLine
  10
43.2
  20
0.033911
  30
0
  11
43.1
  21
0.091455
  31
0
  0
LINE
  5
e3
  100
AcDbEntity
  8
1
  100
AcDbLine
  10
43.1
  20
0.091455
  30
0
  11
43
  21
0.148524
  31
0
  0
LINE
  5
e4
  100
AcDbEntity
  8
1
  100
AcDbLine
  10
43
  20
0.148524
  30
0
  11
42.9
  21
0.20482
  31
0
  0
LINE
  5
e5
  100
AcDbEntity
  8
1
  100
AcDbLine
  10
42.9
  20
0.20482
  30
0
  11
42.8
  21
0.260049
  31
0
  0
LINE
  5
e6
  100
AcDbEntity
  8
1
  100
AcDbLine
  10
42.8
  20
0.260049
  30
0
  11
42.7
  21
0.313924
  31
0
  0
LINE
  5
e7
  100
AcDbEntity
  8
1
  100
AcDbLine
  10
42.7
  20
0.313924
  30
0
  11
42.6
  21
0.366165
  31
0
  0
LINE
  5
e8
  100
AcDbEntity
  8
1
  100
AcDbLine
  10
42.6
  20
0.366165
  30
0
  11
42.6
  21
0.355734
  31
0
  0
LINE
  5
e9
  100
AcDbEntity
  8
1
  100
AcDbLine
  10
42.6
  20
0.355734
  30
0
  11
42.5
  21
0.405127
  31
0
  0
LINE
  5
ea
  100
AcDbEntity
  8
1
  100
AcDbLine
  10
42.5
  20
0.405127
  30
0
  11
42.4
  21
0.491107
  31
0
  0
LINE
  5
eb
  100
AcDbEntity
  8
1
  100
AcDbLine
  10
42.4
  20
0.491107
  30
0
  11
42.3
  21
0.767845
  31
0
  0
LINE
  5
ec
  100
AcDbEntity
  8
1
  100
AcDbLine
  10
42.3
  20
0.767845
  30
0
  11
42.3
  21
0.770502
  31
0
  0
LINE
  5
ed
  100
AcDbEntity
  8
1
  100
AcDbLine
  10
42.3
  20
0.770502
  30
0
  11
42.326294
  21
0.775
  31
0
  0
LINE
  5
ee
  100
AcDbEntity
  8
1
  100
AcDbLine
  10
30.22328
  20
2
  30
0
  11
30.22328
  21
-2
  31
0
  0
LINE
  5
ef
  100
AcDbEntity
  8
1
  100
AcDbLine
  10
30.2
  20
2
  30
0
  11
30.2
  21
-2
  31
0
  0
LINE
  5
f0
  100
AcDbEntity
  8
1
  100
AcDbLine
  10
30.2
  20
-2
  30
0
  11
30.2
  21
2
  31
0
  0
LINE
  5
f1
  100
AcDbEntity
  8
SK1
  100
AcDbLine
  10
30.2
  20
2
  30
0
  11
0.7
  21
2
  31
0
  0
LINE
  5
f2
  100
AcDbEntity
  8
SK1
  100
AcDbLine
  10
0.7
  20
2
  30
0
  11
0
  21
1.3
  31
0
  0
LINE
  5
f3
  100
AcDbEntity
  8
SK1
  100
AcDbLine
  10
30.2
  20
-2
  30
0
  11
0.7
  21
-2
  31
0
  0
LINE
  5
f4
  100
AcDbEntity
  8
SK1
  100
AcDbLine
  10
0.7
  20
-2
  30
0
  11
0
  21
-1.3
  31
0
  0
LINE
  5
f5
  100
AcDbEntity
  8
SK1
  100
AcDbLine
  10
0.7
  20
2
  30
0
  11
0.7
  21
-2
  31
0
  0
LINE
  5
f6
  100
AcDbEntity
  8
SK1
  100
AcDbLine
  10
0
  20
1.3
  30
0
  11
0
  21
-1.3
  31
0
  0
LINE
  5
f7
  100
AcDbEntity
  8
SK1
  100
AcDbLine
  10
31.2401
  20
1.40688
  30
0
  11
31.6069
  21
1.0401
  31
0
  0
LINE
  5
f8
  100
AcDbEntity
  8
SK1
  100
AcDbLine
  10
30.7328
  20
1.66666
  30
0
  11
31.8667
  21
0.532833
  31
0
  0
LINE
  5
f9
  100
AcDbEntity
  8
SK1
  100
AcDbLine
  10
30.4154
  20
1.73657
  30
0
  11
31.9366
  21
0.215434
  31
0
  0
LINE
  5
fa
  100
AcDbEntity
  8
SK1
  100
AcDbLine
  10
30.2
  20
1.70452
  30
0
  11
31.9045
  21
0
  31
0
  0
LINE
  5
fb
  100
AcDbEntity
  8
SK1
  100
AcDbLine
  10
30.2
  20
1.45703
  30
0
  11
31.657
  21
0
  31
0
  0
LINE
  5
fc
  100
AcDbEntity
  8
SK1
  100
AcDbLine
  10
30.2
  20
1.20954
  30
0
  11
31.4095
  21
0
  31
0
  0
LINE
  5
fd
  100
AcDbEntity
  8
SK1
  100
AcDbLine
  10
30.2
  20
0.962054
  30
0
  11
31.1621
  21
0
  31
0
  0
LINE
  5
fe
  100
AcDbEntity
  8
SK1
  100
AcDbLine
  10
30.2
  20
0.714566
  30
0
  11
30.9146
  21
0
  31
0
  0
LINE
  5
ff
  100
AcDbEntity
  8
SK1
  100
AcDbLine
  10
30.2
  20
0.467079
  30
0
  11
30.6671
  21
0
  31
0
  0
LINE
  5
100
  100
AcDbEntity
  8
SK1
  100
AcDbLine
  10
30.2
  20
0.219592
  30
0
  11
30.4196
  21
0
  31
0
  0
LINE
  5
101
  100
AcDbEntity
  8
SK1
  100
AcDbLine
  10
30.2
  20
1.70452
  30
0
  11
30.2441
  21
1.74861
  31
0
  0
LINE
  5
102
  100
AcDbEntity
  8
SK1
  100
AcDbLine
  10
30.2
  20
1.45703
  30
0
  11
30.471
  21
1.72802
  31
0
  0
LINE
  5
103
  100
AcDbEntity
  8
SK1
  100
AcDbLine
  10
30.2
  20
1.20954
  30
0
  11
30.6742
  21
1.6837
  31
0
  0
LINE
  5
104
  100
AcDbEntity
  8
SK1
  100
AcDbLine
  10
30.2
  20
0.962054
  30
0
  11
30.8588
  21
1.62082
  31
0
  0
LINE
  5
105
  100
AcDbEntity
  8
SK1
  100
AcDbLine
  10
30.2
  20
0.714566
  30
0
  11
31.0271
  21
1.54167
  31
0
  0
LINE
  5
106
  100
AcDbEntity
  8
SK1
  100
AcDbLine
  10
30.2
  20
0.467079
  30
0
  11
31.181
  21
1.44812
  31
0
  0
LINE
  5
107
  100
AcDbEntity
  8
SK1
  100
AcDbLine
  10
30.2
  20
0.219592
  30
0
  11
31.3226
  21
1.34216
  31
0
  0
LINE
  5
108
  100
AcDbEntity
  8
SK1
  100
AcDbLine
  10
30.2279
  20
0
  30
0
  11
31.4508
  21
1.22288
  31
0
  0
LINE
  5
109
  100
AcDbEntity
  8
SK1
  100
AcDbLine
  10
30.4754
  20
0
  30
0
  11
31.567
  21
1.09157
  31
0
  0
LINE
  5
10a
  100
AcDbEntity
  8
SK1
  100
AcDbLine
  10
30.7229
  20
0
  30
0
  11
31.6707
  21
0.947822
  31
0
  0
LINE
  5
10b
  100
AcDbEntity
  8
SK1
  100
AcDbLine
  10
30.9704
  20
0
  30
0
  11
31.7605
  21
0.790145
  31
0
  0
LINE
  5
10c
  100
AcDbEntity
  8
SK1
  100
AcDbLine
  10
31.2178
  20
0
  30
0
  11
31.8364
  21
0.618517
  31
0
  0
LINE
  5
10d
  100
AcDbEntity
  8
SK1
  100
AcDbLine
  10
31.4653
  20
0
  30
0
  11
31.896
  21
0.430696
  31
0
  0
LINE
  5
10e
  100
AcDbEntity
  8
SK1
  100
AcDbLine
  10
31.7128
  20
0
  30
0
  11
31.9356
  21
0.222827
  31
0
  0
LINE
  5
10f
  100
AcDbEntity
  8
SK1
  100
AcDbLine
  10
30.2
  20
0
  30
0
  11
30.2
  21
1.75
  31
0
  0
LINE
  5
110
  100
AcDbEntity
  8
SK1
  100
AcDbLine
  10
30.2
  20
0
  30
0
  11
31.95
  21
0
  31
0
  0
ARC
  5
111
  100
AcDbEntity
  8
SK1
  100
AcDbCircle
  10
30.2
  20
0
  30
0
  40
1.75
  100
AcDbArc
  50
0
  51
90
  0
ARC
  5
112
  100
AcDbEntity
  8
SK1
  100
AcDbCircle
  10
30.2
  20
0
  30
0
  40
1.75
  100
AcDbArc
  50
90
  51
180
  0
LINE
  5
113
  100
AcDbEntity
  8
SK1
  100
AcDbLine
  10
30.1721
  20
0
  30
0
  11
30.2
  21
-0.027896
  31
0
  0
LINE
  5
114
  100
AcDbEntity
  8
SK1
  100
AcDbLine
  10
29.9246
  20
0
  30
0
  11
30.2
  21
-0.275383
  31
0
  0
LINE
  5
115
  100
AcDbEntity
  8
SK1
  100
AcDbLine
  10
29.6771
  20
0
  30
0
  11
30.2
  21
-0.522871
  31
0
  0
LINE
  5
116
  100
AcDbEntity
  8
SK1
  100
AcDbLine
  10
29.4296
  20
0
  30
0
  11
30.2
  21
-0.770358
  31
0
  0
LINE
  5
117
  100
AcDbEntity
  8
SK1
  100
AcDbLine
  10
29.1822
  20
0
  30
0
  11
30.2
  21
-1.01785
  31
0
  0
LINE
  5
118
  100
AcDbEntity
  8
SK1
  100
AcDbLine
  10
28.9347
  20
0
  30
0
  11
30.2
  21
-1.26533
  31
0
  0
LINE
  5
119
  100
AcDbEntity
  8
SK1
  100
AcDbLine
  10
28.6872
  20
0
  30
0
  11
30.2
  21
-1.51282
  31
0
  0
LINE
  5
11a
  100
AcDbEntity
  8
SK1
  100
AcDbLine
  10
28.4503
  20
-0.010642
  30
0
  11
30.1894
  21
-1.74967
  31
0
  0
LINE
  5
11b
  100
AcDbEntity
  8
SK1
  100
AcDbLine
  10
28.4736
  20
-0.281429
  30
0
  11
29.9186
  21
-1.72637
  31
0
  0
LINE
  5
11c
  100
AcDbEntity
  8
SK1
  100
AcDbLine
  10
28.5639
  20
-0.619147
  30
0
  11
29.5809
  21
-1.63613
  31
0
  0
LINE
  5
11d
  100
AcDbEntity
  8
SK1
  100
AcDbLine
  10
28.4514
  20
-0.044098
  30
0
  11
28.4955
  21
0
  31
0
  0
LINE
  5
11e
  100
AcDbEntity
  8
SK1
  100
AcDbLine
  10
28.472
  20
-0.270991
  30
0
  11
28.743
  21
0
  31
0
  0
LINE
  5
11f
  100
AcDbEntity
  8
SK1
  100
AcDbLine
  10
28.5163
  20
-0.474162
  30
0
  11
28.9905
  21
0
  31
0
  0
LINE
  5
120
  100
AcDbEntity
  8
SK1
  100
AcDbLine
  10
28.5792
  20
-0.658762
  30
0
  11
29.2379
  21
0
  31
0
  0
LINE
  5
121
  100
AcDbEntity
  8
SK1
  100
AcDbLine
  10
28.6583
  20
-0.827105
  30
0
  11
29.4854
  21
0
  31
0
  0
LINE
  5
122
  100
AcDbEntity
  8
SK1
  100
AcDbLine
  10
28.7519
  20
-0.981039
  30
0
  11
29.7329
  21
0
  31
0
  0
LINE
  5
123
  100
AcDbEntity
  8
SK1
  100
AcDbLine
  10
28.8578
  20
-1.12257
  30
0
  11
29.9804
  21
0
  31
0
  0
LINE
  5
124
  100
AcDbEntity
  8
SK1
  100
AcDbLine
  10
28.9771
  20
-1.25077
  30
0
  11
30.2
  21
-0.027896
  31
0
  0
LINE
  5
125
  100
AcDbEntity
  8
SK1
  100
AcDbLine
  10
29.1084
  20
-1.36695
  30
0
  11
30.2
  21
-0.275383
  31
0
  0
LINE
  5
126
  100
AcDbEntity
  8
SK1
  100
AcDbLine
  10
29.2522
  20
-1.47069
  30
0
  11
30.2
  21
-0.522871
  31
0
  0
LINE
  5
127
  100
AcDbEntity
  8
SK1
  100
AcDbLine
  10
29.4099
  20
-1.5605
  30
0
  11
30.2
  21
-0.770358
  31
0
  0
LINE
  5
128
  100
AcDbEntity
  8
SK1
  100
AcDbLine
  10
29.5815
  20
-1.63636
  30
0
  11
30.2
  21
-1.01785
  31
0
  0
LINE
  5
129
  100
AcDbEntity
  8
SK1
  100
AcDbLine
  10
29.7693
  20
-1.69603
  30
0
  11
30.2
  21
-1.26533
  31
0
  0
LINE
  5
12a
  100
AcDbEntity
  8
SK1
  100
AcDbLine
  10
29.9772
  20
-1.73565
  30
0
  11
30.2
  21
-1.51282
  31
0
  0
LINE
  5
12b
  100
AcDbEntity
  8
SK1
  100
AcDbLine
  10
30.2
  20
0
  30
0
  11
28.45
  21
0
  31
0
  0
LINE
  5
12c
  100
AcDbEntity
  8
SK1
  100
AcDbLine
  10
30.2
  20
-1.75
  30
0
  11
30.2
  21
0
  31
0
  0
ARC
  5
12d
  100
AcDbEntity
  8
SK1
  100
AcDbCircle
  10
30.2
  20
0
  30
0
  40
1.75
  100
AcDbArc
  50
180
  51
270
  0
ARC
  5
12e
  100
AcDbEntity
  8
SK1
  100
AcDbCircle
  10
30.2
  20
0
  30
0
  40
1.75
  100
AcDbArc
  50
270
  51
0
  0
LINE
  5
19f
  100
AcDbEntity
  8
NOCUT
  100
AcDbLine
  10
42.6
  20
0
  30
0
  11
42.6
  21
0.775
  31
0
  0
LINE
  5
1a0
  100
AcDbEntity
  8
NOCUT
  100
AcDbLine
  10
42.6
  20
0.775
  30
0
  11
35.19
  21
0.775
  31
0
  0
ARC
  5
1a1
  100
AcDbEntity
  8
NOCUT
  100
AcDbCircle
  10
35.19
  20
3.775
  30
0
  40
3
  100
AcDbArc
  50
255
  51
270
  0
LINE
  5
1a2
  100
AcDbEntity
  8
NOCUT
  100
AcDbLine
  10
34.413543
  20
0.877223
  30
0
  11
30.22328
  21
2
  31
0
  0
LINE
  5
1a3
  100
AcDbEntity
  8
NOCUT
  100
AcDbLine
  10
30.22328
  20
2
  30
0
  11
30.2
  21
2
  31
0
  0
LINE
  5
1a4
  100
AcDbEntity
  8
NOCUT
  100
AcDbLine
  10
30.2
  20
2
  30
0
  11
30.2
  21
0
  31
0
  0
LINE
  5
1a5
  100
AcDbEntity
  8
NOCUT
  100
AcDbLine
  10
30.2
  20
0
  30
0
  11
42.6
  21
0
  31
0
  0
LINE
  5
1a6
  100
AcDbEntity
  8
CUT
  100
AcDbLine
  10
45
  20
0
  30
0
  11
45
  21
0.8
  31
0
  0
LINE
  5
1a7
  100
AcDbEntity
  8
CUT
  100
AcDbLine
  10
45
  20
0.8
  30
0
  11
42.6
  21
0.8
  31
0
  0
LINE
  5
1a8
  100
AcDbEntity
  8
CUT
  100
AcDbLine
  10
42.6
  20
0.8
  30
0
  11
42.6
  21
0
  31
0
  0
LINE
  5
1a9
  100
AcDbEntity
  8
CUT
  100
AcDbLine
  10
42.6
  20
0
  30
0
  11
45
  21
0
  31
0
  0
LINE
  5
1aa
  100
AcDbEntity
  8
4
  100
AcDbLine
  10
30.2
  20
0
  30
0
  11
45
  21
0
  31
0
  0
LINE
  5
1ab
  100
AcDbEntity
  8
SK4
  100
AcDbLine
  10
-1
  20
0
  30
0
  11
46
  21
0
  31
0
  0
LINE
  5
1ac
  100
AcDbEntity
  8
INFTOTAL
  100
AcDbLine
  10
-15.45
  20
17.45
  30
0
  11
60.45
  21
17.45
  31
0
  0
LINE
  5
1ad
  100
AcDbEntity
  8
INFTOTAL
  100
AcDbLine
  10
60.45
  20
17.45
  30
0
  11
60.45
  21
-13.741202
  31
0
  0
LINE
  5
1ae
  100
AcDbEntity
  8
INFTOTAL
  100
AcDbLine
  10
60.45
  20
-13.741202
  30
0
  11
-15.45
  21
-13.741202
  31
0
  0
LINE
  5
1af
  100
AcDbEntity
  8
INFTOTAL
  100
AcDbLine
  10
-15.45
  20
-13.741202
  30
0
  11
-15.45
  21
17.45
  31
0
  0
ENDSEC
  0
SECTION
  2
OBJECTS
  0
DICTIONARY
  5
1b0
  330
0
100
AcDbDictionary
281
    1
  3
ACAD_GROUP
  350
1b1
  0
DICTIONARY
  5
1b1
102
{ACAD_REACTORS
  330
1b0
102
}
  330
1b0
100
AcDbDictionary
281
    1
  0
ENDSEC
  0
EOF
