  0
SECTION
  2
HEADER
  9
$ACADVER
  1
AC1015
  9
$DWGCODEPAGE
  3
ANSI_932
  9
$HANDSEED
  5
106AB90
  0
ENDSEC
  0
SECTION
  2
CLASSES
  0
CLASS
  1
IMAGEDEF
  2
AcDbRasterImageDef
  3
ISM
  90
0
  91
4
  280
0
  281
0
  0
CLASS
  1
IMAGE
  2
AcDbRasterImage
  3
ISM
  90
127
  91
5
  280
0
  281
1
  0
CLASS
  1
IMAGEDEF_REACTOR
  2
AcDbRasterImageDefReactor
  3
ISM
  90
1
  91
4
  280
0
  281
0
  0
ENDSEC
  0
SECTION
  2
TABLES
  0
TABLE
  2
VPORT
  5
2
  330
0
  100
AcDbSymbolTable
  70
    0
  0
ENDTAB
  0
TABLE
  2
LTYPE
  5
3
  330
0
  100
AcDbSymbolTable
  70
    4
  0
LTYPE
  5
4
  330
3
  100
AcDbSymbolTableRecord
  100
AcDbLinetypeTableRecord
  2
ByBlock
  70
    0
  3

  72
65
  73
    0
  40
0
  0
LTYPE
  5
5
  330
3
  100
AcDbSymbolTableRecord
  100
AcDbLinetypeTableRecord
  2
ByLayer
  70
    0
  3

  72
65
  73
    0
  40
0
  0
LTYPE
  5
6
  330
3
  100
AcDbSymbolTableRecord
  100
AcDbLinetypeTableRecord
  2
CONTINUOUS
  70
    0
  3
Solid Line
  72
65
  73
    0
  40
0
  0
LTYPE
  5
7
  330
3
  100
AcDbSymbolTableRecord
  100
AcDbLinetypeTableRecord
  2
DASH
  70
    0
  3
Hidden
  72
65
  73
2
  40
2.5
  49
1.5
  74
0
  49
-1
  74
0
  0
LTYPE
  5
8
  330
3
  100
AcDbSymbolTableRecord
  100
AcDbLinetypeTableRecord
  2
LONGDASHDASH
  70
    0
  3
__ . __
  72
65
  73
    4
  40
7
  49
4
  74
    0
  49
-1
  74
    0
  49
1
  74
    0
  49
-1
  74
    0
  0
ENDTAB
  0
TABLE
  2
LAYER
  5
9
  330
0
  100
AcDbSymbolTable
  70
    40
  0
LAYER
  5
a
  330
9
  100
AcDbSymbolTableRecord
  100
AcDbLayerTableRecord
  2
0
  70
    0
  62
    0
  6
CONTINUOUS
  390
0
  0
LAYER
  5
c
  330
9
  100
AcDbSymbolTableRecord
  100
AcDbLayerTableRecord
  2
1
  70
    0
  62
    4
  6
CONTINUOUS
  370
50
  390
0
  0
LAYER
  5
d
  330
9
  100
AcDbSymbolTableRecord
  100
AcDbLayerTableRecord
  2
2
  70
    0
  62
    7
  6
CONTINUOUS
  370
25
  390
0
  0
LAYER
  5
f
  330
9
  100
AcDbSymbolTableRecord
  100
AcDbLayerTableRecord
  2
4
  70
    0
  62
    2
  6
LONGDASHDASH
  370
25
  390
0
  0
LAYER
  5
13
  330
9
  100
AcDbSymbolTableRecord
  100
AcDbLayerTableRecord
  2
SK1
  70
    0
  62
    4
  6
CONTINUOUS
  370
50
  390
0
  0
LAYER
  5
14
  330
9
  100
AcDbSymbolTableRecord
  100
AcDbLayerTableRecord
  2
SK2
  70
    0
  62
    7
  6
CONTINUOUS
  370
25
  390
0
  0
LAYER
  5
16
  330
9
  100
AcDbSymbolTableRecord
  100
AcDbLayerTableRecord
  2
SK4
  70
    0
  62
    2
  6
LONGDASHDASH
  370
25
  390
0
  0
LAYER
  5
21
  330
9
  100
AcDbSymbolTableRecord
  100
AcDbLayerTableRecord
  2
NOCUT
  70
    0
  62
    7
  6
CONTINUOUS
  370
25
  390
0
  0
LAYER
  5
22
  330
9
  100
AcDbSymbolTableRecord
  100
AcDbLayerTableRecord
  2
CUT
  70
    0
  62
    1
  6
CONTINUOUS
  370
25
  390
0
  0
LAYER
  5
26
  330
9
  100
AcDbSymbolTableRecord
  100
AcDbLayerTableRecord
  2
INFTOTAL
  70
    0
  62
    9
  6
CONTINUOUS
  370
18
  390
0
  0
ENDTAB
  0
TABLE
  2
STYLE
  5
27
  330
0
  100
AcDbSymbolTable
  70
    1
  0
STYLE
  5
28
  330
27
  100
AcDbSymbolTableRecord
  100
AcDbTextStyleTableRecord
  2
Monospac821 BT
  70
    0
  40
    3.5
  41
1
  50
0
  71
0
  42
3
  3

  4

  1001
ACAD
  1000
Monospac821 BT
  1071
256
  0
ENDTAB
  0
TABLE
  2
VIEW
  5
29
  330
0
  100
AcDbSymbolTable
  70
    0
  0
ENDTAB
  0
TABLE
  2
UCS
  5
2a
  330
0
  100
AcDbSymbolTable
  70
    0
  0
ENDTAB
  0
TABLE
  2
APPID
  5
2b
  330
0
  100
AcDbSymbolTable
  70
    1
  0
APPID
  5
2c
  330
2b
  100
AcDbSymbolTableRecord
  100
AcDbRegAppTableRecord
  2
ACAD
  70
    0
  0
ENDTAB
  0
TABLE
  2
DIMSTYLE
  5
2d
  330
0
  100
AcDbSymbolTable
  70
    1
  100
AcDbDimStyleTable
  0
DIMSTYLE
  105
2e
  330
2d
  100
AcDbSymbolTableRecord
  100
AcDbDimStyleTableRecord
  2
STANDARD
  70
    0
  41
    3
  42
0.5
  44
1
  73
0
  77
1
  78
1
  140
3.5
  141
2.5
  143
0.03937
  147
0.8
  172
1
  174
1
  178
0
  179
1
  271
2
  279
1
  284
1
  340
28
  0
ENDTAB
  0
TABLE
  2
BLOCK_RECORD
  5
2f
  330
0
  100
AcDbSymbolTable
  70
    2
  0
BLOCK_RECORD
  5
30
  330
2f
  100
AcDbSymbolTableRecord
  100
AcDbBlockTableRecord
  2
*Model_Space
  0
BLOCK_RECORD
  5
31
  330
2f
  100
AcDbSymbolTableRecord
  100
AcDbBlockTableRecord
  2
*Paper_Space
  0
BLOCK_RECORD
  5
143
  330
2f
  100
AcDbSymbolTableRecord
  100
AcDbBlockTableRecord
  2
*D142
  340
0
  0
BLOCK_RECORD
  5
151
  330
2f
  100
AcDbSymbolTableRecord
  100
AcDbBlockTableRecord
  2
*D150
  340
0
  0
BLOCK_RECORD
  5
15f
  330
2f
  100
AcDbSymbolTableRecord
  100
AcDbBlockTableRecord
  2
*D15e
  340
0
  0
BLOCK_RECORD
  5
16d
  330
2f
  100
AcDbSymbolTableRecord
  100
AcDbBlockTableRecord
  2
*D16c
  340
0
  0
BLOCK_RECORD
  5
17b
  330
2f
  100
AcDbSymbolTableRecord
  100
AcDbBlockTableRecord
  2
*D17a
  340
0
  0
BLOCK_RECORD
  5
189
  330
2f
  100
AcDbSymbolTableRecord
  100
AcDbBlockTableRecord
  2
*D188
  340
0
  0
BLOCK_RECORD
  5
197
  330
2f
  100
AcDbSymbolTableRecord
  100
AcDbBlockTableRecord
  2
*D196
  340
0
  0
BLOCK_RECORD
  5
1a5
  330
2f
  100
AcDbSymbolTableRecord
  100
AcDbBlockTableRecord
  2
*D1a4
  340
0
  0
ENDTAB
  0
ENDSEC
  0
SECTION
  2
BLOCKS
  0
BLOCK
  5
32
  330
30
  100
AcDbEntity
  8
0
  100
AcDbBlockBegin
  2
*Model_Space
  70
    0
  10
0
  20
0
  30
0
  3
*Model_Space
  1

  0
ENDBLK
  5
33
  330
30
  100
AcDbEntity
  8
0
  100
AcDbBlockEnd
  0
BLOCK
  5
34
  330
31
  100
AcDbEntity
  8
0
  100
AcDbBlockBegin
  2
*Paper_Space
  70
    0
  10
0
  20
0
  30
0
  3
*Paper_Space
  1

  0
ENDBLK
  5
35
  330
31
  100
AcDbEntity
  8
0
  100
AcDbBlockEnd
  0
BLOCK
  5
141
  330
143
  100
AcDbEntity
  8
SK2
  100
AcDbBlockBegin
  2
*D142
  70
1
  10
0
  20
0
  30
0
  3
*D142
  1

  0
LINE
  5
144
  330
143
  100
AcDbEntity
  8
SK2
  100
AcDbLine
  10
0
  20
1.3
  30
0
  11
0
  21
14
  31
0
  0
LINE
  5
145
  330
143
  100
AcDbEntity
  8
SK2
  100
AcDbLine
  10
45
  20
0.9
  30
0
  11
45
  21
14
  31
0
  0
LINE
  5
146
  330
143
  100
AcDbEntity
  8
SK2
  100
AcDbLine
  10
0
  20
12
  30
0
  11
45
  21
12
  31
0
  0
SOLID
  5
147
  330
143
  100
AcDbEntity
  8
SK2
  100
AcDbTrace
  10
0
  20
12
  30
0
  11
2.478612
  21
12.326315
  31
0
  12
2.478612
  22
11.673685
  32
0
  13
2.478612
  23
11.673685
  33
0
  0
SOLID
  5
148
  330
143
  100
AcDbEntity
  8
SK2
  100
AcDbTrace
  10
45
  20
12
  30
0
  11
42.521388
  21
11.673685
  31
0
  12
42.521388
  22
12.326315
  32
0
  13
42.521388
  23
12.326315
  33
0
  0
MTEXT
  5
149
  330
143
  100
AcDbEntity
  8
SK2
  100
AcDbMText
  10
37.397052
  20
12
  30
0
  11
1
  21
0
  31
0
  40
2
  41
0
  71
8
  72
1
  1
45
  0
POINT
  5
14a
  330
143
  100
AcDbEntity
  8
SK2
  62
0
  100
AcDbPoint
  10
0
  20
1.3
  30
0
  0
POINT
  5
14b
  330
143
  100
AcDbEntity
  8
SK2
  62
0
  100
AcDbPoint
  10
45
  20
0.9
  30
0
  0
POINT
  5
14c
  330
143
  100
AcDbEntity
  8
SK2
  62
0
  100
AcDbPoint
  10
45
  20
12
  30
0
  0
ENDBLK
  5
14d
  330
143
  100
AcDbEntity
  8
SK2
  100
AcDbBlockEnd
  0
BLOCK
  5
14f
  330
151
  100
AcDbEntity
  8
SK2
  100
AcDbBlockBegin
  2
*D150
  70
1
  10
0
  20
0
  30
0
  3
*D150
  1

  0
LINE
  5
152
  330
151
  100
AcDbEntity
  8
SK2
  100
AcDbLine
  10
0
  20
1.3
  30
0
  11
0
  21
8.990662
  31
0
  0
LINE
  5
153
  330
151
  100
AcDbEntity
  8
SK2
  100
AcDbLine
  10
30.3
  20
2
  30
0
  11
30.3
  21
8.990662
  31
0
  0
LINE
  5
154
  330
151
  100
AcDbEntity
  8
SK2
  100
AcDbLine
  10
0
  20
6.990662
  30
0
  11
30.3
  21
6.990662
  31
0
  0
SOLID
  5
155
  330
151
  100
AcDbEntity
  8
SK2
  100
AcDbTrace
  10
0
  20
6.990662
  30
0
  11
2.478612
  21
7.316978
  31
0
  12
2.478612
  22
6.664347
  32
0
  13
2.478612
  23
6.664347
  33
0
  0
SOLID
  5
156
  330
151
  100
AcDbEntity
  8
SK2
  100
AcDbTrace
  10
30.3
  20
6.990662
  30
0
  11
27.821388
  21
6.664347
  31
0
  12
27.821388
  22
7.316978
  32
0
  13
27.821388
  23
7.316978
  33
0
  0
MTEXT
  5
157
  330
151
  100
AcDbEntity
  8
SK2
  100
AcDbMText
  10
15.15
  20
6.990662
  30
0
  11
1
  21
0
  31
0
  40
2
  41
0
  71
8
  72
1
  1
30.3
  0
POINT
  5
158
  330
151
  100
AcDbEntity
  8
SK2
  62
0
  100
AcDbPoint
  10
0
  20
1.3
  30
0
  0
POINT
  5
159
  330
151
  100
AcDbEntity
  8
SK2
  62
0
  100
AcDbPoint
  10
30.3
  20
2
  30
0
  0
POINT
  5
15a
  330
151
  100
AcDbEntity
  8
SK2
  62
0
  100
AcDbPoint
  10
30.3
  20
6.990662
  30
0
  0
ENDBLK
  5
15b
  330
151
  100
AcDbEntity
  8
SK2
  100
AcDbBlockEnd
  0
BLOCK
  5
15d
  330
15f
  100
AcDbEntity
  8
SK2
  100
AcDbBlockBegin
  2
*D15e
  70
1
  10
0
  20
0
  30
0
  3
*D15e
  1

  0
LINE
  5
160
  330
15f
  100
AcDbEntity
  8
SK2
  100
AcDbLine
  10
0.7
  20
-2
  30
0
  11
-12
  21
-2
  31
0
  0
LINE
  5
161
  330
15f
  100
AcDbEntity
  8
SK2
  100
AcDbLine
  10
0.7
  20
2
  30
0
  11
-12
  21
2
  31
0
  0
LINE
  5
162
  330
15f
  100
AcDbEntity
  8
SK2
  100
AcDbLine
  10
-10
  20
-4.158416
  30
0
  11
-10
  21
2
  31
0
  0
SOLID
  5
163
  330
15f
  100
AcDbEntity
  8
SK2
  100
AcDbTrace
  10
-10
  20
-2
  30
0
  11
-10.326315
  21
0.478612
  31
0
  12
-9.673685
  22
0.478612
  32
0
  13
-9.673685
  23
0.478612
  33
0
  0
SOLID
  5
164
  330
15f
  100
AcDbEntity
  8
SK2
  100
AcDbTrace
  10
-10
  20
2
  30
0
  11
-9.673685
  21
-0.478612
  31
0
  12
-10.326315
  22
-0.478612
  32
0
  13
-10.326315
  23
-0.478612
  33
0
  0
MTEXT
  5
165
  330
15f
  100
AcDbEntity
  8
SK2
  100
AcDbMText
  10
-10
  20
0
  30
0
  11
0
  21
1
  31
0
  40
2
  41
0
  71
8
  72
1
  1
ﾘ4
  0
POINT
  5
166
  330
15f
  100
AcDbEntity
  8
SK2
  62
0
  100
AcDbPoint
  10
0.7
  20
-2
  30
0
  0
POINT
  5
167
  330
15f
  100
AcDbEntity
  8
SK2
  62
0
  100
AcDbPoint
  10
0.7
  20
2
  30
0
  0
POINT
  5
168
  330
15f
  100
AcDbEntity
  8
SK2
  62
0
  100
AcDbPoint
  10
-10
  20
2
  30
0
  0
ENDBLK
  5
169
  330
15f
  100
AcDbEntity
  8
SK2
  100
AcDbBlockEnd
  0
BLOCK
  5
16b
  330
16d
  100
AcDbEntity
  8
2
  100
AcDbBlockBegin
  2
*D16c
  70
1
  10
0
  20
0
  30
0
  3
*D16c
  1

  0
LINE
  5
16e
  330
16d
  100
AcDbEntity
  8
2
  100
AcDbLine
  10
45
  20
-0.9
  30
0
  11
57
  21
-0.9
  31
0
  0
LINE
  5
16f
  330
16d
  100
AcDbEntity
  8
2
  100
AcDbLine
  10
45
  20
0.9
  30
0
  11
57
  21
0.9
  31
0
  0
LINE
  5
170
  330
16d
  100
AcDbEntity
  8
2
  100
AcDbLine
  10
55
  20
-6.757426
  30
0
  11
55
  21
0.9
  31
0
  0
SOLID
  5
171
  330
16d
  100
AcDbEntity
  8
2
  100
AcDbTrace
  10
55
  20
-0.9
  30
0
  11
54.673685
  21
1.578612
  31
0
  12
55.326315
  22
1.578612
  32
0
  13
55.326315
  23
1.578612
  33
0
  0
SOLID
  5
172
  330
16d
  100
AcDbEntity
  8
2
  100
AcDbTrace
  10
55
  20
0.9
  30
0
  11
55.326315
  21
-1.578612
  31
0
  12
54.673685
  22
-1.578612
  32
0
  13
54.673685
  23
-1.578612
  33
0
  0
MTEXT
  5
173
  330
16d
  100
AcDbEntity
  8
2
  100
AcDbMText
  10
55
  20
0
  30
0
  11
0
  21
1
  31
0
  40
2
  41
0
  71
8
  72
1
  1
ﾘ1.8
  0
POINT
  5
174
  330
16d
  100
AcDbEntity
  8
2
  62
0
  100
AcDbPoint
  10
45
  20
-0.9
  30
0
  0
POINT
  5
175
  330
16d
  100
AcDbEntity
  8
2
  62
0
  100
AcDbPoint
  10
45
  20
0.9
  30
0
  0
POINT
  5
176
  330
16d
  100
AcDbEntity
  8
2
  62
0
  100
AcDbPoint
  10
55
  20
0.9
  30
0
  0
ENDBLK
  5
177
  330
16d
  100
AcDbEntity
  8
2
  100
AcDbBlockEnd
  0
BLOCK
  5
179
  330
17b
  100
AcDbEntity
  8
2
  100
AcDbBlockBegin
  2
*D17a
  70
1
  10
0
  20
0
  30
0
  3
*D17a
  1

  0
LINE
  5
17c
  330
17b
  100
AcDbEntity
  8
2
  100
AcDbLine
  10
42.3
  20
-0.875
  30
0
  11
40.3
  21
-0.875
  31
0
  0
LINE
  5
17d
  330
17b
  100
AcDbEntity
  8
2
  100
AcDbLine
  10
42.3
  20
0.875
  30
0
  11
40.3
  21
0.875
  31
0
  0
LINE
  5
17e
  330
17b
  100
AcDbEntity
  8
2
  100
AcDbLine
  10
42.3
  20
-0.875
  30
0
  11
42.3
  21
9.356436
  31
0
  0
SOLID
  5
17f
  330
17b
  100
AcDbEntity
  8
2
  100
AcDbTrace
  10
42.3
  20
-0.875
  30
0
  11
41.973685
  21
1.603612
  31
0
  12
42.626315
  22
1.603612
  32
0
  13
42.626315
  23
1.603612
  33
0
  0
SOLID
  5
180
  330
17b
  100
AcDbEntity
  8
2
  100
AcDbTrace
  10
42.3
  20
0.875
  30
0
  11
42.626315
  21
-1.603612
  31
0
  12
41.973685
  22
-1.603612
  32
0
  13
41.973685
  23
-1.603612
  33
0
  0
MTEXT
  5
181
  330
17b
  100
AcDbEntity
  8
2
  100
AcDbMText
  10
42.3
  20
0.875
  30
0
  11
0
  21
1
  31
0
  40
2
  41
0
  71
8
  72
1
  1
ﾘ1.75
  0
POINT
  5
182
  330
17b
  100
AcDbEntity
  8
2
  62
0
  100
AcDbPoint
  10
40.3
  20
-0.875
  30
0
  0
POINT
  5
183
  330
17b
  100
AcDbEntity
  8
2
  62
0
  100
AcDbPoint
  10
40.3
  20
0.875
  30
0
  0
POINT
  5
184
  330
17b
  100
AcDbEntity
  8
2
  62
0
  100
AcDbPoint
  10
42.3
  20
9.356436
  30
0
  0
ENDBLK
  5
185
  330
17b
  100
AcDbEntity
  8
2
  100
AcDbBlockEnd
  0
BLOCK
  5
187
  330
189
  100
AcDbEntity
  8
2
  100
AcDbBlockBegin
  2
*D188
  70
1
  10
0
  20
0
  30
0
  3
*D188
  1

  0
LINE
  5
18a
  330
189
  100
AcDbEntity
  8
2
  100
AcDbLine
  10
42.3
  20
0.875
  30
0
  11
42.3
  21
9
  31
0
  0
LINE
  5
18b
  330
189
  100
AcDbEntity
  8
2
  100
AcDbLine
  10
35.05
  20
0.875
  30
0
  11
35.05
  21
9
  31
0
  0
LINE
  5
18c
  330
189
  100
AcDbEntity
  8
2
  100
AcDbLine
  10
42.3
  20
7
  30
0
  11
35.05
  21
7
  31
0
  0
SOLID
  5
18d
  330
189
  100
AcDbEntity
  8
2
  100
AcDbTrace
  10
42.3
  20
7
  30
0
  11
44.778612
  21
7.326315
  31
0
  12
44.778612
  22
6.673685
  32
0
  13
44.778612
  23
6.673685
  33
0
  0
SOLID
  5
18e
  330
189
  100
AcDbEntity
  8
2
  100
AcDbTrace
  10
35.05
  20
7
  30
0
  11
32.571388
  21
6.673685
  31
0
  12
32.571388
  22
7.326315
  32
0
  13
32.571388
  23
7.326315
  33
0
  0
MTEXT
  5
18f
  330
189
  100
AcDbEntity
  8
2
  100
AcDbMText
  10
38.675
  20
7
  30
0
  11
1
  21
-0
  31
0
  40
2
  41
0
  71
8
  72
1
  1
7.25
  0
POINT
  5
190
  330
189
  100
AcDbEntity
  8
2
  62
0
  100
AcDbPoint
  10
42.3
  20
0.875
  30
0
  0
POINT
  5
191
  330
189
  100
AcDbEntity
  8
2
  62
0
  100
AcDbPoint
  10
35.05
  20
0.875
  30
0
  0
POINT
  5
192
  330
189
  100
AcDbEntity
  8
2
  62
0
  100
AcDbPoint
  10
35.05
  20
7
  30
0
  0
ENDBLK
  5
193
  330
189
  100
AcDbEntity
  8
2
  100
AcDbBlockEnd
  0
BLOCK
  5
195
  330
197
  100
AcDbEntity
  8
2
  100
AcDbBlockBegin
  2
*D196
  70
1
  10
0
  20
0
  30
0
  3
*D196
  1

  0
LINE
  5
198
  330
197
  100
AcDbEntity
  8
2
  100
AcDbLine
  10
45
  20
0.9
  30
0
  11
45
  21
14
  31
0
  0
LINE
  5
199
  330
197
  100
AcDbEntity
  8
2
  100
AcDbLine
  10
30.3
  20
2
  30
0
  11
30.3
  21
9
  31
0
  0
LINE
  5
19a
  330
197
  100
AcDbEntity
  8
2
  100
AcDbLine
  10
45
  20
7
  30
0
  11
30.3
  21
7
  31
0
  0
SOLID
  5
19b
  330
197
  100
AcDbEntity
  8
2
  100
AcDbTrace
  10
45
  20
7
  30
0
  11
47.478612
  21
7.326315
  31
0
  12
47.478612
  22
6.673685
  32
0
  13
47.478612
  23
6.673685
  33
0
  0
SOLID
  5
19c
  330
197
  100
AcDbEntity
  8
2
  100
AcDbTrace
  10
30.3
  20
7
  30
0
  11
27.821388
  21
6.673685
  31
0
  12
27.821388
  22
7.326315
  32
0
  13
27.821388
  23
7.326315
  33
0
  0
MTEXT
  5
19d
  330
197
  100
AcDbEntity
  8
2
  100
AcDbMText
  10
37.65
  20
7
  30
0
  11
1
  21
-0
  31
0
  40
2
  41
0
  71
8
  72
1
  1
14.7
  0
POINT
  5
19e
  330
197
  100
AcDbEntity
  8
2
  62
0
  100
AcDbPoint
  10
45
  20
14
  30
0
  0
POINT
  5
19f
  330
197
  100
AcDbEntity
  8
2
  62
0
  100
AcDbPoint
  10
30.3
  20
2
  30
0
  0
POINT
  5
1a0
  330
197
  100
AcDbEntity
  8
2
  62
0
  100
AcDbPoint
  10
30.3
  20
7
  30
0
  0
ENDBLK
  5
1a1
  330
197
  100
AcDbEntity
  8
2
  100
AcDbBlockEnd
  0
BLOCK
  5
1a3
  330
1a5
  100
AcDbEntity
  8
2
  100
AcDbBlockBegin
  2
*D1a4
  70
1
  10
0
  20
0
  30
0
  3
*D1a4
  1

  0
LINE
  5
1a6
  330
1a5
  100
AcDbEntity
  8
2
  100
AcDbLine
  10
45
  20
-10.291202
  30
0
  11
45
  21
0
  31
0
  0
LINE
  5
1a7
  330
1a5
  100
AcDbEntity
  8
2
  100
AcDbLine
  10
42.3
  20
-10.291202
  30
0
  11
42.3
  21
-0.875
  31
0
  0
LINE
  5
1a8
  330
1a5
  100
AcDbEntity
  8
2
  100
AcDbLine
  10
45
  20
-8.291202
  30
0
  11
39.115099
  21
-8.291202
  31
0
  0
SOLID
  5
1a9
  330
1a5
  100
AcDbEntity
  8
2
  100
AcDbTrace
  10
45
  20
-8.291202
  30
0
  11
47.478612
  21
-7.964887
  31
0
  12
47.478612
  22
-8.617518
  32
0
  13
47.478612
  23
-8.617518
  33
0
  0
SOLID
  5
1aa
  330
1a5
  100
AcDbEntity
  8
2
  100
AcDbTrace
  10
42.3
  20
-8.291202
  30
0
  11
39.821388
  21
-8.617518
  31
0
  12
39.821388
  22
-7.964887
  32
0
  13
39.821388
  23
-7.964887
  33
0
  0
MTEXT
  5
1ab
  330
1a5
  100
AcDbEntity
  8
2
  100
AcDbMText
  10
43.65
  20
-8.291202
  30
0
  11
1
  21
0
  31
0
  40
2
  41
0
  71
8
  72
1
  1
2.7
  0
POINT
  5
1ac
  330
1a5
  100
AcDbEntity
  8
2
  62
0
  100
AcDbPoint
  10
45
  20
0
  30
0
  0
POINT
  5
1ad
  330
1a5
  100
AcDbEntity
  8
2
  62
0
  100
AcDbPoint
  10
42.3
  20
-0.875
  30
0
  0
POINT
  5
1ae
  330
1a5
  100
AcDbEntity
  8
2
  62
0
  100
AcDbPoint
  10
39.115099
  20
-8.291202
  30
0
  0
ENDBLK
  5
1af
  330
1a5
  100
AcDbEntity
  8
2
  100
AcDbBlockEnd
  0
ENDSEC
  0
SECTION
  2
ENTITIES
  0
DIMENSION
  5
14e
  100
AcDbEntity
  8
SK2
  100
AcDbDimension
  2
*D142
  10
45
  20
12
  30
0
  11
37.397052
  21
12
  31
0
  70
160
  1
<>
  71
5
  3
STANDARD
  42
45
  100
AcDbAlignedDimension
  13
0
  23
1.3
  33
0
  14
45
  24
0.9
  34
0
  50
0
  100
AcDbRotatedDimension
  0
DIMENSION
  5
15c
  100
AcDbEntity
  8
SK2
  100
AcDbDimension
  2
*D150
  10
30.3
  20
6.990662
  30
0
  11
15.15
  21
6.990662
  31
0
  70
160
  1
<>
  71
5
  3
STANDARD
  42
30.3
  100
AcDbAlignedDimension
  13
0
  23
1.3
  33
0
  14
30.3
  24
2
  34
0
  50
0
  100
AcDbRotatedDimension
  0
DIMENSION
  5
16a
  100
AcDbEntity
  8
SK2
  100
AcDbDimension
  2
*D15e
  10
-10
  20
2
  30
0
  11
-10
  21
0
  31
0
  70
160
  1
%%c<>
  71
5
  3
STANDARD
  42
4
  100
AcDbAlignedDimension
  13
0.7
  23
-2
  33
0
  14
0.7
  24
2
  34
0
  50
-90
  100
AcDbRotatedDimension
  0
DIMENSION
  5
178
  100
AcDbEntity
  8
2
  100
AcDbDimension
  2
*D16c
  10
55
  20
0.9
  30
0
  11
55
  21
0
  31
0
  70
160
  1
%%c<>
  71
5
  3
STANDARD
  42
1.8
  100
AcDbAlignedDimension
  13
45
  23
-0.9
  33
0
  14
45
  24
0.9
  34
0
  50
-90
  100
AcDbRotatedDimension
  0
DIMENSION
  5
186
  100
AcDbEntity
  8
2
  100
AcDbDimension
  2
*D17a
  10
42.3
  20
9.356436
  30
0
  11
42.3
  21
0.875
  31
0
  70
160
  1
%%c<>
  71
5
  3
STANDARD
  42
1.75
  100
AcDbAlignedDimension
  13
40.3
  23
-0.875
  33
0
  14
40.3
  24
0.875
  34
0
  50
-90
  100
AcDbRotatedDimension
  0
DIMENSION
  5
194
  100
AcDbEntity
  8
2
  100
AcDbDimension
  2
*D188
  10
35.05
  20
7
  30
0
  11
38.675
  21
7
  31
0
  70
160
  1
<>
  71
5
  3
STANDARD
  42
7.25
  100
AcDbAlignedDimension
  13
42.3
  23
0.875
  33
0
  14
35.05
  24
0.875
  34
0
  50
0
  100
AcDbRotatedDimension
  0
DIMENSION
  5
1a2
  100
AcDbEntity
  8
2
  100
AcDbDimension
  2
*D196
  10
30.3
  20
7
  30
0
  11
37.65
  21
7
  31
0
  70
160
  1
<>
  71
5
  3
STANDARD
  42
14.7
  100
AcDbAlignedDimension
  13
45
  23
14
  33
0
  14
30.3
  24
2
  34
0
  50
0
  100
AcDbRotatedDimension
  0
DIMENSION
  5
1b0
  100
AcDbEntity
  8
2
  100
AcDbDimension
  2
*D1a4
  10
39.115099
  20
-8.291202
  30
0
  11
43.65
  21
-8.291202
  31
0
  70
160
  1
<>
  71
5
  3
STANDARD
  42
2.7
  100
AcDbAlignedDimension
  13
45
  23
0
  33
0
  14
42.3
  24
-0.875
  34
0
  50
0
  100
AcDbRotatedDimension
  0
ARC
  5
36
  100
AcDbEntity
  8
1
  100
AcDbCircle
  10
35.921557
  20
-10.836947
  30
0
  40
10
  100
AcDbArc
  50
95
  51
105
  0
LINE
  5
37
  100
AcDbEntity
  8
1
  100
AcDbLine
  10
35.05
  20
-0.875
  30
0
  11
42.3
  21
-0.875
  31
0
  0
LINE
  5
38
  100
AcDbEntity
  8
1
  100
AcDbLine
  10
42.3
  20
-0.875
  30
0
  11
42.3
  21
-0.9
  31
0
  0
LINE
  5
39
  100
AcDbEntity
  8
1
  100
AcDbLine
  10
42.3
  20
-0.9
  30
0
  11
45
  21
-0.9
  31
0
  0
LINE
  5
3a
  100
AcDbEntity
  8
1
  100
AcDbLine
  10
45
  20
-0.9
  30
0
  11
45
  21
0.9
  31
0
  0
LINE
  5
3b
  100
AcDbEntity
  8
1
  100
AcDbLine
  10
45
  20
0.278115
  30
0
  11
44.9
  21
0.332415
  31
0
  0
LINE
  5
3c
  100
AcDbEntity
  8
1
  100
AcDbLine
  10
44.9
  20
0.332415
  30
0
  11
44.8
  21
0.385347
  31
0
  0
LINE
  5
3d
  100
AcDbEntity
  8
1
  100
AcDbLine
  10
44.8
  20
0.385347
  30
0
  11
44.7
  21
0.436694
  31
0
  0
LINE
  5
3e
  100
AcDbEntity
  8
1
  100
AcDbLine
  10
44.7
  20
0.436694
  30
0
  11
44.6
  21
0.486244
  31
0
  0
LINE
  5
3f
  100
AcDbEntity
  8
1
  100
AcDbLine
  10
44.6
  20
0.486244
  30
0
  11
44.5
  21
0.533794
  31
0
  0
LINE
  5
40
  100
AcDbEntity
  8
1
  100
AcDbLine
  10
44.5
  20
0.533794
  30
0
  11
44.4
  21
0.579148
  31
0
  0
LINE
  5
41
  100
AcDbEntity
  8
1
  100
AcDbLine
  10
44.4
  20
0.579148
  30
0
  11
44.3
  21
0.62212
  31
0
  0
LINE
  5
42
  100
AcDbEntity
  8
1
  100
AcDbLine
  10
44.3
  20
0.62212
  30
0
  11
44.2
  21
0.662532
  31
0
  0
LINE
  5
43
  100
AcDbEntity
  8
1
  100
AcDbLine
  10
44.2
  20
0.662532
  30
0
  11
44.1
  21
0.700219
  31
0
  0
LINE
  5
44
  100
AcDbEntity
  8
1
  100
AcDbLine
  10
44.1
  20
0.700219
  30
0
  11
44
  21
0.735025
  31
0
  0
LINE
  5
45
  100
AcDbEntity
  8
1
  100
AcDbLine
  10
44
  20
0.735025
  30
0
  11
43.9
  21
0.766808
  31
0
  0
LINE
  5
46
  100
AcDbEntity
  8
1
  100
AcDbLine
  10
43.9
  20
0.766808
  30
0
  11
43.8
  21
0.795435
  31
0
  0
LINE
  5
47
  100
AcDbEntity
  8
1
  100
AcDbLine
  10
43.8
  20
0.795435
  30
0
  11
43.7
  21
0.820791
  31
0
  0
LINE
  5
48
  100
AcDbEntity
  8
1
  100
AcDbLine
  10
43.7
  20
0.820791
  30
0
  11
43.6
  21
0.84277
  31
0
  0
LINE
  5
49
  100
AcDbEntity
  8
1
  100
AcDbLine
  10
43.6
  20
0.84277
  30
0
  11
43.5
  21
0.861282
  31
0
  0
LINE
  5
4a
  100
AcDbEntity
  8
1
  100
AcDbLine
  10
43.5
  20
0.861282
  30
0
  11
43.4
  21
0.876251
  31
0
  0
LINE
  5
4b
  100
AcDbEntity
  8
1
  100
AcDbLine
  10
43.4
  20
0.876251
  30
0
  11
43.3
  21
0.887615
  31
0
  0
LINE
  5
4c
  100
AcDbEntity
  8
1
  100
AcDbLine
  10
43.3
  20
0.887615
  30
0
  11
43.2
  21
0.895328
  31
0
  0
LINE
  5
4d
  100
AcDbEntity
  8
1
  100
AcDbLine
  10
43.2
  20
0.895328
  30
0
  11
43.1
  21
0.899358
  31
0
  0
LINE
  5
4e
  100
AcDbEntity
  8
1
  100
AcDbLine
  10
43.1
  20
0.899358
  30
0
  11
43.0411
  21
0.9
  31
0
  0
LINE
  5
4f
  100
AcDbEntity
  8
1
  100
AcDbLine
  10
42
  20
0.875
  30
0
  11
42
  21
0.752327
  31
0
  0
LINE
  5
50
  100
AcDbEntity
  8
1
  100
AcDbLine
  10
42
  20
0.752327
  30
0
  11
42.1
  21
0.520523
  31
0
  0
LINE
  5
51
  100
AcDbEntity
  8
1
  100
AcDbLine
  10
42.1
  20
0.520523
  30
0
  11
42.2
  21
0.450894
  31
0
  0
LINE
  5
52
  100
AcDbEntity
  8
1
  100
AcDbLine
  10
42.2
  20
0.450894
  30
0
  11
42.3
  21
0.401504
  31
0
  0
LINE
  5
53
  100
AcDbEntity
  8
1
  100
AcDbLine
  10
42.3
  20
0.401504
  30
0
  11
42.3
  21
0.411936
  31
0
  0
LINE
  5
54
  100
AcDbEntity
  8
1
  100
AcDbLine
  10
42.3
  20
0.411936
  30
0
  11
42.4
  21
0.359791
  31
0
  0
LINE
  5
55
  100
AcDbEntity
  8
1
  100
AcDbLine
  10
42.4
  20
0.359791
  30
0
  11
42.5
  21
0.306167
  31
0
  0
LINE
  5
56
  100
AcDbEntity
  8
1
  100
AcDbLine
  10
42.5
  20
0.306167
  30
0
  11
42.6
  21
0.251282
  31
0
  0
LINE
  5
57
  100
AcDbEntity
  8
1
  100
AcDbLine
  10
42.6
  20
0.251282
  30
0
  11
42.7
  21
0.195365
  31
0
  0
LINE
  5
58
  100
AcDbEntity
  8
1
  100
AcDbLine
  10
42.7
  20
0.195365
  30
0
  11
42.8
  21
0.138643
  31
0
  0
LINE
  5
59
  100
AcDbEntity
  8
1
  100
AcDbLine
  10
42.8
  20
0.138643
  30
0
  11
42.9
  21
0.081351
  31
0
  0
LINE
  5
5a
  100
AcDbEntity
  8
1
  100
AcDbLine
  10
42.9
  20
0.081351
  30
0
  11
43
  21
0.023724
  31
0
  0
LINE
  5
5b
  100
AcDbEntity
  8
1
  100
AcDbLine
  10
43
  20
0.023724
  30
0
  11
43.1
  21
-0.034
  31
0
  0
LINE
  5
5c
  100
AcDbEntity
  8
1
  100
AcDbLine
  10
43.1
  20
-0.034
  30
0
  11
43.2
  21
-0.091584
  31
0
  0
LINE
  5
5d
  100
AcDbEntity
  8
1
  100
AcDbLine
  10
43.2
  20
-0.091584
  30
0
  11
43.3
  21
-0.148792
  31
0
  0
LINE
  5
5e
  100
AcDbEntity
  8
1
  100
AcDbLine
  10
43.3
  20
-0.148792
  30
0
  11
43.4
  21
-0.205387
  31
0
  0
LINE
  5
5f
  100
AcDbEntity
  8
1
  100
AcDbLine
  10
43.4
  20
-0.205387
  30
0
  11
43.5
  21
-0.261138
  31
0
  0
LINE
  5
60
  100
AcDbEntity
  8
1
  100
AcDbLine
  10
43.5
  20
-0.261138
  30
0
  11
43.6
  21
-0.315814
  31
0
  0
LINE
  5
61
  100
AcDbEntity
  8
1
  100
AcDbLine
  10
43.6
  20
-0.315814
  30
0
  11
43.7
  21
-0.369191
  31
0
  0
LINE
  5
62
  100
AcDbEntity
  8
1
  100
AcDbLine
  10
43.7
  20
-0.369191
  30
0
  11
43.8
  21
-0.421049
  31
0
  0
LINE
  5
63
  100
AcDbEntity
  8
1
  100
AcDbLine
  10
43.8
  20
-0.421049
  30
0
  11
43.9
  21
-0.471175
  31
0
  0
LINE
  5
64
  100
AcDbEntity
  8
1
  100
AcDbLine
  10
43.9
  20
-0.471175
  30
0
  11
44
  21
-0.519363
  31
0
  0
LINE
  5
65
  100
AcDbEntity
  8
1
  100
AcDbLine
  10
44
  20
-0.519363
  30
0
  11
44.1
  21
-0.565414
  31
0
  0
LINE
  5
66
  100
AcDbEntity
  8
1
  100
AcDbLine
  10
44.1
  20
-0.565414
  30
0
  11
44.2
  21
-0.60914
  31
0
  0
LINE
  5
67
  100
AcDbEntity
  8
1
  100
AcDbLine
  10
44.2
  20
-0.60914
  30
0
  11
44.3
  21
-0.650359
  31
0
  0
LINE
  5
68
  100
AcDbEntity
  8
1
  100
AcDbLine
  10
44.3
  20
-0.650359
  30
0
  11
44.4
  21
-0.688903
  31
0
  0
LINE
  5
69
  100
AcDbEntity
  8
1
  100
AcDbLine
  10
44.4
  20
-0.688903
  30
0
  11
44.5
  21
-0.724613
  31
0
  0
LINE
  5
6a
  100
AcDbEntity
  8
1
  100
AcDbLine
  10
44.5
  20
-0.724613
  30
0
  11
44.6
  21
-0.757342
  31
0
  0
LINE
  5
6b
  100
AcDbEntity
  8
1
  100
AcDbLine
  10
44.6
  20
-0.757342
  30
0
  11
44.7
  21
-0.786955
  31
0
  0
LINE
  5
6c
  100
AcDbEntity
  8
1
  100
AcDbLine
  10
44.7
  20
-0.786955
  30
0
  11
44.8
  21
-0.813331
  31
0
  0
LINE
  5
6d
  100
AcDbEntity
  8
1
  100
AcDbLine
  10
44.8
  20
-0.813331
  30
0
  11
44.9
  21
-0.836361
  31
0
  0
LINE
  5
6e
  100
AcDbEntity
  8
1
  100
AcDbLine
  10
44.9
  20
-0.836361
  30
0
  11
45
  21
-0.855951
  31
0
  0
LINE
  5
6f
  100
AcDbEntity
  8
1
  100
AcDbLine
  10
45
  20
-0.884372
  30
0
  11
44.9
  21
-0.876871
  31
0
  0
LINE
  5
70
  100
AcDbEntity
  8
1
  100
AcDbLine
  10
44.9
  20
-0.876871
  30
0
  11
44.8
  21
-0.865762
  31
0
  0
LINE
  5
71
  100
AcDbEntity
  8
1
  100
AcDbLine
  10
44.8
  20
-0.865762
  30
0
  11
44.7
  21
-0.851093
  31
0
  0
LINE
  5
72
  100
AcDbEntity
  8
1
  100
AcDbLine
  10
44.7
  20
-0.851093
  30
0
  11
44.6
  21
-0.832922
  31
0
  0
LINE
  5
73
  100
AcDbEntity
  8
1
  100
AcDbLine
  10
44.6
  20
-0.832922
  30
0
  11
44.5
  21
-0.811324
  31
0
  0
LINE
  5
74
  100
AcDbEntity
  8
1
  100
AcDbLine
  10
44.5
  20
-0.811324
  30
0
  11
44.4
  21
-0.786389
  31
0
  0
LINE
  5
75
  100
AcDbEntity
  8
1
  100
AcDbLine
  10
44.4
  20
-0.786389
  30
0
  11
44.3
  21
-0.758219
  31
0
  0
LINE
  5
76
  100
AcDbEntity
  8
1
  100
AcDbLine
  10
44.3
  20
-0.758219
  30
0
  11
44.2
  21
-0.726929
  31
0
  0
LINE
  5
77
  100
AcDbEntity
  8
1
  100
AcDbLine
  10
44.2
  20
-0.726929
  30
0
  11
44.1
  21
-0.692649
  31
0
  0
LINE
  5
78
  100
AcDbEntity
  8
1
  100
AcDbLine
  10
44.1
  20
-0.692649
  30
0
  11
44
  21
-0.65552
  31
0
  0
LINE
  5
79
  100
AcDbEntity
  8
1
  100
AcDbLine
  10
44
  20
-0.65552
  30
0
  11
43.9
  21
-0.615694
  31
0
  0
LINE
  5
7a
  100
AcDbEntity
  8
1
  100
AcDbLine
  10
43.9
  20
-0.615694
  30
0
  11
43.8
  21
-0.573335
  31
0
  0
LINE
  5
7b
  100
AcDbEntity
  8
1
  100
AcDbLine
  10
43.8
  20
-0.573335
  30
0
  11
43.7
  21
-0.528618
  31
0
  0
LINE
  5
7c
  100
AcDbEntity
  8
1
  100
AcDbLine
  10
43.7
  20
-0.528618
  30
0
  11
43.6
  21
-0.481726
  31
0
  0
LINE
  5
7d
  100
AcDbEntity
  8
1
  100
AcDbLine
  10
43.6
  20
-0.481726
  30
0
  11
43.5
  21
-0.432852
  31
0
  0
LINE
  5
7e
  100
AcDbEntity
  8
1
  100
AcDbLine
  10
43.5
  20
-0.432852
  30
0
  11
43.4
  21
-0.382197
  31
0
  0
LINE
  5
7f
  100
AcDbEntity
  8
1
  100
AcDbLine
  10
43.4
  20
-0.382197
  30
0
  11
43.3
  21
-0.329971
  31
0
  0
LINE
  5
80
  100
AcDbEntity
  8
1
  100
AcDbLine
  10
43.3
  20
-0.329971
  30
0
  11
43.2
  21
-0.276386
  31
0
  0
LINE
  5
81
  100
AcDbEntity
  8
1
  100
AcDbLine
  10
43.2
  20
-0.276386
  30
0
  11
43.1
  21
-0.221665
  31
0
  0
LINE
  5
82
  100
AcDbEntity
  8
1
  100
AcDbLine
  10
43.1
  20
-0.221665
  30
0
  11
43
  21
-0.166032
  31
0
  0
LINE
  5
83
  100
AcDbEntity
  8
1
  100
AcDbLine
  10
43
  20
-0.166032
  30
0
  11
42.9
  21
-0.109716
  31
0
  0
LINE
  5
84
  100
AcDbEntity
  8
1
  100
AcDbLine
  10
42.9
  20
-0.109716
  30
0
  11
42.8
  21
-0.052948
  31
0
  0
LINE
  5
85
  100
AcDbEntity
  8
1
  100
AcDbLine
  10
42.8
  20
-0.052948
  30
0
  11
42.7
  21
0.004037
  31
0
  0
LINE
  5
86
  100
AcDbEntity
  8
1
  100
AcDbLine
  10
42.7
  20
0.004037
  30
0
  11
42.6
  21
0.061006
  31
0
  0
LINE
  5
87
  100
AcDbEntity
  8
1
  100
AcDbLine
  10
42.6
  20
0.061006
  30
0
  11
42.5
  21
0.117723
  31
0
  0
LINE
  5
88
  100
AcDbEntity
  8
1
  100
AcDbLine
  10
42.5
  20
0.117723
  30
0
  11
42.4
  21
0.173957
  31
0
  0
LINE
  5
89
  100
AcDbEntity
  8
1
  100
AcDbLine
  10
42
  20
-0.875
  30
0
  11
42
  21
-0.850237
  31
0
  0
LINE
  5
8a
  100
AcDbEntity
  8
1
  100
AcDbLine
  10
42
  20
-0.850237
  30
0
  11
42.1
  21
-0.837797
  31
0
  0
LINE
  5
8b
  100
AcDbEntity
  8
1
  100
AcDbLine
  10
42.1
  20
-0.837797
  30
0
  11
42.2
  21
-0.852073
  31
0
  0
LINE
  5
8c
  100
AcDbEntity
  8
1
  100
AcDbLine
  10
42.2
  20
-0.852073
  30
0
  11
42.3
  21
-0.863077
  31
0
  0
LINE
  5
8d
  100
AcDbEntity
  8
1
  100
AcDbLine
  10
42.3
  20
-0.863077
  30
0
  11
42.3
  21
-0.888324
  31
0
  0
LINE
  5
8e
  100
AcDbEntity
  8
1
  100
AcDbLine
  10
42.3
  20
-0.888324
  30
0
  11
42.4
  21
-0.89576
  31
0
  0
LINE
  5
8f
  100
AcDbEntity
  8
1
  100
AcDbLine
  10
42.4
  20
-0.89576
  30
0
  11
42.5
  21
-0.899511
  31
0
  0
LINE
  5
90
  100
AcDbEntity
  8
1
  100
AcDbLine
  10
42.5
  20
-0.899511
  30
0
  11
42.55137
  21
-0.9
  31
0
  0
LINE
  5
91
  100
AcDbEntity
  8
1
  100
AcDbLine
  10
42.3
  20
-0.9
  30
0
  11
42.3
  21
0.9
  31
0
  0
LINE
  5
92
  100
AcDbEntity
  8
1
  100
AcDbLine
  10
42.3
  20
0.875
  30
0
  11
42.3
  21
-0.875
  31
0
  0
LINE
  5
93
  100
AcDbEntity
  8
1
  100
AcDbLine
  10
42.4
  20
-0.871612
  30
0
  11
42.5
  21
-0.880971
  31
0
  0
LINE
  5
94
  100
AcDbEntity
  8
1
  100
AcDbLine
  10
42.5
  20
-0.880971
  30
0
  11
42.6
  21
-0.886706
  31
0
  0
LINE
  5
95
  100
AcDbEntity
  8
1
  100
AcDbLine
  10
42.6
  20
-0.886706
  30
0
  11
42.7
  21
-0.888793
  31
0
  0
LINE
  5
96
  100
AcDbEntity
  8
1
  100
AcDbLine
  10
42.7
  20
-0.888793
  30
0
  11
42.707084
  21
-0.9
  31
0
  0
LINE
  5
97
  100
AcDbEntity
  8
1
  100
AcDbLine
  10
43.0411
  20
-0.9
  30
0
  11
43
  21
-0.899687
  31
0
  0
LINE
  5
98
  100
AcDbEntity
  8
1
  100
AcDbLine
  10
43
  20
-0.899687
  30
0
  11
42.9
  21
-0.896316
  31
0
  0
LINE
  5
99
  100
AcDbEntity
  8
1
  100
AcDbLine
  10
42.9
  20
-0.896316
  30
0
  11
42.8
  21
-0.889257
  31
0
  0
LINE
  5
9a
  100
AcDbEntity
  8
1
  100
AcDbLine
  10
42.8
  20
-0.889257
  30
0
  11
42.7
  21
-0.87854
  31
0
  0
LINE
  5
9b
  100
AcDbEntity
  8
1
  100
AcDbLine
  10
42.7
  20
-0.87854
  30
0
  11
42.6
  21
-0.864209
  31
0
  0
LINE
  5
9c
  100
AcDbEntity
  8
1
  100
AcDbLine
  10
42.6
  20
-0.864209
  30
0
  11
42.5
  21
-0.846323
  31
0
  0
LINE
  5
9d
  100
AcDbEntity
  8
1
  100
AcDbLine
  10
42.5
  20
-0.846323
  30
0
  11
42.4
  21
-0.824955
  31
0
  0
LINE
  5
9e
  100
AcDbEntity
  8
1
  100
AcDbLine
  10
42.4
  20
-0.824955
  30
0
  11
42.3
  21
-0.800193
  31
0
  0
LINE
  5
9f
  100
AcDbEntity
  8
1
  100
AcDbLine
  10
42.3
  20
-0.800193
  30
0
  11
42.3
  21
-0.777444
  31
0
  0
LINE
  5
a0
  100
AcDbEntity
  8
1
  100
AcDbLine
  10
42.3
  20
-0.777444
  30
0
  11
42.2
  21
-0.74988
  31
0
  0
LINE
  5
a1
  100
AcDbEntity
  8
1
  100
AcDbLine
  10
42.2
  20
-0.74988
  30
0
  11
42.1
  21
-0.703335
  31
0
  0
LINE
  5
a2
  100
AcDbEntity
  8
1
  100
AcDbLine
  10
42.1
  20
-0.703335
  30
0
  11
42
  21
-0.446798
  31
0
  0
LINE
  5
a3
  100
AcDbEntity
  8
1
  100
AcDbLine
  10
42
  20
-0.446798
  30
0
  11
42
  21
0.206693
  31
0
  0
LINE
  5
a4
  100
AcDbEntity
  8
1
  100
AcDbLine
  10
42
  20
0.206693
  30
0
  11
42.1
  21
0.252431
  31
0
  0
LINE
  5
a5
  100
AcDbEntity
  8
1
  100
AcDbLine
  10
42.1
  20
0.252431
  30
0
  11
42.2
  21
0.198987
  31
0
  0
LINE
  5
a6
  100
AcDbEntity
  8
1
  100
AcDbLine
  10
42.2
  20
0.198987
  30
0
  11
42.3
  21
0.143955
  31
0
  0
LINE
  5
a7
  100
AcDbEntity
  8
1
  100
AcDbLine
  10
42.3
  20
0.143955
  30
0
  11
42.3
  21
0.144501
  31
0
  0
LINE
  5
a8
  100
AcDbEntity
  8
1
  100
AcDbLine
  10
42.3
  20
0.144501
  30
0
  11
42.4
  21
0.087257
  31
0
  0
LINE
  5
a9
  100
AcDbEntity
  8
1
  100
AcDbLine
  10
42.4
  20
0.087257
  30
0
  11
42.5
  21
0.029654
  31
0
  0
LINE
  5
aa
  100
AcDbEntity
  8
1
  100
AcDbLine
  10
42.5
  20
0.029654
  30
0
  11
42.6
  21
-0.028071
  31
0
  0
LINE
  5
ab
  100
AcDbEntity
  8
1
  100
AcDbLine
  10
42.6
  20
-0.028071
  30
0
  11
42.7
  21
-0.085681
  31
0
  0
LINE
  5
ac
  100
AcDbEntity
  8
1
  100
AcDbLine
  10
42.7
  20
-0.085681
  30
0
  11
42.8
  21
-0.142938
  31
0
  0
LINE
  5
ad
  100
AcDbEntity
  8
1
  100
AcDbLine
  10
42.8
  20
-0.142938
  30
0
  11
42.9
  21
-0.199607
  31
0
  0
LINE
  5
ae
  100
AcDbEntity
  8
1
  100
AcDbLine
  10
42.9
  20
-0.199607
  30
0
  11
43
  21
-0.255455
  31
0
  0
LINE
  5
af
  100
AcDbEntity
  8
1
  100
AcDbLine
  10
43
  20
-0.255455
  30
0
  11
43.1
  21
-0.310252
  31
0
  0
LINE
  5
b0
  100
AcDbEntity
  8
1
  100
AcDbLine
  10
43.1
  20
-0.310252
  30
0
  11
43.2
  21
-0.363773
  31
0
  0
LINE
  5
b1
  100
AcDbEntity
  8
1
  100
AcDbLine
  10
43.2
  20
-0.363773
  30
0
  11
43.3
  21
-0.415797
  31
0
  0
LINE
  5
b2
  100
AcDbEntity
  8
1
  100
AcDbLine
  10
43.3
  20
-0.415797
  30
0
  11
43.4
  21
-0.466111
  31
0
  0
LINE
  5
b3
  100
AcDbEntity
  8
1
  100
AcDbLine
  10
43.4
  20
-0.466111
  30
0
  11
43.5
  21
-0.514507
  31
0
  0
LINE
  5
b4
  100
AcDbEntity
  8
1
  100
AcDbLine
  10
43.5
  20
-0.514507
  30
0
  11
43.6
  21
-0.560787
  31
0
  0
LINE
  5
b5
  100
AcDbEntity
  8
1
  100
AcDbLine
  10
43.6
  20
-0.560787
  30
0
  11
43.7
  21
-0.60476
  31
0
  0
LINE
  5
b6
  100
AcDbEntity
  8
1
  100
AcDbLine
  10
43.7
  20
-0.60476
  30
0
  11
43.8
  21
-0.646245
  31
0
  0
LINE
  5
b7
  100
AcDbEntity
  8
1
  100
AcDbLine
  10
43.8
  20
-0.646245
  30
0
  11
43.9
  21
-0.685071
  31
0
  0
LINE
  5
b8
  100
AcDbEntity
  8
1
  100
AcDbLine
  10
43.9
  20
-0.685071
  30
0
  11
44
  21
-0.721079
  31
0
  0
LINE
  5
b9
  100
AcDbEntity
  8
1
  100
AcDbLine
  10
44
  20
-0.721079
  30
0
  11
44.1
  21
-0.754121
  31
0
  0
LINE
  5
ba
  100
AcDbEntity
  8
1
  100
AcDbLine
  10
44.1
  20
-0.754121
  30
0
  11
44.2
  21
-0.78406
  31
0
  0
LINE
  5
bb
  100
AcDbEntity
  8
1
  100
AcDbLine
  10
44.2
  20
-0.78406
  30
0
  11
44.3
  21
-0.810774
  31
0
  0
LINE
  5
bc
  100
AcDbEntity
  8
1
  100
AcDbLine
  10
44.3
  20
-0.810774
  30
0
  11
44.4
  21
-0.834152
  31
0
  0
LINE
  5
bd
  100
AcDbEntity
  8
1
  100
AcDbLine
  10
44.4
  20
-0.834152
  30
0
  11
44.5
  21
-0.854099
  31
0
  0
LINE
  5
be
  100
AcDbEntity
  8
1
  100
AcDbLine
  10
44.5
  20
-0.854099
  30
0
  11
44.6
  21
-0.870533
  31
0
  0
LINE
  5
bf
  100
AcDbEntity
  8
1
  100
AcDbLine
  10
44.6
  20
-0.870533
  30
0
  11
44.7
  21
-0.883385
  31
0
  0
LINE
  5
c0
  100
AcDbEntity
  8
1
  100
AcDbLine
  10
44.7
  20
-0.883385
  30
0
  11
44.8
  21
-0.892603
  31
0
  0
LINE
  5
c1
  100
AcDbEntity
  8
1
  100
AcDbLine
  10
44.8
  20
-0.892603
  30
0
  11
44.9
  21
-0.898149
  31
0
  0
LINE
  5
c2
  100
AcDbEntity
  8
1
  100
AcDbLine
  10
44.9
  20
-0.898149
  30
0
  11
45
  21
-0.9
  31
0
  0
LINE
  5
c3
  100
AcDbEntity
  8
1
  100
AcDbLine
  10
45
  20
-0.9
  30
0
  11
45
  21
0
  31
0
  0
LINE
  5
c4
  100
AcDbEntity
  8
1
  100
AcDbLine
  10
45
  20
0.088633
  30
0
  11
44.9
  21
0.145144
  31
0
  0
LINE
  5
c5
  100
AcDbEntity
  8
1
  100
AcDbLine
  10
44.9
  20
0.145144
  30
0
  11
44.8
  21
0.201058
  31
0
  0
LINE
  5
c6
  100
AcDbEntity
  8
1
  100
AcDbLine
  10
44.8
  20
0.201058
  30
0
  11
44.7
  21
0.256145
  31
0
  0
LINE
  5
c7
  100
AcDbEntity
  8
1
  100
AcDbLine
  10
44.7
  20
0.256145
  30
0
  11
44.6
  21
0.310178
  31
0
  0
LINE
  5
c8
  100
AcDbEntity
  8
1
  100
AcDbLine
  10
44.6
  20
0.310178
  30
0
  11
44.5
  21
0.362936
  31
0
  0
LINE
  5
c9
  100
AcDbEntity
  8
1
  100
AcDbLine
  10
44.5
  20
0.362936
  30
0
  11
44.4
  21
0.4142
  31
0
  0
LINE
  5
ca
  100
AcDbEntity
  8
1
  100
AcDbLine
  10
44.4
  20
0.4142
  30
0
  11
44.3
  21
0.46376
  31
0
  0
LINE
  5
cb
  100
AcDbEntity
  8
1
  100
AcDbLine
  10
44.3
  20
0.46376
  30
0
  11
44.2
  21
0.511413
  31
0
  0
LINE
  5
cc
  100
AcDbEntity
  8
1
  100
AcDbLine
  10
44.2
  20
0.511413
  30
0
  11
44.1
  21
0.556961
  31
0
  0
LINE
  5
cd
  100
AcDbEntity
  8
1
  100
AcDbLine
  10
44.1
  20
0.556961
  30
0
  11
44
  21
0.600219
  31
0
  0
LINE
  5
ce
  100
AcDbEntity
  8
1
  100
AcDbLine
  10
44
  20
0.600219
  30
0
  11
43.9
  21
0.641007
  31
0
  0
LINE
  5
cf
  100
AcDbEntity
  8
1
  100
AcDbLine
  10
43.9
  20
0.641007
  30
0
  11
43.8
  21
0.679158
  31
0
  0
LINE
  5
d0
  100
AcDbEntity
  8
1
  100
AcDbLine
  10
43.8
  20
0.679158
  30
0
  11
43.7
  21
0.714515
  31
0
  0
LINE
  5
d1
  100
AcDbEntity
  8
1
  100
AcDbLine
  10
43.7
  20
0.714515
  30
0
  11
43.6
  21
0.746933
  31
0
  0
LINE
  5
d2
  100
AcDbEntity
  8
1
  100
AcDbLine
  10
43.6
  20
0.746933
  30
0
  11
43.5
  21
0.776279
  31
0
  0
LINE
  5
d3
  100
AcDbEntity
  8
1
  100
AcDbLine
  10
43.5
  20
0.776279
  30
0
  11
43.4
  21
0.80243
  31
0
  0
LINE
  5
d4
  100
AcDbEntity
  8
1
  100
AcDbLine
  10
43.4
  20
0.80243
  30
0
  11
43.3
  21
0.825281
  31
0
  0
LINE
  5
d5
  100
AcDbEntity
  8
1
  100
AcDbLine
  10
43.3
  20
0.825281
  30
0
  11
43.2
  21
0.844736
  31
0
  0
LINE
  5
d6
  100
AcDbEntity
  8
1
  100
AcDbLine
  10
43.2
  20
0.844736
  30
0
  11
43.1
  21
0.860717
  31
0
  0
LINE
  5
d7
  100
AcDbEntity
  8
1
  100
AcDbLine
  10
43.1
  20
0.860717
  30
0
  11
43
  21
0.873157
  31
0
  0
LINE
  5
d8
  100
AcDbEntity
  8
1
  100
AcDbLine
  10
43
  20
0.873157
  30
0
  11
42.9
  21
0.882004
  31
0
  0
LINE
  5
d9
  100
AcDbEntity
  8
1
  100
AcDbLine
  10
42.9
  20
0.882004
  30
0
  11
42.8
  21
0.887223
  31
0
  0
LINE
  5
da
  100
AcDbEntity
  8
1
  100
AcDbLine
  10
42.8
  20
0.887223
  30
0
  11
42.707084
  21
0.9
  31
0
  0
LINE
  5
db
  100
AcDbEntity
  8
1
  100
AcDbLine
  10
42.55137
  20
0.9
  30
0
  11
42.6
  21
0.899562
  31
0
  0
LINE
  5
dc
  100
AcDbEntity
  8
1
  100
AcDbLine
  10
42.6
  20
0.899562
  30
0
  11
42.7
  21
0.895912
  31
0
  0
LINE
  5
dd
  100
AcDbEntity
  8
1
  100
AcDbLine
  10
42.7
  20
0.895912
  30
0
  11
42.8
  21
0.888577
  31
0
  0
LINE
  5
de
  100
AcDbEntity
  8
1
  100
AcDbLine
  10
42.8
  20
0.888577
  30
0
  11
42.9
  21
0.877586
  31
0
  0
LINE
  5
df
  100
AcDbEntity
  8
1
  100
AcDbLine
  10
42.9
  20
0.877586
  30
0
  11
43
  21
0.862985
  31
0
  0
LINE
  5
e0
  100
AcDbEntity
  8
1
  100
AcDbLine
  10
43
  20
0.862985
  30
0
  11
43.1
  21
0.844833
  31
0
  0
LINE
  5
e1
  100
AcDbEntity
  8
1
  100
AcDbLine
  10
43.1
  20
0.844833
  30
0
  11
43.2
  21
0.823207
  31
0
  0
LINE
  5
e2
  100
AcDbEntity
  8
1
  100
AcDbLine
  10
43.2
  20
0.823207
  30
0
  11
43.3
  21
0.798193
  31
0
  0
LINE
  5
e3
  100
AcDbEntity
  8
1
  100
AcDbLine
  10
43.3
  20
0.798193
  30
0
  11
43.4
  21
0.769896
  31
0
  0
LINE
  5
e4
  100
AcDbEntity
  8
1
  100
AcDbLine
  10
43.4
  20
0.769896
  30
0
  11
43.5
  21
0.738432
  31
0
  0
LINE
  5
e5
  100
AcDbEntity
  8
1
  100
AcDbLine
  10
43.5
  20
0.738432
  30
0
  11
43.6
  21
0.70393
  31
0
  0
LINE
  5
e6
  100
AcDbEntity
  8
1
  100
AcDbLine
  10
43.6
  20
0.70393
  30
0
  11
43.7
  21
0.666532
  31
0
  0
LINE
  5
e7
  100
AcDbEntity
  8
1
  100
AcDbLine
  10
43.7
  20
0.666532
  30
0
  11
43.8
  21
0.626393
  31
0
  0
LINE
  5
e8
  100
AcDbEntity
  8
1
  100
AcDbLine
  10
43.8
  20
0.626393
  30
0
  11
43.9
  21
0.583676
  31
0
  0
LINE
  5
e9
  100
AcDbEntity
  8
1
  100
AcDbLine
  10
43.9
  20
0.583676
  30
0
  11
44
  21
0.538558
  31
0
  0
LINE
  5
ea
  100
AcDbEntity
  8
1
  100
AcDbLine
  10
44
  20
0.538558
  30
0
  11
44.1
  21
0.491225
  31
0
  0
LINE
  5
eb
  100
AcDbEntity
  8
1
  100
AcDbLine
  10
44.1
  20
0.491225
  30
0
  11
44.2
  21
0.441871
  31
0
  0
LINE
  5
ec
  100
AcDbEntity
  8
1
  100
AcDbLine
  10
44.2
  20
0.441871
  30
0
  11
44.3
  21
0.390699
  31
0
  0
LINE
  5
ed
  100
AcDbEntity
  8
1
  100
AcDbLine
  10
44.3
  20
0.390699
  30
0
  11
44.4
  21
0.33792
  31
0
  0
LINE
  5
ee
  100
AcDbEntity
  8
1
  100
AcDbLine
  10
44.4
  20
0.33792
  30
0
  11
44.5
  21
0.283751
  31
0
  0
LINE
  5
ef
  100
AcDbEntity
  8
1
  100
AcDbLine
  10
44.5
  20
0.283751
  30
0
  11
44.6
  21
0.228414
  31
0
  0
LINE
  5
f0
  100
AcDbEntity
  8
1
  100
AcDbLine
  10
44.6
  20
0.228414
  30
0
  11
44.7
  21
0.172138
  31
0
  0
LINE
  5
f1
  100
AcDbEntity
  8
1
  100
AcDbLine
  10
44.7
  20
0.172138
  30
0
  11
44.8
  21
0.115154
  31
0
  0
LINE
  5
f2
  100
AcDbEntity
  8
1
  100
AcDbLine
  10
44.8
  20
0.115154
  30
0
  11
44.9
  21
0.057695
  31
0
  0
LINE
  5
f3
  100
AcDbEntity
  8
1
  100
AcDbLine
  10
44.9
  20
0.057695
  30
0
  11
45
  21
0
  31
0
  0
LINE
  5
f4
  100
AcDbEntity
  8
1
  100
AcDbLine
  10
45
  20
0
  30
0
  11
45
  21
0.9
  31
0
  0
LINE
  5
f5
  100
AcDbEntity
  8
1
  100
AcDbLine
  10
45
  20
0.9
  30
0
  11
42.3
  21
0.9
  31
0
  0
LINE
  5
f6
  100
AcDbEntity
  8
1
  100
AcDbLine
  10
42.3
  20
0.9
  30
0
  11
42.3
  21
0.875
  31
0
  0
LINE
  5
f7
  100
AcDbEntity
  8
1
  100
AcDbLine
  10
42.3
  20
0.875
  30
0
  11
35.05
  21
0.875
  31
0
  0
ARC
  5
f8
  100
AcDbEntity
  8
1
  100
AcDbCircle
  10
35.921557
  20
10.836947
  30
0
  40
10
  100
AcDbArc
  50
255
  51
265
  0
LINE
  5
f9
  100
AcDbEntity
  8
1
  100
AcDbLine
  10
33.333367
  20
1.177689
  30
0
  11
30.3
  21
1.990477
  31
0
  0
LINE
  5
fa
  100
AcDbEntity
  8
1
  100
AcDbLine
  10
30.3
  20
1.990477
  30
0
  11
30.3
  21
-1.990477
  31
0
  0
LINE
  5
fb
  100
AcDbEntity
  8
1
  100
AcDbLine
  10
30.3
  20
-1.990477
  30
0
  11
33.333367
  21
-1.177689
  31
0
  0
LINE
  5
fc
  100
AcDbEntity
  8
1
  100
AcDbLine
  10
33.333367
  20
-1.177689
  30
0
  11
33.333367
  21
1.177689
  31
0
  0
LINE
  5
fd
  100
AcDbEntity
  8
1
  100
AcDbLine
  10
35.05
  20
0.875
  30
0
  11
35.05
  21
-0.875
  31
0
  0
LINE
  5
fe
  100
AcDbEntity
  8
SK1
  100
AcDbLine
  10
30.3
  20
1.990477
  30
0
  11
30.264459
  21
2
  31
0
  0
LINE
  5
ff
  100
AcDbEntity
  8
SK1
  100
AcDbLine
  10
30.264459
  20
2
  30
0
  11
30.3
  21
2
  31
0
  0
LINE
  5
100
  100
AcDbEntity
  8
SK1
  100
AcDbLine
  10
30.3
  20
2
  30
0
  11
0.7
  21
2
  31
0
  0
LINE
  5
101
  100
AcDbEntity
  8
SK1
  100
AcDbLine
  10
0.7
  20
2
  30
0
  11
0
  21
1.3
  31
0
  0
LINE
  5
102
  100
AcDbEntity
  8
SK1
  100
AcDbLine
  10
30.3
  20
-1.990477
  30
0
  11
30.264459
  21
-2
  31
0
  0
LINE
  5
103
  100
AcDbEntity
  8
SK1
  100
AcDbLine
  10
30.264459
  20
-2
  30
0
  11
30.3
  21
-2
  31
0
  0
LINE
  5
104
  100
AcDbEntity
  8
SK1
  100
AcDbLine
  10
30.3
  20
-2
  30
0
  11
0.7
  21
-2
  31
0
  0
LINE
  5
105
  100
AcDbEntity
  8
SK1
  100
AcDbLine
  10
0.7
  20
-2
  30
0
  11
0
  21
-1.3
  31
0
  0
LINE
  5
106
  100
AcDbEntity
  8
SK1
  100
AcDbLine
  10
30.264459
  20
2
  30
0
  11
30.264459
  21
-2
  31
0
  0
LINE
  5
107
  100
AcDbEntity
  8
SK1
  100
AcDbLine
  10
0.7
  20
2
  30
0
  11
0.7
  21
-2
  31
0
  0
LINE
  5
108
  100
AcDbEntity
  8
SK1
  100
AcDbLine
  10
0
  20
1.3
  30
0
  11
0
  21
-1.3
  31
0
  0
LINE
  5
109
  100
AcDbEntity
  8
SK1
  100
AcDbLine
  10
31.3401
  20
1.40688
  30
0
  11
31.7069
  21
1.0401
  31
0
  0
LINE
  5
10a
  100
AcDbEntity
  8
SK1
  100
AcDbLine
  10
30.8328
  20
1.66666
  30
0
  11
31.9667
  21
0.532833
  31
0
  0
LINE
  5
10b
  100
AcDbEntity
  8
SK1
  100
AcDbLine
  10
30.5154
  20
1.73657
  30
0
  11
32.0366
  21
0.215434
  31
0
  0
LINE
  5
10c
  100
AcDbEntity
  8
SK1
  100
AcDbLine
  10
30.3
  20
1.70452
  30
0
  11
32.0045
  21
0
  31
0
  0
LINE
  5
10d
  100
AcDbEntity
  8
SK1
  100
AcDbLine
  10
30.3
  20
1.45703
  30
0
  11
31.757
  21
0
  31
0
  0
LINE
  5
10e
  100
AcDbEntity
  8
SK1
  100
AcDbLine
  10
30.3
  20
1.20954
  30
0
  11
31.5095
  21
0
  31
0
  0
LINE
  5
10f
  100
AcDbEntity
  8
SK1
  100
AcDbLine
  10
30.3
  20
0.962054
  30
0
  11
31.2621
  21
0
  31
0
  0
LINE
  5
110
  100
AcDbEntity
  8
SK1
  100
AcDbLine
  10
30.3
  20
0.714566
  30
0
  11
31.0146
  21
0
  31
0
  0
LINE
  5
111
  100
AcDbEntity
  8
SK1
  100
AcDbLine
  10
30.3
  20
0.467079
  30
0
  11
30.7671
  21
0
  31
0
  0
LINE
  5
112
  100
AcDbEntity
  8
SK1
  100
AcDbLine
  10
30.3
  20
0.219592
  30
0
  11
30.5196
  21
0
  31
0
  0
LINE
  5
113
  100
AcDbEntity
  8
SK1
  100
AcDbLine
  10
30.3
  20
1.70452
  30
0
  11
30.3441
  21
1.74861
  31
0
  0
LINE
  5
114
  100
AcDbEntity
  8
SK1
  100
AcDbLine
  10
30.3
  20
1.45703
  30
0
  11
30.571
  21
1.72802
  31
0
  0
LINE
  5
115
  100
AcDbEntity
  8
SK1
  100
AcDbLine
  10
30.3
  20
1.20954
  30
0
  11
30.7742
  21
1.6837
  31
0
  0
LINE
  5
116
  100
AcDbEntity
  8
SK1
  100
AcDbLine
  10
30.3
  20
0.962054
  30
0
  11
30.9588
  21
1.62082
  31
0
  0
LINE
  5
117
  100
AcDbEntity
  8
SK1
  100
AcDbLine
  10
30.3
  20
0.714566
  30
0
  11
31.1271
  21
1.54167
  31
0
  0
LINE
  5
118
  100
AcDbEntity
  8
SK1
  100
AcDbLine
  10
30.3
  20
0.467079
  30
0
  11
31.281
  21
1.44812
  31
0
  0
LINE
  5
119
  100
AcDbEntity
  8
SK1
  100
AcDbLine
  10
30.3
  20
0.219592
  30
0
  11
31.4226
  21
1.34216
  31
0
  0
LINE
  5
11a
  100
AcDbEntity
  8
SK1
  100
AcDbLine
  10
30.3279
  20
0
  30
0
  11
31.5508
  21
1.22288
  31
0
  0
LINE
  5
11b
  100
AcDbEntity
  8
SK1
  100
AcDbLine
  10
30.5754
  20
0
  30
0
  11
31.667
  21
1.09157
  31
0
  0
LINE
  5
11c
  100
AcDbEntity
  8
SK1
  100
AcDbLine
  10
30.8229
  20
0
  30
0
  11
31.7707
  21
0.947822
  31
0
  0
LINE
  5
11d
  100
AcDbEntity
  8
SK1
  100
AcDbLine
  10
31.0704
  20
0
  30
0
  11
31.8605
  21
0.790145
  31
0
  0
LINE
  5
11e
  100
AcDbEntity
  8
SK1
  100
AcDbLine
  10
31.3178
  20
0
  30
0
  11
31.9364
  21
0.618517
  31
0
  0
LINE
  5
11f
  100
AcDbEntity
  8
SK1
  100
AcDbLine
  10
31.5653
  20
0
  30
0
  11
31.996
  21
0.430696
  31
0
  0
LINE
  5
120
  100
AcDbEntity
  8
SK1
  100
AcDbLine
  10
31.8128
  20
0
  30
0
  11
32.0356
  21
0.222827
  31
0
  0
LINE
  5
121
  100
AcDbEntity
  8
SK1
  100
AcDbLine
  10
30.3
  20
0
  30
0
  11
30.3
  21
1.75
  31
0
  0
LINE
  5
122
  100
AcDbEntity
  8
SK1
  100
AcDbLine
  10
30.3
  20
0
  30
0
  11
32.05
  21
0
  31
0
  0
ARC
  5
123
  100
AcDbEntity
  8
SK1
  100
AcDbCircle
  10
30.3
  20
0
  30
0
  40
1.75
  100
AcDbArc
  50
0
  51
90
  0
ARC
  5
124
  100
AcDbEntity
  8
SK1
  100
AcDbCircle
  10
30.3
  20
0
  30
0
  40
1.75
  100
AcDbArc
  50
90
  51
180
  0
LINE
  5
125
  100
AcDbEntity
  8
SK1
  100
AcDbLine
  10
30.2721
  20
0
  30
0
  11
30.3
  21
-0.027896
  31
0
  0
LINE
  5
126
  100
AcDbEntity
  8
SK1
  100
AcDbLine
  10
30.0246
  20
0
  30
0
  11
30.3
  21
-0.275383
  31
0
  0
LINE
  5
127
  100
AcDbEntity
  8
SK1
  100
AcDbLine
  10
29.7771
  20
0
  30
0
  11
30.3
  21
-0.522871
  31
0
  0
LINE
  5
128
  100
AcDbEntity
  8
SK1
  100
AcDbLine
  10
29.5296
  20
0
  30
0
  11
30.3
  21
-0.770358
  31
0
  0
LINE
  5
129
  100
AcDbEntity
  8
SK1
  100
AcDbLine
  10
29.2822
  20
0
  30
0
  11
30.3
  21
-1.01785
  31
0
  0
LINE
  5
12a
  100
AcDbEntity
  8
SK1
  100
AcDbLine
  10
29.0347
  20
0
  30
0
  11
30.3
  21
-1.26533
  31
0
  0
LINE
  5
12b
  100
AcDbEntity
  8
SK1
  100
AcDbLine
  10
28.7872
  20
0
  30
0
  11
30.3
  21
-1.51282
  31
0
  0
LINE
  5
12c
  100
AcDbEntity
  8
SK1
  100
AcDbLine
  10
28.5503
  20
-0.010642
  30
0
  11
30.2894
  21
-1.74967
  31
0
  0
LINE
  5
12d
  100
AcDbEntity
  8
SK1
  100
AcDbLine
  10
28.5736
  20
-0.281429
  30
0
  11
30.0186
  21
-1.72637
  31
0
  0
LINE
  5
12e
  100
AcDbEntity
  8
SK1
  100
AcDbLine
  10
28.6639
  20
-0.619147
  30
0
  11
29.6809
  21
-1.63613
  31
0
  0
LINE
  5
12f
  100
AcDbEntity
  8
SK1
  100
AcDbLine
  10
28.5514
  20
-0.044098
  30
0
  11
28.5955
  21
0
  31
0
  0
LINE
  5
130
  100
AcDbEntity
  8
SK1
  100
AcDbLine
  10
28.572
  20
-0.270991
  30
0
  11
28.843
  21
0
  31
0
  0
LINE
  5
131
  100
AcDbEntity
  8
SK1
  100
AcDbLine
  10
28.6163
  20
-0.474162
  30
0
  11
29.0905
  21
0
  31
0
  0
LINE
  5
132
  100
AcDbEntity
  8
SK1
  100
AcDbLine
  10
28.6792
  20
-0.658762
  30
0
  11
29.3379
  21
0
  31
0
  0
LINE
  5
133
  100
AcDbEntity
  8
SK1
  100
AcDbLine
  10
28.7583
  20
-0.827105
  30
0
  11
29.5854
  21
0
  31
0
  0
LINE
  5
134
  100
AcDbEntity
  8
SK1
  100
AcDbLine
  10
28.8519
  20
-0.981039
  30
0
  11
29.8329
  21
0
  31
0
  0
LINE
  5
135
  100
AcDbEntity
  8
SK1
  100
AcDbLine
  10
28.9578
  20
-1.12257
  30
0
  11
30.0804
  21
0
  31
0
  0
LINE
  5
136
  100
AcDbEntity
  8
SK1
  100
AcDbLine
  10
29.0771
  20
-1.25077
  30
0
  11
30.3
  21
-0.027896
  31
0
  0
LINE
  5
137
  100
AcDbEntity
  8
SK1
  100
AcDbLine
  10
29.2084
  20
-1.36695
  30
0
  11
30.3
  21
-0.275383
  31
0
  0
LINE
  5
138
  100
AcDbEntity
  8
SK1
  100
AcDbLine
  10
29.3522
  20
-1.47069
  30
0
  11
30.3
  21
-0.522871
  31
0
  0
LINE
  5
139
  100
AcDbEntity
  8
SK1
  100
AcDbLine
  10
29.5099
  20
-1.5605
  30
0
  11
30.3
  21
-0.770358
  31
0
  0
LINE
  5
13a
  100
AcDbEntity
  8
SK1
  100
AcDbLine
  10
29.6815
  20
-1.63636
  30
0
  11
30.3
  21
-1.01785
  31
0
  0
LINE
  5
13b
  100
AcDbEntity
  8
SK1
  100
AcDbLine
  10
29.8693
  20
-1.69603
  30
0
  11
30.3
  21
-1.26533
  31
0
  0
LINE
  5
13c
  100
AcDbEntity
  8
SK1
  100
AcDbLine
  10
30.0772
  20
-1.73565
  30
0
  11
30.3
  21
-1.51282
  31
0
  0
LINE
  5
13d
  100
AcDbEntity
  8
SK1
  100
AcDbLine
  10
30.3
  20
0
  30
0
  11
28.55
  21
0
  31
0
  0
LINE
  5
13e
  100
AcDbEntity
  8
SK1
  100
AcDbLine
  10
30.3
  20
-1.75
  30
0
  11
30.3
  21
0
  31
0
  0
ARC
  5
13f
  100
AcDbEntity
  8
SK1
  100
AcDbCircle
  10
30.3
  20
0
  30
0
  40
1.75
  100
AcDbArc
  50
180
  51
270
  0
ARC
  5
140
  100
AcDbEntity
  8
SK1
  100
AcDbCircle
  10
30.3
  20
0
  30
0
  40
1.75
  100
AcDbArc
  50
270
  51
0
  0
LINE
  5
1b1
  100
AcDbEntity
  8
NOCUT
  100
AcDbLine
  10
42.3
  20
0
  30
0
  11
42.3
  21
0.875
  31
0
  0
LINE
  5
1b2
  100
AcDbEntity
  8
NOCUT
  100
AcDbLine
  10
42.3
  20
0.875
  30
0
  11
35.05
  21
0.875
  31
0
  0
ARC
  5
1b3
  100
AcDbEntity
  8
NOCUT
  100
AcDbCircle
  10
35.921557
  20
10.836947
  30
0
  40
10
  100
AcDbArc
  50
255
  51
265
  0
LINE
  5
1b4
  100
AcDbEntity
  8
NOCUT
  100
AcDbLine
  10
33.333367
  20
1.177689
  30
0
  11
30.3
  21
1.990477
  31
0
  0
LINE
  5
1b5
  100
AcDbEntity
  8
NOCUT
  100
AcDbLine
  10
30.3
  20
1.990477
  30
0
  11
30.3
  21
0
  31
0
  0
LINE
  5
1b6
  100
AcDbEntity
  8
NOCUT
  100
AcDbLine
  10
30.3
  20
0
  30
0
  11
42.3
  21
0
  31
0
  0
LINE
  5
1b7
  100
AcDbEntity
  8
CUT
  100
AcDbLine
  10
45
  20
0
  30
0
  11
45
  21
0.9
  31
0
  0
LINE
  5
1b8
  100
AcDbEntity
  8
CUT
  100
AcDbLine
  10
45
  20
0.9
  30
0
  11
42.3
  21
0.9
  31
0
  0
LINE
  5
1b9
  100
AcDbEntity
  8
CUT
  100
AcDbLine
  10
42.3
  20
0.9
  30
0
  11
42.3
  21
0
  31
0
  0
LINE
  5
1ba
  100
AcDbEntity
  8
CUT
  100
AcDbLine
  10
42.3
  20
0
  30
0
  11
45
  21
0
  31
0
  0
LINE
  5
1bb
  100
AcDbEntity
  8
4
  100
AcDbLine
  10
30.3
  20
0
  30
0
  11
45
  21
0
  31
0
  0
LINE
  5
1bc
  100
AcDbEntity
  8
SK4
  100
AcDbLine
  10
-1
  20
0
  30
0
  11
46
  21
0
  31
0
  0
LINE
  5
1bd
  100
AcDbEntity
  8
INFTOTAL
  100
AcDbLine
  10
-15.45
  20
17.45
  30
0
  11
60.45
  21
17.45
  31
0
  0
LINE
  5
1be
  100
AcDbEntity
  8
INFTOTAL
  100
AcDbLine
  10
60.45
  20
17.45
  30
0
  11
60.45
  21
-14.286947
  31
0
  0
LINE
  5
1bf
  100
AcDbEntity
  8
INFTOTAL
  100
AcDbLine
  10
60.45
  20
-14.286947
  30
0
  11
-15.45
  21
-14.286947
  31
0
  0
LINE
  5
1c0
  100
AcDbEntity
  8
INFTOTAL
  100
AcDbLine
  10
-15.45
  20
-14.286947
  30
0
  11
-15.45
  21
17.45
  31
0
  0
ENDSEC
  0
SECTION
  2
OBJECTS
  0
DICTIONARY
  5
1c1
  330
0
100
AcDbDictionary
281
    1
  3
ACAD_GROUP
  350
1c2
  0
DICTIONARY
  5
1c2
102
{ACAD_REACTORS
  330
1c1
102
}
  330
1c1
100
AcDbDictionary
281
    1
  0
ENDSEC
  0
EOF
