  0
SECTION
  2
HEADER
  9
$ACADVER
  1
AC1015
  9
$DWGCODEPAGE
  3
ANSI_932
  9
$HANDSEED
  5
106AB90
  0
ENDSEC
  0
SECTION
  2
CLASSES
  0
CLASS
  1
IMAGEDEF
  2
AcDbRasterImageDef
  3
ISM
  90
0
  91
4
  280
0
  281
0
  0
CLASS
  1
IMAGE
  2
AcDbRasterImage
  3
ISM
  90
127
  91
5
  280
0
  281
1
  0
CLASS
  1
IMAGEDEF_REACTOR
  2
AcDbRasterImageDefReactor
  3
ISM
  90
1
  91
4
  280
0
  281
0
  0
ENDSEC
  0
SECTION
  2
TABLES
  0
TABLE
  2
VPORT
  5
2
  330
0
  100
AcDbSymbolTable
  70
    0
  0
ENDTAB
  0
TABLE
  2
LTYPE
  5
3
  330
0
  100
AcDbSymbolTable
  70
    4
  0
LTYPE
  5
4
  330
3
  100
AcDbSymbolTableRecord
  100
AcDbLinetypeTableRecord
  2
ByBlock
  70
    0
  3

  72
65
  73
    0
  40
0
  0
LTYPE
  5
5
  330
3
  100
AcDbSymbolTableRecord
  100
AcDbLinetypeTableRecord
  2
ByLayer
  70
    0
  3

  72
65
  73
    0
  40
0
  0
LTYPE
  5
6
  330
3
  100
AcDbSymbolTableRecord
  100
AcDbLinetypeTableRecord
  2
CONTINUOUS
  70
    0
  3
Solid Line
  72
65
  73
    0
  40
0
  0
LTYPE
  5
7
  330
3
  100
AcDbSymbolTableRecord
  100
AcDbLinetypeTableRecord
  2
DASH
  70
    0
  3
Hidden
  72
65
  73
2
  40
2.5
  49
1.5
  74
0
  49
-1
  74
0
  0
LTYPE
  5
8
  330
3
  100
AcDbSymbolTableRecord
  100
AcDbLinetypeTableRecord
  2
LONGDASHDASH
  70
    0
  3
__ . __
  72
65
  73
    4
  40
7
  49
4
  74
    0
  49
-1
  74
    0
  49
1
  74
    0
  49
-1
  74
    0
  0
ENDTAB
  0
TABLE
  2
LAYER
  5
9
  330
0
  100
AcDbSymbolTable
  70
    40
  0
LAYER
  5
a
  330
9
  100
AcDbSymbolTableRecord
  100
AcDbLayerTableRecord
  2
0
  70
    0
  62
    0
  6
CONTINUOUS
  390
0
  0
LAYER
  5
c
  330
9
  100
AcDbSymbolTableRecord
  100
AcDbLayerTableRecord
  2
1
  70
    0
  62
    4
  6
CONTINUOUS
  370
50
  390
0
  0
LAYER
  5
d
  330
9
  100
AcDbSymbolTableRecord
  100
AcDbLayerTableRecord
  2
2
  70
    0
  62
    7
  6
CONTINUOUS
  370
25
  390
0
  0
LAYER
  5
f
  330
9
  100
AcDbSymbolTableRecord
  100
AcDbLayerTableRecord
  2
4
  70
    0
  62
    2
  6
LONGDASHDASH
  370
25
  390
0
  0
LAYER
  5
13
  330
9
  100
AcDbSymbolTableRecord
  100
AcDbLayerTableRecord
  2
SK1
  70
    0
  62
    4
  6
CONTINUOUS
  370
50
  390
0
  0
LAYER
  5
14
  330
9
  100
AcDbSymbolTableRecord
  100
AcDbLayerTableRecord
  2
SK2
  70
    0
  62
    7
  6
CONTINUOUS
  370
25
  390
0
  0
LAYER
  5
16
  330
9
  100
AcDbSymbolTableRecord
  100
AcDbLayerTableRecord
  2
SK4
  70
    0
  62
    2
  6
LONGDASHDASH
  370
25
  390
0
  0
LAYER
  5
21
  330
9
  100
AcDbSymbolTableRecord
  100
AcDbLayerTableRecord
  2
NOCUT
  70
    0
  62
    7
  6
CONTINUOUS
  370
25
  390
0
  0
LAYER
  5
22
  330
9
  100
AcDbSymbolTableRecord
  100
AcDbLayerTableRecord
  2
CUT
  70
    0
  62
    1
  6
CONTINUOUS
  370
25
  390
0
  0
LAYER
  5
26
  330
9
  100
AcDbSymbolTableRecord
  100
AcDbLayerTableRecord
  2
INFTOTAL
  70
    0
  62
    9
  6
CONTINUOUS
  370
18
  390
0
  0
ENDTAB
  0
TABLE
  2
STYLE
  5
27
  330
0
  100
AcDbSymbolTable
  70
    1
  0
STYLE
  5
28
  330
27
  100
AcDbSymbolTableRecord
  100
AcDbTextStyleTableRecord
  2
Monospac821 BT
  70
    0
  40
    3.5
  41
1
  50
0
  71
0
  42
3
  3

  4

  1001
ACAD
  1000
Monospac821 BT
  1071
256
  0
ENDTAB
  0
TABLE
  2
VIEW
  5
29
  330
0
  100
AcDbSymbolTable
  70
    0
  0
ENDTAB
  0
TABLE
  2
UCS
  5
2a
  330
0
  100
AcDbSymbolTable
  70
    0
  0
ENDTAB
  0
TABLE
  2
APPID
  5
2b
  330
0
  100
AcDbSymbolTable
  70
    1
  0
APPID
  5
2c
  330
2b
  100
AcDbSymbolTableRecord
  100
AcDbRegAppTableRecord
  2
ACAD
  70
    0
  0
ENDTAB
  0
TABLE
  2
DIMSTYLE
  5
2d
  330
0
  100
AcDbSymbolTable
  70
    1
  100
AcDbDimStyleTable
  0
DIMSTYLE
  105
2e
  330
2d
  100
AcDbSymbolTableRecord
  100
AcDbDimStyleTableRecord
  2
STANDARD
  70
    0
  41
    3
  42
0.5
  44
1
  73
0
  77
1
  78
1
  140
3.5
  141
2.5
  143
0.03937
  147
0.8
  172
1
  174
1
  178
0
  179
1
  271
2
  279
1
  284
1
  340
28
  0
ENDTAB
  0
TABLE
  2
BLOCK_RECORD
  5
2f
  330
0
  100
AcDbSymbolTable
  70
    2
  0
BLOCK_RECORD
  5
30
  330
2f
  100
AcDbSymbolTableRecord
  100
AcDbBlockTableRecord
  2
*Model_Space
  0
BLOCK_RECORD
  5
31
  330
2f
  100
AcDbSymbolTableRecord
  100
AcDbBlockTableRecord
  2
*Paper_Space
  0
BLOCK_RECORD
  5
155
  330
2f
  100
AcDbSymbolTableRecord
  100
AcDbBlockTableRecord
  2
*D154
  340
0
  0
BLOCK_RECORD
  5
163
  330
2f
  100
AcDbSymbolTableRecord
  100
AcDbBlockTableRecord
  2
*D162
  340
0
  0
BLOCK_RECORD
  5
171
  330
2f
  100
AcDbSymbolTableRecord
  100
AcDbBlockTableRecord
  2
*D170
  340
0
  0
BLOCK_RECORD
  5
17f
  330
2f
  100
AcDbSymbolTableRecord
  100
AcDbBlockTableRecord
  2
*D17e
  340
0
  0
BLOCK_RECORD
  5
18d
  330
2f
  100
AcDbSymbolTableRecord
  100
AcDbBlockTableRecord
  2
*D18c
  340
0
  0
BLOCK_RECORD
  5
19b
  330
2f
  100
AcDbSymbolTableRecord
  100
AcDbBlockTableRecord
  2
*D19a
  340
0
  0
BLOCK_RECORD
  5
1a9
  330
2f
  100
AcDbSymbolTableRecord
  100
AcDbBlockTableRecord
  2
*D1a8
  340
0
  0
BLOCK_RECORD
  5
1b7
  330
2f
  100
AcDbSymbolTableRecord
  100
AcDbBlockTableRecord
  2
*D1b6
  340
0
  0
ENDTAB
  0
ENDSEC
  0
SECTION
  2
BLOCKS
  0
BLOCK
  5
32
  330
30
  100
AcDbEntity
  8
0
  100
AcDbBlockBegin
  2
*Model_Space
  70
    0
  10
0
  20
0
  30
0
  3
*Model_Space
  1

  0
ENDBLK
  5
33
  330
30
  100
AcDbEntity
  8
0
  100
AcDbBlockEnd
  0
BLOCK
  5
34
  330
31
  100
AcDbEntity
  8
0
  100
AcDbBlockBegin
  2
*Paper_Space
  70
    0
  10
0
  20
0
  30
0
  3
*Paper_Space
  1

  0
ENDBLK
  5
35
  330
31
  100
AcDbEntity
  8
0
  100
AcDbBlockEnd
  0
BLOCK
  5
153
  330
155
  100
AcDbEntity
  8
SK2
  100
AcDbBlockBegin
  2
*D154
  70
1
  10
0
  20
0
  30
0
  3
*D154
  1

  0
LINE
  5
156
  330
155
  100
AcDbEntity
  8
SK2
  100
AcDbLine
  10
0
  20
1.3
  30
0
  11
0
  21
14
  31
0
  0
LINE
  5
157
  330
155
  100
AcDbEntity
  8
SK2
  100
AcDbLine
  10
45
  20
1
  30
0
  11
45
  21
14
  31
0
  0
LINE
  5
158
  330
155
  100
AcDbEntity
  8
SK2
  100
AcDbLine
  10
0
  20
12
  30
0
  11
45
  21
12
  31
0
  0
SOLID
  5
159
  330
155
  100
AcDbEntity
  8
SK2
  100
AcDbTrace
  10
0
  20
12
  30
0
  11
2.478612
  21
12.326315
  31
0
  12
2.478612
  22
11.673685
  32
0
  13
2.478612
  23
11.673685
  33
0
  0
SOLID
  5
15a
  330
155
  100
AcDbEntity
  8
SK2
  100
AcDbTrace
  10
45
  20
12
  30
0
  11
42.521388
  21
11.673685
  31
0
  12
42.521388
  22
12.326315
  32
0
  13
42.521388
  23
12.326315
  33
0
  0
MTEXT
  5
15b
  330
155
  100
AcDbEntity
  8
SK2
  100
AcDbMText
  10
37.397052
  20
12
  30
0
  11
1
  21
0
  31
0
  40
2
  41
0
  71
8
  72
1
  1
45
  0
POINT
  5
15c
  330
155
  100
AcDbEntity
  8
SK2
  62
0
  100
AcDbPoint
  10
0
  20
1.3
  30
0
  0
POINT
  5
15d
  330
155
  100
AcDbEntity
  8
SK2
  62
0
  100
AcDbPoint
  10
45
  20
1
  30
0
  0
POINT
  5
15e
  330
155
  100
AcDbEntity
  8
SK2
  62
0
  100
AcDbPoint
  10
45
  20
12
  30
0
  0
ENDBLK
  5
15f
  330
155
  100
AcDbEntity
  8
SK2
  100
AcDbBlockEnd
  0
BLOCK
  5
161
  330
163
  100
AcDbEntity
  8
SK2
  100
AcDbBlockBegin
  2
*D162
  70
1
  10
0
  20
0
  30
0
  3
*D162
  1

  0
LINE
  5
164
  330
163
  100
AcDbEntity
  8
SK2
  100
AcDbLine
  10
0
  20
1.3
  30
0
  11
0
  21
8.990662
  31
0
  0
LINE
  5
165
  330
163
  100
AcDbEntity
  8
SK2
  100
AcDbLine
  10
30.6
  20
2
  30
0
  11
30.6
  21
8.990662
  31
0
  0
LINE
  5
166
  330
163
  100
AcDbEntity
  8
SK2
  100
AcDbLine
  10
0
  20
6.990662
  30
0
  11
30.6
  21
6.990662
  31
0
  0
SOLID
  5
167
  330
163
  100
AcDbEntity
  8
SK2
  100
AcDbTrace
  10
0
  20
6.990662
  30
0
  11
2.478612
  21
7.316978
  31
0
  12
2.478612
  22
6.664347
  32
0
  13
2.478612
  23
6.664347
  33
0
  0
SOLID
  5
168
  330
163
  100
AcDbEntity
  8
SK2
  100
AcDbTrace
  10
30.6
  20
6.990662
  30
0
  11
28.121388
  21
6.664347
  31
0
  12
28.121388
  22
7.316978
  32
0
  13
28.121388
  23
7.316978
  33
0
  0
MTEXT
  5
169
  330
163
  100
AcDbEntity
  8
SK2
  100
AcDbMText
  10
15.3
  20
6.990662
  30
0
  11
1
  21
0
  31
0
  40
2
  41
0
  71
8
  72
1
  1
30.6
  0
POINT
  5
16a
  330
163
  100
AcDbEntity
  8
SK2
  62
0
  100
AcDbPoint
  10
0
  20
1.3
  30
0
  0
POINT
  5
16b
  330
163
  100
AcDbEntity
  8
SK2
  62
0
  100
AcDbPoint
  10
30.6
  20
2
  30
0
  0
POINT
  5
16c
  330
163
  100
AcDbEntity
  8
SK2
  62
0
  100
AcDbPoint
  10
30.6
  20
6.990662
  30
0
  0
ENDBLK
  5
16d
  330
163
  100
AcDbEntity
  8
SK2
  100
AcDbBlockEnd
  0
BLOCK
  5
16f
  330
171
  100
AcDbEntity
  8
SK2
  100
AcDbBlockBegin
  2
*D170
  70
1
  10
0
  20
0
  30
0
  3
*D170
  1

  0
LINE
  5
172
  330
171
  100
AcDbEntity
  8
SK2
  100
AcDbLine
  10
0.7
  20
-2
  30
0
  11
-12
  21
-2
  31
0
  0
LINE
  5
173
  330
171
  100
AcDbEntity
  8
SK2
  100
AcDbLine
  10
0.7
  20
2
  30
0
  11
-12
  21
2
  31
0
  0
LINE
  5
174
  330
171
  100
AcDbEntity
  8
SK2
  100
AcDbLine
  10
-10
  20
-4.158416
  30
0
  11
-10
  21
2
  31
0
  0
SOLID
  5
175
  330
171
  100
AcDbEntity
  8
SK2
  100
AcDbTrace
  10
-10
  20
-2
  30
0
  11
-10.326315
  21
0.478612
  31
0
  12
-9.673685
  22
0.478612
  32
0
  13
-9.673685
  23
0.478612
  33
0
  0
SOLID
  5
176
  330
171
  100
AcDbEntity
  8
SK2
  100
AcDbTrace
  10
-10
  20
2
  30
0
  11
-9.673685
  21
-0.478612
  31
0
  12
-10.326315
  22
-0.478612
  32
0
  13
-10.326315
  23
-0.478612
  33
0
  0
MTEXT
  5
177
  330
171
  100
AcDbEntity
  8
SK2
  100
AcDbMText
  10
-10
  20
0
  30
0
  11
0
  21
1
  31
0
  40
2
  41
0
  71
8
  72
1
  1
ﾘ4
  0
POINT
  5
178
  330
171
  100
AcDbEntity
  8
SK2
  62
0
  100
AcDbPoint
  10
0.7
  20
-2
  30
0
  0
POINT
  5
179
  330
171
  100
AcDbEntity
  8
SK2
  62
0
  100
AcDbPoint
  10
0.7
  20
2
  30
0
  0
POINT
  5
17a
  330
171
  100
AcDbEntity
  8
SK2
  62
0
  100
AcDbPoint
  10
-10
  20
2
  30
0
  0
ENDBLK
  5
17b
  330
171
  100
AcDbEntity
  8
SK2
  100
AcDbBlockEnd
  0
BLOCK
  5
17d
  330
17f
  100
AcDbEntity
  8
2
  100
AcDbBlockBegin
  2
*D17e
  70
1
  10
0
  20
0
  30
0
  3
*D17e
  1

  0
LINE
  5
180
  330
17f
  100
AcDbEntity
  8
2
  100
AcDbLine
  10
45
  20
-1
  30
0
  11
57
  21
-1
  31
0
  0
LINE
  5
181
  330
17f
  100
AcDbEntity
  8
2
  100
AcDbLine
  10
45
  20
1
  30
0
  11
57
  21
1
  31
0
  0
LINE
  5
182
  330
17f
  100
AcDbEntity
  8
2
  100
AcDbLine
  10
55
  20
-4.158416
  30
0
  11
55
  21
1
  31
0
  0
SOLID
  5
183
  330
17f
  100
AcDbEntity
  8
2
  100
AcDbTrace
  10
55
  20
-1
  30
0
  11
54.673685
  21
1.478612
  31
0
  12
55.326315
  22
1.478612
  32
0
  13
55.326315
  23
1.478612
  33
0
  0
SOLID
  5
184
  330
17f
  100
AcDbEntity
  8
2
  100
AcDbTrace
  10
55
  20
1
  30
0
  11
55.326315
  21
-1.478612
  31
0
  12
54.673685
  22
-1.478612
  32
0
  13
54.673685
  23
-1.478612
  33
0
  0
MTEXT
  5
185
  330
17f
  100
AcDbEntity
  8
2
  100
AcDbMText
  10
55
  20
0
  30
0
  11
0
  21
1
  31
0
  40
2
  41
0
  71
8
  72
1
  1
ﾘ2
  0
POINT
  5
186
  330
17f
  100
AcDbEntity
  8
2
  62
0
  100
AcDbPoint
  10
45
  20
-1
  30
0
  0
POINT
  5
187
  330
17f
  100
AcDbEntity
  8
2
  62
0
  100
AcDbPoint
  10
45
  20
1
  30
0
  0
POINT
  5
188
  330
17f
  100
AcDbEntity
  8
2
  62
0
  100
AcDbPoint
  10
55
  20
1
  30
0
  0
ENDBLK
  5
189
  330
17f
  100
AcDbEntity
  8
2
  100
AcDbBlockEnd
  0
BLOCK
  5
18b
  330
18d
  100
AcDbEntity
  8
2
  100
AcDbBlockBegin
  2
*D18c
  70
1
  10
0
  20
0
  30
0
  3
*D18c
  1

  0
LINE
  5
18e
  330
18d
  100
AcDbEntity
  8
2
  100
AcDbLine
  10
42
  20
-0.975
  30
0
  11
40
  21
-0.975
  31
0
  0
LINE
  5
18f
  330
18d
  100
AcDbEntity
  8
2
  100
AcDbLine
  10
42
  20
0.975
  30
0
  11
40
  21
0.975
  31
0
  0
LINE
  5
190
  330
18d
  100
AcDbEntity
  8
2
  100
AcDbLine
  10
42
  20
-0.975
  30
0
  11
42
  21
9.356436
  31
0
  0
SOLID
  5
191
  330
18d
  100
AcDbEntity
  8
2
  100
AcDbTrace
  10
42
  20
-0.975
  30
0
  11
41.673685
  21
1.503612
  31
0
  12
42.326315
  22
1.503612
  32
0
  13
42.326315
  23
1.503612
  33
0
  0
SOLID
  5
192
  330
18d
  100
AcDbEntity
  8
2
  100
AcDbTrace
  10
42
  20
0.975
  30
0
  11
42.326315
  21
-1.503612
  31
0
  12
41.673685
  22
-1.503612
  32
0
  13
41.673685
  23
-1.503612
  33
0
  0
MTEXT
  5
193
  330
18d
  100
AcDbEntity
  8
2
  100
AcDbMText
  10
42
  20
0.975
  30
0
  11
0
  21
1
  31
0
  40
2
  41
0
  71
8
  72
1
  1
ﾘ1.95
  0
POINT
  5
194
  330
18d
  100
AcDbEntity
  8
2
  62
0
  100
AcDbPoint
  10
40
  20
-0.975
  30
0
  0
POINT
  5
195
  330
18d
  100
AcDbEntity
  8
2
  62
0
  100
AcDbPoint
  10
40
  20
0.975
  30
0
  0
POINT
  5
196
  330
18d
  100
AcDbEntity
  8
2
  62
0
  100
AcDbPoint
  10
42
  20
9.356436
  30
0
  0
ENDBLK
  5
197
  330
18d
  100
AcDbEntity
  8
2
  100
AcDbBlockEnd
  0
BLOCK
  5
199
  330
19b
  100
AcDbEntity
  8
2
  100
AcDbBlockBegin
  2
*D19a
  70
1
  10
0
  20
0
  30
0
  3
*D19a
  1

  0
LINE
  5
19c
  330
19b
  100
AcDbEntity
  8
2
  100
AcDbLine
  10
42
  20
0.975
  30
0
  11
42
  21
9
  31
0
  0
LINE
  5
19d
  330
19b
  100
AcDbEntity
  8
2
  100
AcDbLine
  10
35.05
  20
0.975
  30
0
  11
35.05
  21
9
  31
0
  0
LINE
  5
19e
  330
19b
  100
AcDbEntity
  8
2
  100
AcDbLine
  10
42
  20
7
  30
0
  11
35.05
  21
7
  31
0
  0
SOLID
  5
19f
  330
19b
  100
AcDbEntity
  8
2
  100
AcDbTrace
  10
42
  20
7
  30
0
  11
44.478612
  21
7.326315
  31
0
  12
44.478612
  22
6.673685
  32
0
  13
44.478612
  23
6.673685
  33
0
  0
SOLID
  5
1a0
  330
19b
  100
AcDbEntity
  8
2
  100
AcDbTrace
  10
35.05
  20
7
  30
0
  11
32.571388
  21
6.673685
  31
0
  12
32.571388
  22
7.326315
  32
0
  13
32.571388
  23
7.326315
  33
0
  0
MTEXT
  5
1a1
  330
19b
  100
AcDbEntity
  8
2
  100
AcDbMText
  10
38.525
  20
7
  30
0
  11
1
  21
-0
  31
0
  40
2
  41
0
  71
8
  72
1
  1
6.95
  0
POINT
  5
1a2
  330
19b
  100
AcDbEntity
  8
2
  62
0
  100
AcDbPoint
  10
42
  20
0.975
  30
0
  0
POINT
  5
1a3
  330
19b
  100
AcDbEntity
  8
2
  62
0
  100
AcDbPoint
  10
35.05
  20
0.975
  30
0
  0
POINT
  5
1a4
  330
19b
  100
AcDbEntity
  8
2
  62
0
  100
AcDbPoint
  10
35.05
  20
7
  30
0
  0
ENDBLK
  5
1a5
  330
19b
  100
AcDbEntity
  8
2
  100
AcDbBlockEnd
  0
BLOCK
  5
1a7
  330
1a9
  100
AcDbEntity
  8
2
  100
AcDbBlockBegin
  2
*D1a8
  70
1
  10
0
  20
0
  30
0
  3
*D1a8
  1

  0
LINE
  5
1aa
  330
1a9
  100
AcDbEntity
  8
2
  100
AcDbLine
  10
45
  20
1
  30
0
  11
45
  21
14
  31
0
  0
LINE
  5
1ab
  330
1a9
  100
AcDbEntity
  8
2
  100
AcDbLine
  10
30.6
  20
2
  30
0
  11
30.6
  21
9
  31
0
  0
LINE
  5
1ac
  330
1a9
  100
AcDbEntity
  8
2
  100
AcDbLine
  10
45
  20
7
  30
0
  11
30.6
  21
7
  31
0
  0
SOLID
  5
1ad
  330
1a9
  100
AcDbEntity
  8
2
  100
AcDbTrace
  10
45
  20
7
  30
0
  11
47.478612
  21
7.326315
  31
0
  12
47.478612
  22
6.673685
  32
0
  13
47.478612
  23
6.673685
  33
0
  0
SOLID
  5
1ae
  330
1a9
  100
AcDbEntity
  8
2
  100
AcDbTrace
  10
30.6
  20
7
  30
0
  11
28.121388
  21
6.673685
  31
0
  12
28.121388
  22
7.326315
  32
0
  13
28.121388
  23
7.326315
  33
0
  0
MTEXT
  5
1af
  330
1a9
  100
AcDbEntity
  8
2
  100
AcDbMText
  10
37.8
  20
7
  30
0
  11
1
  21
-0
  31
0
  40
2
  41
0
  71
8
  72
1
  1
14.4
  0
POINT
  5
1b0
  330
1a9
  100
AcDbEntity
  8
2
  62
0
  100
AcDbPoint
  10
45
  20
14
  30
0
  0
POINT
  5
1b1
  330
1a9
  100
AcDbEntity
  8
2
  62
0
  100
AcDbPoint
  10
30.6
  20
2
  30
0
  0
POINT
  5
1b2
  330
1a9
  100
AcDbEntity
  8
2
  62
0
  100
AcDbPoint
  10
30.6
  20
7
  30
0
  0
ENDBLK
  5
1b3
  330
1a9
  100
AcDbEntity
  8
2
  100
AcDbBlockEnd
  0
BLOCK
  5
1b5
  330
1b7
  100
AcDbEntity
  8
2
  100
AcDbBlockBegin
  2
*D1b6
  70
1
  10
0
  20
0
  30
0
  3
*D1b6
  1

  0
LINE
  5
1b8
  330
1b7
  100
AcDbEntity
  8
2
  100
AcDbLine
  10
45
  20
-10.291202
  30
0
  11
45
  21
0
  31
0
  0
LINE
  5
1b9
  330
1b7
  100
AcDbEntity
  8
2
  100
AcDbLine
  10
42
  20
-10.291202
  30
0
  11
42
  21
-0.975
  31
0
  0
LINE
  5
1ba
  330
1b7
  100
AcDbEntity
  8
2
  100
AcDbLine
  10
45
  20
-8.291202
  30
0
  11
42
  21
-8.291202
  31
0
  0
SOLID
  5
1bb
  330
1b7
  100
AcDbEntity
  8
2
  100
AcDbTrace
  10
45
  20
-8.291202
  30
0
  11
47.478612
  21
-7.964887
  31
0
  12
47.478612
  22
-8.617518
  32
0
  13
47.478612
  23
-8.617518
  33
0
  0
SOLID
  5
1bc
  330
1b7
  100
AcDbEntity
  8
2
  100
AcDbTrace
  10
42
  20
-8.291202
  30
0
  11
39.521388
  21
-8.617518
  31
0
  12
39.521388
  22
-7.964887
  32
0
  13
39.521388
  23
-7.964887
  33
0
  0
MTEXT
  5
1bd
  330
1b7
  100
AcDbEntity
  8
2
  100
AcDbMText
  10
43.5
  20
-8.291202
  30
0
  11
1
  21
-0
  31
0
  40
2
  41
0
  71
8
  72
1
  1
3
  0
POINT
  5
1be
  330
1b7
  100
AcDbEntity
  8
2
  62
0
  100
AcDbPoint
  10
45
  20
0
  30
0
  0
POINT
  5
1bf
  330
1b7
  100
AcDbEntity
  8
2
  62
0
  100
AcDbPoint
  10
42
  20
-0.975
  30
0
  0
POINT
  5
1c0
  330
1b7
  100
AcDbEntity
  8
2
  62
0
  100
AcDbPoint
  10
42
  20
-8.291202
  30
0
  0
ENDBLK
  5
1c1
  330
1b7
  100
AcDbEntity
  8
2
  100
AcDbBlockEnd
  0
ENDSEC
  0
SECTION
  2
ENTITIES
  0
DIMENSION
  5
160
  100
AcDbEntity
  8
SK2
  100
AcDbDimension
  2
*D154
  10
45
  20
12
  30
0
  11
37.397052
  21
12
  31
0
  70
160
  1
<>
  71
5
  3
STANDARD
  42
45
  100
AcDbAlignedDimension
  13
0
  23
1.3
  33
0
  14
45
  24
1
  34
0
  50
0
  100
AcDbRotatedDimension
  0
DIMENSION
  5
16e
  100
AcDbEntity
  8
SK2
  100
AcDbDimension
  2
*D162
  10
30.6
  20
6.990662
  30
0
  11
15.3
  21
6.990662
  31
0
  70
160
  1
<>
  71
5
  3
STANDARD
  42
30.6
  100
AcDbAlignedDimension
  13
0
  23
1.3
  33
0
  14
30.6
  24
2
  34
0
  50
0
  100
AcDbRotatedDimension
  0
DIMENSION
  5
17c
  100
AcDbEntity
  8
SK2
  100
AcDbDimension
  2
*D170
  10
-10
  20
2
  30
0
  11
-10
  21
0
  31
0
  70
160
  1
%%c<>
  71
5
  3
STANDARD
  42
4
  100
AcDbAlignedDimension
  13
0.7
  23
-2
  33
0
  14
0.7
  24
2
  34
0
  50
-90
  100
AcDbRotatedDimension
  0
DIMENSION
  5
18a
  100
AcDbEntity
  8
2
  100
AcDbDimension
  2
*D17e
  10
55
  20
1
  30
0
  11
55
  21
0
  31
0
  70
160
  1
%%c<>
  71
5
  3
STANDARD
  42
2
  100
AcDbAlignedDimension
  13
45
  23
-1
  33
0
  14
45
  24
1
  34
0
  50
-90
  100
AcDbRotatedDimension
  0
DIMENSION
  5
198
  100
AcDbEntity
  8
2
  100
AcDbDimension
  2
*D18c
  10
42
  20
9.356436
  30
0
  11
42
  21
0.975
  31
0
  70
160
  1
%%c<>
  71
5
  3
STANDARD
  42
1.95
  100
AcDbAlignedDimension
  13
40
  23
-0.975
  33
0
  14
40
  24
0.975
  34
0
  50
-90
  100
AcDbRotatedDimension
  0
DIMENSION
  5
1a6
  100
AcDbEntity
  8
2
  100
AcDbDimension
  2
*D19a
  10
35.05
  20
7
  30
0
  11
38.525
  21
7
  31
0
  70
160
  1
<>
  71
5
  3
STANDARD
  42
6.95
  100
AcDbAlignedDimension
  13
42
  23
0.975
  33
0
  14
35.05
  24
0.975
  34
0
  50
0
  100
AcDbRotatedDimension
  0
DIMENSION
  5
1b4
  100
AcDbEntity
  8
2
  100
AcDbDimension
  2
*D1a8
  10
30.6
  20
7
  30
0
  11
37.8
  21
7
  31
0
  70
160
  1
<>
  71
5
  3
STANDARD
  42
14.4
  100
AcDbAlignedDimension
  13
45
  23
14
  33
0
  14
30.6
  24
2
  34
0
  50
0
  100
AcDbRotatedDimension
  0
DIMENSION
  5
1c2
  100
AcDbEntity
  8
2
  100
AcDbDimension
  2
*D1b6
  10
42
  20
-8.291202
  30
0
  11
43.5
  21
-8.291202
  31
0
  70
160
  1
<>
  71
5
  3
STANDARD
  42
3
  100
AcDbAlignedDimension
  13
45
  23
0
  33
0
  14
42
  24
-0.975
  34
0
  50
0
  100
AcDbRotatedDimension
  0
LINE
  5
36
  100
AcDbEntity
  8
1
  100
AcDbLine
  10
30.6
  20
2
  30
0
  11
30.6
  21
-2
  31
0
  0
LINE
  5
37
  100
AcDbEntity
  8
1
  100
AcDbLine
  10
30.6
  20
-2
  30
0
  11
30.6
  21
2
  31
0
  0
LINE
  5
38
  100
AcDbEntity
  8
1
  100
AcDbLine
  10
30.637665
  20
2
  30
0
  11
30.637665
  21
-2
  31
0
  0
ARC
  5
39
  100
AcDbEntity
  8
1
  100
AcDbCircle
  10
35.921557
  20
-10.936947
  30
0
  40
10
  100
AcDbArc
  50
95
  51
105
  0
LINE
  5
3a
  100
AcDbEntity
  8
1
  100
AcDbLine
  10
35.05
  20
-0.975
  30
0
  11
42
  21
-0.975
  31
0
  0
LINE
  5
3b
  100
AcDbEntity
  8
1
  100
AcDbLine
  10
42
  20
-0.975
  30
0
  11
42
  21
-1
  31
0
  0
LINE
  5
3c
  100
AcDbEntity
  8
1
  100
AcDbLine
  10
42
  20
-1
  30
0
  11
45
  21
-1
  31
0
  0
LINE
  5
3d
  100
AcDbEntity
  8
1
  100
AcDbLine
  10
45
  20
-1
  30
0
  11
45
  21
1
  31
0
  0
LINE
  5
3e
  100
AcDbEntity
  8
1
  100
AcDbLine
  10
45
  20
0.309017
  30
0
  11
44.9
  21
0.363381
  31
0
  0
LINE
  5
3f
  100
AcDbEntity
  8
1
  100
AcDbLine
  10
44.9
  20
0.363381
  30
0
  11
44.8
  21
0.416534
  31
0
  0
LINE
  5
40
  100
AcDbEntity
  8
1
  100
AcDbLine
  10
44.8
  20
0.416534
  30
0
  11
44.7
  21
0.468299
  31
0
  0
LINE
  5
41
  100
AcDbEntity
  8
1
  100
AcDbLine
  10
44.7
  20
0.468299
  30
0
  11
44.6
  21
0.518503
  31
0
  0
LINE
  5
42
  100
AcDbEntity
  8
1
  100
AcDbLine
  10
44.6
  20
0.518503
  30
0
  11
44.5
  21
0.56698
  31
0
  0
LINE
  5
43
  100
AcDbEntity
  8
1
  100
AcDbLine
  10
44.5
  20
0.56698
  30
0
  11
44.4
  21
0.613567
  31
0
  0
LINE
  5
44
  100
AcDbEntity
  8
1
  100
AcDbLine
  10
44.4
  20
0.613567
  30
0
  11
44.3
  21
0.658109
  31
0
  0
LINE
  5
45
  100
AcDbEntity
  8
1
  100
AcDbLine
  10
44.3
  20
0.658109
  30
0
  11
44.2
  21
0.700458
  31
0
  0
LINE
  5
46
  100
AcDbEntity
  8
1
  100
AcDbLine
  10
44.2
  20
0.700458
  30
0
  11
44.1
  21
0.740473
  31
0
  0
LINE
  5
47
  100
AcDbEntity
  8
1
  100
AcDbLine
  10
44.1
  20
0.740473
  30
0
  11
44
  21
0.778021
  31
0
  0
LINE
  5
48
  100
AcDbEntity
  8
1
  100
AcDbLine
  10
44
  20
0.778021
  30
0
  11
43.9
  21
0.812976
  31
0
  0
LINE
  5
49
  100
AcDbEntity
  8
1
  100
AcDbLine
  10
43.9
  20
0.812976
  30
0
  11
43.8
  21
0.845222
  31
0
  0
LINE
  5
4a
  100
AcDbEntity
  8
1
  100
AcDbLine
  10
43.8
  20
0.845222
  30
0
  11
43.7
  21
0.874651
  31
0
  0
LINE
  5
4b
  100
AcDbEntity
  8
1
  100
AcDbLine
  10
43.7
  20
0.874651
  30
0
  11
43.6
  21
0.901165
  31
0
  0
LINE
  5
4c
  100
AcDbEntity
  8
1
  100
AcDbLine
  10
43.6
  20
0.901165
  30
0
  11
43.5
  21
0.924676
  31
0
  0
LINE
  5
4d
  100
AcDbEntity
  8
1
  100
AcDbLine
  10
43.5
  20
0.924676
  30
0
  11
43.4
  21
0.945106
  31
0
  0
LINE
  5
4e
  100
AcDbEntity
  8
1
  100
AcDbLine
  10
43.4
  20
0.945106
  30
0
  11
43.3
  21
0.962387
  31
0
  0
LINE
  5
4f
  100
AcDbEntity
  8
1
  100
AcDbLine
  10
43.3
  20
0.962387
  30
0
  11
43.2
  21
0.97646
  31
0
  0
LINE
  5
50
  100
AcDbEntity
  8
1
  100
AcDbLine
  10
43.2
  20
0.97646
  30
0
  11
43.1
  21
0.98728
  31
0
  0
LINE
  5
51
  100
AcDbEntity
  8
1
  100
AcDbLine
  10
43.1
  20
0.98728
  30
0
  11
43
  21
0.994809
  31
0
  0
LINE
  5
52
  100
AcDbEntity
  8
1
  100
AcDbLine
  10
43
  20
0.994809
  30
0
  11
42.9
  21
0.999023
  31
0
  0
LINE
  5
53
  100
AcDbEntity
  8
1
  100
AcDbLine
  10
42.9
  20
0.999023
  30
0
  11
42.823446
  21
1
  31
0
  0
LINE
  5
54
  100
AcDbEntity
  8
1
  100
AcDbLine
  10
41.7
  20
0.975
  30
0
  11
41.7
  21
0.728717
  31
0
  0
LINE
  5
55
  100
AcDbEntity
  8
1
  100
AcDbLine
  10
41.7
  20
0.728717
  30
0
  11
41.8
  21
0.557837
  31
0
  0
LINE
  5
56
  100
AcDbEntity
  8
1
  100
AcDbLine
  10
41.8
  20
0.557837
  30
0
  11
41.9
  21
0.496745
  31
0
  0
LINE
  5
57
  100
AcDbEntity
  8
1
  100
AcDbLine
  10
41.9
  20
0.496745
  30
0
  11
42
  21
0.447275
  31
0
  0
LINE
  5
58
  100
AcDbEntity
  8
1
  100
AcDbLine
  10
42
  20
0.447275
  30
0
  11
42
  21
0.457706
  31
0
  0
LINE
  5
59
  100
AcDbEntity
  8
1
  100
AcDbLine
  10
42
  20
0.457706
  30
0
  11
42.1
  21
0.40564
  31
0
  0
LINE
  5
5a
  100
AcDbEntity
  8
1
  100
AcDbLine
  10
42.1
  20
0.40564
  30
0
  11
42.2
  21
0.352222
  31
0
  0
LINE
  5
5b
  100
AcDbEntity
  8
1
  100
AcDbLine
  10
42.2
  20
0.352222
  30
0
  11
42.3
  21
0.29763
  31
0
  0
LINE
  5
5c
  100
AcDbEntity
  8
1
  100
AcDbLine
  10
42.3
  20
0.29763
  30
0
  11
42.4
  21
0.242046
  31
0
  0
LINE
  5
5d
  100
AcDbEntity
  8
1
  100
AcDbLine
  10
42.4
  20
0.242046
  30
0
  11
42.5
  21
0.185655
  31
0
  0
LINE
  5
5e
  100
AcDbEntity
  8
1
  100
AcDbLine
  10
42.5
  20
0.185655
  30
0
  11
42.6
  21
0.128646
  31
0
  0
LINE
  5
5f
  100
AcDbEntity
  8
1
  100
AcDbLine
  10
42.6
  20
0.128646
  30
0
  11
42.7
  21
0.071208
  31
0
  0
LINE
  5
60
  100
AcDbEntity
  8
1
  100
AcDbLine
  10
42.7
  20
0.071208
  30
0
  11
42.8
  21
0.013533
  31
0
  0
LINE
  5
61
  100
AcDbEntity
  8
1
  100
AcDbLine
  10
42.8
  20
0.013533
  30
0
  11
42.9
  21
-0.044187
  31
0
  0
LINE
  5
62
  100
AcDbEntity
  8
1
  100
AcDbLine
  10
42.9
  20
-0.044187
  30
0
  11
43
  21
-0.10176
  31
0
  0
LINE
  5
63
  100
AcDbEntity
  8
1
  100
AcDbLine
  10
43
  20
-0.10176
  30
0
  11
43.1
  21
-0.158994
  31
0
  0
LINE
  5
64
  100
AcDbEntity
  8
1
  100
AcDbLine
  10
43.1
  20
-0.158994
  30
0
  11
43.2
  21
-0.215698
  31
0
  0
LINE
  5
65
  100
AcDbEntity
  8
1
  100
AcDbLine
  10
43.2
  20
-0.215698
  30
0
  11
43.3
  21
-0.271683
  31
0
  0
LINE
  5
66
  100
AcDbEntity
  8
1
  100
AcDbLine
  10
43.3
  20
-0.271683
  30
0
  11
43.4
  21
-0.326763
  31
0
  0
LINE
  5
67
  100
AcDbEntity
  8
1
  100
AcDbLine
  10
43.4
  20
-0.326763
  30
0
  11
43.5
  21
-0.380754
  31
0
  0
LINE
  5
68
  100
AcDbEntity
  8
1
  100
AcDbLine
  10
43.5
  20
-0.380754
  30
0
  11
43.6
  21
-0.433476
  31
0
  0
LINE
  5
69
  100
AcDbEntity
  8
1
  100
AcDbLine
  10
43.6
  20
-0.433476
  30
0
  11
43.7
  21
-0.484754
  31
0
  0
LINE
  5
6a
  100
AcDbEntity
  8
1
  100
AcDbLine
  10
43.7
  20
-0.484754
  30
0
  11
43.8
  21
-0.534416
  31
0
  0
LINE
  5
6b
  100
AcDbEntity
  8
1
  100
AcDbLine
  10
43.8
  20
-0.534416
  30
0
  11
43.9
  21
-0.582297
  31
0
  0
LINE
  5
6c
  100
AcDbEntity
  8
1
  100
AcDbLine
  10
43.9
  20
-0.582297
  30
0
  11
44
  21
-0.628238
  31
0
  0
LINE
  5
6d
  100
AcDbEntity
  8
1
  100
AcDbLine
  10
44
  20
-0.628238
  30
0
  11
44.1
  21
-0.672086
  31
0
  0
LINE
  5
6e
  100
AcDbEntity
  8
1
  100
AcDbLine
  10
44.1
  20
-0.672086
  30
0
  11
44.2
  21
-0.713693
  31
0
  0
LINE
  5
6f
  100
AcDbEntity
  8
1
  100
AcDbLine
  10
44.2
  20
-0.713693
  30
0
  11
44.3
  21
-0.752923
  31
0
  0
LINE
  5
70
  100
AcDbEntity
  8
1
  100
AcDbLine
  10
44.3
  20
-0.752923
  30
0
  11
44.4
  21
-0.789643
  31
0
  0
LINE
  5
71
  100
AcDbEntity
  8
1
  100
AcDbLine
  10
44.4
  20
-0.789643
  30
0
  11
44.5
  21
-0.823732
  31
0
  0
LINE
  5
72
  100
AcDbEntity
  8
1
  100
AcDbLine
  10
44.5
  20
-0.823732
  30
0
  11
44.6
  21
-0.855076
  31
0
  0
LINE
  5
73
  100
AcDbEntity
  8
1
  100
AcDbLine
  10
44.6
  20
-0.855076
  30
0
  11
44.7
  21
-0.88357
  31
0
  0
LINE
  5
74
  100
AcDbEntity
  8
1
  100
AcDbLine
  10
44.7
  20
-0.88357
  30
0
  11
44.8
  21
-0.90912
  31
0
  0
LINE
  5
75
  100
AcDbEntity
  8
1
  100
AcDbLine
  10
44.8
  20
-0.90912
  30
0
  11
44.9
  21
-0.931641
  31
0
  0
LINE
  5
76
  100
AcDbEntity
  8
1
  100
AcDbLine
  10
44.9
  20
-0.931641
  30
0
  11
45
  21
-0.951057
  31
0
  0
LINE
  5
77
  100
AcDbEntity
  8
1
  100
AcDbLine
  10
45
  20
-0.982635
  30
0
  11
44.9
  21
-0.975315
  31
0
  0
LINE
  5
78
  100
AcDbEntity
  8
1
  100
AcDbLine
  10
44.9
  20
-0.975315
  30
0
  11
44.8
  21
-0.964745
  31
0
  0
LINE
  5
79
  100
AcDbEntity
  8
1
  100
AcDbLine
  10
44.8
  20
-0.964745
  30
0
  11
44.7
  21
-0.95096
  31
0
  0
LINE
  5
7a
  100
AcDbEntity
  8
1
  100
AcDbLine
  10
44.7
  20
-0.95096
  30
0
  11
44.6
  21
-0.934006
  31
0
  0
LINE
  5
7b
  100
AcDbEntity
  8
1
  100
AcDbLine
  10
44.6
  20
-0.934006
  30
0
  11
44.5
  21
-0.91394
  31
0
  0
LINE
  5
7c
  100
AcDbEntity
  8
1
  100
AcDbLine
  10
44.5
  20
-0.91394
  30
0
  11
44.4
  21
-0.890828
  31
0
  0
LINE
  5
7d
  100
AcDbEntity
  8
1
  100
AcDbLine
  10
44.4
  20
-0.890828
  30
0
  11
44.3
  21
-0.864747
  31
0
  0
LINE
  5
7e
  100
AcDbEntity
  8
1
  100
AcDbLine
  10
44.3
  20
-0.864747
  30
0
  11
44.2
  21
-0.835785
  31
0
  0
LINE
  5
7f
  100
AcDbEntity
  8
1
  100
AcDbLine
  10
44.2
  20
-0.835785
  30
0
  11
44.1
  21
-0.804037
  31
0
  0
LINE
  5
80
  100
AcDbEntity
  8
1
  100
AcDbLine
  10
44.1
  20
-0.804037
  30
0
  11
44
  21
-0.76961
  31
0
  0
LINE
  5
81
  100
AcDbEntity
  8
1
  100
AcDbLine
  10
44
  20
-0.76961
  30
0
  11
43.9
  21
-0.732619
  31
0
  0
LINE
  5
82
  100
AcDbEntity
  8
1
  100
AcDbLine
  10
43.9
  20
-0.732619
  30
0
  11
43.8
  21
-0.693186
  31
0
  0
LINE
  5
83
  100
AcDbEntity
  8
1
  100
AcDbLine
  10
43.8
  20
-0.693186
  30
0
  11
43.7
  21
-0.651443
  31
0
  0
LINE
  5
84
  100
AcDbEntity
  8
1
  100
AcDbLine
  10
43.7
  20
-0.651443
  30
0
  11
43.6
  21
-0.607529
  31
0
  0
LINE
  5
85
  100
AcDbEntity
  8
1
  100
AcDbLine
  10
43.6
  20
-0.607529
  30
0
  11
43.5
  21
-0.561591
  31
0
  0
LINE
  5
86
  100
AcDbEntity
  8
1
  100
AcDbLine
  10
43.5
  20
-0.561591
  30
0
  11
43.4
  21
-0.513781
  31
0
  0
LINE
  5
87
  100
AcDbEntity
  8
1
  100
AcDbLine
  10
43.4
  20
-0.513781
  30
0
  11
43.3
  21
-0.464259
  31
0
  0
LINE
  5
88
  100
AcDbEntity
  8
1
  100
AcDbLine
  10
43.3
  20
-0.464259
  30
0
  11
43.2
  21
-0.41319
  31
0
  0
LINE
  5
89
  100
AcDbEntity
  8
1
  100
AcDbLine
  10
43.2
  20
-0.41319
  30
0
  11
43.1
  21
-0.360744
  31
0
  0
LINE
  5
8a
  100
AcDbEntity
  8
1
  100
AcDbLine
  10
43.1
  20
-0.360744
  30
0
  11
43
  21
-0.307096
  31
0
  0
LINE
  5
8b
  100
AcDbEntity
  8
1
  100
AcDbLine
  10
43
  20
-0.307096
  30
0
  11
42.9
  21
-0.252424
  31
0
  0
LINE
  5
8c
  100
AcDbEntity
  8
1
  100
AcDbLine
  10
42.9
  20
-0.252424
  30
0
  11
42.8
  21
-0.196912
  31
0
  0
LINE
  5
8d
  100
AcDbEntity
  8
1
  100
AcDbLine
  10
42.8
  20
-0.196912
  30
0
  11
42.7
  21
-0.140743
  31
0
  0
LINE
  5
8e
  100
AcDbEntity
  8
1
  100
AcDbLine
  10
42.7
  20
-0.140743
  30
0
  11
42.6
  21
-0.084105
  31
0
  0
LINE
  5
8f
  100
AcDbEntity
  8
1
  100
AcDbLine
  10
42.6
  20
-0.084105
  30
0
  11
42.5
  21
-0.027187
  31
0
  0
LINE
  5
90
  100
AcDbEntity
  8
1
  100
AcDbLine
  10
42.5
  20
-0.027187
  30
0
  11
42.4
  21
0.029822
  31
0
  0
LINE
  5
91
  100
AcDbEntity
  8
1
  100
AcDbLine
  10
42.4
  20
0.029822
  30
0
  11
42.3
  21
0.086731
  31
0
  0
LINE
  5
92
  100
AcDbEntity
  8
1
  100
AcDbLine
  10
42.3
  20
0.086731
  30
0
  11
42.2
  21
0.143351
  31
0
  0
LINE
  5
93
  100
AcDbEntity
  8
1
  100
AcDbLine
  10
42.2
  20
0.143351
  30
0
  11
42.1
  21
0.199494
  31
0
  0
LINE
  5
94
  100
AcDbEntity
  8
1
  100
AcDbLine
  10
41.7
  20
-0.975
  30
0
  11
41.7
  21
-0.930181
  31
0
  0
LINE
  5
95
  100
AcDbEntity
  8
1
  100
AcDbLine
  10
41.7
  20
-0.930181
  30
0
  11
41.8
  21
-0.93701
  31
0
  0
LINE
  5
96
  100
AcDbEntity
  8
1
  100
AcDbLine
  10
41.8
  20
-0.93701
  30
0
  11
41.9
  21
-0.950945
  31
0
  0
LINE
  5
97
  100
AcDbEntity
  8
1
  100
AcDbLine
  10
41.9
  20
-0.950945
  30
0
  11
42
  21
-0.96178
  31
0
  0
LINE
  5
98
  100
AcDbEntity
  8
1
  100
AcDbLine
  10
42
  20
-0.96178
  30
0
  11
42
  21
-0.987027
  31
0
  0
LINE
  5
99
  100
AcDbEntity
  8
1
  100
AcDbLine
  10
42
  20
-0.987027
  30
0
  11
42.1
  21
-0.994647
  31
0
  0
LINE
  5
9a
  100
AcDbEntity
  8
1
  100
AcDbLine
  10
42.1
  20
-0.994647
  30
0
  11
42.2
  21
-0.998952
  31
0
  0
LINE
  5
9b
  100
AcDbEntity
  8
1
  100
AcDbLine
  10
42.2
  20
-0.998952
  30
0
  11
42.279296
  21
-1
  31
0
  0
LINE
  5
9c
  100
AcDbEntity
  8
1
  100
AcDbLine
  10
42
  20
-1
  30
0
  11
42
  21
1
  31
0
  0
LINE
  5
9d
  100
AcDbEntity
  8
1
  100
AcDbLine
  10
42
  20
0.975
  30
0
  11
42
  21
-0.975
  31
0
  0
LINE
  5
9e
  100
AcDbEntity
  8
1
  100
AcDbLine
  10
42.1
  20
-0.967198
  30
0
  11
42.2
  21
-0.977098
  31
0
  0
LINE
  5
9f
  100
AcDbEntity
  8
1
  100
AcDbLine
  10
42.2
  20
-0.977098
  30
0
  11
42.3
  21
-0.983742
  31
0
  0
LINE
  5
a0
  100
AcDbEntity
  8
1
  100
AcDbLine
  10
42.3
  20
-0.983742
  30
0
  11
42.4
  21
-0.987107
  31
0
  0
LINE
  5
a1
  100
AcDbEntity
  8
1
  100
AcDbLine
  10
42.4
  20
-0.987107
  30
0
  11
42.452311
  21
-1
  31
0
  0
LINE
  5
a2
  100
AcDbEntity
  8
1
  100
AcDbLine
  10
42.823446
  20
-1
  30
0
  11
42.8
  21
-0.999908
  31
0
  0
LINE
  5
a3
  100
AcDbEntity
  8
1
  100
AcDbLine
  10
42.8
  20
-0.999908
  30
0
  11
42.7
  21
-0.997461
  31
0
  0
LINE
  5
a4
  100
AcDbEntity
  8
1
  100
AcDbLine
  10
42.7
  20
-0.997461
  30
0
  11
42.6
  21
-0.991691
  31
0
  0
LINE
  5
a5
  100
AcDbEntity
  8
1
  100
AcDbLine
  10
42.6
  20
-0.991691
  30
0
  11
42.5
  21
-0.982615
  31
0
  0
LINE
  5
a6
  100
AcDbEntity
  8
1
  100
AcDbLine
  10
42.5
  20
-0.982615
  30
0
  11
42.4
  21
-0.970265
  31
0
  0
LINE
  5
a7
  100
AcDbEntity
  8
1
  100
AcDbLine
  10
42.4
  20
-0.970265
  30
0
  11
42.3
  21
-0.954681
  31
0
  0
LINE
  5
a8
  100
AcDbEntity
  8
1
  100
AcDbLine
  10
42.3
  20
-0.954681
  30
0
  11
42.2
  21
-0.935917
  31
0
  0
LINE
  5
a9
  100
AcDbEntity
  8
1
  100
AcDbLine
  10
42.2
  20
-0.935917
  30
0
  11
42.1
  21
-0.914033
  31
0
  0
LINE
  5
aa
  100
AcDbEntity
  8
1
  100
AcDbLine
  10
42.1
  20
-0.914033
  30
0
  11
42
  21
-0.889103
  31
0
  0
LINE
  5
ab
  100
AcDbEntity
  8
1
  100
AcDbLine
  10
42
  20
-0.889103
  30
0
  11
42
  21
-0.866354
  31
0
  0
LINE
  5
ac
  100
AcDbEntity
  8
1
  100
AcDbLine
  10
42
  20
-0.866354
  30
0
  11
41.9
  21
-0.838969
  31
0
  0
LINE
  5
ad
  100
AcDbEntity
  8
1
  100
AcDbLine
  10
41.9
  20
-0.838969
  30
0
  11
41.8
  21
-0.799651
  31
0
  0
LINE
  5
ae
  100
AcDbEntity
  8
1
  100
AcDbLine
  10
41.8
  20
-0.799651
  30
0
  11
41.7
  21
-0.647762
  31
0
  0
LINE
  5
af
  100
AcDbEntity
  8
1
  100
AcDbLine
  10
41.7
  20
-0.647762
  30
0
  11
41.7
  21
0.292214
  31
0
  0
LINE
  5
b0
  100
AcDbEntity
  8
1
  100
AcDbLine
  10
41.7
  20
0.292214
  30
0
  11
41.8
  21
0.269512
  31
0
  0
LINE
  5
b1
  100
AcDbEntity
  8
1
  100
AcDbLine
  10
41.8
  20
0.269512
  30
0
  11
41.9
  21
0.215241
  31
0
  0
LINE
  5
b2
  100
AcDbEntity
  8
1
  100
AcDbLine
  10
41.9
  20
0.215241
  30
0
  11
42
  21
0.16001
  31
0
  0
LINE
  5
b3
  100
AcDbEntity
  8
1
  100
AcDbLine
  10
42
  20
0.16001
  30
0
  11
42
  21
0.160557
  31
0
  0
LINE
  5
b4
  100
AcDbEntity
  8
1
  100
AcDbLine
  10
42
  20
0.160557
  30
0
  11
42.1
  21
0.103335
  31
0
  0
LINE
  5
b5
  100
AcDbEntity
  8
1
  100
AcDbLine
  10
42.1
  20
0.103335
  30
0
  11
42.2
  21
0.045768
  31
0
  0
LINE
  5
b6
  100
AcDbEntity
  8
1
  100
AcDbLine
  10
42.2
  20
0.045768
  30
0
  11
42.3
  21
-0.01195
  31
0
  0
LINE
  5
b7
  100
AcDbEntity
  8
1
  100
AcDbLine
  10
42.3
  20
-0.01195
  30
0
  11
42.4
  21
-0.069629
  31
0
  0
LINE
  5
b8
  100
AcDbEntity
  8
1
  100
AcDbLine
  10
42.4
  20
-0.069629
  30
0
  11
42.5
  21
-0.127076
  31
0
  0
LINE
  5
b9
  100
AcDbEntity
  8
1
  100
AcDbLine
  10
42.5
  20
-0.127076
  30
0
  11
42.6
  21
-0.1841
  31
0
  0
LINE
  5
ba
  100
AcDbEntity
  8
1
  100
AcDbLine
  10
42.6
  20
-0.1841
  30
0
  11
42.7
  21
-0.240509
  31
0
  0
LINE
  5
bb
  100
AcDbEntity
  8
1
  100
AcDbLine
  10
42.7
  20
-0.240509
  30
0
  11
42.8
  21
-0.296118
  31
0
  0
LINE
  5
bc
  100
AcDbEntity
  8
1
  100
AcDbLine
  10
42.8
  20
-0.296118
  30
0
  11
42.9
  21
-0.35074
  31
0
  0
LINE
  5
bd
  100
AcDbEntity
  8
1
  100
AcDbLine
  10
42.9
  20
-0.35074
  30
0
  11
43
  21
-0.404192
  31
0
  0
LINE
  5
be
  100
AcDbEntity
  8
1
  100
AcDbLine
  10
43
  20
-0.404192
  30
0
  11
43.1
  21
-0.456298
  31
0
  0
LINE
  5
bf
  100
AcDbEntity
  8
1
  100
AcDbLine
  10
43.1
  20
-0.456298
  30
0
  11
43.2
  21
-0.506884
  31
0
  0
LINE
  5
c0
  100
AcDbEntity
  8
1
  100
AcDbLine
  10
43.2
  20
-0.506884
  30
0
  11
43.3
  21
-0.55578
  31
0
  0
LINE
  5
c1
  100
AcDbEntity
  8
1
  100
AcDbLine
  10
43.3
  20
-0.55578
  30
0
  11
43.4
  21
-0.602824
  31
0
  0
LINE
  5
c2
  100
AcDbEntity
  8
1
  100
AcDbLine
  10
43.4
  20
-0.602824
  30
0
  11
43.5
  21
-0.647859
  31
0
  0
LINE
  5
c3
  100
AcDbEntity
  8
1
  100
AcDbLine
  10
43.5
  20
-0.647859
  30
0
  11
43.6
  21
-0.690736
  31
0
  0
LINE
  5
c4
  100
AcDbEntity
  8
1
  100
AcDbLine
  10
43.6
  20
-0.690736
  30
0
  11
43.7
  21
-0.73131
  31
0
  0
LINE
  5
c5
  100
AcDbEntity
  8
1
  100
AcDbLine
  10
43.7
  20
-0.73131
  30
0
  11
43.8
  21
-0.769448
  31
0
  0
LINE
  5
c6
  100
AcDbEntity
  8
1
  100
AcDbLine
  10
43.8
  20
-0.769448
  30
0
  11
43.9
  21
-0.805021
  31
0
  0
LINE
  5
c7
  100
AcDbEntity
  8
1
  100
AcDbLine
  10
43.9
  20
-0.805021
  30
0
  11
44
  21
-0.837912
  31
0
  0
LINE
  5
c8
  100
AcDbEntity
  8
1
  100
AcDbLine
  10
44
  20
-0.837912
  30
0
  11
44.1
  21
-0.86801
  31
0
  0
LINE
  5
c9
  100
AcDbEntity
  8
1
  100
AcDbLine
  10
44.1
  20
-0.86801
  30
0
  11
44.2
  21
-0.895216
  31
0
  0
LINE
  5
ca
  100
AcDbEntity
  8
1
  100
AcDbLine
  10
44.2
  20
-0.895216
  30
0
  11
44.3
  21
-0.919439
  31
0
  0
LINE
  5
cb
  100
AcDbEntity
  8
1
  100
AcDbLine
  10
44.3
  20
-0.919439
  30
0
  11
44.4
  21
-0.940598
  31
0
  0
LINE
  5
cc
  100
AcDbEntity
  8
1
  100
AcDbLine
  10
44.4
  20
-0.940598
  30
0
  11
44.5
  21
-0.958622
  31
0
  0
LINE
  5
cd
  100
AcDbEntity
  8
1
  100
AcDbLine
  10
44.5
  20
-0.958622
  30
0
  11
44.6
  21
-0.973452
  31
0
  0
LINE
  5
ce
  100
AcDbEntity
  8
1
  100
AcDbLine
  10
44.6
  20
-0.973452
  30
0
  11
44.7
  21
-0.985037
  31
0
  0
LINE
  5
cf
  100
AcDbEntity
  8
1
  100
AcDbLine
  10
44.7
  20
-0.985037
  30
0
  11
44.8
  21
-0.993341
  31
0
  0
LINE
  5
d0
  100
AcDbEntity
  8
1
  100
AcDbLine
  10
44.8
  20
-0.993341
  30
0
  11
44.9
  21
-0.998334
  31
0
  0
LINE
  5
d1
  100
AcDbEntity
  8
1
  100
AcDbLine
  10
44.9
  20
-0.998334
  30
0
  11
45
  21
-1
  31
0
  0
LINE
  5
d2
  100
AcDbEntity
  8
1
  100
AcDbLine
  10
45
  20
-1
  30
0
  11
45
  21
0
  31
0
  0
LINE
  5
d3
  100
AcDbEntity
  8
1
  100
AcDbLine
  10
45
  20
0.098481
  30
0
  11
44.9
  21
0.155018
  31
0
  0
LINE
  5
d4
  100
AcDbEntity
  8
1
  100
AcDbLine
  10
44.9
  20
0.155018
  30
0
  11
44.8
  21
0.211038
  31
0
  0
LINE
  5
d5
  100
AcDbEntity
  8
1
  100
AcDbLine
  10
44.8
  20
0.211038
  30
0
  11
44.7
  21
0.266355
  31
0
  0
LINE
  5
d6
  100
AcDbEntity
  8
1
  100
AcDbLine
  10
44.7
  20
0.266355
  30
0
  11
44.6
  21
0.320784
  31
0
  0
LINE
  5
d7
  100
AcDbEntity
  8
1
  100
AcDbLine
  10
44.6
  20
0.320784
  30
0
  11
44.5
  21
0.374145
  31
0
  0
LINE
  5
d8
  100
AcDbEntity
  8
1
  100
AcDbLine
  10
44.5
  20
0.374145
  30
0
  11
44.4
  21
0.426258
  31
0
  0
LINE
  5
d9
  100
AcDbEntity
  8
1
  100
AcDbLine
  10
44.4
  20
0.426258
  30
0
  11
44.3
  21
0.476952
  31
0
  0
LINE
  5
da
  100
AcDbEntity
  8
1
  100
AcDbLine
  10
44.3
  20
0.476952
  30
0
  11
44.2
  21
0.526055
  31
0
  0
LINE
  5
db
  100
AcDbEntity
  8
1
  100
AcDbLine
  10
44.2
  20
0.526055
  30
0
  11
44.1
  21
0.573406
  31
0
  0
LINE
  5
dc
  100
AcDbEntity
  8
1
  100
AcDbLine
  10
44.1
  20
0.573406
  30
0
  11
44
  21
0.618846
  31
0
  0
LINE
  5
dd
  100
AcDbEntity
  8
1
  100
AcDbLine
  10
44
  20
0.618846
  30
0
  11
43.9
  21
0.662224
  31
0
  0
LINE
  5
de
  100
AcDbEntity
  8
1
  100
AcDbLine
  10
43.9
  20
0.662224
  30
0
  11
43.8
  21
0.703395
  31
0
  0
LINE
  5
df
  100
AcDbEntity
  8
1
  100
AcDbLine
  10
43.8
  20
0.703395
  30
0
  11
43.7
  21
0.742221
  31
0
  0
LINE
  5
e0
  100
AcDbEntity
  8
1
  100
AcDbLine
  10
43.7
  20
0.742221
  30
0
  11
43.6
  21
0.778575
  31
0
  0
LINE
  5
e1
  100
AcDbEntity
  8
1
  100
AcDbLine
  10
43.6
  20
0.778575
  30
0
  11
43.5
  21
0.812334
  31
0
  0
LINE
  5
e2
  100
AcDbEntity
  8
1
  100
AcDbLine
  10
43.5
  20
0.812334
  30
0
  11
43.4
  21
0.843386
  31
0
  0
LINE
  5
e3
  100
AcDbEntity
  8
1
  100
AcDbLine
  10
43.4
  20
0.843386
  30
0
  11
43.3
  21
0.871627
  31
0
  0
LINE
  5
e4
  100
AcDbEntity
  8
1
  100
AcDbLine
  10
43.3
  20
0.871627
  30
0
  11
43.2
  21
0.896964
  31
0
  0
LINE
  5
e5
  100
AcDbEntity
  8
1
  100
AcDbLine
  10
43.2
  20
0.896964
  30
0
  11
43.1
  21
0.919312
  31
0
  0
LINE
  5
e6
  100
AcDbEntity
  8
1
  100
AcDbLine
  10
43.1
  20
0.919312
  30
0
  11
43
  21
0.938596
  31
0
  0
LINE
  5
e7
  100
AcDbEntity
  8
1
  100
AcDbLine
  10
43
  20
0.938596
  30
0
  11
42.9
  21
0.954752
  31
0
  0
LINE
  5
e8
  100
AcDbEntity
  8
1
  100
AcDbLine
  10
42.9
  20
0.954752
  30
0
  11
42.8
  21
0.967727
  31
0
  0
LINE
  5
e9
  100
AcDbEntity
  8
1
  100
AcDbLine
  10
42.8
  20
0.967727
  30
0
  11
42.7
  21
0.977477
  31
0
  0
LINE
  5
ea
  100
AcDbEntity
  8
1
  100
AcDbLine
  10
42.7
  20
0.977477
  30
0
  11
42.6
  21
0.98397
  31
0
  0
LINE
  5
eb
  100
AcDbEntity
  8
1
  100
AcDbLine
  10
42.6
  20
0.98397
  30
0
  11
42.5
  21
0.987183
  31
0
  0
LINE
  5
ec
  100
AcDbEntity
  8
1
  100
AcDbLine
  10
42.5
  20
0.987183
  30
0
  11
42.452311
  21
1
  31
0
  0
LINE
  5
ed
  100
AcDbEntity
  8
1
  100
AcDbLine
  10
42.279296
  20
1
  30
0
  11
42.3
  21
0.999929
  31
0
  0
LINE
  5
ee
  100
AcDbEntity
  8
1
  100
AcDbLine
  10
42.3
  20
0.999929
  30
0
  11
42.4
  21
0.997573
  31
0
  0
LINE
  5
ef
  100
AcDbEntity
  8
1
  100
AcDbLine
  10
42.4
  20
0.997573
  30
0
  11
42.5
  21
0.991893
  31
0
  0
LINE
  5
f0
  100
AcDbEntity
  8
1
  100
AcDbLine
  10
42.5
  20
0.991893
  30
0
  11
42.6
  21
0.982908
  31
0
  0
LINE
  5
f1
  100
AcDbEntity
  8
1
  100
AcDbLine
  10
42.6
  20
0.982908
  30
0
  11
42.7
  21
0.970647
  31
0
  0
LINE
  5
f2
  100
AcDbEntity
  8
1
  100
AcDbLine
  10
42.7
  20
0.970647
  30
0
  11
42.8
  21
0.955151
  31
0
  0
LINE
  5
f3
  100
AcDbEntity
  8
1
  100
AcDbLine
  10
42.8
  20
0.955151
  30
0
  11
42.9
  21
0.936473
  31
0
  0
LINE
  5
f4
  100
AcDbEntity
  8
1
  100
AcDbLine
  10
42.9
  20
0.936473
  30
0
  11
43
  21
0.914674
  31
0
  0
LINE
  5
f5
  100
AcDbEntity
  8
1
  100
AcDbLine
  10
43
  20
0.914674
  30
0
  11
43.1
  21
0.889827
  31
0
  0
LINE
  5
f6
  100
AcDbEntity
  8
1
  100
AcDbLine
  10
43.1
  20
0.889827
  30
0
  11
43.2
  21
0.862014
  31
0
  0
LINE
  5
f7
  100
AcDbEntity
  8
1
  100
AcDbLine
  10
43.2
  20
0.862014
  30
0
  11
43.3
  21
0.831329
  31
0
  0
LINE
  5
f8
  100
AcDbEntity
  8
1
  100
AcDbLine
  10
43.3
  20
0.831329
  30
0
  11
43.4
  21
0.797874
  31
0
  0
LINE
  5
f9
  100
AcDbEntity
  8
1
  100
AcDbLine
  10
43.4
  20
0.797874
  30
0
  11
43.5
  21
0.76176
  31
0
  0
LINE
  5
fa
  100
AcDbEntity
  8
1
  100
AcDbLine
  10
43.5
  20
0.76176
  30
0
  11
43.6
  21
0.723107
  31
0
  0
LINE
  5
fb
  100
AcDbEntity
  8
1
  100
AcDbLine
  10
43.6
  20
0.723107
  30
0
  11
43.7
  21
0.682045
  31
0
  0
LINE
  5
fc
  100
AcDbEntity
  8
1
  100
AcDbLine
  10
43.7
  20
0.682045
  30
0
  11
43.8
  21
0.63871
  31
0
  0
LINE
  5
fd
  100
AcDbEntity
  8
1
  100
AcDbLine
  10
43.8
  20
0.63871
  30
0
  11
43.9
  21
0.593246
  31
0
  0
LINE
  5
fe
  100
AcDbEntity
  8
1
  100
AcDbLine
  10
43.9
  20
0.593246
  30
0
  11
44
  21
0.545806
  31
0
  0
LINE
  5
ff
  100
AcDbEntity
  8
1
  100
AcDbLine
  10
44
  20
0.545806
  30
0
  11
44.1
  21
0.496546
  31
0
  0
LINE
  5
100
  100
AcDbEntity
  8
1
  100
AcDbLine
  10
44.1
  20
0.496546
  30
0
  11
44.2
  21
0.445632
  31
0
  0
LINE
  5
101
  100
AcDbEntity
  8
1
  100
AcDbLine
  10
44.2
  20
0.445632
  30
0
  11
44.3
  21
0.393233
  31
0
  0
LINE
  5
102
  100
AcDbEntity
  8
1
  100
AcDbLine
  10
44.3
  20
0.393233
  30
0
  11
44.4
  21
0.339523
  31
0
  0
LINE
  5
103
  100
AcDbEntity
  8
1
  100
AcDbLine
  10
44.4
  20
0.339523
  30
0
  11
44.5
  21
0.284682
  31
0
  0
LINE
  5
104
  100
AcDbEntity
  8
1
  100
AcDbLine
  10
44.5
  20
0.284682
  30
0
  11
44.6
  21
0.228893
  31
0
  0
LINE
  5
105
  100
AcDbEntity
  8
1
  100
AcDbLine
  10
44.6
  20
0.228893
  30
0
  11
44.7
  21
0.17234
  31
0
  0
LINE
  5
106
  100
AcDbEntity
  8
1
  100
AcDbLine
  10
44.7
  20
0.17234
  30
0
  11
44.8
  21
0.115214
  31
0
  0
LINE
  5
107
  100
AcDbEntity
  8
1
  100
AcDbLine
  10
44.8
  20
0.115214
  30
0
  11
44.9
  21
0.057703
  31
0
  0
LINE
  5
108
  100
AcDbEntity
  8
1
  100
AcDbLine
  10
44.9
  20
0.057703
  30
0
  11
45
  21
0
  31
0
  0
LINE
  5
109
  100
AcDbEntity
  8
1
  100
AcDbLine
  10
45
  20
0
  30
0
  11
45
  21
1
  31
0
  0
LINE
  5
10a
  100
AcDbEntity
  8
1
  100
AcDbLine
  10
45
  20
1
  30
0
  11
42
  21
1
  31
0
  0
LINE
  5
10b
  100
AcDbEntity
  8
1
  100
AcDbLine
  10
42
  20
1
  30
0
  11
42
  21
0.975
  31
0
  0
LINE
  5
10c
  100
AcDbEntity
  8
1
  100
AcDbLine
  10
42
  20
0.975
  30
0
  11
35.05
  21
0.975
  31
0
  0
ARC
  5
10d
  100
AcDbEntity
  8
1
  100
AcDbCircle
  10
35.921557
  20
10.936947
  30
0
  40
10
  100
AcDbArc
  50
255
  51
265
  0
LINE
  5
10e
  100
AcDbEntity
  8
1
  100
AcDbLine
  10
33.333367
  20
1.277689
  30
0
  11
30.637665
  21
2
  31
0
  0
LINE
  5
10f
  100
AcDbEntity
  8
1
  100
AcDbLine
  10
30.637665
  20
2
  30
0
  11
30.6
  21
2
  31
0
  0
LINE
  5
110
  100
AcDbEntity
  8
1
  100
AcDbLine
  10
30.6
  20
2
  30
0
  11
30.6
  21
-2
  31
0
  0
LINE
  5
111
  100
AcDbEntity
  8
1
  100
AcDbLine
  10
30.6
  20
-2
  30
0
  11
30.637665
  21
-2
  31
0
  0
LINE
  5
112
  100
AcDbEntity
  8
1
  100
AcDbLine
  10
30.637665
  20
-2
  30
0
  11
33.333367
  21
-1.277689
  31
0
  0
LINE
  5
113
  100
AcDbEntity
  8
1
  100
AcDbLine
  10
33.333367
  20
-1.277689
  30
0
  11
33.333367
  21
1.277689
  31
0
  0
LINE
  5
114
  100
AcDbEntity
  8
1
  100
AcDbLine
  10
35.05
  20
0.975
  30
0
  11
35.05
  21
-0.975
  31
0
  0
LINE
  5
115
  100
AcDbEntity
  8
SK1
  100
AcDbLine
  10
30.6
  20
2
  30
0
  11
0.7
  21
2
  31
0
  0
LINE
  5
116
  100
AcDbEntity
  8
SK1
  100
AcDbLine
  10
0.7
  20
2
  30
0
  11
0
  21
1.3
  31
0
  0
LINE
  5
117
  100
AcDbEntity
  8
SK1
  100
AcDbLine
  10
30.6
  20
-2
  30
0
  11
0.7
  21
-2
  31
0
  0
LINE
  5
118
  100
AcDbEntity
  8
SK1
  100
AcDbLine
  10
0.7
  20
-2
  30
0
  11
0
  21
-1.3
  31
0
  0
LINE
  5
119
  100
AcDbEntity
  8
SK1
  100
AcDbLine
  10
0.7
  20
2
  30
0
  11
0.7
  21
-2
  31
0
  0
LINE
  5
11a
  100
AcDbEntity
  8
SK1
  100
AcDbLine
  10
0
  20
1.3
  30
0
  11
0
  21
-1.3
  31
0
  0
LINE
  5
11b
  100
AcDbEntity
  8
SK1
  100
AcDbLine
  10
31.6401
  20
1.40688
  30
0
  11
32.0069
  21
1.0401
  31
0
  0
LINE
  5
11c
  100
AcDbEntity
  8
SK1
  100
AcDbLine
  10
31.1328
  20
1.66666
  30
0
  11
32.2667
  21
0.532833
  31
0
  0
LINE
  5
11d
  100
AcDbEntity
  8
SK1
  100
AcDbLine
  10
30.8154
  20
1.73657
  30
0
  11
32.3366
  21
0.215434
  31
0
  0
LINE
  5
11e
  100
AcDbEntity
  8
SK1
  100
AcDbLine
  10
30.6
  20
1.70452
  30
0
  11
32.3045
  21
0
  31
0
  0
LINE
  5
11f
  100
AcDbEntity
  8
SK1
  100
AcDbLine
  10
30.6
  20
1.45703
  30
0
  11
32.057
  21
0
  31
0
  0
LINE
  5
120
  100
AcDbEntity
  8
SK1
  100
AcDbLine
  10
30.6
  20
1.20954
  30
0
  11
31.8095
  21
0
  31
0
  0
LINE
  5
121
  100
AcDbEntity
  8
SK1
  100
AcDbLine
  10
30.6
  20
0.962054
  30
0
  11
31.5621
  21
0
  31
0
  0
LINE
  5
122
  100
AcDbEntity
  8
SK1
  100
AcDbLine
  10
30.6
  20
0.714566
  30
0
  11
31.3146
  21
0
  31
0
  0
LINE
  5
123
  100
AcDbEntity
  8
SK1
  100
AcDbLine
  10
30.6
  20
0.467079
  30
0
  11
31.0671
  21
0
  31
0
  0
LINE
  5
124
  100
AcDbEntity
  8
SK1
  100
AcDbLine
  10
30.6
  20
0.219592
  30
0
  11
30.8196
  21
0
  31
0
  0
LINE
  5
125
  100
AcDbEntity
  8
SK1
  100
AcDbLine
  10
30.6
  20
1.70452
  30
0
  11
30.6441
  21
1.74861
  31
0
  0
LINE
  5
126
  100
AcDbEntity
  8
SK1
  100
AcDbLine
  10
30.6
  20
1.45703
  30
0
  11
30.871
  21
1.72802
  31
0
  0
LINE
  5
127
  100
AcDbEntity
  8
SK1
  100
AcDbLine
  10
30.6
  20
1.20954
  30
0
  11
31.0742
  21
1.6837
  31
0
  0
LINE
  5
128
  100
AcDbEntity
  8
SK1
  100
AcDbLine
  10
30.6
  20
0.962054
  30
0
  11
31.2588
  21
1.62082
  31
0
  0
LINE
  5
129
  100
AcDbEntity
  8
SK1
  100
AcDbLine
  10
30.6
  20
0.714566
  30
0
  11
31.4271
  21
1.54167
  31
0
  0
LINE
  5
12a
  100
AcDbEntity
  8
SK1
  100
AcDbLine
  10
30.6
  20
0.467079
  30
0
  11
31.581
  21
1.44812
  31
0
  0
LINE
  5
12b
  100
AcDbEntity
  8
SK1
  100
AcDbLine
  10
30.6
  20
0.219592
  30
0
  11
31.7226
  21
1.34216
  31
0
  0
LINE
  5
12c
  100
AcDbEntity
  8
SK1
  100
AcDbLine
  10
30.6279
  20
0
  30
0
  11
31.8508
  21
1.22288
  31
0
  0
LINE
  5
12d
  100
AcDbEntity
  8
SK1
  100
AcDbLine
  10
30.8754
  20
0
  30
0
  11
31.967
  21
1.09157
  31
0
  0
LINE
  5
12e
  100
AcDbEntity
  8
SK1
  100
AcDbLine
  10
31.1229
  20
0
  30
0
  11
32.0707
  21
0.947822
  31
0
  0
LINE
  5
12f
  100
AcDbEntity
  8
SK1
  100
AcDbLine
  10
31.3704
  20
0
  30
0
  11
32.1605
  21
0.790145
  31
0
  0
LINE
  5
130
  100
AcDbEntity
  8
SK1
  100
AcDbLine
  10
31.6178
  20
0
  30
0
  11
32.2364
  21
0.618517
  31
0
  0
LINE
  5
131
  100
AcDbEntity
  8
SK1
  100
AcDbLine
  10
31.8653
  20
0
  30
0
  11
32.296
  21
0.430696
  31
0
  0
LINE
  5
132
  100
AcDbEntity
  8
SK1
  100
AcDbLine
  10
32.1128
  20
0
  30
0
  11
32.3356
  21
0.222827
  31
0
  0
LINE
  5
133
  100
AcDbEntity
  8
SK1
  100
AcDbLine
  10
30.6
  20
0
  30
0
  11
30.6
  21
1.75
  31
0
  0
LINE
  5
134
  100
AcDbEntity
  8
SK1
  100
AcDbLine
  10
30.6
  20
0
  30
0
  11
32.35
  21
0
  31
0
  0
ARC
  5
135
  100
AcDbEntity
  8
SK1
  100
AcDbCircle
  10
30.6
  20
0
  30
0
  40
1.75
  100
AcDbArc
  50
0
  51
90
  0
ARC
  5
136
  100
AcDbEntity
  8
SK1
  100
AcDbCircle
  10
30.6
  20
0
  30
0
  40
1.75
  100
AcDbArc
  50
90
  51
180
  0
LINE
  5
137
  100
AcDbEntity
  8
SK1
  100
AcDbLine
  10
30.5721
  20
0
  30
0
  11
30.6
  21
-0.027896
  31
0
  0
LINE
  5
138
  100
AcDbEntity
  8
SK1
  100
AcDbLine
  10
30.3246
  20
0
  30
0
  11
30.6
  21
-0.275383
  31
0
  0
LINE
  5
139
  100
AcDbEntity
  8
SK1
  100
AcDbLine
  10
30.0771
  20
0
  30
0
  11
30.6
  21
-0.522871
  31
0
  0
LINE
  5
13a
  100
AcDbEntity
  8
SK1
  100
AcDbLine
  10
29.8296
  20
0
  30
0
  11
30.6
  21
-0.770358
  31
0
  0
LINE
  5
13b
  100
AcDbEntity
  8
SK1
  100
AcDbLine
  10
29.5822
  20
0
  30
0
  11
30.6
  21
-1.01785
  31
0
  0
LINE
  5
13c
  100
AcDbEntity
  8
SK1
  100
AcDbLine
  10
29.3347
  20
0
  30
0
  11
30.6
  21
-1.26533
  31
0
  0
LINE
  5
13d
  100
AcDbEntity
  8
SK1
  100
AcDbLine
  10
29.0872
  20
0
  30
0
  11
30.6
  21
-1.51282
  31
0
  0
LINE
  5
13e
  100
AcDbEntity
  8
SK1
  100
AcDbLine
  10
28.8503
  20
-0.010642
  30
0
  11
30.5894
  21
-1.74967
  31
0
  0
LINE
  5
13f
  100
AcDbEntity
  8
SK1
  100
AcDbLine
  10
28.8736
  20
-0.281429
  30
0
  11
30.3186
  21
-1.72637
  31
0
  0
LINE
  5
140
  100
AcDbEntity
  8
SK1
  100
AcDbLine
  10
28.9639
  20
-0.619147
  30
0
  11
29.9809
  21
-1.63613
  31
0
  0
LINE
  5
141
  100
AcDbEntity
  8
SK1
  100
AcDbLine
  10
28.8514
  20
-0.044098
  30
0
  11
28.8955
  21
0
  31
0
  0
LINE
  5
142
  100
AcDbEntity
  8
SK1
  100
AcDbLine
  10
28.872
  20
-0.270991
  30
0
  11
29.143
  21
0
  31
0
  0
LINE
  5
143
  100
AcDbEntity
  8
SK1
  100
AcDbLine
  10
28.9163
  20
-0.474162
  30
0
  11
29.3905
  21
0
  31
0
  0
LINE
  5
144
  100
AcDbEntity
  8
SK1
  100
AcDbLine
  10
28.9792
  20
-0.658762
  30
0
  11
29.6379
  21
0
  31
0
  0
LINE
  5
145
  100
AcDbEntity
  8
SK1
  100
AcDbLine
  10
29.0583
  20
-0.827105
  30
0
  11
29.8854
  21
0
  31
0
  0
LINE
  5
146
  100
AcDbEntity
  8
SK1
  100
AcDbLine
  10
29.1519
  20
-0.981039
  30
0
  11
30.1329
  21
0
  31
0
  0
LINE
  5
147
  100
AcDbEntity
  8
SK1
  100
AcDbLine
  10
29.2578
  20
-1.12257
  30
0
  11
30.3804
  21
0
  31
0
  0
LINE
  5
148
  100
AcDbEntity
  8
SK1
  100
AcDbLine
  10
29.3771
  20
-1.25077
  30
0
  11
30.6
  21
-0.027896
  31
0
  0
LINE
  5
149
  100
AcDbEntity
  8
SK1
  100
AcDbLine
  10
29.5084
  20
-1.36695
  30
0
  11
30.6
  21
-0.275383
  31
0
  0
LINE
  5
14a
  100
AcDbEntity
  8
SK1
  100
AcDbLine
  10
29.6522
  20
-1.47069
  30
0
  11
30.6
  21
-0.522871
  31
0
  0
LINE
  5
14b
  100
AcDbEntity
  8
SK1
  100
AcDbLine
  10
29.8099
  20
-1.5605
  30
0
  11
30.6
  21
-0.770358
  31
0
  0
LINE
  5
14c
  100
AcDbEntity
  8
SK1
  100
AcDbLine
  10
29.9815
  20
-1.63636
  30
0
  11
30.6
  21
-1.01785
  31
0
  0
LINE
  5
14d
  100
AcDbEntity
  8
SK1
  100
AcDbLine
  10
30.1693
  20
-1.69603
  30
0
  11
30.6
  21
-1.26533
  31
0
  0
LINE
  5
14e
  100
AcDbEntity
  8
SK1
  100
AcDbLine
  10
30.3772
  20
-1.73565
  30
0
  11
30.6
  21
-1.51282
  31
0
  0
LINE
  5
14f
  100
AcDbEntity
  8
SK1
  100
AcDbLine
  10
30.6
  20
0
  30
0
  11
28.85
  21
0
  31
0
  0
LINE
  5
150
  100
AcDbEntity
  8
SK1
  100
AcDbLine
  10
30.6
  20
-1.75
  30
0
  11
30.6
  21
0
  31
0
  0
ARC
  5
151
  100
AcDbEntity
  8
SK1
  100
AcDbCircle
  10
30.6
  20
0
  30
0
  40
1.75
  100
AcDbArc
  50
180
  51
270
  0
ARC
  5
152
  100
AcDbEntity
  8
SK1
  100
AcDbCircle
  10
30.6
  20
0
  30
0
  40
1.75
  100
AcDbArc
  50
270
  51
0
  0
LINE
  5
1c3
  100
AcDbEntity
  8
NOCUT
  100
AcDbLine
  10
42
  20
0
  30
0
  11
42
  21
0.975
  31
0
  0
LINE
  5
1c4
  100
AcDbEntity
  8
NOCUT
  100
AcDbLine
  10
42
  20
0.975
  30
0
  11
35.05
  21
0.975
  31
0
  0
ARC
  5
1c5
  100
AcDbEntity
  8
NOCUT
  100
AcDbCircle
  10
35.921557
  20
10.936947
  30
0
  40
10
  100
AcDbArc
  50
255
  51
265
  0
LINE
  5
1c6
  100
AcDbEntity
  8
NOCUT
  100
AcDbLine
  10
33.333367
  20
1.277689
  30
0
  11
30.637665
  21
2
  31
0
  0
LINE
  5
1c7
  100
AcDbEntity
  8
NOCUT
  100
AcDbLine
  10
30.637665
  20
2
  30
0
  11
30.6
  21
2
  31
0
  0
LINE
  5
1c8
  100
AcDbEntity
  8
NOCUT
  100
AcDbLine
  10
30.6
  20
2
  30
0
  11
30.6
  21
0
  31
0
  0
LINE
  5
1c9
  100
AcDbEntity
  8
NOCUT
  100
AcDbLine
  10
30.6
  20
0
  30
0
  11
42
  21
0
  31
0
  0
LINE
  5
1ca
  100
AcDbEntity
  8
CUT
  100
AcDbLine
  10
45
  20
0
  30
0
  11
45
  21
1
  31
0
  0
LINE
  5
1cb
  100
AcDbEntity
  8
CUT
  100
AcDbLine
  10
45
  20
1
  30
0
  11
42
  21
1
  31
0
  0
LINE
  5
1cc
  100
AcDbEntity
  8
CUT
  100
AcDbLine
  10
42
  20
1
  30
0
  11
42
  21
0
  31
0
  0
LINE
  5
1cd
  100
AcDbEntity
  8
CUT
  100
AcDbLine
  10
42
  20
0
  30
0
  11
45
  21
0
  31
0
  0
LINE
  5
1ce
  100
AcDbEntity
  8
4
  100
AcDbLine
  10
30.6
  20
0
  30
0
  11
45
  21
0
  31
0
  0
LINE
  5
1cf
  100
AcDbEntity
  8
SK4
  100
AcDbLine
  10
-1
  20
0
  30
0
  11
46
  21
0
  31
0
  0
LINE
  5
1d0
  100
AcDbEntity
  8
INFTOTAL
  100
AcDbLine
  10
-15.45
  20
17.45
  30
0
  11
60.45
  21
17.45
  31
0
  0
LINE
  5
1d1
  100
AcDbEntity
  8
INFTOTAL
  100
AcDbLine
  10
60.45
  20
17.45
  30
0
  11
60.45
  21
-14.386947
  31
0
  0
LINE
  5
1d2
  100
AcDbEntity
  8
INFTOTAL
  100
AcDbLine
  10
60.45
  20
-14.386947
  30
0
  11
-15.45
  21
-14.386947
  31
0
  0
LINE
  5
1d3
  100
AcDbEntity
  8
INFTOTAL
  100
AcDbLine
  10
-15.45
  20
-14.386947
  30
0
  11
-15.45
  21
17.45
  31
0
  0
ENDSEC
  0
SECTION
  2
OBJECTS
  0
DICTIONARY
  5
1d4
  330
0
100
AcDbDictionary
281
    1
  3
ACAD_GROUP
  350
1d5
  0
DICTIONARY
  5
1d5
102
{ACAD_REACTORS
  330
1d4
102
}
  330
1d4
100
AcDbDictionary
281
    1
  0
ENDSEC
  0
EOF
