  0
SECTION
  2
HEADER
  9
$ACADVER
  1
AC1015
  9
$DWGCODEPAGE
  3
ANSI_932
  9
$HANDSEED
  5
106AB90
  0
ENDSEC
  0
SECTION
  2
CLASSES
  0
CLASS
  1
IMAGEDEF
  2
AcDbRasterImageDef
  3
ISM
  90
0
  91
4
  280
0
  281
0
  0
CLASS
  1
IMAGE
  2
AcDbRasterImage
  3
ISM
  90
127
  91
5
  280
0
  281
1
  0
CLASS
  1
IMAGEDEF_REACTOR
  2
AcDbRasterImageDefReactor
  3
ISM
  90
1
  91
4
  280
0
  281
0
  0
ENDSEC
  0
SECTION
  2
TABLES
  0
TABLE
  2
VPORT
  5
2
  330
0
  100
AcDbSymbolTable
  70
    0
  0
ENDTAB
  0
TABLE
  2
LTYPE
  5
3
  330
0
  100
AcDbSymbolTable
  70
    4
  0
LTYPE
  5
4
  330
3
  100
AcDbSymbolTableRecord
  100
AcDbLinetypeTableRecord
  2
ByBlock
  70
    0
  3

  72
65
  73
    0
  40
0
  0
LTYPE
  5
5
  330
3
  100
AcDbSymbolTableRecord
  100
AcDbLinetypeTableRecord
  2
ByLayer
  70
    0
  3

  72
65
  73
    0
  40
0
  0
LTYPE
  5
6
  330
3
  100
AcDbSymbolTableRecord
  100
AcDbLinetypeTableRecord
  2
CONTINUOUS
  70
    0
  3
Solid Line
  72
65
  73
    0
  40
0
  0
LTYPE
  5
7
  330
3
  100
AcDbSymbolTableRecord
  100
AcDbLinetypeTableRecord
  2
DASH
  70
    0
  3
Hidden
  72
65
  73
2
  40
2.5
  49
1.5
  74
0
  49
-1
  74
0
  0
LTYPE
  5
8
  330
3
  100
AcDbSymbolTableRecord
  100
AcDbLinetypeTableRecord
  2
LONGDASHDASH
  70
    0
  3
__ . __
  72
65
  73
    4
  40
7
  49
4
  74
    0
  49
-1
  74
    0
  49
1
  74
    0
  49
-1
  74
    0
  0
ENDTAB
  0
TABLE
  2
LAYER
  5
9
  330
0
  100
AcDbSymbolTable
  70
    40
  0
LAYER
  5
a
  330
9
  100
AcDbSymbolTableRecord
  100
AcDbLayerTableRecord
  2
0
  70
    0
  62
    0
  6
CONTINUOUS
  390
0
  0
LAYER
  5
c
  330
9
  100
AcDbSymbolTableRecord
  100
AcDbLayerTableRecord
  2
1
  70
    0
  62
    4
  6
CONTINUOUS
  370
50
  390
0
  0
LAYER
  5
d
  330
9
  100
AcDbSymbolTableRecord
  100
AcDbLayerTableRecord
  2
2
  70
    0
  62
    7
  6
CONTINUOUS
  370
25
  390
0
  0
LAYER
  5
f
  330
9
  100
AcDbSymbolTableRecord
  100
AcDbLayerTableRecord
  2
4
  70
    0
  62
    2
  6
LONGDASHDASH
  370
25
  390
0
  0
LAYER
  5
13
  330
9
  100
AcDbSymbolTableRecord
  100
AcDbLayerTableRecord
  2
SK1
  70
    0
  62
    4
  6
CONTINUOUS
  370
50
  390
0
  0
LAYER
  5
14
  330
9
  100
AcDbSymbolTableRecord
  100
AcDbLayerTableRecord
  2
SK2
  70
    0
  62
    7
  6
CONTINUOUS
  370
25
  390
0
  0
LAYER
  5
16
  330
9
  100
AcDbSymbolTableRecord
  100
AcDbLayerTableRecord
  2
SK4
  70
    0
  62
    2
  6
LONGDASHDASH
  370
25
  390
0
  0
LAYER
  5
21
  330
9
  100
AcDbSymbolTableRecord
  100
AcDbLayerTableRecord
  2
NOCUT
  70
    0
  62
    7
  6
CONTINUOUS
  370
25
  390
0
  0
LAYER
  5
22
  330
9
  100
AcDbSymbolTableRecord
  100
AcDbLayerTableRecord
  2
CUT
  70
    0
  62
    1
  6
CONTINUOUS
  370
25
  390
0
  0
LAYER
  5
26
  330
9
  100
AcDbSymbolTableRecord
  100
AcDbLayerTableRecord
  2
INFTOTAL
  70
    0
  62
    9
  6
CONTINUOUS
  370
18
  390
0
  0
ENDTAB
  0
TABLE
  2
STYLE
  5
27
  330
0
  100
AcDbSymbolTable
  70
    1
  0
STYLE
  5
28
  330
27
  100
AcDbSymbolTableRecord
  100
AcDbTextStyleTableRecord
  2
Monospac821 BT
  70
    0
  40
    3.5
  41
1
  50
0
  71
0
  42
3
  3

  4

  1001
ACAD
  1000
Monospac821 BT
  1071
256
  0
ENDTAB
  0
TABLE
  2
VIEW
  5
29
  330
0
  100
AcDbSymbolTable
  70
    0
  0
ENDTAB
  0
TABLE
  2
UCS
  5
2a
  330
0
  100
AcDbSymbolTable
  70
    0
  0
ENDTAB
  0
TABLE
  2
APPID
  5
2b
  330
0
  100
AcDbSymbolTable
  70
    1
  0
APPID
  5
2c
  330
2b
  100
AcDbSymbolTableRecord
  100
AcDbRegAppTableRecord
  2
ACAD
  70
    0
  0
ENDTAB
  0
TABLE
  2
DIMSTYLE
  5
2d
  330
0
  100
AcDbSymbolTable
  70
    1
  100
AcDbDimStyleTable
  0
DIMSTYLE
  105
2e
  330
2d
  100
AcDbSymbolTableRecord
  100
AcDbDimStyleTableRecord
  2
STANDARD
  70
    0
  41
    3
  42
0.5
  44
1
  73
0
  77
1
  78
1
  140
3.5
  141
2.5
  143
0.03937
  147
0.8
  172
1
  174
1
  178
0
  179
1
  271
2
  279
1
  284
1
  340
28
  0
ENDTAB
  0
TABLE
  2
BLOCK_RECORD
  5
2f
  330
0
  100
AcDbSymbolTable
  70
    2
  0
BLOCK_RECORD
  5
30
  330
2f
  100
AcDbSymbolTableRecord
  100
AcDbBlockTableRecord
  2
*Model_Space
  0
BLOCK_RECORD
  5
31
  330
2f
  100
AcDbSymbolTableRecord
  100
AcDbBlockTableRecord
  2
*Paper_Space
  0
BLOCK_RECORD
  5
183
  330
2f
  100
AcDbSymbolTableRecord
  100
AcDbBlockTableRecord
  2
*D182
  340
0
  0
BLOCK_RECORD
  5
191
  330
2f
  100
AcDbSymbolTableRecord
  100
AcDbBlockTableRecord
  2
*D190
  340
0
  0
BLOCK_RECORD
  5
19f
  330
2f
  100
AcDbSymbolTableRecord
  100
AcDbBlockTableRecord
  2
*D19e
  340
0
  0
BLOCK_RECORD
  5
1ad
  330
2f
  100
AcDbSymbolTableRecord
  100
AcDbBlockTableRecord
  2
*D1ac
  340
0
  0
BLOCK_RECORD
  5
1bb
  330
2f
  100
AcDbSymbolTableRecord
  100
AcDbBlockTableRecord
  2
*D1ba
  340
0
  0
BLOCK_RECORD
  5
1c9
  330
2f
  100
AcDbSymbolTableRecord
  100
AcDbBlockTableRecord
  2
*D1c8
  340
0
  0
BLOCK_RECORD
  5
1d7
  330
2f
  100
AcDbSymbolTableRecord
  100
AcDbBlockTableRecord
  2
*D1d6
  340
0
  0
BLOCK_RECORD
  5
1e5
  330
2f
  100
AcDbSymbolTableRecord
  100
AcDbBlockTableRecord
  2
*D1e4
  340
0
  0
ENDTAB
  0
ENDSEC
  0
SECTION
  2
BLOCKS
  0
BLOCK
  5
32
  330
30
  100
AcDbEntity
  8
0
  100
AcDbBlockBegin
  2
*Model_Space
  70
    0
  10
0
  20
0
  30
0
  3
*Model_Space
  1

  0
ENDBLK
  5
33
  330
30
  100
AcDbEntity
  8
0
  100
AcDbBlockEnd
  0
BLOCK
  5
34
  330
31
  100
AcDbEntity
  8
0
  100
AcDbBlockBegin
  2
*Paper_Space
  70
    0
  10
0
  20
0
  30
0
  3
*Paper_Space
  1

  0
ENDBLK
  5
35
  330
31
  100
AcDbEntity
  8
0
  100
AcDbBlockEnd
  0
BLOCK
  5
181
  330
183
  100
AcDbEntity
  8
SK2
  100
AcDbBlockBegin
  2
*D182
  70
1
  10
0
  20
0
  30
0
  3
*D182
  1

  0
LINE
  5
184
  330
183
  100
AcDbEntity
  8
SK2
  100
AcDbLine
  10
0
  20
1.3
  30
0
  11
0
  21
14
  31
0
  0
LINE
  5
185
  330
183
  100
AcDbEntity
  8
SK2
  100
AcDbLine
  10
55
  20
1.25
  30
0
  11
55
  21
14
  31
0
  0
LINE
  5
186
  330
183
  100
AcDbEntity
  8
SK2
  100
AcDbLine
  10
0
  20
12
  30
0
  11
55
  21
12
  31
0
  0
SOLID
  5
187
  330
183
  100
AcDbEntity
  8
SK2
  100
AcDbTrace
  10
0
  20
12
  30
0
  11
2.478612
  21
12.326315
  31
0
  12
2.478612
  22
11.673685
  32
0
  13
2.478612
  23
11.673685
  33
0
  0
SOLID
  5
188
  330
183
  100
AcDbEntity
  8
SK2
  100
AcDbTrace
  10
55
  20
12
  30
0
  11
52.521388
  21
11.673685
  31
0
  12
52.521388
  22
12.326315
  32
0
  13
52.521388
  23
12.326315
  33
0
  0
MTEXT
  5
189
  330
183
  100
AcDbEntity
  8
SK2
  100
AcDbMText
  10
37.397052
  20
12
  30
0
  11
1
  21
0
  31
0
  40
2
  41
0
  71
8
  72
1
  1
55
  0
POINT
  5
18a
  330
183
  100
AcDbEntity
  8
SK2
  62
0
  100
AcDbPoint
  10
0
  20
1.3
  30
0
  0
POINT
  5
18b
  330
183
  100
AcDbEntity
  8
SK2
  62
0
  100
AcDbPoint
  10
55
  20
1.25
  30
0
  0
POINT
  5
18c
  330
183
  100
AcDbEntity
  8
SK2
  62
0
  100
AcDbPoint
  10
55
  20
12
  30
0
  0
ENDBLK
  5
18d
  330
183
  100
AcDbEntity
  8
SK2
  100
AcDbBlockEnd
  0
BLOCK
  5
18f
  330
191
  100
AcDbEntity
  8
SK2
  100
AcDbBlockBegin
  2
*D190
  70
1
  10
0
  20
0
  30
0
  3
*D190
  1

  0
LINE
  5
192
  330
191
  100
AcDbEntity
  8
SK2
  100
AcDbLine
  10
0
  20
1.3
  30
0
  11
0
  21
8.990662
  31
0
  0
LINE
  5
193
  330
191
  100
AcDbEntity
  8
SK2
  100
AcDbLine
  10
35.7
  20
2
  30
0
  11
35.7
  21
8.990662
  31
0
  0
LINE
  5
194
  330
191
  100
AcDbEntity
  8
SK2
  100
AcDbLine
  10
0
  20
6.990662
  30
0
  11
35.7
  21
6.990662
  31
0
  0
SOLID
  5
195
  330
191
  100
AcDbEntity
  8
SK2
  100
AcDbTrace
  10
0
  20
6.990662
  30
0
  11
2.478612
  21
7.316978
  31
0
  12
2.478612
  22
6.664347
  32
0
  13
2.478612
  23
6.664347
  33
0
  0
SOLID
  5
196
  330
191
  100
AcDbEntity
  8
SK2
  100
AcDbTrace
  10
35.7
  20
6.990662
  30
0
  11
33.221388
  21
6.664347
  31
0
  12
33.221388
  22
7.316978
  32
0
  13
33.221388
  23
7.316978
  33
0
  0
MTEXT
  5
197
  330
191
  100
AcDbEntity
  8
SK2
  100
AcDbMText
  10
17.85
  20
6.990662
  30
0
  11
1
  21
0
  31
0
  40
2
  41
0
  71
8
  72
1
  1
35.7
  0
POINT
  5
198
  330
191
  100
AcDbEntity
  8
SK2
  62
0
  100
AcDbPoint
  10
0
  20
1.3
  30
0
  0
POINT
  5
199
  330
191
  100
AcDbEntity
  8
SK2
  62
0
  100
AcDbPoint
  10
35.7
  20
2
  30
0
  0
POINT
  5
19a
  330
191
  100
AcDbEntity
  8
SK2
  62
0
  100
AcDbPoint
  10
35.7
  20
6.990662
  30
0
  0
ENDBLK
  5
19b
  330
191
  100
AcDbEntity
  8
SK2
  100
AcDbBlockEnd
  0
BLOCK
  5
19d
  330
19f
  100
AcDbEntity
  8
SK2
  100
AcDbBlockBegin
  2
*D19e
  70
1
  10
0
  20
0
  30
0
  3
*D19e
  1

  0
LINE
  5
1a0
  330
19f
  100
AcDbEntity
  8
SK2
  100
AcDbLine
  10
0.7
  20
-2
  30
0
  11
-12
  21
-2
  31
0
  0
LINE
  5
1a1
  330
19f
  100
AcDbEntity
  8
SK2
  100
AcDbLine
  10
0.7
  20
2
  30
0
  11
-12
  21
2
  31
0
  0
LINE
  5
1a2
  330
19f
  100
AcDbEntity
  8
SK2
  100
AcDbLine
  10
-10
  20
-4.158416
  30
0
  11
-10
  21
2
  31
0
  0
SOLID
  5
1a3
  330
19f
  100
AcDbEntity
  8
SK2
  100
AcDbTrace
  10
-10
  20
-2
  30
0
  11
-10.326315
  21
0.478612
  31
0
  12
-9.673685
  22
0.478612
  32
0
  13
-9.673685
  23
0.478612
  33
0
  0
SOLID
  5
1a4
  330
19f
  100
AcDbEntity
  8
SK2
  100
AcDbTrace
  10
-10
  20
2
  30
0
  11
-9.673685
  21
-0.478612
  31
0
  12
-10.326315
  22
-0.478612
  32
0
  13
-10.326315
  23
-0.478612
  33
0
  0
MTEXT
  5
1a5
  330
19f
  100
AcDbEntity
  8
SK2
  100
AcDbMText
  10
-10
  20
0
  30
0
  11
0
  21
1
  31
0
  40
2
  41
0
  71
8
  72
1
  1
ﾘ4
  0
POINT
  5
1a6
  330
19f
  100
AcDbEntity
  8
SK2
  62
0
  100
AcDbPoint
  10
0.7
  20
-2
  30
0
  0
POINT
  5
1a7
  330
19f
  100
AcDbEntity
  8
SK2
  62
0
  100
AcDbPoint
  10
0.7
  20
2
  30
0
  0
POINT
  5
1a8
  330
19f
  100
AcDbEntity
  8
SK2
  62
0
  100
AcDbPoint
  10
-10
  20
2
  30
0
  0
ENDBLK
  5
1a9
  330
19f
  100
AcDbEntity
  8
SK2
  100
AcDbBlockEnd
  0
BLOCK
  5
1ab
  330
1ad
  100
AcDbEntity
  8
2
  100
AcDbBlockBegin
  2
*D1ac
  70
1
  10
0
  20
0
  30
0
  3
*D1ac
  1

  0
LINE
  5
1ae
  330
1ad
  100
AcDbEntity
  8
2
  100
AcDbLine
  10
55
  20
-1.25
  30
0
  11
67
  21
-1.25
  31
0
  0
LINE
  5
1af
  330
1ad
  100
AcDbEntity
  8
2
  100
AcDbLine
  10
55
  20
1.25
  30
0
  11
67
  21
1.25
  31
0
  0
LINE
  5
1b0
  330
1ad
  100
AcDbEntity
  8
2
  100
AcDbLine
  10
65
  20
-6.757426
  30
0
  11
65
  21
1.25
  31
0
  0
SOLID
  5
1b1
  330
1ad
  100
AcDbEntity
  8
2
  100
AcDbTrace
  10
65
  20
-1.25
  30
0
  11
64.673685
  21
1.228612
  31
0
  12
65.326315
  22
1.228612
  32
0
  13
65.326315
  23
1.228612
  33
0
  0
SOLID
  5
1b2
  330
1ad
  100
AcDbEntity
  8
2
  100
AcDbTrace
  10
65
  20
1.25
  30
0
  11
65.326315
  21
-1.228612
  31
0
  12
64.673685
  22
-1.228612
  32
0
  13
64.673685
  23
-1.228612
  33
0
  0
MTEXT
  5
1b3
  330
1ad
  100
AcDbEntity
  8
2
  100
AcDbMText
  10
65
  20
0
  30
0
  11
0
  21
1
  31
0
  40
2
  41
0
  71
8
  72
1
  1
ﾘ2.5
  0
POINT
  5
1b4
  330
1ad
  100
AcDbEntity
  8
2
  62
0
  100
AcDbPoint
  10
55
  20
-1.25
  30
0
  0
POINT
  5
1b5
  330
1ad
  100
AcDbEntity
  8
2
  62
0
  100
AcDbPoint
  10
55
  20
1.25
  30
0
  0
POINT
  5
1b6
  330
1ad
  100
AcDbEntity
  8
2
  62
0
  100
AcDbPoint
  10
65
  20
1.25
  30
0
  0
ENDBLK
  5
1b7
  330
1ad
  100
AcDbEntity
  8
2
  100
AcDbBlockEnd
  0
BLOCK
  5
1b9
  330
1bb
  100
AcDbEntity
  8
2
  100
AcDbBlockBegin
  2
*D1ba
  70
1
  10
0
  20
0
  30
0
  3
*D1ba
  1

  0
LINE
  5
1bc
  330
1bb
  100
AcDbEntity
  8
2
  100
AcDbLine
  10
51.3
  20
-1.2
  30
0
  11
49.3
  21
-1.2
  31
0
  0
LINE
  5
1bd
  330
1bb
  100
AcDbEntity
  8
2
  100
AcDbLine
  10
51.3
  20
1.2
  30
0
  11
49.3
  21
1.2
  31
0
  0
LINE
  5
1be
  330
1bb
  100
AcDbEntity
  8
2
  100
AcDbLine
  10
51.3
  20
-1.2
  30
0
  11
51.3
  21
7.79703
  31
0
  0
SOLID
  5
1bf
  330
1bb
  100
AcDbEntity
  8
2
  100
AcDbTrace
  10
51.3
  20
-1.2
  30
0
  11
50.973685
  21
1.278612
  31
0
  12
51.626315
  22
1.278612
  32
0
  13
51.626315
  23
1.278612
  33
0
  0
SOLID
  5
1c0
  330
1bb
  100
AcDbEntity
  8
2
  100
AcDbTrace
  10
51.3
  20
1.2
  30
0
  11
51.626315
  21
-1.278612
  31
0
  12
50.973685
  22
-1.278612
  32
0
  13
50.973685
  23
-1.278612
  33
0
  0
MTEXT
  5
1c1
  330
1bb
  100
AcDbEntity
  8
2
  100
AcDbMText
  10
51.3
  20
1.2
  30
0
  11
0
  21
1
  31
0
  40
2
  41
0
  71
8
  72
1
  1
ﾘ2.4
  0
POINT
  5
1c2
  330
1bb
  100
AcDbEntity
  8
2
  62
0
  100
AcDbPoint
  10
49.3
  20
-1.2
  30
0
  0
POINT
  5
1c3
  330
1bb
  100
AcDbEntity
  8
2
  62
0
  100
AcDbPoint
  10
49.3
  20
1.2
  30
0
  0
POINT
  5
1c4
  330
1bb
  100
AcDbEntity
  8
2
  62
0
  100
AcDbPoint
  10
51.3
  20
7.79703
  30
0
  0
ENDBLK
  5
1c5
  330
1bb
  100
AcDbEntity
  8
2
  100
AcDbBlockEnd
  0
BLOCK
  5
1c7
  330
1c9
  100
AcDbEntity
  8
2
  100
AcDbBlockBegin
  2
*D1c8
  70
1
  10
0
  20
0
  30
0
  3
*D1c8
  1

  0
LINE
  5
1ca
  330
1c9
  100
AcDbEntity
  8
2
  100
AcDbLine
  10
51.3
  20
1.2
  30
0
  11
51.3
  21
9
  31
0
  0
LINE
  5
1cb
  330
1c9
  100
AcDbEntity
  8
2
  100
AcDbLine
  10
39.25
  20
1.2
  30
0
  11
39.25
  21
9
  31
0
  0
LINE
  5
1cc
  330
1c9
  100
AcDbEntity
  8
2
  100
AcDbLine
  10
51.3
  20
7
  30
0
  11
39.25
  21
7
  31
0
  0
SOLID
  5
1cd
  330
1c9
  100
AcDbEntity
  8
2
  100
AcDbTrace
  10
51.3
  20
7
  30
0
  11
53.778612
  21
7.326315
  31
0
  12
53.778612
  22
6.673685
  32
0
  13
53.778612
  23
6.673685
  33
0
  0
SOLID
  5
1ce
  330
1c9
  100
AcDbEntity
  8
2
  100
AcDbTrace
  10
39.25
  20
7
  30
0
  11
36.771388
  21
6.673685
  31
0
  12
36.771388
  22
7.326315
  32
0
  13
36.771388
  23
7.326315
  33
0
  0
MTEXT
  5
1cf
  330
1c9
  100
AcDbEntity
  8
2
  100
AcDbMText
  10
45.275
  20
7
  30
0
  11
1
  21
-0
  31
0
  40
2
  41
0
  71
8
  72
1
  1
12.05
  0
POINT
  5
1d0
  330
1c9
  100
AcDbEntity
  8
2
  62
0
  100
AcDbPoint
  10
51.3
  20
1.2
  30
0
  0
POINT
  5
1d1
  330
1c9
  100
AcDbEntity
  8
2
  62
0
  100
AcDbPoint
  10
39.25
  20
1.2
  30
0
  0
POINT
  5
1d2
  330
1c9
  100
AcDbEntity
  8
2
  62
0
  100
AcDbPoint
  10
39.25
  20
7
  30
0
  0
ENDBLK
  5
1d3
  330
1c9
  100
AcDbEntity
  8
2
  100
AcDbBlockEnd
  0
BLOCK
  5
1d5
  330
1d7
  100
AcDbEntity
  8
2
  100
AcDbBlockBegin
  2
*D1d6
  70
1
  10
0
  20
0
  30
0
  3
*D1d6
  1

  0
LINE
  5
1d8
  330
1d7
  100
AcDbEntity
  8
2
  100
AcDbLine
  10
55
  20
1.25
  30
0
  11
55
  21
14
  31
0
  0
LINE
  5
1d9
  330
1d7
  100
AcDbEntity
  8
2
  100
AcDbLine
  10
35.7
  20
2
  30
0
  11
35.7
  21
9
  31
0
  0
LINE
  5
1da
  330
1d7
  100
AcDbEntity
  8
2
  100
AcDbLine
  10
55
  20
7
  30
0
  11
35.7
  21
7
  31
0
  0
SOLID
  5
1db
  330
1d7
  100
AcDbEntity
  8
2
  100
AcDbTrace
  10
55
  20
7
  30
0
  11
57.478612
  21
7.326315
  31
0
  12
57.478612
  22
6.673685
  32
0
  13
57.478612
  23
6.673685
  33
0
  0
SOLID
  5
1dc
  330
1d7
  100
AcDbEntity
  8
2
  100
AcDbTrace
  10
35.7
  20
7
  30
0
  11
33.221388
  21
6.673685
  31
0
  12
33.221388
  22
7.326315
  32
0
  13
33.221388
  23
7.326315
  33
0
  0
MTEXT
  5
1dd
  330
1d7
  100
AcDbEntity
  8
2
  100
AcDbMText
  10
45.35
  20
7
  30
0
  11
1
  21
-0
  31
0
  40
2
  41
0
  71
8
  72
1
  1
19.3
  0
POINT
  5
1de
  330
1d7
  100
AcDbEntity
  8
2
  62
0
  100
AcDbPoint
  10
55
  20
14
  30
0
  0
POINT
  5
1df
  330
1d7
  100
AcDbEntity
  8
2
  62
0
  100
AcDbPoint
  10
35.7
  20
2
  30
0
  0
POINT
  5
1e0
  330
1d7
  100
AcDbEntity
  8
2
  62
0
  100
AcDbPoint
  10
35.7
  20
7
  30
0
  0
ENDBLK
  5
1e1
  330
1d7
  100
AcDbEntity
  8
2
  100
AcDbBlockEnd
  0
BLOCK
  5
1e3
  330
1e5
  100
AcDbEntity
  8
2
  100
AcDbBlockBegin
  2
*D1e4
  70
1
  10
0
  20
0
  30
0
  3
*D1e4
  1

  0
LINE
  5
1e6
  330
1e5
  100
AcDbEntity
  8
2
  100
AcDbLine
  10
55
  20
-10.291202
  30
0
  11
55
  21
0
  31
0
  0
LINE
  5
1e7
  330
1e5
  100
AcDbEntity
  8
2
  100
AcDbLine
  10
51.3
  20
-10.291202
  30
0
  11
51.3
  21
-1.2
  31
0
  0
LINE
  5
1e8
  330
1e5
  100
AcDbEntity
  8
2
  100
AcDbLine
  10
55
  20
-8.291202
  30
0
  11
48.731436
  21
-8.291202
  31
0
  0
SOLID
  5
1e9
  330
1e5
  100
AcDbEntity
  8
2
  100
AcDbTrace
  10
55
  20
-8.291202
  30
0
  11
57.478612
  21
-7.964887
  31
0
  12
57.478612
  22
-8.617518
  32
0
  13
57.478612
  23
-8.617518
  33
0
  0
SOLID
  5
1ea
  330
1e5
  100
AcDbEntity
  8
2
  100
AcDbTrace
  10
51.3
  20
-8.291202
  30
0
  11
48.821388
  21
-8.617518
  31
0
  12
48.821388
  22
-7.964887
  32
0
  13
48.821388
  23
-7.964887
  33
0
  0
MTEXT
  5
1eb
  330
1e5
  100
AcDbEntity
  8
2
  100
AcDbMText
  10
53.15
  20
-8.291202
  30
0
  11
1
  21
-0
  31
0
  40
2
  41
0
  71
8
  72
1
  1
3.7
  0
POINT
  5
1ec
  330
1e5
  100
AcDbEntity
  8
2
  62
0
  100
AcDbPoint
  10
55
  20
0
  30
0
  0
POINT
  5
1ed
  330
1e5
  100
AcDbEntity
  8
2
  62
0
  100
AcDbPoint
  10
51.3
  20
-1.2
  30
0
  0
POINT
  5
1ee
  330
1e5
  100
AcDbEntity
  8
2
  62
0
  100
AcDbPoint
  10
48.731436
  20
-8.291202
  30
0
  0
ENDBLK
  5
1ef
  330
1e5
  100
AcDbEntity
  8
2
  100
AcDbBlockEnd
  0
ENDSEC
  0
SECTION
  2
ENTITIES
  0
DIMENSION
  5
18e
  100
AcDbEntity
  8
SK2
  100
AcDbDimension
  2
*D182
  10
55
  20
12
  30
0
  11
37.397052
  21
12
  31
0
  70
160
  1
<>
  71
5
  3
STANDARD
  42
55
  100
AcDbAlignedDimension
  13
0
  23
1.3
  33
0
  14
55
  24
1.25
  34
0
  50
0
  100
AcDbRotatedDimension
  0
DIMENSION
  5
19c
  100
AcDbEntity
  8
SK2
  100
AcDbDimension
  2
*D190
  10
35.7
  20
6.990662
  30
0
  11
17.85
  21
6.990662
  31
0
  70
160
  1
<>
  71
5
  3
STANDARD
  42
35.7
  100
AcDbAlignedDimension
  13
0
  23
1.3
  33
0
  14
35.7
  24
2
  34
0
  50
0
  100
AcDbRotatedDimension
  0
DIMENSION
  5
1aa
  100
AcDbEntity
  8
SK2
  100
AcDbDimension
  2
*D19e
  10
-10
  20
2
  30
0
  11
-10
  21
0
  31
0
  70
160
  1
%%c<>
  71
5
  3
STANDARD
  42
4
  100
AcDbAlignedDimension
  13
0.7
  23
-2
  33
0
  14
0.7
  24
2
  34
0
  50
-90
  100
AcDbRotatedDimension
  0
DIMENSION
  5
1b8
  100
AcDbEntity
  8
2
  100
AcDbDimension
  2
*D1ac
  10
65
  20
1.25
  30
0
  11
65
  21
0
  31
0
  70
160
  1
%%c<>
  71
5
  3
STANDARD
  42
2.5
  100
AcDbAlignedDimension
  13
55
  23
-1.25
  33
0
  14
55
  24
1.25
  34
0
  50
-90
  100
AcDbRotatedDimension
  0
DIMENSION
  5
1c6
  100
AcDbEntity
  8
2
  100
AcDbDimension
  2
*D1ba
  10
51.3
  20
7.79703
  30
0
  11
51.3
  21
1.2
  31
0
  70
160
  1
%%c<>
  71
5
  3
STANDARD
  42
2.4
  100
AcDbAlignedDimension
  13
49.3
  23
-1.2
  33
0
  14
49.3
  24
1.2
  34
0
  50
-90
  100
AcDbRotatedDimension
  0
DIMENSION
  5
1d4
  100
AcDbEntity
  8
2
  100
AcDbDimension
  2
*D1c8
  10
39.25
  20
7
  30
0
  11
45.275
  21
7
  31
0
  70
160
  1
<>
  71
5
  3
STANDARD
  42
12.05
  100
AcDbAlignedDimension
  13
51.3
  23
1.2
  33
0
  14
39.25
  24
1.2
  34
0
  50
0
  100
AcDbRotatedDimension
  0
DIMENSION
  5
1e2
  100
AcDbEntity
  8
2
  100
AcDbDimension
  2
*D1d6
  10
35.7
  20
7
  30
0
  11
45.35
  21
7
  31
0
  70
160
  1
<>
  71
5
  3
STANDARD
  42
19.3
  100
AcDbAlignedDimension
  13
55
  23
14
  33
0
  14
35.7
  24
2
  34
0
  50
0
  100
AcDbRotatedDimension
  0
DIMENSION
  5
1f0
  100
AcDbEntity
  8
2
  100
AcDbDimension
  2
*D1e4
  10
48.731436
  20
-8.291202
  30
0
  11
53.15
  21
-8.291202
  31
0
  70
160
  1
<>
  71
5
  3
STANDARD
  42
3.7
  100
AcDbAlignedDimension
  13
55
  23
0
  33
0
  14
51.3
  24
-1.2
  34
0
  50
0
  100
AcDbRotatedDimension
  0
ARC
  5
36
  100
AcDbEntity
  8
1
  100
AcDbCircle
  10
40.121557
  20
-11.161947
  30
0
  40
10
  100
AcDbArc
  50
95
  51
105
  0
LINE
  5
37
  100
AcDbEntity
  8
1
  100
AcDbLine
  10
39.25
  20
-1.2
  30
0
  11
51.3
  21
-1.2
  31
0
  0
LINE
  5
38
  100
AcDbEntity
  8
1
  100
AcDbLine
  10
51.3
  20
-1.2
  30
0
  11
51.3
  21
-1.25
  31
0
  0
LINE
  5
39
  100
AcDbEntity
  8
1
  100
AcDbLine
  10
51.3
  20
-1.25
  30
0
  11
55
  21
-1.25
  31
0
  0
LINE
  5
3a
  100
AcDbEntity
  8
1
  100
AcDbLine
  10
55
  20
-1.25
  30
0
  11
55
  21
1.25
  31
0
  0
LINE
  5
3b
  100
AcDbEntity
  8
1
  100
AcDbLine
  10
55
  20
0.386271
  30
0
  11
54.9
  21
0.440749
  31
0
  0
LINE
  5
3c
  100
AcDbEntity
  8
1
  100
AcDbLine
  10
54.9
  20
0.440749
  30
0
  11
54.8
  21
0.494287
  31
0
  0
LINE
  5
3d
  100
AcDbEntity
  8
1
  100
AcDbLine
  10
54.8
  20
0.494287
  30
0
  11
54.7
  21
0.54677
  31
0
  0
LINE
  5
3e
  100
AcDbEntity
  8
1
  100
AcDbLine
  10
54.7
  20
0.54677
  30
0
  11
54.6
  21
0.598087
  31
0
  0
LINE
  5
3f
  100
AcDbEntity
  8
1
  100
AcDbLine
  10
54.6
  20
0.598087
  30
0
  11
54.5
  21
0.648129
  31
0
  0
LINE
  5
40
  100
AcDbEntity
  8
1
  100
AcDbLine
  10
54.5
  20
0.648129
  30
0
  11
54.4
  21
0.696788
  31
0
  0
LINE
  5
41
  100
AcDbEntity
  8
1
  100
AcDbLine
  10
54.4
  20
0.696788
  30
0
  11
54.3
  21
0.743961
  31
0
  0
LINE
  5
42
  100
AcDbEntity
  8
1
  100
AcDbLine
  10
54.3
  20
0.743961
  30
0
  11
54.2
  21
0.789547
  31
0
  0
LINE
  5
43
  100
AcDbEntity
  8
1
  100
AcDbLine
  10
54.2
  20
0.789547
  30
0
  11
54.1
  21
0.833449
  31
0
  0
LINE
  5
44
  100
AcDbEntity
  8
1
  100
AcDbLine
  10
54.1
  20
0.833449
  30
0
  11
54
  21
0.875573
  31
0
  0
LINE
  5
45
  100
AcDbEntity
  8
1
  100
AcDbLine
  10
54
  20
0.875573
  30
0
  11
53.9
  21
0.91583
  31
0
  0
LINE
  5
46
  100
AcDbEntity
  8
1
  100
AcDbLine
  10
53.9
  20
0.91583
  30
0
  11
53.8
  21
0.954133
  31
0
  0
LINE
  5
47
  100
AcDbEntity
  8
1
  100
AcDbLine
  10
53.8
  20
0.954133
  30
0
  11
53.7
  21
0.990401
  31
0
  0
LINE
  5
48
  100
AcDbEntity
  8
1
  100
AcDbLine
  10
53.7
  20
0.990401
  30
0
  11
53.6
  21
1.024557
  31
0
  0
LINE
  5
49
  100
AcDbEntity
  8
1
  100
AcDbLine
  10
53.6
  20
1.024557
  30
0
  11
53.5
  21
1.056527
  31
0
  0
LINE
  5
4a
  100
AcDbEntity
  8
1
  100
AcDbLine
  10
53.5
  20
1.056527
  30
0
  11
53.4
  21
1.086244
  31
0
  0
LINE
  5
4b
  100
AcDbEntity
  8
1
  100
AcDbLine
  10
53.4
  20
1.086244
  30
0
  11
53.3
  21
1.113644
  31
0
  0
LINE
  5
4c
  100
AcDbEntity
  8
1
  100
AcDbLine
  10
53.3
  20
1.113644
  30
0
  11
53.2
  21
1.138668
  31
0
  0
LINE
  5
4d
  100
AcDbEntity
  8
1
  100
AcDbLine
  10
53.2
  20
1.138668
  30
0
  11
53.1
  21
1.161264
  31
0
  0
LINE
  5
4e
  100
AcDbEntity
  8
1
  100
AcDbLine
  10
53.1
  20
1.161264
  30
0
  11
53
  21
1.181383
  31
0
  0
LINE
  5
4f
  100
AcDbEntity
  8
1
  100
AcDbLine
  10
53
  20
1.181383
  30
0
  11
52.9
  21
1.198982
  31
0
  0
LINE
  5
50
  100
AcDbEntity
  8
1
  100
AcDbLine
  10
52.9
  20
1.198982
  30
0
  11
52.8
  21
1.214024
  31
0
  0
LINE
  5
51
  100
AcDbEntity
  8
1
  100
AcDbLine
  10
52.8
  20
1.214024
  30
0
  11
52.7
  21
1.226476
  31
0
  0
LINE
  5
52
  100
AcDbEntity
  8
1
  100
AcDbLine
  10
52.7
  20
1.226476
  30
0
  11
52.6
  21
1.236312
  31
0
  0
LINE
  5
53
  100
AcDbEntity
  8
1
  100
AcDbLine
  10
52.6
  20
1.236312
  30
0
  11
52.5
  21
1.243511
  31
0
  0
LINE
  5
54
  100
AcDbEntity
  8
1
  100
AcDbLine
  10
52.5
  20
1.243511
  30
0
  11
52.4
  21
1.248058
  31
0
  0
LINE
  5
55
  100
AcDbEntity
  8
1
  100
AcDbLine
  10
52.4
  20
1.248058
  30
0
  11
52.3
  21
1.249943
  31
0
  0
LINE
  5
56
  100
AcDbEntity
  8
1
  100
AcDbLine
  10
52.3
  20
1.249943
  30
0
  11
52.279298
  21
1.25
  31
0
  0
LINE
  5
57
  100
AcDbEntity
  8
1
  100
AcDbLine
  10
50.9
  20
1.2
  30
0
  11
50.9
  21
0.975573
  31
0
  0
LINE
  5
58
  100
AcDbEntity
  8
1
  100
AcDbLine
  10
50.9
  20
0.975573
  30
0
  11
51
  21
0.724315
  31
0
  0
LINE
  5
59
  100
AcDbEntity
  8
1
  100
AcDbLine
  10
51
  20
0.724315
  30
0
  11
51.1
  21
0.628698
  31
0
  0
LINE
  5
5a
  100
AcDbEntity
  8
1
  100
AcDbLine
  10
51.1
  20
0.628698
  30
0
  11
51.2
  21
0.575816
  31
0
  0
LINE
  5
5b
  100
AcDbEntity
  8
1
  100
AcDbLine
  10
51.2
  20
0.575816
  30
0
  11
51.3
  21
0.52651
  31
0
  0
LINE
  5
5c
  100
AcDbEntity
  8
1
  100
AcDbLine
  10
51.3
  20
0.52651
  30
0
  11
51.3
  21
0.546316
  31
0
  0
LINE
  5
5d
  100
AcDbEntity
  8
1
  100
AcDbLine
  10
51.3
  20
0.546316
  30
0
  11
51.4
  21
0.493823
  31
0
  0
LINE
  5
5e
  100
AcDbEntity
  8
1
  100
AcDbLine
  10
51.4
  20
0.493823
  30
0
  11
51.5
  21
0.440277
  31
0
  0
LINE
  5
5f
  100
AcDbEntity
  8
1
  100
AcDbLine
  10
51.5
  20
0.440277
  30
0
  11
51.6
  21
0.385791
  31
0
  0
LINE
  5
60
  100
AcDbEntity
  8
1
  100
AcDbLine
  10
51.6
  20
0.385791
  30
0
  11
51.7
  21
0.330483
  31
0
  0
LINE
  5
61
  100
AcDbEntity
  8
1
  100
AcDbLine
  10
51.7
  20
0.330483
  30
0
  11
51.8
  21
0.27447
  31
0
  0
LINE
  5
62
  100
AcDbEntity
  8
1
  100
AcDbLine
  10
51.8
  20
0.27447
  30
0
  11
51.9
  21
0.217871
  31
0
  0
LINE
  5
63
  100
AcDbEntity
  8
1
  100
AcDbLine
  10
51.9
  20
0.217871
  30
0
  11
52
  21
0.160808
  31
0
  0
LINE
  5
64
  100
AcDbEntity
  8
1
  100
AcDbLine
  10
52
  20
0.160808
  30
0
  11
52.1
  21
0.103401
  31
0
  0
LINE
  5
65
  100
AcDbEntity
  8
1
  100
AcDbLine
  10
52.1
  20
0.103401
  30
0
  11
52.2
  21
0.045774
  31
0
  0
LINE
  5
66
  100
AcDbEntity
  8
1
  100
AcDbLine
  10
52.2
  20
0.045774
  30
0
  11
52.3
  21
-0.01195
  31
0
  0
LINE
  5
67
  100
AcDbEntity
  8
1
  100
AcDbLine
  10
52.3
  20
-0.01195
  30
0
  11
52.4
  21
-0.06965
  31
0
  0
LINE
  5
68
  100
AcDbEntity
  8
1
  100
AcDbLine
  10
52.4
  20
-0.06965
  30
0
  11
52.5
  21
-0.1272
  31
0
  0
LINE
  5
69
  100
AcDbEntity
  8
1
  100
AcDbLine
  10
52.5
  20
-0.1272
  30
0
  11
52.6
  21
-0.184479
  31
0
  0
LINE
  5
6a
  100
AcDbEntity
  8
1
  100
AcDbLine
  10
52.6
  20
-0.184479
  30
0
  11
52.7
  21
-0.241365
  31
0
  0
LINE
  5
6b
  100
AcDbEntity
  8
1
  100
AcDbLine
  10
52.7
  20
-0.241365
  30
0
  11
52.8
  21
-0.297736
  31
0
  0
LINE
  5
6c
  100
AcDbEntity
  8
1
  100
AcDbLine
  10
52.8
  20
-0.297736
  30
0
  11
52.9
  21
-0.353472
  31
0
  0
LINE
  5
6d
  100
AcDbEntity
  8
1
  100
AcDbLine
  10
52.9
  20
-0.353472
  30
0
  11
53
  21
-0.408454
  31
0
  0
LINE
  5
6e
  100
AcDbEntity
  8
1
  100
AcDbLine
  10
53
  20
-0.408454
  30
0
  11
53.1
  21
-0.462565
  31
0
  0
LINE
  5
6f
  100
AcDbEntity
  8
1
  100
AcDbLine
  10
53.1
  20
-0.462565
  30
0
  11
53.2
  21
-0.515689
  31
0
  0
LINE
  5
70
  100
AcDbEntity
  8
1
  100
AcDbLine
  10
53.2
  20
-0.515689
  30
0
  11
53.3
  21
-0.567713
  31
0
  0
LINE
  5
71
  100
AcDbEntity
  8
1
  100
AcDbLine
  10
53.3
  20
-0.567713
  30
0
  11
53.4
  21
-0.618526
  31
0
  0
LINE
  5
72
  100
AcDbEntity
  8
1
  100
AcDbLine
  10
53.4
  20
-0.618526
  30
0
  11
53.5
  21
-0.66802
  31
0
  0
LINE
  5
73
  100
AcDbEntity
  8
1
  100
AcDbLine
  10
53.5
  20
-0.66802
  30
0
  11
53.6
  21
-0.716089
  31
0
  0
LINE
  5
74
  100
AcDbEntity
  8
1
  100
AcDbLine
  10
53.6
  20
-0.716089
  30
0
  11
53.7
  21
-0.762631
  31
0
  0
LINE
  5
75
  100
AcDbEntity
  8
1
  100
AcDbLine
  10
53.7
  20
-0.762631
  30
0
  11
53.8
  21
-0.807546
  31
0
  0
LINE
  5
76
  100
AcDbEntity
  8
1
  100
AcDbLine
  10
53.8
  20
-0.807546
  30
0
  11
53.9
  21
-0.850739
  31
0
  0
LINE
  5
77
  100
AcDbEntity
  8
1
  100
AcDbLine
  10
53.9
  20
-0.850739
  30
0
  11
54
  21
-0.892117
  31
0
  0
LINE
  5
78
  100
AcDbEntity
  8
1
  100
AcDbLine
  10
54
  20
-0.892117
  30
0
  11
54.1
  21
-0.931592
  31
0
  0
LINE
  5
79
  100
AcDbEntity
  8
1
  100
AcDbLine
  10
54.1
  20
-0.931592
  30
0
  11
54.2
  21
-0.96908
  31
0
  0
LINE
  5
7a
  100
AcDbEntity
  8
1
  100
AcDbLine
  10
54.2
  20
-0.96908
  30
0
  11
54.3
  21
-1.004501
  31
0
  0
LINE
  5
7b
  100
AcDbEntity
  8
1
  100
AcDbLine
  10
54.3
  20
-1.004501
  30
0
  11
54.4
  21
-1.03778
  31
0
  0
LINE
  5
7c
  100
AcDbEntity
  8
1
  100
AcDbLine
  10
54.4
  20
-1.03778
  30
0
  11
54.5
  21
-1.068845
  31
0
  0
LINE
  5
7d
  100
AcDbEntity
  8
1
  100
AcDbLine
  10
54.5
  20
-1.068845
  30
0
  11
54.6
  21
-1.09763
  31
0
  0
LINE
  5
7e
  100
AcDbEntity
  8
1
  100
AcDbLine
  10
54.6
  20
-1.09763
  30
0
  11
54.7
  21
-1.124074
  31
0
  0
LINE
  5
7f
  100
AcDbEntity
  8
1
  100
AcDbLine
  10
54.7
  20
-1.124074
  30
0
  11
54.8
  21
-1.14812
  31
0
  0
LINE
  5
80
  100
AcDbEntity
  8
1
  100
AcDbLine
  10
54.8
  20
-1.14812
  30
0
  11
54.9
  21
-1.169718
  31
0
  0
LINE
  5
81
  100
AcDbEntity
  8
1
  100
AcDbLine
  10
54.9
  20
-1.169718
  30
0
  11
55
  21
-1.188821
  31
0
  0
LINE
  5
82
  100
AcDbEntity
  8
1
  100
AcDbLine
  10
55
  20
-1.228294
  30
0
  11
54.9
  21
-1.2213
  31
0
  0
LINE
  5
83
  100
AcDbEntity
  8
1
  100
AcDbLine
  10
54.9
  20
-1.2213
  30
0
  11
54.8
  21
-1.211702
  31
0
  0
LINE
  5
84
  100
AcDbEntity
  8
1
  100
AcDbLine
  10
54.8
  20
-1.211702
  30
0
  11
54.7
  21
-1.199518
  31
0
  0
LINE
  5
85
  100
AcDbEntity
  8
1
  100
AcDbLine
  10
54.7
  20
-1.199518
  30
0
  11
54.6
  21
-1.184777
  31
0
  0
LINE
  5
86
  100
AcDbEntity
  8
1
  100
AcDbLine
  10
54.6
  20
-1.184777
  30
0
  11
54.5
  21
-1.167508
  31
0
  0
LINE
  5
87
  100
AcDbEntity
  8
1
  100
AcDbLine
  10
54.5
  20
-1.167508
  30
0
  11
54.4
  21
-1.147749
  31
0
  0
LINE
  5
88
  100
AcDbEntity
  8
1
  100
AcDbLine
  10
54.4
  20
-1.147749
  30
0
  11
54.3
  21
-1.125542
  31
0
  0
LINE
  5
89
  100
AcDbEntity
  8
1
  100
AcDbLine
  10
54.3
  20
-1.125542
  30
0
  11
54.2
  21
-1.100934
  31
0
  0
LINE
  5
8a
  100
AcDbEntity
  8
1
  100
AcDbLine
  10
54.2
  20
-1.100934
  30
0
  11
54.1
  21
-1.073978
  31
0
  0
LINE
  5
8b
  100
AcDbEntity
  8
1
  100
AcDbLine
  10
54.1
  20
-1.073978
  30
0
  11
54
  21
-1.044731
  31
0
  0
LINE
  5
8c
  100
AcDbEntity
  8
1
  100
AcDbLine
  10
54
  20
-1.044731
  30
0
  11
53.9
  21
-1.013256
  31
0
  0
LINE
  5
8d
  100
AcDbEntity
  8
1
  100
AcDbLine
  10
53.9
  20
-1.013256
  30
0
  11
53.8
  21
-0.979619
  31
0
  0
LINE
  5
8e
  100
AcDbEntity
  8
1
  100
AcDbLine
  10
53.8
  20
-0.979619
  30
0
  11
53.7
  21
-0.943893
  31
0
  0
LINE
  5
8f
  100
AcDbEntity
  8
1
  100
AcDbLine
  10
53.7
  20
-0.943893
  30
0
  11
53.6
  21
-0.906154
  31
0
  0
LINE
  5
90
  100
AcDbEntity
  8
1
  100
AcDbLine
  10
53.6
  20
-0.906154
  30
0
  11
53.5
  21
-0.866482
  31
0
  0
LINE
  5
91
  100
AcDbEntity
  8
1
  100
AcDbLine
  10
53.5
  20
-0.866482
  30
0
  11
53.4
  21
-0.824962
  31
0
  0
LINE
  5
92
  100
AcDbEntity
  8
1
  100
AcDbLine
  10
53.4
  20
-0.824962
  30
0
  11
53.3
  21
-0.781682
  31
0
  0
LINE
  5
93
  100
AcDbEntity
  8
1
  100
AcDbLine
  10
53.3
  20
-0.781682
  30
0
  11
53.2
  21
-0.736735
  31
0
  0
LINE
  5
94
  100
AcDbEntity
  8
1
  100
AcDbLine
  10
53.2
  20
-0.736735
  30
0
  11
53.1
  21
-0.690217
  31
0
  0
LINE
  5
95
  100
AcDbEntity
  8
1
  100
AcDbLine
  10
53.1
  20
-0.690217
  30
0
  11
53
  21
-0.642226
  31
0
  0
LINE
  5
96
  100
AcDbEntity
  8
1
  100
AcDbLine
  10
53
  20
-0.642226
  30
0
  11
52.9
  21
-0.592866
  31
0
  0
LINE
  5
97
  100
AcDbEntity
  8
1
  100
AcDbLine
  10
52.9
  20
-0.592866
  30
0
  11
52.8
  21
-0.542241
  31
0
  0
LINE
  5
98
  100
AcDbEntity
  8
1
  100
AcDbLine
  10
52.8
  20
-0.542241
  30
0
  11
52.7
  21
-0.490459
  31
0
  0
LINE
  5
99
  100
AcDbEntity
  8
1
  100
AcDbLine
  10
52.7
  20
-0.490459
  30
0
  11
52.6
  21
-0.437631
  31
0
  0
LINE
  5
9a
  100
AcDbEntity
  8
1
  100
AcDbLine
  10
52.6
  20
-0.437631
  30
0
  11
52.5
  21
-0.38387
  31
0
  0
LINE
  5
9b
  100
AcDbEntity
  8
1
  100
AcDbLine
  10
52.5
  20
-0.38387
  30
0
  11
52.4
  21
-0.32929
  31
0
  0
LINE
  5
9c
  100
AcDbEntity
  8
1
  100
AcDbLine
  10
52.4
  20
-0.32929
  30
0
  11
52.3
  21
-0.274008
  31
0
  0
LINE
  5
9d
  100
AcDbEntity
  8
1
  100
AcDbLine
  10
52.3
  20
-0.274008
  30
0
  11
52.2
  21
-0.218141
  31
0
  0
LINE
  5
9e
  100
AcDbEntity
  8
1
  100
AcDbLine
  10
52.2
  20
-0.218141
  30
0
  11
52.1
  21
-0.161809
  31
0
  0
LINE
  5
9f
  100
AcDbEntity
  8
1
  100
AcDbLine
  10
52.1
  20
-0.161809
  30
0
  11
52
  21
-0.105131
  31
0
  0
LINE
  5
a0
  100
AcDbEntity
  8
1
  100
AcDbLine
  10
52
  20
-0.105131
  30
0
  11
51.9
  21
-0.04823
  31
0
  0
LINE
  5
a1
  100
AcDbEntity
  8
1
  100
AcDbLine
  10
51.9
  20
-0.04823
  30
0
  11
51.8
  21
0.008774
  31
0
  0
LINE
  5
a2
  100
AcDbEntity
  8
1
  100
AcDbLine
  10
51.8
  20
0.008774
  30
0
  11
51.7
  21
0.06576
  31
0
  0
LINE
  5
a3
  100
AcDbEntity
  8
1
  100
AcDbLine
  10
51.7
  20
0.06576
  30
0
  11
51.6
  21
0.122605
  31
0
  0
LINE
  5
a4
  100
AcDbEntity
  8
1
  100
AcDbLine
  10
51.6
  20
0.122605
  30
0
  11
51.5
  21
0.179189
  31
0
  0
LINE
  5
a5
  100
AcDbEntity
  8
1
  100
AcDbLine
  10
51.5
  20
0.179189
  30
0
  11
51.4
  21
0.235391
  31
0
  0
LINE
  5
a6
  100
AcDbEntity
  8
1
  100
AcDbLine
  10
50.9
  20
-1.2
  30
0
  11
50.9
  21
-1.164762
  31
0
  0
LINE
  5
a7
  100
AcDbEntity
  8
1
  100
AcDbLine
  10
50.9
  20
-1.164762
  30
0
  11
51
  21
-1.153312
  31
0
  0
LINE
  5
a8
  100
AcDbEntity
  8
1
  100
AcDbLine
  10
51
  20
-1.153312
  30
0
  11
51.1
  21
-1.166632
  31
0
  0
LINE
  5
a9
  100
AcDbEntity
  8
1
  100
AcDbLine
  10
51.1
  20
-1.166632
  30
0
  11
51.2
  21
-1.178358
  31
0
  0
LINE
  5
aa
  100
AcDbEntity
  8
1
  100
AcDbLine
  10
51.2
  20
-1.178358
  30
0
  11
51.3
  21
-1.187577
  31
0
  0
LINE
  5
ab
  100
AcDbEntity
  8
1
  100
AcDbLine
  10
51.3
  20
-1.187577
  30
0
  11
51.3
  21
-1.238089
  31
0
  0
LINE
  5
ac
  100
AcDbEntity
  8
1
  100
AcDbLine
  10
51.3
  20
-1.238089
  30
0
  11
51.4
  21
-1.244717
  31
0
  0
LINE
  5
ad
  100
AcDbEntity
  8
1
  100
AcDbLine
  10
51.4
  20
-1.244717
  30
0
  11
51.5
  21
-1.24869
  31
0
  0
LINE
  5
ae
  100
AcDbEntity
  8
1
  100
AcDbLine
  10
51.5
  20
-1.24869
  30
0
  11
51.599126
  21
-1.25
  31
0
  0
LINE
  5
af
  100
AcDbEntity
  8
1
  100
AcDbLine
  10
51.3
  20
-1.25
  30
0
  11
51.3
  21
1.25
  31
0
  0
LINE
  5
b0
  100
AcDbEntity
  8
1
  100
AcDbLine
  10
51.3
  20
1.2
  30
0
  11
51.3
  21
-1.2
  31
0
  0
LINE
  5
b1
  100
AcDbEntity
  8
1
  100
AcDbLine
  10
51.4
  20
-1.211797
  30
0
  11
51.5
  21
-1.221373
  31
0
  0
LINE
  5
b2
  100
AcDbEntity
  8
1
  100
AcDbLine
  10
51.5
  20
-1.221373
  30
0
  11
51.6
  21
-1.228344
  31
0
  0
LINE
  5
b3
  100
AcDbEntity
  8
1
  100
AcDbLine
  10
51.6
  20
-1.228344
  30
0
  11
51.7
  21
-1.232694
  31
0
  0
LINE
  5
b4
  100
AcDbEntity
  8
1
  100
AcDbLine
  10
51.7
  20
-1.232694
  30
0
  11
51.8
  21
-1.234416
  31
0
  0
LINE
  5
b5
  100
AcDbEntity
  8
1
  100
AcDbLine
  10
51.8
  20
-1.234416
  30
0
  11
51.815392
  21
-1.25
  31
0
  0
LINE
  5
b6
  100
AcDbEntity
  8
1
  100
AcDbLine
  10
52.279298
  20
-1.25
  30
0
  11
52.2
  21
-1.249162
  31
0
  0
LINE
  5
b7
  100
AcDbEntity
  8
1
  100
AcDbLine
  10
52.2
  20
-1.249162
  30
0
  11
52.1
  21
-1.245716
  31
0
  0
LINE
  5
b8
  100
AcDbEntity
  8
1
  100
AcDbLine
  10
52.1
  20
-1.245716
  30
0
  11
52
  21
-1.239613
  31
0
  0
LINE
  5
b9
  100
AcDbEntity
  8
1
  100
AcDbLine
  10
52
  20
-1.239613
  30
0
  11
51.9
  21
-1.230866
  31
0
  0
LINE
  5
ba
  100
AcDbEntity
  8
1
  100
AcDbLine
  10
51.9
  20
-1.230866
  30
0
  11
51.8
  21
-1.219494
  31
0
  0
LINE
  5
bb
  100
AcDbEntity
  8
1
  100
AcDbLine
  10
51.8
  20
-1.219494
  30
0
  11
51.7
  21
-1.205521
  31
0
  0
LINE
  5
bc
  100
AcDbEntity
  8
1
  100
AcDbLine
  10
51.7
  20
-1.205521
  30
0
  11
51.6
  21
-1.188976
  31
0
  0
LINE
  5
bd
  100
AcDbEntity
  8
1
  100
AcDbLine
  10
51.6
  20
-1.188976
  30
0
  11
51.5
  21
-1.169896
  31
0
  0
LINE
  5
be
  100
AcDbEntity
  8
1
  100
AcDbLine
  10
51.5
  20
-1.169896
  30
0
  11
51.4
  21
-1.14832
  31
0
  0
LINE
  5
bf
  100
AcDbEntity
  8
1
  100
AcDbLine
  10
51.4
  20
-1.14832
  30
0
  11
51.3
  21
-1.124295
  31
0
  0
LINE
  5
c0
  100
AcDbEntity
  8
1
  100
AcDbLine
  10
51.3
  20
-1.124295
  30
0
  11
51.3
  21
-1.078326
  31
0
  0
LINE
  5
c1
  100
AcDbEntity
  8
1
  100
AcDbLine
  10
51.3
  20
-1.078326
  30
0
  11
51.2
  21
-1.052823
  31
0
  0
LINE
  5
c2
  100
AcDbEntity
  8
1
  100
AcDbLine
  10
51.2
  20
-1.052823
  30
0
  11
51.1
  21
-1.022125
  31
0
  0
LINE
  5
c3
  100
AcDbEntity
  8
1
  100
AcDbLine
  10
51.1
  20
-1.022125
  30
0
  11
51
  21
-0.956749
  31
0
  0
LINE
  5
c4
  100
AcDbEntity
  8
1
  100
AcDbLine
  10
51
  20
-0.956749
  30
0
  11
50.9
  21
-0.698755
  31
0
  0
LINE
  5
c5
  100
AcDbEntity
  8
1
  100
AcDbLine
  10
50.9
  20
-0.698755
  30
0
  11
50.9
  21
0.288666
  31
0
  0
LINE
  5
c6
  100
AcDbEntity
  8
1
  100
AcDbLine
  10
50.9
  20
0.288666
  30
0
  11
51
  21
0.33147
  31
0
  0
LINE
  5
c7
  100
AcDbEntity
  8
1
  100
AcDbLine
  10
51
  20
0.33147
  30
0
  11
51.1
  21
0.281015
  31
0
  0
LINE
  5
c8
  100
AcDbEntity
  8
1
  100
AcDbLine
  10
51.1
  20
0.281015
  30
0
  11
51.2
  21
0.226874
  31
0
  0
LINE
  5
c9
  100
AcDbEntity
  8
1
  100
AcDbLine
  10
51.2
  20
0.226874
  30
0
  11
51.3
  21
0.172226
  31
0
  0
LINE
  5
ca
  100
AcDbEntity
  8
1
  100
AcDbLine
  10
51.3
  20
0.172226
  30
0
  11
51.3
  21
0.172152
  31
0
  0
LINE
  5
cb
  100
AcDbEntity
  8
1
  100
AcDbLine
  10
51.3
  20
0.172152
  30
0
  11
51.4
  21
0.114804
  31
0
  0
LINE
  5
cc
  100
AcDbEntity
  8
1
  100
AcDbLine
  10
51.4
  20
0.114804
  30
0
  11
51.5
  21
0.057211
  31
0
  0
LINE
  5
cd
  100
AcDbEntity
  8
1
  100
AcDbLine
  10
51.5
  20
0.057211
  30
0
  11
51.6
  21
-0.000504
  31
0
  0
LINE
  5
ce
  100
AcDbEntity
  8
1
  100
AcDbLine
  10
51.6
  20
-0.000504
  30
0
  11
51.7
  21
-0.058218
  31
0
  0
LINE
  5
cf
  100
AcDbEntity
  8
1
  100
AcDbLine
  10
51.7
  20
-0.058218
  30
0
  11
51.8
  21
-0.115808
  31
0
  0
LINE
  5
d0
  100
AcDbEntity
  8
1
  100
AcDbLine
  10
51.8
  20
-0.115808
  30
0
  11
51.9
  21
-0.173151
  31
0
  0
LINE
  5
d1
  100
AcDbEntity
  8
1
  100
AcDbLine
  10
51.9
  20
-0.173151
  30
0
  11
52
  21
-0.230124
  31
0
  0
LINE
  5
d2
  100
AcDbEntity
  8
1
  100
AcDbLine
  10
52
  20
-0.230124
  30
0
  11
52.1
  21
-0.286607
  31
0
  0
LINE
  5
d3
  100
AcDbEntity
  8
1
  100
AcDbLine
  10
52.1
  20
-0.286607
  30
0
  11
52.2
  21
-0.342478
  31
0
  0
LINE
  5
d4
  100
AcDbEntity
  8
1
  100
AcDbLine
  10
52.2
  20
-0.342478
  30
0
  11
52.3
  21
-0.397619
  31
0
  0
LINE
  5
d5
  100
AcDbEntity
  8
1
  100
AcDbLine
  10
52.3
  20
-0.397619
  30
0
  11
52.4
  21
-0.451912
  31
0
  0
LINE
  5
d6
  100
AcDbEntity
  8
1
  100
AcDbLine
  10
52.4
  20
-0.451912
  30
0
  11
52.5
  21
-0.505241
  31
0
  0
LINE
  5
d7
  100
AcDbEntity
  8
1
  100
AcDbLine
  10
52.5
  20
-0.505241
  30
0
  11
52.6
  21
-0.557492
  31
0
  0
LINE
  5
d8
  100
AcDbEntity
  8
1
  100
AcDbLine
  10
52.6
  20
-0.557492
  30
0
  11
52.7
  21
-0.608554
  31
0
  0
LINE
  5
d9
  100
AcDbEntity
  8
1
  100
AcDbLine
  10
52.7
  20
-0.608554
  30
0
  11
52.8
  21
-0.658318
  31
0
  0
LINE
  5
da
  100
AcDbEntity
  8
1
  100
AcDbLine
  10
52.8
  20
-0.658318
  30
0
  11
52.9
  21
-0.706678
  31
0
  0
LINE
  5
db
  100
AcDbEntity
  8
1
  100
AcDbLine
  10
52.9
  20
-0.706678
  30
0
  11
53
  21
-0.75353
  31
0
  0
LINE
  5
dc
  100
AcDbEntity
  8
1
  100
AcDbLine
  10
53
  20
-0.75353
  30
0
  11
53.1
  21
-0.798775
  31
0
  0
LINE
  5
dd
  100
AcDbEntity
  8
1
  100
AcDbLine
  10
53.1
  20
-0.798775
  30
0
  11
53.2
  21
-0.842317
  31
0
  0
LINE
  5
de
  100
AcDbEntity
  8
1
  100
AcDbLine
  10
53.2
  20
-0.842317
  30
0
  11
53.3
  21
-0.884062
  31
0
  0
LINE
  5
df
  100
AcDbEntity
  8
1
  100
AcDbLine
  10
53.3
  20
-0.884062
  30
0
  11
53.4
  21
-0.923921
  31
0
  0
LINE
  5
e0
  100
AcDbEntity
  8
1
  100
AcDbLine
  10
53.4
  20
-0.923921
  30
0
  11
53.5
  21
-0.96181
  31
0
  0
LINE
  5
e1
  100
AcDbEntity
  8
1
  100
AcDbLine
  10
53.5
  20
-0.96181
  30
0
  11
53.6
  21
-0.997647
  31
0
  0
LINE
  5
e2
  100
AcDbEntity
  8
1
  100
AcDbLine
  10
53.6
  20
-0.997647
  30
0
  11
53.7
  21
-1.031356
  31
0
  0
LINE
  5
e3
  100
AcDbEntity
  8
1
  100
AcDbLine
  10
53.7
  20
-1.031356
  30
0
  11
53.8
  21
-1.062865
  31
0
  0
LINE
  5
e4
  100
AcDbEntity
  8
1
  100
AcDbLine
  10
53.8
  20
-1.062865
  30
0
  11
53.9
  21
-1.092107
  31
0
  0
LINE
  5
e5
  100
AcDbEntity
  8
1
  100
AcDbLine
  10
53.9
  20
-1.092107
  30
0
  11
54
  21
-1.11902
  31
0
  0
LINE
  5
e6
  100
AcDbEntity
  8
1
  100
AcDbLine
  10
54
  20
-1.11902
  30
0
  11
54.1
  21
-1.143546
  31
0
  0
LINE
  5
e7
  100
AcDbEntity
  8
1
  100
AcDbLine
  10
54.1
  20
-1.143546
  30
0
  11
54.2
  21
-1.165633
  31
0
  0
LINE
  5
e8
  100
AcDbEntity
  8
1
  100
AcDbLine
  10
54.2
  20
-1.165633
  30
0
  11
54.3
  21
-1.185234
  31
0
  0
LINE
  5
e9
  100
AcDbEntity
  8
1
  100
AcDbLine
  10
54.3
  20
-1.185234
  30
0
  11
54.4
  21
-1.202306
  31
0
  0
LINE
  5
ea
  100
AcDbEntity
  8
1
  100
AcDbLine
  10
54.4
  20
-1.202306
  30
0
  11
54.5
  21
-1.216815
  31
0
  0
LINE
  5
eb
  100
AcDbEntity
  8
1
  100
AcDbLine
  10
54.5
  20
-1.216815
  30
0
  11
54.6
  21
-1.228727
  31
0
  0
LINE
  5
ec
  100
AcDbEntity
  8
1
  100
AcDbLine
  10
54.6
  20
-1.228727
  30
0
  11
54.7
  21
-1.238019
  31
0
  0
LINE
  5
ed
  100
AcDbEntity
  8
1
  100
AcDbLine
  10
54.7
  20
-1.238019
  30
0
  11
54.8
  21
-1.24467
  31
0
  0
LINE
  5
ee
  100
AcDbEntity
  8
1
  100
AcDbLine
  10
54.8
  20
-1.24467
  30
0
  11
54.9
  21
-1.248667
  31
0
  0
LINE
  5
ef
  100
AcDbEntity
  8
1
  100
AcDbLine
  10
54.9
  20
-1.248667
  30
0
  11
55
  21
-1.25
  31
0
  0
LINE
  5
f0
  100
AcDbEntity
  8
1
  100
AcDbLine
  10
55
  20
-1.25
  30
0
  11
55
  21
0
  31
0
  0
LINE
  5
f1
  100
AcDbEntity
  8
1
  100
AcDbLine
  10
55
  20
0.123101
  30
0
  11
54.9
  21
0.179682
  31
0
  0
LINE
  5
f2
  100
AcDbEntity
  8
1
  100
AcDbLine
  10
54.9
  20
0.179682
  30
0
  11
54.8
  21
0.23588
  31
0
  0
LINE
  5
f3
  100
AcDbEntity
  8
1
  100
AcDbLine
  10
54.8
  20
0.23588
  30
0
  11
54.7
  21
0.291574
  31
0
  0
LINE
  5
f4
  100
AcDbEntity
  8
1
  100
AcDbLine
  10
54.7
  20
0.291574
  30
0
  11
54.6
  21
0.346647
  31
0
  0
LINE
  5
f5
  100
AcDbEntity
  8
1
  100
AcDbLine
  10
54.6
  20
0.346647
  30
0
  11
54.5
  21
0.40098
  31
0
  0
LINE
  5
f6
  100
AcDbEntity
  8
1
  100
AcDbLine
  10
54.5
  20
0.40098
  30
0
  11
54.4
  21
0.454459
  31
0
  0
LINE
  5
f7
  100
AcDbEntity
  8
1
  100
AcDbLine
  10
54.4
  20
0.454459
  30
0
  11
54.3
  21
0.506967
  31
0
  0
LINE
  5
f8
  100
AcDbEntity
  8
1
  100
AcDbLine
  10
54.3
  20
0.506967
  30
0
  11
54.2
  21
0.558395
  31
0
  0
LINE
  5
f9
  100
AcDbEntity
  8
1
  100
AcDbLine
  10
54.2
  20
0.558395
  30
0
  11
54.1
  21
0.608631
  31
0
  0
LINE
  5
fa
  100
AcDbEntity
  8
1
  100
AcDbLine
  10
54.1
  20
0.608631
  30
0
  11
54
  21
0.657569
  31
0
  0
LINE
  5
fb
  100
AcDbEntity
  8
1
  100
AcDbLine
  10
54
  20
0.657569
  30
0
  11
53.9
  21
0.705105
  31
0
  0
LINE
  5
fc
  100
AcDbEntity
  8
1
  100
AcDbLine
  10
53.9
  20
0.705105
  30
0
  11
53.8
  21
0.751136
  31
0
  0
LINE
  5
fd
  100
AcDbEntity
  8
1
  100
AcDbLine
  10
53.8
  20
0.751136
  30
0
  11
53.7
  21
0.795566
  31
0
  0
LINE
  5
fe
  100
AcDbEntity
  8
1
  100
AcDbLine
  10
53.7
  20
0.795566
  30
0
  11
53.6
  21
0.838299
  31
0
  0
LINE
  5
ff
  100
AcDbEntity
  8
1
  100
AcDbLine
  10
53.6
  20
0.838299
  30
0
  11
53.5
  21
0.879243
  31
0
  0
LINE
  5
100
  100
AcDbEntity
  8
1
  100
AcDbLine
  10
53.5
  20
0.879243
  30
0
  11
53.4
  21
0.918312
  31
0
  0
LINE
  5
101
  100
AcDbEntity
  8
1
  100
AcDbLine
  10
53.4
  20
0.918312
  30
0
  11
53.3
  21
0.955423
  31
0
  0
LINE
  5
102
  100
AcDbEntity
  8
1
  100
AcDbLine
  10
53.3
  20
0.955423
  30
0
  11
53.2
  21
0.990495
  31
0
  0
LINE
  5
103
  100
AcDbEntity
  8
1
  100
AcDbLine
  10
53.2
  20
0.990495
  30
0
  11
53.1
  21
1.023455
  31
0
  0
LINE
  5
104
  100
AcDbEntity
  8
1
  100
AcDbLine
  10
53.1
  20
1.023455
  30
0
  11
53
  21
1.054232
  31
0
  0
LINE
  5
105
  100
AcDbEntity
  8
1
  100
AcDbLine
  10
53
  20
1.054232
  30
0
  11
52.9
  21
1.082761
  31
0
  0
LINE
  5
106
  100
AcDbEntity
  8
1
  100
AcDbLine
  10
52.9
  20
1.082761
  30
0
  11
52.8
  21
1.108979
  31
0
  0
LINE
  5
107
  100
AcDbEntity
  8
1
  100
AcDbLine
  10
52.8
  20
1.108979
  30
0
  11
52.7
  21
1.132833
  31
0
  0
LINE
  5
108
  100
AcDbEntity
  8
1
  100
AcDbLine
  10
52.7
  20
1.132833
  30
0
  11
52.6
  21
1.15427
  31
0
  0
LINE
  5
109
  100
AcDbEntity
  8
1
  100
AcDbLine
  10
52.6
  20
1.15427
  30
0
  11
52.5
  21
1.173245
  31
0
  0
LINE
  5
10a
  100
AcDbEntity
  8
1
  100
AcDbLine
  10
52.5
  20
1.173245
  30
0
  11
52.4
  21
1.189718
  31
0
  0
LINE
  5
10b
  100
AcDbEntity
  8
1
  100
AcDbLine
  10
52.4
  20
1.189718
  30
0
  11
52.3
  21
1.203653
  31
0
  0
LINE
  5
10c
  100
AcDbEntity
  8
1
  100
AcDbLine
  10
52.3
  20
1.203653
  30
0
  11
52.2
  21
1.21502
  31
0
  0
LINE
  5
10d
  100
AcDbEntity
  8
1
  100
AcDbLine
  10
52.2
  20
1.21502
  30
0
  11
52.1
  21
1.223797
  31
0
  0
LINE
  5
10e
  100
AcDbEntity
  8
1
  100
AcDbLine
  10
52.1
  20
1.223797
  30
0
  11
52
  21
1.229962
  31
0
  0
LINE
  5
10f
  100
AcDbEntity
  8
1
  100
AcDbLine
  10
52
  20
1.229962
  30
0
  11
51.9
  21
1.233505
  31
0
  0
LINE
  5
110
  100
AcDbEntity
  8
1
  100
AcDbLine
  10
51.9
  20
1.233505
  30
0
  11
51.815392
  21
1.25
  31
0
  0
LINE
  5
111
  100
AcDbEntity
  8
1
  100
AcDbLine
  10
51.599126
  20
1.25
  30
0
  11
51.6
  21
1.25
  31
0
  0
LINE
  5
112
  100
AcDbEntity
  8
1
  100
AcDbLine
  10
51.6
  20
1.25
  30
0
  11
51.7
  21
1.248644
  31
0
  0
LINE
  5
113
  100
AcDbEntity
  8
1
  100
AcDbLine
  10
51.7
  20
1.248644
  30
0
  11
51.8
  21
1.244624
  31
0
  0
LINE
  5
114
  100
AcDbEntity
  8
1
  100
AcDbLine
  10
51.8
  20
1.244624
  30
0
  11
51.9
  21
1.237949
  31
0
  0
LINE
  5
115
  100
AcDbEntity
  8
1
  100
AcDbLine
  10
51.9
  20
1.237949
  30
0
  11
52
  21
1.228635
  31
0
  0
LINE
  5
116
  100
AcDbEntity
  8
1
  100
AcDbLine
  10
52
  20
1.228635
  30
0
  11
52.1
  21
1.216699
  31
0
  0
LINE
  5
117
  100
AcDbEntity
  8
1
  100
AcDbLine
  10
52.1
  20
1.216699
  30
0
  11
52.2
  21
1.202168
  31
0
  0
LINE
  5
118
  100
AcDbEntity
  8
1
  100
AcDbLine
  10
52.2
  20
1.202168
  30
0
  11
52.3
  21
1.185073
  31
0
  0
LINE
  5
119
  100
AcDbEntity
  8
1
  100
AcDbLine
  10
52.3
  20
1.185073
  30
0
  11
52.4
  21
1.165451
  31
0
  0
LINE
  5
11a
  100
AcDbEntity
  8
1
  100
AcDbLine
  10
52.4
  20
1.165451
  30
0
  11
52.5
  21
1.143342
  31
0
  0
LINE
  5
11b
  100
AcDbEntity
  8
1
  100
AcDbLine
  10
52.5
  20
1.143342
  30
0
  11
52.6
  21
1.118795
  31
0
  0
LINE
  5
11c
  100
AcDbEntity
  8
1
  100
AcDbLine
  10
52.6
  20
1.118795
  30
0
  11
52.7
  21
1.091862
  31
0
  0
LINE
  5
11d
  100
AcDbEntity
  8
1
  100
AcDbLine
  10
52.7
  20
1.091862
  30
0
  11
52.8
  21
1.0626
  31
0
  0
LINE
  5
11e
  100
AcDbEntity
  8
1
  100
AcDbLine
  10
52.8
  20
1.0626
  30
0
  11
52.9
  21
1.031071
  31
0
  0
LINE
  5
11f
  100
AcDbEntity
  8
1
  100
AcDbLine
  10
52.9
  20
1.031071
  30
0
  11
53
  21
0.997343
  31
0
  0
LINE
  5
120
  100
AcDbEntity
  8
1
  100
AcDbLine
  10
53
  20
0.997343
  30
0
  11
53.1
  21
0.961487
  31
0
  0
LINE
  5
121
  100
AcDbEntity
  8
1
  100
AcDbLine
  10
53.1
  20
0.961487
  30
0
  11
53.2
  21
0.923581
  31
0
  0
LINE
  5
122
  100
AcDbEntity
  8
1
  100
AcDbLine
  10
53.2
  20
0.923581
  30
0
  11
53.3
  21
0.883705
  31
0
  0
LINE
  5
123
  100
AcDbEntity
  8
1
  100
AcDbLine
  10
53.3
  20
0.883705
  30
0
  11
53.4
  21
0.841944
  31
0
  0
LINE
  5
124
  100
AcDbEntity
  8
1
  100
AcDbLine
  10
53.4
  20
0.841944
  30
0
  11
53.5
  21
0.798387
  31
0
  0
LINE
  5
125
  100
AcDbEntity
  8
1
  100
AcDbLine
  10
53.5
  20
0.798387
  30
0
  11
53.6
  21
0.753128
  31
0
  0
LINE
  5
126
  100
AcDbEntity
  8
1
  100
AcDbLine
  10
53.6
  20
0.753128
  30
0
  11
53.7
  21
0.706261
  31
0
  0
LINE
  5
127
  100
AcDbEntity
  8
1
  100
AcDbLine
  10
53.7
  20
0.706261
  30
0
  11
53.8
  21
0.657889
  31
0
  0
LINE
  5
128
  100
AcDbEntity
  8
1
  100
AcDbLine
  10
53.8
  20
0.657889
  30
0
  11
53.9
  21
0.608113
  31
0
  0
LINE
  5
129
  100
AcDbEntity
  8
1
  100
AcDbLine
  10
53.9
  20
0.608113
  30
0
  11
54
  21
0.55704
  31
0
  0
LINE
  5
12a
  100
AcDbEntity
  8
1
  100
AcDbLine
  10
54
  20
0.55704
  30
0
  11
54.1
  21
0.504779
  31
0
  0
LINE
  5
12b
  100
AcDbEntity
  8
1
  100
AcDbLine
  10
54.1
  20
0.504779
  30
0
  11
54.2
  21
0.451441
  31
0
  0
LINE
  5
12c
  100
AcDbEntity
  8
1
  100
AcDbLine
  10
54.2
  20
0.451441
  30
0
  11
54.3
  21
0.397141
  31
0
  0
LINE
  5
12d
  100
AcDbEntity
  8
1
  100
AcDbLine
  10
54.3
  20
0.397141
  30
0
  11
54.4
  21
0.341993
  31
0
  0
LINE
  5
12e
  100
AcDbEntity
  8
1
  100
AcDbLine
  10
54.4
  20
0.341993
  30
0
  11
54.5
  21
0.286116
  31
0
  0
LINE
  5
12f
  100
AcDbEntity
  8
1
  100
AcDbLine
  10
54.5
  20
0.286116
  30
0
  11
54.6
  21
0.229629
  31
0
  0
LINE
  5
130
  100
AcDbEntity
  8
1
  100
AcDbLine
  10
54.6
  20
0.229629
  30
0
  11
54.7
  21
0.172651
  31
0
  0
LINE
  5
131
  100
AcDbEntity
  8
1
  100
AcDbLine
  10
54.7
  20
0.172651
  30
0
  11
54.8
  21
0.115306
  31
0
  0
LINE
  5
132
  100
AcDbEntity
  8
1
  100
AcDbLine
  10
54.8
  20
0.115306
  30
0
  11
54.9
  21
0.057715
  31
0
  0
LINE
  5
133
  100
AcDbEntity
  8
1
  100
AcDbLine
  10
54.9
  20
0.057715
  30
0
  11
55
  21
0
  31
0
  0
LINE
  5
134
  100
AcDbEntity
  8
1
  100
AcDbLine
  10
55
  20
0
  30
0
  11
55
  21
1.25
  31
0
  0
LINE
  5
135
  100
AcDbEntity
  8
1
  100
AcDbLine
  10
55
  20
1.25
  30
0
  11
51.3
  21
1.25
  31
0
  0
LINE
  5
136
  100
AcDbEntity
  8
1
  100
AcDbLine
  10
51.3
  20
1.25
  30
0
  11
51.3
  21
1.2
  31
0
  0
LINE
  5
137
  100
AcDbEntity
  8
1
  100
AcDbLine
  10
51.3
  20
1.2
  30
0
  11
39.25
  21
1.2
  31
0
  0
ARC
  5
138
  100
AcDbEntity
  8
1
  100
AcDbCircle
  10
40.121557
  20
11.161947
  30
0
  40
10
  100
AcDbArc
  50
255
  51
265
  0
LINE
  5
139
  100
AcDbEntity
  8
1
  100
AcDbLine
  10
37.533367
  20
1.502689
  30
0
  11
35.7
  21
1.993938
  31
0
  0
LINE
  5
13a
  100
AcDbEntity
  8
1
  100
AcDbLine
  10
35.7
  20
1.993938
  30
0
  11
35.7
  21
-1.993938
  31
0
  0
LINE
  5
13b
  100
AcDbEntity
  8
1
  100
AcDbLine
  10
35.7
  20
-1.993938
  30
0
  11
37.533367
  21
-1.502689
  31
0
  0
LINE
  5
13c
  100
AcDbEntity
  8
1
  100
AcDbLine
  10
37.533367
  20
-1.502689
  30
0
  11
37.533367
  21
1.502689
  31
0
  0
LINE
  5
13d
  100
AcDbEntity
  8
1
  100
AcDbLine
  10
39.25
  20
1.2
  30
0
  11
39.25
  21
-1.2
  31
0
  0
LINE
  5
13e
  100
AcDbEntity
  8
SK1
  100
AcDbLine
  10
35.7
  20
1.993938
  30
0
  11
35.677376
  21
2
  31
0
  0
LINE
  5
13f
  100
AcDbEntity
  8
SK1
  100
AcDbLine
  10
35.677376
  20
2
  30
0
  11
35.7
  21
2
  31
0
  0
LINE
  5
140
  100
AcDbEntity
  8
SK1
  100
AcDbLine
  10
35.7
  20
2
  30
0
  11
0.7
  21
2
  31
0
  0
LINE
  5
141
  100
AcDbEntity
  8
SK1
  100
AcDbLine
  10
0.7
  20
2
  30
0
  11
0
  21
1.3
  31
0
  0
LINE
  5
142
  100
AcDbEntity
  8
SK1
  100
AcDbLine
  10
35.7
  20
-1.993938
  30
0
  11
35.677376
  21
-2
  31
0
  0
LINE
  5
143
  100
AcDbEntity
  8
SK1
  100
AcDbLine
  10
35.677376
  20
-2
  30
0
  11
35.7
  21
-2
  31
0
  0
LINE
  5
144
  100
AcDbEntity
  8
SK1
  100
AcDbLine
  10
35.7
  20
-2
  30
0
  11
0.7
  21
-2
  31
0
  0
LINE
  5
145
  100
AcDbEntity
  8
SK1
  100
AcDbLine
  10
0.7
  20
-2
  30
0
  11
0
  21
-1.3
  31
0
  0
LINE
  5
146
  100
AcDbEntity
  8
SK1
  100
AcDbLine
  10
35.677376
  20
2
  30
0
  11
35.677376
  21
-2
  31
0
  0
LINE
  5
147
  100
AcDbEntity
  8
SK1
  100
AcDbLine
  10
0.7
  20
2
  30
0
  11
0.7
  21
-2
  31
0
  0
LINE
  5
148
  100
AcDbEntity
  8
SK1
  100
AcDbLine
  10
0
  20
1.3
  30
0
  11
0
  21
-1.3
  31
0
  0
LINE
  5
149
  100
AcDbEntity
  8
SK1
  100
AcDbLine
  10
36.7401
  20
1.40688
  30
0
  11
37.1069
  21
1.0401
  31
0
  0
LINE
  5
14a
  100
AcDbEntity
  8
SK1
  100
AcDbLine
  10
36.2328
  20
1.66666
  30
0
  11
37.3667
  21
0.532833
  31
0
  0
LINE
  5
14b
  100
AcDbEntity
  8
SK1
  100
AcDbLine
  10
35.9154
  20
1.73657
  30
0
  11
37.4366
  21
0.215434
  31
0
  0
LINE
  5
14c
  100
AcDbEntity
  8
SK1
  100
AcDbLine
  10
35.7
  20
1.70452
  30
0
  11
37.4045
  21
0
  31
0
  0
LINE
  5
14d
  100
AcDbEntity
  8
SK1
  100
AcDbLine
  10
35.7
  20
1.45703
  30
0
  11
37.157
  21
0
  31
0
  0
LINE
  5
14e
  100
AcDbEntity
  8
SK1
  100
AcDbLine
  10
35.7
  20
1.20954
  30
0
  11
36.9095
  21
0
  31
0
  0
LINE
  5
14f
  100
AcDbEntity
  8
SK1
  100
AcDbLine
  10
35.7
  20
0.962054
  30
0
  11
36.6621
  21
0
  31
0
  0
LINE
  5
150
  100
AcDbEntity
  8
SK1
  100
AcDbLine
  10
35.7
  20
0.714566
  30
0
  11
36.4146
  21
0
  31
0
  0
LINE
  5
151
  100
AcDbEntity
  8
SK1
  100
AcDbLine
  10
35.7
  20
0.467079
  30
0
  11
36.1671
  21
0
  31
0
  0
LINE
  5
152
  100
AcDbEntity
  8
SK1
  100
AcDbLine
  10
35.7
  20
0.219592
  30
0
  11
35.9196
  21
0
  31
0
  0
LINE
  5
153
  100
AcDbEntity
  8
SK1
  100
AcDbLine
  10
35.7
  20
1.70452
  30
0
  11
35.7441
  21
1.74861
  31
0
  0
LINE
  5
154
  100
AcDbEntity
  8
SK1
  100
AcDbLine
  10
35.7
  20
1.45703
  30
0
  11
35.971
  21
1.72802
  31
0
  0
LINE
  5
155
  100
AcDbEntity
  8
SK1
  100
AcDbLine
  10
35.7
  20
1.20954
  30
0
  11
36.1742
  21
1.6837
  31
0
  0
LINE
  5
156
  100
AcDbEntity
  8
SK1
  100
AcDbLine
  10
35.7
  20
0.962054
  30
0
  11
36.3588
  21
1.62082
  31
0
  0
LINE
  5
157
  100
AcDbEntity
  8
SK1
  100
AcDbLine
  10
35.7
  20
0.714566
  30
0
  11
36.5271
  21
1.54167
  31
0
  0
LINE
  5
158
  100
AcDbEntity
  8
SK1
  100
AcDbLine
  10
35.7
  20
0.467079
  30
0
  11
36.681
  21
1.44812
  31
0
  0
LINE
  5
159
  100
AcDbEntity
  8
SK1
  100
AcDbLine
  10
35.7
  20
0.219592
  30
0
  11
36.8226
  21
1.34216
  31
0
  0
LINE
  5
15a
  100
AcDbEntity
  8
SK1
  100
AcDbLine
  10
35.7279
  20
0
  30
0
  11
36.9508
  21
1.22288
  31
0
  0
LINE
  5
15b
  100
AcDbEntity
  8
SK1
  100
AcDbLine
  10
35.9754
  20
0
  30
0
  11
37.067
  21
1.09157
  31
0
  0
LINE
  5
15c
  100
AcDbEntity
  8
SK1
  100
AcDbLine
  10
36.2229
  20
0
  30
0
  11
37.1707
  21
0.947822
  31
0
  0
LINE
  5
15d
  100
AcDbEntity
  8
SK1
  100
AcDbLine
  10
36.4704
  20
0
  30
0
  11
37.2605
  21
0.790145
  31
0
  0
LINE
  5
15e
  100
AcDbEntity
  8
SK1
  100
AcDbLine
  10
36.7178
  20
0
  30
0
  11
37.3364
  21
0.618517
  31
0
  0
LINE
  5
15f
  100
AcDbEntity
  8
SK1
  100
AcDbLine
  10
36.9653
  20
0
  30
0
  11
37.396
  21
0.430696
  31
0
  0
LINE
  5
160
  100
AcDbEntity
  8
SK1
  100
AcDbLine
  10
37.2128
  20
0
  30
0
  11
37.4356
  21
0.222827
  31
0
  0
LINE
  5
161
  100
AcDbEntity
  8
SK1
  100
AcDbLine
  10
35.7
  20
0
  30
0
  11
35.7
  21
1.75
  31
0
  0
LINE
  5
162
  100
AcDbEntity
  8
SK1
  100
AcDbLine
  10
35.7
  20
0
  30
0
  11
37.45
  21
0
  31
0
  0
ARC
  5
163
  100
AcDbEntity
  8
SK1
  100
AcDbCircle
  10
35.7
  20
0
  30
0
  40
1.75
  100
AcDbArc
  50
0
  51
90
  0
ARC
  5
164
  100
AcDbEntity
  8
SK1
  100
AcDbCircle
  10
35.7
  20
0
  30
0
  40
1.75
  100
AcDbArc
  50
90
  51
180
  0
LINE
  5
165
  100
AcDbEntity
  8
SK1
  100
AcDbLine
  10
35.6721
  20
0
  30
0
  11
35.7
  21
-0.027896
  31
0
  0
LINE
  5
166
  100
AcDbEntity
  8
SK1
  100
AcDbLine
  10
35.4246
  20
0
  30
0
  11
35.7
  21
-0.275383
  31
0
  0
LINE
  5
167
  100
AcDbEntity
  8
SK1
  100
AcDbLine
  10
35.1771
  20
0
  30
0
  11
35.7
  21
-0.522871
  31
0
  0
LINE
  5
168
  100
AcDbEntity
  8
SK1
  100
AcDbLine
  10
34.9296
  20
0
  30
0
  11
35.7
  21
-0.770358
  31
0
  0
LINE
  5
169
  100
AcDbEntity
  8
SK1
  100
AcDbLine
  10
34.6822
  20
0
  30
0
  11
35.7
  21
-1.01785
  31
0
  0
LINE
  5
16a
  100
AcDbEntity
  8
SK1
  100
AcDbLine
  10
34.4347
  20
0
  30
0
  11
35.7
  21
-1.26533
  31
0
  0
LINE
  5
16b
  100
AcDbEntity
  8
SK1
  100
AcDbLine
  10
34.1872
  20
0
  30
0
  11
35.7
  21
-1.51282
  31
0
  0
LINE
  5
16c
  100
AcDbEntity
  8
SK1
  100
AcDbLine
  10
33.9503
  20
-0.010642
  30
0
  11
35.6894
  21
-1.74967
  31
0
  0
LINE
  5
16d
  100
AcDbEntity
  8
SK1
  100
AcDbLine
  10
33.9736
  20
-0.281429
  30
0
  11
35.4186
  21
-1.72637
  31
0
  0
LINE
  5
16e
  100
AcDbEntity
  8
SK1
  100
AcDbLine
  10
34.0639
  20
-0.619147
  30
0
  11
35.0809
  21
-1.63613
  31
0
  0
LINE
  5
16f
  100
AcDbEntity
  8
SK1
  100
AcDbLine
  10
33.9514
  20
-0.044098
  30
0
  11
33.9955
  21
0
  31
0
  0
LINE
  5
170
  100
AcDbEntity
  8
SK1
  100
AcDbLine
  10
33.972
  20
-0.270991
  30
0
  11
34.243
  21
0
  31
0
  0
LINE
  5
171
  100
AcDbEntity
  8
SK1
  100
AcDbLine
  10
34.0163
  20
-0.474162
  30
0
  11
34.4905
  21
0
  31
0
  0
LINE
  5
172
  100
AcDbEntity
  8
SK1
  100
AcDbLine
  10
34.0792
  20
-0.658762
  30
0
  11
34.7379
  21
0
  31
0
  0
LINE
  5
173
  100
AcDbEntity
  8
SK1
  100
AcDbLine
  10
34.1583
  20
-0.827105
  30
0
  11
34.9854
  21
0
  31
0
  0
LINE
  5
174
  100
AcDbEntity
  8
SK1
  100
AcDbLine
  10
34.2519
  20
-0.981039
  30
0
  11
35.2329
  21
0
  31
0
  0
LINE
  5
175
  100
AcDbEntity
  8
SK1
  100
AcDbLine
  10
34.3578
  20
-1.12257
  30
0
  11
35.4804
  21
0
  31
0
  0
LINE
  5
176
  100
AcDbEntity
  8
SK1
  100
AcDbLine
  10
34.4771
  20
-1.25077
  30
0
  11
35.7
  21
-0.027896
  31
0
  0
LINE
  5
177
  100
AcDbEntity
  8
SK1
  100
AcDbLine
  10
34.6084
  20
-1.36695
  30
0
  11
35.7
  21
-0.275383
  31
0
  0
LINE
  5
178
  100
AcDbEntity
  8
SK1
  100
AcDbLine
  10
34.7522
  20
-1.47069
  30
0
  11
35.7
  21
-0.522871
  31
0
  0
LINE
  5
179
  100
AcDbEntity
  8
SK1
  100
AcDbLine
  10
34.9099
  20
-1.5605
  30
0
  11
35.7
  21
-0.770358
  31
0
  0
LINE
  5
17a
  100
AcDbEntity
  8
SK1
  100
AcDbLine
  10
35.0815
  20
-1.63636
  30
0
  11
35.7
  21
-1.01785
  31
0
  0
LINE
  5
17b
  100
AcDbEntity
  8
SK1
  100
AcDbLine
  10
35.2693
  20
-1.69603
  30
0
  11
35.7
  21
-1.26533
  31
0
  0
LINE
  5
17c
  100
AcDbEntity
  8
SK1
  100
AcDbLine
  10
35.4772
  20
-1.73565
  30
0
  11
35.7
  21
-1.51282
  31
0
  0
LINE
  5
17d
  100
AcDbEntity
  8
SK1
  100
AcDbLine
  10
35.7
  20
0
  30
0
  11
33.95
  21
0
  31
0
  0
LINE
  5
17e
  100
AcDbEntity
  8
SK1
  100
AcDbLine
  10
35.7
  20
-1.75
  30
0
  11
35.7
  21
0
  31
0
  0
ARC
  5
17f
  100
AcDbEntity
  8
SK1
  100
AcDbCircle
  10
35.7
  20
0
  30
0
  40
1.75
  100
AcDbArc
  50
180
  51
270
  0
ARC
  5
180
  100
AcDbEntity
  8
SK1
  100
AcDbCircle
  10
35.7
  20
0
  30
0
  40
1.75
  100
AcDbArc
  50
270
  51
0
  0
LINE
  5
1f1
  100
AcDbEntity
  8
NOCUT
  100
AcDbLine
  10
51.3
  20
0
  30
0
  11
51.3
  21
1.2
  31
0
  0
LINE
  5
1f2
  100
AcDbEntity
  8
NOCUT
  100
AcDbLine
  10
51.3
  20
1.2
  30
0
  11
39.25
  21
1.2
  31
0
  0
ARC
  5
1f3
  100
AcDbEntity
  8
NOCUT
  100
AcDbCircle
  10
40.121557
  20
11.161947
  30
0
  40
10
  100
AcDbArc
  50
255
  51
265
  0
LINE
  5
1f4
  100
AcDbEntity
  8
NOCUT
  100
AcDbLine
  10
37.533367
  20
1.502689
  30
0
  11
35.7
  21
1.993938
  31
0
  0
LINE
  5
1f5
  100
AcDbEntity
  8
NOCUT
  100
AcDbLine
  10
35.7
  20
1.993938
  30
0
  11
35.7
  21
0
  31
0
  0
LINE
  5
1f6
  100
AcDbEntity
  8
NOCUT
  100
AcDbLine
  10
35.7
  20
0
  30
0
  11
51.3
  21
0
  31
0
  0
LINE
  5
1f7
  100
AcDbEntity
  8
CUT
  100
AcDbLine
  10
55
  20
0
  30
0
  11
55
  21
1.25
  31
0
  0
LINE
  5
1f8
  100
AcDbEntity
  8
CUT
  100
AcDbLine
  10
55
  20
1.25
  30
0
  11
51.3
  21
1.25
  31
0
  0
LINE
  5
1f9
  100
AcDbEntity
  8
CUT
  100
AcDbLine
  10
51.3
  20
1.25
  30
0
  11
51.3
  21
0
  31
0
  0
LINE
  5
1fa
  100
AcDbEntity
  8
CUT
  100
AcDbLine
  10
51.3
  20
0
  30
0
  11
55
  21
0
  31
0
  0
LINE
  5
1fb
  100
AcDbEntity
  8
4
  100
AcDbLine
  10
35.7
  20
0
  30
0
  11
55
  21
0
  31
0
  0
LINE
  5
1fc
  100
AcDbEntity
  8
SK4
  100
AcDbLine
  10
-1
  20
0
  30
0
  11
56
  21
0
  31
0
  0
LINE
  5
1fd
  100
AcDbEntity
  8
INFTOTAL
  100
AcDbLine
  10
-15.95
  20
17.95
  30
0
  11
70.95
  21
17.95
  31
0
  0
LINE
  5
1fe
  100
AcDbEntity
  8
INFTOTAL
  100
AcDbLine
  10
70.95
  20
17.95
  30
0
  11
70.95
  21
-15.111947
  31
0
  0
LINE
  5
1ff
  100
AcDbEntity
  8
INFTOTAL
  100
AcDbLine
  10
70.95
  20
-15.111947
  30
0
  11
-15.95
  21
-15.111947
  31
0
  0
LINE
  5
200
  100
AcDbEntity
  8
INFTOTAL
  100
AcDbLine
  10
-15.95
  20
-15.111947
  30
0
  11
-15.95
  21
17.95
  31
0
  0
ENDSEC
  0
SECTION
  2
OBJECTS
  0
DICTIONARY
  5
201
  330
0
100
AcDbDictionary
281
    1
  3
ACAD_GROUP
  350
202
  0
DICTIONARY
  5
202
102
{ACAD_REACTORS
  330
201
102
}
  330
201
100
AcDbDictionary
281
    1
  0
ENDSEC
  0
EOF
