  0
SECTION
  2
HEADER
  9
$ACADVER
  1
AC1015
  9
$DWGCODEPAGE
  3
ANSI_932
  9
$HANDSEED
  5
106AB90
  0
ENDSEC
  0
SECTION
  2
CLASSES
  0
CLASS
  1
IMAGEDEF
  2
AcDbRasterImageDef
  3
ISM
  90
0
  91
4
  280
0
  281
0
  0
CLASS
  1
IMAGE
  2
AcDbRasterImage
  3
ISM
  90
127
  91
5
  280
0
  281
1
  0
CLASS
  1
IMAGEDEF_REACTOR
  2
AcDbRasterImageDefReactor
  3
ISM
  90
1
  91
4
  280
0
  281
0
  0
ENDSEC
  0
SECTION
  2
TABLES
  0
TABLE
  2
VPORT
  5
2
  330
0
  100
AcDbSymbolTable
  70
    0
  0
ENDTAB
  0
TABLE
  2
LTYPE
  5
3
  330
0
  100
AcDbSymbolTable
  70
    4
  0
LTYPE
  5
4
  330
3
  100
AcDbSymbolTableRecord
  100
AcDbLinetypeTableRecord
  2
ByBlock
  70
    0
  3

  72
65
  73
    0
  40
0
  0
LTYPE
  5
5
  330
3
  100
AcDbSymbolTableRecord
  100
AcDbLinetypeTableRecord
  2
ByLayer
  70
    0
  3

  72
65
  73
    0
  40
0
  0
LTYPE
  5
6
  330
3
  100
AcDbSymbolTableRecord
  100
AcDbLinetypeTableRecord
  2
CONTINUOUS
  70
    0
  3
Solid Line
  72
65
  73
    0
  40
0
  0
LTYPE
  5
7
  330
3
  100
AcDbSymbolTableRecord
  100
AcDbLinetypeTableRecord
  2
DASH
  70
    0
  3
Hidden
  72
65
  73
2
  40
2.5
  49
1.5
  74
0
  49
-1
  74
0
  0
LTYPE
  5
8
  330
3
  100
AcDbSymbolTableRecord
  100
AcDbLinetypeTableRecord
  2
LONGDASHDASH
  70
    0
  3
__ . __
  72
65
  73
    4
  40
7
  49
4
  74
    0
  49
-1
  74
    0
  49
1
  74
    0
  49
-1
  74
    0
  0
ENDTAB
  0
TABLE
  2
LAYER
  5
9
  330
0
  100
AcDbSymbolTable
  70
    40
  0
LAYER
  5
a
  330
9
  100
AcDbSymbolTableRecord
  100
AcDbLayerTableRecord
  2
0
  70
    0
  62
    0
  6
CONTINUOUS
  390
0
  0
LAYER
  5
c
  330
9
  100
AcDbSymbolTableRecord
  100
AcDbLayerTableRecord
  2
1
  70
    0
  62
    4
  6
CONTINUOUS
  370
50
  390
0
  0
LAYER
  5
d
  330
9
  100
AcDbSymbolTableRecord
  100
AcDbLayerTableRecord
  2
2
  70
    0
  62
    7
  6
CONTINUOUS
  370
25
  390
0
  0
LAYER
  5
f
  330
9
  100
AcDbSymbolTableRecord
  100
AcDbLayerTableRecord
  2
4
  70
    0
  62
    2
  6
LONGDASHDASH
  370
25
  390
0
  0
LAYER
  5
13
  330
9
  100
AcDbSymbolTableRecord
  100
AcDbLayerTableRecord
  2
SK1
  70
    0
  62
    4
  6
CONTINUOUS
  370
50
  390
0
  0
LAYER
  5
14
  330
9
  100
AcDbSymbolTableRecord
  100
AcDbLayerTableRecord
  2
SK2
  70
    0
  62
    7
  6
CONTINUOUS
  370
25
  390
0
  0
LAYER
  5
16
  330
9
  100
AcDbSymbolTableRecord
  100
AcDbLayerTableRecord
  2
SK4
  70
    0
  62
    2
  6
LONGDASHDASH
  370
25
  390
0
  0
LAYER
  5
21
  330
9
  100
AcDbSymbolTableRecord
  100
AcDbLayerTableRecord
  2
NOCUT
  70
    0
  62
    7
  6
CONTINUOUS
  370
25
  390
0
  0
LAYER
  5
22
  330
9
  100
AcDbSymbolTableRecord
  100
AcDbLayerTableRecord
  2
CUT
  70
    0
  62
    1
  6
CONTINUOUS
  370
25
  390
0
  0
LAYER
  5
26
  330
9
  100
AcDbSymbolTableRecord
  100
AcDbLayerTableRecord
  2
INFTOTAL
  70
    0
  62
    9
  6
CONTINUOUS
  370
18
  390
0
  0
ENDTAB
  0
TABLE
  2
STYLE
  5
27
  330
0
  100
AcDbSymbolTable
  70
    1
  0
STYLE
  5
28
  330
27
  100
AcDbSymbolTableRecord
  100
AcDbTextStyleTableRecord
  2
Monospac821 BT
  70
    0
  40
    3.5
  41
1
  50
0
  71
0
  42
3
  3

  4

  1001
ACAD
  1000
Monospac821 BT
  1071
256
  0
ENDTAB
  0
TABLE
  2
VIEW
  5
29
  330
0
  100
AcDbSymbolTable
  70
    0
  0
ENDTAB
  0
TABLE
  2
UCS
  5
2a
  330
0
  100
AcDbSymbolTable
  70
    0
  0
ENDTAB
  0
TABLE
  2
APPID
  5
2b
  330
0
  100
AcDbSymbolTable
  70
    1
  0
APPID
  5
2c
  330
2b
  100
AcDbSymbolTableRecord
  100
AcDbRegAppTableRecord
  2
ACAD
  70
    0
  0
ENDTAB
  0
TABLE
  2
DIMSTYLE
  5
2d
  330
0
  100
AcDbSymbolTable
  70
    1
  100
AcDbDimStyleTable
  0
DIMSTYLE
  105
2e
  330
2d
  100
AcDbSymbolTableRecord
  100
AcDbDimStyleTableRecord
  2
STANDARD
  70
    0
  41
    3
  42
0.5
  44
1
  73
0
  77
1
  78
1
  140
3.5
  141
2.5
  143
0.03937
  147
0.8
  172
1
  174
1
  178
0
  179
1
  271
2
  279
1
  284
1
  340
28
  0
ENDTAB
  0
TABLE
  2
BLOCK_RECORD
  5
2f
  330
0
  100
AcDbSymbolTable
  70
    2
  0
BLOCK_RECORD
  5
30
  330
2f
  100
AcDbSymbolTableRecord
  100
AcDbBlockTableRecord
  2
*Model_Space
  0
BLOCK_RECORD
  5
31
  330
2f
  100
AcDbSymbolTableRecord
  100
AcDbBlockTableRecord
  2
*Paper_Space
  0
BLOCK_RECORD
  5
1bb
  330
2f
  100
AcDbSymbolTableRecord
  100
AcDbBlockTableRecord
  2
*D1ba
  340
0
  0
BLOCK_RECORD
  5
1c9
  330
2f
  100
AcDbSymbolTableRecord
  100
AcDbBlockTableRecord
  2
*D1c8
  340
0
  0
BLOCK_RECORD
  5
1d7
  330
2f
  100
AcDbSymbolTableRecord
  100
AcDbBlockTableRecord
  2
*D1d6
  340
0
  0
BLOCK_RECORD
  5
1e5
  330
2f
  100
AcDbSymbolTableRecord
  100
AcDbBlockTableRecord
  2
*D1e4
  340
0
  0
BLOCK_RECORD
  5
1f3
  330
2f
  100
AcDbSymbolTableRecord
  100
AcDbBlockTableRecord
  2
*D1f2
  340
0
  0
BLOCK_RECORD
  5
201
  330
2f
  100
AcDbSymbolTableRecord
  100
AcDbBlockTableRecord
  2
*D200
  340
0
  0
BLOCK_RECORD
  5
20f
  330
2f
  100
AcDbSymbolTableRecord
  100
AcDbBlockTableRecord
  2
*D20e
  340
0
  0
BLOCK_RECORD
  5
21d
  330
2f
  100
AcDbSymbolTableRecord
  100
AcDbBlockTableRecord
  2
*D21c
  340
0
  0
ENDTAB
  0
ENDSEC
  0
SECTION
  2
BLOCKS
  0
BLOCK
  5
32
  330
30
  100
AcDbEntity
  8
0
  100
AcDbBlockBegin
  2
*Model_Space
  70
    0
  10
0
  20
0
  30
0
  3
*Model_Space
  1

  0
ENDBLK
  5
33
  330
30
  100
AcDbEntity
  8
0
  100
AcDbBlockEnd
  0
BLOCK
  5
34
  330
31
  100
AcDbEntity
  8
0
  100
AcDbBlockBegin
  2
*Paper_Space
  70
    0
  10
0
  20
0
  30
0
  3
*Paper_Space
  1

  0
ENDBLK
  5
35
  330
31
  100
AcDbEntity
  8
0
  100
AcDbBlockEnd
  0
BLOCK
  5
1b9
  330
1bb
  100
AcDbEntity
  8
SK2
  100
AcDbBlockBegin
  2
*D1ba
  70
1
  10
0
  20
0
  30
0
  3
*D1ba
  1

  0
LINE
  5
1bc
  330
1bb
  100
AcDbEntity
  8
SK2
  100
AcDbLine
  10
0
  20
2.3
  30
0
  11
0
  21
14
  31
0
  0
LINE
  5
1bd
  330
1bb
  100
AcDbEntity
  8
SK2
  100
AcDbLine
  10
55
  20
1.5
  30
0
  11
55
  21
14
  31
0
  0
LINE
  5
1be
  330
1bb
  100
AcDbEntity
  8
SK2
  100
AcDbLine
  10
0
  20
12
  30
0
  11
55
  21
12
  31
0
  0
SOLID
  5
1bf
  330
1bb
  100
AcDbEntity
  8
SK2
  100
AcDbTrace
  10
0
  20
12
  30
0
  11
2.478612
  21
12.326315
  31
0
  12
2.478612
  22
11.673685
  32
0
  13
2.478612
  23
11.673685
  33
0
  0
SOLID
  5
1c0
  330
1bb
  100
AcDbEntity
  8
SK2
  100
AcDbTrace
  10
55
  20
12
  30
0
  11
52.521388
  21
11.673685
  31
0
  12
52.521388
  22
12.326315
  32
0
  13
52.521388
  23
12.326315
  33
0
  0
MTEXT
  5
1c1
  330
1bb
  100
AcDbEntity
  8
SK2
  100
AcDbMText
  10
37.397052
  20
12
  30
0
  11
1
  21
0
  31
0
  40
2
  41
0
  71
8
  72
1
  1
55
  0
POINT
  5
1c2
  330
1bb
  100
AcDbEntity
  8
SK2
  62
0
  100
AcDbPoint
  10
0
  20
2.3
  30
0
  0
POINT
  5
1c3
  330
1bb
  100
AcDbEntity
  8
SK2
  62
0
  100
AcDbPoint
  10
55
  20
1.5
  30
0
  0
POINT
  5
1c4
  330
1bb
  100
AcDbEntity
  8
SK2
  62
0
  100
AcDbPoint
  10
55
  20
12
  30
0
  0
ENDBLK
  5
1c5
  330
1bb
  100
AcDbEntity
  8
SK2
  100
AcDbBlockEnd
  0
BLOCK
  5
1c7
  330
1c9
  100
AcDbEntity
  8
SK2
  100
AcDbBlockBegin
  2
*D1c8
  70
1
  10
0
  20
0
  30
0
  3
*D1c8
  1

  0
LINE
  5
1ca
  330
1c9
  100
AcDbEntity
  8
SK2
  100
AcDbLine
  10
0
  20
2.3
  30
0
  11
0
  21
8.990662
  31
0
  0
LINE
  5
1cb
  330
1c9
  100
AcDbEntity
  8
SK2
  100
AcDbLine
  10
33
  20
3
  30
0
  11
33
  21
8.990662
  31
0
  0
LINE
  5
1cc
  330
1c9
  100
AcDbEntity
  8
SK2
  100
AcDbLine
  10
0
  20
6.990662
  30
0
  11
33
  21
6.990662
  31
0
  0
SOLID
  5
1cd
  330
1c9
  100
AcDbEntity
  8
SK2
  100
AcDbTrace
  10
0
  20
6.990662
  30
0
  11
2.478612
  21
7.316978
  31
0
  12
2.478612
  22
6.664347
  32
0
  13
2.478612
  23
6.664347
  33
0
  0
SOLID
  5
1ce
  330
1c9
  100
AcDbEntity
  8
SK2
  100
AcDbTrace
  10
33
  20
6.990662
  30
0
  11
30.521388
  21
6.664347
  31
0
  12
30.521388
  22
7.316978
  32
0
  13
30.521388
  23
7.316978
  33
0
  0
MTEXT
  5
1cf
  330
1c9
  100
AcDbEntity
  8
SK2
  100
AcDbMText
  10
16.5
  20
6.990662
  30
0
  11
1
  21
0
  31
0
  40
2
  41
0
  71
8
  72
1
  1
33
  0
POINT
  5
1d0
  330
1c9
  100
AcDbEntity
  8
SK2
  62
0
  100
AcDbPoint
  10
0
  20
2.3
  30
0
  0
POINT
  5
1d1
  330
1c9
  100
AcDbEntity
  8
SK2
  62
0
  100
AcDbPoint
  10
33
  20
3
  30
0
  0
POINT
  5
1d2
  330
1c9
  100
AcDbEntity
  8
SK2
  62
0
  100
AcDbPoint
  10
33
  20
6.990662
  30
0
  0
ENDBLK
  5
1d3
  330
1c9
  100
AcDbEntity
  8
SK2
  100
AcDbBlockEnd
  0
BLOCK
  5
1d5
  330
1d7
  100
AcDbEntity
  8
SK2
  100
AcDbBlockBegin
  2
*D1d6
  70
1
  10
0
  20
0
  30
0
  3
*D1d6
  1

  0
LINE
  5
1d8
  330
1d7
  100
AcDbEntity
  8
SK2
  100
AcDbLine
  10
0.7
  20
-3
  30
0
  11
-12
  21
-3
  31
0
  0
LINE
  5
1d9
  330
1d7
  100
AcDbEntity
  8
SK2
  100
AcDbLine
  10
0.7
  20
3
  30
0
  11
-12
  21
3
  31
0
  0
LINE
  5
1da
  330
1d7
  100
AcDbEntity
  8
SK2
  100
AcDbLine
  10
-10
  20
-3
  30
0
  11
-10
  21
3
  31
0
  0
SOLID
  5
1db
  330
1d7
  100
AcDbEntity
  8
SK2
  100
AcDbTrace
  10
-10
  20
-3
  30
0
  11
-10.326315
  21
-0.521388
  31
0
  12
-9.673685
  22
-0.521388
  32
0
  13
-9.673685
  23
-0.521388
  33
0
  0
SOLID
  5
1dc
  330
1d7
  100
AcDbEntity
  8
SK2
  100
AcDbTrace
  10
-10
  20
3
  30
0
  11
-9.673685
  21
0.521388
  31
0
  12
-10.326315
  22
0.521388
  32
0
  13
-10.326315
  23
0.521388
  33
0
  0
MTEXT
  5
1dd
  330
1d7
  100
AcDbEntity
  8
SK2
  100
AcDbMText
  10
-10
  20
0
  30
0
  11
0
  21
1
  31
0
  40
2
  41
0
  71
8
  72
1
  1
ﾘ6
  0
POINT
  5
1de
  330
1d7
  100
AcDbEntity
  8
SK2
  62
0
  100
AcDbPoint
  10
0.7
  20
-3
  30
0
  0
POINT
  5
1df
  330
1d7
  100
AcDbEntity
  8
SK2
  62
0
  100
AcDbPoint
  10
0.7
  20
3
  30
0
  0
POINT
  5
1e0
  330
1d7
  100
AcDbEntity
  8
SK2
  62
0
  100
AcDbPoint
  10
-10
  20
3
  30
0
  0
ENDBLK
  5
1e1
  330
1d7
  100
AcDbEntity
  8
SK2
  100
AcDbBlockEnd
  0
BLOCK
  5
1e3
  330
1e5
  100
AcDbEntity
  8
2
  100
AcDbBlockBegin
  2
*D1e4
  70
1
  10
0
  20
0
  30
0
  3
*D1e4
  1

  0
LINE
  5
1e6
  330
1e5
  100
AcDbEntity
  8
2
  100
AcDbLine
  10
55
  20
-1.5
  30
0
  11
67
  21
-1.5
  31
0
  0
LINE
  5
1e7
  330
1e5
  100
AcDbEntity
  8
2
  100
AcDbLine
  10
55
  20
1.5
  30
0
  11
67
  21
1.5
  31
0
  0
LINE
  5
1e8
  330
1e5
  100
AcDbEntity
  8
2
  100
AcDbLine
  10
65
  20
-4.158416
  30
0
  11
65
  21
1.5
  31
0
  0
SOLID
  5
1e9
  330
1e5
  100
AcDbEntity
  8
2
  100
AcDbTrace
  10
65
  20
-1.5
  30
0
  11
64.673685
  21
0.978612
  31
0
  12
65.326315
  22
0.978612
  32
0
  13
65.326315
  23
0.978612
  33
0
  0
SOLID
  5
1ea
  330
1e5
  100
AcDbEntity
  8
2
  100
AcDbTrace
  10
65
  20
1.5
  30
0
  11
65.326315
  21
-0.978612
  31
0
  12
64.673685
  22
-0.978612
  32
0
  13
64.673685
  23
-0.978612
  33
0
  0
MTEXT
  5
1eb
  330
1e5
  100
AcDbEntity
  8
2
  100
AcDbMText
  10
65
  20
0
  30
0
  11
0
  21
1
  31
0
  40
2
  41
0
  71
8
  72
1
  1
ﾘ3
  0
POINT
  5
1ec
  330
1e5
  100
AcDbEntity
  8
2
  62
0
  100
AcDbPoint
  10
55
  20
-1.5
  30
0
  0
POINT
  5
1ed
  330
1e5
  100
AcDbEntity
  8
2
  62
0
  100
AcDbPoint
  10
55
  20
1.5
  30
0
  0
POINT
  5
1ee
  330
1e5
  100
AcDbEntity
  8
2
  62
0
  100
AcDbPoint
  10
65
  20
1.5
  30
0
  0
ENDBLK
  5
1ef
  330
1e5
  100
AcDbEntity
  8
2
  100
AcDbBlockEnd
  0
BLOCK
  5
1f1
  330
1f3
  100
AcDbEntity
  8
2
  100
AcDbBlockBegin
  2
*D1f2
  70
1
  10
0
  20
0
  30
0
  3
*D1f2
  1

  0
LINE
  5
1f4
  330
1f3
  100
AcDbEntity
  8
2
  100
AcDbLine
  10
50.5
  20
-1.425
  30
0
  11
48.5
  21
-1.425
  31
0
  0
LINE
  5
1f5
  330
1f3
  100
AcDbEntity
  8
2
  100
AcDbLine
  10
50.5
  20
1.425
  30
0
  11
48.5
  21
1.425
  31
0
  0
LINE
  5
1f6
  330
1f3
  100
AcDbEntity
  8
2
  100
AcDbLine
  10
50.5
  20
-1.425
  30
0
  11
50.5
  21
9.876238
  31
0
  0
SOLID
  5
1f7
  330
1f3
  100
AcDbEntity
  8
2
  100
AcDbTrace
  10
50.5
  20
-1.425
  30
0
  11
50.173685
  21
1.053612
  31
0
  12
50.826315
  22
1.053612
  32
0
  13
50.826315
  23
1.053612
  33
0
  0
SOLID
  5
1f8
  330
1f3
  100
AcDbEntity
  8
2
  100
AcDbTrace
  10
50.5
  20
1.425
  30
0
  11
50.826315
  21
-1.053612
  31
0
  12
50.173685
  22
-1.053612
  32
0
  13
50.173685
  23
-1.053612
  33
0
  0
MTEXT
  5
1f9
  330
1f3
  100
AcDbEntity
  8
2
  100
AcDbMText
  10
50.5
  20
1.425
  30
0
  11
0
  21
1
  31
0
  40
2
  41
0
  71
8
  72
1
  1
ﾘ2.85
  0
POINT
  5
1fa
  330
1f3
  100
AcDbEntity
  8
2
  62
0
  100
AcDbPoint
  10
48.5
  20
-1.425
  30
0
  0
POINT
  5
1fb
  330
1f3
  100
AcDbEntity
  8
2
  62
0
  100
AcDbPoint
  10
48.5
  20
1.425
  30
0
  0
POINT
  5
1fc
  330
1f3
  100
AcDbEntity
  8
2
  62
0
  100
AcDbPoint
  10
50.5
  20
9.876238
  30
0
  0
ENDBLK
  5
1fd
  330
1f3
  100
AcDbEntity
  8
2
  100
AcDbBlockEnd
  0
BLOCK
  5
1ff
  330
201
  100
AcDbEntity
  8
2
  100
AcDbBlockBegin
  2
*D200
  70
1
  10
0
  20
0
  30
0
  3
*D200
  1

  0
LINE
  5
202
  330
201
  100
AcDbEntity
  8
2
  100
AcDbLine
  10
50.5
  20
1.425
  30
0
  11
50.5
  21
10
  31
0
  0
LINE
  5
203
  330
201
  100
AcDbEntity
  8
2
  100
AcDbLine
  10
39.43
  20
1.425
  30
0
  11
39.43
  21
10
  31
0
  0
LINE
  5
204
  330
201
  100
AcDbEntity
  8
2
  100
AcDbLine
  10
50.5
  20
8
  30
0
  11
39.43
  21
8
  31
0
  0
SOLID
  5
205
  330
201
  100
AcDbEntity
  8
2
  100
AcDbTrace
  10
50.5
  20
8
  30
0
  11
52.978612
  21
8.326315
  31
0
  12
52.978612
  22
7.673685
  32
0
  13
52.978612
  23
7.673685
  33
0
  0
SOLID
  5
206
  330
201
  100
AcDbEntity
  8
2
  100
AcDbTrace
  10
39.43
  20
8
  30
0
  11
36.951388
  21
7.673685
  31
0
  12
36.951388
  22
8.326315
  32
0
  13
36.951388
  23
8.326315
  33
0
  0
MTEXT
  5
207
  330
201
  100
AcDbEntity
  8
2
  100
AcDbMText
  10
44.965
  20
8
  30
0
  11
1
  21
-0
  31
0
  40
2
  41
0
  71
8
  72
1
  1
11.07
  0
POINT
  5
208
  330
201
  100
AcDbEntity
  8
2
  62
0
  100
AcDbPoint
  10
50.5
  20
1.425
  30
0
  0
POINT
  5
209
  330
201
  100
AcDbEntity
  8
2
  62
0
  100
AcDbPoint
  10
39.43
  20
1.425
  30
0
  0
POINT
  5
20a
  330
201
  100
AcDbEntity
  8
2
  62
0
  100
AcDbPoint
  10
39.43
  20
8
  30
0
  0
ENDBLK
  5
20b
  330
201
  100
AcDbEntity
  8
2
  100
AcDbBlockEnd
  0
BLOCK
  5
20d
  330
20f
  100
AcDbEntity
  8
2
  100
AcDbBlockBegin
  2
*D20e
  70
1
  10
0
  20
0
  30
0
  3
*D20e
  1

  0
LINE
  5
210
  330
20f
  100
AcDbEntity
  8
2
  100
AcDbLine
  10
55
  20
1.5
  30
0
  11
55
  21
14
  31
0
  0
LINE
  5
211
  330
20f
  100
AcDbEntity
  8
2
  100
AcDbLine
  10
33
  20
3
  30
0
  11
33
  21
10
  31
0
  0
LINE
  5
212
  330
20f
  100
AcDbEntity
  8
2
  100
AcDbLine
  10
55
  20
8
  30
0
  11
33
  21
8
  31
0
  0
SOLID
  5
213
  330
20f
  100
AcDbEntity
  8
2
  100
AcDbTrace
  10
55
  20
8
  30
0
  11
57.478612
  21
8.326315
  31
0
  12
57.478612
  22
7.673685
  32
0
  13
57.478612
  23
7.673685
  33
0
  0
SOLID
  5
214
  330
20f
  100
AcDbEntity
  8
2
  100
AcDbTrace
  10
33
  20
8
  30
0
  11
30.521388
  21
7.673685
  31
0
  12
30.521388
  22
8.326315
  32
0
  13
30.521388
  23
8.326315
  33
0
  0
MTEXT
  5
215
  330
20f
  100
AcDbEntity
  8
2
  100
AcDbMText
  10
44
  20
8
  30
0
  11
1
  21
-0
  31
0
  40
2
  41
0
  71
8
  72
1
  1
22
  0
POINT
  5
216
  330
20f
  100
AcDbEntity
  8
2
  62
0
  100
AcDbPoint
  10
55
  20
1.5
  30
0
  0
POINT
  5
217
  330
20f
  100
AcDbEntity
  8
2
  62
0
  100
AcDbPoint
  10
33
  20
3
  30
0
  0
POINT
  5
218
  330
20f
  100
AcDbEntity
  8
2
  62
0
  100
AcDbPoint
  10
33
  20
8
  30
0
  0
ENDBLK
  5
219
  330
20f
  100
AcDbEntity
  8
2
  100
AcDbBlockEnd
  0
BLOCK
  5
21b
  330
21d
  100
AcDbEntity
  8
2
  100
AcDbBlockBegin
  2
*D21c
  70
1
  10
0
  20
0
  30
0
  3
*D21c
  1

  0
LINE
  5
21e
  330
21d
  100
AcDbEntity
  8
2
  100
AcDbLine
  10
55
  20
-10.291202
  30
0
  11
55
  21
0
  31
0
  0
LINE
  5
21f
  330
21d
  100
AcDbEntity
  8
2
  100
AcDbLine
  10
50.5
  20
-10.291202
  30
0
  11
50.5
  21
-1.425
  31
0
  0
LINE
  5
220
  330
21d
  100
AcDbEntity
  8
2
  100
AcDbLine
  10
55
  20
-8.291202
  30
0
  11
48.211634
  21
-8.291202
  31
0
  0
SOLID
  5
221
  330
21d
  100
AcDbEntity
  8
2
  100
AcDbTrace
  10
55
  20
-8.291202
  30
0
  11
57.478612
  21
-7.964887
  31
0
  12
57.478612
  22
-8.617518
  32
0
  13
57.478612
  23
-8.617518
  33
0
  0
SOLID
  5
222
  330
21d
  100
AcDbEntity
  8
2
  100
AcDbTrace
  10
50.5
  20
-8.291202
  30
0
  11
48.021388
  21
-8.617518
  31
0
  12
48.021388
  22
-7.964887
  32
0
  13
48.021388
  23
-7.964887
  33
0
  0
MTEXT
  5
223
  330
21d
  100
AcDbEntity
  8
2
  100
AcDbMText
  10
52.75
  20
-8.291202
  30
0
  11
1
  21
0
  31
0
  40
2
  41
0
  71
8
  72
1
  1
4.5
  0
POINT
  5
224
  330
21d
  100
AcDbEntity
  8
2
  62
0
  100
AcDbPoint
  10
55
  20
0
  30
0
  0
POINT
  5
225
  330
21d
  100
AcDbEntity
  8
2
  62
0
  100
AcDbPoint
  10
50.5
  20
-1.425
  30
0
  0
POINT
  5
226
  330
21d
  100
AcDbEntity
  8
2
  62
0
  100
AcDbPoint
  10
48.211634
  20
-8.291202
  30
0
  0
ENDBLK
  5
227
  330
21d
  100
AcDbEntity
  8
2
  100
AcDbBlockEnd
  0
ENDSEC
  0
SECTION
  2
ENTITIES
  0
DIMENSION
  5
1c6
  100
AcDbEntity
  8
SK2
  100
AcDbDimension
  2
*D1ba
  10
55
  20
12
  30
0
  11
37.397052
  21
12
  31
0
  70
160
  1
<>
  71
5
  3
STANDARD
  42
55
  100
AcDbAlignedDimension
  13
0
  23
2.3
  33
0
  14
55
  24
1.5
  34
0
  50
0
  100
AcDbRotatedDimension
  0
DIMENSION
  5
1d4
  100
AcDbEntity
  8
SK2
  100
AcDbDimension
  2
*D1c8
  10
33
  20
6.990662
  30
0
  11
16.5
  21
6.990662
  31
0
  70
160
  1
<>
  71
5
  3
STANDARD
  42
33
  100
AcDbAlignedDimension
  13
0
  23
2.3
  33
0
  14
33
  24
3
  34
0
  50
0
  100
AcDbRotatedDimension
  0
DIMENSION
  5
1e2
  100
AcDbEntity
  8
SK2
  100
AcDbDimension
  2
*D1d6
  10
-10
  20
3
  30
0
  11
-10
  21
0
  31
0
  70
160
  1
%%c<>
  71
5
  3
STANDARD
  42
6
  100
AcDbAlignedDimension
  13
0.7
  23
-3
  33
0
  14
0.7
  24
3
  34
0
  50
-90
  100
AcDbRotatedDimension
  0
DIMENSION
  5
1f0
  100
AcDbEntity
  8
2
  100
AcDbDimension
  2
*D1e4
  10
65
  20
1.5
  30
0
  11
65
  21
0
  31
0
  70
160
  1
%%c<>
  71
5
  3
STANDARD
  42
3
  100
AcDbAlignedDimension
  13
55
  23
-1.5
  33
0
  14
55
  24
1.5
  34
0
  50
-90
  100
AcDbRotatedDimension
  0
DIMENSION
  5
1fe
  100
AcDbEntity
  8
2
  100
AcDbDimension
  2
*D1f2
  10
50.5
  20
9.876238
  30
0
  11
50.5
  21
1.425
  31
0
  70
160
  1
%%c<>
  71
5
  3
STANDARD
  42
2.85
  100
AcDbAlignedDimension
  13
48.5
  23
-1.425
  33
0
  14
48.5
  24
1.425
  34
0
  50
-90
  100
AcDbRotatedDimension
  0
DIMENSION
  5
20c
  100
AcDbEntity
  8
2
  100
AcDbDimension
  2
*D200
  10
39.43
  20
8
  30
0
  11
44.965
  21
8
  31
0
  70
160
  1
<>
  71
5
  3
STANDARD
  42
11.07
  100
AcDbAlignedDimension
  13
50.5
  23
1.425
  33
0
  14
39.43
  24
1.425
  34
0
  50
0
  100
AcDbRotatedDimension
  0
DIMENSION
  5
21a
  100
AcDbEntity
  8
2
  100
AcDbDimension
  2
*D20e
  10
33
  20
8
  30
0
  11
44
  21
8
  31
0
  70
160
  1
<>
  71
5
  3
STANDARD
  42
22
  100
AcDbAlignedDimension
  13
55
  23
1.5
  33
0
  14
33
  24
3
  34
0
  50
0
  100
AcDbRotatedDimension
  0
DIMENSION
  5
228
  100
AcDbEntity
  8
2
  100
AcDbDimension
  2
*D21c
  10
48.211634
  20
-8.291202
  30
0
  11
52.75
  21
-8.291202
  31
0
  70
160
  1
<>
  71
5
  3
STANDARD
  42
4.5
  100
AcDbAlignedDimension
  13
55
  23
0
  33
0
  14
50.5
  24
-1.425
  34
0
  50
0
  100
AcDbRotatedDimension
  0
LINE
  5
36
  100
AcDbEntity
  8
1
  100
AcDbLine
  10
50
  20
-1.425
  30
0
  11
50
  21
-1.383524
  31
0
  0
LINE
  5
37
  100
AcDbEntity
  8
1
  100
AcDbLine
  10
50
  20
-1.383524
  30
0
  11
50.1
  21
-1.35514
  31
0
  0
LINE
  5
38
  100
AcDbEntity
  8
1
  100
AcDbLine
  10
50.1
  20
-1.35514
  30
0
  11
50.2
  21
-1.367971
  31
0
  0
LINE
  5
39
  100
AcDbEntity
  8
1
  100
AcDbLine
  10
50.2
  20
-1.367971
  30
0
  11
50.3
  21
-1.382227
  31
0
  0
LINE
  5
3a
  100
AcDbEntity
  8
1
  100
AcDbLine
  10
50.3
  20
-1.382227
  30
0
  11
50.4
  21
-1.394536
  31
0
  0
LINE
  5
3b
  100
AcDbEntity
  8
1
  100
AcDbLine
  10
50.4
  20
-1.394536
  30
0
  11
50.5
  21
-1.404781
  31
0
  0
LINE
  5
3c
  100
AcDbEntity
  8
1
  100
AcDbLine
  10
50.5
  20
-1.404781
  30
0
  11
50.5
  21
-1.48054
  31
0
  0
LINE
  5
3d
  100
AcDbEntity
  8
1
  100
AcDbLine
  10
50.5
  20
-1.48054
  30
0
  11
50.6
  21
-1.488711
  31
0
  0
LINE
  5
3e
  100
AcDbEntity
  8
1
  100
AcDbLine
  10
50.6
  20
-1.488711
  30
0
  11
50.7
  21
-1.494677
  31
0
  0
LINE
  5
3f
  100
AcDbEntity
  8
1
  100
AcDbLine
  10
50.7
  20
-1.494677
  30
0
  11
50.8
  21
-1.498428
  31
0
  0
LINE
  5
40
  100
AcDbEntity
  8
1
  100
AcDbLine
  10
50.8
  20
-1.498428
  30
0
  11
50.9
  21
-1.49996
  31
0
  0
LINE
  5
41
  100
AcDbEntity
  8
1
  100
AcDbLine
  10
50.9
  20
-1.49996
  30
0
  11
50.918954
  21
-1.5
  31
0
  0
LINE
  5
42
  100
AcDbEntity
  8
1
  100
AcDbLine
  10
50.5
  20
-1.5
  30
0
  11
50.5
  21
1.5
  31
0
  0
LINE
  5
43
  100
AcDbEntity
  8
1
  100
AcDbLine
  10
50.5
  20
1.425
  30
0
  11
50.5
  21
-1.425
  31
0
  0
LINE
  5
44
  100
AcDbEntity
  8
1
  100
AcDbLine
  10
50.5
  20
-1.354308
  30
0
  11
50.5
  21
-1.431113
  31
0
  0
LINE
  5
45
  100
AcDbEntity
  8
1
  100
AcDbLine
  10
50.5
  20
-1.431113
  30
0
  11
50.6
  21
-1.44477
  31
0
  0
LINE
  5
46
  100
AcDbEntity
  8
1
  100
AcDbLine
  10
50.6
  20
-1.44477
  30
0
  11
50.7
  21
-1.456287
  31
0
  0
LINE
  5
47
  100
AcDbEntity
  8
1
  100
AcDbLine
  10
50.7
  20
-1.456287
  30
0
  11
50.8
  21
-1.465647
  31
0
  0
LINE
  5
48
  100
AcDbEntity
  8
1
  100
AcDbLine
  10
50.8
  20
-1.465647
  30
0
  11
50.9
  21
-1.472836
  31
0
  0
LINE
  5
49
  100
AcDbEntity
  8
1
  100
AcDbLine
  10
50.9
  20
-1.472836
  30
0
  11
51
  21
-1.477843
  31
0
  0
LINE
  5
4a
  100
AcDbEntity
  8
1
  100
AcDbLine
  10
51
  20
-1.477843
  30
0
  11
51.1
  21
-1.480661
  31
0
  0
LINE
  5
4b
  100
AcDbEntity
  8
1
  100
AcDbLine
  10
51.1
  20
-1.480661
  30
0
  11
51.178465
  21
-1.5
  31
0
  0
LINE
  5
4c
  100
AcDbEntity
  8
1
  100
AcDbLine
  10
51.735163
  20
-1.5
  30
0
  11
51.7
  21
-1.499863
  31
0
  0
LINE
  5
4d
  100
AcDbEntity
  8
1
  100
AcDbLine
  10
51.7
  20
-1.499863
  30
0
  11
51.6
  21
-1.497971
  31
0
  0
LINE
  5
4e
  100
AcDbEntity
  8
1
  100
AcDbLine
  10
51.6
  20
-1.497971
  30
0
  11
51.5
  21
-1.49386
  31
0
  0
LINE
  5
4f
  100
AcDbEntity
  8
1
  100
AcDbLine
  10
51.5
  20
-1.49386
  30
0
  11
51.4
  21
-1.487536
  31
0
  0
LINE
  5
50
  100
AcDbEntity
  8
1
  100
AcDbLine
  10
51.4
  20
-1.487536
  30
0
  11
51.3
  21
-1.479009
  31
0
  0
LINE
  5
51
  100
AcDbEntity
  8
1
  100
AcDbLine
  10
51.3
  20
-1.479009
  30
0
  11
51.2
  21
-1.46829
  31
0
  0
LINE
  5
52
  100
AcDbEntity
  8
1
  100
AcDbLine
  10
51.2
  20
-1.46829
  30
0
  11
51.1
  21
-1.455397
  31
0
  0
LINE
  5
53
  100
AcDbEntity
  8
1
  100
AcDbLine
  10
51.1
  20
-1.455397
  30
0
  11
51
  21
-1.440348
  31
0
  0
LINE
  5
54
  100
AcDbEntity
  8
1
  100
AcDbLine
  10
51
  20
-1.440348
  30
0
  11
50.9
  21
-1.423166
  31
0
  0
LINE
  5
55
  100
AcDbEntity
  8
1
  100
AcDbLine
  10
50.9
  20
-1.423166
  30
0
  11
50.8
  21
-1.403875
  31
0
  0
LINE
  5
56
  100
AcDbEntity
  8
1
  100
AcDbLine
  10
50.8
  20
-1.403875
  30
0
  11
50.7
  21
-1.382505
  31
0
  0
LINE
  5
57
  100
AcDbEntity
  8
1
  100
AcDbLine
  10
50.7
  20
-1.382505
  30
0
  11
50.6
  21
-1.359087
  31
0
  0
LINE
  5
58
  100
AcDbEntity
  8
1
  100
AcDbLine
  10
50.6
  20
-1.359087
  30
0
  11
50.5
  21
-1.333655
  31
0
  0
LINE
  5
59
  100
AcDbEntity
  8
1
  100
AcDbLine
  10
50.5
  20
-1.333655
  30
0
  11
50.5
  21
-1.265406
  31
0
  0
LINE
  5
5a
  100
AcDbEntity
  8
1
  100
AcDbLine
  10
50.5
  20
-1.265406
  30
0
  11
50.4
  21
-1.239238
  31
0
  0
LINE
  5
5b
  100
AcDbEntity
  8
1
  100
AcDbLine
  10
50.4
  20
-1.239238
  30
0
  11
50.3
  21
-1.21014
  31
0
  0
LINE
  5
5c
  100
AcDbEntity
  8
1
  100
AcDbLine
  10
50.3
  20
-1.21014
  30
0
  11
50.2
  21
-1.167719
  31
0
  0
LINE
  5
5d
  100
AcDbEntity
  8
1
  100
AcDbLine
  10
50.2
  20
-1.167719
  30
0
  11
50.1
  21
-1.064113
  31
0
  0
LINE
  5
5e
  100
AcDbEntity
  8
1
  100
AcDbLine
  10
50.1
  20
-1.064113
  30
0
  11
50
  21
-0.726301
  31
0
  0
LINE
  5
5f
  100
AcDbEntity
  8
1
  100
AcDbLine
  10
50
  20
-0.726301
  30
0
  11
50
  21
0.341299
  31
0
  0
LINE
  5
60
  100
AcDbEntity
  8
1
  100
AcDbLine
  10
50
  20
0.341299
  30
0
  11
50.1
  21
0.440704
  31
0
  0
LINE
  5
61
  100
AcDbEntity
  8
1
  100
AcDbLine
  10
50.1
  20
0.440704
  30
0
  11
50.2
  21
0.399098
  31
0
  0
LINE
  5
62
  100
AcDbEntity
  8
1
  100
AcDbLine
  10
50.2
  20
0.399098
  30
0
  11
50.3
  21
0.346518
  31
0
  0
LINE
  5
63
  100
AcDbEntity
  8
1
  100
AcDbLine
  10
50.3
  20
0.346518
  30
0
  11
50.4
  21
0.293076
  31
0
  0
LINE
  5
64
  100
AcDbEntity
  8
1
  100
AcDbLine
  10
50.4
  20
0.293076
  30
0
  11
50.5
  21
0.239196
  31
0
  0
LINE
  5
65
  100
AcDbEntity
  8
1
  100
AcDbLine
  10
50.5
  20
0.239196
  30
0
  11
50.5
  21
0.240835
  31
0
  0
LINE
  5
66
  100
AcDbEntity
  8
1
  100
AcDbLine
  10
50.5
  20
0.240835
  30
0
  11
50.6
  21
0.183684
  31
0
  0
LINE
  5
67
  100
AcDbEntity
  8
1
  100
AcDbLine
  10
50.6
  20
0.183684
  30
0
  11
50.7
  21
0.126262
  31
0
  0
LINE
  5
68
  100
AcDbEntity
  8
1
  100
AcDbLine
  10
50.7
  20
0.126262
  30
0
  11
50.8
  21
0.068653
  31
0
  0
LINE
  5
69
  100
AcDbEntity
  8
1
  100
AcDbLine
  10
50.8
  20
0.068653
  30
0
  11
50.9
  21
0.010942
  31
0
  0
LINE
  5
6a
  100
AcDbEntity
  8
1
  100
AcDbLine
  10
50.9
  20
0.010942
  30
0
  11
51
  21
-0.046786
  31
0
  0
LINE
  5
6b
  100
AcDbEntity
  8
1
  100
AcDbLine
  10
51
  20
-0.046786
  30
0
  11
51.1
  21
-0.104444
  31
0
  0
LINE
  5
6c
  100
AcDbEntity
  8
1
  100
AcDbLine
  10
51.1
  20
-0.104444
  30
0
  11
51.2
  21
-0.161947
  31
0
  0
LINE
  5
6d
  100
AcDbEntity
  8
1
  100
AcDbLine
  10
51.2
  20
-0.161947
  30
0
  11
51.3
  21
-0.219211
  31
0
  0
LINE
  5
6e
  100
AcDbEntity
  8
1
  100
AcDbLine
  10
51.3
  20
-0.219211
  30
0
  11
51.4
  21
-0.276149
  31
0
  0
LINE
  5
6f
  100
AcDbEntity
  8
1
  100
AcDbLine
  10
51.4
  20
-0.276149
  30
0
  11
51.5
  21
-0.332679
  31
0
  0
LINE
  5
70
  100
AcDbEntity
  8
1
  100
AcDbLine
  10
51.5
  20
-0.332679
  30
0
  11
51.6
  21
-0.388716
  31
0
  0
LINE
  5
71
  100
AcDbEntity
  8
1
  100
AcDbLine
  10
51.6
  20
-0.388716
  30
0
  11
51.7
  21
-0.444177
  31
0
  0
LINE
  5
72
  100
AcDbEntity
  8
1
  100
AcDbLine
  10
51.7
  20
-0.444177
  30
0
  11
51.8
  21
-0.49898
  31
0
  0
LINE
  5
73
  100
AcDbEntity
  8
1
  100
AcDbLine
  10
51.8
  20
-0.49898
  30
0
  11
51.9
  21
-0.553044
  31
0
  0
LINE
  5
74
  100
AcDbEntity
  8
1
  100
AcDbLine
  10
51.9
  20
-0.553044
  30
0
  11
52
  21
-0.606289
  31
0
  0
LINE
  5
75
  100
AcDbEntity
  8
1
  100
AcDbLine
  10
52
  20
-0.606289
  30
0
  11
52.1
  21
-0.658635
  31
0
  0
LINE
  5
76
  100
AcDbEntity
  8
1
  100
AcDbLine
  10
52.1
  20
-0.658635
  30
0
  11
52.2
  21
-0.710006
  31
0
  0
LINE
  5
77
  100
AcDbEntity
  8
1
  100
AcDbLine
  10
52.2
  20
-0.710006
  30
0
  11
52.3
  21
-0.760326
  31
0
  0
LINE
  5
78
  100
AcDbEntity
  8
1
  100
AcDbLine
  10
52.3
  20
-0.760326
  30
0
  11
52.4
  21
-0.809519
  31
0
  0
LINE
  5
79
  100
AcDbEntity
  8
1
  100
AcDbLine
  10
52.4
  20
-0.809519
  30
0
  11
52.5
  21
-0.857512
  31
0
  0
LINE
  5
7a
  100
AcDbEntity
  8
1
  100
AcDbLine
  10
52.5
  20
-0.857512
  30
0
  11
52.6
  21
-0.904236
  31
0
  0
LINE
  5
7b
  100
AcDbEntity
  8
1
  100
AcDbLine
  10
52.6
  20
-0.904236
  30
0
  11
52.7
  21
-0.94962
  31
0
  0
LINE
  5
7c
  100
AcDbEntity
  8
1
  100
AcDbLine
  10
52.7
  20
-0.94962
  30
0
  11
52.8
  21
-0.993598
  31
0
  0
LINE
  5
7d
  100
AcDbEntity
  8
1
  100
AcDbLine
  10
52.8
  20
-0.993598
  30
0
  11
52.9
  21
-1.036104
  31
0
  0
LINE
  5
7e
  100
AcDbEntity
  8
1
  100
AcDbLine
  10
52.9
  20
-1.036104
  30
0
  11
53
  21
-1.077074
  31
0
  0
LINE
  5
7f
  100
AcDbEntity
  8
1
  100
AcDbLine
  10
53
  20
-1.077074
  30
0
  11
53.1
  21
-1.11645
  31
0
  0
LINE
  5
80
  100
AcDbEntity
  8
1
  100
AcDbLine
  10
53.1
  20
-1.11645
  30
0
  11
53.2
  21
-1.154172
  31
0
  0
LINE
  5
81
  100
AcDbEntity
  8
1
  100
AcDbLine
  10
53.2
  20
-1.154172
  30
0
  11
53.3
  21
-1.190184
  31
0
  0
LINE
  5
82
  100
AcDbEntity
  8
1
  100
AcDbLine
  10
53.3
  20
-1.190184
  30
0
  11
53.4
  21
-1.224433
  31
0
  0
LINE
  5
83
  100
AcDbEntity
  8
1
  100
AcDbLine
  10
53.4
  20
-1.224433
  30
0
  11
53.5
  21
-1.256868
  31
0
  0
LINE
  5
84
  100
AcDbEntity
  8
1
  100
AcDbLine
  10
53.5
  20
-1.256868
  30
0
  11
53.6
  21
-1.287441
  31
0
  0
LINE
  5
85
  100
AcDbEntity
  8
1
  100
AcDbLine
  10
53.6
  20
-1.287441
  30
0
  11
53.7
  21
-1.316108
  31
0
  0
LINE
  5
86
  100
AcDbEntity
  8
1
  100
AcDbLine
  10
53.7
  20
-1.316108
  30
0
  11
53.8
  21
-1.342824
  31
0
  0
LINE
  5
87
  100
AcDbEntity
  8
1
  100
AcDbLine
  10
53.8
  20
-1.342824
  30
0
  11
53.9
  21
-1.367552
  31
0
  0
LINE
  5
88
  100
AcDbEntity
  8
1
  100
AcDbLine
  10
53.9
  20
-1.367552
  30
0
  11
54
  21
-1.390254
  31
0
  0
LINE
  5
89
  100
AcDbEntity
  8
1
  100
AcDbLine
  10
54
  20
-1.390254
  30
0
  11
54.1
  21
-1.410896
  31
0
  0
LINE
  5
8a
  100
AcDbEntity
  8
1
  100
AcDbLine
  10
54.1
  20
-1.410896
  30
0
  11
54.2
  21
-1.429449
  31
0
  0
LINE
  5
8b
  100
AcDbEntity
  8
1
  100
AcDbLine
  10
54.2
  20
-1.429449
  30
0
  11
54.3
  21
-1.445884
  31
0
  0
LINE
  5
8c
  100
AcDbEntity
  8
1
  100
AcDbLine
  10
54.3
  20
-1.445884
  30
0
  11
54.4
  21
-1.460177
  31
0
  0
LINE
  5
8d
  100
AcDbEntity
  8
1
  100
AcDbLine
  10
54.4
  20
-1.460177
  30
0
  11
54.5
  21
-1.472308
  31
0
  0
LINE
  5
8e
  100
AcDbEntity
  8
1
  100
AcDbLine
  10
54.5
  20
-1.472308
  30
0
  11
54.6
  21
-1.482257
  31
0
  0
LINE
  5
8f
  100
AcDbEntity
  8
1
  100
AcDbLine
  10
54.6
  20
-1.482257
  30
0
  11
54.7
  21
-1.490011
  31
0
  0
LINE
  5
90
  100
AcDbEntity
  8
1
  100
AcDbLine
  10
54.7
  20
-1.490011
  30
0
  11
54.8
  21
-1.495558
  31
0
  0
LINE
  5
91
  100
AcDbEntity
  8
1
  100
AcDbLine
  10
54.8
  20
-1.495558
  30
0
  11
54.9
  21
-1.498889
  31
0
  0
LINE
  5
92
  100
AcDbEntity
  8
1
  100
AcDbLine
  10
54.9
  20
-1.498889
  30
0
  11
55
  21
-1.5
  31
0
  0
LINE
  5
93
  100
AcDbEntity
  8
1
  100
AcDbLine
  10
55
  20
-1.5
  30
0
  11
55
  21
0
  31
0
  0
LINE
  5
94
  100
AcDbEntity
  8
1
  100
AcDbLine
  10
55
  20
0.147721
  30
0
  11
54.9
  21
0.20433
  31
0
  0
LINE
  5
95
  100
AcDbEntity
  8
1
  100
AcDbLine
  10
54.9
  20
0.20433
  30
0
  11
54.8
  21
0.260637
  31
0
  0
LINE
  5
96
  100
AcDbEntity
  8
1
  100
AcDbLine
  10
54.8
  20
0.260637
  30
0
  11
54.7
  21
0.316557
  31
0
  0
LINE
  5
97
  100
AcDbEntity
  8
1
  100
AcDbLine
  10
54.7
  20
0.316557
  30
0
  11
54.6
  21
0.372008
  31
0
  0
LINE
  5
98
  100
AcDbEntity
  8
1
  100
AcDbLine
  10
54.6
  20
0.372008
  30
0
  11
54.5
  21
0.426909
  31
0
  0
LINE
  5
99
  100
AcDbEntity
  8
1
  100
AcDbLine
  10
54.5
  20
0.426909
  30
0
  11
54.4
  21
0.481177
  31
0
  0
LINE
  5
9a
  100
AcDbEntity
  8
1
  100
AcDbLine
  10
54.4
  20
0.481177
  30
0
  11
54.3
  21
0.534732
  31
0
  0
LINE
  5
9b
  100
AcDbEntity
  8
1
  100
AcDbLine
  10
54.3
  20
0.534732
  30
0
  11
54.2
  21
0.587495
  31
0
  0
LINE
  5
9c
  100
AcDbEntity
  8
1
  100
AcDbLine
  10
54.2
  20
0.587495
  30
0
  11
54.1
  21
0.639388
  31
0
  0
LINE
  5
9d
  100
AcDbEntity
  8
1
  100
AcDbLine
  10
54.1
  20
0.639388
  30
0
  11
54
  21
0.690333
  31
0
  0
LINE
  5
9e
  100
AcDbEntity
  8
1
  100
AcDbLine
  10
54
  20
0.690333
  30
0
  11
53.9
  21
0.740256
  31
0
  0
LINE
  5
9f
  100
AcDbEntity
  8
1
  100
AcDbLine
  10
53.9
  20
0.740256
  30
0
  11
53.8
  21
0.789083
  31
0
  0
LINE
  5
a0
  100
AcDbEntity
  8
1
  100
AcDbLine
  10
53.8
  20
0.789083
  30
0
  11
53.7
  21
0.836741
  31
0
  0
LINE
  5
a1
  100
AcDbEntity
  8
1
  100
AcDbLine
  10
53.7
  20
0.836741
  30
0
  11
53.6
  21
0.883159
  31
0
  0
LINE
  5
a2
  100
AcDbEntity
  8
1
  100
AcDbLine
  10
53.6
  20
0.883159
  30
0
  11
53.5
  21
0.928269
  31
0
  0
LINE
  5
a3
  100
AcDbEntity
  8
1
  100
AcDbLine
  10
53.5
  20
0.928269
  30
0
  11
53.4
  21
0.972004
  31
0
  0
LINE
  5
a4
  100
AcDbEntity
  8
1
  100
AcDbLine
  10
53.4
  20
0.972004
  30
0
  11
53.3
  21
1.014299
  31
0
  0
LINE
  5
a5
  100
AcDbEntity
  8
1
  100
AcDbLine
  10
53.3
  20
1.014299
  30
0
  11
53.2
  21
1.055092
  31
0
  0
LINE
  5
a6
  100
AcDbEntity
  8
1
  100
AcDbLine
  10
53.2
  20
1.055092
  30
0
  11
53.1
  21
1.094322
  31
0
  0
LINE
  5
a7
  100
AcDbEntity
  8
1
  100
AcDbLine
  10
53.1
  20
1.094322
  30
0
  11
53
  21
1.13193
  31
0
  0
LINE
  5
a8
  100
AcDbEntity
  8
1
  100
AcDbLine
  10
53
  20
1.13193
  30
0
  11
52.9
  21
1.167862
  31
0
  0
LINE
  5
a9
  100
AcDbEntity
  8
1
  100
AcDbLine
  10
52.9
  20
1.167862
  30
0
  11
52.8
  21
1.202064
  31
0
  0
LINE
  5
aa
  100
AcDbEntity
  8
1
  100
AcDbLine
  10
52.8
  20
1.202064
  30
0
  11
52.7
  21
1.234486
  31
0
  0
LINE
  5
ab
  100
AcDbEntity
  8
1
  100
AcDbLine
  10
52.7
  20
1.234486
  30
0
  11
52.6
  21
1.265079
  31
0
  0
LINE
  5
ac
  100
AcDbEntity
  8
1
  100
AcDbLine
  10
52.6
  20
1.265079
  30
0
  11
52.5
  21
1.293798
  31
0
  0
LINE
  5
ad
  100
AcDbEntity
  8
1
  100
AcDbLine
  10
52.5
  20
1.293798
  30
0
  11
52.4
  21
1.3206
  31
0
  0
LINE
  5
ae
  100
AcDbEntity
  8
1
  100
AcDbLine
  10
52.4
  20
1.3206
  30
0
  11
52.3
  21
1.345446
  31
0
  0
LINE
  5
af
  100
AcDbEntity
  8
1
  100
AcDbLine
  10
52.3
  20
1.345446
  30
0
  11
52.2
  21
1.368299
  31
0
  0
LINE
  5
b0
  100
AcDbEntity
  8
1
  100
AcDbLine
  10
52.2
  20
1.368299
  30
0
  11
52.1
  21
1.389125
  31
0
  0
LINE
  5
b1
  100
AcDbEntity
  8
1
  100
AcDbLine
  10
52.1
  20
1.389125
  30
0
  11
52
  21
1.407894
  31
0
  0
LINE
  5
b2
  100
AcDbEntity
  8
1
  100
AcDbLine
  10
52
  20
1.407894
  30
0
  11
51.9
  21
1.424577
  31
0
  0
LINE
  5
b3
  100
AcDbEntity
  8
1
  100
AcDbLine
  10
51.9
  20
1.424577
  30
0
  11
51.8
  21
1.43915
  31
0
  0
LINE
  5
b4
  100
AcDbEntity
  8
1
  100
AcDbLine
  10
51.8
  20
1.43915
  30
0
  11
51.7
  21
1.451591
  31
0
  0
LINE
  5
b5
  100
AcDbEntity
  8
1
  100
AcDbLine
  10
51.7
  20
1.451591
  30
0
  11
51.6
  21
1.461882
  31
0
  0
LINE
  5
b6
  100
AcDbEntity
  8
1
  100
AcDbLine
  10
51.6
  20
1.461882
  30
0
  11
51.5
  21
1.470007
  31
0
  0
LINE
  5
b7
  100
AcDbEntity
  8
1
  100
AcDbLine
  10
51.5
  20
1.470007
  30
0
  11
51.4
  21
1.475955
  31
0
  0
LINE
  5
b8
  100
AcDbEntity
  8
1
  100
AcDbLine
  10
51.4
  20
1.475955
  30
0
  11
51.3
  21
1.479716
  31
0
  0
LINE
  5
b9
  100
AcDbEntity
  8
1
  100
AcDbLine
  10
51.3
  20
1.479716
  30
0
  11
51.2
  21
1.481286
  31
0
  0
LINE
  5
ba
  100
AcDbEntity
  8
1
  100
AcDbLine
  10
51.2
  20
1.481286
  30
0
  11
51.178465
  21
1.5
  31
0
  0
LINE
  5
bb
  100
AcDbEntity
  8
1
  100
AcDbLine
  10
50.918954
  20
1.5
  30
0
  11
51
  21
1.49927
  31
0
  0
LINE
  5
bc
  100
AcDbEntity
  8
1
  100
AcDbLine
  10
51
  20
1.49927
  30
0
  11
51.1
  21
1.496359
  31
0
  0
LINE
  5
bd
  100
AcDbEntity
  8
1
  100
AcDbLine
  10
51.1
  20
1.496359
  30
0
  11
51.2
  21
1.491232
  31
0
  0
LINE
  5
be
  100
AcDbEntity
  8
1
  100
AcDbLine
  10
51.2
  20
1.491232
  30
0
  11
51.3
  21
1.483896
  31
0
  0
LINE
  5
bf
  100
AcDbEntity
  8
1
  100
AcDbLine
  10
51.3
  20
1.483896
  30
0
  11
51.4
  21
1.474361
  31
0
  0
LINE
  5
c0
  100
AcDbEntity
  8
1
  100
AcDbLine
  10
51.4
  20
1.474361
  30
0
  11
51.5
  21
1.462643
  31
0
  0
LINE
  5
c1
  100
AcDbEntity
  8
1
  100
AcDbLine
  10
51.5
  20
1.462643
  30
0
  11
51.6
  21
1.448758
  31
0
  0
LINE
  5
c2
  100
AcDbEntity
  8
1
  100
AcDbLine
  10
51.6
  20
1.448758
  30
0
  11
51.7
  21
1.432727
  31
0
  0
LINE
  5
c3
  100
AcDbEntity
  8
1
  100
AcDbLine
  10
51.7
  20
1.432727
  30
0
  11
51.8
  21
1.414574
  31
0
  0
LINE
  5
c4
  100
AcDbEntity
  8
1
  100
AcDbLine
  10
51.8
  20
1.414574
  30
0
  11
51.9
  21
1.394325
  31
0
  0
LINE
  5
c5
  100
AcDbEntity
  8
1
  100
AcDbLine
  10
51.9
  20
1.394325
  30
0
  11
52
  21
1.372011
  31
0
  0
LINE
  5
c6
  100
AcDbEntity
  8
1
  100
AcDbLine
  10
52
  20
1.372011
  30
0
  11
52.1
  21
1.347664
  31
0
  0
LINE
  5
c7
  100
AcDbEntity
  8
1
  100
AcDbLine
  10
52.1
  20
1.347664
  30
0
  11
52.2
  21
1.321322
  31
0
  0
LINE
  5
c8
  100
AcDbEntity
  8
1
  100
AcDbLine
  10
52.2
  20
1.321322
  30
0
  11
52.3
  21
1.293022
  31
0
  0
LINE
  5
c9
  100
AcDbEntity
  8
1
  100
AcDbLine
  10
52.3
  20
1.293022
  30
0
  11
52.4
  21
1.262806
  31
0
  0
LINE
  5
ca
  100
AcDbEntity
  8
1
  100
AcDbLine
  10
52.4
  20
1.262806
  30
0
  11
52.5
  21
1.23072
  31
0
  0
LINE
  5
cb
  100
AcDbEntity
  8
1
  100
AcDbLine
  10
52.5
  20
1.23072
  30
0
  11
52.6
  21
1.196811
  31
0
  0
LINE
  5
cc
  100
AcDbEntity
  8
1
  100
AcDbLine
  10
52.6
  20
1.196811
  30
0
  11
52.7
  21
1.161129
  31
0
  0
LINE
  5
cd
  100
AcDbEntity
  8
1
  100
AcDbLine
  10
52.7
  20
1.161129
  30
0
  11
52.8
  21
1.123727
  31
0
  0
LINE
  5
ce
  100
AcDbEntity
  8
1
  100
AcDbLine
  10
52.8
  20
1.123727
  30
0
  11
52.9
  21
1.084661
  31
0
  0
LINE
  5
cf
  100
AcDbEntity
  8
1
  100
AcDbLine
  10
52.9
  20
1.084661
  30
0
  11
53
  21
1.043988
  31
0
  0
LINE
  5
d0
  100
AcDbEntity
  8
1
  100
AcDbLine
  10
53
  20
1.043988
  30
0
  11
53.1
  21
1.001768
  31
0
  0
LINE
  5
d1
  100
AcDbEntity
  8
1
  100
AcDbLine
  10
53.1
  20
1.001768
  30
0
  11
53.2
  21
0.958065
  31
0
  0
LINE
  5
d2
  100
AcDbEntity
  8
1
  100
AcDbLine
  10
53.2
  20
0.958065
  30
0
  11
53.3
  21
0.912942
  31
0
  0
LINE
  5
d3
  100
AcDbEntity
  8
1
  100
AcDbLine
  10
53.3
  20
0.912942
  30
0
  11
53.4
  21
0.866467
  31
0
  0
LINE
  5
d4
  100
AcDbEntity
  8
1
  100
AcDbLine
  10
53.4
  20
0.866467
  30
0
  11
53.5
  21
0.818708
  31
0
  0
LINE
  5
d5
  100
AcDbEntity
  8
1
  100
AcDbLine
  10
53.5
  20
0.818708
  30
0
  11
53.6
  21
0.769737
  31
0
  0
LINE
  5
d6
  100
AcDbEntity
  8
1
  100
AcDbLine
  10
53.6
  20
0.769737
  30
0
  11
53.7
  21
0.719626
  31
0
  0
LINE
  5
d7
  100
AcDbEntity
  8
1
  100
AcDbLine
  10
53.7
  20
0.719626
  30
0
  11
53.8
  21
0.668448
  31
0
  0
LINE
  5
d8
  100
AcDbEntity
  8
1
  100
AcDbLine
  10
53.8
  20
0.668448
  30
0
  11
53.9
  21
0.61628
  31
0
  0
LINE
  5
d9
  100
AcDbEntity
  8
1
  100
AcDbLine
  10
53.9
  20
0.61628
  30
0
  11
54
  21
0.5632
  31
0
  0
LINE
  5
da
  100
AcDbEntity
  8
1
  100
AcDbLine
  10
54
  20
0.5632
  30
0
  11
54.1
  21
0.509285
  31
0
  0
LINE
  5
db
  100
AcDbEntity
  8
1
  100
AcDbLine
  10
54.1
  20
0.509285
  30
0
  11
54.2
  21
0.454616
  31
0
  0
LINE
  5
dc
  100
AcDbEntity
  8
1
  100
AcDbLine
  10
54.2
  20
0.454616
  30
0
  11
54.3
  21
0.399273
  31
0
  0
LINE
  5
dd
  100
AcDbEntity
  8
1
  100
AcDbLine
  10
54.3
  20
0.399273
  30
0
  11
54.4
  21
0.343339
  31
0
  0
LINE
  5
de
  100
AcDbEntity
  8
1
  100
AcDbLine
  10
54.4
  20
0.343339
  30
0
  11
54.5
  21
0.286896
  31
0
  0
LINE
  5
df
  100
AcDbEntity
  8
1
  100
AcDbLine
  10
54.5
  20
0.286896
  30
0
  11
54.6
  21
0.230029
  31
0
  0
LINE
  5
e0
  100
AcDbEntity
  8
1
  100
AcDbLine
  10
54.6
  20
0.230029
  30
0
  11
54.7
  21
0.17282
  31
0
  0
LINE
  5
e1
  100
AcDbEntity
  8
1
  100
AcDbLine
  10
54.7
  20
0.17282
  30
0
  11
54.8
  21
0.115356
  31
0
  0
LINE
  5
e2
  100
AcDbEntity
  8
1
  100
AcDbLine
  10
54.8
  20
0.115356
  30
0
  11
54.9
  21
0.057721
  31
0
  0
LINE
  5
e3
  100
AcDbEntity
  8
1
  100
AcDbLine
  10
54.9
  20
0.057721
  30
0
  11
55
  21
0
  31
0
  0
LINE
  5
e4
  100
AcDbEntity
  8
1
  100
AcDbLine
  10
55
  20
0
  30
0
  11
55
  21
1.5
  31
0
  0
LINE
  5
e5
  100
AcDbEntity
  8
1
  100
AcDbLine
  10
55
  20
1.5
  30
0
  11
50.5
  21
1.5
  31
0
  0
LINE
  5
e6
  100
AcDbEntity
  8
1
  100
AcDbLine
  10
50.5
  20
1.5
  30
0
  11
50.5
  21
1.425
  31
0
  0
LINE
  5
e7
  100
AcDbEntity
  8
1
  100
AcDbLine
  10
50.5
  20
1.425
  30
0
  11
39.43
  21
1.425
  31
0
  0
ARC
  5
e8
  100
AcDbEntity
  8
1
  100
AcDbCircle
  10
40.301557
  20
11.386947
  30
0
  40
10
  100
AcDbArc
  50
255
  51
265
  0
LINE
  5
e9
  100
AcDbEntity
  8
1
  100
AcDbLine
  10
37.713367
  20
1.727689
  30
0
  11
33
  21
2.990632
  31
0
  0
LINE
  5
ea
  100
AcDbEntity
  8
1
  100
AcDbLine
  10
33
  20
2.990632
  30
0
  11
33
  21
-2.990632
  31
0
  0
LINE
  5
eb
  100
AcDbEntity
  8
1
  100
AcDbLine
  10
33
  20
-2.990632
  30
0
  11
37.713367
  21
-1.727689
  31
0
  0
LINE
  5
ec
  100
AcDbEntity
  8
1
  100
AcDbLine
  10
37.713367
  20
-1.727689
  30
0
  11
37.713367
  21
1.727689
  31
0
  0
LINE
  5
ed
  100
AcDbEntity
  8
1
  100
AcDbLine
  10
39.43
  20
1.425
  30
0
  11
39.43
  21
-1.425
  31
0
  0
ARC
  5
ee
  100
AcDbEntity
  8
1
  100
AcDbCircle
  10
40.301557
  20
-11.386947
  30
0
  40
10
  100
AcDbArc
  50
95
  51
105
  0
LINE
  5
ef
  100
AcDbEntity
  8
1
  100
AcDbLine
  10
39.43
  20
-1.425
  30
0
  11
50.5
  21
-1.425
  31
0
  0
LINE
  5
f0
  100
AcDbEntity
  8
1
  100
AcDbLine
  10
50.5
  20
-1.425
  30
0
  11
50.5
  21
-1.5
  31
0
  0
LINE
  5
f1
  100
AcDbEntity
  8
1
  100
AcDbLine
  10
50.5
  20
-1.5
  30
0
  11
55
  21
-1.5
  31
0
  0
LINE
  5
f2
  100
AcDbEntity
  8
1
  100
AcDbLine
  10
55
  20
-1.5
  30
0
  11
55
  21
1.5
  31
0
  0
LINE
  5
f3
  100
AcDbEntity
  8
1
  100
AcDbLine
  10
55
  20
0.463525
  30
0
  11
54.9
  21
0.518078
  31
0
  0
LINE
  5
f4
  100
AcDbEntity
  8
1
  100
AcDbLine
  10
54.9
  20
0.518078
  30
0
  11
54.8
  21
0.571863
  31
0
  0
LINE
  5
f5
  100
AcDbEntity
  8
1
  100
AcDbLine
  10
54.8
  20
0.571863
  30
0
  11
54.7
  21
0.624801
  31
0
  0
LINE
  5
f6
  100
AcDbEntity
  8
1
  100
AcDbLine
  10
54.7
  20
0.624801
  30
0
  11
54.6
  21
0.676813
  31
0
  0
LINE
  5
f7
  100
AcDbEntity
  8
1
  100
AcDbLine
  10
54.6
  20
0.676813
  30
0
  11
54.5
  21
0.727823
  31
0
  0
LINE
  5
f8
  100
AcDbEntity
  8
1
  100
AcDbLine
  10
54.5
  20
0.727823
  30
0
  11
54.4
  21
0.777755
  31
0
  0
LINE
  5
f9
  100
AcDbEntity
  8
1
  100
AcDbLine
  10
54.4
  20
0.777755
  30
0
  11
54.3
  21
0.826534
  31
0
  0
LINE
  5
fa
  100
AcDbEntity
  8
1
  100
AcDbLine
  10
54.3
  20
0.826534
  30
0
  11
54.2
  21
0.874089
  31
0
  0
LINE
  5
fb
  100
AcDbEntity
  8
1
  100
AcDbLine
  10
54.2
  20
0.874089
  30
0
  11
54.1
  21
0.92035
  31
0
  0
LINE
  5
fc
  100
AcDbEntity
  8
1
  100
AcDbLine
  10
54.1
  20
0.92035
  30
0
  11
54
  21
0.965247
  31
0
  0
LINE
  5
fd
  100
AcDbEntity
  8
1
  100
AcDbLine
  10
54
  20
0.965247
  30
0
  11
53.9
  21
1.008714
  31
0
  0
LINE
  5
fe
  100
AcDbEntity
  8
1
  100
AcDbLine
  10
53.9
  20
1.008714
  30
0
  11
53.8
  21
1.050687
  31
0
  0
LINE
  5
ff
  100
AcDbEntity
  8
1
  100
AcDbLine
  10
53.8
  20
1.050687
  30
0
  11
53.7
  21
1.091104
  31
0
  0
LINE
  5
100
  100
AcDbEntity
  8
1
  100
AcDbLine
  10
53.7
  20
1.091104
  30
0
  11
53.6
  21
1.129905
  31
0
  0
LINE
  5
101
  100
AcDbEntity
  8
1
  100
AcDbLine
  10
53.6
  20
1.129905
  30
0
  11
53.5
  21
1.167031
  31
0
  0
LINE
  5
102
  100
AcDbEntity
  8
1
  100
AcDbLine
  10
53.5
  20
1.167031
  30
0
  11
53.4
  21
1.20243
  31
0
  0
LINE
  5
103
  100
AcDbEntity
  8
1
  100
AcDbLine
  10
53.4
  20
1.20243
  30
0
  11
53.3
  21
1.236046
  31
0
  0
LINE
  5
104
  100
AcDbEntity
  8
1
  100
AcDbLine
  10
53.3
  20
1.236046
  30
0
  11
53.2
  21
1.267832
  31
0
  0
LINE
  5
105
  100
AcDbEntity
  8
1
  100
AcDbLine
  10
53.2
  20
1.267832
  30
0
  11
53.1
  21
1.29774
  31
0
  0
LINE
  5
106
  100
AcDbEntity
  8
1
  100
AcDbLine
  10
53.1
  20
1.29774
  30
0
  11
53
  21
1.325726
  31
0
  0
LINE
  5
107
  100
AcDbEntity
  8
1
  100
AcDbLine
  10
53
  20
1.325726
  30
0
  11
52.9
  21
1.351748
  31
0
  0
LINE
  5
108
  100
AcDbEntity
  8
1
  100
AcDbLine
  10
52.9
  20
1.351748
  30
0
  11
52.8
  21
1.375767
  31
0
  0
LINE
  5
109
  100
AcDbEntity
  8
1
  100
AcDbLine
  10
52.8
  20
1.375767
  30
0
  11
52.7
  21
1.397748
  31
0
  0
LINE
  5
10a
  100
AcDbEntity
  8
1
  100
AcDbLine
  10
52.7
  20
1.397748
  30
0
  11
52.6
  21
1.417659
  31
0
  0
LINE
  5
10b
  100
AcDbEntity
  8
1
  100
AcDbLine
  10
52.6
  20
1.417659
  30
0
  11
52.5
  21
1.43547
  31
0
  0
LINE
  5
10c
  100
AcDbEntity
  8
1
  100
AcDbLine
  10
52.5
  20
1.43547
  30
0
  11
52.4
  21
1.451155
  31
0
  0
LINE
  5
10d
  100
AcDbEntity
  8
1
  100
AcDbLine
  10
52.4
  20
1.451155
  30
0
  11
52.3
  21
1.46469
  31
0
  0
LINE
  5
10e
  100
AcDbEntity
  8
1
  100
AcDbLine
  10
52.3
  20
1.46469
  30
0
  11
52.2
  21
1.476056
  31
0
  0
LINE
  5
10f
  100
AcDbEntity
  8
1
  100
AcDbLine
  10
52.2
  20
1.476056
  30
0
  11
52.1
  21
1.485235
  31
0
  0
LINE
  5
110
  100
AcDbEntity
  8
1
  100
AcDbLine
  10
52.1
  20
1.485235
  30
0
  11
52
  21
1.492213
  31
0
  0
LINE
  5
111
  100
AcDbEntity
  8
1
  100
AcDbLine
  10
52
  20
1.492213
  30
0
  11
51.9
  21
1.496982
  31
0
  0
LINE
  5
112
  100
AcDbEntity
  8
1
  100
AcDbLine
  10
51.9
  20
1.496982
  30
0
  11
51.8
  21
1.499533
  31
0
  0
LINE
  5
113
  100
AcDbEntity
  8
1
  100
AcDbLine
  10
51.8
  20
1.499533
  30
0
  11
51.735163
  21
1.5
  31
0
  0
LINE
  5
114
  100
AcDbEntity
  8
1
  100
AcDbLine
  10
50.5
  20
0.380449
  30
0
  11
50.5
  21
0.382457
  31
0
  0
LINE
  5
115
  100
AcDbEntity
  8
1
  100
AcDbLine
  10
50.5
  20
0.382457
  30
0
  11
50.6
  21
0.327104
  31
0
  0
LINE
  5
116
  100
AcDbEntity
  8
1
  100
AcDbLine
  10
50.6
  20
0.327104
  30
0
  11
50.7
  21
0.271266
  31
0
  0
LINE
  5
117
  100
AcDbEntity
  8
1
  100
AcDbLine
  10
50.7
  20
0.271266
  30
0
  11
50.8
  21
0.215027
  31
0
  0
LINE
  5
118
  100
AcDbEntity
  8
1
  100
AcDbLine
  10
50.8
  20
0.215027
  30
0
  11
50.9
  21
0.158469
  31
0
  0
LINE
  5
119
  100
AcDbEntity
  8
1
  100
AcDbLine
  10
50.9
  20
0.158469
  30
0
  11
51
  21
0.101676
  31
0
  0
LINE
  5
11a
  100
AcDbEntity
  8
1
  100
AcDbLine
  10
51
  20
0.101676
  30
0
  11
51.1
  21
0.044732
  31
0
  0
LINE
  5
11b
  100
AcDbEntity
  8
1
  100
AcDbLine
  10
51.1
  20
0.044732
  30
0
  11
51.2
  21
-0.012277
  31
0
  0
LINE
  5
11c
  100
AcDbEntity
  8
1
  100
AcDbLine
  10
51.2
  20
-0.012277
  30
0
  11
51.3
  21
-0.069269
  31
0
  0
LINE
  5
11d
  100
AcDbEntity
  8
1
  100
AcDbLine
  10
51.3
  20
-0.069269
  30
0
  11
51.4
  21
-0.126158
  31
0
  0
LINE
  5
11e
  100
AcDbEntity
  8
1
  100
AcDbLine
  10
51.4
  20
-0.126158
  30
0
  11
51.5
  21
-0.18286
  31
0
  0
LINE
  5
11f
  100
AcDbEntity
  8
1
  100
AcDbLine
  10
51.5
  20
-0.18286
  30
0
  11
51.6
  21
-0.239291
  31
0
  0
LINE
  5
120
  100
AcDbEntity
  8
1
  100
AcDbLine
  10
51.6
  20
-0.239291
  30
0
  11
51.7
  21
-0.295368
  31
0
  0
LINE
  5
121
  100
AcDbEntity
  8
1
  100
AcDbLine
  10
51.7
  20
-0.295368
  30
0
  11
51.8
  21
-0.351007
  31
0
  0
LINE
  5
122
  100
AcDbEntity
  8
1
  100
AcDbLine
  10
51.8
  20
-0.351007
  30
0
  11
51.9
  21
-0.406126
  31
0
  0
LINE
  5
123
  100
AcDbEntity
  8
1
  100
AcDbLine
  10
51.9
  20
-0.406126
  30
0
  11
52
  21
-0.460644
  31
0
  0
LINE
  5
124
  100
AcDbEntity
  8
1
  100
AcDbLine
  10
52
  20
-0.460644
  30
0
  11
52.1
  21
-0.514479
  31
0
  0
LINE
  5
125
  100
AcDbEntity
  8
1
  100
AcDbLine
  10
52.1
  20
-0.514479
  30
0
  11
52.2
  21
-0.567552
  31
0
  0
LINE
  5
126
  100
AcDbEntity
  8
1
  100
AcDbLine
  10
52.2
  20
-0.567552
  30
0
  11
52.3
  21
-0.619785
  31
0
  0
LINE
  5
127
  100
AcDbEntity
  8
1
  100
AcDbLine
  10
52.3
  20
-0.619785
  30
0
  11
52.4
  21
-0.671099
  31
0
  0
LINE
  5
128
  100
AcDbEntity
  8
1
  100
AcDbLine
  10
52.4
  20
-0.671099
  30
0
  11
52.5
  21
-0.72142
  31
0
  0
LINE
  5
129
  100
AcDbEntity
  8
1
  100
AcDbLine
  10
52.5
  20
-0.72142
  30
0
  11
52.6
  21
-0.770671
  31
0
  0
LINE
  5
12a
  100
AcDbEntity
  8
1
  100
AcDbLine
  10
52.6
  20
-0.770671
  30
0
  11
52.7
  21
-0.818781
  31
0
  0
LINE
  5
12b
  100
AcDbEntity
  8
1
  100
AcDbLine
  10
52.7
  20
-0.818781
  30
0
  11
52.8
  21
-0.865679
  31
0
  0
LINE
  5
12c
  100
AcDbEntity
  8
1
  100
AcDbLine
  10
52.8
  20
-0.865679
  30
0
  11
52.9
  21
-0.911294
  31
0
  0
LINE
  5
12d
  100
AcDbEntity
  8
1
  100
AcDbLine
  10
52.9
  20
-0.911294
  30
0
  11
53
  21
-0.955559
  31
0
  0
LINE
  5
12e
  100
AcDbEntity
  8
1
  100
AcDbLine
  10
53
  20
-0.955559
  30
0
  11
53.1
  21
-0.998408
  31
0
  0
LINE
  5
12f
  100
AcDbEntity
  8
1
  100
AcDbLine
  10
53.1
  20
-0.998408
  30
0
  11
53.2
  21
-1.039779
  31
0
  0
LINE
  5
130
  100
AcDbEntity
  8
1
  100
AcDbLine
  10
53.2
  20
-1.039779
  30
0
  11
53.3
  21
-1.079609
  31
0
  0
LINE
  5
131
  100
AcDbEntity
  8
1
  100
AcDbLine
  10
53.3
  20
-1.079609
  30
0
  11
53.4
  21
-1.11784
  31
0
  0
LINE
  5
132
  100
AcDbEntity
  8
1
  100
AcDbLine
  10
53.4
  20
-1.11784
  30
0
  11
53.5
  21
-1.154415
  31
0
  0
LINE
  5
133
  100
AcDbEntity
  8
1
  100
AcDbLine
  10
53.5
  20
-1.154415
  30
0
  11
53.6
  21
-1.189281
  31
0
  0
LINE
  5
134
  100
AcDbEntity
  8
1
  100
AcDbLine
  10
53.6
  20
-1.189281
  30
0
  11
53.7
  21
-1.222384
  31
0
  0
LINE
  5
135
  100
AcDbEntity
  8
1
  100
AcDbLine
  10
53.7
  20
-1.222384
  30
0
  11
53.8
  21
-1.253677
  31
0
  0
LINE
  5
136
  100
AcDbEntity
  8
1
  100
AcDbLine
  10
53.8
  20
-1.253677
  30
0
  11
53.9
  21
-1.283113
  31
0
  0
LINE
  5
137
  100
AcDbEntity
  8
1
  100
AcDbLine
  10
53.9
  20
-1.283113
  30
0
  11
54
  21
-1.310648
  31
0
  0
LINE
  5
138
  100
AcDbEntity
  8
1
  100
AcDbLine
  10
54
  20
-1.310648
  30
0
  11
54.1
  21
-1.336242
  31
0
  0
LINE
  5
139
  100
AcDbEntity
  8
1
  100
AcDbLine
  10
54.1
  20
-1.336242
  30
0
  11
54.2
  21
-1.359856
  31
0
  0
LINE
  5
13a
  100
AcDbEntity
  8
1
  100
AcDbLine
  10
54.2
  20
-1.359856
  30
0
  11
54.3
  21
-1.381456
  31
0
  0
LINE
  5
13b
  100
AcDbEntity
  8
1
  100
AcDbLine
  10
54.3
  20
-1.381456
  30
0
  11
54.4
  21
-1.401009
  31
0
  0
LINE
  5
13c
  100
AcDbEntity
  8
1
  100
AcDbLine
  10
54.4
  20
-1.401009
  30
0
  11
54.5
  21
-1.418488
  31
0
  0
LINE
  5
13d
  100
AcDbEntity
  8
1
  100
AcDbLine
  10
54.5
  20
-1.418488
  30
0
  11
54.6
  21
-1.433865
  31
0
  0
LINE
  5
13e
  100
AcDbEntity
  8
1
  100
AcDbLine
  10
54.6
  20
-1.433865
  30
0
  11
54.7
  21
-1.447118
  31
0
  0
LINE
  5
13f
  100
AcDbEntity
  8
1
  100
AcDbLine
  10
54.7
  20
-1.447118
  30
0
  11
54.8
  21
-1.458227
  31
0
  0
LINE
  5
140
  100
AcDbEntity
  8
1
  100
AcDbLine
  10
54.8
  20
-1.458227
  30
0
  11
54.9
  21
-1.467177
  31
0
  0
LINE
  5
141
  100
AcDbEntity
  8
1
  100
AcDbLine
  10
54.9
  20
-1.467177
  30
0
  11
55
  21
-1.473953
  31
0
  0
LINE
  5
142
  100
AcDbEntity
  8
1
  100
AcDbLine
  10
55
  20
-1.426585
  30
0
  11
54.9
  21
-1.407691
  31
0
  0
LINE
  5
143
  100
AcDbEntity
  8
1
  100
AcDbLine
  10
54.9
  20
-1.407691
  30
0
  11
54.8
  21
-1.386713
  31
0
  0
LINE
  5
144
  100
AcDbEntity
  8
1
  100
AcDbLine
  10
54.8
  20
-1.386713
  30
0
  11
54.7
  21
-1.36368
  31
0
  0
LINE
  5
145
  100
AcDbEntity
  8
1
  100
AcDbLine
  10
54.7
  20
-1.36368
  30
0
  11
54.6
  21
-1.338628
  31
0
  0
LINE
  5
146
  100
AcDbEntity
  8
1
  100
AcDbLine
  10
54.6
  20
-1.338628
  30
0
  11
54.5
  21
-1.311592
  31
0
  0
LINE
  5
147
  100
AcDbEntity
  8
1
  100
AcDbLine
  10
54.5
  20
-1.311592
  30
0
  11
54.4
  21
-1.282614
  31
0
  0
LINE
  5
148
  100
AcDbEntity
  8
1
  100
AcDbLine
  10
54.4
  20
-1.282614
  30
0
  11
54.3
  21
-1.251735
  31
0
  0
LINE
  5
149
  100
AcDbEntity
  8
1
  100
AcDbLine
  10
54.3
  20
-1.251735
  30
0
  11
54.2
  21
-1.219003
  31
0
  0
LINE
  5
14a
  100
AcDbEntity
  8
1
  100
AcDbLine
  10
54.2
  20
-1.219003
  30
0
  11
54.1
  21
-1.184464
  31
0
  0
LINE
  5
14b
  100
AcDbEntity
  8
1
  100
AcDbLine
  10
54.1
  20
-1.184464
  30
0
  11
54
  21
-1.148172
  31
0
  0
LINE
  5
14c
  100
AcDbEntity
  8
1
  100
AcDbLine
  10
54
  20
-1.148172
  30
0
  11
53.9
  21
-1.110178
  31
0
  0
LINE
  5
14d
  100
AcDbEntity
  8
1
  100
AcDbLine
  10
53.9
  20
-1.110178
  30
0
  11
53.8
  21
-1.07054
  31
0
  0
LINE
  5
14e
  100
AcDbEntity
  8
1
  100
AcDbLine
  10
53.8
  20
-1.07054
  30
0
  11
53.7
  21
-1.029316
  31
0
  0
LINE
  5
14f
  100
AcDbEntity
  8
1
  100
AcDbLine
  10
53.7
  20
-1.029316
  30
0
  11
53.6
  21
-0.986567
  31
0
  0
LINE
  5
150
  100
AcDbEntity
  8
1
  100
AcDbLine
  10
53.6
  20
-0.986567
  30
0
  11
53.5
  21
-0.942357
  31
0
  0
LINE
  5
151
  100
AcDbEntity
  8
1
  100
AcDbLine
  10
53.5
  20
-0.942357
  30
0
  11
53.4
  21
-0.896752
  31
0
  0
LINE
  5
152
  100
AcDbEntity
  8
1
  100
AcDbLine
  10
53.4
  20
-0.896752
  30
0
  11
53.3
  21
-0.849817
  31
0
  0
LINE
  5
153
  100
AcDbEntity
  8
1
  100
AcDbLine
  10
53.3
  20
-0.849817
  30
0
  11
53.2
  21
-0.801624
  31
0
  0
LINE
  5
154
  100
AcDbEntity
  8
1
  100
AcDbLine
  10
53.2
  20
-0.801624
  30
0
  11
53.1
  21
-0.752244
  31
0
  0
LINE
  5
155
  100
AcDbEntity
  8
1
  100
AcDbLine
  10
53.1
  20
-0.752244
  30
0
  11
53
  21
-0.701749
  31
0
  0
LINE
  5
156
  100
AcDbEntity
  8
1
  100
AcDbLine
  10
53
  20
-0.701749
  30
0
  11
52.9
  21
-0.650214
  31
0
  0
LINE
  5
157
  100
AcDbEntity
  8
1
  100
AcDbLine
  10
52.9
  20
-0.650214
  30
0
  11
52.8
  21
-0.597717
  31
0
  0
LINE
  5
158
  100
AcDbEntity
  8
1
  100
AcDbLine
  10
52.8
  20
-0.597717
  30
0
  11
52.7
  21
-0.544334
  31
0
  0
LINE
  5
159
  100
AcDbEntity
  8
1
  100
AcDbLine
  10
52.7
  20
-0.544334
  30
0
  11
52.6
  21
-0.490145
  31
0
  0
LINE
  5
15a
  100
AcDbEntity
  8
1
  100
AcDbLine
  10
52.6
  20
-0.490145
  30
0
  11
52.5
  21
-0.435229
  31
0
  0
LINE
  5
15b
  100
AcDbEntity
  8
1
  100
AcDbLine
  10
52.5
  20
-0.435229
  30
0
  11
52.4
  21
-0.379669
  31
0
  0
LINE
  5
15c
  100
AcDbEntity
  8
1
  100
AcDbLine
  10
52.4
  20
-0.379669
  30
0
  11
52.3
  21
-0.323547
  31
0
  0
LINE
  5
15d
  100
AcDbEntity
  8
1
  100
AcDbLine
  10
52.3
  20
-0.323547
  30
0
  11
52.2
  21
-0.266945
  31
0
  0
LINE
  5
15e
  100
AcDbEntity
  8
1
  100
AcDbLine
  10
52.2
  20
-0.266945
  30
0
  11
52.1
  21
-0.209948
  31
0
  0
LINE
  5
15f
  100
AcDbEntity
  8
1
  100
AcDbLine
  10
52.1
  20
-0.209948
  30
0
  11
52
  21
-0.15264
  31
0
  0
LINE
  5
160
  100
AcDbEntity
  8
1
  100
AcDbLine
  10
52
  20
-0.15264
  30
0
  11
51.9
  21
-0.095106
  31
0
  0
LINE
  5
161
  100
AcDbEntity
  8
1
  100
AcDbLine
  10
51.9
  20
-0.095106
  30
0
  11
51.8
  21
-0.037431
  31
0
  0
LINE
  5
162
  100
AcDbEntity
  8
1
  100
AcDbLine
  10
51.8
  20
-0.037431
  30
0
  11
51.7
  21
0.0203
  31
0
  0
LINE
  5
163
  100
AcDbEntity
  8
1
  100
AcDbLine
  10
51.7
  20
0.0203
  30
0
  11
51.6
  21
0.078
  31
0
  0
LINE
  5
164
  100
AcDbEntity
  8
1
  100
AcDbLine
  10
51.6
  20
0.078
  30
0
  11
51.5
  21
0.135585
  31
0
  0
LINE
  5
165
  100
AcDbEntity
  8
1
  100
AcDbLine
  10
51.5
  20
0.135585
  30
0
  11
51.4
  21
0.192969
  31
0
  0
LINE
  5
166
  100
AcDbEntity
  8
1
  100
AcDbLine
  10
51.4
  20
0.192969
  30
0
  11
51.3
  21
0.250067
  31
0
  0
LINE
  5
167
  100
AcDbEntity
  8
1
  100
AcDbLine
  10
51.3
  20
0.250067
  30
0
  11
51.2
  21
0.306795
  31
0
  0
LINE
  5
168
  100
AcDbEntity
  8
1
  100
AcDbLine
  10
51.2
  20
0.306795
  30
0
  11
51.1
  21
0.363068
  31
0
  0
LINE
  5
169
  100
AcDbEntity
  8
1
  100
AcDbLine
  10
51.1
  20
0.363068
  30
0
  11
51
  21
0.418804
  31
0
  0
LINE
  5
16a
  100
AcDbEntity
  8
1
  100
AcDbLine
  10
51
  20
0.418804
  30
0
  11
50.9
  21
0.473919
  31
0
  0
LINE
  5
16b
  100
AcDbEntity
  8
1
  100
AcDbLine
  10
50.9
  20
0.473919
  30
0
  11
50.8
  21
0.528332
  31
0
  0
LINE
  5
16c
  100
AcDbEntity
  8
1
  100
AcDbLine
  10
50.8
  20
0.528332
  30
0
  11
50.7
  21
0.581963
  31
0
  0
LINE
  5
16d
  100
AcDbEntity
  8
1
  100
AcDbLine
  10
50.7
  20
0.581963
  30
0
  11
50.6
  21
0.634731
  31
0
  0
LINE
  5
16e
  100
AcDbEntity
  8
1
  100
AcDbLine
  10
50.6
  20
0.634731
  30
0
  11
50.5
  21
0.68656
  31
0
  0
LINE
  5
16f
  100
AcDbEntity
  8
1
  100
AcDbLine
  10
50.5
  20
0.68656
  30
0
  11
50.5
  21
0.655265
  31
0
  0
LINE
  5
170
  100
AcDbEntity
  8
1
  100
AcDbLine
  10
50.5
  20
0.655265
  30
0
  11
50.4
  21
0.703502
  31
0
  0
LINE
  5
171
  100
AcDbEntity
  8
1
  100
AcDbLine
  10
50.4
  20
0.703502
  30
0
  11
50.3
  21
0.752453
  31
0
  0
LINE
  5
172
  100
AcDbEntity
  8
1
  100
AcDbLine
  10
50.3
  20
0.752453
  30
0
  11
50.2
  21
0.816736
  31
0
  0
LINE
  5
173
  100
AcDbEntity
  8
1
  100
AcDbLine
  10
50.2
  20
0.816736
  30
0
  11
50.1
  21
0.947781
  31
0
  0
LINE
  5
174
  100
AcDbEntity
  8
1
  100
AcDbLine
  10
50.1
  20
0.947781
  30
0
  11
50
  21
1.226015
  31
0
  0
LINE
  5
175
  100
AcDbEntity
  8
1
  100
AcDbLine
  10
50
  20
1.226015
  30
0
  11
50
  21
1.425
  31
0
  0
LINE
  5
176
  100
AcDbEntity
  8
SK1
  100
AcDbLine
  10
33
  20
2.990632
  30
0
  11
32.965037
  21
3
  31
0
  0
LINE
  5
177
  100
AcDbEntity
  8
SK1
  100
AcDbLine
  10
32.965037
  20
3
  30
0
  11
33
  21
3
  31
0
  0
LINE
  5
178
  100
AcDbEntity
  8
SK1
  100
AcDbLine
  10
33
  20
3
  30
0
  11
0.7
  21
3
  31
0
  0
LINE
  5
179
  100
AcDbEntity
  8
SK1
  100
AcDbLine
  10
0.7
  20
3
  30
0
  11
0
  21
2.3
  31
0
  0
LINE
  5
17a
  100
AcDbEntity
  8
SK1
  100
AcDbLine
  10
33
  20
-2.990632
  30
0
  11
32.965037
  21
-3
  31
0
  0
LINE
  5
17b
  100
AcDbEntity
  8
SK1
  100
AcDbLine
  10
32.965037
  20
-3
  30
0
  11
33
  21
-3
  31
0
  0
LINE
  5
17c
  100
AcDbEntity
  8
SK1
  100
AcDbLine
  10
33
  20
-3
  30
0
  11
0.7
  21
-3
  31
0
  0
LINE
  5
17d
  100
AcDbEntity
  8
SK1
  100
AcDbLine
  10
0.7
  20
-3
  30
0
  11
0
  21
-2.3
  31
0
  0
LINE
  5
17e
  100
AcDbEntity
  8
SK1
  100
AcDbLine
  10
32.965037
  20
3
  30
0
  11
32.965037
  21
-3
  31
0
  0
LINE
  5
17f
  100
AcDbEntity
  8
SK1
  100
AcDbLine
  10
0.7
  20
3
  30
0
  11
0.7
  21
-3
  31
0
  0
LINE
  5
180
  100
AcDbEntity
  8
SK1
  100
AcDbLine
  10
0
  20
2.3
  30
0
  11
0
  21
-2.3
  31
0
  0
LINE
  5
181
  100
AcDbEntity
  8
SK1
  100
AcDbLine
  10
34.0401
  20
1.40688
  30
0
  11
34.4069
  21
1.0401
  31
0
  0
LINE
  5
182
  100
AcDbEntity
  8
SK1
  100
AcDbLine
  10
33.5328
  20
1.66666
  30
0
  11
34.6667
  21
0.532833
  31
0
  0
LINE
  5
183
  100
AcDbEntity
  8
SK1
  100
AcDbLine
  10
33.2154
  20
1.73657
  30
0
  11
34.7366
  21
0.215434
  31
0
  0
LINE
  5
184
  100
AcDbEntity
  8
SK1
  100
AcDbLine
  10
33
  20
1.70452
  30
0
  11
34.7045
  21
0
  31
0
  0
LINE
  5
185
  100
AcDbEntity
  8
SK1
  100
AcDbLine
  10
33
  20
1.45703
  30
0
  11
34.457
  21
0
  31
0
  0
LINE
  5
186
  100
AcDbEntity
  8
SK1
  100
AcDbLine
  10
33
  20
1.20954
  30
0
  11
34.2095
  21
0
  31
0
  0
LINE
  5
187
  100
AcDbEntity
  8
SK1
  100
AcDbLine
  10
33
  20
0.962054
  30
0
  11
33.9621
  21
0
  31
0
  0
LINE
  5
188
  100
AcDbEntity
  8
SK1
  100
AcDbLine
  10
33
  20
0.714566
  30
0
  11
33.7146
  21
0
  31
0
  0
LINE
  5
189
  100
AcDbEntity
  8
SK1
  100
AcDbLine
  10
33
  20
0.467079
  30
0
  11
33.4671
  21
0
  31
0
  0
LINE
  5
18a
  100
AcDbEntity
  8
SK1
  100
AcDbLine
  10
33
  20
0.219592
  30
0
  11
33.2196
  21
0
  31
0
  0
LINE
  5
18b
  100
AcDbEntity
  8
SK1
  100
AcDbLine
  10
33
  20
1.70452
  30
0
  11
33.0441
  21
1.74861
  31
0
  0
LINE
  5
18c
  100
AcDbEntity
  8
SK1
  100
AcDbLine
  10
33
  20
1.45703
  30
0
  11
33.271
  21
1.72802
  31
0
  0
LINE
  5
18d
  100
AcDbEntity
  8
SK1
  100
AcDbLine
  10
33
  20
1.20954
  30
0
  11
33.4742
  21
1.6837
  31
0
  0
LINE
  5
18e
  100
AcDbEntity
  8
SK1
  100
AcDbLine
  10
33
  20
0.962054
  30
0
  11
33.6588
  21
1.62082
  31
0
  0
LINE
  5
18f
  100
AcDbEntity
  8
SK1
  100
AcDbLine
  10
33
  20
0.714566
  30
0
  11
33.8271
  21
1.54167
  31
0
  0
LINE
  5
190
  100
AcDbEntity
  8
SK1
  100
AcDbLine
  10
33
  20
0.467079
  30
0
  11
33.981
  21
1.44812
  31
0
  0
LINE
  5
191
  100
AcDbEntity
  8
SK1
  100
AcDbLine
  10
33
  20
0.219592
  30
0
  11
34.1226
  21
1.34216
  31
0
  0
LINE
  5
192
  100
AcDbEntity
  8
SK1
  100
AcDbLine
  10
33.0279
  20
0
  30
0
  11
34.2508
  21
1.22288
  31
0
  0
LINE
  5
193
  100
AcDbEntity
  8
SK1
  100
AcDbLine
  10
33.2754
  20
0
  30
0
  11
34.367
  21
1.09157
  31
0
  0
LINE
  5
194
  100
AcDbEntity
  8
SK1
  100
AcDbLine
  10
33.5229
  20
0
  30
0
  11
34.4707
  21
0.947822
  31
0
  0
LINE
  5
195
  100
AcDbEntity
  8
SK1
  100
AcDbLine
  10
33.7704
  20
0
  30
0
  11
34.5605
  21
0.790145
  31
0
  0
LINE
  5
196
  100
AcDbEntity
  8
SK1
  100
AcDbLine
  10
34.0178
  20
0
  30
0
  11
34.6364
  21
0.618517
  31
0
  0
LINE
  5
197
  100
AcDbEntity
  8
SK1
  100
AcDbLine
  10
34.2653
  20
0
  30
0
  11
34.696
  21
0.430696
  31
0
  0
LINE
  5
198
  100
AcDbEntity
  8
SK1
  100
AcDbLine
  10
34.5128
  20
0
  30
0
  11
34.7356
  21
0.222827
  31
0
  0
LINE
  5
199
  100
AcDbEntity
  8
SK1
  100
AcDbLine
  10
33
  20
0
  30
0
  11
33
  21
1.75
  31
0
  0
LINE
  5
19a
  100
AcDbEntity
  8
SK1
  100
AcDbLine
  10
33
  20
0
  30
0
  11
34.75
  21
0
  31
0
  0
ARC
  5
19b
  100
AcDbEntity
  8
SK1
  100
AcDbCircle
  10
33
  20
0
  30
0
  40
1.75
  100
AcDbArc
  50
0
  51
90
  0
ARC
  5
19c
  100
AcDbEntity
  8
SK1
  100
AcDbCircle
  10
33
  20
0
  30
0
  40
1.75
  100
AcDbArc
  50
90
  51
180
  0
LINE
  5
19d
  100
AcDbEntity
  8
SK1
  100
AcDbLine
  10
32.9721
  20
0
  30
0
  11
33
  21
-0.027896
  31
0
  0
LINE
  5
19e
  100
AcDbEntity
  8
SK1
  100
AcDbLine
  10
32.7246
  20
0
  30
0
  11
33
  21
-0.275383
  31
0
  0
LINE
  5
19f
  100
AcDbEntity
  8
SK1
  100
AcDbLine
  10
32.4771
  20
0
  30
0
  11
33
  21
-0.522871
  31
0
  0
LINE
  5
1a0
  100
AcDbEntity
  8
SK1
  100
AcDbLine
  10
32.2296
  20
0
  30
0
  11
33
  21
-0.770358
  31
0
  0
LINE
  5
1a1
  100
AcDbEntity
  8
SK1
  100
AcDbLine
  10
31.9822
  20
0
  30
0
  11
33
  21
-1.01785
  31
0
  0
LINE
  5
1a2
  100
AcDbEntity
  8
SK1
  100
AcDbLine
  10
31.7347
  20
0
  30
0
  11
33
  21
-1.26533
  31
0
  0
LINE
  5
1a3
  100
AcDbEntity
  8
SK1
  100
AcDbLine
  10
31.4872
  20
0
  30
0
  11
33
  21
-1.51282
  31
0
  0
LINE
  5
1a4
  100
AcDbEntity
  8
SK1
  100
AcDbLine
  10
31.2503
  20
-0.010642
  30
0
  11
32.9894
  21
-1.74967
  31
0
  0
LINE
  5
1a5
  100
AcDbEntity
  8
SK1
  100
AcDbLine
  10
31.2736
  20
-0.281429
  30
0
  11
32.7186
  21
-1.72637
  31
0
  0
LINE
  5
1a6
  100
AcDbEntity
  8
SK1
  100
AcDbLine
  10
31.3639
  20
-0.619147
  30
0
  11
32.3809
  21
-1.63613
  31
0
  0
LINE
  5
1a7
  100
AcDbEntity
  8
SK1
  100
AcDbLine
  10
31.2514
  20
-0.044098
  30
0
  11
31.2955
  21
0
  31
0
  0
LINE
  5
1a8
  100
AcDbEntity
  8
SK1
  100
AcDbLine
  10
31.272
  20
-0.270991
  30
0
  11
31.543
  21
0
  31
0
  0
LINE
  5
1a9
  100
AcDbEntity
  8
SK1
  100
AcDbLine
  10
31.3163
  20
-0.474162
  30
0
  11
31.7905
  21
0
  31
0
  0
LINE
  5
1aa
  100
AcDbEntity
  8
SK1
  100
AcDbLine
  10
31.3792
  20
-0.658762
  30
0
  11
32.0379
  21
0
  31
0
  0
LINE
  5
1ab
  100
AcDbEntity
  8
SK1
  100
AcDbLine
  10
31.4583
  20
-0.827105
  30
0
  11
32.2854
  21
0
  31
0
  0
LINE
  5
1ac
  100
AcDbEntity
  8
SK1
  100
AcDbLine
  10
31.5519
  20
-0.981039
  30
0
  11
32.5329
  21
0
  31
0
  0
LINE
  5
1ad
  100
AcDbEntity
  8
SK1
  100
AcDbLine
  10
31.6578
  20
-1.12257
  30
0
  11
32.7804
  21
0
  31
0
  0
LINE
  5
1ae
  100
AcDbEntity
  8
SK1
  100
AcDbLine
  10
31.7771
  20
-1.25077
  30
0
  11
33
  21
-0.027896
  31
0
  0
LINE
  5
1af
  100
AcDbEntity
  8
SK1
  100
AcDbLine
  10
31.9084
  20
-1.36695
  30
0
  11
33
  21
-0.275383
  31
0
  0
LINE
  5
1b0
  100
AcDbEntity
  8
SK1
  100
AcDbLine
  10
32.0522
  20
-1.47069
  30
0
  11
33
  21
-0.522871
  31
0
  0
LINE
  5
1b1
  100
AcDbEntity
  8
SK1
  100
AcDbLine
  10
32.2099
  20
-1.5605
  30
0
  11
33
  21
-0.770358
  31
0
  0
LINE
  5
1b2
  100
AcDbEntity
  8
SK1
  100
AcDbLine
  10
32.3815
  20
-1.63636
  30
0
  11
33
  21
-1.01785
  31
0
  0
LINE
  5
1b3
  100
AcDbEntity
  8
SK1
  100
AcDbLine
  10
32.5693
  20
-1.69603
  30
0
  11
33
  21
-1.26533
  31
0
  0
LINE
  5
1b4
  100
AcDbEntity
  8
SK1
  100
AcDbLine
  10
32.7772
  20
-1.73565
  30
0
  11
33
  21
-1.51282
  31
0
  0
LINE
  5
1b5
  100
AcDbEntity
  8
SK1
  100
AcDbLine
  10
33
  20
0
  30
0
  11
31.25
  21
0
  31
0
  0
LINE
  5
1b6
  100
AcDbEntity
  8
SK1
  100
AcDbLine
  10
33
  20
-1.75
  30
0
  11
33
  21
0
  31
0
  0
ARC
  5
1b7
  100
AcDbEntity
  8
SK1
  100
AcDbCircle
  10
33
  20
0
  30
0
  40
1.75
  100
AcDbArc
  50
180
  51
270
  0
ARC
  5
1b8
  100
AcDbEntity
  8
SK1
  100
AcDbCircle
  10
33
  20
0
  30
0
  40
1.75
  100
AcDbArc
  50
270
  51
0
  0
LINE
  5
229
  100
AcDbEntity
  8
NOCUT
  100
AcDbLine
  10
50.5
  20
0
  30
0
  11
50.5
  21
1.425
  31
0
  0
LINE
  5
22a
  100
AcDbEntity
  8
NOCUT
  100
AcDbLine
  10
50.5
  20
1.425
  30
0
  11
39.43
  21
1.425
  31
0
  0
ARC
  5
22b
  100
AcDbEntity
  8
NOCUT
  100
AcDbCircle
  10
40.301557
  20
11.386947
  30
0
  40
10
  100
AcDbArc
  50
255
  51
265
  0
LINE
  5
22c
  100
AcDbEntity
  8
NOCUT
  100
AcDbLine
  10
37.713367
  20
1.727689
  30
0
  11
33
  21
2.990632
  31
0
  0
LINE
  5
22d
  100
AcDbEntity
  8
NOCUT
  100
AcDbLine
  10
33
  20
2.990632
  30
0
  11
33
  21
0
  31
0
  0
LINE
  5
22e
  100
AcDbEntity
  8
NOCUT
  100
AcDbLine
  10
33
  20
0
  30
0
  11
50.5
  21
0
  31
0
  0
LINE
  5
22f
  100
AcDbEntity
  8
CUT
  100
AcDbLine
  10
55
  20
0
  30
0
  11
55
  21
1.5
  31
0
  0
LINE
  5
230
  100
AcDbEntity
  8
CUT
  100
AcDbLine
  10
55
  20
1.5
  30
0
  11
50.5
  21
1.5
  31
0
  0
LINE
  5
231
  100
AcDbEntity
  8
CUT
  100
AcDbLine
  10
50.5
  20
1.5
  30
0
  11
50.5
  21
0
  31
0
  0
LINE
  5
232
  100
AcDbEntity
  8
CUT
  100
AcDbLine
  10
50.5
  20
0
  30
0
  11
55
  21
0
  31
0
  0
LINE
  5
233
  100
AcDbEntity
  8
4
  100
AcDbLine
  10
33
  20
0
  30
0
  11
55
  21
0
  31
0
  0
LINE
  5
234
  100
AcDbEntity
  8
SK4
  100
AcDbLine
  10
-1
  20
0
  30
0
  11
56
  21
0
  31
0
  0
LINE
  5
235
  100
AcDbEntity
  8
INFTOTAL
  100
AcDbLine
  10
-15.95
  20
17.95
  30
0
  11
70.95
  21
17.95
  31
0
  0
LINE
  5
236
  100
AcDbEntity
  8
INFTOTAL
  100
AcDbLine
  10
70.95
  20
17.95
  30
0
  11
70.95
  21
-15.336947
  31
0
  0
LINE
  5
237
  100
AcDbEntity
  8
INFTOTAL
  100
AcDbLine
  10
70.95
  20
-15.336947
  30
0
  11
-15.95
  21
-15.336947
  31
0
  0
LINE
  5
238
  100
AcDbEntity
  8
INFTOTAL
  100
AcDbLine
  10
-15.95
  20
-15.336947
  30
0
  11
-15.95
  21
17.95
  31
0
  0
ENDSEC
  0
SECTION
  2
OBJECTS
  0
DICTIONARY
  5
239
  330
0
100
AcDbDictionary
281
    1
  3
ACAD_GROUP
  350
23a
  0
DICTIONARY
  5
23a
102
{ACAD_REACTORS
  330
239
102
}
  330
239
100
AcDbDictionary
281
    1
  0
ENDSEC
  0
EOF
