  0
SECTION
  2
HEADER
  9
$ACADVER
  1
AC1015
  9
$DWGCODEPAGE
  3
ANSI_932
  9
$HANDSEED
  5
106AB90
  0
ENDSEC
  0
SECTION
  2
CLASSES
  0
CLASS
  1
IMAGEDEF
  2
AcDbRasterImageDef
  3
ISM
  90
0
  91
4
  280
0
  281
0
  0
CLASS
  1
IMAGE
  2
AcDbRasterImage
  3
ISM
  90
127
  91
5
  280
0
  281
1
  0
CLASS
  1
IMAGEDEF_REACTOR
  2
AcDbRasterImageDefReactor
  3
ISM
  90
1
  91
4
  280
0
  281
0
  0
ENDSEC
  0
SECTION
  2
TABLES
  0
TABLE
  2
VPORT
  5
2
  330
0
  100
AcDbSymbolTable
  70
    0
  0
ENDTAB
  0
TABLE
  2
LTYPE
  5
3
  330
0
  100
AcDbSymbolTable
  70
    4
  0
LTYPE
  5
4
  330
3
  100
AcDbSymbolTableRecord
  100
AcDbLinetypeTableRecord
  2
ByBlock
  70
    0
  3

  72
65
  73
    0
  40
0
  0
LTYPE
  5
5
  330
3
  100
AcDbSymbolTableRecord
  100
AcDbLinetypeTableRecord
  2
ByLayer
  70
    0
  3

  72
65
  73
    0
  40
0
  0
LTYPE
  5
6
  330
3
  100
AcDbSymbolTableRecord
  100
AcDbLinetypeTableRecord
  2
CONTINUOUS
  70
    0
  3
Solid Line
  72
65
  73
    0
  40
0
  0
LTYPE
  5
7
  330
3
  100
AcDbSymbolTableRecord
  100
AcDbLinetypeTableRecord
  2
DASH
  70
    0
  3
Hidden
  72
65
  73
2
  40
2.5
  49
1.5
  74
0
  49
-1
  74
0
  0
LTYPE
  5
8
  330
3
  100
AcDbSymbolTableRecord
  100
AcDbLinetypeTableRecord
  2
LONGDASHDASH
  70
    0
  3
__ . __
  72
65
  73
    4
  40
7
  49
4
  74
    0
  49
-1
  74
    0
  49
1
  74
    0
  49
-1
  74
    0
  0
ENDTAB
  0
TABLE
  2
LAYER
  5
9
  330
0
  100
AcDbSymbolTable
  70
    40
  0
LAYER
  5
a
  330
9
  100
AcDbSymbolTableRecord
  100
AcDbLayerTableRecord
  2
0
  70
    0
  62
    0
  6
CONTINUOUS
  390
0
  0
LAYER
  5
c
  330
9
  100
AcDbSymbolTableRecord
  100
AcDbLayerTableRecord
  2
1
  70
    0
  62
    4
  6
CONTINUOUS
  370
50
  390
0
  0
LAYER
  5
d
  330
9
  100
AcDbSymbolTableRecord
  100
AcDbLayerTableRecord
  2
2
  70
    0
  62
    7
  6
CONTINUOUS
  370
25
  390
0
  0
LAYER
  5
f
  330
9
  100
AcDbSymbolTableRecord
  100
AcDbLayerTableRecord
  2
4
  70
    0
  62
    2
  6
LONGDASHDASH
  370
25
  390
0
  0
LAYER
  5
13
  330
9
  100
AcDbSymbolTableRecord
  100
AcDbLayerTableRecord
  2
SK1
  70
    0
  62
    4
  6
CONTINUOUS
  370
50
  390
0
  0
LAYER
  5
14
  330
9
  100
AcDbSymbolTableRecord
  100
AcDbLayerTableRecord
  2
SK2
  70
    0
  62
    7
  6
CONTINUOUS
  370
25
  390
0
  0
LAYER
  5
16
  330
9
  100
AcDbSymbolTableRecord
  100
AcDbLayerTableRecord
  2
SK4
  70
    0
  62
    2
  6
LONGDASHDASH
  370
25
  390
0
  0
LAYER
  5
21
  330
9
  100
AcDbSymbolTableRecord
  100
AcDbLayerTableRecord
  2
NOCUT
  70
    0
  62
    7
  6
CONTINUOUS
  370
25
  390
0
  0
LAYER
  5
22
  330
9
  100
AcDbSymbolTableRecord
  100
AcDbLayerTableRecord
  2
CUT
  70
    0
  62
    1
  6
CONTINUOUS
  370
25
  390
0
  0
LAYER
  5
26
  330
9
  100
AcDbSymbolTableRecord
  100
AcDbLayerTableRecord
  2
INFTOTAL
  70
    0
  62
    9
  6
CONTINUOUS
  370
18
  390
0
  0
ENDTAB
  0
TABLE
  2
STYLE
  5
27
  330
0
  100
AcDbSymbolTable
  70
    1
  0
STYLE
  5
28
  330
27
  100
AcDbSymbolTableRecord
  100
AcDbTextStyleTableRecord
  2
Monospac821 BT
  70
    0
  40
    3.5
  41
1
  50
0
  71
0
  42
3
  3

  4

  1001
ACAD
  1000
Monospac821 BT
  1071
256
  0
ENDTAB
  0
TABLE
  2
VIEW
  5
29
  330
0
  100
AcDbSymbolTable
  70
    0
  0
ENDTAB
  0
TABLE
  2
UCS
  5
2a
  330
0
  100
AcDbSymbolTable
  70
    0
  0
ENDTAB
  0
TABLE
  2
APPID
  5
2b
  330
0
  100
AcDbSymbolTable
  70
    1
  0
APPID
  5
2c
  330
2b
  100
AcDbSymbolTableRecord
  100
AcDbRegAppTableRecord
  2
ACAD
  70
    0
  0
ENDTAB
  0
TABLE
  2
DIMSTYLE
  5
2d
  330
0
  100
AcDbSymbolTable
  70
    1
  100
AcDbDimStyleTable
  0
DIMSTYLE
  105
2e
  330
2d
  100
AcDbSymbolTableRecord
  100
AcDbDimStyleTableRecord
  2
STANDARD
  70
    0
  41
    3
  42
0.5
  44
1
  73
0
  77
1
  78
1
  140
3.5
  141
2.5
  143
0.03937
  147
0.8
  172
1
  174
1
  178
0
  179
1
  271
2
  279
1
  284
1
  340
28
  0
ENDTAB
  0
TABLE
  2
BLOCK_RECORD
  5
2f
  330
0
  100
AcDbSymbolTable
  70
    2
  0
BLOCK_RECORD
  5
30
  330
2f
  100
AcDbSymbolTableRecord
  100
AcDbBlockTableRecord
  2
*Model_Space
  0
BLOCK_RECORD
  5
31
  330
2f
  100
AcDbSymbolTableRecord
  100
AcDbBlockTableRecord
  2
*Paper_Space
  0
BLOCK_RECORD
  5
9d
  330
2f
  100
AcDbSymbolTableRecord
  100
AcDbBlockTableRecord
  2
*D9c
  340
0
  0
BLOCK_RECORD
  5
ab
  330
2f
  100
AcDbSymbolTableRecord
  100
AcDbBlockTableRecord
  2
*Daa
  340
0
  0
BLOCK_RECORD
  5
b9
  330
2f
  100
AcDbSymbolTableRecord
  100
AcDbBlockTableRecord
  2
*Db8
  340
0
  0
BLOCK_RECORD
  5
c7
  330
2f
  100
AcDbSymbolTableRecord
  100
AcDbBlockTableRecord
  2
*Dc6
  340
0
  0
BLOCK_RECORD
  5
d5
  330
2f
  100
AcDbSymbolTableRecord
  100
AcDbBlockTableRecord
  2
*Dd4
  340
0
  0
BLOCK_RECORD
  5
df
  330
2f
  100
AcDbSymbolTableRecord
  100
AcDbBlockTableRecord
  2
*Dde
  340
0
  0
BLOCK_RECORD
  5
ed
  330
2f
  100
AcDbSymbolTableRecord
  100
AcDbBlockTableRecord
  2
*Dec
  340
0
  0
BLOCK_RECORD
  5
fb
  330
2f
  100
AcDbSymbolTableRecord
  100
AcDbBlockTableRecord
  2
*Dfa
  340
0
  0
BLOCK_RECORD
  5
109
  330
2f
  100
AcDbSymbolTableRecord
  100
AcDbBlockTableRecord
  2
*D108
  340
0
  0
ENDTAB
  0
ENDSEC
  0
SECTION
  2
BLOCKS
  0
BLOCK
  5
32
  330
30
  100
AcDbEntity
  8
0
  100
AcDbBlockBegin
  2
*Model_Space
  70
    0
  10
0
  20
0
  30
0
  3
*Model_Space
  1

  0
ENDBLK
  5
33
  330
30
  100
AcDbEntity
  8
0
  100
AcDbBlockEnd
  0
BLOCK
  5
34
  330
31
  100
AcDbEntity
  8
0
  100
AcDbBlockBegin
  2
*Paper_Space
  70
    0
  10
0
  20
0
  30
0
  3
*Paper_Space
  1

  0
ENDBLK
  5
35
  330
31
  100
AcDbEntity
  8
0
  100
AcDbBlockEnd
  0
BLOCK
  5
9b
  330
9d
  100
AcDbEntity
  8
SK2
  100
AcDbBlockBegin
  2
*D9c
  70
1
  10
0
  20
0
  30
0
  3
*D9c
  1

  0
LINE
  5
9e
  330
9d
  100
AcDbEntity
  8
SK2
  100
AcDbLine
  10
0
  20
0.8875
  30
0
  11
0
  21
18.5875
  31
0
  0
LINE
  5
9f
  330
9d
  100
AcDbEntity
  8
SK2
  100
AcDbLine
  10
63.5
  20
-13.5875
  30
0
  11
63.5
  21
18.5875
  31
0
  0
LINE
  5
a0
  330
9d
  100
AcDbEntity
  8
SK2
  100
AcDbLine
  10
0
  20
16.5875
  30
0
  11
63.5
  21
16.5875
  31
0
  0
SOLID
  5
a1
  330
9d
  100
AcDbEntity
  8
SK2
  100
AcDbTrace
  10
0
  20
16.5875
  30
0
  11
2.478612
  21
16.913815
  31
0
  12
2.478612
  22
16.261185
  32
0
  13
2.478612
  23
16.261185
  33
0
  0
SOLID
  5
a2
  330
9d
  100
AcDbEntity
  8
SK2
  100
AcDbTrace
  10
63.5
  20
16.5875
  30
0
  11
61.021388
  21
16.261185
  31
0
  12
61.021388
  22
16.913815
  32
0
  13
61.021388
  23
16.913815
  33
0
  0
MTEXT
  5
a3
  330
9d
  100
AcDbEntity
  8
SK2
  100
AcDbMText
  10
31.75
  20
16.5875
  30
0
  11
1
  21
0
  31
0
  40
2
  41
0
  71
8
  72
1
  1
63.5
  0
POINT
  5
a4
  330
9d
  100
AcDbEntity
  8
SK2
  62
0
  100
AcDbPoint
  10
0
  20
0.8875
  30
0
  0
POINT
  5
a5
  330
9d
  100
AcDbEntity
  8
SK2
  62
0
  100
AcDbPoint
  10
63.5
  20
-13.5875
  30
0
  0
POINT
  5
a6
  330
9d
  100
AcDbEntity
  8
SK2
  62
0
  100
AcDbPoint
  10
63.5
  20
16.5875
  30
0
  0
ENDBLK
  5
a7
  330
9d
  100
AcDbEntity
  8
SK2
  100
AcDbBlockEnd
  0
BLOCK
  5
a9
  330
ab
  100
AcDbEntity
  8
SK2
  100
AcDbBlockBegin
  2
*Daa
  70
1
  10
0
  20
0
  30
0
  3
*Daa
  1

  0
LINE
  5
ac
  330
ab
  100
AcDbEntity
  8
SK2
  100
AcDbLine
  10
63.3015
  20
-0.1985
  30
0
  11
75.5
  21
-0.1985
  31
0
  0
LINE
  5
ad
  330
ab
  100
AcDbEntity
  8
SK2
  100
AcDbLine
  10
63.3015
  20
0.1985
  30
0
  11
75.5
  21
0.1985
  31
0
  0
LINE
  5
ae
  330
ab
  100
AcDbEntity
  8
SK2
  100
AcDbLine
  10
73.5
  20
-10.39604
  30
0
  11
73.5
  21
0.1985
  31
0
  0
SOLID
  5
af
  330
ab
  100
AcDbEntity
  8
SK2
  100
AcDbTrace
  10
73.5
  20
-0.1985
  30
0
  11
73.173685
  21
2.280112
  31
0
  12
73.826315
  22
2.280112
  32
0
  13
73.826315
  23
2.280112
  33
0
  0
SOLID
  5
b0
  330
ab
  100
AcDbEntity
  8
SK2
  100
AcDbTrace
  10
73.5
  20
0.1985
  30
0
  11
73.826315
  21
-2.280112
  31
0
  12
73.173685
  22
-2.280112
  32
0
  13
73.173685
  23
-2.280112
  33
0
  0
MTEXT
  5
b1
  330
ab
  100
AcDbEntity
  8
SK2
  100
AcDbMText
  10
73.5
  20
0
  30
0
  11
0
  21
1
  31
0
  40
2
  41
0
  71
8
  72
1
  1
ﾘ0.397
  0
POINT
  5
b2
  330
ab
  100
AcDbEntity
  8
SK2
  62
0
  100
AcDbPoint
  10
63.3015
  20
-0.1985
  30
0
  0
POINT
  5
b3
  330
ab
  100
AcDbEntity
  8
SK2
  62
0
  100
AcDbPoint
  10
63.3015
  20
0.1985
  30
0
  0
POINT
  5
b4
  330
ab
  100
AcDbEntity
  8
SK2
  62
0
  100
AcDbPoint
  10
73.5
  20
0.1985
  30
0
  0
ENDBLK
  5
b5
  330
ab
  100
AcDbEntity
  8
SK2
  100
AcDbBlockEnd
  0
BLOCK
  5
b7
  330
b9
  100
AcDbEntity
  8
SK2
  100
AcDbBlockBegin
  2
*Db8
  70
1
  10
0
  20
0
  30
0
  3
*Db8
  1

  0
LINE
  5
ba
  330
b9
  100
AcDbEntity
  8
SK2
  100
AcDbLine
  10
55.3
  20
1.5875
  30
0
  11
55.3
  21
13.5875
  31
0
  0
LINE
  5
bb
  330
b9
  100
AcDbEntity
  8
SK2
  100
AcDbLine
  10
0
  20
0.8875
  30
0
  11
0
  21
18.5875
  31
0
  0
LINE
  5
bc
  330
b9
  100
AcDbEntity
  8
SK2
  100
AcDbLine
  10
55.3
  20
11.5875
  30
0
  11
0
  21
11.5875
  31
0
  0
SOLID
  5
bd
  330
b9
  100
AcDbEntity
  8
SK2
  100
AcDbTrace
  10
55.3
  20
11.5875
  30
0
  11
57.778612
  21
11.913815
  31
0
  12
57.778612
  22
11.261185
  32
0
  13
57.778612
  23
11.261185
  33
0
  0
SOLID
  5
be
  330
b9
  100
AcDbEntity
  8
SK2
  100
AcDbTrace
  10
0
  20
11.5875
  30
0
  11
-2.478612
  21
11.261185
  31
0
  12
-2.478612
  22
11.913815
  32
0
  13
-2.478612
  23
11.913815
  33
0
  0
MTEXT
  5
bf
  330
b9
  100
AcDbEntity
  8
SK2
  100
AcDbMText
  10
27.65
  20
11.5875
  30
0
  11
1
  21
-0
  31
0
  40
2
  41
0
  71
8
  72
1
  1
55.3
  0
POINT
  5
c0
  330
b9
  100
AcDbEntity
  8
SK2
  62
0
  100
AcDbPoint
  10
55.3
  20
1.5875
  30
0
  0
POINT
  5
c1
  330
b9
  100
AcDbEntity
  8
SK2
  62
0
  100
AcDbPoint
  10
0
  20
0.8875
  30
0
  0
POINT
  5
c2
  330
b9
  100
AcDbEntity
  8
SK2
  62
0
  100
AcDbPoint
  10
0
  20
11.5875
  30
0
  0
ENDBLK
  5
c3
  330
b9
  100
AcDbEntity
  8
SK2
  100
AcDbBlockEnd
  0
BLOCK
  5
c5
  330
c7
  100
AcDbEntity
  8
SK2
  100
AcDbBlockBegin
  2
*Dc6
  70
1
  10
0
  20
0
  30
0
  3
*Dc6
  1

  0
LINE
  5
c8
  330
c7
  100
AcDbEntity
  8
SK2
  100
AcDbLine
  10
0.7
  20
-1.5875
  30
0
  11
-12
  21
-1.5875
  31
0
  0
LINE
  5
c9
  330
c7
  100
AcDbEntity
  8
SK2
  100
AcDbLine
  10
0.7
  20
1.5875
  30
0
  11
-12
  21
1.5875
  31
0
  0
LINE
  5
ca
  330
c7
  100
AcDbEntity
  8
SK2
  100
AcDbLine
  10
-10
  20
-10.39604
  30
0
  11
-10
  21
1.5875
  31
0
  0
SOLID
  5
cb
  330
c7
  100
AcDbEntity
  8
SK2
  100
AcDbTrace
  10
-10
  20
-1.5875
  30
0
  11
-10.326315
  21
0.891112
  31
0
  12
-9.673685
  22
0.891112
  32
0
  13
-9.673685
  23
0.891112
  33
0
  0
SOLID
  5
cc
  330
c7
  100
AcDbEntity
  8
SK2
  100
AcDbTrace
  10
-10
  20
1.5875
  30
0
  11
-9.673685
  21
-0.891112
  31
0
  12
-10.326315
  22
-0.891112
  32
0
  13
-10.326315
  23
-0.891112
  33
0
  0
MTEXT
  5
cd
  330
c7
  100
AcDbEntity
  8
SK2
  100
AcDbMText
  10
-10
  20
0
  30
0
  11
0
  21
1
  31
0
  40
2
  41
0
  71
8
  72
1
  1
ﾘ3.175
  0
POINT
  5
ce
  330
c7
  100
AcDbEntity
  8
SK2
  62
0
  100
AcDbPoint
  10
0.7
  20
-1.5875
  30
0
  0
POINT
  5
cf
  330
c7
  100
AcDbEntity
  8
SK2
  62
0
  100
AcDbPoint
  10
0.7
  20
1.5875
  30
0
  0
POINT
  5
d0
  330
c7
  100
AcDbEntity
  8
SK2
  62
0
  100
AcDbPoint
  10
-10
  20
1.5875
  30
0
  0
ENDBLK
  5
d1
  330
c7
  100
AcDbEntity
  8
SK2
  100
AcDbBlockEnd
  0
BLOCK
  5
d3
  330
d5
  100
AcDbEntity
  8
2
  100
AcDbBlockBegin
  2
*Dd4
  70
1
  10
0
  20
0
  30
0
  3
*Dd4
  1

  0
LINE
  5
d6
  330
d5
  100
AcDbEntity
  8
2
  100
AcDbLine
  10
59.525131
  20
-3.776369
  30
0
  11
70.512929
  21
7.211429
  31
0
  0
MTEXT
  5
d7
  330
d5
  100
AcDbEntity
  8
2
  100
AcDbMText
  10
63.441861
  20
0.140361
  30
0
  11
0.707107
  21
0.707107
  31
0
  40
2
  41
0
  71
8
  72
1
  1
R0.199
  0
SOLID
  5
d8
  330
d5
  100
AcDbEntity
  8
2
  100
AcDbTrace
  10
63.441861
  20
0.140361
  30
0
  11
64.963764
  21
2.123744
  31
0
  12
65.425244
  22
1.662264
  32
0
  13
65.425244
  23
1.662264
  33
0
  0
POINT
  5
d9
  330
d5
  100
AcDbEntity
  8
2
  62
0
  100
AcDbPoint
  10
59.525131
  20
-3.776369
  30
0
  0
POINT
  5
da
  330
d5
  100
AcDbEntity
  8
2
  62
0
  100
AcDbPoint
  10
63.3015
  20
0
  30
0
  0
ENDBLK
  5
db
  330
d5
  100
AcDbEntity
  8
2
  100
AcDbBlockEnd
  0
BLOCK
  5
dd
  330
df
  100
AcDbEntity
  8
2
  100
AcDbBlockBegin
  2
*Dde
  70
1
  10
0
  20
0
  30
0
  3
*Dde
  1

  0
LINE
  5
e0
  330
df
  100
AcDbEntity
  8
2
  100
AcDbLine
  10
63.1
  20
-0.17
  30
0
  11
61.1
  21
-0.17
  31
0
  0
LINE
  5
e1
  330
df
  100
AcDbEntity
  8
2
  100
AcDbLine
  10
63.1
  20
0.17
  30
0
  11
61.1
  21
0.17
  31
0
  0
LINE
  5
e2
  330
df
  100
AcDbEntity
  8
2
  100
AcDbLine
  10
63.1
  20
-0.17
  30
0
  11
63.1
  21
8.576733
  31
0
  0
SOLID
  5
e3
  330
df
  100
AcDbEntity
  8
2
  100
AcDbTrace
  10
63.1
  20
-0.17
  30
0
  11
62.773685
  21
2.308612
  31
0
  12
63.426315
  22
2.308612
  32
0
  13
63.426315
  23
2.308612
  33
0
  0
SOLID
  5
e4
  330
df
  100
AcDbEntity
  8
2
  100
AcDbTrace
  10
63.1
  20
0.17
  30
0
  11
63.426315
  21
-2.308612
  31
0
  12
62.773685
  22
-2.308612
  32
0
  13
62.773685
  23
-2.308612
  33
0
  0
MTEXT
  5
e5
  330
df
  100
AcDbEntity
  8
2
  100
AcDbMText
  10
63.1
  20
0.17
  30
0
  11
0
  21
1
  31
0
  40
2
  41
0
  71
8
  72
1
  1
ﾘ0.34
  0
POINT
  5
e6
  330
df
  100
AcDbEntity
  8
2
  62
0
  100
AcDbPoint
  10
61.1
  20
-0.17
  30
0
  0
POINT
  5
e7
  330
df
  100
AcDbEntity
  8
2
  62
0
  100
AcDbPoint
  10
61.1
  20
0.17
  30
0
  0
POINT
  5
e8
  330
df
  100
AcDbEntity
  8
2
  62
0
  100
AcDbPoint
  10
63.1
  20
8.576733
  30
0
  0
ENDBLK
  5
e9
  330
df
  100
AcDbEntity
  8
2
  100
AcDbBlockEnd
  0
BLOCK
  5
eb
  330
ed
  100
AcDbEntity
  8
2
  100
AcDbBlockBegin
  2
*Dec
  70
1
  10
0
  20
0
  30
0
  3
*Dec
  1

  0
LINE
  5
ee
  330
ed
  100
AcDbEntity
  8
2
  100
AcDbLine
  10
63.1
  20
0.17
  30
0
  11
63.1
  21
9
  31
0
  0
LINE
  5
ef
  330
ed
  100
AcDbEntity
  8
2
  100
AcDbLine
  10
60.9
  20
0.17
  30
0
  11
60.9
  21
9
  31
0
  0
LINE
  5
f0
  330
ed
  100
AcDbEntity
  8
2
  100
AcDbLine
  10
63.1
  20
7
  30
0
  11
57.308168
  21
7
  31
0
  0
SOLID
  5
f1
  330
ed
  100
AcDbEntity
  8
2
  100
AcDbTrace
  10
63.1
  20
7
  30
0
  11
65.578612
  21
7.326315
  31
0
  12
65.578612
  22
6.673685
  32
0
  13
65.578612
  23
6.673685
  33
0
  0
SOLID
  5
f2
  330
ed
  100
AcDbEntity
  8
2
  100
AcDbTrace
  10
60.9
  20
7
  30
0
  11
58.421388
  21
6.673685
  31
0
  12
58.421388
  22
7.326315
  32
0
  13
58.421388
  23
7.326315
  33
0
  0
MTEXT
  5
f3
  330
ed
  100
AcDbEntity
  8
2
  100
AcDbMText
  10
61.884884
  20
7
  30
0
  11
1
  21
-0
  31
0
  40
2
  41
0
  71
8
  72
1
  1
2.2
  0
POINT
  5
f4
  330
ed
  100
AcDbEntity
  8
2
  62
0
  100
AcDbPoint
  10
63.1
  20
0.17
  30
0
  0
POINT
  5
f5
  330
ed
  100
AcDbEntity
  8
2
  62
0
  100
AcDbPoint
  10
60.9
  20
0.17
  30
0
  0
POINT
  5
f6
  330
ed
  100
AcDbEntity
  8
2
  62
0
  100
AcDbPoint
  10
57.308168
  20
7
  30
0
  0
ENDBLK
  5
f7
  330
ed
  100
AcDbEntity
  8
2
  100
AcDbBlockEnd
  0
BLOCK
  5
f9
  330
fb
  100
AcDbEntity
  8
2
  100
AcDbBlockBegin
  2
*Dfa
  70
1
  10
0
  20
0
  30
0
  3
*Dfa
  1

  0
LINE
  5
fc
  330
fb
  100
AcDbEntity
  8
2
  100
AcDbLine
  10
63.5
  20
-13.5875
  30
0
  11
63.5
  21
18.5875
  31
0
  0
LINE
  5
fd
  330
fb
  100
AcDbEntity
  8
2
  100
AcDbLine
  10
55.3
  20
1.5875
  30
0
  11
55.3
  21
8.5875
  31
0
  0
LINE
  5
fe
  330
fb
  100
AcDbEntity
  8
2
  100
AcDbLine
  10
63.5
  20
6.5875
  30
0
  11
55.3
  21
6.5875
  31
0
  0
SOLID
  5
ff
  330
fb
  100
AcDbEntity
  8
2
  100
AcDbTrace
  10
63.5
  20
6.5875
  30
0
  11
65.978612
  21
6.913815
  31
0
  12
65.978612
  22
6.261185
  32
0
  13
65.978612
  23
6.261185
  33
0
  0
SOLID
  5
100
  330
fb
  100
AcDbEntity
  8
2
  100
AcDbTrace
  10
55.3
  20
6.5875
  30
0
  11
52.821388
  21
6.261185
  31
0
  12
52.821388
  22
6.913815
  32
0
  13
52.821388
  23
6.913815
  33
0
  0
MTEXT
  5
101
  330
fb
  100
AcDbEntity
  8
2
  100
AcDbMText
  10
59.4
  20
6.5875
  30
0
  11
1
  21
-0
  31
0
  40
2
  41
0
  71
8
  72
1
  1
8.2
  0
POINT
  5
102
  330
fb
  100
AcDbEntity
  8
2
  62
0
  100
AcDbPoint
  10
63.5
  20
-13.5875
  30
0
  0
POINT
  5
103
  330
fb
  100
AcDbEntity
  8
2
  62
0
  100
AcDbPoint
  10
55.3
  20
1.5875
  30
0
  0
POINT
  5
104
  330
fb
  100
AcDbEntity
  8
2
  62
0
  100
AcDbPoint
  10
55.3
  20
6.5875
  30
0
  0
ENDBLK
  5
105
  330
fb
  100
AcDbEntity
  8
2
  100
AcDbBlockEnd
  0
BLOCK
  5
107
  330
109
  100
AcDbEntity
  8
2
  100
AcDbBlockBegin
  2
*D108
  70
1
  10
0
  20
0
  30
0
  3
*D108
  1

  0
LINE
  5
10a
  330
109
  100
AcDbEntity
  8
2
  100
AcDbLine
  10
63.1
  20
-0.17
  30
0
  11
63.1
  21
-13.5875
  31
0
  0
LINE
  5
10b
  330
109
  100
AcDbEntity
  8
2
  100
AcDbLine
  10
63.5
  20
-13.5875
  30
0
  11
63.5
  21
18.5875
  31
0
  0
LINE
  5
10c
  330
109
  100
AcDbEntity
  8
2
  100
AcDbLine
  10
58.867574
  20
-11.5875
  30
0
  11
63.5
  21
-11.5875
  31
0
  0
SOLID
  5
10d
  330
109
  100
AcDbEntity
  8
2
  100
AcDbTrace
  10
63.1
  20
-11.5875
  30
0
  11
65.578612
  21
-11.261185
  31
0
  12
65.578612
  22
-11.913815
  32
0
  13
65.578612
  23
-11.913815
  33
0
  0
SOLID
  5
10e
  330
109
  100
AcDbEntity
  8
2
  100
AcDbTrace
  10
63.5
  20
-11.5875
  30
0
  11
61.021388
  21
-11.913815
  31
0
  12
61.021388
  22
-11.261185
  32
0
  13
61.021388
  23
-11.261185
  33
0
  0
MTEXT
  5
10f
  330
109
  100
AcDbEntity
  8
2
  100
AcDbMText
  10
63.3
  20
-11.5875
  30
0
  11
1
  21
0
  31
0
  40
2
  41
0
  71
8
  72
1
  1
0.4
  0
POINT
  5
110
  330
109
  100
AcDbEntity
  8
2
  62
0
  100
AcDbPoint
  10
63.1
  20
-0.17
  30
0
  0
POINT
  5
111
  330
109
  100
AcDbEntity
  8
2
  62
0
  100
AcDbPoint
  10
63.5
  20
18.5875
  30
0
  0
POINT
  5
112
  330
109
  100
AcDbEntity
  8
2
  62
0
  100
AcDbPoint
  10
63.5
  20
-11.5875
  30
0
  0
ENDBLK
  5
113
  330
109
  100
AcDbEntity
  8
2
  100
AcDbBlockEnd
  0
ENDSEC
  0
SECTION
  2
ENTITIES
  0
DIMENSION
  5
a8
  100
AcDbEntity
  8
SK2
  100
AcDbDimension
  2
*D9c
  10
63.5
  20
16.5875
  30
0
  11
31.75
  21
16.5875
  31
0
  70
160
  1
<>
  71
5
  3
STANDARD
  42
63.5
  100
AcDbAlignedDimension
  13
0
  23
0.8875
  33
0
  14
63.5
  24
-13.5875
  34
0
  50
0
  100
AcDbRotatedDimension
  0
DIMENSION
  5
b6
  100
AcDbEntity
  8
SK2
  100
AcDbDimension
  2
*Daa
  10
73.5
  20
0.1985
  30
0
  11
73.5
  21
0
  31
0
  70
160
  1
%%c<>
  71
5
  3
STANDARD
  42
0.397
  100
AcDbAlignedDimension
  13
63.3015
  23
-0.1985
  33
0
  14
63.3015
  24
0.1985
  34
0
  50
-90
  100
AcDbRotatedDimension
  0
DIMENSION
  5
c4
  100
AcDbEntity
  8
SK2
  100
AcDbDimension
  2
*Db8
  10
0
  20
11.5875
  30
0
  11
27.65
  21
11.5875
  31
0
  70
160
  1
<>
  71
5
  3
STANDARD
  42
55.3
  100
AcDbAlignedDimension
  13
55.3
  23
1.5875
  33
0
  14
0
  24
0.8875
  34
0
  50
0
  100
AcDbRotatedDimension
  0
DIMENSION
  5
d2
  100
AcDbEntity
  8
SK2
  100
AcDbDimension
  2
*Dc6
  10
-10
  20
1.5875
  30
0
  11
-10
  21
0
  31
0
  70
160
  1
%%c<>
  71
5
  3
STANDARD
  42
3.175
  100
AcDbAlignedDimension
  13
0.7
  23
-1.5875
  33
0
  14
0.7
  24
1.5875
  34
0
  50
-90
  100
AcDbRotatedDimension
  0
DIMENSION
  5
dc
  100
AcDbEntity
  8
2
  100
AcDbDimension
  2
*Dd4
  10
63.3015
  20
0
  30
0
  11
63.441861
  21
0.140361
  31
0
  70
164
  1
R0.199
  71
5
  3
STANDARD
  100
AcDbRadialDimension
  15
63.441861
  25
0.140361
  35
0
  50
45
  0
DIMENSION
  5
ea
  100
AcDbEntity
  8
2
  100
AcDbDimension
  2
*Dde
  10
63.1
  20
8.576733
  30
0
  11
63.1
  21
0.17
  31
0
  70
160
  1
%%c<>
  71
5
  3
STANDARD
  42
0.34
  100
AcDbAlignedDimension
  13
61.1
  23
-0.17
  33
0
  14
61.1
  24
0.17
  34
0
  50
-90
  100
AcDbRotatedDimension
  0
DIMENSION
  5
f8
  100
AcDbEntity
  8
2
  100
AcDbDimension
  2
*Dec
  10
57.308168
  20
7
  30
0
  11
61.884884
  21
7
  31
0
  70
160
  1
<>
  71
5
  3
STANDARD
  42
2.2
  100
AcDbAlignedDimension
  13
63.1
  23
0.17
  33
0
  14
60.9
  24
0.17
  34
0
  50
0
  100
AcDbRotatedDimension
  0
DIMENSION
  5
106
  100
AcDbEntity
  8
2
  100
AcDbDimension
  2
*Dfa
  10
55.3
  20
6.5875
  30
0
  11
59.4
  21
6.5875
  31
0
  70
160
  1
<>
  71
5
  3
STANDARD
  42
8.2
  100
AcDbAlignedDimension
  13
63.5
  23
-13.5875
  33
0
  14
55.3
  24
1.5875
  34
0
  50
0
  100
AcDbRotatedDimension
  0
DIMENSION
  5
114
  100
AcDbEntity
  8
2
  100
AcDbDimension
  2
*D108
  10
63.5
  20
-11.5875
  30
0
  11
63.3
  21
-11.5875
  31
0
  70
160
  1
<>
  71
5
  3
STANDARD
  42
0.4
  100
AcDbAlignedDimension
  13
63.1
  23
-0.17
  33
0
  14
63.5
  24
18.5875
  34
0
  50
0
  100
AcDbRotatedDimension
  0
ARC
  5
36
  100
AcDbEntity
  8
1
  100
AcDbCircle
  10
60.987156
  20
-1.166195
  30
0
  40
1
  100
AcDbArc
  50
95
  51
105
  0
LINE
  5
37
  100
AcDbEntity
  8
1
  100
AcDbLine
  10
60.9
  20
-0.17
  30
0
  11
63.1
  21
-0.17
  31
0
  0
LINE
  5
38
  100
AcDbEntity
  8
1
  100
AcDbLine
  10
63.1
  20
-0.17
  30
0
  11
63.1
  21
-0.1985
  31
0
  0
LINE
  5
39
  100
AcDbEntity
  8
1
  100
AcDbLine
  10
63.1
  20
-0.1985
  30
0
  11
63.3015
  21
-0.1985
  31
0
  0
ARC
  5
3a
  100
AcDbEntity
  8
1
  100
AcDbCircle
  10
63.3015
  20
0
  30
0
  40
0.1985
  100
AcDbArc
  50
270
  51
0
  0
ARC
  5
3b
  100
AcDbEntity
  8
1
  100
AcDbCircle
  10
63.3015
  20
0
  30
0
  40
0.1985
  100
AcDbArc
  50
0
  51
90
  0
LINE
  5
3c
  100
AcDbEntity
  8
1
  100
AcDbLine
  10
63.3015
  20
0.1985
  30
0
  11
63.1
  21
0.1985
  31
0
  0
LINE
  5
3d
  100
AcDbEntity
  8
1
  100
AcDbLine
  10
63.1
  20
0.1985
  30
0
  11
63.1
  21
0.17
  31
0
  0
LINE
  5
3e
  100
AcDbEntity
  8
1
  100
AcDbLine
  10
63.1
  20
0.17
  30
0
  11
60.9
  21
0.17
  31
0
  0
ARC
  5
3f
  100
AcDbEntity
  8
1
  100
AcDbCircle
  10
60.987156
  20
1.166195
  30
0
  40
1
  100
AcDbArc
  50
255
  51
265
  0
LINE
  5
40
  100
AcDbEntity
  8
1
  100
AcDbLine
  10
60.728337
  20
0.200269
  30
0
  11
55.55112
  21
1.5875
  31
0
  0
LINE
  5
41
  100
AcDbEntity
  8
1
  100
AcDbLine
  10
55.55112
  20
1.5875
  30
0
  11
55.3
  21
1.5875
  31
0
  0
LINE
  5
42
  100
AcDbEntity
  8
1
  100
AcDbLine
  10
55.3
  20
1.5875
  30
0
  11
55.3
  21
-1.5875
  31
0
  0
LINE
  5
43
  100
AcDbEntity
  8
1
  100
AcDbLine
  10
55.3
  20
-1.5875
  30
0
  11
55.55112
  21
-1.5875
  31
0
  0
LINE
  5
44
  100
AcDbEntity
  8
1
  100
AcDbLine
  10
55.55112
  20
-1.5875
  30
0
  11
60.728337
  21
-0.200269
  31
0
  0
LINE
  5
45
  100
AcDbEntity
  8
1
  100
AcDbLine
  10
55.3
  20
-1.5875
  30
0
  11
55.3
  21
1.5875
  31
0
  0
LINE
  5
46
  100
AcDbEntity
  8
1
  100
AcDbLine
  10
55.3
  20
1.5875
  30
0
  11
55.3
  21
-1.5875
  31
0
  0
LINE
  5
47
  100
AcDbEntity
  8
1
  100
AcDbLine
  10
55.55112
  20
-1.5875
  30
0
  11
55.55112
  21
1.5875
  31
0
  0
LINE
  5
48
  100
AcDbEntity
  8
1
  100
AcDbLine
  10
60.728337
  20
0.200269
  30
0
  11
60.728337
  21
-0.200269
  31
0
  0
LINE
  5
49
  100
AcDbEntity
  8
1
  100
AcDbLine
  10
60.9
  20
-0.17
  30
0
  11
60.9
  21
0.17
  31
0
  0
LINE
  5
4a
  100
AcDbEntity
  8
1
  100
AcDbLine
  10
63.4
  20
-0.128417
  30
0
  11
63.4
  21
0.172337
  31
0
  0
LINE
  5
4b
  100
AcDbEntity
  8
1
  100
AcDbLine
  10
63.4
  20
0.172337
  30
0
  11
63.4
  21
-0.128417
  31
0
  0
LINE
  5
4c
  100
AcDbEntity
  8
1
  100
AcDbLine
  10
63.4
  20
-0.128417
  30
0
  11
63.3
  21
-0.118546
  31
0
  0
LINE
  5
4d
  100
AcDbEntity
  8
1
  100
AcDbLine
  10
63.3
  20
-0.118546
  30
0
  11
63.2
  21
-0.067909
  31
0
  0
LINE
  5
4e
  100
AcDbEntity
  8
1
  100
AcDbLine
  10
63.2
  20
-0.067909
  30
0
  11
63.1
  21
-0.011567
  31
0
  0
LINE
  5
4f
  100
AcDbEntity
  8
1
  100
AcDbLine
  10
63.1
  20
-0.011567
  30
0
  11
63.1
  21
0.007058
  31
0
  0
LINE
  5
50
  100
AcDbEntity
  8
1
  100
AcDbLine
  10
63.1
  20
-0.044234
  30
0
  11
63.1
  21
-0.059331
  31
0
  0
LINE
  5
51
  100
AcDbEntity
  8
1
  100
AcDbLine
  10
63.1
  20
-0.059331
  30
0
  11
63.2
  21
-0.110418
  31
0
  0
LINE
  5
52
  100
AcDbEntity
  8
1
  100
AcDbLine
  10
63.2
  20
-0.110418
  30
0
  11
63.3
  21
-0.15223
  31
0
  0
LINE
  5
53
  100
AcDbEntity
  8
1
  100
AcDbLine
  10
63.3
  20
-0.15223
  30
0
  11
63.4
  21
-0.15472
  31
0
  0
LINE
  5
54
  100
AcDbEntity
  8
1
  100
AcDbLine
  10
63.4
  20
-0.164005
  30
0
  11
63.4
  21
-0.172337
  31
0
  0
LINE
  5
55
  100
AcDbEntity
  8
1
  100
AcDbLine
  10
63.4
  20
-0.172337
  30
0
  11
63.4
  21
-0.164005
  31
0
  0
LINE
  5
56
  100
AcDbEntity
  8
1
  100
AcDbLine
  10
63.4
  20
-0.164005
  30
0
  11
63.3
  21
-0.165851
  31
0
  0
LINE
  5
57
  100
AcDbEntity
  8
1
  100
AcDbLine
  10
63.3
  20
-0.165851
  30
0
  11
63.2
  21
-0.127608
  31
0
  0
LINE
  5
58
  100
AcDbEntity
  8
1
  100
AcDbLine
  10
63.2
  20
-0.127608
  30
0
  11
63.1
  21
-0.078645
  31
0
  0
LINE
  5
59
  100
AcDbEntity
  8
1
  100
AcDbLine
  10
63.1
  20
-0.078645
  30
0
  11
63.1
  21
-0.063651
  31
0
  0
LINE
  5
5a
  100
AcDbEntity
  8
1
  100
AcDbLine
  10
63.1
  20
-0.17
  30
0
  11
63.1
  21
0.17
  31
0
  0
LINE
  5
5b
  100
AcDbEntity
  8
1
  100
AcDbLine
  10
63.1
  20
0.1985
  30
0
  11
63.1
  21
-0.1985
  31
0
  0
LINE
  5
5c
  100
AcDbEntity
  8
1
  100
AcDbLine
  10
63.3015
  20
0.1985
  30
0
  11
63.3015
  21
-0.1985
  31
0
  0
LINE
  5
5d
  100
AcDbEntity
  8
SK1
  100
AcDbLine
  10
55.3
  20
1.5875
  30
0
  11
0.7
  21
1.5875
  31
0
  0
LINE
  5
5e
  100
AcDbEntity
  8
SK1
  100
AcDbLine
  10
0.7
  20
1.5875
  30
0
  11
0
  21
0.8875
  31
0
  0
LINE
  5
5f
  100
AcDbEntity
  8
SK1
  100
AcDbLine
  10
55.3
  20
-1.5875
  30
0
  11
0.7
  21
-1.5875
  31
0
  0
LINE
  5
60
  100
AcDbEntity
  8
SK1
  100
AcDbLine
  10
0.7
  20
-1.5875
  30
0
  11
0
  21
-0.8875
  31
0
  0
LINE
  5
61
  100
AcDbEntity
  8
SK1
  100
AcDbLine
  10
0.7
  20
1.5875
  30
0
  11
0.7
  21
-1.5875
  31
0
  0
LINE
  5
62
  100
AcDbEntity
  8
SK1
  100
AcDbLine
  10
0
  20
0.8875
  30
0
  11
0
  21
-0.8875
  31
0
  0
LINE
  5
63
  100
AcDbEntity
  8
SK1
  100
AcDbLine
  10
56.3401
  20
1.40688
  30
0
  11
56.7069
  21
1.0401
  31
0
  0
LINE
  5
64
  100
AcDbEntity
  8
SK1
  100
AcDbLine
  10
55.8328
  20
1.66666
  30
0
  11
56.9667
  21
0.532833
  31
0
  0
LINE
  5
65
  100
AcDbEntity
  8
SK1
  100
AcDbLine
  10
55.5154
  20
1.73657
  30
0
  11
57.0366
  21
0.215434
  31
0
  0
LINE
  5
66
  100
AcDbEntity
  8
SK1
  100
AcDbLine
  10
55.3
  20
1.70452
  30
0
  11
57.0045
  21
0
  31
0
  0
LINE
  5
67
  100
AcDbEntity
  8
SK1
  100
AcDbLine
  10
55.3
  20
1.45703
  30
0
  11
56.757
  21
0
  31
0
  0
LINE
  5
68
  100
AcDbEntity
  8
SK1
  100
AcDbLine
  10
55.3
  20
1.20954
  30
0
  11
56.5095
  21
0
  31
0
  0
LINE
  5
69
  100
AcDbEntity
  8
SK1
  100
AcDbLine
  10
55.3
  20
0.962054
  30
0
  11
56.2621
  21
0
  31
0
  0
LINE
  5
6a
  100
AcDbEntity
  8
SK1
  100
AcDbLine
  10
55.3
  20
0.714566
  30
0
  11
56.0146
  21
0
  31
0
  0
LINE
  5
6b
  100
AcDbEntity
  8
SK1
  100
AcDbLine
  10
55.3
  20
0.467079
  30
0
  11
55.7671
  21
0
  31
0
  0
LINE
  5
6c
  100
AcDbEntity
  8
SK1
  100
AcDbLine
  10
55.3
  20
0.219592
  30
0
  11
55.5196
  21
0
  31
0
  0
LINE
  5
6d
  100
AcDbEntity
  8
SK1
  100
AcDbLine
  10
55.3
  20
1.70452
  30
0
  11
55.3441
  21
1.74861
  31
0
  0
LINE
  5
6e
  100
AcDbEntity
  8
SK1
  100
AcDbLine
  10
55.3
  20
1.45703
  30
0
  11
55.571
  21
1.72802
  31
0
  0
LINE
  5
6f
  100
AcDbEntity
  8
SK1
  100
AcDbLine
  10
55.3
  20
1.20954
  30
0
  11
55.7742
  21
1.6837
  31
0
  0
LINE
  5
70
  100
AcDbEntity
  8
SK1
  100
AcDbLine
  10
55.3
  20
0.962054
  30
0
  11
55.9588
  21
1.62082
  31
0
  0
LINE
  5
71
  100
AcDbEntity
  8
SK1
  100
AcDbLine
  10
55.3
  20
0.714566
  30
0
  11
56.1271
  21
1.54167
  31
0
  0
LINE
  5
72
  100
AcDbEntity
  8
SK1
  100
AcDbLine
  10
55.3
  20
0.467079
  30
0
  11
56.281
  21
1.44812
  31
0
  0
LINE
  5
73
  100
AcDbEntity
  8
SK1
  100
AcDbLine
  10
55.3
  20
0.219592
  30
0
  11
56.4226
  21
1.34216
  31
0
  0
LINE
  5
74
  100
AcDbEntity
  8
SK1
  100
AcDbLine
  10
55.3279
  20
0
  30
0
  11
56.5508
  21
1.22288
  31
0
  0
LINE
  5
75
  100
AcDbEntity
  8
SK1
  100
AcDbLine
  10
55.5754
  20
0
  30
0
  11
56.667
  21
1.09157
  31
0
  0
LINE
  5
76
  100
AcDbEntity
  8
SK1
  100
AcDbLine
  10
55.8229
  20
0
  30
0
  11
56.7707
  21
0.947822
  31
0
  0
LINE
  5
77
  100
AcDbEntity
  8
SK1
  100
AcDbLine
  10
56.0704
  20
0
  30
0
  11
56.8605
  21
0.790145
  31
0
  0
LINE
  5
78
  100
AcDbEntity
  8
SK1
  100
AcDbLine
  10
56.3178
  20
0
  30
0
  11
56.9364
  21
0.618517
  31
0
  0
LINE
  5
79
  100
AcDbEntity
  8
SK1
  100
AcDbLine
  10
56.5653
  20
0
  30
0
  11
56.996
  21
0.430696
  31
0
  0
LINE
  5
7a
  100
AcDbEntity
  8
SK1
  100
AcDbLine
  10
56.8128
  20
0
  30
0
  11
57.0356
  21
0.222827
  31
0
  0
LINE
  5
7b
  100
AcDbEntity
  8
SK1
  100
AcDbLine
  10
55.3
  20
0
  30
0
  11
55.3
  21
1.75
  31
0
  0
LINE
  5
7c
  100
AcDbEntity
  8
SK1
  100
AcDbLine
  10
55.3
  20
0
  30
0
  11
57.05
  21
0
  31
0
  0
ARC
  5
7d
  100
AcDbEntity
  8
SK1
  100
AcDbCircle
  10
55.3
  20
0
  30
0
  40
1.75
  100
AcDbArc
  50
0
  51
90
  0
ARC
  5
7e
  100
AcDbEntity
  8
SK1
  100
AcDbCircle
  10
55.3
  20
0
  30
0
  40
1.75
  100
AcDbArc
  50
90
  51
180
  0
LINE
  5
7f
  100
AcDbEntity
  8
SK1
  100
AcDbLine
  10
55.2721
  20
0
  30
0
  11
55.3
  21
-0.027896
  31
0
  0
LINE
  5
80
  100
AcDbEntity
  8
SK1
  100
AcDbLine
  10
55.0246
  20
0
  30
0
  11
55.3
  21
-0.275383
  31
0
  0
LINE
  5
81
  100
AcDbEntity
  8
SK1
  100
AcDbLine
  10
54.7771
  20
0
  30
0
  11
55.3
  21
-0.522871
  31
0
  0
LINE
  5
82
  100
AcDbEntity
  8
SK1
  100
AcDbLine
  10
54.5296
  20
0
  30
0
  11
55.3
  21
-0.770358
  31
0
  0
LINE
  5
83
  100
AcDbEntity
  8
SK1
  100
AcDbLine
  10
54.2822
  20
0
  30
0
  11
55.3
  21
-1.01785
  31
0
  0
LINE
  5
84
  100
AcDbEntity
  8
SK1
  100
AcDbLine
  10
54.0347
  20
0
  30
0
  11
55.3
  21
-1.26533
  31
0
  0
LINE
  5
85
  100
AcDbEntity
  8
SK1
  100
AcDbLine
  10
53.7872
  20
0
  30
0
  11
55.3
  21
-1.51282
  31
0
  0
LINE
  5
86
  100
AcDbEntity
  8
SK1
  100
AcDbLine
  10
53.5503
  20
-0.010642
  30
0
  11
55.2894
  21
-1.74967
  31
0
  0
LINE
  5
87
  100
AcDbEntity
  8
SK1
  100
AcDbLine
  10
53.5736
  20
-0.281429
  30
0
  11
55.0186
  21
-1.72637
  31
0
  0
LINE
  5
88
  100
AcDbEntity
  8
SK1
  100
AcDbLine
  10
53.6639
  20
-0.619147
  30
0
  11
54.6809
  21
-1.63613
  31
0
  0
LINE
  5
89
  100
AcDbEntity
  8
SK1
  100
AcDbLine
  10
53.5514
  20
-0.044098
  30
0
  11
53.5955
  21
0
  31
0
  0
LINE
  5
8a
  100
AcDbEntity
  8
SK1
  100
AcDbLine
  10
53.572
  20
-0.270991
  30
0
  11
53.843
  21
0
  31
0
  0
LINE
  5
8b
  100
AcDbEntity
  8
SK1
  100
AcDbLine
  10
53.6163
  20
-0.474162
  30
0
  11
54.0905
  21
0
  31
0
  0
LINE
  5
8c
  100
AcDbEntity
  8
SK1
  100
AcDbLine
  10
53.6792
  20
-0.658762
  30
0
  11
54.3379
  21
0
  31
0
  0
LINE
  5
8d
  100
AcDbEntity
  8
SK1
  100
AcDbLine
  10
53.7583
  20
-0.827105
  30
0
  11
54.5854
  21
0
  31
0
  0
LINE
  5
8e
  100
AcDbEntity
  8
SK1
  100
AcDbLine
  10
53.8519
  20
-0.981039
  30
0
  11
54.8329
  21
0
  31
0
  0
LINE
  5
8f
  100
AcDbEntity
  8
SK1
  100
AcDbLine
  10
53.9578
  20
-1.12257
  30
0
  11
55.0804
  21
0
  31
0
  0
LINE
  5
90
  100
AcDbEntity
  8
SK1
  100
AcDbLine
  10
54.0771
  20
-1.25077
  30
0
  11
55.3
  21
-0.027896
  31
0
  0
LINE
  5
91
  100
AcDbEntity
  8
SK1
  100
AcDbLine
  10
54.2084
  20
-1.36695
  30
0
  11
55.3
  21
-0.275383
  31
0
  0
LINE
  5
92
  100
AcDbEntity
  8
SK1
  100
AcDbLine
  10
54.3522
  20
-1.47069
  30
0
  11
55.3
  21
-0.522871
  31
0
  0
LINE
  5
93
  100
AcDbEntity
  8
SK1
  100
AcDbLine
  10
54.5099
  20
-1.5605
  30
0
  11
55.3
  21
-0.770358
  31
0
  0
LINE
  5
94
  100
AcDbEntity
  8
SK1
  100
AcDbLine
  10
54.6815
  20
-1.63636
  30
0
  11
55.3
  21
-1.01785
  31
0
  0
LINE
  5
95
  100
AcDbEntity
  8
SK1
  100
AcDbLine
  10
54.8693
  20
-1.69603
  30
0
  11
55.3
  21
-1.26533
  31
0
  0
LINE
  5
96
  100
AcDbEntity
  8
SK1
  100
AcDbLine
  10
55.0772
  20
-1.73565
  30
0
  11
55.3
  21
-1.51282
  31
0
  0
LINE
  5
97
  100
AcDbEntity
  8
SK1
  100
AcDbLine
  10
55.3
  20
0
  30
0
  11
53.55
  21
0
  31
0
  0
LINE
  5
98
  100
AcDbEntity
  8
SK1
  100
AcDbLine
  10
55.3
  20
-1.75
  30
0
  11
55.3
  21
0
  31
0
  0
ARC
  5
99
  100
AcDbEntity
  8
SK1
  100
AcDbCircle
  10
55.3
  20
0
  30
0
  40
1.75
  100
AcDbArc
  50
180
  51
270
  0
ARC
  5
9a
  100
AcDbEntity
  8
SK1
  100
AcDbCircle
  10
55.3
  20
0
  30
0
  40
1.75
  100
AcDbArc
  50
270
  51
0
  0
LINE
  5
115
  100
AcDbEntity
  8
NOCUT
  100
AcDbLine
  10
63.1
  20
0
  30
0
  11
63.1
  21
0.17
  31
0
  0
LINE
  5
116
  100
AcDbEntity
  8
NOCUT
  100
AcDbLine
  10
63.1
  20
0.17
  30
0
  11
60.9
  21
0.17
  31
0
  0
ARC
  5
117
  100
AcDbEntity
  8
NOCUT
  100
AcDbCircle
  10
60.987156
  20
1.166195
  30
0
  40
1
  100
AcDbArc
  50
255
  51
265
  0
LINE
  5
118
  100
AcDbEntity
  8
NOCUT
  100
AcDbLine
  10
60.728337
  20
0.200269
  30
0
  11
55.55112
  21
1.5875
  31
0
  0
LINE
  5
119
  100
AcDbEntity
  8
NOCUT
  100
AcDbLine
  10
55.55112
  20
1.5875
  30
0
  11
55.3
  21
1.5875
  31
0
  0
LINE
  5
11a
  100
AcDbEntity
  8
NOCUT
  100
AcDbLine
  10
55.3
  20
1.5875
  30
0
  11
55.3
  21
0
  31
0
  0
LINE
  5
11b
  100
AcDbEntity
  8
NOCUT
  100
AcDbLine
  10
55.3
  20
0
  30
0
  11
63.1
  21
0
  31
0
  0
ARC
  5
11c
  100
AcDbEntity
  8
CUT
  100
AcDbCircle
  10
63.3015
  20
0
  30
0
  40
0.1985
  100
AcDbArc
  50
0
  51
90
  0
LINE
  5
11d
  100
AcDbEntity
  8
CUT
  100
AcDbLine
  10
63.3015
  20
0.1985
  30
0
  11
63.1
  21
0.1985
  31
0
  0
LINE
  5
11e
  100
AcDbEntity
  8
CUT
  100
AcDbLine
  10
63.1
  20
0.1985
  30
0
  11
63.1
  21
0
  31
0
  0
LINE
  5
11f
  100
AcDbEntity
  8
CUT
  100
AcDbLine
  10
63.1
  20
0
  30
0
  11
63.5
  21
0
  31
0
  0
LINE
  5
120
  100
AcDbEntity
  8
4
  100
AcDbLine
  10
55.3
  20
0
  30
0
  11
63.5
  21
0
  31
0
  0
LINE
  5
121
  100
AcDbEntity
  8
SK4
  100
AcDbLine
  10
-1
  20
0
  30
0
  11
64.5
  21
0
  31
0
  0
LINE
  5
122
  100
AcDbEntity
  8
INFTOTAL
  100
AcDbLine
  10
-16.375
  20
22.9625
  30
0
  11
79.875
  21
22.9625
  31
0
  0
LINE
  5
123
  100
AcDbEntity
  8
INFTOTAL
  100
AcDbLine
  10
79.875
  20
22.9625
  30
0
  11
79.875
  21
-17.9625
  31
0
  0
LINE
  5
124
  100
AcDbEntity
  8
INFTOTAL
  100
AcDbLine
  10
79.875
  20
-17.9625
  30
0
  11
-16.375
  21
-17.9625
  31
0
  0
LINE
  5
125
  100
AcDbEntity
  8
INFTOTAL
  100
AcDbLine
  10
-16.375
  20
-17.9625
  30
0
  11
-16.375
  21
22.9625
  31
0
  0
ENDSEC
  0
SECTION
  2
OBJECTS
  0
DICTIONARY
  5
126
  330
0
100
AcDbDictionary
281
    1
  3
ACAD_GROUP
  350
127
  0
DICTIONARY
  5
127
102
{ACAD_REACTORS
  330
126
102
}
  330
126
100
AcDbDictionary
281
    1
  0
ENDSEC
  0
EOF
