  0
SECTION
  2
HEADER
  9
$ACADVER
  1
AC1015
  9
$DWGCODEPAGE
  3
ANSI_932
  9
$HANDSEED
  5
106AB90
  0
ENDSEC
  0
SECTION
  2
CLASSES
  0
CLASS
  1
IMAGEDEF
  2
AcDbRasterImageDef
  3
ISM
  90
0
  91
4
  280
0
  281
0
  0
CLASS
  1
IMAGE
  2
AcDbRasterImage
  3
ISM
  90
127
  91
5
  280
0
  281
1
  0
CLASS
  1
IMAGEDEF_REACTOR
  2
AcDbRasterImageDefReactor
  3
ISM
  90
1
  91
4
  280
0
  281
0
  0
ENDSEC
  0
SECTION
  2
TABLES
  0
TABLE
  2
VPORT
  5
2
  330
0
  100
AcDbSymbolTable
  70
    0
  0
ENDTAB
  0
TABLE
  2
LTYPE
  5
3
  330
0
  100
AcDbSymbolTable
  70
    4
  0
LTYPE
  5
4
  330
3
  100
AcDbSymbolTableRecord
  100
AcDbLinetypeTableRecord
  2
ByBlock
  70
    0
  3

  72
65
  73
    0
  40
0
  0
LTYPE
  5
5
  330
3
  100
AcDbSymbolTableRecord
  100
AcDbLinetypeTableRecord
  2
ByLayer
  70
    0
  3

  72
65
  73
    0
  40
0
  0
LTYPE
  5
6
  330
3
  100
AcDbSymbolTableRecord
  100
AcDbLinetypeTableRecord
  2
CONTINUOUS
  70
    0
  3
Solid Line
  72
65
  73
    0
  40
0
  0
LTYPE
  5
7
  330
3
  100
AcDbSymbolTableRecord
  100
AcDbLinetypeTableRecord
  2
DASH
  70
    0
  3
Hidden
  72
65
  73
2
  40
2.5
  49
1.5
  74
0
  49
-1
  74
0
  0
LTYPE
  5
8
  330
3
  100
AcDbSymbolTableRecord
  100
AcDbLinetypeTableRecord
  2
LONGDASHDASH
  70
    0
  3
__ . __
  72
65
  73
    4
  40
7
  49
4
  74
    0
  49
-1
  74
    0
  49
1
  74
    0
  49
-1
  74
    0
  0
ENDTAB
  0
TABLE
  2
LAYER
  5
9
  330
0
  100
AcDbSymbolTable
  70
    40
  0
LAYER
  5
a
  330
9
  100
AcDbSymbolTableRecord
  100
AcDbLayerTableRecord
  2
0
  70
    0
  62
    0
  6
CONTINUOUS
  390
0
  0
LAYER
  5
c
  330
9
  100
AcDbSymbolTableRecord
  100
AcDbLayerTableRecord
  2
1
  70
    0
  62
    4
  6
CONTINUOUS
  370
50
  390
0
  0
LAYER
  5
d
  330
9
  100
AcDbSymbolTableRecord
  100
AcDbLayerTableRecord
  2
2
  70
    0
  62
    7
  6
CONTINUOUS
  370
25
  390
0
  0
LAYER
  5
f
  330
9
  100
AcDbSymbolTableRecord
  100
AcDbLayerTableRecord
  2
4
  70
    0
  62
    2
  6
LONGDASHDASH
  370
25
  390
0
  0
LAYER
  5
13
  330
9
  100
AcDbSymbolTableRecord
  100
AcDbLayerTableRecord
  2
SK1
  70
    0
  62
    4
  6
CONTINUOUS
  370
50
  390
0
  0
LAYER
  5
14
  330
9
  100
AcDbSymbolTableRecord
  100
AcDbLayerTableRecord
  2
SK2
  70
    0
  62
    7
  6
CONTINUOUS
  370
25
  390
0
  0
LAYER
  5
16
  330
9
  100
AcDbSymbolTableRecord
  100
AcDbLayerTableRecord
  2
SK4
  70
    0
  62
    2
  6
LONGDASHDASH
  370
25
  390
0
  0
LAYER
  5
21
  330
9
  100
AcDbSymbolTableRecord
  100
AcDbLayerTableRecord
  2
NOCUT
  70
    0
  62
    7
  6
CONTINUOUS
  370
25
  390
0
  0
LAYER
  5
22
  330
9
  100
AcDbSymbolTableRecord
  100
AcDbLayerTableRecord
  2
CUT
  70
    0
  62
    1
  6
CONTINUOUS
  370
25
  390
0
  0
LAYER
  5
26
  330
9
  100
AcDbSymbolTableRecord
  100
AcDbLayerTableRecord
  2
INFTOTAL
  70
    0
  62
    9
  6
CONTINUOUS
  370
18
  390
0
  0
ENDTAB
  0
TABLE
  2
STYLE
  5
27
  330
0
  100
AcDbSymbolTable
  70
    1
  0
STYLE
  5
28
  330
27
  100
AcDbSymbolTableRecord
  100
AcDbTextStyleTableRecord
  2
Monospac821 BT
  70
    0
  40
    3.5
  41
1
  50
0
  71
0
  42
3
  3

  4

  1001
ACAD
  1000
Monospac821 BT
  1071
256
  0
ENDTAB
  0
TABLE
  2
VIEW
  5
29
  330
0
  100
AcDbSymbolTable
  70
    0
  0
ENDTAB
  0
TABLE
  2
UCS
  5
2a
  330
0
  100
AcDbSymbolTable
  70
    0
  0
ENDTAB
  0
TABLE
  2
APPID
  5
2b
  330
0
  100
AcDbSymbolTable
  70
    1
  0
APPID
  5
2c
  330
2b
  100
AcDbSymbolTableRecord
  100
AcDbRegAppTableRecord
  2
ACAD
  70
    0
  0
ENDTAB
  0
TABLE
  2
DIMSTYLE
  5
2d
  330
0
  100
AcDbSymbolTable
  70
    1
  100
AcDbDimStyleTable
  0
DIMSTYLE
  105
2e
  330
2d
  100
AcDbSymbolTableRecord
  100
AcDbDimStyleTableRecord
  2
STANDARD
  70
    0
  41
    3
  42
0.5
  44
1
  73
0
  77
1
  78
1
  140
3.5
  141
2.5
  143
0.03937
  147
0.8
  172
1
  174
1
  178
0
  179
1
  271
2
  279
1
  284
1
  340
28
  0
ENDTAB
  0
TABLE
  2
BLOCK_RECORD
  5
2f
  330
0
  100
AcDbSymbolTable
  70
    2
  0
BLOCK_RECORD
  5
30
  330
2f
  100
AcDbSymbolTableRecord
  100
AcDbBlockTableRecord
  2
*Model_Space
  0
BLOCK_RECORD
  5
31
  330
2f
  100
AcDbSymbolTableRecord
  100
AcDbBlockTableRecord
  2
*Paper_Space
  0
BLOCK_RECORD
  5
ad
  330
2f
  100
AcDbSymbolTableRecord
  100
AcDbBlockTableRecord
  2
*Dac
  340
0
  0
BLOCK_RECORD
  5
bb
  330
2f
  100
AcDbSymbolTableRecord
  100
AcDbBlockTableRecord
  2
*Dba
  340
0
  0
BLOCK_RECORD
  5
c9
  330
2f
  100
AcDbSymbolTableRecord
  100
AcDbBlockTableRecord
  2
*Dc8
  340
0
  0
BLOCK_RECORD
  5
d7
  330
2f
  100
AcDbSymbolTableRecord
  100
AcDbBlockTableRecord
  2
*Dd6
  340
0
  0
BLOCK_RECORD
  5
e5
  330
2f
  100
AcDbSymbolTableRecord
  100
AcDbBlockTableRecord
  2
*De4
  340
0
  0
BLOCK_RECORD
  5
ef
  330
2f
  100
AcDbSymbolTableRecord
  100
AcDbBlockTableRecord
  2
*Dee
  340
0
  0
BLOCK_RECORD
  5
fd
  330
2f
  100
AcDbSymbolTableRecord
  100
AcDbBlockTableRecord
  2
*Dfc
  340
0
  0
BLOCK_RECORD
  5
10b
  330
2f
  100
AcDbSymbolTableRecord
  100
AcDbBlockTableRecord
  2
*D10a
  340
0
  0
BLOCK_RECORD
  5
119
  330
2f
  100
AcDbSymbolTableRecord
  100
AcDbBlockTableRecord
  2
*D118
  340
0
  0
ENDTAB
  0
ENDSEC
  0
SECTION
  2
BLOCKS
  0
BLOCK
  5
32
  330
30
  100
AcDbEntity
  8
0
  100
AcDbBlockBegin
  2
*Model_Space
  70
    0
  10
0
  20
0
  30
0
  3
*Model_Space
  1

  0
ENDBLK
  5
33
  330
30
  100
AcDbEntity
  8
0
  100
AcDbBlockEnd
  0
BLOCK
  5
34
  330
31
  100
AcDbEntity
  8
0
  100
AcDbBlockBegin
  2
*Paper_Space
  70
    0
  10
0
  20
0
  30
0
  3
*Paper_Space
  1

  0
ENDBLK
  5
35
  330
31
  100
AcDbEntity
  8
0
  100
AcDbBlockEnd
  0
BLOCK
  5
ab
  330
ad
  100
AcDbEntity
  8
SK2
  100
AcDbBlockBegin
  2
*Dac
  70
1
  10
0
  20
0
  30
0
  3
*Dac
  1

  0
LINE
  5
ae
  330
ad
  100
AcDbEntity
  8
SK2
  100
AcDbLine
  10
0
  20
2.475
  30
0
  11
0
  21
20.175
  31
0
  0
LINE
  5
af
  330
ad
  100
AcDbEntity
  8
SK2
  100
AcDbLine
  10
63.5
  20
-15.175
  30
0
  11
63.5
  21
20.175
  31
0
  0
LINE
  5
b0
  330
ad
  100
AcDbEntity
  8
SK2
  100
AcDbLine
  10
0
  20
18.175
  30
0
  11
63.5
  21
18.175
  31
0
  0
SOLID
  5
b1
  330
ad
  100
AcDbEntity
  8
SK2
  100
AcDbTrace
  10
0
  20
18.175
  30
0
  11
2.478612
  21
18.501315
  31
0
  12
2.478612
  22
17.848685
  32
0
  13
2.478612
  23
17.848685
  33
0
  0
SOLID
  5
b2
  330
ad
  100
AcDbEntity
  8
SK2
  100
AcDbTrace
  10
63.5
  20
18.175
  30
0
  11
61.021388
  21
17.848685
  31
0
  12
61.021388
  22
18.501315
  32
0
  13
61.021388
  23
18.501315
  33
0
  0
MTEXT
  5
b3
  330
ad
  100
AcDbEntity
  8
SK2
  100
AcDbMText
  10
31.75
  20
18.175
  30
0
  11
1
  21
0
  31
0
  40
2
  41
0
  71
8
  72
1
  1
63.5
  0
POINT
  5
b4
  330
ad
  100
AcDbEntity
  8
SK2
  62
0
  100
AcDbPoint
  10
0
  20
2.475
  30
0
  0
POINT
  5
b5
  330
ad
  100
AcDbEntity
  8
SK2
  62
0
  100
AcDbPoint
  10
63.5
  20
-15.175
  30
0
  0
POINT
  5
b6
  330
ad
  100
AcDbEntity
  8
SK2
  62
0
  100
AcDbPoint
  10
63.5
  20
18.175
  30
0
  0
ENDBLK
  5
b7
  330
ad
  100
AcDbEntity
  8
SK2
  100
AcDbBlockEnd
  0
BLOCK
  5
b9
  330
bb
  100
AcDbEntity
  8
SK2
  100
AcDbBlockBegin
  2
*Dba
  70
1
  10
0
  20
0
  30
0
  3
*Dba
  1

  0
LINE
  5
bc
  330
bb
  100
AcDbEntity
  8
SK2
  100
AcDbLine
  10
48.5
  20
3.175
  30
0
  11
48.5
  21
15.175
  31
0
  0
LINE
  5
bd
  330
bb
  100
AcDbEntity
  8
SK2
  100
AcDbLine
  10
0
  20
2.475
  30
0
  11
0
  21
20.175
  31
0
  0
LINE
  5
be
  330
bb
  100
AcDbEntity
  8
SK2
  100
AcDbLine
  10
48.5
  20
13.175
  30
0
  11
0
  21
13.175
  31
0
  0
SOLID
  5
bf
  330
bb
  100
AcDbEntity
  8
SK2
  100
AcDbTrace
  10
48.5
  20
13.175
  30
0
  11
50.978612
  21
13.501315
  31
0
  12
50.978612
  22
12.848685
  32
0
  13
50.978612
  23
12.848685
  33
0
  0
SOLID
  5
c0
  330
bb
  100
AcDbEntity
  8
SK2
  100
AcDbTrace
  10
0
  20
13.175
  30
0
  11
-2.478612
  21
12.848685
  31
0
  12
-2.478612
  22
13.501315
  32
0
  13
-2.478612
  23
13.501315
  33
0
  0
MTEXT
  5
c1
  330
bb
  100
AcDbEntity
  8
SK2
  100
AcDbMText
  10
24.25
  20
13.175
  30
0
  11
1
  21
0
  31
0
  40
2
  41
0
  71
8
  72
1
  1
48.5
  0
POINT
  5
c2
  330
bb
  100
AcDbEntity
  8
SK2
  62
0
  100
AcDbPoint
  10
48.5
  20
3.175
  30
0
  0
POINT
  5
c3
  330
bb
  100
AcDbEntity
  8
SK2
  62
0
  100
AcDbPoint
  10
0
  20
2.475
  30
0
  0
POINT
  5
c4
  330
bb
  100
AcDbEntity
  8
SK2
  62
0
  100
AcDbPoint
  10
0
  20
13.175
  30
0
  0
ENDBLK
  5
c5
  330
bb
  100
AcDbEntity
  8
SK2
  100
AcDbBlockEnd
  0
BLOCK
  5
c7
  330
c9
  100
AcDbEntity
  8
SK2
  100
AcDbBlockBegin
  2
*Dc8
  70
1
  10
0
  20
0
  30
0
  3
*Dc8
  1

  0
LINE
  5
ca
  330
c9
  100
AcDbEntity
  8
SK2
  100
AcDbLine
  10
0.7
  20
-3.175
  30
0
  11
-12
  21
-3.175
  31
0
  0
LINE
  5
cb
  330
c9
  100
AcDbEntity
  8
SK2
  100
AcDbLine
  10
0.7
  20
3.175
  30
0
  11
-12
  21
3.175
  31
0
  0
LINE
  5
cc
  330
c9
  100
AcDbEntity
  8
SK2
  100
AcDbLine
  10
-10
  20
-8.576733
  30
0
  11
-10
  21
3.175
  31
0
  0
SOLID
  5
cd
  330
c9
  100
AcDbEntity
  8
SK2
  100
AcDbTrace
  10
-10
  20
-3.175
  30
0
  11
-10.326315
  21
-0.696388
  31
0
  12
-9.673685
  22
-0.696388
  32
0
  13
-9.673685
  23
-0.696388
  33
0
  0
SOLID
  5
ce
  330
c9
  100
AcDbEntity
  8
SK2
  100
AcDbTrace
  10
-10
  20
3.175
  30
0
  11
-9.673685
  21
0.696388
  31
0
  12
-10.326315
  22
0.696388
  32
0
  13
-10.326315
  23
0.696388
  33
0
  0
MTEXT
  5
cf
  330
c9
  100
AcDbEntity
  8
SK2
  100
AcDbMText
  10
-10
  20
0
  30
0
  11
0
  21
1
  31
0
  40
2
  41
0
  71
8
  72
1
  1
ﾘ6.35
  0
POINT
  5
d0
  330
c9
  100
AcDbEntity
  8
SK2
  62
0
  100
AcDbPoint
  10
0.7
  20
-3.175
  30
0
  0
POINT
  5
d1
  330
c9
  100
AcDbEntity
  8
SK2
  62
0
  100
AcDbPoint
  10
0.7
  20
3.175
  30
0
  0
POINT
  5
d2
  330
c9
  100
AcDbEntity
  8
SK2
  62
0
  100
AcDbPoint
  10
-10
  20
3.175
  30
0
  0
ENDBLK
  5
d3
  330
c9
  100
AcDbEntity
  8
SK2
  100
AcDbBlockEnd
  0
BLOCK
  5
d5
  330
d7
  100
AcDbEntity
  8
2
  100
AcDbBlockBegin
  2
*Dd6
  70
1
  10
0
  20
0
  30
0
  3
*Dd6
  1

  0
LINE
  5
d8
  330
d7
  100
AcDbEntity
  8
2
  100
AcDbLine
  10
63.103
  20
-0.397
  30
0
  11
75.5
  21
-0.397
  31
0
  0
LINE
  5
d9
  330
d7
  100
AcDbEntity
  8
2
  100
AcDbLine
  10
63.103
  20
0.397
  30
0
  11
75.5
  21
0.397
  31
0
  0
LINE
  5
da
  330
d7
  100
AcDbEntity
  8
2
  100
AcDbLine
  10
73.5
  20
-10.39604
  30
0
  11
73.5
  21
0.397
  31
0
  0
SOLID
  5
db
  330
d7
  100
AcDbEntity
  8
2
  100
AcDbTrace
  10
73.5
  20
-0.397
  30
0
  11
73.173685
  21
2.081612
  31
0
  12
73.826315
  22
2.081612
  32
0
  13
73.826315
  23
2.081612
  33
0
  0
SOLID
  5
dc
  330
d7
  100
AcDbEntity
  8
2
  100
AcDbTrace
  10
73.5
  20
0.397
  30
0
  11
73.826315
  21
-2.081612
  31
0
  12
73.173685
  22
-2.081612
  32
0
  13
73.173685
  23
-2.081612
  33
0
  0
MTEXT
  5
dd
  330
d7
  100
AcDbEntity
  8
2
  100
AcDbMText
  10
73.5
  20
0
  30
0
  11
0
  21
1
  31
0
  40
2
  41
0
  71
8
  72
1
  1
ﾘ0.794
  0
POINT
  5
de
  330
d7
  100
AcDbEntity
  8
2
  62
0
  100
AcDbPoint
  10
63.103
  20
-0.397
  30
0
  0
POINT
  5
df
  330
d7
  100
AcDbEntity
  8
2
  62
0
  100
AcDbPoint
  10
63.103
  20
0.397
  30
0
  0
POINT
  5
e0
  330
d7
  100
AcDbEntity
  8
2
  62
0
  100
AcDbPoint
  10
73.5
  20
0.397
  30
0
  0
ENDBLK
  5
e1
  330
d7
  100
AcDbEntity
  8
2
  100
AcDbBlockEnd
  0
BLOCK
  5
e3
  330
e5
  100
AcDbEntity
  8
2
  100
AcDbBlockBegin
  2
*De4
  70
1
  10
0
  20
0
  30
0
  3
*De4
  1

  0
LINE
  5
e6
  330
e5
  100
AcDbEntity
  8
2
  100
AcDbLine
  10
59.555832
  20
-3.547168
  30
0
  11
70.454789
  21
7.351789
  31
0
  0
MTEXT
  5
e7
  330
e5
  100
AcDbEntity
  8
2
  100
AcDbMText
  10
63.383721
  20
0.280721
  30
0
  11
0.707107
  21
0.707107
  31
0
  40
2
  41
0
  71
8
  72
1
  1
R0.397
  0
SOLID
  5
e8
  330
e5
  100
AcDbEntity
  8
2
  100
AcDbTrace
  10
63.383721
  20
0.280721
  30
0
  11
64.905625
  21
2.264105
  31
0
  12
65.367105
  22
1.802625
  32
0
  13
65.367105
  23
1.802625
  33
0
  0
POINT
  5
e9
  330
e5
  100
AcDbEntity
  8
2
  62
0
  100
AcDbPoint
  10
59.555832
  20
-3.547168
  30
0
  0
POINT
  5
ea
  330
e5
  100
AcDbEntity
  8
2
  62
0
  100
AcDbPoint
  10
63.103
  20
0
  30
0
  0
ENDBLK
  5
eb
  330
e5
  100
AcDbEntity
  8
2
  100
AcDbBlockEnd
  0
BLOCK
  5
ed
  330
ef
  100
AcDbEntity
  8
2
  100
AcDbBlockBegin
  2
*Dee
  70
1
  10
0
  20
0
  30
0
  3
*Dee
  1

  0
LINE
  5
f0
  330
ef
  100
AcDbEntity
  8
2
  100
AcDbLine
  10
62.7
  20
-0.37
  30
0
  11
60.7
  21
-0.37
  31
0
  0
LINE
  5
f1
  330
ef
  100
AcDbEntity
  8
2
  100
AcDbLine
  10
62.7
  20
0.37
  30
0
  11
60.7
  21
0.37
  31
0
  0
LINE
  5
f2
  330
ef
  100
AcDbEntity
  8
2
  100
AcDbLine
  10
62.7
  20
-0.37
  30
0
  11
62.7
  21
8.836634
  31
0
  0
SOLID
  5
f3
  330
ef
  100
AcDbEntity
  8
2
  100
AcDbTrace
  10
62.7
  20
-0.37
  30
0
  11
62.373685
  21
2.108612
  31
0
  12
63.026315
  22
2.108612
  32
0
  13
63.026315
  23
2.108612
  33
0
  0
SOLID
  5
f4
  330
ef
  100
AcDbEntity
  8
2
  100
AcDbTrace
  10
62.7
  20
0.37
  30
0
  11
63.026315
  21
-2.108612
  31
0
  12
62.373685
  22
-2.108612
  32
0
  13
62.373685
  23
-2.108612
  33
0
  0
MTEXT
  5
f5
  330
ef
  100
AcDbEntity
  8
2
  100
AcDbMText
  10
62.7
  20
0.37
  30
0
  11
0
  21
1
  31
0
  40
2
  41
0
  71
8
  72
1
  1
ﾘ0.74
  0
POINT
  5
f6
  330
ef
  100
AcDbEntity
  8
2
  62
0
  100
AcDbPoint
  10
60.7
  20
-0.37
  30
0
  0
POINT
  5
f7
  330
ef
  100
AcDbEntity
  8
2
  62
0
  100
AcDbPoint
  10
60.7
  20
0.37
  30
0
  0
POINT
  5
f8
  330
ef
  100
AcDbEntity
  8
2
  62
0
  100
AcDbPoint
  10
62.7
  20
8.836634
  30
0
  0
ENDBLK
  5
f9
  330
ef
  100
AcDbEntity
  8
2
  100
AcDbBlockEnd
  0
BLOCK
  5
fb
  330
fd
  100
AcDbEntity
  8
2
  100
AcDbBlockBegin
  2
*Dfc
  70
1
  10
0
  20
0
  30
0
  3
*Dfc
  1

  0
LINE
  5
fe
  330
fd
  100
AcDbEntity
  8
2
  100
AcDbLine
  10
62.7
  20
0.37
  30
0
  11
62.7
  21
9
  31
0
  0
LINE
  5
ff
  330
fd
  100
AcDbEntity
  8
2
  100
AcDbLine
  10
59.3
  20
0.37
  30
0
  11
59.3
  21
9
  31
0
  0
LINE
  5
100
  330
fd
  100
AcDbEntity
  8
2
  100
AcDbLine
  10
62.7
  20
7
  30
0
  11
57.048267
  21
7
  31
0
  0
SOLID
  5
101
  330
fd
  100
AcDbEntity
  8
2
  100
AcDbTrace
  10
62.7
  20
7
  30
0
  11
65.178612
  21
7.326315
  31
0
  12
65.178612
  22
6.673685
  32
0
  13
65.178612
  23
6.673685
  33
0
  0
SOLID
  5
102
  330
fd
  100
AcDbEntity
  8
2
  100
AcDbTrace
  10
59.3
  20
7
  30
0
  11
56.821388
  21
6.673685
  31
0
  12
56.821388
  22
7.326315
  32
0
  13
56.821388
  23
7.326315
  33
0
  0
MTEXT
  5
103
  330
fd
  100
AcDbEntity
  8
2
  100
AcDbMText
  10
61.484884
  20
7
  30
0
  11
1
  21
-0
  31
0
  40
2
  41
0
  71
8
  72
1
  1
3.4
  0
POINT
  5
104
  330
fd
  100
AcDbEntity
  8
2
  62
0
  100
AcDbPoint
  10
62.7
  20
0.37
  30
0
  0
POINT
  5
105
  330
fd
  100
AcDbEntity
  8
2
  62
0
  100
AcDbPoint
  10
59.3
  20
0.37
  30
0
  0
POINT
  5
106
  330
fd
  100
AcDbEntity
  8
2
  62
0
  100
AcDbPoint
  10
57.048267
  20
7
  30
0
  0
ENDBLK
  5
107
  330
fd
  100
AcDbEntity
  8
2
  100
AcDbBlockEnd
  0
BLOCK
  5
109
  330
10b
  100
AcDbEntity
  8
2
  100
AcDbBlockBegin
  2
*D10a
  70
1
  10
0
  20
0
  30
0
  3
*D10a
  1

  0
LINE
  5
10c
  330
10b
  100
AcDbEntity
  8
2
  100
AcDbLine
  10
63.5
  20
-15.175
  30
0
  11
63.5
  21
20.175
  31
0
  0
LINE
  5
10d
  330
10b
  100
AcDbEntity
  8
2
  100
AcDbLine
  10
48.5
  20
3.175
  30
0
  11
48.5
  21
10.175
  31
0
  0
LINE
  5
10e
  330
10b
  100
AcDbEntity
  8
2
  100
AcDbLine
  10
63.5
  20
8.175
  30
0
  11
48.5
  21
8.175
  31
0
  0
SOLID
  5
10f
  330
10b
  100
AcDbEntity
  8
2
  100
AcDbTrace
  10
63.5
  20
8.175
  30
0
  11
65.978612
  21
8.501315
  31
0
  12
65.978612
  22
7.848685
  32
0
  13
65.978612
  23
7.848685
  33
0
  0
SOLID
  5
110
  330
10b
  100
AcDbEntity
  8
2
  100
AcDbTrace
  10
48.5
  20
8.175
  30
0
  11
46.021388
  21
7.848685
  31
0
  12
46.021388
  22
8.501315
  32
0
  13
46.021388
  23
8.501315
  33
0
  0
MTEXT
  5
111
  330
10b
  100
AcDbEntity
  8
2
  100
AcDbMText
  10
56
  20
8.175
  30
0
  11
1
  21
-0
  31
0
  40
2
  41
0
  71
8
  72
1
  1
15
  0
POINT
  5
112
  330
10b
  100
AcDbEntity
  8
2
  62
0
  100
AcDbPoint
  10
63.5
  20
-15.175
  30
0
  0
POINT
  5
113
  330
10b
  100
AcDbEntity
  8
2
  62
0
  100
AcDbPoint
  10
48.5
  20
3.175
  30
0
  0
POINT
  5
114
  330
10b
  100
AcDbEntity
  8
2
  62
0
  100
AcDbPoint
  10
48.5
  20
8.175
  30
0
  0
ENDBLK
  5
115
  330
10b
  100
AcDbEntity
  8
2
  100
AcDbBlockEnd
  0
BLOCK
  5
117
  330
119
  100
AcDbEntity
  8
2
  100
AcDbBlockBegin
  2
*D118
  70
1
  10
0
  20
0
  30
0
  3
*D118
  1

  0
LINE
  5
11a
  330
119
  100
AcDbEntity
  8
2
  100
AcDbLine
  10
62.7
  20
-0.37
  30
0
  11
62.7
  21
-15.175
  31
0
  0
LINE
  5
11b
  330
119
  100
AcDbEntity
  8
2
  100
AcDbLine
  10
63.5
  20
-15.175
  30
0
  11
63.5
  21
20.175
  31
0
  0
LINE
  5
11c
  330
119
  100
AcDbEntity
  8
2
  100
AcDbLine
  10
58.607673
  20
-13.175
  30
0
  11
63.5
  21
-13.175
  31
0
  0
SOLID
  5
11d
  330
119
  100
AcDbEntity
  8
2
  100
AcDbTrace
  10
62.7
  20
-13.175
  30
0
  11
65.178612
  21
-12.848685
  31
0
  12
65.178612
  22
-13.501315
  32
0
  13
65.178612
  23
-13.501315
  33
0
  0
SOLID
  5
11e
  330
119
  100
AcDbEntity
  8
2
  100
AcDbTrace
  10
63.5
  20
-13.175
  30
0
  11
61.021388
  21
-13.501315
  31
0
  12
61.021388
  22
-12.848685
  32
0
  13
61.021388
  23
-12.848685
  33
0
  0
MTEXT
  5
11f
  330
119
  100
AcDbEntity
  8
2
  100
AcDbMText
  10
63.1
  20
-13.175
  30
0
  11
1
  21
-0
  31
0
  40
2
  41
0
  71
8
  72
1
  1
0.8
  0
POINT
  5
120
  330
119
  100
AcDbEntity
  8
2
  62
0
  100
AcDbPoint
  10
62.7
  20
-0.37
  30
0
  0
POINT
  5
121
  330
119
  100
AcDbEntity
  8
2
  62
0
  100
AcDbPoint
  10
63.5
  20
20.175
  30
0
  0
POINT
  5
122
  330
119
  100
AcDbEntity
  8
2
  62
0
  100
AcDbPoint
  10
63.5
  20
-13.175
  30
0
  0
ENDBLK
  5
123
  330
119
  100
AcDbEntity
  8
2
  100
AcDbBlockEnd
  0
ENDSEC
  0
SECTION
  2
ENTITIES
  0
DIMENSION
  5
b8
  100
AcDbEntity
  8
SK2
  100
AcDbDimension
  2
*Dac
  10
63.5
  20
18.175
  30
0
  11
31.75
  21
18.175
  31
0
  70
160
  1
<>
  71
5
  3
STANDARD
  42
63.5
  100
AcDbAlignedDimension
  13
0
  23
2.475
  33
0
  14
63.5
  24
-15.175
  34
0
  50
0
  100
AcDbRotatedDimension
  0
DIMENSION
  5
c6
  100
AcDbEntity
  8
SK2
  100
AcDbDimension
  2
*Dba
  10
0
  20
13.175
  30
0
  11
24.25
  21
13.175
  31
0
  70
160
  1
<>
  71
5
  3
STANDARD
  42
48.5
  100
AcDbAlignedDimension
  13
48.5
  23
3.175
  33
0
  14
0
  24
2.475
  34
0
  50
0
  100
AcDbRotatedDimension
  0
DIMENSION
  5
d4
  100
AcDbEntity
  8
SK2
  100
AcDbDimension
  2
*Dc8
  10
-10
  20
3.175
  30
0
  11
-10
  21
0
  31
0
  70
160
  1
%%c<>
  71
5
  3
STANDARD
  42
6.35
  100
AcDbAlignedDimension
  13
0.7
  23
-3.175
  33
0
  14
0.7
  24
3.175
  34
0
  50
-90
  100
AcDbRotatedDimension
  0
DIMENSION
  5
e2
  100
AcDbEntity
  8
2
  100
AcDbDimension
  2
*Dd6
  10
73.5
  20
0.397
  30
0
  11
73.5
  21
0
  31
0
  70
160
  1
%%c<>
  71
5
  3
STANDARD
  42
0.794
  100
AcDbAlignedDimension
  13
63.103
  23
-0.397
  33
0
  14
63.103
  24
0.397
  34
0
  50
-90
  100
AcDbRotatedDimension
  0
DIMENSION
  5
ec
  100
AcDbEntity
  8
2
  100
AcDbDimension
  2
*De4
  10
63.103
  20
0
  30
0
  11
63.383721
  21
0.280721
  31
0
  70
164
  1
R0.397
  71
5
  3
STANDARD
  100
AcDbRadialDimension
  15
63.383721
  25
0.280721
  35
0
  50
45
  0
DIMENSION
  5
fa
  100
AcDbEntity
  8
2
  100
AcDbDimension
  2
*Dee
  10
62.7
  20
8.836634
  30
0
  11
62.7
  21
0.37
  31
0
  70
160
  1
%%c<>
  71
5
  3
STANDARD
  42
0.74
  100
AcDbAlignedDimension
  13
60.7
  23
-0.37
  33
0
  14
60.7
  24
0.37
  34
0
  50
-90
  100
AcDbRotatedDimension
  0
DIMENSION
  5
108
  100
AcDbEntity
  8
2
  100
AcDbDimension
  2
*Dfc
  10
57.048267
  20
7
  30
0
  11
61.484884
  21
7
  31
0
  70
160
  1
<>
  71
5
  3
STANDARD
  42
3.4
  100
AcDbAlignedDimension
  13
62.7
  23
0.37
  33
0
  14
59.3
  24
0.37
  34
0
  50
0
  100
AcDbRotatedDimension
  0
DIMENSION
  5
116
  100
AcDbEntity
  8
2
  100
AcDbDimension
  2
*D10a
  10
48.5
  20
8.175
  30
0
  11
56
  21
8.175
  31
0
  70
160
  1
<>
  71
5
  3
STANDARD
  42
15
  100
AcDbAlignedDimension
  13
63.5
  23
-15.175
  33
0
  14
48.5
  24
3.175
  34
0
  50
0
  100
AcDbRotatedDimension
  0
DIMENSION
  5
124
  100
AcDbEntity
  8
2
  100
AcDbDimension
  2
*D118
  10
63.5
  20
-13.175
  30
0
  11
63.1
  21
-13.175
  31
0
  70
160
  1
<>
  71
5
  3
STANDARD
  42
0.8
  100
AcDbAlignedDimension
  13
62.7
  23
-0.37
  33
0
  14
63.5
  24
20.175
  34
0
  50
0
  100
AcDbRotatedDimension
  0
ARC
  5
36
  100
AcDbEntity
  8
1
  100
AcDbCircle
  10
59.387156
  20
-1.366195
  30
0
  40
1
  100
AcDbArc
  50
95
  51
105
  0
LINE
  5
37
  100
AcDbEntity
  8
1
  100
AcDbLine
  10
59.3
  20
-0.37
  30
0
  11
62.7
  21
-0.37
  31
0
  0
LINE
  5
38
  100
AcDbEntity
  8
1
  100
AcDbLine
  10
62.7
  20
-0.37
  30
0
  11
62.7
  21
-0.397
  31
0
  0
LINE
  5
39
  100
AcDbEntity
  8
1
  100
AcDbLine
  10
62.7
  20
-0.397
  30
0
  11
63.103
  21
-0.397
  31
0
  0
ARC
  5
3a
  100
AcDbEntity
  8
1
  100
AcDbCircle
  10
63.103
  20
0
  30
0
  40
0.397
  100
AcDbArc
  50
270
  51
0
  0
ARC
  5
3b
  100
AcDbEntity
  8
1
  100
AcDbCircle
  10
63.103
  20
0
  30
0
  40
0.397
  100
AcDbArc
  50
0
  51
90
  0
LINE
  5
3c
  100
AcDbEntity
  8
1
  100
AcDbLine
  10
63.103
  20
0.397
  30
0
  11
62.7
  21
0.397
  31
0
  0
LINE
  5
3d
  100
AcDbEntity
  8
1
  100
AcDbLine
  10
62.7
  20
0.397
  30
0
  11
62.7
  21
0.37
  31
0
  0
LINE
  5
3e
  100
AcDbEntity
  8
1
  100
AcDbLine
  10
62.7
  20
0.37
  30
0
  11
59.3
  21
0.37
  31
0
  0
ARC
  5
3f
  100
AcDbEntity
  8
1
  100
AcDbCircle
  10
59.387156
  20
1.366195
  30
0
  40
1
  100
AcDbArc
  50
255
  51
265
  0
LINE
  5
40
  100
AcDbEntity
  8
1
  100
AcDbLine
  10
59.128337
  20
0.400269
  30
0
  11
48.772899
  21
3.175
  31
0
  0
LINE
  5
41
  100
AcDbEntity
  8
1
  100
AcDbLine
  10
48.772899
  20
3.175
  30
0
  11
48.5
  21
3.175
  31
0
  0
LINE
  5
42
  100
AcDbEntity
  8
1
  100
AcDbLine
  10
48.5
  20
3.175
  30
0
  11
48.5
  21
-3.175
  31
0
  0
LINE
  5
43
  100
AcDbEntity
  8
1
  100
AcDbLine
  10
48.5
  20
-3.175
  30
0
  11
48.772899
  21
-3.175
  31
0
  0
LINE
  5
44
  100
AcDbEntity
  8
1
  100
AcDbLine
  10
48.772899
  20
-3.175
  30
0
  11
59.128337
  21
-0.400269
  31
0
  0
LINE
  5
45
  100
AcDbEntity
  8
1
  100
AcDbLine
  10
48.5
  20
3.175
  30
0
  11
48.5
  21
-3.175
  31
0
  0
LINE
  5
46
  100
AcDbEntity
  8
1
  100
AcDbLine
  10
48.5
  20
-3.175
  30
0
  11
48.5
  21
3.175
  31
0
  0
LINE
  5
47
  100
AcDbEntity
  8
1
  100
AcDbLine
  10
48.772899
  20
3.175
  30
0
  11
48.772899
  21
-3.175
  31
0
  0
LINE
  5
48
  100
AcDbEntity
  8
1
  100
AcDbLine
  10
59.128337
  20
-0.400269
  30
0
  11
59.128337
  21
0.400269
  31
0
  0
LINE
  5
49
  100
AcDbEntity
  8
1
  100
AcDbLine
  10
59.3
  20
0.37
  30
0
  11
59.3
  21
-0.37
  31
0
  0
LINE
  5
4a
  100
AcDbEntity
  8
1
  100
AcDbLine
  10
62.7
  20
-0.104378
  30
0
  11
62.7
  21
-0.118661
  31
0
  0
LINE
  5
4b
  100
AcDbEntity
  8
1
  100
AcDbLine
  10
62.7
  20
-0.118661
  30
0
  11
62.8
  21
-0.17156
  31
0
  0
LINE
  5
4c
  100
AcDbEntity
  8
1
  100
AcDbLine
  10
62.8
  20
-0.17156
  30
0
  11
62.9
  21
-0.220836
  31
0
  0
LINE
  5
4d
  100
AcDbEntity
  8
1
  100
AcDbLine
  10
62.9
  20
-0.220836
  30
0
  11
63
  21
-0.26545
  31
0
  0
LINE
  5
4e
  100
AcDbEntity
  8
1
  100
AcDbLine
  10
63
  20
-0.26545
  30
0
  11
63.1
  21
-0.304461
  31
0
  0
LINE
  5
4f
  100
AcDbEntity
  8
1
  100
AcDbLine
  10
63.1
  20
-0.304461
  30
0
  11
63.2
  21
-0.325276
  31
0
  0
LINE
  5
50
  100
AcDbEntity
  8
1
  100
AcDbLine
  10
63.2
  20
-0.325276
  30
0
  11
63.3
  21
-0.309439
  31
0
  0
LINE
  5
51
  100
AcDbEntity
  8
1
  100
AcDbLine
  10
63.3
  20
-0.309439
  30
0
  11
63.4
  21
-0.242911
  31
0
  0
LINE
  5
52
  100
AcDbEntity
  8
1
  100
AcDbLine
  10
63.4
  20
-0.257742
  30
0
  11
63.4
  21
-0.263439
  31
0
  0
LINE
  5
53
  100
AcDbEntity
  8
1
  100
AcDbLine
  10
63.4
  20
-0.263439
  30
0
  11
63.4
  21
-0.257742
  31
0
  0
LINE
  5
54
  100
AcDbEntity
  8
1
  100
AcDbLine
  10
63.4
  20
-0.257742
  30
0
  11
63.3
  21
-0.328009
  31
0
  0
LINE
  5
55
  100
AcDbEntity
  8
1
  100
AcDbLine
  10
63.3
  20
-0.328009
  30
0
  11
63.2
  21
-0.348189
  31
0
  0
LINE
  5
56
  100
AcDbEntity
  8
1
  100
AcDbLine
  10
63.2
  20
-0.348189
  30
0
  11
63.1
  21
-0.331702
  31
0
  0
LINE
  5
57
  100
AcDbEntity
  8
1
  100
AcDbLine
  10
63.1
  20
-0.331702
  30
0
  11
63
  21
-0.29659
  31
0
  0
LINE
  5
58
  100
AcDbEntity
  8
1
  100
AcDbLine
  10
63
  20
-0.29659
  30
0
  11
62.9
  21
-0.255216
  31
0
  0
LINE
  5
59
  100
AcDbEntity
  8
1
  100
AcDbLine
  10
62.9
  20
-0.255216
  30
0
  11
62.8
  21
-0.208453
  31
0
  0
LINE
  5
5a
  100
AcDbEntity
  8
1
  100
AcDbLine
  10
62.8
  20
-0.208453
  30
0
  11
62.7
  21
-0.15729
  31
0
  0
LINE
  5
5b
  100
AcDbEntity
  8
1
  100
AcDbLine
  10
62.7
  20
-0.15729
  30
0
  11
62.7
  21
-0.143098
  31
0
  0
LINE
  5
5c
  100
AcDbEntity
  8
1
  100
AcDbLine
  10
62.7
  20
-0.143098
  30
0
  11
62.6
  21
-0.360254
  31
0
  0
LINE
  5
5d
  100
AcDbEntity
  8
1
  100
AcDbLine
  10
62.6
  20
-0.360254
  30
0
  11
62.6
  21
-0.362133
  31
0
  0
LINE
  5
5e
  100
AcDbEntity
  8
1
  100
AcDbLine
  10
62.6
  20
-0.362133
  30
0
  11
62.617023
  21
-0.37
  31
0
  0
LINE
  5
5f
  100
AcDbEntity
  8
1
  100
AcDbLine
  10
62.7
  20
-0.37
  30
0
  11
62.7
  21
0.37
  31
0
  0
LINE
  5
60
  100
AcDbEntity
  8
1
  100
AcDbLine
  10
62.7
  20
0.397
  30
0
  11
62.7
  21
-0.397
  31
0
  0
LINE
  5
61
  100
AcDbEntity
  8
1
  100
AcDbLine
  10
62.617023
  20
0.37
  30
0
  11
62.7
  21
-0.005785
  31
0
  0
LINE
  5
62
  100
AcDbEntity
  8
1
  100
AcDbLine
  10
62.7
  20
-0.005785
  30
0
  11
62.7
  21
-0.023134
  31
0
  0
LINE
  5
63
  100
AcDbEntity
  8
1
  100
AcDbLine
  10
62.7
  20
-0.023134
  30
0
  11
62.8
  21
-0.080323
  31
0
  0
LINE
  5
64
  100
AcDbEntity
  8
1
  100
AcDbLine
  10
62.8
  20
-0.080323
  30
0
  11
62.9
  21
-0.135817
  31
0
  0
LINE
  5
65
  100
AcDbEntity
  8
1
  100
AcDbLine
  10
62.9
  20
-0.135817
  30
0
  11
63
  21
-0.188444
  31
0
  0
LINE
  5
66
  100
AcDbEntity
  8
1
  100
AcDbLine
  10
63
  20
-0.188444
  30
0
  11
63.1
  21
-0.237092
  31
0
  0
LINE
  5
67
  100
AcDbEntity
  8
1
  100
AcDbLine
  10
63.1
  20
-0.237092
  30
0
  11
63.2
  21
-0.267243
  31
0
  0
LINE
  5
68
  100
AcDbEntity
  8
1
  100
AcDbLine
  10
63.2
  20
-0.267243
  30
0
  11
63.3
  21
-0.256834
  31
0
  0
LINE
  5
69
  100
AcDbEntity
  8
1
  100
AcDbLine
  10
63.3
  20
-0.256834
  30
0
  11
63.4
  21
-0.178902
  31
0
  0
LINE
  5
6a
  100
AcDbEntity
  8
1
  100
AcDbLine
  10
63.4
  20
-0.178902
  30
0
  11
63.4
  21
0.263439
  31
0
  0
LINE
  5
6b
  100
AcDbEntity
  8
1
  100
AcDbLine
  10
63.4
  20
0.263439
  30
0
  11
63.4
  21
-0.178902
  31
0
  0
LINE
  5
6c
  100
AcDbEntity
  8
1
  100
AcDbLine
  10
63.103
  20
-0.397
  30
0
  11
63.103
  21
0.397
  31
0
  0
LINE
  5
6d
  100
AcDbEntity
  8
SK1
  100
AcDbLine
  10
48.5
  20
3.175
  30
0
  11
0.7
  21
3.175
  31
0
  0
LINE
  5
6e
  100
AcDbEntity
  8
SK1
  100
AcDbLine
  10
0.7
  20
3.175
  30
0
  11
0
  21
2.475
  31
0
  0
LINE
  5
6f
  100
AcDbEntity
  8
SK1
  100
AcDbLine
  10
48.5
  20
-3.175
  30
0
  11
0.7
  21
-3.175
  31
0
  0
LINE
  5
70
  100
AcDbEntity
  8
SK1
  100
AcDbLine
  10
0.7
  20
-3.175
  30
0
  11
0
  21
-2.475
  31
0
  0
LINE
  5
71
  100
AcDbEntity
  8
SK1
  100
AcDbLine
  10
0.7
  20
3.175
  30
0
  11
0.7
  21
-3.175
  31
0
  0
LINE
  5
72
  100
AcDbEntity
  8
SK1
  100
AcDbLine
  10
0
  20
2.475
  30
0
  11
0
  21
-2.475
  31
0
  0
LINE
  5
73
  100
AcDbEntity
  8
SK1
  100
AcDbLine
  10
49.5401
  20
1.40688
  30
0
  11
49.9069
  21
1.0401
  31
0
  0
LINE
  5
74
  100
AcDbEntity
  8
SK1
  100
AcDbLine
  10
49.0328
  20
1.66666
  30
0
  11
50.1667
  21
0.532833
  31
0
  0
LINE
  5
75
  100
AcDbEntity
  8
SK1
  100
AcDbLine
  10
48.7154
  20
1.73657
  30
0
  11
50.2366
  21
0.215434
  31
0
  0
LINE
  5
76
  100
AcDbEntity
  8
SK1
  100
AcDbLine
  10
48.5
  20
1.70452
  30
0
  11
50.2045
  21
0
  31
0
  0
LINE
  5
77
  100
AcDbEntity
  8
SK1
  100
AcDbLine
  10
48.5
  20
1.45703
  30
0
  11
49.957
  21
0
  31
0
  0
LINE
  5
78
  100
AcDbEntity
  8
SK1
  100
AcDbLine
  10
48.5
  20
1.20954
  30
0
  11
49.7095
  21
0
  31
0
  0
LINE
  5
79
  100
AcDbEntity
  8
SK1
  100
AcDbLine
  10
48.5
  20
0.962054
  30
0
  11
49.4621
  21
0
  31
0
  0
LINE
  5
7a
  100
AcDbEntity
  8
SK1
  100
AcDbLine
  10
48.5
  20
0.714566
  30
0
  11
49.2146
  21
0
  31
0
  0
LINE
  5
7b
  100
AcDbEntity
  8
SK1
  100
AcDbLine
  10
48.5
  20
0.467079
  30
0
  11
48.9671
  21
0
  31
0
  0
LINE
  5
7c
  100
AcDbEntity
  8
SK1
  100
AcDbLine
  10
48.5
  20
0.219592
  30
0
  11
48.7196
  21
0
  31
0
  0
LINE
  5
7d
  100
AcDbEntity
  8
SK1
  100
AcDbLine
  10
48.5
  20
1.70452
  30
0
  11
48.5441
  21
1.74861
  31
0
  0
LINE
  5
7e
  100
AcDbEntity
  8
SK1
  100
AcDbLine
  10
48.5
  20
1.45703
  30
0
  11
48.771
  21
1.72802
  31
0
  0
LINE
  5
7f
  100
AcDbEntity
  8
SK1
  100
AcDbLine
  10
48.5
  20
1.20954
  30
0
  11
48.9742
  21
1.6837
  31
0
  0
LINE
  5
80
  100
AcDbEntity
  8
SK1
  100
AcDbLine
  10
48.5
  20
0.962054
  30
0
  11
49.1588
  21
1.62082
  31
0
  0
LINE
  5
81
  100
AcDbEntity
  8
SK1
  100
AcDbLine
  10
48.5
  20
0.714566
  30
0
  11
49.3271
  21
1.54167
  31
0
  0
LINE
  5
82
  100
AcDbEntity
  8
SK1
  100
AcDbLine
  10
48.5
  20
0.467079
  30
0
  11
49.481
  21
1.44812
  31
0
  0
LINE
  5
83
  100
AcDbEntity
  8
SK1
  100
AcDbLine
  10
48.5
  20
0.219592
  30
0
  11
49.6226
  21
1.34216
  31
0
  0
LINE
  5
84
  100
AcDbEntity
  8
SK1
  100
AcDbLine
  10
48.5279
  20
0
  30
0
  11
49.7508
  21
1.22288
  31
0
  0
LINE
  5
85
  100
AcDbEntity
  8
SK1
  100
AcDbLine
  10
48.7754
  20
0
  30
0
  11
49.867
  21
1.09157
  31
0
  0
LINE
  5
86
  100
AcDbEntity
  8
SK1
  100
AcDbLine
  10
49.0229
  20
0
  30
0
  11
49.9707
  21
0.947822
  31
0
  0
LINE
  5
87
  100
AcDbEntity
  8
SK1
  100
AcDbLine
  10
49.2704
  20
0
  30
0
  11
50.0605
  21
0.790145
  31
0
  0
LINE
  5
88
  100
AcDbEntity
  8
SK1
  100
AcDbLine
  10
49.5178
  20
0
  30
0
  11
50.1364
  21
0.618517
  31
0
  0
LINE
  5
89
  100
AcDbEntity
  8
SK1
  100
AcDbLine
  10
49.7653
  20
0
  30
0
  11
50.196
  21
0.430696
  31
0
  0
LINE
  5
8a
  100
AcDbEntity
  8
SK1
  100
AcDbLine
  10
50.0128
  20
0
  30
0
  11
50.2356
  21
0.222827
  31
0
  0
LINE
  5
8b
  100
AcDbEntity
  8
SK1
  100
AcDbLine
  10
48.5
  20
0
  30
0
  11
48.5
  21
1.75
  31
0
  0
LINE
  5
8c
  100
AcDbEntity
  8
SK1
  100
AcDbLine
  10
48.5
  20
0
  30
0
  11
50.25
  21
0
  31
0
  0
ARC
  5
8d
  100
AcDbEntity
  8
SK1
  100
AcDbCircle
  10
48.5
  20
0
  30
0
  40
1.75
  100
AcDbArc
  50
0
  51
90
  0
ARC
  5
8e
  100
AcDbEntity
  8
SK1
  100
AcDbCircle
  10
48.5
  20
0
  30
0
  40
1.75
  100
AcDbArc
  50
90
  51
180
  0
LINE
  5
8f
  100
AcDbEntity
  8
SK1
  100
AcDbLine
  10
48.4721
  20
0
  30
0
  11
48.5
  21
-0.027896
  31
0
  0
LINE
  5
90
  100
AcDbEntity
  8
SK1
  100
AcDbLine
  10
48.2246
  20
0
  30
0
  11
48.5
  21
-0.275383
  31
0
  0
LINE
  5
91
  100
AcDbEntity
  8
SK1
  100
AcDbLine
  10
47.9771
  20
0
  30
0
  11
48.5
  21
-0.522871
  31
0
  0
LINE
  5
92
  100
AcDbEntity
  8
SK1
  100
AcDbLine
  10
47.7296
  20
0
  30
0
  11
48.5
  21
-0.770358
  31
0
  0
LINE
  5
93
  100
AcDbEntity
  8
SK1
  100
AcDbLine
  10
47.4822
  20
0
  30
0
  11
48.5
  21
-1.01785
  31
0
  0
LINE
  5
94
  100
AcDbEntity
  8
SK1
  100
AcDbLine
  10
47.2347
  20
0
  30
0
  11
48.5
  21
-1.26533
  31
0
  0
LINE
  5
95
  100
AcDbEntity
  8
SK1
  100
AcDbLine
  10
46.9872
  20
0
  30
0
  11
48.5
  21
-1.51282
  31
0
  0
LINE
  5
96
  100
AcDbEntity
  8
SK1
  100
AcDbLine
  10
46.7503
  20
-0.010642
  30
0
  11
48.4894
  21
-1.74967
  31
0
  0
LINE
  5
97
  100
AcDbEntity
  8
SK1
  100
AcDbLine
  10
46.7736
  20
-0.281429
  30
0
  11
48.2186
  21
-1.72637
  31
0
  0
LINE
  5
98
  100
AcDbEntity
  8
SK1
  100
AcDbLine
  10
46.8639
  20
-0.619147
  30
0
  11
47.8809
  21
-1.63613
  31
0
  0
LINE
  5
99
  100
AcDbEntity
  8
SK1
  100
AcDbLine
  10
46.7514
  20
-0.044098
  30
0
  11
46.7955
  21
0
  31
0
  0
LINE
  5
9a
  100
AcDbEntity
  8
SK1
  100
AcDbLine
  10
46.772
  20
-0.270991
  30
0
  11
47.043
  21
0
  31
0
  0
LINE
  5
9b
  100
AcDbEntity
  8
SK1
  100
AcDbLine
  10
46.8163
  20
-0.474162
  30
0
  11
47.2905
  21
0
  31
0
  0
LINE
  5
9c
  100
AcDbEntity
  8
SK1
  100
AcDbLine
  10
46.8792
  20
-0.658762
  30
0
  11
47.5379
  21
0
  31
0
  0
LINE
  5
9d
  100
AcDbEntity
  8
SK1
  100
AcDbLine
  10
46.9583
  20
-0.827105
  30
0
  11
47.7854
  21
0
  31
0
  0
LINE
  5
9e
  100
AcDbEntity
  8
SK1
  100
AcDbLine
  10
47.0519
  20
-0.981039
  30
0
  11
48.0329
  21
0
  31
0
  0
LINE
  5
9f
  100
AcDbEntity
  8
SK1
  100
AcDbLine
  10
47.1578
  20
-1.12257
  30
0
  11
48.2804
  21
0
  31
0
  0
LINE
  5
a0
  100
AcDbEntity
  8
SK1
  100
AcDbLine
  10
47.2771
  20
-1.25077
  30
0
  11
48.5
  21
-0.027896
  31
0
  0
LINE
  5
a1
  100
AcDbEntity
  8
SK1
  100
AcDbLine
  10
47.4084
  20
-1.36695
  30
0
  11
48.5
  21
-0.275383
  31
0
  0
LINE
  5
a2
  100
AcDbEntity
  8
SK1
  100
AcDbLine
  10
47.5522
  20
-1.47069
  30
0
  11
48.5
  21
-0.522871
  31
0
  0
LINE
  5
a3
  100
AcDbEntity
  8
SK1
  100
AcDbLine
  10
47.7099
  20
-1.5605
  30
0
  11
48.5
  21
-0.770358
  31
0
  0
LINE
  5
a4
  100
AcDbEntity
  8
SK1
  100
AcDbLine
  10
47.8815
  20
-1.63636
  30
0
  11
48.5
  21
-1.01785
  31
0
  0
LINE
  5
a5
  100
AcDbEntity
  8
SK1
  100
AcDbLine
  10
48.0693
  20
-1.69603
  30
0
  11
48.5
  21
-1.26533
  31
0
  0
LINE
  5
a6
  100
AcDbEntity
  8
SK1
  100
AcDbLine
  10
48.2772
  20
-1.73565
  30
0
  11
48.5
  21
-1.51282
  31
0
  0
LINE
  5
a7
  100
AcDbEntity
  8
SK1
  100
AcDbLine
  10
48.5
  20
0
  30
0
  11
46.75
  21
0
  31
0
  0
LINE
  5
a8
  100
AcDbEntity
  8
SK1
  100
AcDbLine
  10
48.5
  20
-1.75
  30
0
  11
48.5
  21
0
  31
0
  0
ARC
  5
a9
  100
AcDbEntity
  8
SK1
  100
AcDbCircle
  10
48.5
  20
0
  30
0
  40
1.75
  100
AcDbArc
  50
180
  51
270
  0
ARC
  5
aa
  100
AcDbEntity
  8
SK1
  100
AcDbCircle
  10
48.5
  20
0
  30
0
  40
1.75
  100
AcDbArc
  50
270
  51
0
  0
LINE
  5
125
  100
AcDbEntity
  8
NOCUT
  100
AcDbLine
  10
62.7
  20
0
  30
0
  11
62.7
  21
0.37
  31
0
  0
LINE
  5
126
  100
AcDbEntity
  8
NOCUT
  100
AcDbLine
  10
62.7
  20
0.37
  30
0
  11
59.3
  21
0.37
  31
0
  0
ARC
  5
127
  100
AcDbEntity
  8
NOCUT
  100
AcDbCircle
  10
59.387156
  20
1.366195
  30
0
  40
1
  100
AcDbArc
  50
255
  51
265
  0
LINE
  5
128
  100
AcDbEntity
  8
NOCUT
  100
AcDbLine
  10
59.128337
  20
0.400269
  30
0
  11
48.772899
  21
3.175
  31
0
  0
LINE
  5
129
  100
AcDbEntity
  8
NOCUT
  100
AcDbLine
  10
48.772899
  20
3.175
  30
0
  11
48.5
  21
3.175
  31
0
  0
LINE
  5
12a
  100
AcDbEntity
  8
NOCUT
  100
AcDbLine
  10
48.5
  20
3.175
  30
0
  11
48.5
  21
0
  31
0
  0
LINE
  5
12b
  100
AcDbEntity
  8
NOCUT
  100
AcDbLine
  10
48.5
  20
0
  30
0
  11
62.7
  21
0
  31
0
  0
ARC
  5
12c
  100
AcDbEntity
  8
CUT
  100
AcDbCircle
  10
63.103
  20
0
  30
0
  40
0.397
  100
AcDbArc
  50
0
  51
90
  0
LINE
  5
12d
  100
AcDbEntity
  8
CUT
  100
AcDbLine
  10
63.103
  20
0.397
  30
0
  11
62.7
  21
0.397
  31
0
  0
LINE
  5
12e
  100
AcDbEntity
  8
CUT
  100
AcDbLine
  10
62.7
  20
0.397
  30
0
  11
62.7
  21
0
  31
0
  0
LINE
  5
12f
  100
AcDbEntity
  8
CUT
  100
AcDbLine
  10
62.7
  20
0
  30
0
  11
63.5
  21
0
  31
0
  0
LINE
  5
130
  100
AcDbEntity
  8
4
  100
AcDbLine
  10
48.5
  20
0
  30
0
  11
63.5
  21
0
  31
0
  0
LINE
  5
131
  100
AcDbEntity
  8
SK4
  100
AcDbLine
  10
-1
  20
0
  30
0
  11
64.5
  21
0
  31
0
  0
LINE
  5
132
  100
AcDbEntity
  8
INFTOTAL
  100
AcDbLine
  10
-16.375
  20
24.55
  30
0
  11
79.875
  21
24.55
  31
0
  0
LINE
  5
133
  100
AcDbEntity
  8
INFTOTAL
  100
AcDbLine
  10
79.875
  20
24.55
  30
0
  11
79.875
  21
-19.55
  31
0
  0
LINE
  5
134
  100
AcDbEntity
  8
INFTOTAL
  100
AcDbLine
  10
79.875
  20
-19.55
  30
0
  11
-16.375
  21
-19.55
  31
0
  0
LINE
  5
135
  100
AcDbEntity
  8
INFTOTAL
  100
AcDbLine
  10
-16.375
  20
-19.55
  30
0
  11
-16.375
  21
24.55
  31
0
  0
ENDSEC
  0
SECTION
  2
OBJECTS
  0
DICTIONARY
  5
136
  330
0
100
AcDbDictionary
281
    1
  3
ACAD_GROUP
  350
137
  0
DICTIONARY
  5
137
102
{ACAD_REACTORS
  330
136
102
}
  330
136
100
AcDbDictionary
281
    1
  0
ENDSEC
  0
EOF
