  0
SECTION
  2
HEADER
  9
$ACADVER
  1
AC1015
  9
$DWGCODEPAGE
  3
ANSI_932
  9
$HANDSEED
  5
106AB90
  0
ENDSEC
  0
SECTION
  2
CLASSES
  0
CLASS
  1
IMAGEDEF
  2
AcDbRasterImageDef
  3
ISM
  90
0
  91
4
  280
0
  281
0
  0
CLASS
  1
IMAGE
  2
AcDbRasterImage
  3
ISM
  90
127
  91
5
  280
0
  281
1
  0
CLASS
  1
IMAGEDEF_REACTOR
  2
AcDbRasterImageDefReactor
  3
ISM
  90
1
  91
4
  280
0
  281
0
  0
ENDSEC
  0
SECTION
  2
TABLES
  0
TABLE
  2
VPORT
  5
2
  330
0
  100
AcDbSymbolTable
  70
    0
  0
ENDTAB
  0
TABLE
  2
LTYPE
  5
3
  330
0
  100
AcDbSymbolTable
  70
    4
  0
LTYPE
  5
4
  330
3
  100
AcDbSymbolTableRecord
  100
AcDbLinetypeTableRecord
  2
ByBlock
  70
    0
  3

  72
65
  73
    0
  40
0
  0
LTYPE
  5
5
  330
3
  100
AcDbSymbolTableRecord
  100
AcDbLinetypeTableRecord
  2
ByLayer
  70
    0
  3

  72
65
  73
    0
  40
0
  0
LTYPE
  5
6
  330
3
  100
AcDbSymbolTableRecord
  100
AcDbLinetypeTableRecord
  2
CONTINUOUS
  70
    0
  3
Solid Line
  72
65
  73
    0
  40
0
  0
LTYPE
  5
7
  330
3
  100
AcDbSymbolTableRecord
  100
AcDbLinetypeTableRecord
  2
DASH
  70
    0
  3
Hidden
  72
65
  73
2
  40
2.5
  49
1.5
  74
0
  49
-1
  74
0
  0
LTYPE
  5
8
  330
3
  100
AcDbSymbolTableRecord
  100
AcDbLinetypeTableRecord
  2
LONGDASHDASH
  70
    0
  3
__ . __
  72
65
  73
    4
  40
7
  49
4
  74
    0
  49
-1
  74
    0
  49
1
  74
    0
  49
-1
  74
    0
  0
ENDTAB
  0
TABLE
  2
LAYER
  5
9
  330
0
  100
AcDbSymbolTable
  70
    40
  0
LAYER
  5
a
  330
9
  100
AcDbSymbolTableRecord
  100
AcDbLayerTableRecord
  2
0
  70
    0
  62
    0
  6
CONTINUOUS
  390
0
  0
LAYER
  5
c
  330
9
  100
AcDbSymbolTableRecord
  100
AcDbLayerTableRecord
  2
1
  70
    0
  62
    4
  6
CONTINUOUS
  370
50
  390
0
  0
LAYER
  5
d
  330
9
  100
AcDbSymbolTableRecord
  100
AcDbLayerTableRecord
  2
2
  70
    0
  62
    7
  6
CONTINUOUS
  370
25
  390
0
  0
LAYER
  5
f
  330
9
  100
AcDbSymbolTableRecord
  100
AcDbLayerTableRecord
  2
4
  70
    0
  62
    2
  6
LONGDASHDASH
  370
25
  390
0
  0
LAYER
  5
13
  330
9
  100
AcDbSymbolTableRecord
  100
AcDbLayerTableRecord
  2
SK1
  70
    0
  62
    4
  6
CONTINUOUS
  370
50
  390
0
  0
LAYER
  5
14
  330
9
  100
AcDbSymbolTableRecord
  100
AcDbLayerTableRecord
  2
SK2
  70
    0
  62
    7
  6
CONTINUOUS
  370
25
  390
0
  0
LAYER
  5
16
  330
9
  100
AcDbSymbolTableRecord
  100
AcDbLayerTableRecord
  2
SK4
  70
    0
  62
    2
  6
LONGDASHDASH
  370
25
  390
0
  0
LAYER
  5
21
  330
9
  100
AcDbSymbolTableRecord
  100
AcDbLayerTableRecord
  2
NOCUT
  70
    0
  62
    7
  6
CONTINUOUS
  370
25
  390
0
  0
LAYER
  5
22
  330
9
  100
AcDbSymbolTableRecord
  100
AcDbLayerTableRecord
  2
CUT
  70
    0
  62
    1
  6
CONTINUOUS
  370
25
  390
0
  0
LAYER
  5
26
  330
9
  100
AcDbSymbolTableRecord
  100
AcDbLayerTableRecord
  2
INFTOTAL
  70
    0
  62
    9
  6
CONTINUOUS
  370
18
  390
0
  0
ENDTAB
  0
TABLE
  2
STYLE
  5
27
  330
0
  100
AcDbSymbolTable
  70
    1
  0
STYLE
  5
28
  330
27
  100
AcDbSymbolTableRecord
  100
AcDbTextStyleTableRecord
  2
Monospac821 BT
  70
    0
  40
    3.5
  41
1
  50
0
  71
0
  42
3
  3

  4

  1001
ACAD
  1000
Monospac821 BT
  1071
256
  0
ENDTAB
  0
TABLE
  2
VIEW
  5
29
  330
0
  100
AcDbSymbolTable
  70
    0
  0
ENDTAB
  0
TABLE
  2
UCS
  5
2a
  330
0
  100
AcDbSymbolTable
  70
    0
  0
ENDTAB
  0
TABLE
  2
APPID
  5
2b
  330
0
  100
AcDbSymbolTable
  70
    1
  0
APPID
  5
2c
  330
2b
  100
AcDbSymbolTableRecord
  100
AcDbRegAppTableRecord
  2
ACAD
  70
    0
  0
ENDTAB
  0
TABLE
  2
DIMSTYLE
  5
2d
  330
0
  100
AcDbSymbolTable
  70
    1
  100
AcDbDimStyleTable
  0
DIMSTYLE
  105
2e
  330
2d
  100
AcDbSymbolTableRecord
  100
AcDbDimStyleTableRecord
  2
STANDARD
  70
    0
  41
    3
  42
0.5
  44
1
  73
0
  77
1
  78
1
  140
3.5
  141
2.5
  143
0.03937
  147
0.8
  172
1
  174
1
  178
0
  179
1
  271
2
  279
1
  284
1
  340
28
  0
ENDTAB
  0
TABLE
  2
BLOCK_RECORD
  5
2f
  330
0
  100
AcDbSymbolTable
  70
    2
  0
BLOCK_RECORD
  5
30
  330
2f
  100
AcDbSymbolTableRecord
  100
AcDbBlockTableRecord
  2
*Model_Space
  0
BLOCK_RECORD
  5
31
  330
2f
  100
AcDbSymbolTableRecord
  100
AcDbBlockTableRecord
  2
*Paper_Space
  0
BLOCK_RECORD
  5
c2
  330
2f
  100
AcDbSymbolTableRecord
  100
AcDbBlockTableRecord
  2
*Dc1
  340
0
  0
BLOCK_RECORD
  5
d0
  330
2f
  100
AcDbSymbolTableRecord
  100
AcDbBlockTableRecord
  2
*Dcf
  340
0
  0
BLOCK_RECORD
  5
de
  330
2f
  100
AcDbSymbolTableRecord
  100
AcDbBlockTableRecord
  2
*Ddd
  340
0
  0
BLOCK_RECORD
  5
ec
  330
2f
  100
AcDbSymbolTableRecord
  100
AcDbBlockTableRecord
  2
*Deb
  340
0
  0
BLOCK_RECORD
  5
fa
  330
2f
  100
AcDbSymbolTableRecord
  100
AcDbBlockTableRecord
  2
*Df9
  340
0
  0
BLOCK_RECORD
  5
104
  330
2f
  100
AcDbSymbolTableRecord
  100
AcDbBlockTableRecord
  2
*D103
  340
0
  0
BLOCK_RECORD
  5
112
  330
2f
  100
AcDbSymbolTableRecord
  100
AcDbBlockTableRecord
  2
*D111
  340
0
  0
BLOCK_RECORD
  5
120
  330
2f
  100
AcDbSymbolTableRecord
  100
AcDbBlockTableRecord
  2
*D11f
  340
0
  0
BLOCK_RECORD
  5
12e
  330
2f
  100
AcDbSymbolTableRecord
  100
AcDbBlockTableRecord
  2
*D12d
  340
0
  0
ENDTAB
  0
ENDSEC
  0
SECTION
  2
BLOCKS
  0
BLOCK
  5
32
  330
30
  100
AcDbEntity
  8
0
  100
AcDbBlockBegin
  2
*Model_Space
  70
    0
  10
0
  20
0
  30
0
  3
*Model_Space
  1

  0
ENDBLK
  5
33
  330
30
  100
AcDbEntity
  8
0
  100
AcDbBlockEnd
  0
BLOCK
  5
34
  330
31
  100
AcDbEntity
  8
0
  100
AcDbBlockBegin
  2
*Paper_Space
  70
    0
  10
0
  20
0
  30
0
  3
*Paper_Space
  1

  0
ENDBLK
  5
35
  330
31
  100
AcDbEntity
  8
0
  100
AcDbBlockEnd
  0
BLOCK
  5
c0
  330
c2
  100
AcDbEntity
  8
SK2
  100
AcDbBlockBegin
  2
*Dc1
  70
1
  10
0
  20
0
  30
0
  3
*Dc1
  1

  0
LINE
  5
c3
  330
c2
  100
AcDbEntity
  8
SK2
  100
AcDbLine
  10
-0
  20
2.475
  30
0
  11
-0
  21
20.175
  31
0
  0
LINE
  5
c4
  330
c2
  100
AcDbEntity
  8
SK2
  100
AcDbLine
  10
76.2
  20
-15.175
  30
0
  11
76.2
  21
20.175
  31
0
  0
LINE
  5
c5
  330
c2
  100
AcDbEntity
  8
SK2
  100
AcDbLine
  10
-0
  20
18.175
  30
0
  11
76.2
  21
18.175
  31
0
  0
SOLID
  5
c6
  330
c2
  100
AcDbEntity
  8
SK2
  100
AcDbTrace
  10
-0
  20
18.175
  30
0
  11
2.478612
  21
18.501315
  31
0
  12
2.478612
  22
17.848685
  32
0
  13
2.478612
  23
17.848685
  33
0
  0
SOLID
  5
c7
  330
c2
  100
AcDbEntity
  8
SK2
  100
AcDbTrace
  10
76.2
  20
18.175
  30
0
  11
73.721388
  21
17.848685
  31
0
  12
73.721388
  22
18.501315
  32
0
  13
73.721388
  23
18.501315
  33
0
  0
MTEXT
  5
c8
  330
c2
  100
AcDbEntity
  8
SK2
  100
AcDbMText
  10
38.1
  20
18.175
  30
0
  11
1
  21
0
  31
0
  40
2
  41
0
  71
8
  72
1
  1
76.2
  0
POINT
  5
c9
  330
c2
  100
AcDbEntity
  8
SK2
  62
0
  100
AcDbPoint
  10
-0
  20
2.475
  30
0
  0
POINT
  5
ca
  330
c2
  100
AcDbEntity
  8
SK2
  62
0
  100
AcDbPoint
  10
76.2
  20
-15.175
  30
0
  0
POINT
  5
cb
  330
c2
  100
AcDbEntity
  8
SK2
  62
0
  100
AcDbPoint
  10
76.2
  20
18.175
  30
0
  0
ENDBLK
  5
cc
  330
c2
  100
AcDbEntity
  8
SK2
  100
AcDbBlockEnd
  0
BLOCK
  5
ce
  330
d0
  100
AcDbEntity
  8
SK2
  100
AcDbBlockBegin
  2
*Dcf
  70
1
  10
0
  20
0
  30
0
  3
*Dcf
  1

  0
LINE
  5
d1
  330
d0
  100
AcDbEntity
  8
SK2
  100
AcDbLine
  10
46.1
  20
3.175
  30
0
  11
46.1
  21
15.175
  31
0
  0
LINE
  5
d2
  330
d0
  100
AcDbEntity
  8
SK2
  100
AcDbLine
  10
-0
  20
2.475
  30
0
  11
-0
  21
20.175
  31
0
  0
LINE
  5
d3
  330
d0
  100
AcDbEntity
  8
SK2
  100
AcDbLine
  10
46.1
  20
13.175
  30
0
  11
-0
  21
13.175
  31
0
  0
SOLID
  5
d4
  330
d0
  100
AcDbEntity
  8
SK2
  100
AcDbTrace
  10
46.1
  20
13.175
  30
0
  11
48.578612
  21
13.501315
  31
0
  12
48.578612
  22
12.848685
  32
0
  13
48.578612
  23
12.848685
  33
0
  0
SOLID
  5
d5
  330
d0
  100
AcDbEntity
  8
SK2
  100
AcDbTrace
  10
-0
  20
13.175
  30
0
  11
-2.478612
  21
12.848685
  31
0
  12
-2.478612
  22
13.501315
  32
0
  13
-2.478612
  23
13.501315
  33
0
  0
MTEXT
  5
d6
  330
d0
  100
AcDbEntity
  8
SK2
  100
AcDbMText
  10
23.05
  20
13.175
  30
0
  11
1
  21
0
  31
0
  40
2
  41
0
  71
8
  72
1
  1
46.1
  0
POINT
  5
d7
  330
d0
  100
AcDbEntity
  8
SK2
  62
0
  100
AcDbPoint
  10
46.1
  20
3.175
  30
0
  0
POINT
  5
d8
  330
d0
  100
AcDbEntity
  8
SK2
  62
0
  100
AcDbPoint
  10
-0
  20
2.475
  30
0
  0
POINT
  5
d9
  330
d0
  100
AcDbEntity
  8
SK2
  62
0
  100
AcDbPoint
  10
-0
  20
13.175
  30
0
  0
ENDBLK
  5
da
  330
d0
  100
AcDbEntity
  8
SK2
  100
AcDbBlockEnd
  0
BLOCK
  5
dc
  330
de
  100
AcDbEntity
  8
SK2
  100
AcDbBlockBegin
  2
*Ddd
  70
1
  10
0
  20
0
  30
0
  3
*Ddd
  1

  0
LINE
  5
df
  330
de
  100
AcDbEntity
  8
SK2
  100
AcDbLine
  10
0.7
  20
-3.175
  30
0
  11
-12
  21
-3.175
  31
0
  0
LINE
  5
e0
  330
de
  100
AcDbEntity
  8
SK2
  100
AcDbLine
  10
0.7
  20
3.175
  30
0
  11
-12
  21
3.175
  31
0
  0
LINE
  5
e1
  330
de
  100
AcDbEntity
  8
SK2
  100
AcDbLine
  10
-10
  20
-8.576733
  30
0
  11
-10
  21
3.175
  31
0
  0
SOLID
  5
e2
  330
de
  100
AcDbEntity
  8
SK2
  100
AcDbTrace
  10
-10
  20
-3.175
  30
0
  11
-10.326315
  21
-0.696388
  31
0
  12
-9.673685
  22
-0.696388
  32
0
  13
-9.673685
  23
-0.696388
  33
0
  0
SOLID
  5
e3
  330
de
  100
AcDbEntity
  8
SK2
  100
AcDbTrace
  10
-10
  20
3.175
  30
0
  11
-9.673685
  21
0.696388
  31
0
  12
-10.326315
  22
0.696388
  32
0
  13
-10.326315
  23
0.696388
  33
0
  0
MTEXT
  5
e4
  330
de
  100
AcDbEntity
  8
SK2
  100
AcDbMText
  10
-10
  20
0
  30
0
  11
0
  21
1
  31
0
  40
2
  41
0
  71
8
  72
1
  1
ﾘ6.35
  0
POINT
  5
e5
  330
de
  100
AcDbEntity
  8
SK2
  62
0
  100
AcDbPoint
  10
0.7
  20
-3.175
  30
0
  0
POINT
  5
e6
  330
de
  100
AcDbEntity
  8
SK2
  62
0
  100
AcDbPoint
  10
0.7
  20
3.175
  30
0
  0
POINT
  5
e7
  330
de
  100
AcDbEntity
  8
SK2
  62
0
  100
AcDbPoint
  10
-10
  20
3.175
  30
0
  0
ENDBLK
  5
e8
  330
de
  100
AcDbEntity
  8
SK2
  100
AcDbBlockEnd
  0
BLOCK
  5
ea
  330
ec
  100
AcDbEntity
  8
2
  100
AcDbBlockBegin
  2
*Deb
  70
1
  10
0
  20
0
  30
0
  3
*Deb
  1

  0
LINE
  5
ed
  330
ec
  100
AcDbEntity
  8
2
  100
AcDbLine
  10
75.406
  20
-0.794
  30
0
  11
88.2
  21
-0.794
  31
0
  0
LINE
  5
ee
  330
ec
  100
AcDbEntity
  8
2
  100
AcDbLine
  10
75.406
  20
0.794
  30
0
  11
88.2
  21
0.794
  31
0
  0
LINE
  5
ef
  330
ec
  100
AcDbEntity
  8
2
  100
AcDbLine
  10
86.2
  20
-10.39604
  30
0
  11
86.2
  21
0.794
  31
0
  0
SOLID
  5
f0
  330
ec
  100
AcDbEntity
  8
2
  100
AcDbTrace
  10
86.2
  20
-0.794
  30
0
  11
85.873685
  21
1.684612
  31
0
  12
86.526315
  22
1.684612
  32
0
  13
86.526315
  23
1.684612
  33
0
  0
SOLID
  5
f1
  330
ec
  100
AcDbEntity
  8
2
  100
AcDbTrace
  10
86.2
  20
0.794
  30
0
  11
86.526315
  21
-1.684612
  31
0
  12
85.873685
  22
-1.684612
  32
0
  13
85.873685
  23
-1.684612
  33
0
  0
MTEXT
  5
f2
  330
ec
  100
AcDbEntity
  8
2
  100
AcDbMText
  10
86.2
  20
0
  30
0
  11
0
  21
1
  31
0
  40
2
  41
0
  71
8
  72
1
  1
ﾘ1.588
  0
POINT
  5
f3
  330
ec
  100
AcDbEntity
  8
2
  62
0
  100
AcDbPoint
  10
75.406
  20
-0.794
  30
0
  0
POINT
  5
f4
  330
ec
  100
AcDbEntity
  8
2
  62
0
  100
AcDbPoint
  10
75.406
  20
0.794
  30
0
  0
POINT
  5
f5
  330
ec
  100
AcDbEntity
  8
2
  62
0
  100
AcDbPoint
  10
86.2
  20
0.794
  30
0
  0
ENDBLK
  5
f6
  330
ec
  100
AcDbEntity
  8
2
  100
AcDbBlockEnd
  0
BLOCK
  5
f8
  330
fa
  100
AcDbEntity
  8
2
  100
AcDbBlockBegin
  2
*Df9
  70
1
  10
0
  20
0
  30
0
  3
*Df9
  1

  0
LINE
  5
fb
  330
fa
  100
AcDbEntity
  8
2
  100
AcDbLine
  10
72.074906
  20
-3.331094
  30
0
  11
83.038511
  21
7.632511
  31
0
  0
MTEXT
  5
fc
  330
fa
  100
AcDbEntity
  8
2
  100
AcDbMText
  10
75.967443
  20
0.561443
  30
0
  11
0.707107
  21
0.707107
  31
0
  40
2
  41
0
  71
8
  72
1
  1
R0.794
  0
SOLID
  5
fd
  330
fa
  100
AcDbEntity
  8
2
  100
AcDbTrace
  10
75.967443
  20
0.561443
  30
0
  11
77.489346
  21
2.544826
  31
0
  12
77.950826
  22
2.083346
  32
0
  13
77.950826
  23
2.083346
  33
0
  0
POINT
  5
fe
  330
fa
  100
AcDbEntity
  8
2
  62
0
  100
AcDbPoint
  10
72.074906
  20
-3.331094
  30
0
  0
POINT
  5
ff
  330
fa
  100
AcDbEntity
  8
2
  62
0
  100
AcDbPoint
  10
75.406
  20
0
  30
0
  0
ENDBLK
  5
100
  330
fa
  100
AcDbEntity
  8
2
  100
AcDbBlockEnd
  0
BLOCK
  5
102
  330
104
  100
AcDbEntity
  8
2
  100
AcDbBlockBegin
  2
*D103
  70
1
  10
0
  20
0
  30
0
  3
*D103
  1

  0
LINE
  5
105
  330
104
  100
AcDbEntity
  8
2
  100
AcDbLine
  10
74.6
  20
-0.77
  30
0
  11
72.6
  21
-0.77
  31
0
  0
LINE
  5
106
  330
104
  100
AcDbEntity
  8
2
  100
AcDbLine
  10
74.6
  20
0.77
  30
0
  11
72.6
  21
0.77
  31
0
  0
LINE
  5
107
  330
104
  100
AcDbEntity
  8
2
  100
AcDbLine
  10
74.6
  20
-0.77
  30
0
  11
74.6
  21
9.096535
  31
0
  0
SOLID
  5
108
  330
104
  100
AcDbEntity
  8
2
  100
AcDbTrace
  10
74.6
  20
-0.77
  30
0
  11
74.273685
  21
1.708612
  31
0
  12
74.926315
  22
1.708612
  32
0
  13
74.926315
  23
1.708612
  33
0
  0
SOLID
  5
109
  330
104
  100
AcDbEntity
  8
2
  100
AcDbTrace
  10
74.6
  20
0.77
  30
0
  11
74.926315
  21
-1.708612
  31
0
  12
74.273685
  22
-1.708612
  32
0
  13
74.273685
  23
-1.708612
  33
0
  0
MTEXT
  5
10a
  330
104
  100
AcDbEntity
  8
2
  100
AcDbMText
  10
74.6
  20
0.77
  30
0
  11
0
  21
1
  31
0
  40
2
  41
0
  71
8
  72
1
  1
ﾘ1.54
  0
POINT
  5
10b
  330
104
  100
AcDbEntity
  8
2
  62
0
  100
AcDbPoint
  10
72.6
  20
-0.77
  30
0
  0
POINT
  5
10c
  330
104
  100
AcDbEntity
  8
2
  62
0
  100
AcDbPoint
  10
72.6
  20
0.77
  30
0
  0
POINT
  5
10d
  330
104
  100
AcDbEntity
  8
2
  62
0
  100
AcDbPoint
  10
74.6
  20
9.096535
  30
0
  0
ENDBLK
  5
10e
  330
104
  100
AcDbEntity
  8
2
  100
AcDbBlockEnd
  0
BLOCK
  5
110
  330
112
  100
AcDbEntity
  8
2
  100
AcDbBlockBegin
  2
*D111
  70
1
  10
0
  20
0
  30
0
  3
*D111
  1

  0
LINE
  5
113
  330
112
  100
AcDbEntity
  8
2
  100
AcDbLine
  10
74.6
  20
0.77
  30
0
  11
74.6
  21
9
  31
0
  0
LINE
  5
114
  330
112
  100
AcDbEntity
  8
2
  100
AcDbLine
  10
55.4
  20
0.77
  30
0
  11
55.4
  21
9
  31
0
  0
LINE
  5
115
  330
112
  100
AcDbEntity
  8
2
  100
AcDbLine
  10
76.280941
  20
7
  30
0
  11
55.4
  21
7
  31
0
  0
SOLID
  5
116
  330
112
  100
AcDbEntity
  8
2
  100
AcDbTrace
  10
74.6
  20
7
  30
0
  11
77.078612
  21
7.326315
  31
0
  12
77.078612
  22
6.673685
  32
0
  13
77.078612
  23
6.673685
  33
0
  0
SOLID
  5
117
  330
112
  100
AcDbEntity
  8
2
  100
AcDbTrace
  10
55.4
  20
7
  30
0
  11
52.921388
  21
6.673685
  31
0
  12
52.921388
  22
7.326315
  32
0
  13
52.921388
  23
7.326315
  33
0
  0
MTEXT
  5
118
  330
112
  100
AcDbEntity
  8
2
  100
AcDbMText
  10
73.384884
  20
7
  30
0
  11
1
  21
-0
  31
0
  40
2
  41
0
  71
8
  72
1
  1
19.2
  0
POINT
  5
119
  330
112
  100
AcDbEntity
  8
2
  62
0
  100
AcDbPoint
  10
74.6
  20
0.77
  30
0
  0
POINT
  5
11a
  330
112
  100
AcDbEntity
  8
2
  62
0
  100
AcDbPoint
  10
55.4
  20
0.77
  30
0
  0
POINT
  5
11b
  330
112
  100
AcDbEntity
  8
2
  62
0
  100
AcDbPoint
  10
55.4
  20
7
  30
0
  0
ENDBLK
  5
11c
  330
112
  100
AcDbEntity
  8
2
  100
AcDbBlockEnd
  0
BLOCK
  5
11e
  330
120
  100
AcDbEntity
  8
2
  100
AcDbBlockBegin
  2
*D11f
  70
1
  10
0
  20
0
  30
0
  3
*D11f
  1

  0
LINE
  5
121
  330
120
  100
AcDbEntity
  8
2
  100
AcDbLine
  10
76.2
  20
-15.175
  30
0
  11
76.2
  21
20.175
  31
0
  0
LINE
  5
122
  330
120
  100
AcDbEntity
  8
2
  100
AcDbLine
  10
46.1
  20
3.175
  30
0
  11
46.1
  21
10.175
  31
0
  0
LINE
  5
123
  330
120
  100
AcDbEntity
  8
2
  100
AcDbLine
  10
76.2
  20
8.175
  30
0
  11
46.1
  21
8.175
  31
0
  0
SOLID
  5
124
  330
120
  100
AcDbEntity
  8
2
  100
AcDbTrace
  10
76.2
  20
8.175
  30
0
  11
78.678612
  21
8.501315
  31
0
  12
78.678612
  22
7.848685
  32
0
  13
78.678612
  23
7.848685
  33
0
  0
SOLID
  5
125
  330
120
  100
AcDbEntity
  8
2
  100
AcDbTrace
  10
46.1
  20
8.175
  30
0
  11
43.621388
  21
7.848685
  31
0
  12
43.621388
  22
8.501315
  32
0
  13
43.621388
  23
8.501315
  33
0
  0
MTEXT
  5
126
  330
120
  100
AcDbEntity
  8
2
  100
AcDbMText
  10
61.15
  20
8.175
  30
0
  11
1
  21
-0
  31
0
  40
2
  41
0
  71
8
  72
1
  1
30.1
  0
POINT
  5
127
  330
120
  100
AcDbEntity
  8
2
  62
0
  100
AcDbPoint
  10
76.2
  20
-15.175
  30
0
  0
POINT
  5
128
  330
120
  100
AcDbEntity
  8
2
  62
0
  100
AcDbPoint
  10
46.1
  20
3.175
  30
0
  0
POINT
  5
129
  330
120
  100
AcDbEntity
  8
2
  62
0
  100
AcDbPoint
  10
46.1
  20
8.175
  30
0
  0
ENDBLK
  5
12a
  330
120
  100
AcDbEntity
  8
2
  100
AcDbBlockEnd
  0
BLOCK
  5
12c
  330
12e
  100
AcDbEntity
  8
2
  100
AcDbBlockBegin
  2
*D12d
  70
1
  10
0
  20
0
  30
0
  3
*D12d
  1

  0
LINE
  5
12f
  330
12e
  100
AcDbEntity
  8
2
  100
AcDbLine
  10
74.6
  20
-0.77
  30
0
  11
74.6
  21
-15.175
  31
0
  0
LINE
  5
130
  330
12e
  100
AcDbEntity
  8
2
  100
AcDbLine
  10
76.2
  20
-15.175
  30
0
  11
76.2
  21
20.175
  31
0
  0
LINE
  5
131
  330
12e
  100
AcDbEntity
  8
2
  100
AcDbLine
  10
70.82302
  20
-13.175
  30
0
  11
76.2
  21
-13.175
  31
0
  0
SOLID
  5
132
  330
12e
  100
AcDbEntity
  8
2
  100
AcDbTrace
  10
74.6
  20
-13.175
  30
0
  11
77.078612
  21
-12.848685
  31
0
  12
77.078612
  22
-13.501315
  32
0
  13
77.078612
  23
-13.501315
  33
0
  0
SOLID
  5
133
  330
12e
  100
AcDbEntity
  8
2
  100
AcDbTrace
  10
76.2
  20
-13.175
  30
0
  11
73.721388
  21
-13.501315
  31
0
  12
73.721388
  22
-12.848685
  32
0
  13
73.721388
  23
-12.848685
  33
0
  0
MTEXT
  5
134
  330
12e
  100
AcDbEntity
  8
2
  100
AcDbMText
  10
75.4
  20
-13.175
  30
0
  11
1
  21
-0
  31
0
  40
2
  41
0
  71
8
  72
1
  1
1.6
  0
POINT
  5
135
  330
12e
  100
AcDbEntity
  8
2
  62
0
  100
AcDbPoint
  10
74.6
  20
-0.77
  30
0
  0
POINT
  5
136
  330
12e
  100
AcDbEntity
  8
2
  62
0
  100
AcDbPoint
  10
76.2
  20
20.175
  30
0
  0
POINT
  5
137
  330
12e
  100
AcDbEntity
  8
2
  62
0
  100
AcDbPoint
  10
76.2
  20
-13.175
  30
0
  0
ENDBLK
  5
138
  330
12e
  100
AcDbEntity
  8
2
  100
AcDbBlockEnd
  0
ENDSEC
  0
SECTION
  2
ENTITIES
  0
DIMENSION
  5
cd
  100
AcDbEntity
  8
SK2
  100
AcDbDimension
  2
*Dc1
  10
76.2
  20
18.175
  30
0
  11
38.1
  21
18.175
  31
0
  70
160
  1
<>
  71
5
  3
STANDARD
  42
76.2
  100
AcDbAlignedDimension
  13
-0
  23
2.475
  33
0
  14
76.2
  24
-15.175
  34
0
  50
0
  100
AcDbRotatedDimension
  0
DIMENSION
  5
db
  100
AcDbEntity
  8
SK2
  100
AcDbDimension
  2
*Dcf
  10
-0
  20
13.175
  30
0
  11
23.05
  21
13.175
  31
0
  70
160
  1
<>
  71
5
  3
STANDARD
  42
46.1
  100
AcDbAlignedDimension
  13
46.1
  23
3.175
  33
0
  14
-0
  24
2.475
  34
0
  50
0
  100
AcDbRotatedDimension
  0
DIMENSION
  5
e9
  100
AcDbEntity
  8
SK2
  100
AcDbDimension
  2
*Ddd
  10
-10
  20
3.175
  30
0
  11
-10
  21
0
  31
0
  70
160
  1
%%c<>
  71
5
  3
STANDARD
  42
6.35
  100
AcDbAlignedDimension
  13
0.7
  23
-3.175
  33
0
  14
0.7
  24
3.175
  34
0
  50
-90
  100
AcDbRotatedDimension
  0
DIMENSION
  5
f7
  100
AcDbEntity
  8
2
  100
AcDbDimension
  2
*Deb
  10
86.2
  20
0.794
  30
0
  11
86.2
  21
0
  31
0
  70
160
  1
%%c<>
  71
5
  3
STANDARD
  42
1.588
  100
AcDbAlignedDimension
  13
75.406
  23
-0.794
  33
0
  14
75.406
  24
0.794
  34
0
  50
-90
  100
AcDbRotatedDimension
  0
DIMENSION
  5
101
  100
AcDbEntity
  8
2
  100
AcDbDimension
  2
*Df9
  10
75.406
  20
0
  30
0
  11
75.967443
  21
0.561443
  31
0
  70
164
  1
R0.794
  71
5
  3
STANDARD
  100
AcDbRadialDimension
  15
75.967443
  25
0.561443
  35
0
  50
45
  0
DIMENSION
  5
10f
  100
AcDbEntity
  8
2
  100
AcDbDimension
  2
*D103
  10
74.6
  20
9.096535
  30
0
  11
74.6
  21
0.77
  31
0
  70
160
  1
%%c<>
  71
5
  3
STANDARD
  42
1.54
  100
AcDbAlignedDimension
  13
72.6
  23
-0.77
  33
0
  14
72.6
  24
0.77
  34
0
  50
-90
  100
AcDbRotatedDimension
  0
DIMENSION
  5
11d
  100
AcDbEntity
  8
2
  100
AcDbDimension
  2
*D111
  10
55.4
  20
7
  30
0
  11
73.384884
  21
7
  31
0
  70
160
  1
<>
  71
5
  3
STANDARD
  42
19.2
  100
AcDbAlignedDimension
  13
74.6
  23
0.77
  33
0
  14
55.4
  24
0.77
  34
0
  50
0
  100
AcDbRotatedDimension
  0
DIMENSION
  5
12b
  100
AcDbEntity
  8
2
  100
AcDbDimension
  2
*D11f
  10
46.1
  20
8.175
  30
0
  11
61.15
  21
8.175
  31
0
  70
160
  1
<>
  71
5
  3
STANDARD
  42
30.1
  100
AcDbAlignedDimension
  13
76.2
  23
-15.175
  33
0
  14
46.1
  24
3.175
  34
0
  50
0
  100
AcDbRotatedDimension
  0
DIMENSION
  5
139
  100
AcDbEntity
  8
2
  100
AcDbDimension
  2
*D12d
  10
76.2
  20
-13.175
  30
0
  11
75.4
  21
-13.175
  31
0
  70
160
  1
<>
  71
5
  3
STANDARD
  42
1.6
  100
AcDbAlignedDimension
  13
74.6
  23
-0.77
  33
0
  14
76.2
  24
20.175
  34
0
  50
0
  100
AcDbRotatedDimension
  0
ARC
  5
36
  100
AcDbEntity
  8
1
  100
AcDbCircle
  10
55.487156
  20
-1.766195
  30
0
  40
1
  100
AcDbArc
  50
95
  51
105
  0
LINE
  5
37
  100
AcDbEntity
  8
1
  100
AcDbLine
  10
55.4
  20
-0.77
  30
0
  11
74.6
  21
-0.77
  31
0
  0
LINE
  5
38
  100
AcDbEntity
  8
1
  100
AcDbLine
  10
74.6
  20
-0.77
  30
0
  11
74.6
  21
-0.794
  31
0
  0
LINE
  5
39
  100
AcDbEntity
  8
1
  100
AcDbLine
  10
74.6
  20
-0.794
  30
0
  11
75.406
  21
-0.794
  31
0
  0
ARC
  5
3a
  100
AcDbEntity
  8
1
  100
AcDbCircle
  10
75.406
  20
0
  30
0
  40
0.794
  100
AcDbArc
  50
270
  51
0
  0
ARC
  5
3b
  100
AcDbEntity
  8
1
  100
AcDbCircle
  10
75.406
  20
0
  30
0
  40
0.794
  100
AcDbArc
  50
0
  51
90
  0
LINE
  5
3c
  100
AcDbEntity
  8
1
  100
AcDbLine
  10
75.406
  20
0.794
  30
0
  11
74.6
  21
0.794
  31
0
  0
LINE
  5
3d
  100
AcDbEntity
  8
1
  100
AcDbLine
  10
74.6
  20
0.794
  30
0
  11
74.6
  21
0.77
  31
0
  0
LINE
  5
3e
  100
AcDbEntity
  8
1
  100
AcDbLine
  10
74.6
  20
0.77
  30
0
  11
55.4
  21
0.77
  31
0
  0
ARC
  5
3f
  100
AcDbEntity
  8
1
  100
AcDbCircle
  10
55.487156
  20
1.766195
  30
0
  40
1
  100
AcDbArc
  50
255
  51
265
  0
LINE
  5
40
  100
AcDbEntity
  8
1
  100
AcDbLine
  10
55.228337
  20
0.800269
  30
0
  11
46.365719
  21
3.175
  31
0
  0
LINE
  5
41
  100
AcDbEntity
  8
1
  100
AcDbLine
  10
46.365719
  20
3.175
  30
0
  11
46.1
  21
3.175
  31
0
  0
LINE
  5
42
  100
AcDbEntity
  8
1
  100
AcDbLine
  10
46.1
  20
3.175
  30
0
  11
46.1
  21
-3.175
  31
0
  0
LINE
  5
43
  100
AcDbEntity
  8
1
  100
AcDbLine
  10
46.1
  20
-3.175
  30
0
  11
46.365719
  21
-3.175
  31
0
  0
LINE
  5
44
  100
AcDbEntity
  8
1
  100
AcDbLine
  10
46.365719
  20
-3.175
  30
0
  11
55.228337
  21
-0.800269
  31
0
  0
LINE
  5
45
  100
AcDbEntity
  8
1
  100
AcDbLine
  10
46.1
  20
-3.175
  30
0
  11
46.1
  21
3.175
  31
0
  0
LINE
  5
46
  100
AcDbEntity
  8
1
  100
AcDbLine
  10
46.1
  20
3.175
  30
0
  11
46.1
  21
-3.175
  31
0
  0
LINE
  5
47
  100
AcDbEntity
  8
1
  100
AcDbLine
  10
46.365719
  20
3.175
  30
0
  11
46.365719
  21
-3.175
  31
0
  0
LINE
  5
48
  100
AcDbEntity
  8
1
  100
AcDbLine
  10
55.228337
  20
-0.800269
  30
0
  11
55.228337
  21
0.800269
  31
0
  0
LINE
  5
49
  100
AcDbEntity
  8
1
  100
AcDbLine
  10
55.4
  20
0.77
  30
0
  11
55.4
  21
-0.77
  31
0
  0
LINE
  5
4a
  100
AcDbEntity
  8
1
  100
AcDbLine
  10
74.7
  20
-0.29099
  30
0
  11
74.8
  21
-0.343119
  31
0
  0
LINE
  5
4b
  100
AcDbEntity
  8
1
  100
AcDbLine
  10
74.8
  20
-0.343119
  30
0
  11
74.9
  21
-0.393436
  31
0
  0
LINE
  5
4c
  100
AcDbEntity
  8
1
  100
AcDbLine
  10
74.9
  20
-0.393436
  30
0
  11
75
  21
-0.441672
  31
0
  0
LINE
  5
4d
  100
AcDbEntity
  8
1
  100
AcDbLine
  10
75
  20
-0.441672
  30
0
  11
75.1
  21
-0.487575
  31
0
  0
LINE
  5
4e
  100
AcDbEntity
  8
1
  100
AcDbLine
  10
75.1
  20
-0.487575
  30
0
  11
75.2
  21
-0.530901
  31
0
  0
LINE
  5
4f
  100
AcDbEntity
  8
1
  100
AcDbLine
  10
75.2
  20
-0.530901
  30
0
  11
75.3
  21
-0.571421
  31
0
  0
LINE
  5
50
  100
AcDbEntity
  8
1
  100
AcDbLine
  10
75.3
  20
-0.571421
  30
0
  11
75.4
  21
-0.608921
  31
0
  0
LINE
  5
51
  100
AcDbEntity
  8
1
  100
AcDbLine
  10
75.4
  20
-0.608921
  30
0
  11
75.5
  21
-0.637883
  31
0
  0
LINE
  5
52
  100
AcDbEntity
  8
1
  100
AcDbLine
  10
75.5
  20
-0.637883
  30
0
  11
75.6
  21
-0.650553
  31
0
  0
LINE
  5
53
  100
AcDbEntity
  8
1
  100
AcDbLine
  10
75.6
  20
-0.650553
  30
0
  11
75.7
  21
-0.645064
  31
0
  0
LINE
  5
54
  100
AcDbEntity
  8
1
  100
AcDbLine
  10
75.7
  20
-0.645064
  30
0
  11
75.8
  21
-0.618879
  31
0
  0
LINE
  5
55
  100
AcDbEntity
  8
1
  100
AcDbLine
  10
75.8
  20
-0.618879
  30
0
  11
75.9
  21
-0.567931
  31
0
  0
LINE
  5
56
  100
AcDbEntity
  8
1
  100
AcDbLine
  10
75.9
  20
-0.567931
  30
0
  11
76
  21
-0.485822
  31
0
  0
LINE
  5
57
  100
AcDbEntity
  8
1
  100
AcDbLine
  10
76
  20
-0.515484
  30
0
  11
76
  21
-0.526878
  31
0
  0
LINE
  5
58
  100
AcDbEntity
  8
1
  100
AcDbLine
  10
76
  20
-0.526878
  30
0
  11
76
  21
-0.515484
  31
0
  0
LINE
  5
59
  100
AcDbEntity
  8
1
  100
AcDbLine
  10
76
  20
-0.515484
  30
0
  11
75.9
  21
-0.601158
  31
0
  0
LINE
  5
5a
  100
AcDbEntity
  8
1
  100
AcDbLine
  10
75.9
  20
-0.601158
  30
0
  11
75.8
  21
-0.656019
  31
0
  0
LINE
  5
5b
  100
AcDbEntity
  8
1
  100
AcDbLine
  10
75.8
  20
-0.656019
  30
0
  11
75.7
  21
-0.686489
  31
0
  0
LINE
  5
5c
  100
AcDbEntity
  8
1
  100
AcDbLine
  10
75.7
  20
-0.686489
  30
0
  11
75.6
  21
-0.696377
  31
0
  0
LINE
  5
5d
  100
AcDbEntity
  8
1
  100
AcDbLine
  10
75.6
  20
-0.696377
  30
0
  11
75.5
  21
-0.688088
  31
0
  0
LINE
  5
5e
  100
AcDbEntity
  8
1
  100
AcDbLine
  10
75.5
  20
-0.688088
  30
0
  11
75.4
  21
-0.663405
  31
0
  0
LINE
  5
5f
  100
AcDbEntity
  8
1
  100
AcDbLine
  10
75.4
  20
-0.663405
  30
0
  11
75.3
  21
-0.629957
  31
0
  0
LINE
  5
60
  100
AcDbEntity
  8
1
  100
AcDbLine
  10
75.3
  20
-0.629957
  30
0
  11
75.2
  21
-0.59318
  31
0
  0
LINE
  5
61
  100
AcDbEntity
  8
1
  100
AcDbLine
  10
75.2
  20
-0.59318
  30
0
  11
75.1
  21
-0.553267
  31
0
  0
LINE
  5
62
  100
AcDbEntity
  8
1
  100
AcDbLine
  10
75.1
  20
-0.553267
  30
0
  11
75
  21
-0.510431
  31
0
  0
LINE
  5
63
  100
AcDbEntity
  8
1
  100
AcDbLine
  10
75
  20
-0.510431
  30
0
  11
74.9
  21
-0.464897
  31
0
  0
LINE
  5
64
  100
AcDbEntity
  8
1
  100
AcDbLine
  10
74.9
  20
-0.464897
  30
0
  11
74.8
  21
-0.416906
  31
0
  0
LINE
  5
65
  100
AcDbEntity
  8
1
  100
AcDbLine
  10
74.8
  20
-0.416906
  30
0
  11
74.7
  21
-0.366712
  31
0
  0
LINE
  5
66
  100
AcDbEntity
  8
1
  100
AcDbLine
  10
74.7
  20
-0.366712
  30
0
  11
74.6
  21
-0.31458
  31
0
  0
LINE
  5
67
  100
AcDbEntity
  8
1
  100
AcDbLine
  10
74.6
  20
-0.31458
  30
0
  11
74.6
  21
-0.30197
  31
0
  0
LINE
  5
68
  100
AcDbEntity
  8
1
  100
AcDbLine
  10
74.6
  20
-0.30197
  30
0
  11
74.5
  21
-0.249906
  31
0
  0
LINE
  5
69
  100
AcDbEntity
  8
1
  100
AcDbLine
  10
74.5
  20
-0.249906
  30
0
  11
74.4
  21
-0.750737
  31
0
  0
LINE
  5
6a
  100
AcDbEntity
  8
1
  100
AcDbLine
  10
74.4
  20
-0.750737
  30
0
  11
74.4
  21
-0.757281
  31
0
  0
LINE
  5
6b
  100
AcDbEntity
  8
1
  100
AcDbLine
  10
74.4
  20
-0.757281
  30
0
  11
74.415348
  21
-0.77
  31
0
  0
LINE
  5
6c
  100
AcDbEntity
  8
1
  100
AcDbLine
  10
74.6
  20
-0.77
  30
0
  11
74.6
  21
0.77
  31
0
  0
LINE
  5
6d
  100
AcDbEntity
  8
1
  100
AcDbLine
  10
74.6
  20
0.794
  30
0
  11
74.6
  21
-0.794
  31
0
  0
LINE
  5
6e
  100
AcDbEntity
  8
1
  100
AcDbLine
  10
74.415348
  20
0.77
  30
0
  11
74.5
  21
0.044823
  31
0
  0
LINE
  5
6f
  100
AcDbEntity
  8
1
  100
AcDbLine
  10
74.5
  20
0.044823
  30
0
  11
74.6
  21
-0.030956
  31
0
  0
LINE
  5
70
  100
AcDbEntity
  8
1
  100
AcDbLine
  10
74.6
  20
-0.030956
  30
0
  11
74.6
  21
-0.046267
  31
0
  0
LINE
  5
71
  100
AcDbEntity
  8
1
  100
AcDbLine
  10
74.6
  20
-0.046267
  30
0
  11
74.7
  21
-0.103731
  31
0
  0
LINE
  5
72
  100
AcDbEntity
  8
1
  100
AcDbLine
  10
74.7
  20
-0.103731
  30
0
  11
74.8
  21
-0.160647
  31
0
  0
LINE
  5
73
  100
AcDbEntity
  8
1
  100
AcDbLine
  10
74.8
  20
-0.160647
  30
0
  11
74.9
  21
-0.216714
  31
0
  0
LINE
  5
74
  100
AcDbEntity
  8
1
  100
AcDbLine
  10
74.9
  20
-0.216714
  30
0
  11
75
  21
-0.271635
  31
0
  0
LINE
  5
75
  100
AcDbEntity
  8
1
  100
AcDbLine
  10
75
  20
-0.271635
  30
0
  11
75.1
  21
-0.325121
  31
0
  0
LINE
  5
76
  100
AcDbEntity
  8
1
  100
AcDbLine
  10
75.1
  20
-0.325121
  30
0
  11
75.2
  21
-0.376888
  31
0
  0
LINE
  5
77
  100
AcDbEntity
  8
1
  100
AcDbLine
  10
75.2
  20
-0.376888
  30
0
  11
75.3
  21
-0.426664
  31
0
  0
LINE
  5
78
  100
AcDbEntity
  8
1
  100
AcDbLine
  10
75.3
  20
-0.426664
  30
0
  11
75.4
  21
-0.474184
  31
0
  0
LINE
  5
79
  100
AcDbEntity
  8
1
  100
AcDbLine
  10
75.4
  20
-0.474184
  30
0
  11
75.5
  21
-0.513101
  31
0
  0
LINE
  5
7a
  100
AcDbEntity
  8
1
  100
AcDbLine
  10
75.5
  20
-0.513101
  30
0
  11
75.6
  21
-0.534487
  31
0
  0
LINE
  5
7b
  100
AcDbEntity
  8
1
  100
AcDbLine
  10
75.6
  20
-0.534487
  30
0
  11
75.7
  21
-0.535928
  31
0
  0
LINE
  5
7c
  100
AcDbEntity
  8
1
  100
AcDbLine
  10
75.7
  20
-0.535928
  30
0
  11
75.8
  21
-0.513667
  31
0
  0
LINE
  5
7d
  100
AcDbEntity
  8
1
  100
AcDbLine
  10
75.8
  20
-0.513667
  30
0
  11
75.9
  21
-0.460559
  31
0
  0
LINE
  5
7e
  100
AcDbEntity
  8
1
  100
AcDbLine
  10
75.9
  20
-0.460559
  30
0
  11
76
  21
-0.357803
  31
0
  0
LINE
  5
7f
  100
AcDbEntity
  8
1
  100
AcDbLine
  10
76
  20
-0.357803
  30
0
  11
76
  21
0.526878
  31
0
  0
LINE
  5
80
  100
AcDbEntity
  8
1
  100
AcDbLine
  10
76
  20
0.526878
  30
0
  11
76
  21
-0.357803
  31
0
  0
LINE
  5
81
  100
AcDbEntity
  8
1
  100
AcDbLine
  10
75.406
  20
-0.794
  30
0
  11
75.406
  21
0.794
  31
0
  0
LINE
  5
82
  100
AcDbEntity
  8
SK1
  100
AcDbLine
  10
46.1
  20
3.175
  30
0
  11
0.7
  21
3.175
  31
0
  0
LINE
  5
83
  100
AcDbEntity
  8
SK1
  100
AcDbLine
  10
0.7
  20
3.175
  30
0
  11
-0
  21
2.475
  31
0
  0
LINE
  5
84
  100
AcDbEntity
  8
SK1
  100
AcDbLine
  10
46.1
  20
-3.175
  30
0
  11
0.7
  21
-3.175
  31
0
  0
LINE
  5
85
  100
AcDbEntity
  8
SK1
  100
AcDbLine
  10
0.7
  20
-3.175
  30
0
  11
-0
  21
-2.475
  31
0
  0
LINE
  5
86
  100
AcDbEntity
  8
SK1
  100
AcDbLine
  10
0.7
  20
3.175
  30
0
  11
0.7
  21
-3.175
  31
0
  0
LINE
  5
87
  100
AcDbEntity
  8
SK1
  100
AcDbLine
  10
-0
  20
2.475
  30
0
  11
-0
  21
-2.475
  31
0
  0
LINE
  5
88
  100
AcDbEntity
  8
SK1
  100
AcDbLine
  10
47.1401
  20
1.40688
  30
0
  11
47.5069
  21
1.0401
  31
0
  0
LINE
  5
89
  100
AcDbEntity
  8
SK1
  100
AcDbLine
  10
46.6328
  20
1.66666
  30
0
  11
47.7667
  21
0.532833
  31
0
  0
LINE
  5
8a
  100
AcDbEntity
  8
SK1
  100
AcDbLine
  10
46.3154
  20
1.73657
  30
0
  11
47.8366
  21
0.215434
  31
0
  0
LINE
  5
8b
  100
AcDbEntity
  8
SK1
  100
AcDbLine
  10
46.1
  20
1.70452
  30
0
  11
47.8045
  21
0
  31
0
  0
LINE
  5
8c
  100
AcDbEntity
  8
SK1
  100
AcDbLine
  10
46.1
  20
1.45703
  30
0
  11
47.557
  21
0
  31
0
  0
LINE
  5
8d
  100
AcDbEntity
  8
SK1
  100
AcDbLine
  10
46.1
  20
1.20954
  30
0
  11
47.3095
  21
0
  31
0
  0
LINE
  5
8e
  100
AcDbEntity
  8
SK1
  100
AcDbLine
  10
46.1
  20
0.962054
  30
0
  11
47.0621
  21
0
  31
0
  0
LINE
  5
8f
  100
AcDbEntity
  8
SK1
  100
AcDbLine
  10
46.1
  20
0.714566
  30
0
  11
46.8146
  21
0
  31
0
  0
LINE
  5
90
  100
AcDbEntity
  8
SK1
  100
AcDbLine
  10
46.1
  20
0.467079
  30
0
  11
46.5671
  21
0
  31
0
  0
LINE
  5
91
  100
AcDbEntity
  8
SK1
  100
AcDbLine
  10
46.1
  20
0.219592
  30
0
  11
46.3196
  21
0
  31
0
  0
LINE
  5
92
  100
AcDbEntity
  8
SK1
  100
AcDbLine
  10
46.1
  20
1.70452
  30
0
  11
46.1441
  21
1.74861
  31
0
  0
LINE
  5
93
  100
AcDbEntity
  8
SK1
  100
AcDbLine
  10
46.1
  20
1.45703
  30
0
  11
46.371
  21
1.72802
  31
0
  0
LINE
  5
94
  100
AcDbEntity
  8
SK1
  100
AcDbLine
  10
46.1
  20
1.20954
  30
0
  11
46.5742
  21
1.6837
  31
0
  0
LINE
  5
95
  100
AcDbEntity
  8
SK1
  100
AcDbLine
  10
46.1
  20
0.962054
  30
0
  11
46.7588
  21
1.62082
  31
0
  0
LINE
  5
96
  100
AcDbEntity
  8
SK1
  100
AcDbLine
  10
46.1
  20
0.714566
  30
0
  11
46.9271
  21
1.54167
  31
0
  0
LINE
  5
97
  100
AcDbEntity
  8
SK1
  100
AcDbLine
  10
46.1
  20
0.467079
  30
0
  11
47.081
  21
1.44812
  31
0
  0
LINE
  5
98
  100
AcDbEntity
  8
SK1
  100
AcDbLine
  10
46.1
  20
0.219592
  30
0
  11
47.2226
  21
1.34216
  31
0
  0
LINE
  5
99
  100
AcDbEntity
  8
SK1
  100
AcDbLine
  10
46.1279
  20
0
  30
0
  11
47.3508
  21
1.22288
  31
0
  0
LINE
  5
9a
  100
AcDbEntity
  8
SK1
  100
AcDbLine
  10
46.3754
  20
0
  30
0
  11
47.467
  21
1.09157
  31
0
  0
LINE
  5
9b
  100
AcDbEntity
  8
SK1
  100
AcDbLine
  10
46.6229
  20
0
  30
0
  11
47.5707
  21
0.947822
  31
0
  0
LINE
  5
9c
  100
AcDbEntity
  8
SK1
  100
AcDbLine
  10
46.8704
  20
0
  30
0
  11
47.6605
  21
0.790145
  31
0
  0
LINE
  5
9d
  100
AcDbEntity
  8
SK1
  100
AcDbLine
  10
47.1178
  20
0
  30
0
  11
47.7364
  21
0.618517
  31
0
  0
LINE
  5
9e
  100
AcDbEntity
  8
SK1
  100
AcDbLine
  10
47.3653
  20
0
  30
0
  11
47.796
  21
0.430696
  31
0
  0
LINE
  5
9f
  100
AcDbEntity
  8
SK1
  100
AcDbLine
  10
47.6128
  20
0
  30
0
  11
47.8356
  21
0.222827
  31
0
  0
LINE
  5
a0
  100
AcDbEntity
  8
SK1
  100
AcDbLine
  10
46.1
  20
0
  30
0
  11
46.1
  21
1.75
  31
0
  0
LINE
  5
a1
  100
AcDbEntity
  8
SK1
  100
AcDbLine
  10
46.1
  20
0
  30
0
  11
47.85
  21
0
  31
0
  0
ARC
  5
a2
  100
AcDbEntity
  8
SK1
  100
AcDbCircle
  10
46.1
  20
0
  30
0
  40
1.75
  100
AcDbArc
  50
0
  51
90
  0
ARC
  5
a3
  100
AcDbEntity
  8
SK1
  100
AcDbCircle
  10
46.1
  20
0
  30
0
  40
1.75
  100
AcDbArc
  50
90
  51
180
  0
LINE
  5
a4
  100
AcDbEntity
  8
SK1
  100
AcDbLine
  10
46.0721
  20
0
  30
0
  11
46.1
  21
-0.027896
  31
0
  0
LINE
  5
a5
  100
AcDbEntity
  8
SK1
  100
AcDbLine
  10
45.8246
  20
0
  30
0
  11
46.1
  21
-0.275383
  31
0
  0
LINE
  5
a6
  100
AcDbEntity
  8
SK1
  100
AcDbLine
  10
45.5771
  20
0
  30
0
  11
46.1
  21
-0.522871
  31
0
  0
LINE
  5
a7
  100
AcDbEntity
  8
SK1
  100
AcDbLine
  10
45.3296
  20
0
  30
0
  11
46.1
  21
-0.770358
  31
0
  0
LINE
  5
a8
  100
AcDbEntity
  8
SK1
  100
AcDbLine
  10
45.0822
  20
0
  30
0
  11
46.1
  21
-1.01785
  31
0
  0
LINE
  5
a9
  100
AcDbEntity
  8
SK1
  100
AcDbLine
  10
44.8347
  20
0
  30
0
  11
46.1
  21
-1.26533
  31
0
  0
LINE
  5
aa
  100
AcDbEntity
  8
SK1
  100
AcDbLine
  10
44.5872
  20
0
  30
0
  11
46.1
  21
-1.51282
  31
0
  0
LINE
  5
ab
  100
AcDbEntity
  8
SK1
  100
AcDbLine
  10
44.3503
  20
-0.010642
  30
0
  11
46.0894
  21
-1.74967
  31
0
  0
LINE
  5
ac
  100
AcDbEntity
  8
SK1
  100
AcDbLine
  10
44.3736
  20
-0.281429
  30
0
  11
45.8186
  21
-1.72637
  31
0
  0
LINE
  5
ad
  100
AcDbEntity
  8
SK1
  100
AcDbLine
  10
44.4639
  20
-0.619147
  30
0
  11
45.4809
  21
-1.63613
  31
0
  0
LINE
  5
ae
  100
AcDbEntity
  8
SK1
  100
AcDbLine
  10
44.3514
  20
-0.044098
  30
0
  11
44.3955
  21
0
  31
0
  0
LINE
  5
af
  100
AcDbEntity
  8
SK1
  100
AcDbLine
  10
44.372
  20
-0.270991
  30
0
  11
44.643
  21
0
  31
0
  0
LINE
  5
b0
  100
AcDbEntity
  8
SK1
  100
AcDbLine
  10
44.4163
  20
-0.474162
  30
0
  11
44.8905
  21
0
  31
0
  0
LINE
  5
b1
  100
AcDbEntity
  8
SK1
  100
AcDbLine
  10
44.4792
  20
-0.658762
  30
0
  11
45.1379
  21
0
  31
0
  0
LINE
  5
b2
  100
AcDbEntity
  8
SK1
  100
AcDbLine
  10
44.5583
  20
-0.827105
  30
0
  11
45.3854
  21
0
  31
0
  0
LINE
  5
b3
  100
AcDbEntity
  8
SK1
  100
AcDbLine
  10
44.6519
  20
-0.981039
  30
0
  11
45.6329
  21
0
  31
0
  0
LINE
  5
b4
  100
AcDbEntity
  8
SK1
  100
AcDbLine
  10
44.7578
  20
-1.12257
  30
0
  11
45.8804
  21
0
  31
0
  0
LINE
  5
b5
  100
AcDbEntity
  8
SK1
  100
AcDbLine
  10
44.8771
  20
-1.25077
  30
0
  11
46.1
  21
-0.027896
  31
0
  0
LINE
  5
b6
  100
AcDbEntity
  8
SK1
  100
AcDbLine
  10
45.0084
  20
-1.36695
  30
0
  11
46.1
  21
-0.275383
  31
0
  0
LINE
  5
b7
  100
AcDbEntity
  8
SK1
  100
AcDbLine
  10
45.1522
  20
-1.47069
  30
0
  11
46.1
  21
-0.522871
  31
0
  0
LINE
  5
b8
  100
AcDbEntity
  8
SK1
  100
AcDbLine
  10
45.3099
  20
-1.5605
  30
0
  11
46.1
  21
-0.770358
  31
0
  0
LINE
  5
b9
  100
AcDbEntity
  8
SK1
  100
AcDbLine
  10
45.4815
  20
-1.63636
  30
0
  11
46.1
  21
-1.01785
  31
0
  0
LINE
  5
ba
  100
AcDbEntity
  8
SK1
  100
AcDbLine
  10
45.6693
  20
-1.69603
  30
0
  11
46.1
  21
-1.26533
  31
0
  0
LINE
  5
bb
  100
AcDbEntity
  8
SK1
  100
AcDbLine
  10
45.8772
  20
-1.73565
  30
0
  11
46.1
  21
-1.51282
  31
0
  0
LINE
  5
bc
  100
AcDbEntity
  8
SK1
  100
AcDbLine
  10
46.1
  20
0
  30
0
  11
44.35
  21
0
  31
0
  0
LINE
  5
bd
  100
AcDbEntity
  8
SK1
  100
AcDbLine
  10
46.1
  20
-1.75
  30
0
  11
46.1
  21
0
  31
0
  0
ARC
  5
be
  100
AcDbEntity
  8
SK1
  100
AcDbCircle
  10
46.1
  20
0
  30
0
  40
1.75
  100
AcDbArc
  50
180
  51
270
  0
ARC
  5
bf
  100
AcDbEntity
  8
SK1
  100
AcDbCircle
  10
46.1
  20
0
  30
0
  40
1.75
  100
AcDbArc
  50
270
  51
0
  0
LINE
  5
13a
  100
AcDbEntity
  8
NOCUT
  100
AcDbLine
  10
74.6
  20
0
  30
0
  11
74.6
  21
0.77
  31
0
  0
LINE
  5
13b
  100
AcDbEntity
  8
NOCUT
  100
AcDbLine
  10
74.6
  20
0.77
  30
0
  11
55.4
  21
0.77
  31
0
  0
ARC
  5
13c
  100
AcDbEntity
  8
NOCUT
  100
AcDbCircle
  10
55.487156
  20
1.766195
  30
0
  40
1
  100
AcDbArc
  50
255
  51
265
  0
LINE
  5
13d
  100
AcDbEntity
  8
NOCUT
  100
AcDbLine
  10
55.228337
  20
0.800269
  30
0
  11
46.365719
  21
3.175
  31
0
  0
LINE
  5
13e
  100
AcDbEntity
  8
NOCUT
  100
AcDbLine
  10
46.365719
  20
3.175
  30
0
  11
46.1
  21
3.175
  31
0
  0
LINE
  5
13f
  100
AcDbEntity
  8
NOCUT
  100
AcDbLine
  10
46.1
  20
3.175
  30
0
  11
46.1
  21
0
  31
0
  0
LINE
  5
140
  100
AcDbEntity
  8
NOCUT
  100
AcDbLine
  10
46.1
  20
0
  30
0
  11
74.6
  21
0
  31
0
  0
ARC
  5
141
  100
AcDbEntity
  8
CUT
  100
AcDbCircle
  10
75.406
  20
0
  30
0
  40
0.794
  100
AcDbArc
  50
0
  51
90
  0
LINE
  5
142
  100
AcDbEntity
  8
CUT
  100
AcDbLine
  10
75.406
  20
0.794
  30
0
  11
74.6
  21
0.794
  31
0
  0
LINE
  5
143
  100
AcDbEntity
  8
CUT
  100
AcDbLine
  10
74.6
  20
0.794
  30
0
  11
74.6
  21
0
  31
0
  0
LINE
  5
144
  100
AcDbEntity
  8
CUT
  100
AcDbLine
  10
74.6
  20
0
  30
0
  11
76.2
  21
0
  31
0
  0
LINE
  5
145
  100
AcDbEntity
  8
4
  100
AcDbLine
  10
46.1
  20
0
  30
0
  11
76.2
  21
0
  31
0
  0
LINE
  5
146
  100
AcDbEntity
  8
SK4
  100
AcDbLine
  10
-1
  20
0
  30
0
  11
77.2
  21
0
  31
0
  0
LINE
  5
147
  100
AcDbEntity
  8
INFTOTAL
  100
AcDbLine
  10
-17.01
  20
25.185
  30
0
  11
93.21
  21
25.185
  31
0
  0
LINE
  5
148
  100
AcDbEntity
  8
INFTOTAL
  100
AcDbLine
  10
93.21
  20
25.185
  30
0
  11
93.21
  21
-20.185
  31
0
  0
LINE
  5
149
  100
AcDbEntity
  8
INFTOTAL
  100
AcDbLine
  10
93.21
  20
-20.185
  30
0
  11
-17.01
  21
-20.185
  31
0
  0
LINE
  5
14a
  100
AcDbEntity
  8
INFTOTAL
  100
AcDbLine
  10
-17.01
  20
-20.185
  30
0
  11
-17.01
  21
25.185
  31
0
  0
ENDSEC
  0
SECTION
  2
OBJECTS
  0
DICTIONARY
  5
14b
  330
0
100
AcDbDictionary
281
    1
  3
ACAD_GROUP
  350
14c
  0
DICTIONARY
  5
14c
102
{ACAD_REACTORS
  330
14b
102
}
  330
14b
100
AcDbDictionary
281
    1
  0
ENDSEC
  0
EOF
