  0
SECTION
  2
HEADER
  9
$ACADVER
  1
AC1015
  9
$DWGCODEPAGE
  3
ANSI_932
  9
$HANDSEED
  5
106AB90
  0
ENDSEC
  0
SECTION
  2
CLASSES
  0
CLASS
  1
IMAGEDEF
  2
AcDbRasterImageDef
  3
ISM
  90
0
  91
4
  280
0
  281
0
  0
CLASS
  1
IMAGE
  2
AcDbRasterImage
  3
ISM
  90
127
  91
5
  280
0
  281
1
  0
CLASS
  1
IMAGEDEF_REACTOR
  2
AcDbRasterImageDefReactor
  3
ISM
  90
1
  91
4
  280
0
  281
0
  0
ENDSEC
  0
SECTION
  2
TABLES
  0
TABLE
  2
VPORT
  5
2
  330
0
  100
AcDbSymbolTable
  70
    0
  0
ENDTAB
  0
TABLE
  2
LTYPE
  5
3
  330
0
  100
AcDbSymbolTable
  70
    4
  0
LTYPE
  5
4
  330
3
  100
AcDbSymbolTableRecord
  100
AcDbLinetypeTableRecord
  2
ByBlock
  70
    0
  3

  72
65
  73
    0
  40
0
  0
LTYPE
  5
5
  330
3
  100
AcDbSymbolTableRecord
  100
AcDbLinetypeTableRecord
  2
ByLayer
  70
    0
  3

  72
65
  73
    0
  40
0
  0
LTYPE
  5
6
  330
3
  100
AcDbSymbolTableRecord
  100
AcDbLinetypeTableRecord
  2
CONTINUOUS
  70
    0
  3
Solid Line
  72
65
  73
    0
  40
0
  0
LTYPE
  5
7
  330
3
  100
AcDbSymbolTableRecord
  100
AcDbLinetypeTableRecord
  2
DASH
  70
    0
  3
Hidden
  72
65
  73
2
  40
2.5
  49
1.5
  74
0
  49
-1
  74
0
  0
LTYPE
  5
8
  330
3
  100
AcDbSymbolTableRecord
  100
AcDbLinetypeTableRecord
  2
LONGDASHDASH
  70
    0
  3
__ . __
  72
65
  73
    4
  40
7
  49
4
  74
    0
  49
-1
  74
    0
  49
1
  74
    0
  49
-1
  74
    0
  0
ENDTAB
  0
TABLE
  2
LAYER
  5
9
  330
0
  100
AcDbSymbolTable
  70
    40
  0
LAYER
  5
a
  330
9
  100
AcDbSymbolTableRecord
  100
AcDbLayerTableRecord
  2
0
  70
    0
  62
    0
  6
CONTINUOUS
  390
0
  0
LAYER
  5
c
  330
9
  100
AcDbSymbolTableRecord
  100
AcDbLayerTableRecord
  2
1
  70
    0
  62
    4
  6
CONTINUOUS
  370
50
  390
0
  0
LAYER
  5
d
  330
9
  100
AcDbSymbolTableRecord
  100
AcDbLayerTableRecord
  2
2
  70
    0
  62
    7
  6
CONTINUOUS
  370
25
  390
0
  0
LAYER
  5
f
  330
9
  100
AcDbSymbolTableRecord
  100
AcDbLayerTableRecord
  2
4
  70
    0
  62
    2
  6
LONGDASHDASH
  370
25
  390
0
  0
LAYER
  5
13
  330
9
  100
AcDbSymbolTableRecord
  100
AcDbLayerTableRecord
  2
SK1
  70
    0
  62
    4
  6
CONTINUOUS
  370
50
  390
0
  0
LAYER
  5
14
  330
9
  100
AcDbSymbolTableRecord
  100
AcDbLayerTableRecord
  2
SK2
  70
    0
  62
    7
  6
CONTINUOUS
  370
25
  390
0
  0
LAYER
  5
16
  330
9
  100
AcDbSymbolTableRecord
  100
AcDbLayerTableRecord
  2
SK4
  70
    0
  62
    2
  6
LONGDASHDASH
  370
25
  390
0
  0
LAYER
  5
21
  330
9
  100
AcDbSymbolTableRecord
  100
AcDbLayerTableRecord
  2
NOCUT
  70
    0
  62
    7
  6
CONTINUOUS
  370
25
  390
0
  0
LAYER
  5
22
  330
9
  100
AcDbSymbolTableRecord
  100
AcDbLayerTableRecord
  2
CUT
  70
    0
  62
    1
  6
CONTINUOUS
  370
25
  390
0
  0
LAYER
  5
26
  330
9
  100
AcDbSymbolTableRecord
  100
AcDbLayerTableRecord
  2
INFTOTAL
  70
    0
  62
    9
  6
CONTINUOUS
  370
18
  390
0
  0
ENDTAB
  0
TABLE
  2
STYLE
  5
27
  330
0
  100
AcDbSymbolTable
  70
    1
  0
STYLE
  5
28
  330
27
  100
AcDbSymbolTableRecord
  100
AcDbTextStyleTableRecord
  2
Monospac821 BT
  70
    0
  40
    3.5
  41
1
  50
0
  71
0
  42
3
  3

  4

  1001
ACAD
  1000
Monospac821 BT
  1071
256
  0
ENDTAB
  0
TABLE
  2
VIEW
  5
29
  330
0
  100
AcDbSymbolTable
  70
    0
  0
ENDTAB
  0
TABLE
  2
UCS
  5
2a
  330
0
  100
AcDbSymbolTable
  70
    0
  0
ENDTAB
  0
TABLE
  2
APPID
  5
2b
  330
0
  100
AcDbSymbolTable
  70
    1
  0
APPID
  5
2c
  330
2b
  100
AcDbSymbolTableRecord
  100
AcDbRegAppTableRecord
  2
ACAD
  70
    0
  0
ENDTAB
  0
TABLE
  2
DIMSTYLE
  5
2d
  330
0
  100
AcDbSymbolTable
  70
    1
  100
AcDbDimStyleTable
  0
DIMSTYLE
  105
2e
  330
2d
  100
AcDbSymbolTableRecord
  100
AcDbDimStyleTableRecord
  2
STANDARD
  70
    0
  41
    3
  42
0.5
  44
1
  73
0
  77
1
  78
1
  140
3.5
  141
2.5
  143
0.03937
  147
0.8
  172
1
  174
1
  178
0
  179
1
  271
2
  279
1
  284
1
  340
28
  0
ENDTAB
  0
TABLE
  2
BLOCK_RECORD
  5
2f
  330
0
  100
AcDbSymbolTable
  70
    2
  0
BLOCK_RECORD
  5
30
  330
2f
  100
AcDbSymbolTableRecord
  100
AcDbBlockTableRecord
  2
*Model_Space
  0
BLOCK_RECORD
  5
31
  330
2f
  100
AcDbSymbolTableRecord
  100
AcDbBlockTableRecord
  2
*Paper_Space
  0
BLOCK_RECORD
  5
dc
  330
2f
  100
AcDbSymbolTableRecord
  100
AcDbBlockTableRecord
  2
*Ddb
  340
0
  0
BLOCK_RECORD
  5
ea
  330
2f
  100
AcDbSymbolTableRecord
  100
AcDbBlockTableRecord
  2
*De9
  340
0
  0
BLOCK_RECORD
  5
f8
  330
2f
  100
AcDbSymbolTableRecord
  100
AcDbBlockTableRecord
  2
*Df7
  340
0
  0
BLOCK_RECORD
  5
106
  330
2f
  100
AcDbSymbolTableRecord
  100
AcDbBlockTableRecord
  2
*D105
  340
0
  0
BLOCK_RECORD
  5
114
  330
2f
  100
AcDbSymbolTableRecord
  100
AcDbBlockTableRecord
  2
*D113
  340
0
  0
BLOCK_RECORD
  5
11e
  330
2f
  100
AcDbSymbolTableRecord
  100
AcDbBlockTableRecord
  2
*D11d
  340
0
  0
BLOCK_RECORD
  5
12c
  330
2f
  100
AcDbSymbolTableRecord
  100
AcDbBlockTableRecord
  2
*D12b
  340
0
  0
BLOCK_RECORD
  5
13a
  330
2f
  100
AcDbSymbolTableRecord
  100
AcDbBlockTableRecord
  2
*D139
  340
0
  0
BLOCK_RECORD
  5
148
  330
2f
  100
AcDbSymbolTableRecord
  100
AcDbBlockTableRecord
  2
*D147
  340
0
  0
ENDTAB
  0
ENDSEC
  0
SECTION
  2
BLOCKS
  0
BLOCK
  5
32
  330
30
  100
AcDbEntity
  8
0
  100
AcDbBlockBegin
  2
*Model_Space
  70
    0
  10
0
  20
0
  30
0
  3
*Model_Space
  1

  0
ENDBLK
  5
33
  330
30
  100
AcDbEntity
  8
0
  100
AcDbBlockEnd
  0
BLOCK
  5
34
  330
31
  100
AcDbEntity
  8
0
  100
AcDbBlockBegin
  2
*Paper_Space
  70
    0
  10
0
  20
0
  30
0
  3
*Paper_Space
  1

  0
ENDBLK
  5
35
  330
31
  100
AcDbEntity
  8
0
  100
AcDbBlockEnd
  0
BLOCK
  5
da
  330
dc
  100
AcDbEntity
  8
SK2
  100
AcDbBlockBegin
  2
*Ddb
  70
1
  10
0
  20
0
  30
0
  3
*Ddb
  1

  0
LINE
  5
dd
  330
dc
  100
AcDbEntity
  8
SK2
  100
AcDbLine
  10
0
  20
2.475
  30
0
  11
0
  21
20.175
  31
0
  0
LINE
  5
de
  330
dc
  100
AcDbEntity
  8
SK2
  100
AcDbLine
  10
63.5
  20
-15.175
  30
0
  11
63.5
  21
20.175
  31
0
  0
LINE
  5
df
  330
dc
  100
AcDbEntity
  8
SK2
  100
AcDbLine
  10
0
  20
18.175
  30
0
  11
63.5
  21
18.175
  31
0
  0
SOLID
  5
e0
  330
dc
  100
AcDbEntity
  8
SK2
  100
AcDbTrace
  10
0
  20
18.175
  30
0
  11
2.478612
  21
18.501315
  31
0
  12
2.478612
  22
17.848685
  32
0
  13
2.478612
  23
17.848685
  33
0
  0
SOLID
  5
e1
  330
dc
  100
AcDbEntity
  8
SK2
  100
AcDbTrace
  10
63.5
  20
18.175
  30
0
  11
61.021388
  21
17.848685
  31
0
  12
61.021388
  22
18.501315
  32
0
  13
61.021388
  23
18.501315
  33
0
  0
MTEXT
  5
e2
  330
dc
  100
AcDbEntity
  8
SK2
  100
AcDbMText
  10
31.75
  20
18.175
  30
0
  11
1
  21
0
  31
0
  40
2
  41
0
  71
8
  72
1
  1
63.5
  0
POINT
  5
e3
  330
dc
  100
AcDbEntity
  8
SK2
  62
0
  100
AcDbPoint
  10
0
  20
2.475
  30
0
  0
POINT
  5
e4
  330
dc
  100
AcDbEntity
  8
SK2
  62
0
  100
AcDbPoint
  10
63.5
  20
-15.175
  30
0
  0
POINT
  5
e5
  330
dc
  100
AcDbEntity
  8
SK2
  62
0
  100
AcDbPoint
  10
63.5
  20
18.175
  30
0
  0
ENDBLK
  5
e6
  330
dc
  100
AcDbEntity
  8
SK2
  100
AcDbBlockEnd
  0
BLOCK
  5
e8
  330
ea
  100
AcDbEntity
  8
SK2
  100
AcDbBlockBegin
  2
*De9
  70
1
  10
0
  20
0
  30
0
  3
*De9
  1

  0
LINE
  5
eb
  330
ea
  100
AcDbEntity
  8
SK2
  100
AcDbLine
  10
43.6
  20
3.175
  30
0
  11
43.6
  21
15.175
  31
0
  0
LINE
  5
ec
  330
ea
  100
AcDbEntity
  8
SK2
  100
AcDbLine
  10
0
  20
2.475
  30
0
  11
0
  21
20.175
  31
0
  0
LINE
  5
ed
  330
ea
  100
AcDbEntity
  8
SK2
  100
AcDbLine
  10
43.6
  20
13.175
  30
0
  11
0
  21
13.175
  31
0
  0
SOLID
  5
ee
  330
ea
  100
AcDbEntity
  8
SK2
  100
AcDbTrace
  10
43.6
  20
13.175
  30
0
  11
46.078612
  21
13.501315
  31
0
  12
46.078612
  22
12.848685
  32
0
  13
46.078612
  23
12.848685
  33
0
  0
SOLID
  5
ef
  330
ea
  100
AcDbEntity
  8
SK2
  100
AcDbTrace
  10
0
  20
13.175
  30
0
  11
-2.478612
  21
12.848685
  31
0
  12
-2.478612
  22
13.501315
  32
0
  13
-2.478612
  23
13.501315
  33
0
  0
MTEXT
  5
f0
  330
ea
  100
AcDbEntity
  8
SK2
  100
AcDbMText
  10
21.8
  20
13.175
  30
0
  11
1
  21
0
  31
0
  40
2
  41
0
  71
8
  72
1
  1
43.6
  0
POINT
  5
f1
  330
ea
  100
AcDbEntity
  8
SK2
  62
0
  100
AcDbPoint
  10
43.6
  20
3.175
  30
0
  0
POINT
  5
f2
  330
ea
  100
AcDbEntity
  8
SK2
  62
0
  100
AcDbPoint
  10
0
  20
2.475
  30
0
  0
POINT
  5
f3
  330
ea
  100
AcDbEntity
  8
SK2
  62
0
  100
AcDbPoint
  10
0
  20
13.175
  30
0
  0
ENDBLK
  5
f4
  330
ea
  100
AcDbEntity
  8
SK2
  100
AcDbBlockEnd
  0
BLOCK
  5
f6
  330
f8
  100
AcDbEntity
  8
SK2
  100
AcDbBlockBegin
  2
*Df7
  70
1
  10
0
  20
0
  30
0
  3
*Df7
  1

  0
LINE
  5
f9
  330
f8
  100
AcDbEntity
  8
SK2
  100
AcDbLine
  10
0.7
  20
-3.175
  30
0
  11
-12
  21
-3.175
  31
0
  0
LINE
  5
fa
  330
f8
  100
AcDbEntity
  8
SK2
  100
AcDbLine
  10
0.7
  20
3.175
  30
0
  11
-12
  21
3.175
  31
0
  0
LINE
  5
fb
  330
f8
  100
AcDbEntity
  8
SK2
  100
AcDbLine
  10
-10
  20
-8.576733
  30
0
  11
-10
  21
3.175
  31
0
  0
SOLID
  5
fc
  330
f8
  100
AcDbEntity
  8
SK2
  100
AcDbTrace
  10
-10
  20
-3.175
  30
0
  11
-10.326315
  21
-0.696388
  31
0
  12
-9.673685
  22
-0.696388
  32
0
  13
-9.673685
  23
-0.696388
  33
0
  0
SOLID
  5
fd
  330
f8
  100
AcDbEntity
  8
SK2
  100
AcDbTrace
  10
-10
  20
3.175
  30
0
  11
-9.673685
  21
0.696388
  31
0
  12
-10.326315
  22
0.696388
  32
0
  13
-10.326315
  23
0.696388
  33
0
  0
MTEXT
  5
fe
  330
f8
  100
AcDbEntity
  8
SK2
  100
AcDbMText
  10
-10
  20
0
  30
0
  11
0
  21
1
  31
0
  40
2
  41
0
  71
8
  72
1
  1
ﾘ6.35
  0
POINT
  5
ff
  330
f8
  100
AcDbEntity
  8
SK2
  62
0
  100
AcDbPoint
  10
0.7
  20
-3.175
  30
0
  0
POINT
  5
100
  330
f8
  100
AcDbEntity
  8
SK2
  62
0
  100
AcDbPoint
  10
0.7
  20
3.175
  30
0
  0
POINT
  5
101
  330
f8
  100
AcDbEntity
  8
SK2
  62
0
  100
AcDbPoint
  10
-10
  20
3.175
  30
0
  0
ENDBLK
  5
102
  330
f8
  100
AcDbEntity
  8
SK2
  100
AcDbBlockEnd
  0
BLOCK
  5
104
  330
106
  100
AcDbEntity
  8
2
  100
AcDbBlockBegin
  2
*D105
  70
1
  10
0
  20
0
  30
0
  3
*D105
  1

  0
LINE
  5
107
  330
106
  100
AcDbEntity
  8
2
  100
AcDbLine
  10
62.3095
  20
-1.1905
  30
0
  11
75.5
  21
-1.1905
  31
0
  0
LINE
  5
108
  330
106
  100
AcDbEntity
  8
2
  100
AcDbLine
  10
62.3095
  20
1.1905
  30
0
  11
75.5
  21
1.1905
  31
0
  0
LINE
  5
109
  330
106
  100
AcDbEntity
  8
2
  100
AcDbLine
  10
73.5
  20
-10.39604
  30
0
  11
73.5
  21
1.1905
  31
0
  0
SOLID
  5
10a
  330
106
  100
AcDbEntity
  8
2
  100
AcDbTrace
  10
73.5
  20
-1.1905
  30
0
  11
73.173685
  21
1.288112
  31
0
  12
73.826315
  22
1.288112
  32
0
  13
73.826315
  23
1.288112
  33
0
  0
SOLID
  5
10b
  330
106
  100
AcDbEntity
  8
2
  100
AcDbTrace
  10
73.5
  20
1.1905
  30
0
  11
73.826315
  21
-1.288112
  31
0
  12
73.173685
  22
-1.288112
  32
0
  13
73.173685
  23
-1.288112
  33
0
  0
MTEXT
  5
10c
  330
106
  100
AcDbEntity
  8
2
  100
AcDbMText
  10
73.5
  20
0
  30
0
  11
0
  21
1
  31
0
  40
2
  41
0
  71
8
  72
1
  1
ﾘ2.381
  0
POINT
  5
10d
  330
106
  100
AcDbEntity
  8
2
  62
0
  100
AcDbPoint
  10
62.3095
  20
-1.1905
  30
0
  0
POINT
  5
10e
  330
106
  100
AcDbEntity
  8
2
  62
0
  100
AcDbPoint
  10
62.3095
  20
1.1905
  30
0
  0
POINT
  5
10f
  330
106
  100
AcDbEntity
  8
2
  62
0
  100
AcDbPoint
  10
73.5
  20
1.1905
  30
0
  0
ENDBLK
  5
110
  330
106
  100
AcDbEntity
  8
2
  100
AcDbBlockEnd
  0
BLOCK
  5
112
  330
114
  100
AcDbEntity
  8
2
  100
AcDbBlockBegin
  2
*D113
  70
1
  10
0
  20
0
  30
0
  3
*D113
  1

  0
LINE
  5
115
  330
114
  100
AcDbEntity
  8
2
  100
AcDbLine
  10
60.068735
  20
-2.240765
  30
0
  11
70.222378
  21
7.912878
  31
0
  0
MTEXT
  5
116
  330
114
  100
AcDbEntity
  8
2
  100
AcDbMText
  10
63.151311
  20
0.841811
  30
0
  11
0.707107
  21
0.707107
  31
0
  40
2
  41
0
  71
8
  72
1
  1
R1.19
  0
SOLID
  5
117
  330
114
  100
AcDbEntity
  8
2
  100
AcDbTrace
  10
63.151311
  20
0.841811
  30
0
  11
64.673214
  21
2.825194
  31
0
  12
65.134694
  22
2.363714
  32
0
  13
65.134694
  23
2.363714
  33
0
  0
POINT
  5
118
  330
114
  100
AcDbEntity
  8
2
  62
0
  100
AcDbPoint
  10
60.068735
  20
-2.240765
  30
0
  0
POINT
  5
119
  330
114
  100
AcDbEntity
  8
2
  62
0
  100
AcDbPoint
  10
62.3095
  20
0
  30
0
  0
ENDBLK
  5
11a
  330
114
  100
AcDbEntity
  8
2
  100
AcDbBlockEnd
  0
BLOCK
  5
11c
  330
11e
  100
AcDbEntity
  8
2
  100
AcDbBlockBegin
  2
*D11d
  70
1
  10
0
  20
0
  30
0
  3
*D11d
  1

  0
LINE
  5
11f
  330
11e
  100
AcDbEntity
  8
2
  100
AcDbLine
  10
61.1
  20
-1.165
  30
0
  11
59.1
  21
-1.165
  31
0
  0
LINE
  5
120
  330
11e
  100
AcDbEntity
  8
2
  100
AcDbLine
  10
61.1
  20
1.165
  30
0
  11
59.1
  21
1.165
  31
0
  0
LINE
  5
121
  330
11e
  100
AcDbEntity
  8
2
  100
AcDbLine
  10
61.1
  20
-1.165
  30
0
  11
61.1
  21
9.616337
  31
0
  0
SOLID
  5
122
  330
11e
  100
AcDbEntity
  8
2
  100
AcDbTrace
  10
61.1
  20
-1.165
  30
0
  11
60.773685
  21
1.313612
  31
0
  12
61.426315
  22
1.313612
  32
0
  13
61.426315
  23
1.313612
  33
0
  0
SOLID
  5
123
  330
11e
  100
AcDbEntity
  8
2
  100
AcDbTrace
  10
61.1
  20
1.165
  30
0
  11
61.426315
  21
-1.313612
  31
0
  12
60.773685
  22
-1.313612
  32
0
  13
60.773685
  23
-1.313612
  33
0
  0
MTEXT
  5
124
  330
11e
  100
AcDbEntity
  8
2
  100
AcDbMText
  10
61.1
  20
1.165
  30
0
  11
0
  21
1
  31
0
  40
2
  41
0
  71
8
  72
1
  1
ﾘ2.33
  0
POINT
  5
125
  330
11e
  100
AcDbEntity
  8
2
  62
0
  100
AcDbPoint
  10
59.1
  20
-1.165
  30
0
  0
POINT
  5
126
  330
11e
  100
AcDbEntity
  8
2
  62
0
  100
AcDbPoint
  10
59.1
  20
1.165
  30
0
  0
POINT
  5
127
  330
11e
  100
AcDbEntity
  8
2
  62
0
  100
AcDbPoint
  10
61.1
  20
9.616337
  30
0
  0
ENDBLK
  5
128
  330
11e
  100
AcDbEntity
  8
2
  100
AcDbBlockEnd
  0
BLOCK
  5
12a
  330
12c
  100
AcDbEntity
  8
2
  100
AcDbBlockBegin
  2
*D12b
  70
1
  10
0
  20
0
  30
0
  3
*D12b
  1

  0
LINE
  5
12d
  330
12c
  100
AcDbEntity
  8
2
  100
AcDbLine
  10
61.1
  20
1.165
  30
0
  11
61.1
  21
9
  31
0
  0
LINE
  5
12e
  330
12c
  100
AcDbEntity
  8
2
  100
AcDbLine
  10
51.4
  20
1.165
  30
0
  11
51.4
  21
9
  31
0
  0
LINE
  5
12f
  330
12c
  100
AcDbEntity
  8
2
  100
AcDbLine
  10
61.986386
  20
7
  30
0
  11
51.4
  21
7
  31
0
  0
SOLID
  5
130
  330
12c
  100
AcDbEntity
  8
2
  100
AcDbTrace
  10
61.1
  20
7
  30
0
  11
63.578612
  21
7.326315
  31
0
  12
63.578612
  22
6.673685
  32
0
  13
63.578612
  23
6.673685
  33
0
  0
SOLID
  5
131
  330
12c
  100
AcDbEntity
  8
2
  100
AcDbTrace
  10
51.4
  20
7
  30
0
  11
48.921388
  21
6.673685
  31
0
  12
48.921388
  22
7.326315
  32
0
  13
48.921388
  23
7.326315
  33
0
  0
MTEXT
  5
132
  330
12c
  100
AcDbEntity
  8
2
  100
AcDbMText
  10
59.884884
  20
7
  30
0
  11
1
  21
-0
  31
0
  40
2
  41
0
  71
8
  72
1
  1
9.7
  0
POINT
  5
133
  330
12c
  100
AcDbEntity
  8
2
  62
0
  100
AcDbPoint
  10
61.1
  20
1.165
  30
0
  0
POINT
  5
134
  330
12c
  100
AcDbEntity
  8
2
  62
0
  100
AcDbPoint
  10
51.4
  20
1.165
  30
0
  0
POINT
  5
135
  330
12c
  100
AcDbEntity
  8
2
  62
0
  100
AcDbPoint
  10
51.4
  20
7
  30
0
  0
ENDBLK
  5
136
  330
12c
  100
AcDbEntity
  8
2
  100
AcDbBlockEnd
  0
BLOCK
  5
138
  330
13a
  100
AcDbEntity
  8
2
  100
AcDbBlockBegin
  2
*D139
  70
1
  10
0
  20
0
  30
0
  3
*D139
  1

  0
LINE
  5
13b
  330
13a
  100
AcDbEntity
  8
2
  100
AcDbLine
  10
63.5
  20
-15.175
  30
0
  11
63.5
  21
20.175
  31
0
  0
LINE
  5
13c
  330
13a
  100
AcDbEntity
  8
2
  100
AcDbLine
  10
43.6
  20
3.175
  30
0
  11
43.6
  21
10.175
  31
0
  0
LINE
  5
13d
  330
13a
  100
AcDbEntity
  8
2
  100
AcDbLine
  10
63.5
  20
8.175
  30
0
  11
43.6
  21
8.175
  31
0
  0
SOLID
  5
13e
  330
13a
  100
AcDbEntity
  8
2
  100
AcDbTrace
  10
63.5
  20
8.175
  30
0
  11
65.978612
  21
8.501315
  31
0
  12
65.978612
  22
7.848685
  32
0
  13
65.978612
  23
7.848685
  33
0
  0
SOLID
  5
13f
  330
13a
  100
AcDbEntity
  8
2
  100
AcDbTrace
  10
43.6
  20
8.175
  30
0
  11
41.121388
  21
7.848685
  31
0
  12
41.121388
  22
8.501315
  32
0
  13
41.121388
  23
8.501315
  33
0
  0
MTEXT
  5
140
  330
13a
  100
AcDbEntity
  8
2
  100
AcDbMText
  10
53.55
  20
8.175
  30
0
  11
1
  21
-0
  31
0
  40
2
  41
0
  71
8
  72
1
  1
19.9
  0
POINT
  5
141
  330
13a
  100
AcDbEntity
  8
2
  62
0
  100
AcDbPoint
  10
63.5
  20
-15.175
  30
0
  0
POINT
  5
142
  330
13a
  100
AcDbEntity
  8
2
  62
0
  100
AcDbPoint
  10
43.6
  20
3.175
  30
0
  0
POINT
  5
143
  330
13a
  100
AcDbEntity
  8
2
  62
0
  100
AcDbPoint
  10
43.6
  20
8.175
  30
0
  0
ENDBLK
  5
144
  330
13a
  100
AcDbEntity
  8
2
  100
AcDbBlockEnd
  0
BLOCK
  5
146
  330
148
  100
AcDbEntity
  8
2
  100
AcDbBlockBegin
  2
*D147
  70
1
  10
0
  20
0
  30
0
  3
*D147
  1

  0
LINE
  5
149
  330
148
  100
AcDbEntity
  8
2
  100
AcDbLine
  10
61.1
  20
-1.165
  30
0
  11
61.1
  21
-15.175
  31
0
  0
LINE
  5
14a
  330
148
  100
AcDbEntity
  8
2
  100
AcDbLine
  10
63.5
  20
-15.175
  30
0
  11
63.5
  21
20.175
  31
0
  0
LINE
  5
14b
  330
148
  100
AcDbEntity
  8
2
  100
AcDbLine
  10
57.82797
  20
-13.175
  30
0
  11
63.5
  21
-13.175
  31
0
  0
SOLID
  5
14c
  330
148
  100
AcDbEntity
  8
2
  100
AcDbTrace
  10
61.1
  20
-13.175
  30
0
  11
63.578612
  21
-12.848685
  31
0
  12
63.578612
  22
-13.501315
  32
0
  13
63.578612
  23
-13.501315
  33
0
  0
SOLID
  5
14d
  330
148
  100
AcDbEntity
  8
2
  100
AcDbTrace
  10
63.5
  20
-13.175
  30
0
  11
61.021388
  21
-13.501315
  31
0
  12
61.021388
  22
-12.848685
  32
0
  13
61.021388
  23
-12.848685
  33
0
  0
MTEXT
  5
14e
  330
148
  100
AcDbEntity
  8
2
  100
AcDbMText
  10
62.3
  20
-13.175
  30
0
  11
1
  21
0
  31
0
  40
2
  41
0
  71
8
  72
1
  1
2.4
  0
POINT
  5
14f
  330
148
  100
AcDbEntity
  8
2
  62
0
  100
AcDbPoint
  10
61.1
  20
-1.165
  30
0
  0
POINT
  5
150
  330
148
  100
AcDbEntity
  8
2
  62
0
  100
AcDbPoint
  10
63.5
  20
20.175
  30
0
  0
POINT
  5
151
  330
148
  100
AcDbEntity
  8
2
  62
0
  100
AcDbPoint
  10
63.5
  20
-13.175
  30
0
  0
ENDBLK
  5
152
  330
148
  100
AcDbEntity
  8
2
  100
AcDbBlockEnd
  0
ENDSEC
  0
SECTION
  2
ENTITIES
  0
DIMENSION
  5
e7
  100
AcDbEntity
  8
SK2
  100
AcDbDimension
  2
*Ddb
  10
63.5
  20
18.175
  30
0
  11
31.75
  21
18.175
  31
0
  70
160
  1
<>
  71
5
  3
STANDARD
  42
63.5
  100
AcDbAlignedDimension
  13
0
  23
2.475
  33
0
  14
63.5
  24
-15.175
  34
0
  50
0
  100
AcDbRotatedDimension
  0
DIMENSION
  5
f5
  100
AcDbEntity
  8
SK2
  100
AcDbDimension
  2
*De9
  10
0
  20
13.175
  30
0
  11
21.8
  21
13.175
  31
0
  70
160
  1
<>
  71
5
  3
STANDARD
  42
43.6
  100
AcDbAlignedDimension
  13
43.6
  23
3.175
  33
0
  14
0
  24
2.475
  34
0
  50
0
  100
AcDbRotatedDimension
  0
DIMENSION
  5
103
  100
AcDbEntity
  8
SK2
  100
AcDbDimension
  2
*Df7
  10
-10
  20
3.175
  30
0
  11
-10
  21
0
  31
0
  70
160
  1
%%c<>
  71
5
  3
STANDARD
  42
6.35
  100
AcDbAlignedDimension
  13
0.7
  23
-3.175
  33
0
  14
0.7
  24
3.175
  34
0
  50
-90
  100
AcDbRotatedDimension
  0
DIMENSION
  5
111
  100
AcDbEntity
  8
2
  100
AcDbDimension
  2
*D105
  10
73.5
  20
1.1905
  30
0
  11
73.5
  21
0
  31
0
  70
160
  1
%%c<>
  71
5
  3
STANDARD
  42
2.381
  100
AcDbAlignedDimension
  13
62.3095
  23
-1.1905
  33
0
  14
62.3095
  24
1.1905
  34
0
  50
-90
  100
AcDbRotatedDimension
  0
DIMENSION
  5
11b
  100
AcDbEntity
  8
2
  100
AcDbDimension
  2
*D113
  10
62.3095
  20
0
  30
0
  11
63.151311
  21
0.841811
  31
0
  70
164
  1
R1.19
  71
5
  3
STANDARD
  100
AcDbRadialDimension
  15
63.151311
  25
0.841811
  35
0
  50
45
  0
DIMENSION
  5
129
  100
AcDbEntity
  8
2
  100
AcDbDimension
  2
*D11d
  10
61.1
  20
9.616337
  30
0
  11
61.1
  21
1.165
  31
0
  70
160
  1
%%c<>
  71
5
  3
STANDARD
  42
2.33
  100
AcDbAlignedDimension
  13
59.1
  23
-1.165
  33
0
  14
59.1
  24
1.165
  34
0
  50
-90
  100
AcDbRotatedDimension
  0
DIMENSION
  5
137
  100
AcDbEntity
  8
2
  100
AcDbDimension
  2
*D12b
  10
51.4
  20
7
  30
0
  11
59.884884
  21
7
  31
0
  70
160
  1
<>
  71
5
  3
STANDARD
  42
9.7
  100
AcDbAlignedDimension
  13
61.1
  23
1.165
  33
0
  14
51.4
  24
1.165
  34
0
  50
0
  100
AcDbRotatedDimension
  0
DIMENSION
  5
145
  100
AcDbEntity
  8
2
  100
AcDbDimension
  2
*D139
  10
43.6
  20
8.175
  30
0
  11
53.55
  21
8.175
  31
0
  70
160
  1
<>
  71
5
  3
STANDARD
  42
19.9
  100
AcDbAlignedDimension
  13
63.5
  23
-15.175
  33
0
  14
43.6
  24
3.175
  34
0
  50
0
  100
AcDbRotatedDimension
  0
DIMENSION
  5
153
  100
AcDbEntity
  8
2
  100
AcDbDimension
  2
*D147
  10
63.5
  20
-13.175
  30
0
  11
62.3
  21
-13.175
  31
0
  70
160
  1
<>
  71
5
  3
STANDARD
  42
2.4
  100
AcDbAlignedDimension
  13
61.1
  23
-1.165
  33
0
  14
63.5
  24
20.175
  34
0
  50
0
  100
AcDbRotatedDimension
  0
ARC
  5
36
  100
AcDbEntity
  8
1
  100
AcDbCircle
  10
51.487156
  20
-2.161195
  30
0
  40
1
  100
AcDbArc
  50
95
  51
105
  0
LINE
  5
37
  100
AcDbEntity
  8
1
  100
AcDbLine
  10
51.4
  20
-1.165
  30
0
  11
61.1
  21
-1.165
  31
0
  0
LINE
  5
38
  100
AcDbEntity
  8
1
  100
AcDbLine
  10
61.1
  20
-1.165
  30
0
  11
61.1
  21
-1.1905
  31
0
  0
LINE
  5
39
  100
AcDbEntity
  8
1
  100
AcDbLine
  10
61.1
  20
-1.1905
  30
0
  11
62.3095
  21
-1.1905
  31
0
  0
ARC
  5
3a
  100
AcDbEntity
  8
1
  100
AcDbCircle
  10
62.3095
  20
0
  30
0
  40
1.1905
  100
AcDbArc
  50
270
  51
0
  0
ARC
  5
3b
  100
AcDbEntity
  8
1
  100
AcDbCircle
  10
62.3095
  20
0
  30
0
  40
1.1905
  100
AcDbArc
  50
0
  51
90
  0
LINE
  5
3c
  100
AcDbEntity
  8
1
  100
AcDbLine
  10
62.3095
  20
1.1905
  30
0
  11
61.1
  21
1.1905
  31
0
  0
LINE
  5
3d
  100
AcDbEntity
  8
1
  100
AcDbLine
  10
61.1
  20
1.1905
  30
0
  11
61.1
  21
1.165
  31
0
  0
LINE
  5
3e
  100
AcDbEntity
  8
1
  100
AcDbLine
  10
61.1
  20
1.165
  30
0
  11
51.4
  21
1.165
  31
0
  0
ARC
  5
3f
  100
AcDbEntity
  8
1
  100
AcDbCircle
  10
51.487156
  20
2.161195
  30
0
  40
1
  100
AcDbArc
  50
255
  51
265
  0
LINE
  5
40
  100
AcDbEntity
  8
1
  100
AcDbLine
  10
51.228337
  20
1.195269
  30
0
  11
43.83988
  21
3.175
  31
0
  0
LINE
  5
41
  100
AcDbEntity
  8
1
  100
AcDbLine
  10
43.83988
  20
3.175
  30
0
  11
43.6
  21
3.175
  31
0
  0
LINE
  5
42
  100
AcDbEntity
  8
1
  100
AcDbLine
  10
43.6
  20
3.175
  30
0
  11
43.6
  21
-3.175
  31
0
  0
LINE
  5
43
  100
AcDbEntity
  8
1
  100
AcDbLine
  10
43.6
  20
-3.175
  30
0
  11
43.83988
  21
-3.175
  31
0
  0
LINE
  5
44
  100
AcDbEntity
  8
1
  100
AcDbLine
  10
43.83988
  20
-3.175
  30
0
  11
51.228337
  21
-1.195269
  31
0
  0
LINE
  5
45
  100
AcDbEntity
  8
1
  100
AcDbLine
  10
43.6
  20
-3.175
  30
0
  11
43.6
  21
3.175
  31
0
  0
LINE
  5
46
  100
AcDbEntity
  8
1
  100
AcDbLine
  10
43.6
  20
3.175
  30
0
  11
43.6
  21
-3.175
  31
0
  0
LINE
  5
47
  100
AcDbEntity
  8
1
  100
AcDbLine
  10
43.83988
  20
3.175
  30
0
  11
43.83988
  21
-3.175
  31
0
  0
LINE
  5
48
  100
AcDbEntity
  8
1
  100
AcDbLine
  10
51.228337
  20
-1.195269
  30
0
  11
51.228337
  21
1.195269
  31
0
  0
LINE
  5
49
  100
AcDbEntity
  8
1
  100
AcDbLine
  10
51.4
  20
1.165
  30
0
  11
51.4
  21
-1.165
  31
0
  0
LINE
  5
4a
  100
AcDbEntity
  8
1
  100
AcDbLine
  10
61.2
  20
-0.409198
  30
0
  11
61.3
  21
-0.462148
  31
0
  0
LINE
  5
4b
  100
AcDbEntity
  8
1
  100
AcDbLine
  10
61.3
  20
-0.462148
  30
0
  11
61.4
  21
-0.514011
  31
0
  0
LINE
  5
4c
  100
AcDbEntity
  8
1
  100
AcDbLine
  10
61.4
  20
-0.514011
  30
0
  11
61.5
  21
-0.564665
  31
0
  0
LINE
  5
4d
  100
AcDbEntity
  8
1
  100
AcDbLine
  10
61.5
  20
-0.564665
  30
0
  11
61.6
  21
-0.613992
  31
0
  0
LINE
  5
4e
  100
AcDbEntity
  8
1
  100
AcDbLine
  10
61.6
  20
-0.613992
  30
0
  11
61.7
  21
-0.661875
  31
0
  0
LINE
  5
4f
  100
AcDbEntity
  8
1
  100
AcDbLine
  10
61.7
  20
-0.661875
  30
0
  11
61.8
  21
-0.708201
  31
0
  0
LINE
  5
50
  100
AcDbEntity
  8
1
  100
AcDbLine
  10
61.8
  20
-0.708201
  30
0
  11
61.9
  21
-0.752862
  31
0
  0
LINE
  5
51
  100
AcDbEntity
  8
1
  100
AcDbLine
  10
61.9
  20
-0.752862
  30
0
  11
62
  21
-0.795753
  31
0
  0
LINE
  5
52
  100
AcDbEntity
  8
1
  100
AcDbLine
  10
62
  20
-0.795753
  30
0
  11
62.1
  21
-0.836772
  31
0
  0
LINE
  5
53
  100
AcDbEntity
  8
1
  100
AcDbLine
  10
62.1
  20
-0.836772
  30
0
  11
62.2
  21
-0.875825
  31
0
  0
LINE
  5
54
  100
AcDbEntity
  8
1
  100
AcDbLine
  10
62.2
  20
-0.875825
  30
0
  11
62.3
  21
-0.912817
  31
0
  0
LINE
  5
55
  100
AcDbEntity
  8
1
  100
AcDbLine
  10
62.3
  20
-0.912817
  30
0
  11
62.4
  21
-0.944414
  31
0
  0
LINE
  5
56
  100
AcDbEntity
  8
1
  100
AcDbLine
  10
62.4
  20
-0.944414
  30
0
  11
62.5
  21
-0.96553
  31
0
  0
LINE
  5
57
  100
AcDbEntity
  8
1
  100
AcDbLine
  10
62.5
  20
-0.96553
  30
0
  11
62.6
  21
-0.975405
  31
0
  0
LINE
  5
58
  100
AcDbEntity
  8
1
  100
AcDbLine
  10
62.6
  20
-0.975405
  30
0
  11
62.7
  21
-0.973192
  31
0
  0
LINE
  5
59
  100
AcDbEntity
  8
1
  100
AcDbLine
  10
62.7
  20
-0.973192
  30
0
  11
62.8
  21
-0.957851
  31
0
  0
LINE
  5
5a
  100
AcDbEntity
  8
1
  100
AcDbLine
  10
62.8
  20
-0.957851
  30
0
  11
62.9
  21
-0.928023
  31
0
  0
LINE
  5
5b
  100
AcDbEntity
  8
1
  100
AcDbLine
  10
62.9
  20
-0.928023
  30
0
  11
63
  21
-0.88179
  31
0
  0
LINE
  5
5c
  100
AcDbEntity
  8
1
  100
AcDbLine
  10
63
  20
-0.88179
  30
0
  11
63.1
  21
-0.816198
  31
0
  0
LINE
  5
5d
  100
AcDbEntity
  8
1
  100
AcDbLine
  10
63.1
  20
-0.816198
  30
0
  11
63.2
  21
-0.728548
  31
0
  0
LINE
  5
5e
  100
AcDbEntity
  8
1
  100
AcDbLine
  10
63.2
  20
-0.728548
  30
0
  11
63.3
  21
-0.6264
  31
0
  0
LINE
  5
5f
  100
AcDbEntity
  8
1
  100
AcDbLine
  10
63.3
  20
-0.657694
  30
0
  11
63.3
  21
-0.660454
  31
0
  0
LINE
  5
60
  100
AcDbEntity
  8
1
  100
AcDbLine
  10
63.3
  20
-0.660454
  30
0
  11
63.3
  21
-0.657694
  31
0
  0
LINE
  5
61
  100
AcDbEntity
  8
1
  100
AcDbLine
  10
63.3
  20
-0.657694
  30
0
  11
63.2
  21
-0.77303
  31
0
  0
LINE
  5
62
  100
AcDbEntity
  8
1
  100
AcDbLine
  10
63.2
  20
-0.77303
  30
0
  11
63.1
  21
-0.864319
  31
0
  0
LINE
  5
63
  100
AcDbEntity
  8
1
  100
AcDbLine
  10
63.1
  20
-0.864319
  30
0
  11
63
  21
-0.933474
  31
0
  0
LINE
  5
64
  100
AcDbEntity
  8
1
  100
AcDbLine
  10
63
  20
-0.933474
  30
0
  11
62.9
  21
-0.983721
  31
0
  0
LINE
  5
65
  100
AcDbEntity
  8
1
  100
AcDbLine
  10
62.9
  20
-0.983721
  30
0
  11
62.8
  21
-1.017801
  31
0
  0
LINE
  5
66
  100
AcDbEntity
  8
1
  100
AcDbLine
  10
62.8
  20
-1.017801
  30
0
  11
62.7
  21
-1.037509
  31
0
  0
LINE
  5
67
  100
AcDbEntity
  8
1
  100
AcDbLine
  10
62.7
  20
-1.037509
  30
0
  11
62.6
  21
-1.044129
  31
0
  0
LINE
  5
68
  100
AcDbEntity
  8
1
  100
AcDbLine
  10
62.6
  20
-1.044129
  30
0
  11
62.5
  21
-1.038647
  31
0
  0
LINE
  5
69
  100
AcDbEntity
  8
1
  100
AcDbLine
  10
62.5
  20
-1.038647
  30
0
  11
62.4
  21
-1.02187
  31
0
  0
LINE
  5
6a
  100
AcDbEntity
  8
1
  100
AcDbLine
  10
62.4
  20
-1.02187
  30
0
  11
62.3
  21
-0.99453
  31
0
  0
LINE
  5
6b
  100
AcDbEntity
  8
1
  100
AcDbLine
  10
62.3
  20
-0.99453
  30
0
  11
62.2
  21
-0.961638
  31
0
  0
LINE
  5
6c
  100
AcDbEntity
  8
1
  100
AcDbLine
  10
62.2
  20
-0.961638
  30
0
  11
62.1
  21
-0.926486
  31
0
  0
LINE
  5
6d
  100
AcDbEntity
  8
1
  100
AcDbLine
  10
62.1
  20
-0.926486
  30
0
  11
62
  21
-0.889154
  31
0
  0
LINE
  5
6e
  100
AcDbEntity
  8
1
  100
AcDbLine
  10
62
  20
-0.889154
  30
0
  11
61.9
  21
-0.849732
  31
0
  0
LINE
  5
6f
  100
AcDbEntity
  8
1
  100
AcDbLine
  10
61.9
  20
-0.849732
  30
0
  11
61.8
  21
-0.808312
  31
0
  0
LINE
  5
70
  100
AcDbEntity
  8
1
  100
AcDbLine
  10
61.8
  20
-0.808312
  30
0
  11
61.7
  21
-0.764991
  31
0
  0
LINE
  5
71
  100
AcDbEntity
  8
1
  100
AcDbLine
  10
61.7
  20
-0.764991
  30
0
  11
61.6
  21
-0.719871
  31
0
  0
LINE
  5
72
  100
AcDbEntity
  8
1
  100
AcDbLine
  10
61.6
  20
-0.719871
  30
0
  11
61.5
  21
-0.673059
  31
0
  0
LINE
  5
73
  100
AcDbEntity
  8
1
  100
AcDbLine
  10
61.5
  20
-0.673059
  30
0
  11
61.4
  21
-0.624664
  31
0
  0
LINE
  5
74
  100
AcDbEntity
  8
1
  100
AcDbLine
  10
61.4
  20
-0.624664
  30
0
  11
61.3
  21
-0.5748
  31
0
  0
LINE
  5
75
  100
AcDbEntity
  8
1
  100
AcDbLine
  10
61.3
  20
-0.5748
  30
0
  11
61.2
  21
-0.523584
  31
0
  0
LINE
  5
76
  100
AcDbEntity
  8
1
  100
AcDbLine
  10
61.2
  20
-0.523584
  30
0
  11
61.1
  21
-0.471137
  31
0
  0
LINE
  5
77
  100
AcDbEntity
  8
1
  100
AcDbLine
  10
61.1
  20
-0.471137
  30
0
  11
61.1
  21
-0.457752
  31
0
  0
LINE
  5
78
  100
AcDbEntity
  8
1
  100
AcDbLine
  10
61.1
  20
-0.457752
  30
0
  11
61
  21
-0.405282
  31
0
  0
LINE
  5
79
  100
AcDbEntity
  8
1
  100
AcDbLine
  10
61
  20
-0.405282
  30
0
  11
60.9
  21
-0.361164
  31
0
  0
LINE
  5
7a
  100
AcDbEntity
  8
1
  100
AcDbLine
  10
60.9
  20
-0.361164
  30
0
  11
60.8
  21
-1.136051
  31
0
  0
LINE
  5
7b
  100
AcDbEntity
  8
1
  100
AcDbLine
  10
60.8
  20
-1.136051
  30
0
  11
60.8
  21
-1.146767
  31
0
  0
LINE
  5
7c
  100
AcDbEntity
  8
1
  100
AcDbLine
  10
60.8
  20
-1.146767
  30
0
  11
60.815232
  21
-1.165
  31
0
  0
LINE
  5
7d
  100
AcDbEntity
  8
1
  100
AcDbLine
  10
61.1
  20
-1.165
  30
0
  11
61.1
  21
1.165
  31
0
  0
LINE
  5
7e
  100
AcDbEntity
  8
1
  100
AcDbLine
  10
61.1
  20
1.1905
  30
0
  11
61.1
  21
-1.1905
  31
0
  0
LINE
  5
7f
  100
AcDbEntity
  8
1
  100
AcDbLine
  10
60.815232
  20
1.165
  30
0
  11
60.9
  21
0.227459
  31
0
  0
LINE
  5
80
  100
AcDbEntity
  8
1
  100
AcDbLine
  10
60.9
  20
0.227459
  30
0
  11
61
  21
0.006553
  31
0
  0
LINE
  5
81
  100
AcDbEntity
  8
1
  100
AcDbLine
  10
61
  20
0.006553
  30
0
  11
61.1
  21
-0.05256
  31
0
  0
LINE
  5
82
  100
AcDbEntity
  8
1
  100
AcDbLine
  10
61.1
  20
-0.05256
  30
0
  11
61.1
  21
-0.068791
  31
0
  0
LINE
  5
83
  100
AcDbEntity
  8
1
  100
AcDbLine
  10
61.1
  20
-0.068791
  30
0
  11
61.2
  21
-0.126326
  31
0
  0
LINE
  5
84
  100
AcDbEntity
  8
1
  100
AcDbLine
  10
61.2
  20
-0.126326
  30
0
  11
61.3
  21
-0.183564
  31
0
  0
LINE
  5
85
  100
AcDbEntity
  8
1
  100
AcDbLine
  10
61.3
  20
-0.183564
  30
0
  11
61.4
  21
-0.240371
  31
0
  0
LINE
  5
86
  100
AcDbEntity
  8
1
  100
AcDbLine
  10
61.4
  20
-0.240371
  30
0
  11
61.5
  21
-0.296612
  31
0
  0
LINE
  5
87
  100
AcDbEntity
  8
1
  100
AcDbLine
  10
61.5
  20
-0.296612
  30
0
  11
61.6
  21
-0.352156
  31
0
  0
LINE
  5
88
  100
AcDbEntity
  8
1
  100
AcDbLine
  10
61.6
  20
-0.352156
  30
0
  11
61.7
  21
-0.406871
  31
0
  0
LINE
  5
89
  100
AcDbEntity
  8
1
  100
AcDbLine
  10
61.7
  20
-0.406871
  30
0
  11
61.8
  21
-0.46063
  31
0
  0
LINE
  5
8a
  100
AcDbEntity
  8
1
  100
AcDbLine
  10
61.8
  20
-0.46063
  30
0
  11
61.9
  21
-0.513306
  31
0
  0
LINE
  5
8b
  100
AcDbEntity
  8
1
  100
AcDbLine
  10
61.9
  20
-0.513306
  30
0
  11
62
  21
-0.564775
  31
0
  0
LINE
  5
8c
  100
AcDbEntity
  8
1
  100
AcDbLine
  10
62
  20
-0.564775
  30
0
  11
62.1
  21
-0.614915
  31
0
  0
LINE
  5
8d
  100
AcDbEntity
  8
1
  100
AcDbLine
  10
62.1
  20
-0.614915
  30
0
  11
62.2
  21
-0.66361
  31
0
  0
LINE
  5
8e
  100
AcDbEntity
  8
1
  100
AcDbLine
  10
62.2
  20
-0.66361
  30
0
  11
62.3
  21
-0.710744
  31
0
  0
LINE
  5
8f
  100
AcDbEntity
  8
1
  100
AcDbLine
  10
62.3
  20
-0.710744
  30
0
  11
62.4
  21
-0.752481
  31
0
  0
LINE
  5
90
  100
AcDbEntity
  8
1
  100
AcDbLine
  10
62.4
  20
-0.752481
  30
0
  11
62.5
  21
-0.782989
  31
0
  0
LINE
  5
91
  100
AcDbEntity
  8
1
  100
AcDbLine
  10
62.5
  20
-0.782989
  30
0
  11
62.6
  21
-0.801349
  31
0
  0
LINE
  5
92
  100
AcDbEntity
  8
1
  100
AcDbLine
  10
62.6
  20
-0.801349
  30
0
  11
62.7
  21
-0.80645
  31
0
  0
LINE
  5
93
  100
AcDbEntity
  8
1
  100
AcDbLine
  10
62.7
  20
-0.80645
  30
0
  11
62.8
  21
-0.796805
  31
0
  0
LINE
  5
94
  100
AcDbEntity
  8
1
  100
AcDbLine
  10
62.8
  20
-0.796805
  30
0
  11
62.9
  21
-0.770268
  31
0
  0
LINE
  5
95
  100
AcDbEntity
  8
1
  100
AcDbLine
  10
62.9
  20
-0.770268
  30
0
  11
63
  21
-0.72344
  31
0
  0
LINE
  5
96
  100
AcDbEntity
  8
1
  100
AcDbLine
  10
63
  20
-0.72344
  30
0
  11
63.1
  21
-0.65017
  31
0
  0
LINE
  5
97
  100
AcDbEntity
  8
1
  100
AcDbLine
  10
63.1
  20
-0.65017
  30
0
  11
63.2
  21
-0.53666
  31
0
  0
LINE
  5
98
  100
AcDbEntity
  8
1
  100
AcDbLine
  10
63.2
  20
-0.53666
  30
0
  11
63.3
  21
-0.331392
  31
0
  0
LINE
  5
99
  100
AcDbEntity
  8
1
  100
AcDbLine
  10
63.3
  20
-0.331392
  30
0
  11
63.3
  21
0.660454
  31
0
  0
LINE
  5
9a
  100
AcDbEntity
  8
1
  100
AcDbLine
  10
63.3
  20
0.660454
  30
0
  11
63.3
  21
-0.331392
  31
0
  0
LINE
  5
9b
  100
AcDbEntity
  8
1
  100
AcDbLine
  10
62.3095
  20
-1.1905
  30
0
  11
62.3095
  21
1.1905
  31
0
  0
LINE
  5
9c
  100
AcDbEntity
  8
SK1
  100
AcDbLine
  10
43.6
  20
3.175
  30
0
  11
0.7
  21
3.175
  31
0
  0
LINE
  5
9d
  100
AcDbEntity
  8
SK1
  100
AcDbLine
  10
0.7
  20
3.175
  30
0
  11
0
  21
2.475
  31
0
  0
LINE
  5
9e
  100
AcDbEntity
  8
SK1
  100
AcDbLine
  10
43.6
  20
-3.175
  30
0
  11
0.7
  21
-3.175
  31
0
  0
LINE
  5
9f
  100
AcDbEntity
  8
SK1
  100
AcDbLine
  10
0.7
  20
-3.175
  30
0
  11
0
  21
-2.475
  31
0
  0
LINE
  5
a0
  100
AcDbEntity
  8
SK1
  100
AcDbLine
  10
0.7
  20
3.175
  30
0
  11
0.7
  21
-3.175
  31
0
  0
LINE
  5
a1
  100
AcDbEntity
  8
SK1
  100
AcDbLine
  10
0
  20
2.475
  30
0
  11
0
  21
-2.475
  31
0
  0
LINE
  5
a2
  100
AcDbEntity
  8
SK1
  100
AcDbLine
  10
44.6401
  20
1.40688
  30
0
  11
45.0069
  21
1.0401
  31
0
  0
LINE
  5
a3
  100
AcDbEntity
  8
SK1
  100
AcDbLine
  10
44.1328
  20
1.66666
  30
0
  11
45.2667
  21
0.532833
  31
0
  0
LINE
  5
a4
  100
AcDbEntity
  8
SK1
  100
AcDbLine
  10
43.8154
  20
1.73657
  30
0
  11
45.3366
  21
0.215434
  31
0
  0
LINE
  5
a5
  100
AcDbEntity
  8
SK1
  100
AcDbLine
  10
43.6
  20
1.70452
  30
0
  11
45.3045
  21
0
  31
0
  0
LINE
  5
a6
  100
AcDbEntity
  8
SK1
  100
AcDbLine
  10
43.6
  20
1.45703
  30
0
  11
45.057
  21
0
  31
0
  0
LINE
  5
a7
  100
AcDbEntity
  8
SK1
  100
AcDbLine
  10
43.6
  20
1.20954
  30
0
  11
44.8095
  21
0
  31
0
  0
LINE
  5
a8
  100
AcDbEntity
  8
SK1
  100
AcDbLine
  10
43.6
  20
0.962054
  30
0
  11
44.5621
  21
0
  31
0
  0
LINE
  5
a9
  100
AcDbEntity
  8
SK1
  100
AcDbLine
  10
43.6
  20
0.714566
  30
0
  11
44.3146
  21
0
  31
0
  0
LINE
  5
aa
  100
AcDbEntity
  8
SK1
  100
AcDbLine
  10
43.6
  20
0.467079
  30
0
  11
44.0671
  21
0
  31
0
  0
LINE
  5
ab
  100
AcDbEntity
  8
SK1
  100
AcDbLine
  10
43.6
  20
0.219592
  30
0
  11
43.8196
  21
0
  31
0
  0
LINE
  5
ac
  100
AcDbEntity
  8
SK1
  100
AcDbLine
  10
43.6
  20
1.70452
  30
0
  11
43.6441
  21
1.74861
  31
0
  0
LINE
  5
ad
  100
AcDbEntity
  8
SK1
  100
AcDbLine
  10
43.6
  20
1.45703
  30
0
  11
43.871
  21
1.72802
  31
0
  0
LINE
  5
ae
  100
AcDbEntity
  8
SK1
  100
AcDbLine
  10
43.6
  20
1.20954
  30
0
  11
44.0742
  21
1.6837
  31
0
  0
LINE
  5
af
  100
AcDbEntity
  8
SK1
  100
AcDbLine
  10
43.6
  20
0.962054
  30
0
  11
44.2588
  21
1.62082
  31
0
  0
LINE
  5
b0
  100
AcDbEntity
  8
SK1
  100
AcDbLine
  10
43.6
  20
0.714566
  30
0
  11
44.4271
  21
1.54167
  31
0
  0
LINE
  5
b1
  100
AcDbEntity
  8
SK1
  100
AcDbLine
  10
43.6
  20
0.467079
  30
0
  11
44.581
  21
1.44812
  31
0
  0
LINE
  5
b2
  100
AcDbEntity
  8
SK1
  100
AcDbLine
  10
43.6
  20
0.219592
  30
0
  11
44.7226
  21
1.34216
  31
0
  0
LINE
  5
b3
  100
AcDbEntity
  8
SK1
  100
AcDbLine
  10
43.6279
  20
0
  30
0
  11
44.8508
  21
1.22288
  31
0
  0
LINE
  5
b4
  100
AcDbEntity
  8
SK1
  100
AcDbLine
  10
43.8754
  20
0
  30
0
  11
44.967
  21
1.09157
  31
0
  0
LINE
  5
b5
  100
AcDbEntity
  8
SK1
  100
AcDbLine
  10
44.1229
  20
0
  30
0
  11
45.0707
  21
0.947822
  31
0
  0
LINE
  5
b6
  100
AcDbEntity
  8
SK1
  100
AcDbLine
  10
44.3704
  20
0
  30
0
  11
45.1605
  21
0.790145
  31
0
  0
LINE
  5
b7
  100
AcDbEntity
  8
SK1
  100
AcDbLine
  10
44.6178
  20
0
  30
0
  11
45.2364
  21
0.618517
  31
0
  0
LINE
  5
b8
  100
AcDbEntity
  8
SK1
  100
AcDbLine
  10
44.8653
  20
0
  30
0
  11
45.296
  21
0.430696
  31
0
  0
LINE
  5
b9
  100
AcDbEntity
  8
SK1
  100
AcDbLine
  10
45.1128
  20
0
  30
0
  11
45.3356
  21
0.222827
  31
0
  0
LINE
  5
ba
  100
AcDbEntity
  8
SK1
  100
AcDbLine
  10
43.6
  20
0
  30
0
  11
43.6
  21
1.75
  31
0
  0
LINE
  5
bb
  100
AcDbEntity
  8
SK1
  100
AcDbLine
  10
43.6
  20
0
  30
0
  11
45.35
  21
0
  31
0
  0
ARC
  5
bc
  100
AcDbEntity
  8
SK1
  100
AcDbCircle
  10
43.6
  20
0
  30
0
  40
1.75
  100
AcDbArc
  50
0
  51
90
  0
ARC
  5
bd
  100
AcDbEntity
  8
SK1
  100
AcDbCircle
  10
43.6
  20
0
  30
0
  40
1.75
  100
AcDbArc
  50
90
  51
180
  0
LINE
  5
be
  100
AcDbEntity
  8
SK1
  100
AcDbLine
  10
43.5721
  20
0
  30
0
  11
43.6
  21
-0.027896
  31
0
  0
LINE
  5
bf
  100
AcDbEntity
  8
SK1
  100
AcDbLine
  10
43.3246
  20
0
  30
0
  11
43.6
  21
-0.275383
  31
0
  0
LINE
  5
c0
  100
AcDbEntity
  8
SK1
  100
AcDbLine
  10
43.0771
  20
0
  30
0
  11
43.6
  21
-0.522871
  31
0
  0
LINE
  5
c1
  100
AcDbEntity
  8
SK1
  100
AcDbLine
  10
42.8296
  20
0
  30
0
  11
43.6
  21
-0.770358
  31
0
  0
LINE
  5
c2
  100
AcDbEntity
  8
SK1
  100
AcDbLine
  10
42.5822
  20
0
  30
0
  11
43.6
  21
-1.01785
  31
0
  0
LINE
  5
c3
  100
AcDbEntity
  8
SK1
  100
AcDbLine
  10
42.3347
  20
0
  30
0
  11
43.6
  21
-1.26533
  31
0
  0
LINE
  5
c4
  100
AcDbEntity
  8
SK1
  100
AcDbLine
  10
42.0872
  20
0
  30
0
  11
43.6
  21
-1.51282
  31
0
  0
LINE
  5
c5
  100
AcDbEntity
  8
SK1
  100
AcDbLine
  10
41.8503
  20
-0.010642
  30
0
  11
43.5894
  21
-1.74967
  31
0
  0
LINE
  5
c6
  100
AcDbEntity
  8
SK1
  100
AcDbLine
  10
41.8736
  20
-0.281429
  30
0
  11
43.3186
  21
-1.72637
  31
0
  0
LINE
  5
c7
  100
AcDbEntity
  8
SK1
  100
AcDbLine
  10
41.9639
  20
-0.619147
  30
0
  11
42.9809
  21
-1.63613
  31
0
  0
LINE
  5
c8
  100
AcDbEntity
  8
SK1
  100
AcDbLine
  10
41.8514
  20
-0.044098
  30
0
  11
41.8955
  21
0
  31
0
  0
LINE
  5
c9
  100
AcDbEntity
  8
SK1
  100
AcDbLine
  10
41.872
  20
-0.270991
  30
0
  11
42.143
  21
0
  31
0
  0
LINE
  5
ca
  100
AcDbEntity
  8
SK1
  100
AcDbLine
  10
41.9163
  20
-0.474162
  30
0
  11
42.3905
  21
0
  31
0
  0
LINE
  5
cb
  100
AcDbEntity
  8
SK1
  100
AcDbLine
  10
41.9792
  20
-0.658762
  30
0
  11
42.6379
  21
0
  31
0
  0
LINE
  5
cc
  100
AcDbEntity
  8
SK1
  100
AcDbLine
  10
42.0583
  20
-0.827105
  30
0
  11
42.8854
  21
0
  31
0
  0
LINE
  5
cd
  100
AcDbEntity
  8
SK1
  100
AcDbLine
  10
42.1519
  20
-0.981039
  30
0
  11
43.1329
  21
0
  31
0
  0
LINE
  5
ce
  100
AcDbEntity
  8
SK1
  100
AcDbLine
  10
42.2578
  20
-1.12257
  30
0
  11
43.3804
  21
0
  31
0
  0
LINE
  5
cf
  100
AcDbEntity
  8
SK1
  100
AcDbLine
  10
42.3771
  20
-1.25077
  30
0
  11
43.6
  21
-0.027896
  31
0
  0
LINE
  5
d0
  100
AcDbEntity
  8
SK1
  100
AcDbLine
  10
42.5084
  20
-1.36695
  30
0
  11
43.6
  21
-0.275383
  31
0
  0
LINE
  5
d1
  100
AcDbEntity
  8
SK1
  100
AcDbLine
  10
42.6522
  20
-1.47069
  30
0
  11
43.6
  21
-0.522871
  31
0
  0
LINE
  5
d2
  100
AcDbEntity
  8
SK1
  100
AcDbLine
  10
42.8099
  20
-1.5605
  30
0
  11
43.6
  21
-0.770358
  31
0
  0
LINE
  5
d3
  100
AcDbEntity
  8
SK1
  100
AcDbLine
  10
42.9815
  20
-1.63636
  30
0
  11
43.6
  21
-1.01785
  31
0
  0
LINE
  5
d4
  100
AcDbEntity
  8
SK1
  100
AcDbLine
  10
43.1693
  20
-1.69603
  30
0
  11
43.6
  21
-1.26533
  31
0
  0
LINE
  5
d5
  100
AcDbEntity
  8
SK1
  100
AcDbLine
  10
43.3772
  20
-1.73565
  30
0
  11
43.6
  21
-1.51282
  31
0
  0
LINE
  5
d6
  100
AcDbEntity
  8
SK1
  100
AcDbLine
  10
43.6
  20
0
  30
0
  11
41.85
  21
0
  31
0
  0
LINE
  5
d7
  100
AcDbEntity
  8
SK1
  100
AcDbLine
  10
43.6
  20
-1.75
  30
0
  11
43.6
  21
0
  31
0
  0
ARC
  5
d8
  100
AcDbEntity
  8
SK1
  100
AcDbCircle
  10
43.6
  20
0
  30
0
  40
1.75
  100
AcDbArc
  50
180
  51
270
  0
ARC
  5
d9
  100
AcDbEntity
  8
SK1
  100
AcDbCircle
  10
43.6
  20
0
  30
0
  40
1.75
  100
AcDbArc
  50
270
  51
0
  0
LINE
  5
154
  100
AcDbEntity
  8
NOCUT
  100
AcDbLine
  10
61.1
  20
0
  30
0
  11
61.1
  21
1.165
  31
0
  0
LINE
  5
155
  100
AcDbEntity
  8
NOCUT
  100
AcDbLine
  10
61.1
  20
1.165
  30
0
  11
51.4
  21
1.165
  31
0
  0
ARC
  5
156
  100
AcDbEntity
  8
NOCUT
  100
AcDbCircle
  10
51.487156
  20
2.161195
  30
0
  40
1
  100
AcDbArc
  50
255
  51
265
  0
LINE
  5
157
  100
AcDbEntity
  8
NOCUT
  100
AcDbLine
  10
51.228337
  20
1.195269
  30
0
  11
43.83988
  21
3.175
  31
0
  0
LINE
  5
158
  100
AcDbEntity
  8
NOCUT
  100
AcDbLine
  10
43.83988
  20
3.175
  30
0
  11
43.6
  21
3.175
  31
0
  0
LINE
  5
159
  100
AcDbEntity
  8
NOCUT
  100
AcDbLine
  10
43.6
  20
3.175
  30
0
  11
43.6
  21
0
  31
0
  0
LINE
  5
15a
  100
AcDbEntity
  8
NOCUT
  100
AcDbLine
  10
43.6
  20
0
  30
0
  11
61.1
  21
0
  31
0
  0
ARC
  5
15b
  100
AcDbEntity
  8
CUT
  100
AcDbCircle
  10
62.3095
  20
0
  30
0
  40
1.1905
  100
AcDbArc
  50
0
  51
90
  0
LINE
  5
15c
  100
AcDbEntity
  8
CUT
  100
AcDbLine
  10
62.3095
  20
1.1905
  30
0
  11
61.1
  21
1.1905
  31
0
  0
LINE
  5
15d
  100
AcDbEntity
  8
CUT
  100
AcDbLine
  10
61.1
  20
1.1905
  30
0
  11
61.1
  21
0
  31
0
  0
LINE
  5
15e
  100
AcDbEntity
  8
CUT
  100
AcDbLine
  10
61.1
  20
0
  30
0
  11
63.5
  21
0
  31
0
  0
LINE
  5
15f
  100
AcDbEntity
  8
4
  100
AcDbLine
  10
43.6
  20
0
  30
0
  11
63.5
  21
0
  31
0
  0
LINE
  5
160
  100
AcDbEntity
  8
SK4
  100
AcDbLine
  10
-1
  20
0
  30
0
  11
64.5
  21
0
  31
0
  0
LINE
  5
161
  100
AcDbEntity
  8
INFTOTAL
  100
AcDbLine
  10
-16.375
  20
24.55
  30
0
  11
79.875
  21
24.55
  31
0
  0
LINE
  5
162
  100
AcDbEntity
  8
INFTOTAL
  100
AcDbLine
  10
79.875
  20
24.55
  30
0
  11
79.875
  21
-19.55
  31
0
  0
LINE
  5
163
  100
AcDbEntity
  8
INFTOTAL
  100
AcDbLine
  10
79.875
  20
-19.55
  30
0
  11
-16.375
  21
-19.55
  31
0
  0
LINE
  5
164
  100
AcDbEntity
  8
INFTOTAL
  100
AcDbLine
  10
-16.375
  20
-19.55
  30
0
  11
-16.375
  21
24.55
  31
0
  0
ENDSEC
  0
SECTION
  2
OBJECTS
  0
DICTIONARY
  5
165
  330
0
100
AcDbDictionary
281
    1
  3
ACAD_GROUP
  350
166
  0
DICTIONARY
  5
166
102
{ACAD_REACTORS
  330
165
102
}
  330
165
100
AcDbDictionary
281
    1
  0
ENDSEC
  0
EOF
