  0
SECTION
  2
HEADER
  9
$ACADVER
  1
AC1015
  9
$DWGCODEPAGE
  3
ANSI_932
  9
$HANDSEED
  5
106AB90
  0
ENDSEC
  0
SECTION
  2
CLASSES
  0
CLASS
  1
IMAGEDEF
  2
AcDbRasterImageDef
  3
ISM
  90
0
  91
4
  280
0
  281
0
  0
CLASS
  1
IMAGE
  2
AcDbRasterImage
  3
ISM
  90
127
  91
5
  280
0
  281
1
  0
CLASS
  1
IMAGEDEF_REACTOR
  2
AcDbRasterImageDefReactor
  3
ISM
  90
1
  91
4
  280
0
  281
0
  0
ENDSEC
  0
SECTION
  2
TABLES
  0
TABLE
  2
VPORT
  5
2
  330
0
  100
AcDbSymbolTable
  70
    0
  0
ENDTAB
  0
TABLE
  2
LTYPE
  5
3
  330
0
  100
AcDbSymbolTable
  70
    4
  0
LTYPE
  5
4
  330
3
  100
AcDbSymbolTableRecord
  100
AcDbLinetypeTableRecord
  2
ByBlock
  70
    0
  3

  72
65
  73
    0
  40
0
  0
LTYPE
  5
5
  330
3
  100
AcDbSymbolTableRecord
  100
AcDbLinetypeTableRecord
  2
ByLayer
  70
    0
  3

  72
65
  73
    0
  40
0
  0
LTYPE
  5
6
  330
3
  100
AcDbSymbolTableRecord
  100
AcDbLinetypeTableRecord
  2
CONTINUOUS
  70
    0
  3
Solid Line
  72
65
  73
    0
  40
0
  0
LTYPE
  5
7
  330
3
  100
AcDbSymbolTableRecord
  100
AcDbLinetypeTableRecord
  2
DASH
  70
    0
  3
Hidden
  72
65
  73
2
  40
2.5
  49
1.5
  74
0
  49
-1
  74
0
  0
LTYPE
  5
8
  330
3
  100
AcDbSymbolTableRecord
  100
AcDbLinetypeTableRecord
  2
LONGDASHDASH
  70
    0
  3
__ . __
  72
65
  73
    4
  40
7
  49
4
  74
    0
  49
-1
  74
    0
  49
1
  74
    0
  49
-1
  74
    0
  0
ENDTAB
  0
TABLE
  2
LAYER
  5
9
  330
0
  100
AcDbSymbolTable
  70
    40
  0
LAYER
  5
a
  330
9
  100
AcDbSymbolTableRecord
  100
AcDbLayerTableRecord
  2
0
  70
    0
  62
    0
  6
CONTINUOUS
  390
0
  0
LAYER
  5
c
  330
9
  100
AcDbSymbolTableRecord
  100
AcDbLayerTableRecord
  2
1
  70
    0
  62
    4
  6
CONTINUOUS
  370
50
  390
0
  0
LAYER
  5
d
  330
9
  100
AcDbSymbolTableRecord
  100
AcDbLayerTableRecord
  2
2
  70
    0
  62
    7
  6
CONTINUOUS
  370
25
  390
0
  0
LAYER
  5
f
  330
9
  100
AcDbSymbolTableRecord
  100
AcDbLayerTableRecord
  2
4
  70
    0
  62
    2
  6
LONGDASHDASH
  370
25
  390
0
  0
LAYER
  5
13
  330
9
  100
AcDbSymbolTableRecord
  100
AcDbLayerTableRecord
  2
SK1
  70
    0
  62
    4
  6
CONTINUOUS
  370
50
  390
0
  0
LAYER
  5
14
  330
9
  100
AcDbSymbolTableRecord
  100
AcDbLayerTableRecord
  2
SK2
  70
    0
  62
    7
  6
CONTINUOUS
  370
25
  390
0
  0
LAYER
  5
16
  330
9
  100
AcDbSymbolTableRecord
  100
AcDbLayerTableRecord
  2
SK4
  70
    0
  62
    2
  6
LONGDASHDASH
  370
25
  390
0
  0
LAYER
  5
21
  330
9
  100
AcDbSymbolTableRecord
  100
AcDbLayerTableRecord
  2
NOCUT
  70
    0
  62
    7
  6
CONTINUOUS
  370
25
  390
0
  0
LAYER
  5
22
  330
9
  100
AcDbSymbolTableRecord
  100
AcDbLayerTableRecord
  2
CUT
  70
    0
  62
    1
  6
CONTINUOUS
  370
25
  390
0
  0
LAYER
  5
26
  330
9
  100
AcDbSymbolTableRecord
  100
AcDbLayerTableRecord
  2
INFTOTAL
  70
    0
  62
    9
  6
CONTINUOUS
  370
18
  390
0
  0
ENDTAB
  0
TABLE
  2
STYLE
  5
27
  330
0
  100
AcDbSymbolTable
  70
    1
  0
STYLE
  5
28
  330
27
  100
AcDbSymbolTableRecord
  100
AcDbTextStyleTableRecord
  2
Monospac821 BT
  70
    0
  40
    3.5
  41
1
  50
0
  71
0
  42
3
  3

  4

  1001
ACAD
  1000
Monospac821 BT
  1071
256
  0
ENDTAB
  0
TABLE
  2
VIEW
  5
29
  330
0
  100
AcDbSymbolTable
  70
    0
  0
ENDTAB
  0
TABLE
  2
UCS
  5
2a
  330
0
  100
AcDbSymbolTable
  70
    0
  0
ENDTAB
  0
TABLE
  2
APPID
  5
2b
  330
0
  100
AcDbSymbolTable
  70
    1
  0
APPID
  5
2c
  330
2b
  100
AcDbSymbolTableRecord
  100
AcDbRegAppTableRecord
  2
ACAD
  70
    0
  0
ENDTAB
  0
TABLE
  2
DIMSTYLE
  5
2d
  330
0
  100
AcDbSymbolTable
  70
    1
  100
AcDbDimStyleTable
  0
DIMSTYLE
  105
2e
  330
2d
  100
AcDbSymbolTableRecord
  100
AcDbDimStyleTableRecord
  2
STANDARD
  70
    0
  41
    3
  42
0.5
  44
1
  73
0
  77
1
  78
1
  140
3.5
  141
2.5
  143
0.03937
  147
0.8
  172
1
  174
1
  178
0
  179
1
  271
2
  279
1
  284
1
  340
28
  0
ENDTAB
  0
TABLE
  2
BLOCK_RECORD
  5
2f
  330
0
  100
AcDbSymbolTable
  70
    2
  0
BLOCK_RECORD
  5
30
  330
2f
  100
AcDbSymbolTableRecord
  100
AcDbBlockTableRecord
  2
*Model_Space
  0
BLOCK_RECORD
  5
31
  330
2f
  100
AcDbSymbolTableRecord
  100
AcDbBlockTableRecord
  2
*Paper_Space
  0
BLOCK_RECORD
  5
f3
  330
2f
  100
AcDbSymbolTableRecord
  100
AcDbBlockTableRecord
  2
*Df2
  340
0
  0
BLOCK_RECORD
  5
101
  330
2f
  100
AcDbSymbolTableRecord
  100
AcDbBlockTableRecord
  2
*D100
  340
0
  0
BLOCK_RECORD
  5
10f
  330
2f
  100
AcDbSymbolTableRecord
  100
AcDbBlockTableRecord
  2
*D10e
  340
0
  0
BLOCK_RECORD
  5
11d
  330
2f
  100
AcDbSymbolTableRecord
  100
AcDbBlockTableRecord
  2
*D11c
  340
0
  0
BLOCK_RECORD
  5
12b
  330
2f
  100
AcDbSymbolTableRecord
  100
AcDbBlockTableRecord
  2
*D12a
  340
0
  0
BLOCK_RECORD
  5
135
  330
2f
  100
AcDbSymbolTableRecord
  100
AcDbBlockTableRecord
  2
*D134
  340
0
  0
BLOCK_RECORD
  5
143
  330
2f
  100
AcDbSymbolTableRecord
  100
AcDbBlockTableRecord
  2
*D142
  340
0
  0
BLOCK_RECORD
  5
151
  330
2f
  100
AcDbSymbolTableRecord
  100
AcDbBlockTableRecord
  2
*D150
  340
0
  0
BLOCK_RECORD
  5
15f
  330
2f
  100
AcDbSymbolTableRecord
  100
AcDbBlockTableRecord
  2
*D15e
  340
0
  0
ENDTAB
  0
ENDSEC
  0
SECTION
  2
BLOCKS
  0
BLOCK
  5
32
  330
30
  100
AcDbEntity
  8
0
  100
AcDbBlockBegin
  2
*Model_Space
  70
    0
  10
0
  20
0
  30
0
  3
*Model_Space
  1

  0
ENDBLK
  5
33
  330
30
  100
AcDbEntity
  8
0
  100
AcDbBlockEnd
  0
BLOCK
  5
34
  330
31
  100
AcDbEntity
  8
0
  100
AcDbBlockBegin
  2
*Paper_Space
  70
    0
  10
0
  20
0
  30
0
  3
*Paper_Space
  1

  0
ENDBLK
  5
35
  330
31
  100
AcDbEntity
  8
0
  100
AcDbBlockEnd
  0
BLOCK
  5
f1
  330
f3
  100
AcDbEntity
  8
SK2
  100
AcDbBlockBegin
  2
*Df2
  70
1
  10
0
  20
0
  30
0
  3
*Df2
  1

  0
LINE
  5
f4
  330
f3
  100
AcDbEntity
  8
SK2
  100
AcDbLine
  10
0
  20
2.475
  30
0
  11
0
  21
20.175
  31
0
  0
LINE
  5
f5
  330
f3
  100
AcDbEntity
  8
SK2
  100
AcDbLine
  10
95.3
  20
-15.175
  30
0
  11
95.3
  21
20.175
  31
0
  0
LINE
  5
f6
  330
f3
  100
AcDbEntity
  8
SK2
  100
AcDbLine
  10
0
  20
18.175
  30
0
  11
95.3
  21
18.175
  31
0
  0
SOLID
  5
f7
  330
f3
  100
AcDbEntity
  8
SK2
  100
AcDbTrace
  10
0
  20
18.175
  30
0
  11
2.478612
  21
18.501315
  31
0
  12
2.478612
  22
17.848685
  32
0
  13
2.478612
  23
17.848685
  33
0
  0
SOLID
  5
f8
  330
f3
  100
AcDbEntity
  8
SK2
  100
AcDbTrace
  10
95.3
  20
18.175
  30
0
  11
92.821388
  21
17.848685
  31
0
  12
92.821388
  22
18.501315
  32
0
  13
92.821388
  23
18.501315
  33
0
  0
MTEXT
  5
f9
  330
f3
  100
AcDbEntity
  8
SK2
  100
AcDbMText
  10
47.65
  20
18.175
  30
0
  11
1
  21
0
  31
0
  40
2
  41
0
  71
8
  72
1
  1
95.3
  0
POINT
  5
fa
  330
f3
  100
AcDbEntity
  8
SK2
  62
0
  100
AcDbPoint
  10
0
  20
2.475
  30
0
  0
POINT
  5
fb
  330
f3
  100
AcDbEntity
  8
SK2
  62
0
  100
AcDbPoint
  10
95.3
  20
-15.175
  30
0
  0
POINT
  5
fc
  330
f3
  100
AcDbEntity
  8
SK2
  62
0
  100
AcDbPoint
  10
95.3
  20
18.175
  30
0
  0
ENDBLK
  5
fd
  330
f3
  100
AcDbEntity
  8
SK2
  100
AcDbBlockEnd
  0
BLOCK
  5
ff
  330
101
  100
AcDbEntity
  8
SK2
  100
AcDbBlockBegin
  2
*D100
  70
1
  10
0
  20
0
  30
0
  3
*D100
  1

  0
LINE
  5
102
  330
101
  100
AcDbEntity
  8
SK2
  100
AcDbLine
  10
41.1
  20
3.175
  30
0
  11
41.1
  21
15.175
  31
0
  0
LINE
  5
103
  330
101
  100
AcDbEntity
  8
SK2
  100
AcDbLine
  10
0
  20
2.475
  30
0
  11
0
  21
20.175
  31
0
  0
LINE
  5
104
  330
101
  100
AcDbEntity
  8
SK2
  100
AcDbLine
  10
41.1
  20
13.175
  30
0
  11
0
  21
13.175
  31
0
  0
SOLID
  5
105
  330
101
  100
AcDbEntity
  8
SK2
  100
AcDbTrace
  10
41.1
  20
13.175
  30
0
  11
43.578612
  21
13.501315
  31
0
  12
43.578612
  22
12.848685
  32
0
  13
43.578612
  23
12.848685
  33
0
  0
SOLID
  5
106
  330
101
  100
AcDbEntity
  8
SK2
  100
AcDbTrace
  10
0
  20
13.175
  30
0
  11
-2.478612
  21
12.848685
  31
0
  12
-2.478612
  22
13.501315
  32
0
  13
-2.478612
  23
13.501315
  33
0
  0
MTEXT
  5
107
  330
101
  100
AcDbEntity
  8
SK2
  100
AcDbMText
  10
20.55
  20
13.175
  30
0
  11
1
  21
0
  31
0
  40
2
  41
0
  71
8
  72
1
  1
41.1
  0
POINT
  5
108
  330
101
  100
AcDbEntity
  8
SK2
  62
0
  100
AcDbPoint
  10
41.1
  20
3.175
  30
0
  0
POINT
  5
109
  330
101
  100
AcDbEntity
  8
SK2
  62
0
  100
AcDbPoint
  10
0
  20
2.475
  30
0
  0
POINT
  5
10a
  330
101
  100
AcDbEntity
  8
SK2
  62
0
  100
AcDbPoint
  10
0
  20
13.175
  30
0
  0
ENDBLK
  5
10b
  330
101
  100
AcDbEntity
  8
SK2
  100
AcDbBlockEnd
  0
BLOCK
  5
10d
  330
10f
  100
AcDbEntity
  8
SK2
  100
AcDbBlockBegin
  2
*D10e
  70
1
  10
0
  20
0
  30
0
  3
*D10e
  1

  0
LINE
  5
110
  330
10f
  100
AcDbEntity
  8
SK2
  100
AcDbLine
  10
0.7
  20
-3.175
  30
0
  11
-12
  21
-3.175
  31
0
  0
LINE
  5
111
  330
10f
  100
AcDbEntity
  8
SK2
  100
AcDbLine
  10
0.7
  20
3.175
  30
0
  11
-12
  21
3.175
  31
0
  0
LINE
  5
112
  330
10f
  100
AcDbEntity
  8
SK2
  100
AcDbLine
  10
-10
  20
-8.576733
  30
0
  11
-10
  21
3.175
  31
0
  0
SOLID
  5
113
  330
10f
  100
AcDbEntity
  8
SK2
  100
AcDbTrace
  10
-10
  20
-3.175
  30
0
  11
-10.326315
  21
-0.696388
  31
0
  12
-9.673685
  22
-0.696388
  32
0
  13
-9.673685
  23
-0.696388
  33
0
  0
SOLID
  5
114
  330
10f
  100
AcDbEntity
  8
SK2
  100
AcDbTrace
  10
-10
  20
3.175
  30
0
  11
-9.673685
  21
0.696388
  31
0
  12
-10.326315
  22
0.696388
  32
0
  13
-10.326315
  23
0.696388
  33
0
  0
MTEXT
  5
115
  330
10f
  100
AcDbEntity
  8
SK2
  100
AcDbMText
  10
-10
  20
0
  30
0
  11
0
  21
1
  31
0
  40
2
  41
0
  71
8
  72
1
  1
ﾘ6.35
  0
POINT
  5
116
  330
10f
  100
AcDbEntity
  8
SK2
  62
0
  100
AcDbPoint
  10
0.7
  20
-3.175
  30
0
  0
POINT
  5
117
  330
10f
  100
AcDbEntity
  8
SK2
  62
0
  100
AcDbPoint
  10
0.7
  20
3.175
  30
0
  0
POINT
  5
118
  330
10f
  100
AcDbEntity
  8
SK2
  62
0
  100
AcDbPoint
  10
-10
  20
3.175
  30
0
  0
ENDBLK
  5
119
  330
10f
  100
AcDbEntity
  8
SK2
  100
AcDbBlockEnd
  0
BLOCK
  5
11b
  330
11d
  100
AcDbEntity
  8
2
  100
AcDbBlockBegin
  2
*D11c
  70
1
  10
0
  20
0
  30
0
  3
*D11c
  1

  0
LINE
  5
11e
  330
11d
  100
AcDbEntity
  8
2
  100
AcDbLine
  10
93.7125
  20
-1.5875
  30
0
  11
107.3
  21
-1.5875
  31
0
  0
LINE
  5
11f
  330
11d
  100
AcDbEntity
  8
2
  100
AcDbLine
  10
93.7125
  20
1.5875
  30
0
  11
107.3
  21
1.5875
  31
0
  0
LINE
  5
120
  330
11d
  100
AcDbEntity
  8
2
  100
AcDbLine
  10
105.3
  20
-10.39604
  30
0
  11
105.3
  21
1.5875
  31
0
  0
SOLID
  5
121
  330
11d
  100
AcDbEntity
  8
2
  100
AcDbTrace
  10
105.3
  20
-1.5875
  30
0
  11
104.973685
  21
0.891112
  31
0
  12
105.626315
  22
0.891112
  32
0
  13
105.626315
  23
0.891112
  33
0
  0
SOLID
  5
122
  330
11d
  100
AcDbEntity
  8
2
  100
AcDbTrace
  10
105.3
  20
1.5875
  30
0
  11
105.626315
  21
-0.891112
  31
0
  12
104.973685
  22
-0.891112
  32
0
  13
104.973685
  23
-0.891112
  33
0
  0
MTEXT
  5
123
  330
11d
  100
AcDbEntity
  8
2
  100
AcDbMText
  10
105.3
  20
0
  30
0
  11
0
  21
1
  31
0
  40
2
  41
0
  71
8
  72
1
  1
ﾘ3.175
  0
POINT
  5
124
  330
11d
  100
AcDbEntity
  8
2
  62
0
  100
AcDbPoint
  10
93.7125
  20
-1.5875
  30
0
  0
POINT
  5
125
  330
11d
  100
AcDbEntity
  8
2
  62
0
  100
AcDbPoint
  10
93.7125
  20
1.5875
  30
0
  0
POINT
  5
126
  330
11d
  100
AcDbEntity
  8
2
  62
0
  100
AcDbPoint
  10
105.3
  20
1.5875
  30
0
  0
ENDBLK
  5
127
  330
11d
  100
AcDbEntity
  8
2
  100
AcDbBlockEnd
  0
BLOCK
  5
129
  330
12b
  100
AcDbEntity
  8
2
  100
AcDbBlockBegin
  2
*D12a
  70
1
  10
0
  20
0
  30
0
  3
*D12a
  1

  0
LINE
  5
12c
  330
12b
  100
AcDbEntity
  8
2
  100
AcDbLine
  10
90.974443
  20
-2.738057
  30
0
  11
101.9061
  21
8.1936
  31
0
  0
MTEXT
  5
12d
  330
12b
  100
AcDbEntity
  8
2
  100
AcDbMText
  10
94.835032
  20
1.122532
  30
0
  11
0.707107
  21
0.707107
  31
0
  40
2
  41
0
  71
8
  72
1
  1
R1.587
  0
SOLID
  5
12e
  330
12b
  100
AcDbEntity
  8
2
  100
AcDbTrace
  10
94.835032
  20
1.122532
  30
0
  11
96.356936
  21
3.105915
  31
0
  12
96.818415
  22
2.644436
  32
0
  13
96.818415
  23
2.644436
  33
0
  0
POINT
  5
12f
  330
12b
  100
AcDbEntity
  8
2
  62
0
  100
AcDbPoint
  10
90.974443
  20
-2.738057
  30
0
  0
POINT
  5
130
  330
12b
  100
AcDbEntity
  8
2
  62
0
  100
AcDbPoint
  10
93.7125
  20
0
  30
0
  0
ENDBLK
  5
131
  330
12b
  100
AcDbEntity
  8
2
  100
AcDbBlockEnd
  0
BLOCK
  5
133
  330
135
  100
AcDbEntity
  8
2
  100
AcDbBlockBegin
  2
*D134
  70
1
  10
0
  20
0
  30
0
  3
*D134
  1

  0
LINE
  5
136
  330
135
  100
AcDbEntity
  8
2
  100
AcDbLine
  10
92.1
  20
-1.565
  30
0
  11
90.1
  21
-1.565
  31
0
  0
LINE
  5
137
  330
135
  100
AcDbEntity
  8
2
  100
AcDbLine
  10
92.1
  20
1.565
  30
0
  11
90.1
  21
1.565
  31
0
  0
LINE
  5
138
  330
135
  100
AcDbEntity
  8
2
  100
AcDbLine
  10
92.1
  20
-1.565
  30
0
  11
92.1
  21
10.136139
  31
0
  0
SOLID
  5
139
  330
135
  100
AcDbEntity
  8
2
  100
AcDbTrace
  10
92.1
  20
-1.565
  30
0
  11
91.773685
  21
0.913612
  31
0
  12
92.426315
  22
0.913612
  32
0
  13
92.426315
  23
0.913612
  33
0
  0
SOLID
  5
13a
  330
135
  100
AcDbEntity
  8
2
  100
AcDbTrace
  10
92.1
  20
1.565
  30
0
  11
92.426315
  21
-0.913612
  31
0
  12
91.773685
  22
-0.913612
  32
0
  13
91.773685
  23
-0.913612
  33
0
  0
MTEXT
  5
13b
  330
135
  100
AcDbEntity
  8
2
  100
AcDbMText
  10
92.1
  20
1.565
  30
0
  11
0
  21
1
  31
0
  40
2
  41
0
  71
8
  72
1
  1
ﾘ3.13
  0
POINT
  5
13c
  330
135
  100
AcDbEntity
  8
2
  62
0
  100
AcDbPoint
  10
90.1
  20
-1.565
  30
0
  0
POINT
  5
13d
  330
135
  100
AcDbEntity
  8
2
  62
0
  100
AcDbPoint
  10
90.1
  20
1.565
  30
0
  0
POINT
  5
13e
  330
135
  100
AcDbEntity
  8
2
  62
0
  100
AcDbPoint
  10
92.1
  20
10.136139
  30
0
  0
ENDBLK
  5
13f
  330
135
  100
AcDbEntity
  8
2
  100
AcDbBlockEnd
  0
BLOCK
  5
141
  330
143
  100
AcDbEntity
  8
2
  100
AcDbBlockBegin
  2
*D142
  70
1
  10
0
  20
0
  30
0
  3
*D142
  1

  0
LINE
  5
144
  330
143
  100
AcDbEntity
  8
2
  100
AcDbLine
  10
92.1
  20
1.565
  30
0
  11
92.1
  21
9
  31
0
  0
LINE
  5
145
  330
143
  100
AcDbEntity
  8
2
  100
AcDbLine
  10
47.5
  20
1.565
  30
0
  11
47.5
  21
9
  31
0
  0
LINE
  5
146
  330
143
  100
AcDbEntity
  8
2
  100
AcDbLine
  10
93.954208
  20
7
  30
0
  11
47.5
  21
7
  31
0
  0
SOLID
  5
147
  330
143
  100
AcDbEntity
  8
2
  100
AcDbTrace
  10
92.1
  20
7
  30
0
  11
94.578612
  21
7.326315
  31
0
  12
94.578612
  22
6.673685
  32
0
  13
94.578612
  23
6.673685
  33
0
  0
SOLID
  5
148
  330
143
  100
AcDbEntity
  8
2
  100
AcDbTrace
  10
47.5
  20
7
  30
0
  11
45.021388
  21
6.673685
  31
0
  12
45.021388
  22
7.326315
  32
0
  13
45.021388
  23
7.326315
  33
0
  0
MTEXT
  5
149
  330
143
  100
AcDbEntity
  8
2
  100
AcDbMText
  10
90.884884
  20
7
  30
0
  11
1
  21
-0
  31
0
  40
2
  41
0
  71
8
  72
1
  1
44.6
  0
POINT
  5
14a
  330
143
  100
AcDbEntity
  8
2
  62
0
  100
AcDbPoint
  10
92.1
  20
1.565
  30
0
  0
POINT
  5
14b
  330
143
  100
AcDbEntity
  8
2
  62
0
  100
AcDbPoint
  10
47.5
  20
1.565
  30
0
  0
POINT
  5
14c
  330
143
  100
AcDbEntity
  8
2
  62
0
  100
AcDbPoint
  10
47.5
  20
7
  30
0
  0
ENDBLK
  5
14d
  330
143
  100
AcDbEntity
  8
2
  100
AcDbBlockEnd
  0
BLOCK
  5
14f
  330
151
  100
AcDbEntity
  8
2
  100
AcDbBlockBegin
  2
*D150
  70
1
  10
0
  20
0
  30
0
  3
*D150
  1

  0
LINE
  5
152
  330
151
  100
AcDbEntity
  8
2
  100
AcDbLine
  10
95.3
  20
-15.175
  30
0
  11
95.3
  21
20.175
  31
0
  0
LINE
  5
153
  330
151
  100
AcDbEntity
  8
2
  100
AcDbLine
  10
41.1
  20
3.175
  30
0
  11
41.1
  21
10.175
  31
0
  0
LINE
  5
154
  330
151
  100
AcDbEntity
  8
2
  100
AcDbLine
  10
95.3
  20
8.175
  30
0
  11
41.1
  21
8.175
  31
0
  0
SOLID
  5
155
  330
151
  100
AcDbEntity
  8
2
  100
AcDbTrace
  10
95.3
  20
8.175
  30
0
  11
97.778612
  21
8.501315
  31
0
  12
97.778612
  22
7.848685
  32
0
  13
97.778612
  23
7.848685
  33
0
  0
SOLID
  5
156
  330
151
  100
AcDbEntity
  8
2
  100
AcDbTrace
  10
41.1
  20
8.175
  30
0
  11
38.621388
  21
7.848685
  31
0
  12
38.621388
  22
8.501315
  32
0
  13
38.621388
  23
8.501315
  33
0
  0
MTEXT
  5
157
  330
151
  100
AcDbEntity
  8
2
  100
AcDbMText
  10
68.2
  20
8.175
  30
0
  11
1
  21
-0
  31
0
  40
2
  41
0
  71
8
  72
1
  1
54.2
  0
POINT
  5
158
  330
151
  100
AcDbEntity
  8
2
  62
0
  100
AcDbPoint
  10
95.3
  20
-15.175
  30
0
  0
POINT
  5
159
  330
151
  100
AcDbEntity
  8
2
  62
0
  100
AcDbPoint
  10
41.1
  20
3.175
  30
0
  0
POINT
  5
15a
  330
151
  100
AcDbEntity
  8
2
  62
0
  100
AcDbPoint
  10
41.1
  20
8.175
  30
0
  0
ENDBLK
  5
15b
  330
151
  100
AcDbEntity
  8
2
  100
AcDbBlockEnd
  0
BLOCK
  5
15d
  330
15f
  100
AcDbEntity
  8
2
  100
AcDbBlockBegin
  2
*D15e
  70
1
  10
0
  20
0
  30
0
  3
*D15e
  1

  0
LINE
  5
160
  330
15f
  100
AcDbEntity
  8
2
  100
AcDbLine
  10
92.1
  20
-1.565
  30
0
  11
92.1
  21
-15.175
  31
0
  0
LINE
  5
161
  330
15f
  100
AcDbEntity
  8
2
  100
AcDbLine
  10
95.3
  20
-15.175
  30
0
  11
95.3
  21
20.175
  31
0
  0
LINE
  5
162
  330
15f
  100
AcDbEntity
  8
2
  100
AcDbLine
  10
89.27599
  20
-13.175
  30
0
  11
95.3
  21
-13.175
  31
0
  0
SOLID
  5
163
  330
15f
  100
AcDbEntity
  8
2
  100
AcDbTrace
  10
92.1
  20
-13.175
  30
0
  11
94.578612
  21
-12.848685
  31
0
  12
94.578612
  22
-13.501315
  32
0
  13
94.578612
  23
-13.501315
  33
0
  0
SOLID
  5
164
  330
15f
  100
AcDbEntity
  8
2
  100
AcDbTrace
  10
95.3
  20
-13.175
  30
0
  11
92.821388
  21
-13.501315
  31
0
  12
92.821388
  22
-12.848685
  32
0
  13
92.821388
  23
-12.848685
  33
0
  0
MTEXT
  5
165
  330
15f
  100
AcDbEntity
  8
2
  100
AcDbMText
  10
93.7
  20
-13.175
  30
0
  11
1
  21
-0
  31
0
  40
2
  41
0
  71
8
  72
1
  1
3.2
  0
POINT
  5
166
  330
15f
  100
AcDbEntity
  8
2
  62
0
  100
AcDbPoint
  10
92.1
  20
-1.565
  30
0
  0
POINT
  5
167
  330
15f
  100
AcDbEntity
  8
2
  62
0
  100
AcDbPoint
  10
95.3
  20
20.175
  30
0
  0
POINT
  5
168
  330
15f
  100
AcDbEntity
  8
2
  62
0
  100
AcDbPoint
  10
95.3
  20
-13.175
  30
0
  0
ENDBLK
  5
169
  330
15f
  100
AcDbEntity
  8
2
  100
AcDbBlockEnd
  0
ENDSEC
  0
SECTION
  2
ENTITIES
  0
DIMENSION
  5
fe
  100
AcDbEntity
  8
SK2
  100
AcDbDimension
  2
*Df2
  10
95.3
  20
18.175
  30
0
  11
47.65
  21
18.175
  31
0
  70
160
  1
<>
  71
5
  3
STANDARD
  42
95.3
  100
AcDbAlignedDimension
  13
0
  23
2.475
  33
0
  14
95.3
  24
-15.175
  34
0
  50
0
  100
AcDbRotatedDimension
  0
DIMENSION
  5
10c
  100
AcDbEntity
  8
SK2
  100
AcDbDimension
  2
*D100
  10
0
  20
13.175
  30
0
  11
20.55
  21
13.175
  31
0
  70
160
  1
<>
  71
5
  3
STANDARD
  42
41.1
  100
AcDbAlignedDimension
  13
41.1
  23
3.175
  33
0
  14
0
  24
2.475
  34
0
  50
0
  100
AcDbRotatedDimension
  0
DIMENSION
  5
11a
  100
AcDbEntity
  8
SK2
  100
AcDbDimension
  2
*D10e
  10
-10
  20
3.175
  30
0
  11
-10
  21
0
  31
0
  70
160
  1
%%c<>
  71
5
  3
STANDARD
  42
6.35
  100
AcDbAlignedDimension
  13
0.7
  23
-3.175
  33
0
  14
0.7
  24
3.175
  34
0
  50
-90
  100
AcDbRotatedDimension
  0
DIMENSION
  5
128
  100
AcDbEntity
  8
2
  100
AcDbDimension
  2
*D11c
  10
105.3
  20
1.5875
  30
0
  11
105.3
  21
0
  31
0
  70
160
  1
%%c<>
  71
5
  3
STANDARD
  42
3.175
  100
AcDbAlignedDimension
  13
93.7125
  23
-1.5875
  33
0
  14
93.7125
  24
1.5875
  34
0
  50
-90
  100
AcDbRotatedDimension
  0
DIMENSION
  5
132
  100
AcDbEntity
  8
2
  100
AcDbDimension
  2
*D12a
  10
93.7125
  20
0
  30
0
  11
94.835032
  21
1.122532
  31
0
  70
164
  1
R1.587
  71
5
  3
STANDARD
  100
AcDbRadialDimension
  15
94.835032
  25
1.122532
  35
0
  50
45
  0
DIMENSION
  5
140
  100
AcDbEntity
  8
2
  100
AcDbDimension
  2
*D134
  10
92.1
  20
10.136139
  30
0
  11
92.1
  21
1.565
  31
0
  70
160
  1
%%c<>
  71
5
  3
STANDARD
  42
3.13
  100
AcDbAlignedDimension
  13
90.1
  23
-1.565
  33
0
  14
90.1
  24
1.565
  34
0
  50
-90
  100
AcDbRotatedDimension
  0
DIMENSION
  5
14e
  100
AcDbEntity
  8
2
  100
AcDbDimension
  2
*D142
  10
47.5
  20
7
  30
0
  11
90.884884
  21
7
  31
0
  70
160
  1
<>
  71
5
  3
STANDARD
  42
44.6
  100
AcDbAlignedDimension
  13
92.1
  23
1.565
  33
0
  14
47.5
  24
1.565
  34
0
  50
0
  100
AcDbRotatedDimension
  0
DIMENSION
  5
15c
  100
AcDbEntity
  8
2
  100
AcDbDimension
  2
*D150
  10
41.1
  20
8.175
  30
0
  11
68.2
  21
8.175
  31
0
  70
160
  1
<>
  71
5
  3
STANDARD
  42
54.2
  100
AcDbAlignedDimension
  13
95.3
  23
-15.175
  33
0
  14
41.1
  24
3.175
  34
0
  50
0
  100
AcDbRotatedDimension
  0
DIMENSION
  5
16a
  100
AcDbEntity
  8
2
  100
AcDbDimension
  2
*D15e
  10
95.3
  20
-13.175
  30
0
  11
93.7
  21
-13.175
  31
0
  70
160
  1
<>
  71
5
  3
STANDARD
  42
3.2
  100
AcDbAlignedDimension
  13
92.1
  23
-1.565
  33
0
  14
95.3
  24
20.175
  34
0
  50
0
  100
AcDbRotatedDimension
  0
ARC
  5
36
  100
AcDbEntity
  8
1
  100
AcDbCircle
  10
47.587156
  20
-2.561195
  30
0
  40
1
  100
AcDbArc
  50
95
  51
105
  0
LINE
  5
37
  100
AcDbEntity
  8
1
  100
AcDbLine
  10
47.5
  20
-1.565
  30
0
  11
92.1
  21
-1.565
  31
0
  0
LINE
  5
38
  100
AcDbEntity
  8
1
  100
AcDbLine
  10
92.1
  20
-1.565
  30
0
  11
92.1
  21
-1.5875
  31
0
  0
LINE
  5
39
  100
AcDbEntity
  8
1
  100
AcDbLine
  10
92.1
  20
-1.5875
  30
0
  11
93.7125
  21
-1.5875
  31
0
  0
ARC
  5
3a
  100
AcDbEntity
  8
1
  100
AcDbCircle
  10
93.7125
  20
0
  30
0
  40
1.5875
  100
AcDbArc
  50
270
  51
0
  0
ARC
  5
3b
  100
AcDbEntity
  8
1
  100
AcDbCircle
  10
93.7125
  20
0
  30
0
  40
1.5875
  100
AcDbArc
  50
0
  51
90
  0
LINE
  5
3c
  100
AcDbEntity
  8
1
  100
AcDbLine
  10
93.7125
  20
1.5875
  30
0
  11
92.1
  21
1.5875
  31
0
  0
LINE
  5
3d
  100
AcDbEntity
  8
1
  100
AcDbLine
  10
92.1
  20
1.5875
  30
0
  11
92.1
  21
1.565
  31
0
  0
LINE
  5
3e
  100
AcDbEntity
  8
1
  100
AcDbLine
  10
92.1
  20
1.565
  30
0
  11
47.5
  21
1.565
  31
0
  0
ARC
  5
3f
  100
AcDbEntity
  8
1
  100
AcDbCircle
  10
47.587156
  20
2.561195
  30
0
  40
1
  100
AcDbArc
  50
255
  51
265
  0
LINE
  5
40
  100
AcDbEntity
  8
1
  100
AcDbLine
  10
47.328337
  20
1.595269
  30
0
  11
41.4327
  21
3.175
  31
0
  0
LINE
  5
41
  100
AcDbEntity
  8
1
  100
AcDbLine
  10
41.4327
  20
3.175
  30
0
  11
41.1
  21
3.175
  31
0
  0
LINE
  5
42
  100
AcDbEntity
  8
1
  100
AcDbLine
  10
41.1
  20
3.175
  30
0
  11
41.1
  21
-3.175
  31
0
  0
LINE
  5
43
  100
AcDbEntity
  8
1
  100
AcDbLine
  10
41.1
  20
-3.175
  30
0
  11
41.4327
  21
-3.175
  31
0
  0
LINE
  5
44
  100
AcDbEntity
  8
1
  100
AcDbLine
  10
41.4327
  20
-3.175
  30
0
  11
47.328337
  21
-1.595269
  31
0
  0
LINE
  5
45
  100
AcDbEntity
  8
1
  100
AcDbLine
  10
41.1
  20
-3.175
  30
0
  11
41.1
  21
3.175
  31
0
  0
LINE
  5
46
  100
AcDbEntity
  8
1
  100
AcDbLine
  10
41.1
  20
3.175
  30
0
  11
41.1
  21
-3.175
  31
0
  0
LINE
  5
47
  100
AcDbEntity
  8
1
  100
AcDbLine
  10
41.4327
  20
3.175
  30
0
  11
41.4327
  21
-3.175
  31
0
  0
LINE
  5
48
  100
AcDbEntity
  8
1
  100
AcDbLine
  10
47.328337
  20
-1.595269
  30
0
  11
47.328337
  21
1.595269
  31
0
  0
LINE
  5
49
  100
AcDbEntity
  8
1
  100
AcDbLine
  10
47.5
  20
1.565
  30
0
  11
47.5
  21
-1.565
  31
0
  0
LINE
  5
4a
  100
AcDbEntity
  8
1
  100
AcDbLine
  10
92.2
  20
-0.527971
  30
0
  11
92.3
  21
-0.581296
  31
0
  0
LINE
  5
4b
  100
AcDbEntity
  8
1
  100
AcDbLine
  10
92.3
  20
-0.581296
  30
0
  11
92.4
  21
-0.633852
  31
0
  0
LINE
  5
4c
  100
AcDbEntity
  8
1
  100
AcDbLine
  10
92.4
  20
-0.633852
  30
0
  11
92.5
  21
-0.685571
  31
0
  0
LINE
  5
4d
  100
AcDbEntity
  8
1
  100
AcDbLine
  10
92.5
  20
-0.685571
  30
0
  11
92.6
  21
-0.736382
  31
0
  0
LINE
  5
4e
  100
AcDbEntity
  8
1
  100
AcDbLine
  10
92.6
  20
-0.736382
  30
0
  11
92.7
  21
-0.78622
  31
0
  0
LINE
  5
4f
  100
AcDbEntity
  8
1
  100
AcDbLine
  10
92.7
  20
-0.78622
  30
0
  11
92.8
  21
-0.835017
  31
0
  0
LINE
  5
50
  100
AcDbEntity
  8
1
  100
AcDbLine
  10
92.8
  20
-0.835017
  30
0
  11
92.9
  21
-0.882711
  31
0
  0
LINE
  5
51
  100
AcDbEntity
  8
1
  100
AcDbLine
  10
92.9
  20
-0.882711
  30
0
  11
93
  21
-0.929237
  31
0
  0
LINE
  5
52
  100
AcDbEntity
  8
1
  100
AcDbLine
  10
93
  20
-0.929237
  30
0
  11
93.1
  21
-0.974534
  31
0
  0
LINE
  5
53
  100
AcDbEntity
  8
1
  100
AcDbLine
  10
93.1
  20
-0.974534
  30
0
  11
93.2
  21
-1.018542
  31
0
  0
LINE
  5
54
  100
AcDbEntity
  8
1
  100
AcDbLine
  10
93.2
  20
-1.018542
  30
0
  11
93.3
  21
-1.061203
  31
0
  0
LINE
  5
55
  100
AcDbEntity
  8
1
  100
AcDbLine
  10
93.3
  20
-1.061203
  30
0
  11
93.4
  21
-1.102461
  31
0
  0
LINE
  5
56
  100
AcDbEntity
  8
1
  100
AcDbLine
  10
93.4
  20
-1.102461
  30
0
  11
93.5
  21
-1.142261
  31
0
  0
LINE
  5
57
  100
AcDbEntity
  8
1
  100
AcDbLine
  10
93.5
  20
-1.142261
  30
0
  11
93.6
  21
-1.18055
  31
0
  0
LINE
  5
58
  100
AcDbEntity
  8
1
  100
AcDbLine
  10
93.6
  20
-1.18055
  30
0
  11
93.7
  21
-1.217278
  31
0
  0
LINE
  5
59
  100
AcDbEntity
  8
1
  100
AcDbLine
  10
93.7
  20
-1.217278
  30
0
  11
93.8
  21
-1.250131
  31
0
  0
LINE
  5
5a
  100
AcDbEntity
  8
1
  100
AcDbLine
  10
93.8
  20
-1.250131
  30
0
  11
93.9
  21
-1.275271
  31
0
  0
LINE
  5
5b
  100
AcDbEntity
  8
1
  100
AcDbLine
  10
93.9
  20
-1.275271
  30
0
  11
94
  21
-1.292264
  31
0
  0
LINE
  5
5c
  100
AcDbEntity
  8
1
  100
AcDbLine
  10
94
  20
-1.292264
  30
0
  11
94.1
  21
-1.300681
  31
0
  0
LINE
  5
5d
  100
AcDbEntity
  8
1
  100
AcDbLine
  10
94.1
  20
-1.300681
  30
0
  11
94.2
  21
-1.300038
  31
0
  0
LINE
  5
5e
  100
AcDbEntity
  8
1
  100
AcDbLine
  10
94.2
  20
-1.300038
  30
0
  11
94.3
  21
-1.28977
  31
0
  0
LINE
  5
5f
  100
AcDbEntity
  8
1
  100
AcDbLine
  10
94.3
  20
-1.28977
  30
0
  11
94.4
  21
-1.269196
  31
0
  0
LINE
  5
60
  100
AcDbEntity
  8
1
  100
AcDbLine
  10
94.4
  20
-1.269196
  30
0
  11
94.5
  21
-1.237462
  31
0
  0
LINE
  5
61
  100
AcDbEntity
  8
1
  100
AcDbLine
  10
94.5
  20
-1.237462
  30
0
  11
94.6
  21
-1.193452
  31
0
  0
LINE
  5
62
  100
AcDbEntity
  8
1
  100
AcDbLine
  10
94.6
  20
-1.193452
  30
0
  11
94.7
  21
-1.135628
  31
0
  0
LINE
  5
63
  100
AcDbEntity
  8
1
  100
AcDbLine
  10
94.7
  20
-1.135628
  30
0
  11
94.8
  21
-1.061738
  31
0
  0
LINE
  5
64
  100
AcDbEntity
  8
1
  100
AcDbLine
  10
94.8
  20
-1.061738
  30
0
  11
94.9
  21
-0.971459
  31
0
  0
LINE
  5
65
  100
AcDbEntity
  8
1
  100
AcDbLine
  10
94.9
  20
-0.971459
  30
0
  11
95
  21
-0.870831
  31
0
  0
LINE
  5
66
  100
AcDbEntity
  8
1
  100
AcDbLine
  10
95
  20
-0.91977
  30
0
  11
95
  21
-0.928709
  31
0
  0
LINE
  5
67
  100
AcDbEntity
  8
1
  100
AcDbLine
  10
95
  20
-0.928709
  30
0
  11
95
  21
-0.91977
  31
0
  0
LINE
  5
68
  100
AcDbEntity
  8
1
  100
AcDbLine
  10
95
  20
-0.91977
  30
0
  11
94.9
  21
-1.030772
  31
0
  0
LINE
  5
69
  100
AcDbEntity
  8
1
  100
AcDbLine
  10
94.9
  20
-1.030772
  30
0
  11
94.8
  21
-1.124868
  31
0
  0
LINE
  5
6a
  100
AcDbEntity
  8
1
  100
AcDbLine
  10
94.8
  20
-1.124868
  30
0
  11
94.7
  21
-1.202068
  31
0
  0
LINE
  5
6b
  100
AcDbEntity
  8
1
  100
AcDbLine
  10
94.7
  20
-1.202068
  30
0
  11
94.6
  21
-1.263664
  31
0
  0
LINE
  5
6c
  100
AcDbEntity
  8
1
  100
AcDbLine
  10
94.6
  20
-1.263664
  30
0
  11
94.5
  21
-1.31173
  31
0
  0
LINE
  5
6d
  100
AcDbEntity
  8
1
  100
AcDbLine
  10
94.5
  20
-1.31173
  30
0
  11
94.4
  21
-1.347696
  31
0
  0
LINE
  5
6e
  100
AcDbEntity
  8
1
  100
AcDbLine
  10
94.4
  20
-1.347696
  30
0
  11
94.3
  21
-1.372607
  31
0
  0
LINE
  5
6f
  100
AcDbEntity
  8
1
  100
AcDbLine
  10
94.3
  20
-1.372607
  30
0
  11
94.2
  21
-1.387266
  31
0
  0
LINE
  5
70
  100
AcDbEntity
  8
1
  100
AcDbLine
  10
94.2
  20
-1.387266
  30
0
  11
94.1
  21
-1.392318
  31
0
  0
LINE
  5
71
  100
AcDbEntity
  8
1
  100
AcDbLine
  10
94.1
  20
-1.392318
  30
0
  11
94
  21
-1.388298
  31
0
  0
LINE
  5
72
  100
AcDbEntity
  8
1
  100
AcDbLine
  10
94
  20
-1.388298
  30
0
  11
93.9
  21
-1.375669
  31
0
  0
LINE
  5
73
  100
AcDbEntity
  8
1
  100
AcDbLine
  10
93.9
  20
-1.375669
  30
0
  11
93.8
  21
-1.354841
  31
0
  0
LINE
  5
74
  100
AcDbEntity
  8
1
  100
AcDbLine
  10
93.8
  20
-1.354841
  30
0
  11
93.7
  21
-1.326232
  31
0
  0
LINE
  5
75
  100
AcDbEntity
  8
1
  100
AcDbLine
  10
93.7
  20
-1.326232
  30
0
  11
93.6
  21
-1.293631
  31
0
  0
LINE
  5
76
  100
AcDbEntity
  8
1
  100
AcDbLine
  10
93.6
  20
-1.293631
  30
0
  11
93.5
  21
-1.259318
  31
0
  0
LINE
  5
77
  100
AcDbEntity
  8
1
  100
AcDbLine
  10
93.5
  20
-1.259318
  30
0
  11
93.4
  21
-1.22334
  31
0
  0
LINE
  5
78
  100
AcDbEntity
  8
1
  100
AcDbLine
  10
93.4
  20
-1.22334
  30
0
  11
93.3
  21
-1.185744
  31
0
  0
LINE
  5
79
  100
AcDbEntity
  8
1
  100
AcDbLine
  10
93.3
  20
-1.185744
  30
0
  11
93.2
  21
-1.14658
  31
0
  0
LINE
  5
7a
  100
AcDbEntity
  8
1
  100
AcDbLine
  10
93.2
  20
-1.14658
  30
0
  11
93.1
  21
-1.1059
  31
0
  0
LINE
  5
7b
  100
AcDbEntity
  8
1
  100
AcDbLine
  10
93.1
  20
-1.1059
  30
0
  11
93
  21
-1.063756
  31
0
  0
LINE
  5
7c
  100
AcDbEntity
  8
1
  100
AcDbLine
  10
93
  20
-1.063756
  30
0
  11
92.9
  21
-1.020207
  31
0
  0
LINE
  5
7d
  100
AcDbEntity
  8
1
  100
AcDbLine
  10
92.9
  20
-1.020207
  30
0
  11
92.8
  21
-0.975307
  31
0
  0
LINE
  5
7e
  100
AcDbEntity
  8
1
  100
AcDbLine
  10
92.8
  20
-0.975307
  30
0
  11
92.7
  21
-0.929118
  31
0
  0
LINE
  5
7f
  100
AcDbEntity
  8
1
  100
AcDbLine
  10
92.7
  20
-0.929118
  30
0
  11
92.6
  21
-0.881701
  31
0
  0
LINE
  5
80
  100
AcDbEntity
  8
1
  100
AcDbLine
  10
92.6
  20
-0.881701
  30
0
  11
92.5
  21
-0.833117
  31
0
  0
LINE
  5
81
  100
AcDbEntity
  8
1
  100
AcDbLine
  10
92.5
  20
-0.833117
  30
0
  11
92.4
  21
-0.783431
  31
0
  0
LINE
  5
82
  100
AcDbEntity
  8
1
  100
AcDbLine
  10
92.4
  20
-0.783431
  30
0
  11
92.3
  21
-0.732709
  31
0
  0
LINE
  5
83
  100
AcDbEntity
  8
1
  100
AcDbLine
  10
92.3
  20
-0.732709
  30
0
  11
92.2
  21
-0.681018
  31
0
  0
LINE
  5
84
  100
AcDbEntity
  8
1
  100
AcDbLine
  10
92.2
  20
-0.681018
  30
0
  11
92.1
  21
-0.628427
  31
0
  0
LINE
  5
85
  100
AcDbEntity
  8
1
  100
AcDbLine
  10
92.1
  20
-0.628427
  30
0
  11
92.1
  21
-0.616615
  31
0
  0
LINE
  5
86
  100
AcDbEntity
  8
1
  100
AcDbLine
  10
92.1
  20
-0.616615
  30
0
  11
92
  21
-0.563906
  31
0
  0
LINE
  5
87
  100
AcDbEntity
  8
1
  100
AcDbLine
  10
92
  20
-0.563906
  30
0
  11
91.9
  21
-0.510844
  31
0
  0
LINE
  5
88
  100
AcDbEntity
  8
1
  100
AcDbLine
  10
91.9
  20
-0.510844
  30
0
  11
91.8
  21
-0.507683
  31
0
  0
LINE
  5
89
  100
AcDbEntity
  8
1
  100
AcDbLine
  10
91.8
  20
-0.507683
  30
0
  11
91.7
  21
-1.526524
  31
0
  0
LINE
  5
8a
  100
AcDbEntity
  8
1
  100
AcDbLine
  10
91.7
  20
-1.526524
  30
0
  11
91.7
  21
-1.541733
  31
0
  0
LINE
  5
8b
  100
AcDbEntity
  8
1
  100
AcDbLine
  10
91.7
  20
-1.541733
  30
0
  11
91.715474
  21
-1.565
  31
0
  0
LINE
  5
8c
  100
AcDbEntity
  8
1
  100
AcDbLine
  10
92.1
  20
-1.565
  30
0
  11
92.1
  21
1.565
  31
0
  0
LINE
  5
8d
  100
AcDbEntity
  8
1
  100
AcDbLine
  10
92.1
  20
1.5875
  30
0
  11
92.1
  21
-1.5875
  31
0
  0
LINE
  5
8e
  100
AcDbEntity
  8
1
  100
AcDbLine
  10
91.715474
  20
1.565
  30
0
  11
91.8
  21
0.540638
  31
0
  0
LINE
  5
8f
  100
AcDbEntity
  8
1
  100
AcDbLine
  10
91.8
  20
0.540638
  30
0
  11
91.9
  21
0.076441
  31
0
  0
LINE
  5
90
  100
AcDbEntity
  8
1
  100
AcDbLine
  10
91.9
  20
0.076441
  30
0
  11
92
  21
-0.020104
  31
0
  0
LINE
  5
91
  100
AcDbEntity
  8
1
  100
AcDbLine
  10
92
  20
-0.020104
  30
0
  11
92.1
  21
-0.077619
  31
0
  0
LINE
  5
92
  100
AcDbEntity
  8
1
  100
AcDbLine
  10
92.1
  20
-0.077619
  30
0
  11
92.1
  21
-0.091925
  31
0
  0
LINE
  5
93
  100
AcDbEntity
  8
1
  100
AcDbLine
  10
92.1
  20
-0.091925
  30
0
  11
92.2
  21
-0.149489
  31
0
  0
LINE
  5
94
  100
AcDbEntity
  8
1
  100
AcDbLine
  10
92.2
  20
-0.149489
  30
0
  11
92.3
  21
-0.206856
  31
0
  0
LINE
  5
95
  100
AcDbEntity
  8
1
  100
AcDbLine
  10
92.3
  20
-0.206856
  30
0
  11
92.4
  21
-0.26395
  31
0
  0
LINE
  5
96
  100
AcDbEntity
  8
1
  100
AcDbLine
  10
92.4
  20
-0.26395
  30
0
  11
92.5
  21
-0.320694
  31
0
  0
LINE
  5
97
  100
AcDbEntity
  8
1
  100
AcDbLine
  10
92.5
  20
-0.320694
  30
0
  11
92.6
  21
-0.377014
  31
0
  0
LINE
  5
98
  100
AcDbEntity
  8
1
  100
AcDbLine
  10
92.6
  20
-0.377014
  30
0
  11
92.7
  21
-0.432836
  31
0
  0
LINE
  5
99
  100
AcDbEntity
  8
1
  100
AcDbLine
  10
92.7
  20
-0.432836
  30
0
  11
92.8
  21
-0.488085
  31
0
  0
LINE
  5
9a
  100
AcDbEntity
  8
1
  100
AcDbLine
  10
92.8
  20
-0.488085
  30
0
  11
92.9
  21
-0.542689
  31
0
  0
LINE
  5
9b
  100
AcDbEntity
  8
1
  100
AcDbLine
  10
92.9
  20
-0.542689
  30
0
  11
93
  21
-0.596575
  31
0
  0
LINE
  5
9c
  100
AcDbEntity
  8
1
  100
AcDbLine
  10
93
  20
-0.596575
  30
0
  11
93.1
  21
-0.649671
  31
0
  0
LINE
  5
9d
  100
AcDbEntity
  8
1
  100
AcDbLine
  10
93.1
  20
-0.649671
  30
0
  11
93.2
  21
-0.701909
  31
0
  0
LINE
  5
9e
  100
AcDbEntity
  8
1
  100
AcDbLine
  10
93.2
  20
-0.701909
  30
0
  11
93.3
  21
-0.753219
  31
0
  0
LINE
  5
9f
  100
AcDbEntity
  8
1
  100
AcDbLine
  10
93.3
  20
-0.753219
  30
0
  11
93.4
  21
-0.803532
  31
0
  0
LINE
  5
a0
  100
AcDbEntity
  8
1
  100
AcDbLine
  10
93.4
  20
-0.803532
  30
0
  11
93.5
  21
-0.852782
  31
0
  0
LINE
  5
a1
  100
AcDbEntity
  8
1
  100
AcDbLine
  10
93.5
  20
-0.852782
  30
0
  11
93.6
  21
-0.900905
  31
0
  0
LINE
  5
a2
  100
AcDbEntity
  8
1
  100
AcDbLine
  10
93.6
  20
-0.900905
  30
0
  11
93.7
  21
-0.947837
  31
0
  0
LINE
  5
a3
  100
AcDbEntity
  8
1
  100
AcDbLine
  10
93.7
  20
-0.947837
  30
0
  11
93.8
  21
-0.990917
  31
0
  0
LINE
  5
a4
  100
AcDbEntity
  8
1
  100
AcDbLine
  10
93.8
  20
-0.990917
  30
0
  11
93.9
  21
-1.025745
  31
0
  0
LINE
  5
a5
  100
AcDbEntity
  8
1
  100
AcDbLine
  10
93.9
  20
-1.025745
  30
0
  11
94
  21
-1.051814
  31
0
  0
LINE
  5
a6
  100
AcDbEntity
  8
1
  100
AcDbLine
  10
94
  20
-1.051814
  30
0
  11
94.1
  21
-1.068592
  31
0
  0
LINE
  5
a7
  100
AcDbEntity
  8
1
  100
AcDbLine
  10
94.1
  20
-1.068592
  30
0
  11
94.2
  21
-1.075436
  31
0
  0
LINE
  5
a8
  100
AcDbEntity
  8
1
  100
AcDbLine
  10
94.2
  20
-1.075436
  30
0
  11
94.3
  21
-1.071549
  31
0
  0
LINE
  5
a9
  100
AcDbEntity
  8
1
  100
AcDbLine
  10
94.3
  20
-1.071549
  30
0
  11
94.4
  21
-1.055902
  31
0
  0
LINE
  5
aa
  100
AcDbEntity
  8
1
  100
AcDbLine
  10
94.4
  20
-1.055902
  30
0
  11
94.5
  21
-1.027102
  31
0
  0
LINE
  5
ab
  100
AcDbEntity
  8
1
  100
AcDbLine
  10
94.5
  20
-1.027102
  30
0
  11
94.6
  21
-0.98315
  31
0
  0
LINE
  5
ac
  100
AcDbEntity
  8
1
  100
AcDbLine
  10
94.6
  20
-0.98315
  30
0
  11
94.7
  21
-0.920965
  31
0
  0
LINE
  5
ad
  100
AcDbEntity
  8
1
  100
AcDbLine
  10
94.7
  20
-0.920965
  30
0
  11
94.8
  21
-0.835282
  31
0
  0
LINE
  5
ae
  100
AcDbEntity
  8
1
  100
AcDbLine
  10
94.8
  20
-0.835282
  30
0
  11
94.9
  21
-0.715562
  31
0
  0
LINE
  5
af
  100
AcDbEntity
  8
1
  100
AcDbLine
  10
94.9
  20
-0.715562
  30
0
  11
95
  21
-0.533006
  31
0
  0
LINE
  5
b0
  100
AcDbEntity
  8
1
  100
AcDbLine
  10
95
  20
-0.533006
  30
0
  11
95
  21
0.928709
  31
0
  0
LINE
  5
b1
  100
AcDbEntity
  8
1
  100
AcDbLine
  10
95
  20
0.928709
  30
0
  11
95
  21
-0.533006
  31
0
  0
LINE
  5
b2
  100
AcDbEntity
  8
1
  100
AcDbLine
  10
93.7125
  20
-1.5875
  30
0
  11
93.7125
  21
1.5875
  31
0
  0
LINE
  5
b3
  100
AcDbEntity
  8
SK1
  100
AcDbLine
  10
41.1
  20
3.175
  30
0
  11
0.7
  21
3.175
  31
0
  0
LINE
  5
b4
  100
AcDbEntity
  8
SK1
  100
AcDbLine
  10
0.7
  20
3.175
  30
0
  11
0
  21
2.475
  31
0
  0
LINE
  5
b5
  100
AcDbEntity
  8
SK1
  100
AcDbLine
  10
41.1
  20
-3.175
  30
0
  11
0.7
  21
-3.175
  31
0
  0
LINE
  5
b6
  100
AcDbEntity
  8
SK1
  100
AcDbLine
  10
0.7
  20
-3.175
  30
0
  11
0
  21
-2.475
  31
0
  0
LINE
  5
b7
  100
AcDbEntity
  8
SK1
  100
AcDbLine
  10
0.7
  20
3.175
  30
0
  11
0.7
  21
-3.175
  31
0
  0
LINE
  5
b8
  100
AcDbEntity
  8
SK1
  100
AcDbLine
  10
0
  20
2.475
  30
0
  11
0
  21
-2.475
  31
0
  0
LINE
  5
b9
  100
AcDbEntity
  8
SK1
  100
AcDbLine
  10
42.1401
  20
1.40688
  30
0
  11
42.5069
  21
1.0401
  31
0
  0
LINE
  5
ba
  100
AcDbEntity
  8
SK1
  100
AcDbLine
  10
41.6328
  20
1.66666
  30
0
  11
42.7667
  21
0.532833
  31
0
  0
LINE
  5
bb
  100
AcDbEntity
  8
SK1
  100
AcDbLine
  10
41.3154
  20
1.73657
  30
0
  11
42.8366
  21
0.215434
  31
0
  0
LINE
  5
bc
  100
AcDbEntity
  8
SK1
  100
AcDbLine
  10
41.1
  20
1.70452
  30
0
  11
42.8045
  21
0
  31
0
  0
LINE
  5
bd
  100
AcDbEntity
  8
SK1
  100
AcDbLine
  10
41.1
  20
1.45703
  30
0
  11
42.557
  21
0
  31
0
  0
LINE
  5
be
  100
AcDbEntity
  8
SK1
  100
AcDbLine
  10
41.1
  20
1.20954
  30
0
  11
42.3095
  21
0
  31
0
  0
LINE
  5
bf
  100
AcDbEntity
  8
SK1
  100
AcDbLine
  10
41.1
  20
0.962054
  30
0
  11
42.0621
  21
0
  31
0
  0
LINE
  5
c0
  100
AcDbEntity
  8
SK1
  100
AcDbLine
  10
41.1
  20
0.714566
  30
0
  11
41.8146
  21
0
  31
0
  0
LINE
  5
c1
  100
AcDbEntity
  8
SK1
  100
AcDbLine
  10
41.1
  20
0.467079
  30
0
  11
41.5671
  21
0
  31
0
  0
LINE
  5
c2
  100
AcDbEntity
  8
SK1
  100
AcDbLine
  10
41.1
  20
0.219592
  30
0
  11
41.3196
  21
0
  31
0
  0
LINE
  5
c3
  100
AcDbEntity
  8
SK1
  100
AcDbLine
  10
41.1
  20
1.70452
  30
0
  11
41.1441
  21
1.74861
  31
0
  0
LINE
  5
c4
  100
AcDbEntity
  8
SK1
  100
AcDbLine
  10
41.1
  20
1.45703
  30
0
  11
41.371
  21
1.72802
  31
0
  0
LINE
  5
c5
  100
AcDbEntity
  8
SK1
  100
AcDbLine
  10
41.1
  20
1.20954
  30
0
  11
41.5742
  21
1.6837
  31
0
  0
LINE
  5
c6
  100
AcDbEntity
  8
SK1
  100
AcDbLine
  10
41.1
  20
0.962054
  30
0
  11
41.7588
  21
1.62082
  31
0
  0
LINE
  5
c7
  100
AcDbEntity
  8
SK1
  100
AcDbLine
  10
41.1
  20
0.714566
  30
0
  11
41.9271
  21
1.54167
  31
0
  0
LINE
  5
c8
  100
AcDbEntity
  8
SK1
  100
AcDbLine
  10
41.1
  20
0.467079
  30
0
  11
42.081
  21
1.44812
  31
0
  0
LINE
  5
c9
  100
AcDbEntity
  8
SK1
  100
AcDbLine
  10
41.1
  20
0.219592
  30
0
  11
42.2226
  21
1.34216
  31
0
  0
LINE
  5
ca
  100
AcDbEntity
  8
SK1
  100
AcDbLine
  10
41.1279
  20
0
  30
0
  11
42.3508
  21
1.22288
  31
0
  0
LINE
  5
cb
  100
AcDbEntity
  8
SK1
  100
AcDbLine
  10
41.3754
  20
0
  30
0
  11
42.467
  21
1.09157
  31
0
  0
LINE
  5
cc
  100
AcDbEntity
  8
SK1
  100
AcDbLine
  10
41.6229
  20
0
  30
0
  11
42.5707
  21
0.947822
  31
0
  0
LINE
  5
cd
  100
AcDbEntity
  8
SK1
  100
AcDbLine
  10
41.8704
  20
0
  30
0
  11
42.6605
  21
0.790145
  31
0
  0
LINE
  5
ce
  100
AcDbEntity
  8
SK1
  100
AcDbLine
  10
42.1178
  20
0
  30
0
  11
42.7364
  21
0.618517
  31
0
  0
LINE
  5
cf
  100
AcDbEntity
  8
SK1
  100
AcDbLine
  10
42.3653
  20
0
  30
0
  11
42.796
  21
0.430696
  31
0
  0
LINE
  5
d0
  100
AcDbEntity
  8
SK1
  100
AcDbLine
  10
42.6128
  20
0
  30
0
  11
42.8356
  21
0.222827
  31
0
  0
LINE
  5
d1
  100
AcDbEntity
  8
SK1
  100
AcDbLine
  10
41.1
  20
0
  30
0
  11
41.1
  21
1.75
  31
0
  0
LINE
  5
d2
  100
AcDbEntity
  8
SK1
  100
AcDbLine
  10
41.1
  20
0
  30
0
  11
42.85
  21
0
  31
0
  0
ARC
  5
d3
  100
AcDbEntity
  8
SK1
  100
AcDbCircle
  10
41.1
  20
0
  30
0
  40
1.75
  100
AcDbArc
  50
0
  51
90
  0
ARC
  5
d4
  100
AcDbEntity
  8
SK1
  100
AcDbCircle
  10
41.1
  20
0
  30
0
  40
1.75
  100
AcDbArc
  50
90
  51
180
  0
LINE
  5
d5
  100
AcDbEntity
  8
SK1
  100
AcDbLine
  10
41.0721
  20
0
  30
0
  11
41.1
  21
-0.027896
  31
0
  0
LINE
  5
d6
  100
AcDbEntity
  8
SK1
  100
AcDbLine
  10
40.8246
  20
0
  30
0
  11
41.1
  21
-0.275383
  31
0
  0
LINE
  5
d7
  100
AcDbEntity
  8
SK1
  100
AcDbLine
  10
40.5771
  20
0
  30
0
  11
41.1
  21
-0.522871
  31
0
  0
LINE
  5
d8
  100
AcDbEntity
  8
SK1
  100
AcDbLine
  10
40.3296
  20
0
  30
0
  11
41.1
  21
-0.770358
  31
0
  0
LINE
  5
d9
  100
AcDbEntity
  8
SK1
  100
AcDbLine
  10
40.0822
  20
0
  30
0
  11
41.1
  21
-1.01785
  31
0
  0
LINE
  5
da
  100
AcDbEntity
  8
SK1
  100
AcDbLine
  10
39.8347
  20
0
  30
0
  11
41.1
  21
-1.26533
  31
0
  0
LINE
  5
db
  100
AcDbEntity
  8
SK1
  100
AcDbLine
  10
39.5872
  20
0
  30
0
  11
41.1
  21
-1.51282
  31
0
  0
LINE
  5
dc
  100
AcDbEntity
  8
SK1
  100
AcDbLine
  10
39.3503
  20
-0.010642
  30
0
  11
41.0894
  21
-1.74967
  31
0
  0
LINE
  5
dd
  100
AcDbEntity
  8
SK1
  100
AcDbLine
  10
39.3736
  20
-0.281429
  30
0
  11
40.8186
  21
-1.72637
  31
0
  0
LINE
  5
de
  100
AcDbEntity
  8
SK1
  100
AcDbLine
  10
39.4639
  20
-0.619147
  30
0
  11
40.4809
  21
-1.63613
  31
0
  0
LINE
  5
df
  100
AcDbEntity
  8
SK1
  100
AcDbLine
  10
39.3514
  20
-0.044098
  30
0
  11
39.3955
  21
0
  31
0
  0
LINE
  5
e0
  100
AcDbEntity
  8
SK1
  100
AcDbLine
  10
39.372
  20
-0.270991
  30
0
  11
39.643
  21
0
  31
0
  0
LINE
  5
e1
  100
AcDbEntity
  8
SK1
  100
AcDbLine
  10
39.4163
  20
-0.474162
  30
0
  11
39.8905
  21
0
  31
0
  0
LINE
  5
e2
  100
AcDbEntity
  8
SK1
  100
AcDbLine
  10
39.4792
  20
-0.658762
  30
0
  11
40.1379
  21
0
  31
0
  0
LINE
  5
e3
  100
AcDbEntity
  8
SK1
  100
AcDbLine
  10
39.5583
  20
-0.827105
  30
0
  11
40.3854
  21
0
  31
0
  0
LINE
  5
e4
  100
AcDbEntity
  8
SK1
  100
AcDbLine
  10
39.6519
  20
-0.981039
  30
0
  11
40.6329
  21
0
  31
0
  0
LINE
  5
e5
  100
AcDbEntity
  8
SK1
  100
AcDbLine
  10
39.7578
  20
-1.12257
  30
0
  11
40.8804
  21
0
  31
0
  0
LINE
  5
e6
  100
AcDbEntity
  8
SK1
  100
AcDbLine
  10
39.8771
  20
-1.25077
  30
0
  11
41.1
  21
-0.027896
  31
0
  0
LINE
  5
e7
  100
AcDbEntity
  8
SK1
  100
AcDbLine
  10
40.0084
  20
-1.36695
  30
0
  11
41.1
  21
-0.275383
  31
0
  0
LINE
  5
e8
  100
AcDbEntity
  8
SK1
  100
AcDbLine
  10
40.1522
  20
-1.47069
  30
0
  11
41.1
  21
-0.522871
  31
0
  0
LINE
  5
e9
  100
AcDbEntity
  8
SK1
  100
AcDbLine
  10
40.3099
  20
-1.5605
  30
0
  11
41.1
  21
-0.770358
  31
0
  0
LINE
  5
ea
  100
AcDbEntity
  8
SK1
  100
AcDbLine
  10
40.4815
  20
-1.63636
  30
0
  11
41.1
  21
-1.01785
  31
0
  0
LINE
  5
eb
  100
AcDbEntity
  8
SK1
  100
AcDbLine
  10
40.6693
  20
-1.69603
  30
0
  11
41.1
  21
-1.26533
  31
0
  0
LINE
  5
ec
  100
AcDbEntity
  8
SK1
  100
AcDbLine
  10
40.8772
  20
-1.73565
  30
0
  11
41.1
  21
-1.51282
  31
0
  0
LINE
  5
ed
  100
AcDbEntity
  8
SK1
  100
AcDbLine
  10
41.1
  20
0
  30
0
  11
39.35
  21
0
  31
0
  0
LINE
  5
ee
  100
AcDbEntity
  8
SK1
  100
AcDbLine
  10
41.1
  20
-1.75
  30
0
  11
41.1
  21
0
  31
0
  0
ARC
  5
ef
  100
AcDbEntity
  8
SK1
  100
AcDbCircle
  10
41.1
  20
0
  30
0
  40
1.75
  100
AcDbArc
  50
180
  51
270
  0
ARC
  5
f0
  100
AcDbEntity
  8
SK1
  100
AcDbCircle
  10
41.1
  20
0
  30
0
  40
1.75
  100
AcDbArc
  50
270
  51
0
  0
LINE
  5
16b
  100
AcDbEntity
  8
NOCUT
  100
AcDbLine
  10
92.1
  20
0
  30
0
  11
92.1
  21
1.565
  31
0
  0
LINE
  5
16c
  100
AcDbEntity
  8
NOCUT
  100
AcDbLine
  10
92.1
  20
1.565
  30
0
  11
47.5
  21
1.565
  31
0
  0
ARC
  5
16d
  100
AcDbEntity
  8
NOCUT
  100
AcDbCircle
  10
47.587156
  20
2.561195
  30
0
  40
1
  100
AcDbArc
  50
255
  51
265
  0
LINE
  5
16e
  100
AcDbEntity
  8
NOCUT
  100
AcDbLine
  10
47.328337
  20
1.595269
  30
0
  11
41.4327
  21
3.175
  31
0
  0
LINE
  5
16f
  100
AcDbEntity
  8
NOCUT
  100
AcDbLine
  10
41.4327
  20
3.175
  30
0
  11
41.1
  21
3.175
  31
0
  0
LINE
  5
170
  100
AcDbEntity
  8
NOCUT
  100
AcDbLine
  10
41.1
  20
3.175
  30
0
  11
41.1
  21
0
  31
0
  0
LINE
  5
171
  100
AcDbEntity
  8
NOCUT
  100
AcDbLine
  10
41.1
  20
0
  30
0
  11
92.1
  21
0
  31
0
  0
ARC
  5
172
  100
AcDbEntity
  8
CUT
  100
AcDbCircle
  10
93.7125
  20
0
  30
0
  40
1.5875
  100
AcDbArc
  50
0
  51
90
  0
LINE
  5
173
  100
AcDbEntity
  8
CUT
  100
AcDbLine
  10
93.7125
  20
1.5875
  30
0
  11
92.1
  21
1.5875
  31
0
  0
LINE
  5
174
  100
AcDbEntity
  8
CUT
  100
AcDbLine
  10
92.1
  20
1.5875
  30
0
  11
92.1
  21
0
  31
0
  0
LINE
  5
175
  100
AcDbEntity
  8
CUT
  100
AcDbLine
  10
92.1
  20
0
  30
0
  11
95.3
  21
0
  31
0
  0
LINE
  5
176
  100
AcDbEntity
  8
4
  100
AcDbLine
  10
41.1
  20
0
  30
0
  11
95.3
  21
0
  31
0
  0
LINE
  5
177
  100
AcDbEntity
  8
SK4
  100
AcDbLine
  10
-1
  20
0
  30
0
  11
96.3
  21
0
  31
0
  0
LINE
  5
178
  100
AcDbEntity
  8
INFTOTAL
  100
AcDbLine
  10
-17.965
  20
26.14
  30
0
  11
113.265
  21
26.14
  31
0
  0
LINE
  5
179
  100
AcDbEntity
  8
INFTOTAL
  100
AcDbLine
  10
113.265
  20
26.14
  30
0
  11
113.265
  21
-21.14
  31
0
  0
LINE
  5
17a
  100
AcDbEntity
  8
INFTOTAL
  100
AcDbLine
  10
113.265
  20
-21.14
  30
0
  11
-17.965
  21
-21.14
  31
0
  0
LINE
  5
17b
  100
AcDbEntity
  8
INFTOTAL
  100
AcDbLine
  10
-17.965
  20
-21.14
  30
0
  11
-17.965
  21
26.14
  31
0
  0
ENDSEC
  0
SECTION
  2
OBJECTS
  0
DICTIONARY
  5
17c
  330
0
100
AcDbDictionary
281
    1
  3
ACAD_GROUP
  350
17d
  0
DICTIONARY
  5
17d
102
{ACAD_REACTORS
  330
17c
102
}
  330
17c
100
AcDbDictionary
281
    1
  0
ENDSEC
  0
EOF
