  0
SECTION
  2
HEADER
  9
$ACADVER
  1
AC1015
  9
$DWGCODEPAGE
  3
ANSI_932
  9
$HANDSEED
  5
106AB90
  0
ENDSEC
  0
SECTION
  2
CLASSES
  0
CLASS
  1
IMAGEDEF
  2
AcDbRasterImageDef
  3
ISM
  90
0
  91
4
  280
0
  281
0
  0
CLASS
  1
IMAGE
  2
AcDbRasterImage
  3
ISM
  90
127
  91
5
  280
0
  281
1
  0
CLASS
  1
IMAGEDEF_REACTOR
  2
AcDbRasterImageDefReactor
  3
ISM
  90
1
  91
4
  280
0
  281
0
  0
ENDSEC
  0
SECTION
  2
TABLES
  0
TABLE
  2
VPORT
  5
2
  330
0
  100
AcDbSymbolTable
  70
    0
  0
ENDTAB
  0
TABLE
  2
LTYPE
  5
3
  330
0
  100
AcDbSymbolTable
  70
    4
  0
LTYPE
  5
4
  330
3
  100
AcDbSymbolTableRecord
  100
AcDbLinetypeTableRecord
  2
ByBlock
  70
    0
  3

  72
65
  73
    0
  40
0
  0
LTYPE
  5
5
  330
3
  100
AcDbSymbolTableRecord
  100
AcDbLinetypeTableRecord
  2
ByLayer
  70
    0
  3

  72
65
  73
    0
  40
0
  0
LTYPE
  5
6
  330
3
  100
AcDbSymbolTableRecord
  100
AcDbLinetypeTableRecord
  2
CONTINUOUS
  70
    0
  3
Solid Line
  72
65
  73
    0
  40
0
  0
LTYPE
  5
7
  330
3
  100
AcDbSymbolTableRecord
  100
AcDbLinetypeTableRecord
  2
DASH
  70
    0
  3
Hidden
  72
65
  73
2
  40
2.5
  49
1.5
  74
0
  49
-1
  74
0
  0
LTYPE
  5
8
  330
3
  100
AcDbSymbolTableRecord
  100
AcDbLinetypeTableRecord
  2
LONGDASHDASH
  70
    0
  3
__ . __
  72
65
  73
    4
  40
7
  49
4
  74
    0
  49
-1
  74
    0
  49
1
  74
    0
  49
-1
  74
    0
  0
ENDTAB
  0
TABLE
  2
LAYER
  5
9
  330
0
  100
AcDbSymbolTable
  70
    40
  0
LAYER
  5
a
  330
9
  100
AcDbSymbolTableRecord
  100
AcDbLayerTableRecord
  2
0
  70
    0
  62
    0
  6
CONTINUOUS
  390
0
  0
LAYER
  5
c
  330
9
  100
AcDbSymbolTableRecord
  100
AcDbLayerTableRecord
  2
1
  70
    0
  62
    4
  6
CONTINUOUS
  370
50
  390
0
  0
LAYER
  5
d
  330
9
  100
AcDbSymbolTableRecord
  100
AcDbLayerTableRecord
  2
2
  70
    0
  62
    7
  6
CONTINUOUS
  370
25
  390
0
  0
LAYER
  5
f
  330
9
  100
AcDbSymbolTableRecord
  100
AcDbLayerTableRecord
  2
4
  70
    0
  62
    2
  6
LONGDASHDASH
  370
25
  390
0
  0
LAYER
  5
13
  330
9
  100
AcDbSymbolTableRecord
  100
AcDbLayerTableRecord
  2
SK1
  70
    0
  62
    4
  6
CONTINUOUS
  370
50
  390
0
  0
LAYER
  5
14
  330
9
  100
AcDbSymbolTableRecord
  100
AcDbLayerTableRecord
  2
SK2
  70
    0
  62
    7
  6
CONTINUOUS
  370
25
  390
0
  0
LAYER
  5
16
  330
9
  100
AcDbSymbolTableRecord
  100
AcDbLayerTableRecord
  2
SK4
  70
    0
  62
    2
  6
LONGDASHDASH
  370
25
  390
0
  0
LAYER
  5
21
  330
9
  100
AcDbSymbolTableRecord
  100
AcDbLayerTableRecord
  2
NOCUT
  70
    0
  62
    7
  6
CONTINUOUS
  370
25
  390
0
  0
LAYER
  5
22
  330
9
  100
AcDbSymbolTableRecord
  100
AcDbLayerTableRecord
  2
CUT
  70
    0
  62
    1
  6
CONTINUOUS
  370
25
  390
0
  0
LAYER
  5
26
  330
9
  100
AcDbSymbolTableRecord
  100
AcDbLayerTableRecord
  2
INFTOTAL
  70
    0
  62
    9
  6
CONTINUOUS
  370
18
  390
0
  0
ENDTAB
  0
TABLE
  2
STYLE
  5
27
  330
0
  100
AcDbSymbolTable
  70
    1
  0
STYLE
  5
28
  330
27
  100
AcDbSymbolTableRecord
  100
AcDbTextStyleTableRecord
  2
Monospac821 BT
  70
    0
  40
    3.5
  41
1
  50
0
  71
0
  42
3
  3

  4

  1001
ACAD
  1000
Monospac821 BT
  1071
256
  0
ENDTAB
  0
TABLE
  2
VIEW
  5
29
  330
0
  100
AcDbSymbolTable
  70
    0
  0
ENDTAB
  0
TABLE
  2
UCS
  5
2a
  330
0
  100
AcDbSymbolTable
  70
    0
  0
ENDTAB
  0
TABLE
  2
APPID
  5
2b
  330
0
  100
AcDbSymbolTable
  70
    1
  0
APPID
  5
2c
  330
2b
  100
AcDbSymbolTableRecord
  100
AcDbRegAppTableRecord
  2
ACAD
  70
    0
  0
ENDTAB
  0
TABLE
  2
DIMSTYLE
  5
2d
  330
0
  100
AcDbSymbolTable
  70
    1
  100
AcDbDimStyleTable
  0
DIMSTYLE
  105
2e
  330
2d
  100
AcDbSymbolTableRecord
  100
AcDbDimStyleTableRecord
  2
STANDARD
  70
    0
  41
    3
  42
0.5
  44
1
  73
0
  77
1
  78
1
  140
3.5
  141
2.5
  143
0.03937
  147
0.8
  172
1
  174
1
  178
0
  179
1
  271
2
  279
1
  284
1
  340
28
  0
ENDTAB
  0
TABLE
  2
BLOCK_RECORD
  5
2f
  330
0
  100
AcDbSymbolTable
  70
    2
  0
BLOCK_RECORD
  5
30
  330
2f
  100
AcDbSymbolTableRecord
  100
AcDbBlockTableRecord
  2
*Model_Space
  0
BLOCK_RECORD
  5
31
  330
2f
  100
AcDbSymbolTableRecord
  100
AcDbBlockTableRecord
  2
*Paper_Space
  0
BLOCK_RECORD
  5
126
  330
2f
  100
AcDbSymbolTableRecord
  100
AcDbBlockTableRecord
  2
*D125
  340
0
  0
BLOCK_RECORD
  5
134
  330
2f
  100
AcDbSymbolTableRecord
  100
AcDbBlockTableRecord
  2
*D133
  340
0
  0
BLOCK_RECORD
  5
142
  330
2f
  100
AcDbSymbolTableRecord
  100
AcDbBlockTableRecord
  2
*D141
  340
0
  0
BLOCK_RECORD
  5
150
  330
2f
  100
AcDbSymbolTableRecord
  100
AcDbBlockTableRecord
  2
*D14f
  340
0
  0
BLOCK_RECORD
  5
15e
  330
2f
  100
AcDbSymbolTableRecord
  100
AcDbBlockTableRecord
  2
*D15d
  340
0
  0
BLOCK_RECORD
  5
168
  330
2f
  100
AcDbSymbolTableRecord
  100
AcDbBlockTableRecord
  2
*D167
  340
0
  0
BLOCK_RECORD
  5
176
  330
2f
  100
AcDbSymbolTableRecord
  100
AcDbBlockTableRecord
  2
*D175
  340
0
  0
BLOCK_RECORD
  5
184
  330
2f
  100
AcDbSymbolTableRecord
  100
AcDbBlockTableRecord
  2
*D183
  340
0
  0
BLOCK_RECORD
  5
192
  330
2f
  100
AcDbSymbolTableRecord
  100
AcDbBlockTableRecord
  2
*D191
  340
0
  0
ENDTAB
  0
ENDSEC
  0
SECTION
  2
BLOCKS
  0
BLOCK
  5
32
  330
30
  100
AcDbEntity
  8
0
  100
AcDbBlockBegin
  2
*Model_Space
  70
    0
  10
0
  20
0
  30
0
  3
*Model_Space
  1

  0
ENDBLK
  5
33
  330
30
  100
AcDbEntity
  8
0
  100
AcDbBlockEnd
  0
BLOCK
  5
34
  330
31
  100
AcDbEntity
  8
0
  100
AcDbBlockBegin
  2
*Paper_Space
  70
    0
  10
0
  20
0
  30
0
  3
*Paper_Space
  1

  0
ENDBLK
  5
35
  330
31
  100
AcDbEntity
  8
0
  100
AcDbBlockEnd
  0
BLOCK
  5
124
  330
126
  100
AcDbEntity
  8
SK2
  100
AcDbBlockBegin
  2
*D125
  70
1
  10
0
  20
0
  30
0
  3
*D125
  1

  0
LINE
  5
127
  330
126
  100
AcDbEntity
  8
SK2
  100
AcDbLine
  10
0
  20
2.475
  30
0
  11
0
  21
20.175
  31
0
  0
LINE
  5
128
  330
126
  100
AcDbEntity
  8
SK2
  100
AcDbLine
  10
88.9
  20
-15.175
  30
0
  11
88.9
  21
20.175
  31
0
  0
LINE
  5
129
  330
126
  100
AcDbEntity
  8
SK2
  100
AcDbLine
  10
0
  20
18.175
  30
0
  11
88.9
  21
18.175
  31
0
  0
SOLID
  5
12a
  330
126
  100
AcDbEntity
  8
SK2
  100
AcDbTrace
  10
0
  20
18.175
  30
0
  11
2.478612
  21
18.501315
  31
0
  12
2.478612
  22
17.848685
  32
0
  13
2.478612
  23
17.848685
  33
0
  0
SOLID
  5
12b
  330
126
  100
AcDbEntity
  8
SK2
  100
AcDbTrace
  10
88.9
  20
18.175
  30
0
  11
86.421388
  21
17.848685
  31
0
  12
86.421388
  22
18.501315
  32
0
  13
86.421388
  23
18.501315
  33
0
  0
MTEXT
  5
12c
  330
126
  100
AcDbEntity
  8
SK2
  100
AcDbMText
  10
44.45
  20
18.175
  30
0
  11
1
  21
0
  31
0
  40
2
  41
0
  71
8
  72
1
  1
88.9
  0
POINT
  5
12d
  330
126
  100
AcDbEntity
  8
SK2
  62
0
  100
AcDbPoint
  10
0
  20
2.475
  30
0
  0
POINT
  5
12e
  330
126
  100
AcDbEntity
  8
SK2
  62
0
  100
AcDbPoint
  10
88.9
  20
-15.175
  30
0
  0
POINT
  5
12f
  330
126
  100
AcDbEntity
  8
SK2
  62
0
  100
AcDbPoint
  10
88.9
  20
18.175
  30
0
  0
ENDBLK
  5
130
  330
126
  100
AcDbEntity
  8
SK2
  100
AcDbBlockEnd
  0
BLOCK
  5
132
  330
134
  100
AcDbEntity
  8
SK2
  100
AcDbBlockBegin
  2
*D133
  70
1
  10
0
  20
0
  30
0
  3
*D133
  1

  0
LINE
  5
135
  330
134
  100
AcDbEntity
  8
SK2
  100
AcDbLine
  10
61.5
  20
3.175
  30
0
  11
61.5
  21
15.175
  31
0
  0
LINE
  5
136
  330
134
  100
AcDbEntity
  8
SK2
  100
AcDbLine
  10
0
  20
2.475
  30
0
  11
0
  21
20.175
  31
0
  0
LINE
  5
137
  330
134
  100
AcDbEntity
  8
SK2
  100
AcDbLine
  10
61.5
  20
13.175
  30
0
  11
0
  21
13.175
  31
0
  0
SOLID
  5
138
  330
134
  100
AcDbEntity
  8
SK2
  100
AcDbTrace
  10
61.5
  20
13.175
  30
0
  11
63.978612
  21
13.501315
  31
0
  12
63.978612
  22
12.848685
  32
0
  13
63.978612
  23
12.848685
  33
0
  0
SOLID
  5
139
  330
134
  100
AcDbEntity
  8
SK2
  100
AcDbTrace
  10
0
  20
13.175
  30
0
  11
-2.478612
  21
12.848685
  31
0
  12
-2.478612
  22
13.501315
  32
0
  13
-2.478612
  23
13.501315
  33
0
  0
MTEXT
  5
13a
  330
134
  100
AcDbEntity
  8
SK2
  100
AcDbMText
  10
30.75
  20
13.175
  30
0
  11
1
  21
0
  31
0
  40
2
  41
0
  71
8
  72
1
  1
61.5
  0
POINT
  5
13b
  330
134
  100
AcDbEntity
  8
SK2
  62
0
  100
AcDbPoint
  10
61.5
  20
3.175
  30
0
  0
POINT
  5
13c
  330
134
  100
AcDbEntity
  8
SK2
  62
0
  100
AcDbPoint
  10
0
  20
2.475
  30
0
  0
POINT
  5
13d
  330
134
  100
AcDbEntity
  8
SK2
  62
0
  100
AcDbPoint
  10
0
  20
13.175
  30
0
  0
ENDBLK
  5
13e
  330
134
  100
AcDbEntity
  8
SK2
  100
AcDbBlockEnd
  0
BLOCK
  5
140
  330
142
  100
AcDbEntity
  8
SK2
  100
AcDbBlockBegin
  2
*D141
  70
1
  10
0
  20
0
  30
0
  3
*D141
  1

  0
LINE
  5
143
  330
142
  100
AcDbEntity
  8
SK2
  100
AcDbLine
  10
0.7
  20
-3.175
  30
0
  11
-12
  21
-3.175
  31
0
  0
LINE
  5
144
  330
142
  100
AcDbEntity
  8
SK2
  100
AcDbLine
  10
0.7
  20
3.175
  30
0
  11
-12
  21
3.175
  31
0
  0
LINE
  5
145
  330
142
  100
AcDbEntity
  8
SK2
  100
AcDbLine
  10
-10
  20
-8.576733
  30
0
  11
-10
  21
3.175
  31
0
  0
SOLID
  5
146
  330
142
  100
AcDbEntity
  8
SK2
  100
AcDbTrace
  10
-10
  20
-3.175
  30
0
  11
-10.326315
  21
-0.696388
  31
0
  12
-9.673685
  22
-0.696388
  32
0
  13
-9.673685
  23
-0.696388
  33
0
  0
SOLID
  5
147
  330
142
  100
AcDbEntity
  8
SK2
  100
AcDbTrace
  10
-10
  20
3.175
  30
0
  11
-9.673685
  21
0.696388
  31
0
  12
-10.326315
  22
0.696388
  32
0
  13
-10.326315
  23
0.696388
  33
0
  0
MTEXT
  5
148
  330
142
  100
AcDbEntity
  8
SK2
  100
AcDbMText
  10
-10
  20
0
  30
0
  11
0
  21
1
  31
0
  40
2
  41
0
  71
8
  72
1
  1
ﾘ6.35
  0
POINT
  5
149
  330
142
  100
AcDbEntity
  8
SK2
  62
0
  100
AcDbPoint
  10
0.7
  20
-3.175
  30
0
  0
POINT
  5
14a
  330
142
  100
AcDbEntity
  8
SK2
  62
0
  100
AcDbPoint
  10
0.7
  20
3.175
  30
0
  0
POINT
  5
14b
  330
142
  100
AcDbEntity
  8
SK2
  62
0
  100
AcDbPoint
  10
-10
  20
3.175
  30
0
  0
ENDBLK
  5
14c
  330
142
  100
AcDbEntity
  8
SK2
  100
AcDbBlockEnd
  0
BLOCK
  5
14e
  330
150
  100
AcDbEntity
  8
2
  100
AcDbBlockBegin
  2
*D14f
  70
1
  10
0
  20
0
  30
0
  3
*D14f
  1

  0
LINE
  5
151
  330
150
  100
AcDbEntity
  8
2
  100
AcDbLine
  10
86.519
  20
-2.381
  30
0
  11
100.9
  21
-2.381
  31
0
  0
LINE
  5
152
  330
150
  100
AcDbEntity
  8
2
  100
AcDbLine
  10
86.519
  20
2.381
  30
0
  11
100.9
  21
2.381
  31
0
  0
LINE
  5
153
  330
150
  100
AcDbEntity
  8
2
  100
AcDbLine
  10
98.9
  20
-10.39604
  30
0
  11
98.9
  21
2.381
  31
0
  0
SOLID
  5
154
  330
150
  100
AcDbEntity
  8
2
  100
AcDbTrace
  10
98.9
  20
-2.381
  30
0
  11
98.573685
  21
0.097612
  31
0
  12
99.226315
  22
0.097612
  32
0
  13
99.226315
  23
0.097612
  33
0
  0
SOLID
  5
155
  330
150
  100
AcDbEntity
  8
2
  100
AcDbTrace
  10
98.9
  20
2.381
  30
0
  11
99.226315
  21
-0.097612
  31
0
  12
98.573685
  22
-0.097612
  32
0
  13
98.573685
  23
-0.097612
  33
0
  0
MTEXT
  5
156
  330
150
  100
AcDbEntity
  8
2
  100
AcDbMText
  10
98.9
  20
0
  30
0
  11
0
  21
1
  31
0
  40
2
  41
0
  71
8
  72
1
  1
ﾘ4.762
  0
POINT
  5
157
  330
150
  100
AcDbEntity
  8
2
  62
0
  100
AcDbPoint
  10
86.519
  20
-2.381
  30
0
  0
POINT
  5
158
  330
150
  100
AcDbEntity
  8
2
  62
0
  100
AcDbPoint
  10
86.519
  20
2.381
  30
0
  0
POINT
  5
159
  330
150
  100
AcDbEntity
  8
2
  62
0
  100
AcDbPoint
  10
98.9
  20
2.381
  30
0
  0
ENDBLK
  5
15a
  330
150
  100
AcDbEntity
  8
2
  100
AcDbBlockEnd
  0
BLOCK
  5
15c
  330
15e
  100
AcDbEntity
  8
2
  100
AcDbBlockBegin
  2
*D15d
  70
1
  10
0
  20
0
  30
0
  3
*D15d
  1

  0
LINE
  5
15f
  330
15e
  100
AcDbEntity
  8
2
  100
AcDbLine
  10
84.258881
  20
-2.260119
  30
0
  11
95.273689
  21
8.754689
  31
0
  0
MTEXT
  5
160
  330
15e
  100
AcDbEntity
  8
2
  100
AcDbMText
  10
88.202621
  20
1.683621
  30
0
  11
0.707107
  21
0.707107
  31
0
  40
2
  41
0
  71
8
  72
1
  1
R2.381
  0
SOLID
  5
161
  330
15e
  100
AcDbEntity
  8
2
  100
AcDbTrace
  10
88.202621
  20
1.683621
  30
0
  11
89.724525
  21
3.667005
  31
0
  12
90.186005
  22
3.205525
  32
0
  13
90.186005
  23
3.205525
  33
0
  0
POINT
  5
162
  330
15e
  100
AcDbEntity
  8
2
  62
0
  100
AcDbPoint
  10
84.258881
  20
-2.260119
  30
0
  0
POINT
  5
163
  330
15e
  100
AcDbEntity
  8
2
  62
0
  100
AcDbPoint
  10
86.519
  20
0
  30
0
  0
ENDBLK
  5
164
  330
15e
  100
AcDbEntity
  8
2
  100
AcDbBlockEnd
  0
BLOCK
  5
166
  330
168
  100
AcDbEntity
  8
2
  100
AcDbBlockBegin
  2
*D167
  70
1
  10
0
  20
0
  30
0
  3
*D167
  1

  0
LINE
  5
169
  330
168
  100
AcDbEntity
  8
2
  100
AcDbLine
  10
84.1
  20
-2.355
  30
0
  11
82.1
  21
-2.355
  31
0
  0
LINE
  5
16a
  330
168
  100
AcDbEntity
  8
2
  100
AcDbLine
  10
84.1
  20
2.355
  30
0
  11
82.1
  21
2.355
  31
0
  0
LINE
  5
16b
  330
168
  100
AcDbEntity
  8
2
  100
AcDbLine
  10
84.1
  20
-2.355
  30
0
  11
84.1
  21
10.915842
  31
0
  0
SOLID
  5
16c
  330
168
  100
AcDbEntity
  8
2
  100
AcDbTrace
  10
84.1
  20
-2.355
  30
0
  11
83.773685
  21
0.123612
  31
0
  12
84.426315
  22
0.123612
  32
0
  13
84.426315
  23
0.123612
  33
0
  0
SOLID
  5
16d
  330
168
  100
AcDbEntity
  8
2
  100
AcDbTrace
  10
84.1
  20
2.355
  30
0
  11
84.426315
  21
-0.123612
  31
0
  12
83.773685
  22
-0.123612
  32
0
  13
83.773685
  23
-0.123612
  33
0
  0
MTEXT
  5
16e
  330
168
  100
AcDbEntity
  8
2
  100
AcDbMText
  10
84.1
  20
2.355
  30
0
  11
0
  21
1
  31
0
  40
2
  41
0
  71
8
  72
1
  1
ﾘ4.71
  0
POINT
  5
16f
  330
168
  100
AcDbEntity
  8
2
  62
0
  100
AcDbPoint
  10
82.1
  20
-2.355
  30
0
  0
POINT
  5
170
  330
168
  100
AcDbEntity
  8
2
  62
0
  100
AcDbPoint
  10
82.1
  20
2.355
  30
0
  0
POINT
  5
171
  330
168
  100
AcDbEntity
  8
2
  62
0
  100
AcDbPoint
  10
84.1
  20
10.915842
  30
0
  0
ENDBLK
  5
172
  330
168
  100
AcDbEntity
  8
2
  100
AcDbBlockEnd
  0
BLOCK
  5
174
  330
176
  100
AcDbEntity
  8
2
  100
AcDbBlockBegin
  2
*D175
  70
1
  10
0
  20
0
  30
0
  3
*D175
  1

  0
LINE
  5
177
  330
176
  100
AcDbEntity
  8
2
  100
AcDbLine
  10
84.1
  20
2.355
  30
0
  11
84.1
  21
9
  31
0
  0
LINE
  5
178
  330
176
  100
AcDbEntity
  8
2
  100
AcDbLine
  10
64.9
  20
2.355
  30
0
  11
64.9
  21
9
  31
0
  0
LINE
  5
179
  330
176
  100
AcDbEntity
  8
2
  100
AcDbLine
  10
85.897277
  20
7
  30
0
  11
64.9
  21
7
  31
0
  0
SOLID
  5
17a
  330
176
  100
AcDbEntity
  8
2
  100
AcDbTrace
  10
84.1
  20
7
  30
0
  11
86.578612
  21
7.326315
  31
0
  12
86.578612
  22
6.673685
  32
0
  13
86.578612
  23
6.673685
  33
0
  0
SOLID
  5
17b
  330
176
  100
AcDbEntity
  8
2
  100
AcDbTrace
  10
64.9
  20
7
  30
0
  11
62.421388
  21
6.673685
  31
0
  12
62.421388
  22
7.326315
  32
0
  13
62.421388
  23
7.326315
  33
0
  0
MTEXT
  5
17c
  330
176
  100
AcDbEntity
  8
2
  100
AcDbMText
  10
82.884884
  20
7
  30
0
  11
1
  21
-0
  31
0
  40
2
  41
0
  71
8
  72
1
  1
19.2
  0
POINT
  5
17d
  330
176
  100
AcDbEntity
  8
2
  62
0
  100
AcDbPoint
  10
84.1
  20
2.355
  30
0
  0
POINT
  5
17e
  330
176
  100
AcDbEntity
  8
2
  62
0
  100
AcDbPoint
  10
64.9
  20
2.355
  30
0
  0
POINT
  5
17f
  330
176
  100
AcDbEntity
  8
2
  62
0
  100
AcDbPoint
  10
64.9
  20
7
  30
0
  0
ENDBLK
  5
180
  330
176
  100
AcDbEntity
  8
2
  100
AcDbBlockEnd
  0
BLOCK
  5
182
  330
184
  100
AcDbEntity
  8
2
  100
AcDbBlockBegin
  2
*D183
  70
1
  10
0
  20
0
  30
0
  3
*D183
  1

  0
LINE
  5
185
  330
184
  100
AcDbEntity
  8
2
  100
AcDbLine
  10
88.9
  20
-15.175
  30
0
  11
88.9
  21
20.175
  31
0
  0
LINE
  5
186
  330
184
  100
AcDbEntity
  8
2
  100
AcDbLine
  10
61.5
  20
3.175
  30
0
  11
61.5
  21
10.175
  31
0
  0
LINE
  5
187
  330
184
  100
AcDbEntity
  8
2
  100
AcDbLine
  10
88.9
  20
8.175
  30
0
  11
61.5
  21
8.175
  31
0
  0
SOLID
  5
188
  330
184
  100
AcDbEntity
  8
2
  100
AcDbTrace
  10
88.9
  20
8.175
  30
0
  11
91.378612
  21
8.501315
  31
0
  12
91.378612
  22
7.848685
  32
0
  13
91.378612
  23
7.848685
  33
0
  0
SOLID
  5
189
  330
184
  100
AcDbEntity
  8
2
  100
AcDbTrace
  10
61.5
  20
8.175
  30
0
  11
59.021388
  21
7.848685
  31
0
  12
59.021388
  22
8.501315
  32
0
  13
59.021388
  23
8.501315
  33
0
  0
MTEXT
  5
18a
  330
184
  100
AcDbEntity
  8
2
  100
AcDbMText
  10
75.2
  20
8.175
  30
0
  11
1
  21
-0
  31
0
  40
2
  41
0
  71
8
  72
1
  1
27.4
  0
POINT
  5
18b
  330
184
  100
AcDbEntity
  8
2
  62
0
  100
AcDbPoint
  10
88.9
  20
-15.175
  30
0
  0
POINT
  5
18c
  330
184
  100
AcDbEntity
  8
2
  62
0
  100
AcDbPoint
  10
61.5
  20
3.175
  30
0
  0
POINT
  5
18d
  330
184
  100
AcDbEntity
  8
2
  62
0
  100
AcDbPoint
  10
61.5
  20
8.175
  30
0
  0
ENDBLK
  5
18e
  330
184
  100
AcDbEntity
  8
2
  100
AcDbBlockEnd
  0
BLOCK
  5
190
  330
192
  100
AcDbEntity
  8
2
  100
AcDbBlockBegin
  2
*D191
  70
1
  10
0
  20
0
  30
0
  3
*D191
  1

  0
LINE
  5
193
  330
192
  100
AcDbEntity
  8
2
  100
AcDbLine
  10
84.1
  20
-2.355
  30
0
  11
84.1
  21
-15.175
  31
0
  0
LINE
  5
194
  330
192
  100
AcDbEntity
  8
2
  100
AcDbLine
  10
88.9
  20
-15.175
  30
0
  11
88.9
  21
20.175
  31
0
  0
LINE
  5
195
  330
192
  100
AcDbEntity
  8
2
  100
AcDbLine
  10
84.1
  20
-13.175
  30
0
  11
88.9
  21
-13.175
  31
0
  0
SOLID
  5
196
  330
192
  100
AcDbEntity
  8
2
  100
AcDbTrace
  10
84.1
  20
-13.175
  30
0
  11
86.578612
  21
-12.848685
  31
0
  12
86.578612
  22
-13.501315
  32
0
  13
86.578612
  23
-13.501315
  33
0
  0
SOLID
  5
197
  330
192
  100
AcDbEntity
  8
2
  100
AcDbTrace
  10
88.9
  20
-13.175
  30
0
  11
86.421388
  21
-13.501315
  31
0
  12
86.421388
  22
-12.848685
  32
0
  13
86.421388
  23
-12.848685
  33
0
  0
MTEXT
  5
198
  330
192
  100
AcDbEntity
  8
2
  100
AcDbMText
  10
86.5
  20
-13.175
  30
0
  11
1
  21
0
  31
0
  40
2
  41
0
  71
8
  72
1
  1
4.8
  0
POINT
  5
199
  330
192
  100
AcDbEntity
  8
2
  62
0
  100
AcDbPoint
  10
84.1
  20
-2.355
  30
0
  0
POINT
  5
19a
  330
192
  100
AcDbEntity
  8
2
  62
0
  100
AcDbPoint
  10
88.9
  20
20.175
  30
0
  0
POINT
  5
19b
  330
192
  100
AcDbEntity
  8
2
  62
0
  100
AcDbPoint
  10
88.9
  20
-13.175
  30
0
  0
ENDBLK
  5
19c
  330
192
  100
AcDbEntity
  8
2
  100
AcDbBlockEnd
  0
ENDSEC
  0
SECTION
  2
ENTITIES
  0
DIMENSION
  5
131
  100
AcDbEntity
  8
SK2
  100
AcDbDimension
  2
*D125
  10
88.9
  20
18.175
  30
0
  11
44.45
  21
18.175
  31
0
  70
160
  1
<>
  71
5
  3
STANDARD
  42
88.9
  100
AcDbAlignedDimension
  13
0
  23
2.475
  33
0
  14
88.9
  24
-15.175
  34
0
  50
0
  100
AcDbRotatedDimension
  0
DIMENSION
  5
13f
  100
AcDbEntity
  8
SK2
  100
AcDbDimension
  2
*D133
  10
0
  20
13.175
  30
0
  11
30.75
  21
13.175
  31
0
  70
160
  1
<>
  71
5
  3
STANDARD
  42
61.5
  100
AcDbAlignedDimension
  13
61.5
  23
3.175
  33
0
  14
0
  24
2.475
  34
0
  50
0
  100
AcDbRotatedDimension
  0
DIMENSION
  5
14d
  100
AcDbEntity
  8
SK2
  100
AcDbDimension
  2
*D141
  10
-10
  20
3.175
  30
0
  11
-10
  21
0
  31
0
  70
160
  1
%%c<>
  71
5
  3
STANDARD
  42
6.35
  100
AcDbAlignedDimension
  13
0.7
  23
-3.175
  33
0
  14
0.7
  24
3.175
  34
0
  50
-90
  100
AcDbRotatedDimension
  0
DIMENSION
  5
15b
  100
AcDbEntity
  8
2
  100
AcDbDimension
  2
*D14f
  10
98.9
  20
2.381
  30
0
  11
98.9
  21
0
  31
0
  70
160
  1
%%c<>
  71
5
  3
STANDARD
  42
4.762
  100
AcDbAlignedDimension
  13
86.519
  23
-2.381
  33
0
  14
86.519
  24
2.381
  34
0
  50
-90
  100
AcDbRotatedDimension
  0
DIMENSION
  5
165
  100
AcDbEntity
  8
2
  100
AcDbDimension
  2
*D15d
  10
86.519
  20
0
  30
0
  11
88.202621
  21
1.683621
  31
0
  70
164
  1
R2.381
  71
5
  3
STANDARD
  100
AcDbRadialDimension
  15
88.202621
  25
1.683621
  35
0
  50
45
  0
DIMENSION
  5
173
  100
AcDbEntity
  8
2
  100
AcDbDimension
  2
*D167
  10
84.1
  20
10.915842
  30
0
  11
84.1
  21
2.355
  31
0
  70
160
  1
%%c<>
  71
5
  3
STANDARD
  42
4.71
  100
AcDbAlignedDimension
  13
82.1
  23
-2.355
  33
0
  14
82.1
  24
2.355
  34
0
  50
-90
  100
AcDbRotatedDimension
  0
DIMENSION
  5
181
  100
AcDbEntity
  8
2
  100
AcDbDimension
  2
*D175
  10
64.9
  20
7
  30
0
  11
82.884884
  21
7
  31
0
  70
160
  1
<>
  71
5
  3
STANDARD
  42
19.2
  100
AcDbAlignedDimension
  13
84.1
  23
2.355
  33
0
  14
64.9
  24
2.355
  34
0
  50
0
  100
AcDbRotatedDimension
  0
DIMENSION
  5
18f
  100
AcDbEntity
  8
2
  100
AcDbDimension
  2
*D183
  10
61.5
  20
8.175
  30
0
  11
75.2
  21
8.175
  31
0
  70
160
  1
<>
  71
5
  3
STANDARD
  42
27.4
  100
AcDbAlignedDimension
  13
88.9
  23
-15.175
  33
0
  14
61.5
  24
3.175
  34
0
  50
0
  100
AcDbRotatedDimension
  0
DIMENSION
  5
19d
  100
AcDbEntity
  8
2
  100
AcDbDimension
  2
*D191
  10
88.9
  20
-13.175
  30
0
  11
86.5
  21
-13.175
  31
0
  70
160
  1
<>
  71
5
  3
STANDARD
  42
4.8
  100
AcDbAlignedDimension
  13
84.1
  23
-2.355
  33
0
  14
88.9
  24
20.175
  34
0
  50
0
  100
AcDbRotatedDimension
  0
ARC
  5
36
  100
AcDbEntity
  8
1
  100
AcDbCircle
  10
64.987156
  20
-3.351195
  30
0
  40
1
  100
AcDbArc
  50
95
  51
105
  0
LINE
  5
37
  100
AcDbEntity
  8
1
  100
AcDbLine
  10
64.9
  20
-2.355
  30
0
  11
84.1
  21
-2.355
  31
0
  0
LINE
  5
38
  100
AcDbEntity
  8
1
  100
AcDbLine
  10
84.1
  20
-2.355
  30
0
  11
84.1
  21
-2.381
  31
0
  0
LINE
  5
39
  100
AcDbEntity
  8
1
  100
AcDbLine
  10
84.1
  20
-2.381
  30
0
  11
86.519
  21
-2.381
  31
0
  0
ARC
  5
3a
  100
AcDbEntity
  8
1
  100
AcDbCircle
  10
86.519
  20
0
  30
0
  40
2.381
  100
AcDbArc
  50
270
  51
0
  0
ARC
  5
3b
  100
AcDbEntity
  8
1
  100
AcDbCircle
  10
86.519
  20
0
  30
0
  40
2.381
  100
AcDbArc
  50
0
  51
90
  0
LINE
  5
3c
  100
AcDbEntity
  8
1
  100
AcDbLine
  10
86.519
  20
2.381
  30
0
  11
84.1
  21
2.381
  31
0
  0
LINE
  5
3d
  100
AcDbEntity
  8
1
  100
AcDbLine
  10
84.1
  20
2.381
  30
0
  11
84.1
  21
2.355
  31
0
  0
LINE
  5
3e
  100
AcDbEntity
  8
1
  100
AcDbLine
  10
84.1
  20
2.355
  30
0
  11
64.9
  21
2.355
  31
0
  0
ARC
  5
3f
  100
AcDbEntity
  8
1
  100
AcDbCircle
  10
64.987156
  20
3.351195
  30
0
  40
1
  100
AcDbArc
  50
255
  51
265
  0
LINE
  5
40
  100
AcDbEntity
  8
1
  100
AcDbLine
  10
64.728337
  20
2.385269
  30
0
  11
61.78102
  21
3.175
  31
0
  0
LINE
  5
41
  100
AcDbEntity
  8
1
  100
AcDbLine
  10
61.78102
  20
3.175
  30
0
  11
61.5
  21
3.175
  31
0
  0
LINE
  5
42
  100
AcDbEntity
  8
1
  100
AcDbLine
  10
61.5
  20
3.175
  30
0
  11
61.5
  21
-3.175
  31
0
  0
LINE
  5
43
  100
AcDbEntity
  8
1
  100
AcDbLine
  10
61.5
  20
-3.175
  30
0
  11
61.78102
  21
-3.175
  31
0
  0
LINE
  5
44
  100
AcDbEntity
  8
1
  100
AcDbLine
  10
61.78102
  20
-3.175
  30
0
  11
64.728337
  21
-2.385269
  31
0
  0
LINE
  5
45
  100
AcDbEntity
  8
1
  100
AcDbLine
  10
61.5
  20
-3.175
  30
0
  11
61.5
  21
3.175
  31
0
  0
LINE
  5
46
  100
AcDbEntity
  8
1
  100
AcDbLine
  10
61.5
  20
3.175
  30
0
  11
61.5
  21
-3.175
  31
0
  0
LINE
  5
47
  100
AcDbEntity
  8
1
  100
AcDbLine
  10
61.78102
  20
3.175
  30
0
  11
61.78102
  21
-3.175
  31
0
  0
LINE
  5
48
  100
AcDbEntity
  8
1
  100
AcDbLine
  10
64.728337
  20
-2.385269
  30
0
  11
64.728337
  21
2.385269
  31
0
  0
LINE
  5
49
  100
AcDbEntity
  8
1
  100
AcDbLine
  10
64.9
  20
2.355
  30
0
  11
64.9
  21
-2.355
  31
0
  0
LINE
  5
4a
  100
AcDbEntity
  8
1
  100
AcDbLine
  10
84.1
  20
-0.696841
  30
0
  11
84.1
  21
-0.710573
  31
0
  0
LINE
  5
4b
  100
AcDbEntity
  8
1
  100
AcDbLine
  10
84.1
  20
-0.710573
  30
0
  11
84.2
  21
-0.764709
  31
0
  0
LINE
  5
4c
  100
AcDbEntity
  8
1
  100
AcDbLine
  10
84.2
  20
-0.764709
  30
0
  11
84.3
  21
-0.818396
  31
0
  0
LINE
  5
4d
  100
AcDbEntity
  8
1
  100
AcDbLine
  10
84.3
  20
-0.818396
  30
0
  11
84.4
  21
-0.871602
  31
0
  0
LINE
  5
4e
  100
AcDbEntity
  8
1
  100
AcDbLine
  10
84.4
  20
-0.871602
  30
0
  11
84.5
  21
-0.924296
  31
0
  0
LINE
  5
4f
  100
AcDbEntity
  8
1
  100
AcDbLine
  10
84.5
  20
-0.924296
  30
0
  11
84.6
  21
-0.976446
  31
0
  0
LINE
  5
50
  100
AcDbEntity
  8
1
  100
AcDbLine
  10
84.6
  20
-0.976446
  30
0
  11
84.7
  21
-1.028022
  31
0
  0
LINE
  5
51
  100
AcDbEntity
  8
1
  100
AcDbLine
  10
84.7
  20
-1.028022
  30
0
  11
84.8
  21
-1.078993
  31
0
  0
LINE
  5
52
  100
AcDbEntity
  8
1
  100
AcDbLine
  10
84.8
  20
-1.078993
  30
0
  11
84.9
  21
-1.12933
  31
0
  0
LINE
  5
53
  100
AcDbEntity
  8
1
  100
AcDbLine
  10
84.9
  20
-1.12933
  30
0
  11
85
  21
-1.179004
  31
0
  0
LINE
  5
54
  100
AcDbEntity
  8
1
  100
AcDbLine
  10
85
  20
-1.179004
  30
0
  11
85.1
  21
-1.227983
  31
0
  0
LINE
  5
55
  100
AcDbEntity
  8
1
  100
AcDbLine
  10
85.1
  20
-1.227983
  30
0
  11
85.2
  21
-1.276241
  31
0
  0
LINE
  5
56
  100
AcDbEntity
  8
1
  100
AcDbLine
  10
85.2
  20
-1.276241
  30
0
  11
85.3
  21
-1.323749
  31
0
  0
LINE
  5
57
  100
AcDbEntity
  8
1
  100
AcDbLine
  10
85.3
  20
-1.323749
  30
0
  11
85.4
  21
-1.370478
  31
0
  0
LINE
  5
58
  100
AcDbEntity
  8
1
  100
AcDbLine
  10
85.4
  20
-1.370478
  30
0
  11
85.5
  21
-1.416402
  31
0
  0
LINE
  5
59
  100
AcDbEntity
  8
1
  100
AcDbLine
  10
85.5
  20
-1.416402
  30
0
  11
85.6
  21
-1.461493
  31
0
  0
LINE
  5
5a
  100
AcDbEntity
  8
1
  100
AcDbLine
  10
85.6
  20
-1.461493
  30
0
  11
85.7
  21
-1.505724
  31
0
  0
LINE
  5
5b
  100
AcDbEntity
  8
1
  100
AcDbLine
  10
85.7
  20
-1.505724
  30
0
  11
85.8
  21
-1.54907
  31
0
  0
LINE
  5
5c
  100
AcDbEntity
  8
1
  100
AcDbLine
  10
85.8
  20
-1.54907
  30
0
  11
85.9
  21
-1.591506
  31
0
  0
LINE
  5
5d
  100
AcDbEntity
  8
1
  100
AcDbLine
  10
85.9
  20
-1.591506
  30
0
  11
86
  21
-1.633005
  31
0
  0
LINE
  5
5e
  100
AcDbEntity
  8
1
  100
AcDbLine
  10
86
  20
-1.633005
  30
0
  11
86.1
  21
-1.673545
  31
0
  0
LINE
  5
5f
  100
AcDbEntity
  8
1
  100
AcDbLine
  10
86.1
  20
-1.673545
  30
0
  11
86.2
  21
-1.713101
  31
0
  0
LINE
  5
60
  100
AcDbEntity
  8
1
  100
AcDbLine
  10
86.2
  20
-1.713101
  30
0
  11
86.3
  21
-1.751649
  31
0
  0
LINE
  5
61
  100
AcDbEntity
  8
1
  100
AcDbLine
  10
86.3
  20
-1.751649
  30
0
  11
86.4
  21
-1.789168
  31
0
  0
LINE
  5
62
  100
AcDbEntity
  8
1
  100
AcDbLine
  10
86.4
  20
-1.789168
  30
0
  11
86.5
  21
-1.825634
  31
0
  0
LINE
  5
63
  100
AcDbEntity
  8
1
  100
AcDbLine
  10
86.5
  20
-1.825634
  30
0
  11
86.6
  21
-1.859741
  31
0
  0
LINE
  5
64
  100
AcDbEntity
  8
1
  100
AcDbLine
  10
86.6
  20
-1.859741
  30
0
  11
86.7
  21
-1.888828
  31
0
  0
LINE
  5
65
  100
AcDbEntity
  8
1
  100
AcDbLine
  10
86.7
  20
-1.888828
  30
0
  11
86.8
  21
-1.912659
  31
0
  0
LINE
  5
66
  100
AcDbEntity
  8
1
  100
AcDbLine
  10
86.8
  20
-1.912659
  30
0
  11
86.9
  21
-1.93106
  31
0
  0
LINE
  5
67
  100
AcDbEntity
  8
1
  100
AcDbLine
  10
86.9
  20
-1.93106
  30
0
  11
87
  21
-1.943844
  31
0
  0
LINE
  5
68
  100
AcDbEntity
  8
1
  100
AcDbLine
  10
87
  20
-1.943844
  30
0
  11
87.1
  21
-1.95081
  31
0
  0
LINE
  5
69
  100
AcDbEntity
  8
1
  100
AcDbLine
  10
87.1
  20
-1.95081
  30
0
  11
87.2
  21
-1.951737
  31
0
  0
LINE
  5
6a
  100
AcDbEntity
  8
1
  100
AcDbLine
  10
87.2
  20
-1.951737
  30
0
  11
87.3
  21
-1.946384
  31
0
  0
LINE
  5
6b
  100
AcDbEntity
  8
1
  100
AcDbLine
  10
87.3
  20
-1.946384
  30
0
  11
87.4
  21
-1.934476
  31
0
  0
LINE
  5
6c
  100
AcDbEntity
  8
1
  100
AcDbLine
  10
87.4
  20
-1.934476
  30
0
  11
87.5
  21
-1.915703
  31
0
  0
LINE
  5
6d
  100
AcDbEntity
  8
1
  100
AcDbLine
  10
87.5
  20
-1.915703
  30
0
  11
87.6
  21
-1.889702
  31
0
  0
LINE
  5
6e
  100
AcDbEntity
  8
1
  100
AcDbLine
  10
87.6
  20
-1.889702
  30
0
  11
87.7
  21
-1.856046
  31
0
  0
LINE
  5
6f
  100
AcDbEntity
  8
1
  100
AcDbLine
  10
87.7
  20
-1.856046
  30
0
  11
87.8
  21
-1.814218
  31
0
  0
LINE
  5
70
  100
AcDbEntity
  8
1
  100
AcDbLine
  10
87.8
  20
-1.814218
  30
0
  11
87.9
  21
-1.76358
  31
0
  0
LINE
  5
71
  100
AcDbEntity
  8
1
  100
AcDbLine
  10
87.9
  20
-1.76358
  30
0
  11
88
  21
-1.703324
  31
0
  0
LINE
  5
72
  100
AcDbEntity
  8
1
  100
AcDbLine
  10
88
  20
-1.703324
  30
0
  11
88.1
  21
-1.632396
  31
0
  0
LINE
  5
73
  100
AcDbEntity
  8
1
  100
AcDbLine
  10
88.1
  20
-1.632396
  30
0
  11
88.2
  21
-1.549419
  31
0
  0
LINE
  5
74
  100
AcDbEntity
  8
1
  100
AcDbLine
  10
88.2
  20
-1.549419
  30
0
  11
88.3
  21
-1.457096
  31
0
  0
LINE
  5
75
  100
AcDbEntity
  8
1
  100
AcDbLine
  10
88.3
  20
-1.457096
  30
0
  11
88.4
  21
-1.358141
  31
0
  0
LINE
  5
76
  100
AcDbEntity
  8
1
  100
AcDbLine
  10
88.4
  20
-1.358141
  30
0
  11
88.5
  21
-1.2528
  31
0
  0
LINE
  5
77
  100
AcDbEntity
  8
1
  100
AcDbLine
  10
88.5
  20
-1.315388
  30
0
  11
88.5
  21
-1.320909
  31
0
  0
LINE
  5
78
  100
AcDbEntity
  8
1
  100
AcDbLine
  10
88.5
  20
-1.320909
  30
0
  11
88.5
  21
-1.315388
  31
0
  0
LINE
  5
79
  100
AcDbEntity
  8
1
  100
AcDbLine
  10
88.5
  20
-1.315388
  30
0
  11
88.4
  21
-1.438651
  31
0
  0
LINE
  5
7a
  100
AcDbEntity
  8
1
  100
AcDbLine
  10
88.4
  20
-1.438651
  30
0
  11
88.3
  21
-1.546061
  31
0
  0
LINE
  5
7b
  100
AcDbEntity
  8
1
  100
AcDbLine
  10
88.3
  20
-1.546061
  30
0
  11
88.2
  21
-1.64266
  31
0
  0
LINE
  5
7c
  100
AcDbEntity
  8
1
  100
AcDbLine
  10
88.2
  20
-1.64266
  30
0
  11
88.1
  21
-1.728638
  31
0
  0
LINE
  5
7d
  100
AcDbEntity
  8
1
  100
AcDbLine
  10
88.1
  20
-1.728638
  30
0
  11
88
  21
-1.802977
  31
0
  0
LINE
  5
7e
  100
AcDbEntity
  8
1
  100
AcDbLine
  10
88
  20
-1.802977
  30
0
  11
87.9
  21
-1.866948
  31
0
  0
LINE
  5
7f
  100
AcDbEntity
  8
1
  100
AcDbLine
  10
87.9
  20
-1.866948
  30
0
  11
87.8
  21
-1.92152
  31
0
  0
LINE
  5
80
  100
AcDbEntity
  8
1
  100
AcDbLine
  10
87.8
  20
-1.92152
  30
0
  11
87.7
  21
-1.967441
  31
0
  0
LINE
  5
81
  100
AcDbEntity
  8
1
  100
AcDbLine
  10
87.7
  20
-1.967441
  30
0
  11
87.6
  21
-2.005308
  31
0
  0
LINE
  5
82
  100
AcDbEntity
  8
1
  100
AcDbLine
  10
87.6
  20
-2.005308
  30
0
  11
87.5
  21
-2.035602
  31
0
  0
LINE
  5
83
  100
AcDbEntity
  8
1
  100
AcDbLine
  10
87.5
  20
-2.035602
  30
0
  11
87.4
  21
-2.058725
  31
0
  0
LINE
  5
84
  100
AcDbEntity
  8
1
  100
AcDbLine
  10
87.4
  20
-2.058725
  30
0
  11
87.3
  21
-2.075019
  31
0
  0
LINE
  5
85
  100
AcDbEntity
  8
1
  100
AcDbLine
  10
87.3
  20
-2.075019
  30
0
  11
87.2
  21
-2.084777
  31
0
  0
LINE
  5
86
  100
AcDbEntity
  8
1
  100
AcDbLine
  10
87.2
  20
-2.084777
  30
0
  11
87.1
  21
-2.088258
  31
0
  0
LINE
  5
87
  100
AcDbEntity
  8
1
  100
AcDbLine
  10
87.1
  20
-2.088258
  30
0
  11
87
  21
-2.085694
  31
0
  0
LINE
  5
88
  100
AcDbEntity
  8
1
  100
AcDbLine
  10
87
  20
-2.085694
  30
0
  11
86.9
  21
-2.077293
  31
0
  0
LINE
  5
89
  100
AcDbEntity
  8
1
  100
AcDbLine
  10
86.9
  20
-2.077293
  30
0
  11
86.8
  21
-2.063249
  31
0
  0
LINE
  5
8a
  100
AcDbEntity
  8
1
  100
AcDbLine
  10
86.8
  20
-2.063249
  30
0
  11
86.7
  21
-2.043741
  31
0
  0
LINE
  5
8b
  100
AcDbEntity
  8
1
  100
AcDbLine
  10
86.7
  20
-2.043741
  30
0
  11
86.6
  21
-2.018935
  31
0
  0
LINE
  5
8c
  100
AcDbEntity
  8
1
  100
AcDbLine
  10
86.6
  20
-2.018935
  30
0
  11
86.5
  21
-1.98906
  31
0
  0
LINE
  5
8d
  100
AcDbEntity
  8
1
  100
AcDbLine
  10
86.5
  20
-1.98906
  30
0
  11
86.4
  21
-1.956743
  31
0
  0
LINE
  5
8e
  100
AcDbEntity
  8
1
  100
AcDbLine
  10
86.4
  20
-1.956743
  30
0
  11
86.3
  21
-1.923277
  31
0
  0
LINE
  5
8f
  100
AcDbEntity
  8
1
  100
AcDbLine
  10
86.3
  20
-1.923277
  30
0
  11
86.2
  21
-1.888679
  31
0
  0
LINE
  5
90
  100
AcDbEntity
  8
1
  100
AcDbLine
  10
86.2
  20
-1.888679
  30
0
  11
86.1
  21
-1.852971
  31
0
  0
LINE
  5
91
  100
AcDbEntity
  8
1
  100
AcDbLine
  10
86.1
  20
-1.852971
  30
0
  11
86
  21
-1.816174
  31
0
  0
LINE
  5
92
  100
AcDbEntity
  8
1
  100
AcDbLine
  10
86
  20
-1.816174
  30
0
  11
85.9
  21
-1.778308
  31
0
  0
LINE
  5
93
  100
AcDbEntity
  8
1
  100
AcDbLine
  10
85.9
  20
-1.778308
  30
0
  11
85.8
  21
-1.739398
  31
0
  0
LINE
  5
94
  100
AcDbEntity
  8
1
  100
AcDbLine
  10
85.8
  20
-1.739398
  30
0
  11
85.7
  21
-1.699464
  31
0
  0
LINE
  5
95
  100
AcDbEntity
  8
1
  100
AcDbLine
  10
85.7
  20
-1.699464
  30
0
  11
85.6
  21
-1.658532
  31
0
  0
LINE
  5
96
  100
AcDbEntity
  8
1
  100
AcDbLine
  10
85.6
  20
-1.658532
  30
0
  11
85.5
  21
-1.616624
  31
0
  0
LINE
  5
97
  100
AcDbEntity
  8
1
  100
AcDbLine
  10
85.5
  20
-1.616624
  30
0
  11
85.4
  21
-1.573766
  31
0
  0
LINE
  5
98
  100
AcDbEntity
  8
1
  100
AcDbLine
  10
85.4
  20
-1.573766
  30
0
  11
85.3
  21
-1.529982
  31
0
  0
LINE
  5
99
  100
AcDbEntity
  8
1
  100
AcDbLine
  10
85.3
  20
-1.529982
  30
0
  11
85.2
  21
-1.485299
  31
0
  0
LINE
  5
9a
  100
AcDbEntity
  8
1
  100
AcDbLine
  10
85.2
  20
-1.485299
  30
0
  11
85.1
  21
-1.439742
  31
0
  0
LINE
  5
9b
  100
AcDbEntity
  8
1
  100
AcDbLine
  10
85.1
  20
-1.439742
  30
0
  11
85
  21
-1.39334
  31
0
  0
LINE
  5
9c
  100
AcDbEntity
  8
1
  100
AcDbLine
  10
85
  20
-1.39334
  30
0
  11
84.9
  21
-1.346118
  31
0
  0
LINE
  5
9d
  100
AcDbEntity
  8
1
  100
AcDbLine
  10
84.9
  20
-1.346118
  30
0
  11
84.8
  21
-1.298104
  31
0
  0
LINE
  5
9e
  100
AcDbEntity
  8
1
  100
AcDbLine
  10
84.8
  20
-1.298104
  30
0
  11
84.7
  21
-1.249327
  31
0
  0
LINE
  5
9f
  100
AcDbEntity
  8
1
  100
AcDbLine
  10
84.7
  20
-1.249327
  30
0
  11
84.6
  21
-1.199816
  31
0
  0
LINE
  5
a0
  100
AcDbEntity
  8
1
  100
AcDbLine
  10
84.6
  20
-1.199816
  30
0
  11
84.5
  21
-1.149599
  31
0
  0
LINE
  5
a1
  100
AcDbEntity
  8
1
  100
AcDbLine
  10
84.5
  20
-1.149599
  30
0
  11
84.4
  21
-1.098707
  31
0
  0
LINE
  5
a2
  100
AcDbEntity
  8
1
  100
AcDbLine
  10
84.4
  20
-1.098707
  30
0
  11
84.3
  21
-1.047168
  31
0
  0
LINE
  5
a3
  100
AcDbEntity
  8
1
  100
AcDbLine
  10
84.3
  20
-1.047168
  30
0
  11
84.2
  21
-0.995014
  31
0
  0
LINE
  5
a4
  100
AcDbEntity
  8
1
  100
AcDbLine
  10
84.2
  20
-0.995014
  30
0
  11
84.1
  21
-0.942274
  31
0
  0
LINE
  5
a5
  100
AcDbEntity
  8
1
  100
AcDbLine
  10
84.1
  20
-0.942274
  30
0
  11
84.1
  21
-0.928628
  31
0
  0
LINE
  5
a6
  100
AcDbEntity
  8
1
  100
AcDbLine
  10
84.1
  20
-0.928628
  30
0
  11
84
  21
-0.875882
  31
0
  0
LINE
  5
a7
  100
AcDbEntity
  8
1
  100
AcDbLine
  10
84
  20
-0.875882
  30
0
  11
83.9
  21
-0.822626
  31
0
  0
LINE
  5
a8
  100
AcDbEntity
  8
1
  100
AcDbLine
  10
83.9
  20
-0.822626
  30
0
  11
83.8
  21
-0.76947
  31
0
  0
LINE
  5
a9
  100
AcDbEntity
  8
1
  100
AcDbLine
  10
83.8
  20
-0.76947
  30
0
  11
83.7
  21
-0.733492
  31
0
  0
LINE
  5
aa
  100
AcDbEntity
  8
1
  100
AcDbLine
  10
83.7
  20
-0.733492
  30
0
  11
83.6
  21
-0.93059
  31
0
  0
LINE
  5
ab
  100
AcDbEntity
  8
1
  100
AcDbLine
  10
83.6
  20
-0.93059
  30
0
  11
83.5
  21
-2.297273
  31
0
  0
LINE
  5
ac
  100
AcDbEntity
  8
1
  100
AcDbLine
  10
83.5
  20
-2.297273
  30
0
  11
83.5
  21
-2.320711
  31
0
  0
LINE
  5
ad
  100
AcDbEntity
  8
1
  100
AcDbLine
  10
83.5
  20
-2.320711
  30
0
  11
83.517297
  21
-2.355
  31
0
  0
LINE
  5
ae
  100
AcDbEntity
  8
1
  100
AcDbLine
  10
84.1
  20
-2.355
  30
0
  11
84.1
  21
2.355
  31
0
  0
LINE
  5
af
  100
AcDbEntity
  8
1
  100
AcDbLine
  10
84.1
  20
2.381
  30
0
  11
84.1
  21
-2.381
  31
0
  0
LINE
  5
b0
  100
AcDbEntity
  8
1
  100
AcDbLine
  10
83.517297
  20
2.355
  30
0
  11
83.6
  21
1.371377
  31
0
  0
LINE
  5
b1
  100
AcDbEntity
  8
1
  100
AcDbLine
  10
83.6
  20
1.371377
  30
0
  11
83.7
  21
0.445243
  31
0
  0
LINE
  5
b2
  100
AcDbEntity
  8
1
  100
AcDbLine
  10
83.7
  20
0.445243
  30
0
  11
83.8
  21
0.110782
  31
0
  0
LINE
  5
b3
  100
AcDbEntity
  8
1
  100
AcDbLine
  10
83.8
  20
0.110782
  30
0
  11
83.9
  21
-0.001585
  31
0
  0
LINE
  5
b4
  100
AcDbEntity
  8
1
  100
AcDbLine
  10
83.9
  20
-0.001585
  30
0
  11
84
  21
-0.063921
  31
0
  0
LINE
  5
b5
  100
AcDbEntity
  8
1
  100
AcDbLine
  10
84
  20
-0.063921
  30
0
  11
84.1
  21
-0.121063
  31
0
  0
LINE
  5
b6
  100
AcDbEntity
  8
1
  100
AcDbLine
  10
84.1
  20
-0.121063
  30
0
  11
84.1
  21
-0.137582
  31
0
  0
LINE
  5
b7
  100
AcDbEntity
  8
1
  100
AcDbLine
  10
84.1
  20
-0.137582
  30
0
  11
84.2
  21
-0.195175
  31
0
  0
LINE
  5
b8
  100
AcDbEntity
  8
1
  100
AcDbLine
  10
84.2
  20
-0.195175
  30
0
  11
84.3
  21
-0.252652
  31
0
  0
LINE
  5
b9
  100
AcDbEntity
  8
1
  100
AcDbLine
  10
84.3
  20
-0.252652
  30
0
  11
84.4
  21
-0.309982
  31
0
  0
LINE
  5
ba
  100
AcDbEntity
  8
1
  100
AcDbLine
  10
84.4
  20
-0.309982
  30
0
  11
84.5
  21
-0.367129
  31
0
  0
LINE
  5
bb
  100
AcDbEntity
  8
1
  100
AcDbLine
  10
84.5
  20
-0.367129
  30
0
  11
84.6
  21
-0.42406
  31
0
  0
LINE
  5
bc
  100
AcDbEntity
  8
1
  100
AcDbLine
  10
84.6
  20
-0.42406
  30
0
  11
84.7
  21
-0.480741
  31
0
  0
LINE
  5
bd
  100
AcDbEntity
  8
1
  100
AcDbLine
  10
84.7
  20
-0.480741
  30
0
  11
84.8
  21
-0.53714
  31
0
  0
LINE
  5
be
  100
AcDbEntity
  8
1
  100
AcDbLine
  10
84.8
  20
-0.53714
  30
0
  11
84.9
  21
-0.593224
  31
0
  0
LINE
  5
bf
  100
AcDbEntity
  8
1
  100
AcDbLine
  10
84.9
  20
-0.593224
  30
0
  11
85
  21
-0.648958
  31
0
  0
LINE
  5
c0
  100
AcDbEntity
  8
1
  100
AcDbLine
  10
85
  20
-0.648958
  30
0
  11
85.1
  21
-0.704311
  31
0
  0
LINE
  5
c1
  100
AcDbEntity
  8
1
  100
AcDbLine
  10
85.1
  20
-0.704311
  30
0
  11
85.2
  21
-0.75925
  31
0
  0
LINE
  5
c2
  100
AcDbEntity
  8
1
  100
AcDbLine
  10
85.2
  20
-0.75925
  30
0
  11
85.3
  21
-0.813742
  31
0
  0
LINE
  5
c3
  100
AcDbEntity
  8
1
  100
AcDbLine
  10
85.3
  20
-0.813742
  30
0
  11
85.4
  21
-0.867756
  31
0
  0
LINE
  5
c4
  100
AcDbEntity
  8
1
  100
AcDbLine
  10
85.4
  20
-0.867756
  30
0
  11
85.5
  21
-0.92126
  31
0
  0
LINE
  5
c5
  100
AcDbEntity
  8
1
  100
AcDbLine
  10
85.5
  20
-0.92126
  30
0
  11
85.6
  21
-0.974222
  31
0
  0
LINE
  5
c6
  100
AcDbEntity
  8
1
  100
AcDbLine
  10
85.6
  20
-0.974222
  30
0
  11
85.7
  21
-1.026612
  31
0
  0
LINE
  5
c7
  100
AcDbEntity
  8
1
  100
AcDbLine
  10
85.7
  20
-1.026612
  30
0
  11
85.8
  21
-1.078398
  31
0
  0
LINE
  5
c8
  100
AcDbEntity
  8
1
  100
AcDbLine
  10
85.8
  20
-1.078398
  30
0
  11
85.9
  21
-1.129549
  31
0
  0
LINE
  5
c9
  100
AcDbEntity
  8
1
  100
AcDbLine
  10
85.9
  20
-1.129549
  30
0
  11
86
  21
-1.180037
  31
0
  0
LINE
  5
ca
  100
AcDbEntity
  8
1
  100
AcDbLine
  10
86
  20
-1.180037
  30
0
  11
86.1
  21
-1.229831
  31
0
  0
LINE
  5
cb
  100
AcDbEntity
  8
1
  100
AcDbLine
  10
86.1
  20
-1.229831
  30
0
  11
86.2
  21
-1.278901
  31
0
  0
LINE
  5
cc
  100
AcDbEntity
  8
1
  100
AcDbLine
  10
86.2
  20
-1.278901
  30
0
  11
86.3
  21
-1.32722
  31
0
  0
LINE
  5
cd
  100
AcDbEntity
  8
1
  100
AcDbLine
  10
86.3
  20
-1.32722
  30
0
  11
86.4
  21
-1.374759
  31
0
  0
LINE
  5
ce
  100
AcDbEntity
  8
1
  100
AcDbLine
  10
86.4
  20
-1.374759
  30
0
  11
86.5
  21
-1.421489
  31
0
  0
LINE
  5
cf
  100
AcDbEntity
  8
1
  100
AcDbLine
  10
86.5
  20
-1.421489
  30
0
  11
86.6
  21
-1.465907
  31
0
  0
LINE
  5
d0
  100
AcDbEntity
  8
1
  100
AcDbLine
  10
86.6
  20
-1.465907
  30
0
  11
86.7
  21
-1.504963
  31
0
  0
LINE
  5
d1
  100
AcDbEntity
  8
1
  100
AcDbLine
  10
86.7
  20
-1.504963
  30
0
  11
86.8
  21
-1.538388
  31
0
  0
LINE
  5
d2
  100
AcDbEntity
  8
1
  100
AcDbLine
  10
86.8
  20
-1.538388
  30
0
  11
86.9
  21
-1.565977
  31
0
  0
LINE
  5
d3
  100
AcDbEntity
  8
1
  100
AcDbLine
  10
86.9
  20
-1.565977
  30
0
  11
87
  21
-1.587499
  31
0
  0
LINE
  5
d4
  100
AcDbEntity
  8
1
  100
AcDbLine
  10
87
  20
-1.587499
  30
0
  11
87.1
  21
-1.602697
  31
0
  0
LINE
  5
d5
  100
AcDbEntity
  8
1
  100
AcDbLine
  10
87.1
  20
-1.602697
  30
0
  11
87.2
  21
-1.611277
  31
0
  0
LINE
  5
d6
  100
AcDbEntity
  8
1
  100
AcDbLine
  10
87.2
  20
-1.611277
  30
0
  11
87.3
  21
-1.612901
  31
0
  0
LINE
  5
d7
  100
AcDbEntity
  8
1
  100
AcDbLine
  10
87.3
  20
-1.612901
  30
0
  11
87.4
  21
-1.60717
  31
0
  0
LINE
  5
d8
  100
AcDbEntity
  8
1
  100
AcDbLine
  10
87.4
  20
-1.60717
  30
0
  11
87.5
  21
-1.59361
  31
0
  0
LINE
  5
d9
  100
AcDbEntity
  8
1
  100
AcDbLine
  10
87.5
  20
-1.59361
  30
0
  11
87.6
  21
-1.571641
  31
0
  0
LINE
  5
da
  100
AcDbEntity
  8
1
  100
AcDbLine
  10
87.6
  20
-1.571641
  30
0
  11
87.7
  21
-1.540536
  31
0
  0
LINE
  5
db
  100
AcDbEntity
  8
1
  100
AcDbLine
  10
87.7
  20
-1.540536
  30
0
  11
87.8
  21
-1.499362
  31
0
  0
LINE
  5
dc
  100
AcDbEntity
  8
1
  100
AcDbLine
  10
87.8
  20
-1.499362
  30
0
  11
87.9
  21
-1.446879
  31
0
  0
LINE
  5
dd
  100
AcDbEntity
  8
1
  100
AcDbLine
  10
87.9
  20
-1.446879
  30
0
  11
88
  21
-1.381371
  31
0
  0
LINE
  5
de
  100
AcDbEntity
  8
1
  100
AcDbLine
  10
88
  20
-1.381371
  30
0
  11
88.1
  21
-1.300341
  31
0
  0
LINE
  5
df
  100
AcDbEntity
  8
1
  100
AcDbLine
  10
88.1
  20
-1.300341
  30
0
  11
88.2
  21
-1.199893
  31
0
  0
LINE
  5
e0
  100
AcDbEntity
  8
1
  100
AcDbLine
  10
88.2
  20
-1.199893
  30
0
  11
88.3
  21
-1.07332
  31
0
  0
LINE
  5
e1
  100
AcDbEntity
  8
1
  100
AcDbLine
  10
88.3
  20
-1.07332
  30
0
  11
88.4
  21
-0.907028
  31
0
  0
LINE
  5
e2
  100
AcDbEntity
  8
1
  100
AcDbLine
  10
88.4
  20
-0.907028
  30
0
  11
88.5
  21
-0.662784
  31
0
  0
LINE
  5
e3
  100
AcDbEntity
  8
1
  100
AcDbLine
  10
88.5
  20
-0.662784
  30
0
  11
88.5
  21
1.320909
  31
0
  0
LINE
  5
e4
  100
AcDbEntity
  8
1
  100
AcDbLine
  10
88.5
  20
1.320909
  30
0
  11
88.5
  21
-0.662784
  31
0
  0
LINE
  5
e5
  100
AcDbEntity
  8
1
  100
AcDbLine
  10
86.519
  20
-2.381
  30
0
  11
86.519
  21
2.381
  31
0
  0
LINE
  5
e6
  100
AcDbEntity
  8
SK1
  100
AcDbLine
  10
61.5
  20
3.175
  30
0
  11
0.7
  21
3.175
  31
0
  0
LINE
  5
e7
  100
AcDbEntity
  8
SK1
  100
AcDbLine
  10
0.7
  20
3.175
  30
0
  11
0
  21
2.475
  31
0
  0
LINE
  5
e8
  100
AcDbEntity
  8
SK1
  100
AcDbLine
  10
61.5
  20
-3.175
  30
0
  11
0.7
  21
-3.175
  31
0
  0
LINE
  5
e9
  100
AcDbEntity
  8
SK1
  100
AcDbLine
  10
0.7
  20
-3.175
  30
0
  11
0
  21
-2.475
  31
0
  0
LINE
  5
ea
  100
AcDbEntity
  8
SK1
  100
AcDbLine
  10
0.7
  20
3.175
  30
0
  11
0.7
  21
-3.175
  31
0
  0
LINE
  5
eb
  100
AcDbEntity
  8
SK1
  100
AcDbLine
  10
0
  20
2.475
  30
0
  11
0
  21
-2.475
  31
0
  0
LINE
  5
ec
  100
AcDbEntity
  8
SK1
  100
AcDbLine
  10
62.5401
  20
1.40688
  30
0
  11
62.9069
  21
1.0401
  31
0
  0
LINE
  5
ed
  100
AcDbEntity
  8
SK1
  100
AcDbLine
  10
62.0328
  20
1.66666
  30
0
  11
63.1667
  21
0.532833
  31
0
  0
LINE
  5
ee
  100
AcDbEntity
  8
SK1
  100
AcDbLine
  10
61.7154
  20
1.73657
  30
0
  11
63.2366
  21
0.215434
  31
0
  0
LINE
  5
ef
  100
AcDbEntity
  8
SK1
  100
AcDbLine
  10
61.5
  20
1.70452
  30
0
  11
63.2045
  21
0
  31
0
  0
LINE
  5
f0
  100
AcDbEntity
  8
SK1
  100
AcDbLine
  10
61.5
  20
1.45703
  30
0
  11
62.957
  21
0
  31
0
  0
LINE
  5
f1
  100
AcDbEntity
  8
SK1
  100
AcDbLine
  10
61.5
  20
1.20954
  30
0
  11
62.7095
  21
0
  31
0
  0
LINE
  5
f2
  100
AcDbEntity
  8
SK1
  100
AcDbLine
  10
61.5
  20
0.962054
  30
0
  11
62.4621
  21
0
  31
0
  0
LINE
  5
f3
  100
AcDbEntity
  8
SK1
  100
AcDbLine
  10
61.5
  20
0.714566
  30
0
  11
62.2146
  21
0
  31
0
  0
LINE
  5
f4
  100
AcDbEntity
  8
SK1
  100
AcDbLine
  10
61.5
  20
0.467079
  30
0
  11
61.9671
  21
0
  31
0
  0
LINE
  5
f5
  100
AcDbEntity
  8
SK1
  100
AcDbLine
  10
61.5
  20
0.219592
  30
0
  11
61.7196
  21
0
  31
0
  0
LINE
  5
f6
  100
AcDbEntity
  8
SK1
  100
AcDbLine
  10
61.5
  20
1.70452
  30
0
  11
61.5441
  21
1.74861
  31
0
  0
LINE
  5
f7
  100
AcDbEntity
  8
SK1
  100
AcDbLine
  10
61.5
  20
1.45703
  30
0
  11
61.771
  21
1.72802
  31
0
  0
LINE
  5
f8
  100
AcDbEntity
  8
SK1
  100
AcDbLine
  10
61.5
  20
1.20954
  30
0
  11
61.9742
  21
1.6837
  31
0
  0
LINE
  5
f9
  100
AcDbEntity
  8
SK1
  100
AcDbLine
  10
61.5
  20
0.962054
  30
0
  11
62.1588
  21
1.62082
  31
0
  0
LINE
  5
fa
  100
AcDbEntity
  8
SK1
  100
AcDbLine
  10
61.5
  20
0.714566
  30
0
  11
62.3271
  21
1.54167
  31
0
  0
LINE
  5
fb
  100
AcDbEntity
  8
SK1
  100
AcDbLine
  10
61.5
  20
0.467079
  30
0
  11
62.481
  21
1.44812
  31
0
  0
LINE
  5
fc
  100
AcDbEntity
  8
SK1
  100
AcDbLine
  10
61.5
  20
0.219592
  30
0
  11
62.6226
  21
1.34216
  31
0
  0
LINE
  5
fd
  100
AcDbEntity
  8
SK1
  100
AcDbLine
  10
61.5279
  20
0
  30
0
  11
62.7508
  21
1.22288
  31
0
  0
LINE
  5
fe
  100
AcDbEntity
  8
SK1
  100
AcDbLine
  10
61.7754
  20
0
  30
0
  11
62.867
  21
1.09157
  31
0
  0
LINE
  5
ff
  100
AcDbEntity
  8
SK1
  100
AcDbLine
  10
62.0229
  20
0
  30
0
  11
62.9707
  21
0.947822
  31
0
  0
LINE
  5
100
  100
AcDbEntity
  8
SK1
  100
AcDbLine
  10
62.2704
  20
0
  30
0
  11
63.0605
  21
0.790145
  31
0
  0
LINE
  5
101
  100
AcDbEntity
  8
SK1
  100
AcDbLine
  10
62.5178
  20
0
  30
0
  11
63.1364
  21
0.618517
  31
0
  0
LINE
  5
102
  100
AcDbEntity
  8
SK1
  100
AcDbLine
  10
62.7653
  20
0
  30
0
  11
63.196
  21
0.430696
  31
0
  0
LINE
  5
103
  100
AcDbEntity
  8
SK1
  100
AcDbLine
  10
63.0128
  20
0
  30
0
  11
63.2356
  21
0.222827
  31
0
  0
LINE
  5
104
  100
AcDbEntity
  8
SK1
  100
AcDbLine
  10
61.5
  20
0
  30
0
  11
61.5
  21
1.75
  31
0
  0
LINE
  5
105
  100
AcDbEntity
  8
SK1
  100
AcDbLine
  10
61.5
  20
0
  30
0
  11
63.25
  21
0
  31
0
  0
ARC
  5
106
  100
AcDbEntity
  8
SK1
  100
AcDbCircle
  10
61.5
  20
0
  30
0
  40
1.75
  100
AcDbArc
  50
0
  51
90
  0
ARC
  5
107
  100
AcDbEntity
  8
SK1
  100
AcDbCircle
  10
61.5
  20
0
  30
0
  40
1.75
  100
AcDbArc
  50
90
  51
180
  0
LINE
  5
108
  100
AcDbEntity
  8
SK1
  100
AcDbLine
  10
61.4721
  20
0
  30
0
  11
61.5
  21
-0.027896
  31
0
  0
LINE
  5
109
  100
AcDbEntity
  8
SK1
  100
AcDbLine
  10
61.2246
  20
0
  30
0
  11
61.5
  21
-0.275383
  31
0
  0
LINE
  5
10a
  100
AcDbEntity
  8
SK1
  100
AcDbLine
  10
60.9771
  20
0
  30
0
  11
61.5
  21
-0.522871
  31
0
  0
LINE
  5
10b
  100
AcDbEntity
  8
SK1
  100
AcDbLine
  10
60.7296
  20
0
  30
0
  11
61.5
  21
-0.770358
  31
0
  0
LINE
  5
10c
  100
AcDbEntity
  8
SK1
  100
AcDbLine
  10
60.4822
  20
0
  30
0
  11
61.5
  21
-1.01785
  31
0
  0
LINE
  5
10d
  100
AcDbEntity
  8
SK1
  100
AcDbLine
  10
60.2347
  20
0
  30
0
  11
61.5
  21
-1.26533
  31
0
  0
LINE
  5
10e
  100
AcDbEntity
  8
SK1
  100
AcDbLine
  10
59.9872
  20
0
  30
0
  11
61.5
  21
-1.51282
  31
0
  0
LINE
  5
10f
  100
AcDbEntity
  8
SK1
  100
AcDbLine
  10
59.7503
  20
-0.010642
  30
0
  11
61.4894
  21
-1.74967
  31
0
  0
LINE
  5
110
  100
AcDbEntity
  8
SK1
  100
AcDbLine
  10
59.7736
  20
-0.281429
  30
0
  11
61.2186
  21
-1.72637
  31
0
  0
LINE
  5
111
  100
AcDbEntity
  8
SK1
  100
AcDbLine
  10
59.8639
  20
-0.619147
  30
0
  11
60.8809
  21
-1.63613
  31
0
  0
LINE
  5
112
  100
AcDbEntity
  8
SK1
  100
AcDbLine
  10
59.7514
  20
-0.044098
  30
0
  11
59.7955
  21
0
  31
0
  0
LINE
  5
113
  100
AcDbEntity
  8
SK1
  100
AcDbLine
  10
59.772
  20
-0.270991
  30
0
  11
60.043
  21
0
  31
0
  0
LINE
  5
114
  100
AcDbEntity
  8
SK1
  100
AcDbLine
  10
59.8163
  20
-0.474162
  30
0
  11
60.2905
  21
0
  31
0
  0
LINE
  5
115
  100
AcDbEntity
  8
SK1
  100
AcDbLine
  10
59.8792
  20
-0.658762
  30
0
  11
60.5379
  21
0
  31
0
  0
LINE
  5
116
  100
AcDbEntity
  8
SK1
  100
AcDbLine
  10
59.9583
  20
-0.827105
  30
0
  11
60.7854
  21
0
  31
0
  0
LINE
  5
117
  100
AcDbEntity
  8
SK1
  100
AcDbLine
  10
60.0519
  20
-0.981039
  30
0
  11
61.0329
  21
0
  31
0
  0
LINE
  5
118
  100
AcDbEntity
  8
SK1
  100
AcDbLine
  10
60.1578
  20
-1.12257
  30
0
  11
61.2804
  21
0
  31
0
  0
LINE
  5
119
  100
AcDbEntity
  8
SK1
  100
AcDbLine
  10
60.2771
  20
-1.25077
  30
0
  11
61.5
  21
-0.027896
  31
0
  0
LINE
  5
11a
  100
AcDbEntity
  8
SK1
  100
AcDbLine
  10
60.4084
  20
-1.36695
  30
0
  11
61.5
  21
-0.275383
  31
0
  0
LINE
  5
11b
  100
AcDbEntity
  8
SK1
  100
AcDbLine
  10
60.5522
  20
-1.47069
  30
0
  11
61.5
  21
-0.522871
  31
0
  0
LINE
  5
11c
  100
AcDbEntity
  8
SK1
  100
AcDbLine
  10
60.7099
  20
-1.5605
  30
0
  11
61.5
  21
-0.770358
  31
0
  0
LINE
  5
11d
  100
AcDbEntity
  8
SK1
  100
AcDbLine
  10
60.8815
  20
-1.63636
  30
0
  11
61.5
  21
-1.01785
  31
0
  0
LINE
  5
11e
  100
AcDbEntity
  8
SK1
  100
AcDbLine
  10
61.0693
  20
-1.69603
  30
0
  11
61.5
  21
-1.26533
  31
0
  0
LINE
  5
11f
  100
AcDbEntity
  8
SK1
  100
AcDbLine
  10
61.2772
  20
-1.73565
  30
0
  11
61.5
  21
-1.51282
  31
0
  0
LINE
  5
120
  100
AcDbEntity
  8
SK1
  100
AcDbLine
  10
61.5
  20
0
  30
0
  11
59.75
  21
0
  31
0
  0
LINE
  5
121
  100
AcDbEntity
  8
SK1
  100
AcDbLine
  10
61.5
  20
-1.75
  30
0
  11
61.5
  21
0
  31
0
  0
ARC
  5
122
  100
AcDbEntity
  8
SK1
  100
AcDbCircle
  10
61.5
  20
0
  30
0
  40
1.75
  100
AcDbArc
  50
180
  51
270
  0
ARC
  5
123
  100
AcDbEntity
  8
SK1
  100
AcDbCircle
  10
61.5
  20
0
  30
0
  40
1.75
  100
AcDbArc
  50
270
  51
0
  0
LINE
  5
19e
  100
AcDbEntity
  8
NOCUT
  100
AcDbLine
  10
84.1
  20
0
  30
0
  11
84.1
  21
2.355
  31
0
  0
LINE
  5
19f
  100
AcDbEntity
  8
NOCUT
  100
AcDbLine
  10
84.1
  20
2.355
  30
0
  11
64.9
  21
2.355
  31
0
  0
ARC
  5
1a0
  100
AcDbEntity
  8
NOCUT
  100
AcDbCircle
  10
64.987156
  20
3.351195
  30
0
  40
1
  100
AcDbArc
  50
255
  51
265
  0
LINE
  5
1a1
  100
AcDbEntity
  8
NOCUT
  100
AcDbLine
  10
64.728337
  20
2.385269
  30
0
  11
61.78102
  21
3.175
  31
0
  0
LINE
  5
1a2
  100
AcDbEntity
  8
NOCUT
  100
AcDbLine
  10
61.78102
  20
3.175
  30
0
  11
61.5
  21
3.175
  31
0
  0
LINE
  5
1a3
  100
AcDbEntity
  8
NOCUT
  100
AcDbLine
  10
61.5
  20
3.175
  30
0
  11
61.5
  21
0
  31
0
  0
LINE
  5
1a4
  100
AcDbEntity
  8
NOCUT
  100
AcDbLine
  10
61.5
  20
0
  30
0
  11
84.1
  21
0
  31
0
  0
ARC
  5
1a5
  100
AcDbEntity
  8
CUT
  100
AcDbCircle
  10
86.519
  20
0
  30
0
  40
2.381
  100
AcDbArc
  50
0
  51
90
  0
LINE
  5
1a6
  100
AcDbEntity
  8
CUT
  100
AcDbLine
  10
86.519
  20
2.381
  30
0
  11
84.1
  21
2.381
  31
0
  0
LINE
  5
1a7
  100
AcDbEntity
  8
CUT
  100
AcDbLine
  10
84.1
  20
2.381
  30
0
  11
84.1
  21
0
  31
0
  0
LINE
  5
1a8
  100
AcDbEntity
  8
CUT
  100
AcDbLine
  10
84.1
  20
0
  30
0
  11
88.9
  21
0
  31
0
  0
LINE
  5
1a9
  100
AcDbEntity
  8
4
  100
AcDbLine
  10
61.5
  20
0
  30
0
  11
88.9
  21
0
  31
0
  0
LINE
  5
1aa
  100
AcDbEntity
  8
SK4
  100
AcDbLine
  10
-1
  20
0
  30
0
  11
89.9
  21
0
  31
0
  0
LINE
  5
1ab
  100
AcDbEntity
  8
INFTOTAL
  100
AcDbLine
  10
-17.645
  20
25.82
  30
0
  11
106.545
  21
25.82
  31
0
  0
LINE
  5
1ac
  100
AcDbEntity
  8
INFTOTAL
  100
AcDbLine
  10
106.545
  20
25.82
  30
0
  11
106.545
  21
-20.82
  31
0
  0
LINE
  5
1ad
  100
AcDbEntity
  8
INFTOTAL
  100
AcDbLine
  10
106.545
  20
-20.82
  30
0
  11
-17.645
  21
-20.82
  31
0
  0
LINE
  5
1ae
  100
AcDbEntity
  8
INFTOTAL
  100
AcDbLine
  10
-17.645
  20
-20.82
  30
0
  11
-17.645
  21
25.82
  31
0
  0
ENDSEC
  0
SECTION
  2
OBJECTS
  0
DICTIONARY
  5
1af
  330
0
100
AcDbDictionary
281
    1
  3
ACAD_GROUP
  350
1b0
  0
DICTIONARY
  5
1b0
102
{ACAD_REACTORS
  330
1af
102
}
  330
1af
100
AcDbDictionary
281
    1
  0
ENDSEC
  0
EOF
