  0
SECTION
  2
HEADER
  9
$ACADVER
  1
AC1015
  9
$ACADMAINTVER
 70
     6
  9
$DWGCODEPAGE
  3
ANSI_932
  9
$INSBASE
 10
0.0
 20
0.0
 30
0.0
  9
$EXTMIN
 10
-19.475
 20
-25.0
 30
0.0
  9
$EXTMAX
 10
105.0
 20
45.00000000000001
 30
0.0
  9
$LIMMIN
 10
0.0
 20
0.0
  9
$LIMMAX
 10
12.0
 20
9.0
  9
$ORTHOMODE
 70
     0
  9
$REGENMODE
 70
     1
  9
$FILLMODE
 70
     1
  9
$QTEXTMODE
 70
     0
  9
$MIRRTEXT
 70
     1
  9
$LTSCALE
 40
1.0
  9
$ATTMODE
 70
     1
  9
$TEXTSIZE
 40
0.2
  9
$TRACEWID
 40
0.05
  9
$TEXTSTYLE
  7
Standard
  9
$CLAYER
  8
0
  9
$CELTYPE
  6
ByBlock
  9
$CECOLOR
 62
   256
  9
$CELTSCALE
 40
1.0
  9
$DISPSILH
 70
     0
  9
$DIMSCALE
 40
1.0
  9
$DIMASZ
 40
0.18
  9
$DIMEXO
 40
0.0625
  9
$DIMDLI
 40
0.38
  9
$DIMRND
 40
0.0
  9
$DIMDLE
 40
0.0
  9
$DIMEXE
 40
0.18
  9
$DIMTP
 40
0.0
  9
$DIMTM
 40
0.0
  9
$DIMTXT
 40
0.18
  9
$DIMCEN
 40
0.09
  9
$DIMTSZ
 40
0.0
  9
$DIMTOL
 70
     0
  9
$DIMLIM
 70
     0
  9
$DIMTIH
 70
     1
  9
$DIMTOH
 70
     1
  9
$DIMSE1
 70
     0
  9
$DIMSE2
 70
     0
  9
$DIMTAD
 70
     0
  9
$DIMZIN
 70
     0
  9
$DIMBLK
  1

  9
$DIMASO
 70
     1
  9
$DIMSHO
 70
     1
  9
$DIMPOST
  1

  9
$DIMAPOST
  1

  9
$DIMALT
 70
     0
  9
$DIMALTD
 70
     2
  9
$DIMALTF
 40
25.4
  9
$DIMLFAC
 40
1.0
  9
$DIMTOFL
 70
     0
  9
$DIMTVP
 40
0.0
  9
$DIMTIX
 70
     0
  9
$DIMSOXD
 70
     0
  9
$DIMSAH
 70
     0
  9
$DIMBLK1
  1

  9
$DIMBLK2
  1

  9
$DIMSTYLE
  2
STANDARD
  9
$DIMCLRD
 70
     0
  9
$DIMCLRE
 70
     0
  9
$DIMCLRT
 70
     0
  9
$DIMTFAC
 40
1.0
  9
$DIMGAP
 40
0.09
  9
$DIMJUST
 70
     0
  9
$DIMSD1
 70
     0
  9
$DIMSD2
 70
     0
  9
$DIMTOLJ
 70
     1
  9
$DIMTZIN
 70
     0
  9
$DIMALTZ
 70
     0
  9
$DIMALTTZ
 70
     0
  9
$DIMUPT
 70
     0
  9
$DIMDEC
 70
     4
  9
$DIMTDEC
 70
     4
  9
$DIMALTU
 70
     2
  9
$DIMALTTD
 70
     2
  9
$DIMTXSTY
  7
Standard
  9
$DIMAUNIT
 70
     0
  9
$DIMADEC
 70
     0
  9
$DIMALTRND
 40
0.0
  9
$DIMAZIN
 70
     0
  9
$DIMDSEP
 70
    46
  9
$DIMATFIT
 70
     3
  9
$DIMFRAC
 70
     0
  9
$DIMLDRBLK
  1

  9
$DIMLUNIT
 70
     2
  9
$DIMLWD
 70
    -2
  9
$DIMLWE
 70
    -2
  9
$DIMTMOVE
 70
     0
  9
$LUNITS
 70
     2
  9
$LUPREC
 70
     4
  9
$SKETCHINC
 40
0.1
  9
$FILLETRAD
 40
0.5
  9
$AUNITS
 70
     0
  9
$AUPREC
 70
     0
  9
$MENU
  1
.
  9
$ELEVATION
 40
0.0
  9
$PELEVATION
 40
0.0
  9
$THICKNESS
 40
0.0
  9
$LIMCHECK
 70
     0
  9
$CHAMFERA
 40
0.0
  9
$CHAMFERB
 40
0.0
  9
$CHAMFERC
 40
0.0
  9
$CHAMFERD
 40
0.0
  9
$SKPOLY
 70
     0
  9
$TDCREATE
 40
2447893.375
  9
$TDUCREATE
 40
0.0
  9
$TDUPDATE
 40
2460768.56779029
  9
$TDUUPDATE
 40
2460768.19279029
  9
$TDINDWG
 40
0.0030115741
  9
$TDUSRTIMER
 40
0.0030115741
  9
$USRTIMER
 70
     1
  9
$ANGBASE
 50
0.0
  9
$ANGDIR
 70
     0
  9
$PDMODE
 70
     0
  9
$PDSIZE
 40
0.0
  9
$PLINEWID
 40
0.0
  9
$SPLFRAME
 70
     0
  9
$SPLINETYPE
 70
     6
  9
$SPLINESEGS
 70
     8
  9
$HANDSEED
  5
106AC6A
  9
$SURFTAB1
 70
     6
  9
$SURFTAB2
 70
     6
  9
$SURFTYPE
 70
     6
  9
$SURFU
 70
     6
  9
$SURFV
 70
     6
  9
$UCSBASE
  2

  9
$UCSNAME
  2

  9
$UCSORG
 10
0.0
 20
0.0
 30
0.0
  9
$UCSXDIR
 10
1.0
 20
0.0
 30
0.0
  9
$UCSYDIR
 10
0.0
 20
1.0
 30
0.0
  9
$UCSORTHOREF
  2

  9
$UCSORTHOVIEW
 70
     0
  9
$UCSORGTOP
 10
0.0
 20
0.0
 30
0.0
  9
$UCSORGBOTTOM
 10
0.0
 20
0.0
 30
0.0
  9
$UCSORGLEFT
 10
0.0
 20
0.0
 30
0.0
  9
$UCSORGRIGHT
 10
0.0
 20
0.0
 30
0.0
  9
$UCSORGFRONT
 10
0.0
 20
0.0
 30
0.0
  9
$UCSORGBACK
 10
0.0
 20
0.0
 30
0.0
  9
$PUCSBASE
  2

  9
$PUCSNAME
  2

  9
$PUCSORG
 10
0.0
 20
0.0
 30
0.0
  9
$PUCSXDIR
 10
1.0
 20
0.0
 30
0.0
  9
$PUCSYDIR
 10
0.0
 20
1.0
 30
0.0
  9
$PUCSORTHOREF
  2

  9
$PUCSORTHOVIEW
 70
     0
  9
$PUCSORGTOP
 10
0.0
 20
0.0
 30
0.0
  9
$PUCSORGBOTTOM
 10
0.0
 20
0.0
 30
0.0
  9
$PUCSORGLEFT
 10
0.0
 20
0.0
 30
0.0
  9
$PUCSORGRIGHT
 10
0.0
 20
0.0
 30
0.0
  9
$PUCSORGFRONT
 10
0.0
 20
0.0
 30
0.0
  9
$PUCSORGBACK
 10
0.0
 20
0.0
 30
0.0
  9
$USERI1
 70
     0
  9
$USERI2
 70
     0
  9
$USERI3
 70
     0
  9
$USERI4
 70
     0
  9
$USERI5
 70
     0
  9
$USERR1
 40
0.0
  9
$USERR2
 40
0.0
  9
$USERR3
 40
0.0
  9
$USERR4
 40
0.0
  9
$USERR5
 40
0.0
  9
$WORLDVIEW
 70
     1
  9
$SHADEDGE
 70
     3
  9
$SHADEDIF
 70
    70
  9
$TILEMODE
 70
     1
  9
$MAXACTVP
 70
    64
  9
$PINSBASE
 10
0.0
 20
0.0
 30
0.0
  9
$PLIMCHECK
 70
     0
  9
$PEXTMIN
 10
1.000000000000000E+20
 20
1.000000000000000E+20
 30
1.000000000000000E+20
  9
$PEXTMAX
 10
-1.000000000000000E+20
 20
-1.000000000000000E+20
 30
-1.000000000000000E+20
  9
$PLIMMIN
 10
0.0
 20
0.0
  9
$PLIMMAX
 10
0.0
 20
0.0
  9
$UNITMODE
 70
     0
  9
$VISRETAIN
 70
     1
  9
$PLINEGEN
 70
     0
  9
$PSLTSCALE
 70
     1
  9
$TREEDEPTH
 70
  3020
  9
$CMLSTYLE
  2
Standard
  9
$CMLJUST
 70
     0
  9
$CMLSCALE
 40
1.0
  9
$PROXYGRAPHICS
 70
     1
  9
$MEASUREMENT
 70
     0
  9
$CELWEIGHT
370
    -1
  9
$ENDCAPS
280
     0
  9
$JOINSTYLE
280
     0
  9
$LWDISPLAY
290
     0
  9
$INSUNITS
 70
     0
  9
$HYPERLINKBASE
  1

  9
$STYLESHEET
  1

  9
$XEDIT
290
     1
  9
$CEPSNTYPE
380
     0
  9
$PSTYLEMODE
290
     1
  9
$FINGERPRINTGUID
  2
{084b1f3a-d116-4291-8556-6834ac6837d9}
  9
$VERSIONGUID
  2
{FAEB1C32-E019-11D5-929B-00C0DF256EC4}
  9
$EXTNAMES
290
     1
  9
$PSVPSCALE
 40
0.0
  9
$OLESTARTUP
290
     0
  0
ENDSEC
  0
SECTION
  2
CLASSES
  0
CLASS
  1
IMAGEDEF
  2
AcDbRasterImageDef
  3
ISM
 90
        0
280
     0
281
     0
  0
CLASS
  1
IMAGE
  2
AcDbRasterImage
  3
ISM
 90
      127
280
     0
281
     1
  0
CLASS
  1
IMAGEDEF_REACTOR
  2
AcDbRasterImageDefReactor
  3
ISM
 90
        1
280
     0
281
     0
  0
CLASS
  1
ACDBDICTIONARYWDFLT
  2
AcDbDictionaryWithDefault
  3
ObjectDBX Classes
 90
        0
280
     0
281
     0
  0
CLASS
  1
SCALE
  2
AcDbScale
  3
ObjectDBX Classes
 90
     1153
280
     0
281
     0
  0
CLASS
  1
MATERIAL
  2
AcDbMaterial
  3
ObjectDBX Classes
 90
     1153
280
     0
281
     0
  0
CLASS
  1
VISUALSTYLE
  2
AcDbVisualStyle
  3
ObjectDBX Classes
 90
     4095
280
     0
281
     0
  0
CLASS
  1
TABLESTYLE
  2
AcDbTableStyle
  3
ObjectDBX Classes
 90
     4095
280
     0
281
     0
  0
CLASS
  1
MLEADERSTYLE
  2
AcDbMLeaderStyle
  3
ACDB_MLEADERSTYLE_CLASS
 90
     4095
280
     0
281
     0
  0
CLASS
  1
SUN
  2
AcDbSun
  3
SCENEOE
 90
     1153
280
     0
281
     0
  0
CLASS
  1
RASTERVARIABLES
  2
AcDbRasterVariables
  3
ISM
 90
        0
280
     0
281
     0
  0
CLASS
  1
DICTIONARYVAR
  2
AcDbDictionaryVar
  3
ObjectDBX Classes
 90
        0
280
     0
281
     0
  0
CLASS
  1
ACDBPLACEHOLDER
  2
AcDbPlaceHolder
  3
ObjectDBX Classes
 90
        0
280
     0
281
     0
  0
CLASS
  1
LAYOUT
  2
AcDbLayout
  3
ObjectDBX Classes
 90
        0
280
     0
281
     0
  0
ENDSEC
  0
SECTION
  2
TABLES
  0
TABLE
  2
VPORT
  5
2
102
{ACAD_XDICTIONARY
360
106AC2D
102
}
330
0
100
AcDbSymbolTable
 70
     1
  0
VPORT
  5
106AB91
330
2
100
AcDbSymbolTableRecord
100
AcDbViewportTableRecord
  2
*Active
 70
     0
 10
0.0
 20
0.0
 11
1.0
 21
1.0
 12
42.7625
 22
10.0
 13
0.0
 23
0.0
 14
0.5
 24
0.5
 15
0.5
 25
0.5
 16
0.0
 26
0.0
 36
1.0
 17
0.0
 27
0.0
 37
0.0
 40
71.4
 41
2.060393258426966
 42
50.0
 43
0.0
 44
0.0
 50
0.0
 51
0.0
 71
    16
 72
   100
 73
     1
 74
     3
 75
     0
 76
     0
 77
     0
 78
     0
281
     0
 65
     1
110
0.0
120
0.0
130
0.0
111
1.0
121
0.0
131
0.0
112
0.0
122
1.0
132
0.0
 79
     0
146
0.0
  0
ENDTAB
  0
TABLE
  2
LTYPE
  5
3
330
0
100
AcDbSymbolTable
 70
     3
  0
LTYPE
  5
4
330
3
100
AcDbSymbolTableRecord
100
AcDbLinetypeTableRecord
  2
ByBlock
 70
     0
  3

 72
    65
 73
     0
 40
0.0
  0
LTYPE
  5
5
330
3
100
AcDbSymbolTableRecord
100
AcDbLinetypeTableRecord
  2
ByLayer
 70
     0
  3

 72
    65
 73
     0
 40
0.0
  0
LTYPE
  5
6
330
3
100
AcDbSymbolTableRecord
100
AcDbLinetypeTableRecord
  2
CONTINUOUS
 70
     0
  3
Solid Line
 72
    65
 73
     0
 40
0.0
  0
LTYPE
  5
7
330
3
100
AcDbSymbolTableRecord
100
AcDbLinetypeTableRecord
  2
DASH
 70
     0
  3
Hidden
 72
    65
 73
     2
 40
2.5
 49
1.5
 74
     0
 49
-1.0
 74
     0
  0
LTYPE
  5
8
330
3
100
AcDbSymbolTableRecord
100
AcDbLinetypeTableRecord
  2
LONGDASHDASH
 70
     0
  3
__ . __
 72
    65
 73
     4
 40
7.0
 49
4.0
 74
     0
 49
-1.0
 74
     0
 49
1.0
 74
     0
 49
-1.0
 74
     0
  0
ENDTAB
  0
TABLE
  2
LAYER
  5
9
330
0
100
AcDbSymbolTable
 70
    11
  0
LAYER
  5
A
330
9
100
AcDbSymbolTableRecord
100
AcDbLayerTableRecord
  2
0
 70
     0
 62
     7
  6
CONTINUOUS
370
    -3
390
106AB96
  0
LAYER
  5
C
330
9
100
AcDbSymbolTableRecord
100
AcDbLayerTableRecord
  2
1
 70
     0
 62
     4
  6
CONTINUOUS
370
    50
390
106AB96
  0
LAYER
  5
D
330
9
100
AcDbSymbolTableRecord
100
AcDbLayerTableRecord
  2
2
 70
     0
 62
     7
  6
CONTINUOUS
370
    25
390
106AB96
  0
LAYER
  5
F
330
9
100
AcDbSymbolTableRecord
100
AcDbLayerTableRecord
  2
4
 70
     0
 62
     2
  6
LONGDASHDASH
370
    25
390
106AB96
  0
LAYER
  5
13
330
9
100
AcDbSymbolTableRecord
100
AcDbLayerTableRecord
  2
SK1
 70
     0
 62
     4
  6
CONTINUOUS
370
    50
390
106AB96
  0
LAYER
  5
14
330
9
100
AcDbSymbolTableRecord
100
AcDbLayerTableRecord
  2
SK2
 70
     0
 62
     7
  6
CONTINUOUS
370
    25
390
106AB96
  0
LAYER
  5
16
330
9
100
AcDbSymbolTableRecord
100
AcDbLayerTableRecord
  2
SK4
 70
     0
 62
     2
  6
LONGDASHDASH
370
    25
390
106AB96
  0
LAYER
  5
21
330
9
100
AcDbSymbolTableRecord
100
AcDbLayerTableRecord
  2
NOCUT
 70
     0
 62
     7
  6
CONTINUOUS
370
    25
390
106AB96
  0
LAYER
  5
22
330
9
100
AcDbSymbolTableRecord
100
AcDbLayerTableRecord
  2
CUT
 70
     0
 62
     1
  6
CONTINUOUS
370
    25
390
106AB96
  0
LAYER
  5
26
330
9
100
AcDbSymbolTableRecord
100
AcDbLayerTableRecord
  2
INFTOTAL
 70
     0
 62
     9
  6
CONTINUOUS
370
    18
390
106AB96
  0
LAYER
  5
106ABE1
330
9
100
AcDbSymbolTableRecord
100
AcDbLayerTableRecord
  2
Defpoints
 70
     0
 62
     7
  6
CONTINUOUS
290
     0
370
    -3
390
106AB96
  0
ENDTAB
  0
TABLE
  2
STYLE
  5
27
330
0
100
AcDbSymbolTable
 70
     2
  0
STYLE
  5
28
330
27
100
AcDbSymbolTableRecord
100
AcDbTextStyleTableRecord
  2
Monospac821 BT
 70
     0
 40
3.5
 41
1.0
 50
0.0
 71
     0
 42
3.0
  3

  4

1001
ACAD
1000
Monospac821 BT
1071
      256
  0
STYLE
  5
106AB90
330
27
100
AcDbSymbolTableRecord
100
AcDbTextStyleTableRecord
  2
Standard
 70
     0
 40
0.0
 41
1.0
 50
0.0
 71
     0
 42
0.2
  3
txt
  4

  0
ENDTAB
  0
TABLE
  2
VIEW
  5
29
330
0
100
AcDbSymbolTable
 70
     0
  0
ENDTAB
  0
TABLE
  2
UCS
  5
2A
330
0
100
AcDbSymbolTable
 70
     0
  0
ENDTAB
  0
TABLE
  2
APPID
  5
2B
330
0
100
AcDbSymbolTable
 70
     6
  0
APPID
  5
2C
330
2B
100
AcDbSymbolTableRecord
100
AcDbRegAppTableRecord
  2
ACAD
 70
     0
  0
APPID
  5
106ABF0
330
2B
100
AcDbSymbolTableRecord
100
AcDbRegAppTableRecord
  2
FX_DIMP_FAV_VERSION
 70
     0
  0
APPID
  5
106AC1F
330
2B
100
AcDbSymbolTableRecord
100
AcDbRegAppTableRecord
  2
FX_DIMP_RECENT_VERSION
 70
     0
  0
APPID
  5
106AC2B
330
2B
100
AcDbSymbolTableRecord
100
AcDbRegAppTableRecord
  2
ACAD_DSTYLE_DIMFLIPARROW_SYMBOL
 70
     0
  0
APPID
  5
106AC2C
330
2B
100
AcDbSymbolTableRecord
100
AcDbRegAppTableRecord
  2
ACAD_DSTYLE_DIMFLIPARROW_WHICH_SYMBOL
 70
     0
  0
APPID
  5
106AC67
330
2B
100
AcDbSymbolTableRecord
100
AcDbRegAppTableRecord
  2
ACAD_MLEADERVER
 70
     0
  0
ENDTAB
  0
TABLE
  2
DIMSTYLE
  5
2D
330
0
100
AcDbSymbolTable
 70
     1
100
AcDbDimStyleTable
  0
DIMSTYLE
105
2E
102
{ACAD_REACTORS
330
106AC00
330
106AC10
102
}
330
2D
100
AcDbSymbolTableRecord
100
AcDbDimStyleTableRecord
  2
STANDARD
 70
     0
 41
3.0
 42
0.5
 44
1.0
 73
     0
 77
     1
 78
     1
140
3.5
141
2.5
143
0.03937007874
147
0.8
172
     1
174
     1
178
     0
179
     1
271
     2
279
     1
284
     1
340
28
  0
ENDTAB
  0
TABLE
  2
BLOCK_RECORD
  5
2F
330
0
100
AcDbSymbolTable
 70
    11
  0
BLOCK_RECORD
  5
30
102
{ACAD_XDICTIONARY
360
106AC21
102
}
330
2F
100
AcDbSymbolTableRecord
100
AcDbBlockTableRecord
  2
*Model_Space
340
106AB98
  0
BLOCK_RECORD
  5
31
330
2F
100
AcDbSymbolTableRecord
100
AcDbBlockTableRecord
  2
*Paper_Space
340
106AB99
  0
BLOCK_RECORD
  5
3A9
330
2F
100
AcDbSymbolTableRecord
100
AcDbBlockTableRecord
  2
*D0
340
0
  0
BLOCK_RECORD
  5
3B7
330
2F
100
AcDbSymbolTableRecord
100
AcDbBlockTableRecord
  2
*D1
340
0
  0
BLOCK_RECORD
  5
3C5
330
2F
100
AcDbSymbolTableRecord
100
AcDbBlockTableRecord
  2
*D2
340
0
  0
BLOCK_RECORD
  5
3D5
330
2F
100
AcDbSymbolTableRecord
100
AcDbBlockTableRecord
  2
*D3
340
0
  0
BLOCK_RECORD
  5
3E3
330
2F
100
AcDbSymbolTableRecord
100
AcDbBlockTableRecord
  2
*D4
340
0
  0
BLOCK_RECORD
  5
3F1
330
2F
100
AcDbSymbolTableRecord
100
AcDbBlockTableRecord
  2
*D5
340
0
  0
BLOCK_RECORD
  5
3FB
330
2F
100
AcDbSymbolTableRecord
100
AcDbBlockTableRecord
  2
*D6
340
0
  0
BLOCK_RECORD
  5
409
330
2F
100
AcDbSymbolTableRecord
100
AcDbBlockTableRecord
  2
*D7
340
0
  0
BLOCK_RECORD
  5
417
330
2F
100
AcDbSymbolTableRecord
100
AcDbBlockTableRecord
  2
*D8
340
0
  0
BLOCK_RECORD
  5
106AC01
330
2F
100
AcDbSymbolTableRecord
100
AcDbBlockTableRecord
  2
*D10
340
0
  0
BLOCK_RECORD
  5
106AC11
330
2F
100
AcDbSymbolTableRecord
100
AcDbBlockTableRecord
  2
*D11
340
0
  0
ENDTAB
  0
ENDSEC
  0
SECTION
  2
BLOCKS
  0
BLOCK
  5
32
330
30
100
AcDbEntity
  8
0
100
AcDbBlockBegin
  2
*Model_Space
 70
     0
 10
0.0
 20
0.0
 30
0.0
  3
*Model_Space
  1

  0
ENDBLK
  5
33
330
30
100
AcDbEntity
  8
0
100
AcDbBlockEnd
  0
BLOCK
  5
34
330
31
100
AcDbEntity
 67
     1
  8
0
100
AcDbBlockBegin
  2
*Paper_Space
 70
     0
 10
0.0
 20
0.0
 30
0.0
  3
*Paper_Space
  1

  0
ENDBLK
  5
35
330
31
100
AcDbEntity
 67
     1
  8
0
100
AcDbBlockEnd
  0
BLOCK
  5
3A7
330
3A9
100
AcDbEntity
  8
SK2
100
AcDbBlockBegin
  2
*D0
 70
     1
 10
0.0
 20
0.0
 30
0.0
  3
*D0
  1

  0
LINE
  5
3AA
330
3A9
100
AcDbEntity
  8
SK2
 62
     0
370
    -2
100
AcDbLine
 10
0.0
 20
2.975
 30
0.0
 11
0.0
 21
39.0
 31
0.0
  0
LINE
  5
3AB
330
3A9
100
AcDbEntity
  8
SK2
 62
     0
370
    -2
100
AcDbLine
 10
63.5
 20
0.5
 30
0.0
 11
63.5
 21
39.0
 31
0.0
  0
LINE
  5
3AC
330
3A9
100
AcDbEntity
  8
SK2
 62
     0
370
    -2
100
AcDbLine
 10
3.0
 20
38.0
 30
0.0
 11
60.5
 21
38.0
 31
0.0
  0
SOLID
  5
3AD
330
3A9
100
AcDbEntity
  8
SK2
 62
     0
100
AcDbTrace
 10
3.0
 20
38.5
 30
0.0
 11
3.0
 21
37.5
 31
0.0
 12
0.0
 22
38.0
 32
0.0
 13
0.0
 23
38.0
 33
0.0
  0
SOLID
  5
3AE
330
3A9
100
AcDbEntity
  8
SK2
 62
     0
100
AcDbTrace
 10
60.5
 20
37.5
 30
0.0
 11
60.5
 21
38.5
 31
0.0
 12
63.5
 22
38.0
 32
0.0
 13
63.5
 23
38.0
 33
0.0
  0
MTEXT
  5
3AF
330
3A9
100
AcDbEntity
  8
SK2
  6
ByBlock
 62
     0
100
AcDbMText
 10
31.75
 20
40.61125
 30
0.0
 40
3.5
 41
0.0
 71
     5
 72
     1
  1
\A1;63.5
 73
     1
 44
1.0
  0
POINT
  5
3B0
330
3A9
100
AcDbEntity
  8
Defpoints
 62
     0
100
AcDbPoint
 10
0.0
 20
2.475
 30
0.0
  0
POINT
  5
3B1
330
3A9
100
AcDbEntity
  8
Defpoints
 62
     0
100
AcDbPoint
 10
63.5
 20
0.0
 30
0.0
  0
POINT
  5
3B2
330
3A9
100
AcDbEntity
  8
Defpoints
 62
     0
100
AcDbPoint
 10
63.5
 20
38.0
 30
0.0
  0
ENDBLK
  5
3B3
330
3A9
100
AcDbEntity
  8
SK2
100
AcDbBlockEnd
  0
BLOCK
  5
3B5
330
3B7
100
AcDbEntity
  8
SK2
100
AcDbBlockBegin
  2
*D1
 70
     1
 10
0.0
 20
0.0
 30
0.0
  3
*D1
  1

  0
LINE
  5
3B8
330
3B7
100
AcDbEntity
  8
2
 62
     0
370
    -2
100
AcDbLine
 10
63.206
 20
0.794
 30
0.0
 11
103.0
 21
0.7939999999999987
 31
0.0
  0
LINE
  5
3B9
330
3B7
100
AcDbEntity
  8
2
 62
     0
370
    -2
100
AcDbLine
 10
63.206
 20
-0.794
 30
0.0
 11
103.0
 21
-0.7940000000000041
 31
0.0
  0
LINE
  5
3BA
330
3B7
100
AcDbEntity
  8
2
 62
     0
370
    -2
100
AcDbLine
 10
102.0
 20
0.7939999999999987
 30
0.0
 11
102.0
 21
26.13549999999999
 31
0.0
  0
LINE
  5
3BB
330
3B7
100
AcDbEntity
  8
2
 62
     0
370
    -2
100
AcDbLine
 10
102.0
 20
0.7939999999999987
 30
0.0
 11
102.0
 21
-0.794000000000004
 31
0.0
  0
LINE
  5
3BC
330
3B7
100
AcDbEntity
  8
2
 62
     0
370
    -2
100
AcDbLine
 10
102.0
 20
3.793999999999999
 30
0.0
 11
102.0
 21
6.793999999999999
 31
0.0
  0
LINE
  5
3BD
330
3B7
100
AcDbEntity
  8
2
 62
     0
370
    -2
100
AcDbLine
 10
102.0
 20
-3.794000000000004
 30
0.0
 11
102.0
 21
-6.794000000000004
 31
0.0
  0
SOLID
  5
3BE
330
3B7
100
AcDbEntity
  8
2
 62
     0
100
AcDbTrace
 10
101.5
 20
3.793999999999999
 30
0.0
 11
102.5
 21
3.793999999999999
 31
0.0
 12
102.0
 22
0.7939999999999987
 32
0.0
 13
102.0
 23
0.7939999999999987
 33
0.0
  0
SOLID
  5
3BF
330
3B7
100
AcDbEntity
  8
2
 62
     0
100
AcDbTrace
 10
102.5
 20
-3.794000000000004
 30
0.0
 11
101.5
 21
-3.794000000000004
 31
0.0
 12
102.0
 22
-0.794000000000004
 32
0.0
 13
102.0
 23
-0.794000000000004
 33
0.0
  0
MTEXT
  5
3C0
330
3B7
100
AcDbEntity
  8
2
  6
ByBlock
 62
     0
100
AcDbMText
 10
99.338
 20
16.46475
 30
0.0
 40
3.5
 41
0.0
 71
     5
 72
     1
  1
\A1;%%c1.588
 11
0.0
 21
1.0
 31
0.0
 73
     1
 44
1.0
  0
POINT
  5
106ABE2
330
3B7
100
AcDbEntity
  8
Defpoints
 62
     0
100
AcDbPoint
 10
62.706
 20
0.794
 30
0.0
  0
POINT
  5
106ABE3
330
3B7
100
AcDbEntity
  8
Defpoints
 62
     0
100
AcDbPoint
 10
62.706
 20
-0.794
 30
0.0
  0
POINT
  5
106ABEC
330
3B7
100
AcDbEntity
  8
Defpoints
 62
     0
100
AcDbPoint
 10
102.0
 20
-0.7940000000000025
 30
0.0
  0
ENDBLK
  5
3C1
330
3B7
100
AcDbEntity
  8
SK2
100
AcDbBlockEnd
  0
BLOCK
  5
3C3
330
3C5
100
AcDbEntity
  8
SK2
100
AcDbBlockBegin
  2
*D2
 70
     1
 10
0.0
 20
0.0
 30
0.0
  3
*D2
  1

  0
LINE
  5
3C6
330
3C5
100
AcDbEntity
  8
SK2
100
AcDbLine
 10
38.744425308111
 20
5.24555236082
 30
0.0
 11
46.471831918424
 21
3.175
 31
0.0
  0
LINE
  5
3C7
330
3C5
100
AcDbEntity
  8
SK2
100
AcDbLine
 10
45.671831918424
 20
3.175
 30
0.0
 11
38.471831918424
 21
3.175
 31
0.0
  0
ARC
  5
3C8
330
3C5
100
AcDbEntity
  8
SK2
100
AcDbCircle
 10
46.471831918424
 20
3.175
 30
0.0
 40
6.0
100
AcDbArc
 50
102.820194988027
 51
180.0
  0
SOLID
  5
3C9
330
3C5
100
AcDbEntity
  8
SK2
100
AcDbTrace
 10
40.676276960689
 20
4.727914270615
 30
0.0
 11
40.349961480139
 21
2.249302117181
 31
0.0
 12
39.719568379776
 22
2.418215439337
 32
0.0
 13
39.719568379776
 23
2.418215439337
 33
0.0
  0
SOLID
  5
3CA
330
3C5
100
AcDbEntity
  8
SK2
100
AcDbTrace
 10
40.471831918424
 20
3.175
 30
0.0
 11
40.145516437873
 21
5.653612153435
 31
0.0
 12
40.798147398974
 22
5.653612153435
 32
0.0
 13
40.798147398974
 23
5.653612153435
 33
0.0
  0
MTEXT
  5
3CB
330
3C5
100
AcDbEntity
  8
SK2
100
AcDbMText
 10
40.676276960689
 20
4.727914270615
 30
0.0
 40
3.5
 41
0.0
 71
     8
 72
     1
  1
15°
 11
0.258819045103
 21
0.965925826289
 31
0.0
 73
     1
 44
1.0
  0
POINT
  5
3CC
330
3C5
100
AcDbEntity
  8
SK2
 62
     0
100
AcDbPoint
 10
40.57230247304
 20
4.268413152953
 30
0.0
  0
POINT
  5
3CD
330
3C5
100
AcDbEntity
  8
SK2
 62
     0
100
AcDbPoint
 10
46.471831918424
 20
3.175
 30
0.0
  0
POINT
  5
3CE
330
3C5
100
AcDbEntity
  8
SK2
 62
     0
100
AcDbPoint
 10
38.744425308111
 20
5.24555236082
 30
0.0
  0
POINT
  5
3CF
330
3C5
100
AcDbEntity
  8
SK2
 62
     0
100
AcDbPoint
 10
46.471831918424
 20
3.175
 30
0.0
  0
POINT
  5
3D0
330
3C5
100
AcDbEntity
  8
SK2
 62
     0
100
AcDbPoint
 10
45.671831918424
 20
3.175
 30
0.0
  0
ENDBLK
  5
3D1
330
3C5
100
AcDbEntity
  8
SK2
100
AcDbBlockEnd
  0
BLOCK
  5
3D3
330
3D5
100
AcDbEntity
  8
SK2
100
AcDbBlockBegin
  2
*D3
 70
     1
 10
0.0
 20
0.0
 30
0.0
  3
*D3
  1

  0
LINE
  5
3D6
330
3D5
100
AcDbEntity
  8
SK2
 62
     0
370
    -2
100
AcDbLine
 10
0.2
 20
-3.175
 30
0.0
 11
-9.0
 21
-3.175000000000003
 31
0.0
  0
LINE
  5
3D7
330
3D5
100
AcDbEntity
  8
SK2
 62
     0
370
    -2
100
AcDbLine
 10
0.2
 20
3.175
 30
0.0
 11
-9.0
 21
3.174999999999998
 31
0.0
  0
LINE
  5
3D8
330
3D5
100
AcDbEntity
  8
SK2
 62
     0
370
    -2
100
AcDbLine
 10
-8.0
 20
3.174999999999998
 30
0.0
 11
-8.0
 21
25.4715
 31
0.0
  0
LINE
  5
3D9
330
3D5
100
AcDbEntity
  8
SK2
 62
     0
370
    -2
100
AcDbLine
 10
-8.0
 20
-3.175000000000002
 30
0.0
 11
-8.0
 21
3.174999999999998
 31
0.0
  0
LINE
  5
3DA
330
3D5
100
AcDbEntity
  8
SK2
 62
     0
370
    -2
100
AcDbLine
 10
-8.0
 20
-6.175000000000002
 30
0.0
 11
-8.0
 21
-9.175000000000002
 31
0.0
  0
LINE
  5
3DB
330
3D5
100
AcDbEntity
  8
SK2
 62
     0
370
    -2
100
AcDbLine
 10
-8.0
 20
6.174999999999999
 30
0.0
 11
-8.0
 21
9.174999999999999
 31
0.0
  0
SOLID
  5
3DC
330
3D5
100
AcDbEntity
  8
SK2
 62
     0
100
AcDbTrace
 10
-7.5
 20
-6.175000000000002
 30
0.0
 11
-8.5
 21
-6.175000000000002
 31
0.0
 12
-8.0
 22
-3.175000000000002
 32
0.0
 13
-8.0
 23
-3.175000000000002
 33
0.0
  0
SOLID
  5
3DD
330
3D5
100
AcDbEntity
  8
SK2
 62
     0
100
AcDbTrace
 10
-8.5
 20
6.174999999999999
 30
0.0
 11
-7.5
 21
6.174999999999999
 31
0.0
 12
-8.0
 22
3.174999999999998
 32
0.0
 13
-8.0
 23
3.174999999999998
 33
0.0
  0
MTEXT
  5
3DE
330
3D5
100
AcDbEntity
  8
SK2
  6
ByBlock
 62
     0
100
AcDbMText
 10
-10.662
 20
17.32325
 30
0.0
 40
3.5
 41
0.0
 71
     5
 72
     1
  1
\A1;%%c6.35
 11
0.0
 21
1.0
 31
0.0
 73
     1
 44
1.0
  0
POINT
  5
106ABE4
330
3D5
100
AcDbEntity
  8
Defpoints
 62
     0
100
AcDbPoint
 10
0.7
 20
-3.175
 30
0.0
  0
POINT
  5
106ABE5
330
3D5
100
AcDbEntity
  8
Defpoints
 62
     0
100
AcDbPoint
 10
0.7
 20
3.175
 30
0.0
  0
POINT
  5
106ABEA
330
3D5
100
AcDbEntity
  8
Defpoints
 62
     0
100
AcDbPoint
 10
-8.0
 20
3.174999999999999
 30
0.0
  0
ENDBLK
  5
3DF
330
3D5
100
AcDbEntity
  8
SK2
100
AcDbBlockEnd
  0
BLOCK
  5
3E1
330
3E3
100
AcDbEntity
  8
SK2
100
AcDbBlockBegin
  2
*D4
 70
     1
 10
0.0
 20
0.0
 30
0.0
  3
*D4
  1

  0
LINE
  5
3E4
330
3E3
100
AcDbEntity
  8
SK2
 62
     0
370
    -2
100
AcDbLine
 10
46.3
 20
3.675
 30
0.0
 11
46.3
 21
31.0
 31
0.0
  0
LINE
  5
3E5
330
3E3
100
AcDbEntity
  8
SK2
 62
     0
370
    -2
100
AcDbLine
 10
0.0
 20
2.975
 30
0.0
 11
0.0
 21
31.0
 31
0.0
  0
LINE
  5
3E6
330
3E3
100
AcDbEntity
  8
SK2
 62
     0
370
    -2
100
AcDbLine
 10
43.3
 20
30.0
 30
0.0
 11
3.0
 21
30.0
 31
0.0
  0
SOLID
  5
3E7
330
3E3
100
AcDbEntity
  8
SK2
 62
     0
100
AcDbTrace
 10
43.3
 20
29.5
 30
0.0
 11
43.3
 21
30.5
 31
0.0
 12
46.3
 22
30.0
 32
0.0
 13
46.3
 23
30.0
 33
0.0
  0
SOLID
  5
3E8
330
3E3
100
AcDbEntity
  8
SK2
 62
     0
100
AcDbTrace
 10
3.0
 20
30.5
 30
0.0
 11
3.0
 21
29.5
 31
0.0
 12
0.0
 22
30.0
 32
0.0
 13
0.0
 23
30.0
 33
0.0
  0
MTEXT
  5
3E9
330
3E3
100
AcDbEntity
  8
SK2
  6
ByBlock
 62
     0
100
AcDbMText
 10
23.15
 20
32.61125
 30
0.0
 40
3.5
 41
0.0
 71
     5
 72
     1
  1
\A1;46.3
 73
     1
 44
1.0
  0
POINT
  5
3EA
330
3E3
100
AcDbEntity
  8
Defpoints
 62
     0
100
AcDbPoint
 10
46.3
 20
3.175
 30
0.0
  0
POINT
  5
3EB
330
3E3
100
AcDbEntity
  8
Defpoints
 62
     0
100
AcDbPoint
 10
0.0
 20
2.475
 30
0.0
  0
POINT
  5
3EC
330
3E3
100
AcDbEntity
  8
Defpoints
 62
     0
100
AcDbPoint
 10
0.0
 20
30.0
 30
0.0
  0
ENDBLK
  5
3ED
330
3E3
100
AcDbEntity
  8
SK2
100
AcDbBlockEnd
  0
BLOCK
  5
3EF
330
3F1
100
AcDbEntity
  8
2
100
AcDbBlockBegin
  2
*D5
 70
     1
 10
0.0
 20
0.0
 30
0.0
  3
*D5
  1

  0
LINE
  5
3F2
330
3F1
100
AcDbEntity
  8
2
 62
     0
370
    -2
100
AcDbLine
 10
89.02524043285204
 20
8.0
 30
0.0
 11
70.71824043285204
 21
8.0
 31
0.0
  0
LINE
  5
3F3
330
3F1
100
AcDbEntity
  8
2
 62
     0
370
    -2
100
AcDbLine
 10
70.71824043285204
 20
8.0
 30
0.0
 11
65.39081316079647
 21
2.680711527116044
 31
0.0
  0
MTEXT
  5
3F4
330
3F1
100
AcDbEntity
  8
2
  6
ByBlock
 62
     0
100
AcDbMText
 10
80.27174043285204
 20
10.61125
 30
0.0
 40
3.5
 41
0.0
 71
     5
 72
     1
  1
\A1;R0.794
 73
     1
 44
1.0
  0
LINE
  5
3F5
330
3F1
100
AcDbEntity
  8
2
 62
     0
370
    -2
100
AcDbLine
 10
62.706
 20
0.0
 30
0.0
 11
63.26787181066738
 21
0.5610134297653604
 31
0.0
  0
SOLID
  5
3F6
330
3F1
100
AcDbEntity
  8
2
 62
     0
100
AcDbTrace
 10
65.03753014457135
 20
3.034535085470891
 30
0.0
 11
65.74409617702159
 21
2.326887968761197
 31
0.0
 12
63.26787181066738
 22
0.5610134297653604
 32
0.0
 13
63.26787181066738
 23
0.5610134297653604
 33
0.0
  0
POINT
  5
106ABED
330
3F1
100
AcDbEntity
  8
Defpoints
 62
     0
100
AcDbPoint
 10
63.26787181066738
 20
0.5610134297653604
 30
0.0
  0
POINT
  5
106ABEE
330
3F1
100
AcDbEntity
  8
Defpoints
 62
     0
100
AcDbPoint
 10
62.706
 20
0.0
 30
0.0
  0
ENDBLK
  5
3F7
330
3F1
100
AcDbEntity
  8
2
100
AcDbBlockEnd
  0
BLOCK
  5
3F9
330
3FB
100
AcDbEntity
  8
2
100
AcDbBlockBegin
  2
*D6
 70
     1
 10
0.0
 20
0.0
 30
0.0
  3
*D6
  1

  0
LINE
  5
3FC
330
3FB
100
AcDbEntity
  8
2
 62
     0
370
    -2
100
AcDbLine
 10
63.5
 20
-0.5
 30
0.0
 11
63.5
 21
-16.0
 31
0.0
  0
LINE
  5
3FD
330
3FB
100
AcDbEntity
  8
2
 62
     0
370
    -2
100
AcDbLine
 10
62.4
 20
-1.294
 30
0.0
 11
62.4
 21
-16.0
 31
0.0
  0
LINE
  5
3FE
330
3FB
100
AcDbEntity
  8
2
 62
     0
370
    -2
100
AcDbLine
 10
63.5
 20
-15.0
 30
0.0
 11
78.436
 21
-15.0
 31
0.0
  0
LINE
  5
3FF
330
3FB
100
AcDbEntity
  8
2
 62
     0
370
    -2
100
AcDbLine
 10
63.5
 20
-15.0
 30
0.0
 11
62.4
 21
-15.0
 31
0.0
  0
LINE
  5
400
330
3FB
100
AcDbEntity
  8
2
 62
     0
370
    -2
100
AcDbLine
 10
66.5
 20
-15.0
 30
0.0
 11
69.5
 21
-15.0
 31
0.0
  0
LINE
  5
401
330
3FB
100
AcDbEntity
  8
2
 62
     0
370
    -2
100
AcDbLine
 10
59.4
 20
-15.0
 30
0.0
 11
56.4
 21
-15.0
 31
0.0
  0
SOLID
  5
402
330
3FB
100
AcDbEntity
  8
2
 62
     0
100
AcDbTrace
 10
66.5
 20
-14.5
 30
0.0
 11
66.5
 21
-15.5
 31
0.0
 12
63.5
 22
-15.0
 32
0.0
 13
63.5
 23
-15.0
 33
0.0
  0
SOLID
  5
403
330
3FB
100
AcDbEntity
  8
2
 62
     0
100
AcDbTrace
 10
59.4
 20
-15.5
 30
0.0
 11
59.4
 21
-14.5
 31
0.0
 12
62.4
 22
-15.0
 32
0.0
 13
62.4
 23
-15.0
 33
0.0
  0
MTEXT
  5
404
330
3FB
100
AcDbEntity
  8
2
  6
ByBlock
 62
     0
100
AcDbMText
 10
73.968
 20
-12.4395
 30
0.0
 40
3.5
 41
0.0
 71
     5
 72
     1
  1
\A1;1.1
 73
     1
 44
1.0
  0
POINT
  5
106ABE6
330
3FB
100
AcDbEntity
  8
Defpoints
 62
     0
100
AcDbPoint
 10
63.5
 20
0.0
 30
0.0
  0
POINT
  5
106ABE7
330
3FB
100
AcDbEntity
  8
Defpoints
 62
     0
100
AcDbPoint
 10
62.4
 20
-0.794
 30
0.0
  0
POINT
  5
106ABF1
330
3FB
100
AcDbEntity
  8
Defpoints
 62
     0
100
AcDbPoint
 10
62.4
 20
-15.0
 30
0.0
  0
ENDBLK
  5
405
330
3FB
100
AcDbEntity
  8
2
100
AcDbBlockEnd
  0
BLOCK
  5
407
330
409
100
AcDbEntity
  8
2
100
AcDbBlockBegin
  2
*D7
 70
     1
 10
0.0
 20
0.0
 30
0.0
  3
*D7
  1

  0
LINE
  5
40A
330
409
100
AcDbEntity
  8
2
 62
     0
370
    -2
100
AcDbLine
 10
59.3105
 20
0.7200000000000006
 30
0.0
 11
59.3105
 21
23.05499999999999
 31
0.0
  0
LINE
  5
40B
330
409
100
AcDbEntity
  8
2
 62
     0
370
    -2
100
AcDbLine
 10
59.3105
 20
-0.7199999999995441
 30
0.0
 11
59.3105
 21
0.7200000000000006
 31
0.0
  0
LINE
  5
40C
330
409
100
AcDbEntity
  8
2
 62
     0
370
    -2
100
AcDbLine
 10
59.3105
 20
-3.719999999999544
 30
0.0
 11
59.3105
 21
-6.719999999999544
 31
0.0
  0
LINE
  5
40D
330
409
100
AcDbEntity
  8
2
 62
     0
370
    -2
100
AcDbLine
 10
59.3105
 20
3.720000000000001
 30
0.0
 11
59.3105
 21
6.720000000000001
 31
0.0
  0
SOLID
  5
40E
330
409
100
AcDbEntity
  8
2
 62
     0
100
AcDbTrace
 10
59.8105
 20
-3.719999999999544
 30
0.0
 11
58.8105
 21
-3.719999999999544
 31
0.0
 12
59.3105
 22
-0.7199999999995441
 32
0.0
 13
59.3105
 23
-0.7199999999995441
 33
0.0
  0
SOLID
  5
40F
330
409
100
AcDbEntity
  8
2
 62
     0
100
AcDbTrace
 10
58.8105
 20
3.720000000000001
 30
0.0
 11
59.8105
 21
3.720000000000001
 31
0.0
 12
59.3105
 22
0.7200000000000006
 32
0.0
 13
59.3105
 23
0.7200000000000006
 33
0.0
  0
MTEXT
  5
410
330
409
100
AcDbEntity
  8
2
  6
ByBlock
 62
     0
100
AcDbMText
 10
56.6485
 20
14.8875
 30
0.0
 40
3.5
 41
0.0
 71
     5
 72
     1
  1
\A1;%%c1.44
 11
0.0
 21
1.0
 31
0.0
 73
     1
 44
1.0
  0
POINT
  5
411
330
409
100
AcDbEntity
  8
Defpoints
 62
     0
100
AcDbPoint
 10
56.22100000000042
 20
-0.7199999999995441
 30
0.0
  0
POINT
  5
412
330
409
100
AcDbEntity
  8
Defpoints
 62
     0
100
AcDbPoint
 10
56.221
 20
0.72
 30
0.0
  0
POINT
  5
106ABE8
330
409
100
AcDbEntity
  8
Defpoints
 62
     0
100
AcDbPoint
 10
59.3105
 20
0.7200000000000002
 30
0.0
  0
ENDBLK
  5
413
330
409
100
AcDbEntity
  8
2
100
AcDbBlockEnd
  0
BLOCK
  5
415
330
417
100
AcDbEntity
  8
2
100
AcDbBlockBegin
  2
*D8
 70
     1
 10
0.0
 20
0.0
 30
0.0
  3
*D8
  1

  0
LINE
  5
418
330
417
100
AcDbEntity
  8
2
 62
     0
370
    -2
100
AcDbLine
 10
63.5
 20
-0.5
 30
0.0
 11
63.5
 21
-24.0
 31
0.0
  0
LINE
  5
419
330
417
100
AcDbEntity
  8
2
 62
     0
370
    -2
100
AcDbLine
 10
55.599739788726
 20
-1.294
 30
0.0
 11
55.599739788726
 21
-24.0
 31
0.0
  0
LINE
  5
41A
330
417
100
AcDbEntity
  8
2
 62
     0
370
    -2
100
AcDbLine
 10
55.599739788726
 20
-23.0
 30
0.0
 11
42.543739788726
 21
-23.0
 31
0.0
  0
LINE
  5
41B
330
417
100
AcDbEntity
  8
2
 62
     0
370
    -2
100
AcDbLine
 10
63.5
 20
-23.0
 30
0.0
 11
55.599739788726
 21
-23.0
 31
0.0
  0
LINE
  5
41C
330
417
100
AcDbEntity
  8
2
 62
     0
370
    -2
100
AcDbLine
 10
66.5
 20
-23.0
 30
0.0
 11
69.5
 21
-23.0
 31
0.0
  0
LINE
  5
41D
330
417
100
AcDbEntity
  8
2
 62
     0
370
    -2
100
AcDbLine
 10
52.599739788726
 20
-23.0
 30
0.0
 11
49.599739788726
 21
-23.0
 31
0.0
  0
SOLID
  5
41E
330
417
100
AcDbEntity
  8
2
 62
     0
100
AcDbTrace
 10
66.5
 20
-22.5
 30
0.0
 11
66.5
 21
-23.5
 31
0.0
 12
63.5
 22
-23.0
 32
0.0
 13
63.5
 23
-23.0
 33
0.0
  0
SOLID
  5
41F
330
417
100
AcDbEntity
  8
2
 62
     0
100
AcDbTrace
 10
52.599739788726
 20
-23.5
 30
0.0
 11
52.599739788726
 21
-22.5
 31
0.0
 12
55.599739788726
 22
-23.0
 32
0.0
 13
55.599739788726
 23
-23.0
 33
0.0
  0
MTEXT
  5
420
330
417
100
AcDbEntity
  8
2
  6
ByBlock
 62
     0
100
AcDbMText
 10
47.571739788726
 20
-20.38875
 30
0.0
 40
3.5
 41
0.0
 71
     5
 72
     1
  1
\A1;7.9
 73
     1
 44
1.0
  0
POINT
  5
106ABF2
330
417
100
AcDbEntity
  8
Defpoints
 62
     0
100
AcDbPoint
 10
63.5
 20
0.0
 30
0.0
  0
POINT
  5
106ABF3
330
417
100
AcDbEntity
  8
Defpoints
 62
     0
100
AcDbPoint
 10
55.599739788726
 20
-0.794
 30
0.0
  0
POINT
  5
106ABF4
330
417
100
AcDbEntity
  8
Defpoints
 62
     0
100
AcDbPoint
 10
55.599739788726
 20
-23.0
 30
0.0
  0
ENDBLK
  5
421
330
417
100
AcDbEntity
  8
2
100
AcDbBlockEnd
  0
BLOCK
  5
106AC02
330
106AC01
100
AcDbEntity
  8
SK2
100
AcDbBlockBegin
  2
*D10
 70
     1
 10
0.0
 20
0.0
 30
0.0
  3
*D10
  1

  0
LINE
  5
106AC03
330
106AC01
100
AcDbEntity
  8
SK2
 62
     0
370
    -2
100
AcDbLine
 10
46.3
 20
1.2
 30
0.0
 11
46.3
 21
28.525
 31
0.0
  0
LINE
  5
106AC04
330
106AC01
100
AcDbEntity
  8
SK2
 62
     0
370
    -2
100
AcDbLine
 10
0.0000000000000036
 20
0.5
 30
0.0
 11
0.0000000000000036
 21
28.525
 31
0.0
  0
LINE
  5
106AC05
330
106AC01
100
AcDbEntity
  8
SK2
 62
     0
370
    -2
100
AcDbLine
 10
43.3
 20
27.525
 30
0.0
 11
3.000000000000004
 21
27.525
 31
0.0
  0
SOLID
  5
106AC06
330
106AC01
100
AcDbEntity
  8
SK2
 62
     0
100
AcDbTrace
 10
43.3
 20
27.025
 30
0.0
 11
43.3
 21
28.025
 31
0.0
 12
46.3
 22
27.525
 32
0.0
 13
46.3
 23
27.525
 33
0.0
  0
SOLID
  5
106AC07
330
106AC01
100
AcDbEntity
  8
SK2
 62
     0
100
AcDbTrace
 10
3.000000000000004
 20
28.025
 30
0.0
 11
3.000000000000004
 21
27.025
 31
0.0
 12
0.0000000000000036
 22
27.525
 32
0.0
 13
0.0000000000000036
 23
27.525
 33
0.0
  0
MTEXT
  5
106AC08
330
106AC01
100
AcDbEntity
  8
SK2
  6
ByBlock
 62
     0
100
AcDbMText
 10
23.15
 20
30.13625
 30
0.0
 40
3.5
 41
0.0
 71
     5
 72
     1
  1
\A1;46.3
 73
     1
 44
1.0
  0
POINT
  5
106AC09
330
106AC01
100
AcDbEntity
  8
Defpoints
 62
     0
100
AcDbPoint
 10
46.3
 20
0.6999999999999997
 30
0.0
  0
POINT
  5
106AC0A
330
106AC01
100
AcDbEntity
  8
Defpoints
 62
     0
100
AcDbPoint
 10
0.0000000000000036
 20
0.0
 30
0.0
  0
POINT
  5
106AC0B
330
106AC01
100
AcDbEntity
  8
Defpoints
 62
     0
100
AcDbPoint
 10
0.0000000000000036
 20
27.525
 30
0.0
  0
ENDBLK
  5
106AC0C
330
106AC01
100
AcDbEntity
  8
SK2
100
AcDbBlockEnd
  0
BLOCK
  5
106AC12
330
106AC11
100
AcDbEntity
  8
0
100
AcDbBlockBegin
  2
*D11
 70
     1
 10
0.0
 20
0.0
 30
0.0
  3
*D11
  1

  0
LINE
  5
106AC14
330
106AC11
100
AcDbEntity
  8
2
 62
     0
370
    -2
100
AcDbLine
 10
63.5
 20
0.5
 30
0.0
 11
63.5
 21
31.0
 31
0.0
  0
LINE
  5
106AC15
330
106AC11
100
AcDbEntity
  8
2
 62
     0
370
    -2
100
AcDbLine
 10
46.3
 20
3.675
 30
0.0
 11
46.3
 21
31.0
 31
0.0
  0
LINE
  5
106AC16
330
106AC11
100
AcDbEntity
  8
2
 62
     0
370
    -2
100
AcDbLine
 10
60.5
 20
30.0
 30
0.0
 11
49.3
 21
30.0
 31
0.0
  0
SOLID
  5
106AC17
330
106AC11
100
AcDbEntity
  8
2
 62
     0
100
AcDbTrace
 10
60.5
 20
29.5
 30
0.0
 11
60.5
 21
30.5
 31
0.0
 12
63.5
 22
30.0
 32
0.0
 13
63.5
 23
30.0
 33
0.0
  0
SOLID
  5
106AC18
330
106AC11
100
AcDbEntity
  8
2
 62
     0
100
AcDbTrace
 10
49.3
 20
30.5
 30
0.0
 11
49.3
 21
29.5
 31
0.0
 12
46.3
 22
30.0
 32
0.0
 13
46.3
 23
30.0
 33
0.0
  0
MTEXT
  5
106AC19
330
106AC11
100
AcDbEntity
  8
2
  6
ByBlock
 62
     0
100
AcDbMText
 10
54.9
 20
32.5605
 30
0.0
 40
3.5
 41
0.0
 71
     5
 72
     1
  1
\A1;17.2
 73
     1
 44
1.0
  0
POINT
  5
106AC1A
330
106AC11
100
AcDbEntity
  8
Defpoints
 62
     0
100
AcDbPoint
 10
63.5
 20
0.0
 30
0.0
  0
POINT
  5
106AC1B
330
106AC11
100
AcDbEntity
  8
Defpoints
 62
     0
100
AcDbPoint
 10
46.3
 20
3.175
 30
0.0
  0
POINT
  5
106AC1C
330
106AC11
100
AcDbEntity
  8
Defpoints
 62
     0
100
AcDbPoint
 10
46.3
 20
30.0
 30
0.0
  0
ENDBLK
  5
106AC13
330
106AC11
100
AcDbEntity
  8
0
100
AcDbBlockEnd
  0
ENDSEC
  0
SECTION
  2
ENTITIES
  0
DIMENSION
  5
3B4
330
30
100
AcDbEntity
  8
SK2
100
AcDbDimension
  2
*D0
 10
63.5
 20
38.0
 30
0.0
 11
31.75
 21
38.0
 31
0.0
 70
   160
  1
<>
 71
     5
 42
63.5
  3
STANDARD
100
AcDbAlignedDimension
 13
0.0
 23
2.475
 33
0.0
 14
63.5
 24
0.0
 34
0.0
100
AcDbRotatedDimension
1001
ACAD
1000
DSTYLE
1002
{
1070
   271
1070
     1
1070
   279
1070
     0
1070
    74
1070
     0
1002
}
  0
DIMENSION
  5
3C2
330
30
100
AcDbEntity
  8
2
100
AcDbDimension
  2
*D1
 10
102.0
 20
-0.794000000000004
 30
0.0
 11
102.0
 21
16.46475
 31
0.0
 70
   160
  1
%%c<>
 71
     5
 42
1.588
  3
STANDARD
100
AcDbAlignedDimension
 13
62.706
 23
0.794
 33
0.0
 14
62.706
 24
-0.794
 34
0.0
 50
90.0
100
AcDbRotatedDimension
1001
ACAD
1000
DSTYLE
1002
{
1070
   271
1070
     3
1070
   279
1070
     0
1070
    74
1070
     0
1002
}
  0
DIMENSION
  5
3E0
330
30
100
AcDbEntity
  8
SK2
100
AcDbDimension
  2
*D3
 10
-8.0
 20
3.174999999999998
 30
0.0
 11
-8.0
 21
17.32325
 31
0.0
 70
   160
  1
%%c<>
 71
     5
 42
6.35
  3
STANDARD
100
AcDbAlignedDimension
 13
0.7
 23
-3.175
 33
0.0
 14
0.7
 24
3.175
 34
0.0
 50
-90.0
100
AcDbRotatedDimension
1001
ACAD
1000
DSTYLE
1002
{
1070
   279
1070
     0
1070
    74
1070
     0
1002
}
  0
DIMENSION
  5
3EE
330
30
100
AcDbEntity
  8
SK2
100
AcDbDimension
  2
*D4
 10
0.0
 20
30.0
 30
0.0
 11
23.15
 21
30.0
 31
0.0
 70
   160
  1
<>
 71
     5
 42
46.3
  3
STANDARD
100
AcDbAlignedDimension
 13
46.3
 23
3.175
 33
0.0
 14
0.0
 24
2.475
 34
0.0
100
AcDbRotatedDimension
1001
ACAD
1000
DSTYLE
1002
{
1070
   271
1070
     1
1070
   279
1070
     0
1070
    74
1070
     0
1002
}
  0
DIMENSION
  5
3F8
330
30
100
AcDbEntity
  8
2
100
AcDbDimension
  2
*D5
 10
62.706
 20
0.0
 30
0.0
 11
80.27174043285204
 21
8.0
 31
0.0
 70
   164
 71
     5
 42
0.7939999999998296
  3
STANDARD
100
AcDbRadialDimension
 15
63.26787181066738
 25
0.5610134297653604
 35
0.0
 40
0.0
1001
ACAD
1000
DSTYLE
1002
{
1070
   279
1070
     0
1070
   271
1070
     3
1002
}
  0
DIMENSION
  5
406
330
30
100
AcDbEntity
  8
2
100
AcDbDimension
  2
*D6
 10
62.4
 20
-15.0
 30
0.0
 11
73.968
 21
-15.0
 31
0.0
 70
   160
  1
<>
 71
     5
 42
1.100000000000001
  3
STANDARD
100
AcDbAlignedDimension
 13
63.5
 23
0.0
 33
0.0
 14
62.4
 24
-0.794
 34
0.0
100
AcDbRotatedDimension
1001
ACAD
1000
DSTYLE
1002
{
1070
   271
1070
     1
1070
   279
1070
     0
1070
    74
1070
     0
1002
}
  0
DIMENSION
  5
414
330
30
100
AcDbEntity
  8
2
100
AcDbDimension
  2
*D7
 10
59.3105
 20
0.7200000000000006
 30
0.0
 11
59.3105
 21
14.8875
 31
0.0
 70
   160
  1
%%c<>
 71
     5
 42
1.439999999999544
  3
STANDARD
100
AcDbAlignedDimension
 13
56.22100000000042
 23
-0.7199999999995441
 33
0.0
 14
56.221
 24
0.72
 34
0.0
 50
-90.0
100
AcDbRotatedDimension
1001
ACAD
1000
DSTYLE
1002
{
1070
    76
1070
     1
1070
    75
1070
     1
1070
   279
1070
     0
1070
    74
1070
     0
1002
}
  0
DIMENSION
  5
422
330
30
100
AcDbEntity
  8
2
100
AcDbDimension
  2
*D8
 10
55.599739788726
 20
-23.0
 30
0.0
 11
47.571739788726
 21
-23.0
 31
0.0
 70
   160
  1
<>
 71
     5
 42
7.900260211274002
  3
STANDARD
100
AcDbAlignedDimension
 13
63.5
 23
0.0
 33
0.0
 14
55.599739788726
 24
-0.794
 34
0.0
100
AcDbRotatedDimension
1001
ACAD
1000
DSTYLE
1002
{
1070
   271
1070
     1
1070
   279
1070
     0
1070
    74
1070
     0
1002
}
1001
ACAD_DSTYLE_DIMFLIPARROW_SYMBOL
1070
   385
1070
     0
1001
ACAD_DSTYLE_DIMFLIPARROW_WHICH_SYMBOL
1070
   386
1070
     3
  0
ARC
  5
36
330
30
100
AcDbEntity
  8
1
100
AcDbCircle
 10
62.706
 20
0.0
 30
0.0
 40
0.794
100
AcDbArc
 50
0.0
 51
90.0
  0
LINE
  5
37
330
30
100
AcDbEntity
  8
1
100
AcDbLine
 10
62.706
 20
0.794
 30
0.0
 11
62.4
 21
0.794
 31
0.0
  0
LINE
  5
38
330
30
100
AcDbEntity
  8
1
100
AcDbLine
 10
62.4
 20
0.794
 30
0.0
 11
62.4
 21
0.72
 31
0.0
  0
LINE
  5
39
330
30
100
AcDbEntity
  8
1
100
AcDbLine
 10
62.4
 20
0.72
 30
0.0
 11
56.221
 21
0.72
 31
0.0
  0
ARC
  5
3A
330
30
100
AcDbEntity
  8
1
100
AcDbCircle
 10
57.092557427477
 20
10.681946980917
 30
0.0
 40
10.0
100
AcDbArc
 50
255.0
 51
265.0
  0
LINE
  5
3B
330
30
100
AcDbEntity
  8
1
100
AcDbLine
 10
54.504366976451
 20
1.022688718027
 30
0.0
 11
46.471831918424
 21
3.175
 31
0.0
  0
LINE
  5
3C
330
30
100
AcDbEntity
  8
1
100
AcDbLine
 10
46.471831918424
 20
3.175
 30
0.0
 11
46.3
 21
3.175
 31
0.0
  0
LINE
  5
3D
330
30
100
AcDbEntity
  8
1
100
AcDbLine
 10
46.3
 20
3.175
 30
0.0
 11
46.3
 21
-3.175
 31
0.0
  0
LINE
  5
3E
330
30
100
AcDbEntity
  8
1
100
AcDbLine
 10
46.3
 20
-3.175
 30
0.0
 11
46.471831918424
 21
-3.175
 31
0.0
  0
LINE
  5
3F
330
30
100
AcDbEntity
  8
1
100
AcDbLine
 10
46.471831918424
 20
-3.175
 30
0.0
 11
54.504366976451
 21
-1.022688718027
 31
0.0
  0
ARC
  5
40
330
30
100
AcDbEntity
  8
1
100
AcDbCircle
 10
57.092557427477
 20
-10.681946980917
 30
0.0
 40
10.0
100
AcDbArc
 50
95.0
 51
105.0
  0
LINE
  5
41
330
30
100
AcDbEntity
  8
1
100
AcDbLine
 10
56.221
 20
-0.72
 30
0.0
 11
62.4
 21
-0.72
 31
0.0
  0
LINE
  5
42
330
30
100
AcDbEntity
  8
1
100
AcDbLine
 10
62.4
 20
-0.72
 30
0.0
 11
62.4
 21
-0.794
 31
0.0
  0
LINE
  5
43
330
30
100
AcDbEntity
  8
1
100
AcDbLine
 10
62.4
 20
-0.794
 30
0.0
 11
62.706
 21
-0.794
 31
0.0
  0
ARC
  5
44
330
30
100
AcDbEntity
  8
1
100
AcDbCircle
 10
62.706
 20
0.0
 30
0.0
 40
0.794
100
AcDbArc
 50
270.0
 51
0.0
  0
LINE
  5
45
330
30
100
AcDbEntity
  8
1
100
AcDbLine
 10
63.48208
 20
-0.029064594938
 30
0.0
 11
63.48208
 21
0.167453173547
 31
0.0
  0
LINE
  5
46
330
30
100
AcDbEntity
  8
1
100
AcDbLine
 10
60.835126395111
 20
0.72
 30
0.0
 11
60.82992
 21
0.71956158512
 31
0.0
  0
LINE
  5
47
330
30
100
AcDbEntity
  8
1
100
AcDbLine
 10
60.82992
 20
0.71956158512
 30
0.0
 11
60.82096
 21
0.716471451915
 31
0.0
  0
LINE
  5
48
330
30
100
AcDbEntity
  8
1
100
AcDbLine
 10
60.82096
 20
0.716471451915
 30
0.0
 11
60.812
 21
0.709921763812
 31
0.0
  0
LINE
  5
49
330
30
100
AcDbEntity
  8
1
100
AcDbLine
 10
60.812
 20
0.709921763812
 30
0.0
 11
60.812
 21
0.703145790044
 31
0.0
  0
LINE
  5
4A
330
30
100
AcDbEntity
  8
1
100
AcDbLine
 10
60.812
 20
0.703145790044
 30
0.0
 11
60.82096
 21
0.692981819169
 31
0.0
  0
LINE
  5
4B
330
30
100
AcDbEntity
  8
1
100
AcDbLine
 10
60.82096
 20
0.692981819169
 30
0.0
 11
60.82992
 21
0.680846780747
 31
0.0
  0
LINE
  5
4C
330
30
100
AcDbEntity
  8
1
100
AcDbLine
 10
60.82992
 20
0.680846780747
 30
0.0
 11
60.83888
 21
0.666948948669
 31
0.0
  0
LINE
  5
4D
330
30
100
AcDbEntity
  8
1
100
AcDbLine
 10
60.83888
 20
0.666948948669
 30
0.0
 11
60.84784
 21
0.65148695177
 31
0.0
  0
LINE
  5
4E
330
30
100
AcDbEntity
  8
1
100
AcDbLine
 10
60.84784
 20
0.65148695177
 30
0.0
 11
60.8568
 21
0.634649143522
 31
0.0
  0
LINE
  5
4F
330
30
100
AcDbEntity
  8
1
100
AcDbLine
 10
60.8568
 20
0.634649143522
 30
0.0
 11
60.86576
 21
0.616613188407
 31
0.0
  0
LINE
  5
50
330
30
100
AcDbEntity
  8
1
100
AcDbLine
 10
60.86576
 20
0.616613188407
 30
0.0
 11
60.87472
 21
0.597545834365
 31
0.0
  0
LINE
  5
51
330
30
100
AcDbEntity
  8
1
100
AcDbLine
 10
60.87472
 20
0.597545834365
 30
0.0
 11
60.88368
 21
0.577602843248
 31
0.0
  0
LINE
  5
52
330
30
100
AcDbEntity
  8
1
100
AcDbLine
 10
60.88368
 20
0.577602843248
 30
0.0
 11
60.89264
 21
0.556929053812
 31
0.0
  0
LINE
  5
53
330
30
100
AcDbEntity
  8
1
100
AcDbLine
 10
60.89264
 20
0.556929053812
 30
0.0
 11
60.9016
 21
0.535658554339
 31
0.0
  0
LINE
  5
54
330
30
100
AcDbEntity
  8
1
100
AcDbLine
 10
60.9016
 20
0.535658554339
 30
0.0
 11
60.91056
 21
0.513914944439
 31
0.0
  0
LINE
  5
55
330
30
100
AcDbEntity
  8
1
100
AcDbLine
 10
60.91056
 20
0.513914944439
 30
0.0
 11
60.91952
 21
0.491811667913
 31
0.0
  0
LINE
  5
56
330
30
100
AcDbEntity
  8
1
100
AcDbLine
 10
60.91952
 20
0.491811667913
 30
0.0
 11
60.92848
 21
0.469452400791
 31
0.0
  0
LINE
  5
57
330
30
100
AcDbEntity
  8
1
100
AcDbLine
 10
60.92848
 20
0.469452400791
 30
0.0
 11
60.93744
 21
0.446931480684
 31
0.0
  0
LINE
  5
58
330
30
100
AcDbEntity
  8
1
100
AcDbLine
 10
60.93744
 20
0.446931480684
 30
0.0
 11
60.9464
 21
0.424334365494
 31
0.0
  0
LINE
  5
59
330
30
100
AcDbEntity
  8
1
100
AcDbLine
 10
60.9464
 20
0.424334365494
 30
0.0
 11
60.95536
 21
0.401738111218
 31
0.0
  0
LINE
  5
5A
330
30
100
AcDbEntity
  8
1
100
AcDbLine
 10
60.95536
 20
0.401738111218
 30
0.0
 11
60.96432
 21
0.379211860184
 31
0.0
  0
LINE
  5
5B
330
30
100
AcDbEntity
  8
1
100
AcDbLine
 10
60.96432
 20
0.379211860184
 30
0.0
 11
60.97328
 21
0.356817332399
 31
0.0
  0
LINE
  5
5C
330
30
100
AcDbEntity
  8
1
100
AcDbLine
 10
60.97328
 20
0.356817332399
 30
0.0
 11
60.98224
 21
0.334609313984
 31
0.0
  0
LINE
  5
5D
330
30
100
AcDbEntity
  8
1
100
AcDbLine
 10
60.98224
 20
0.334609313984
 30
0.0
 11
60.9912
 21
0.312636137741
 31
0.0
  0
LINE
  5
5E
330
30
100
AcDbEntity
  8
1
100
AcDbLine
 10
60.9912
 20
0.312636137741
 30
0.0
 11
61.00016
 21
0.290940151874
 31
0.0
  0
LINE
  5
5F
330
30
100
AcDbEntity
  8
1
100
AcDbLine
 10
61.00016
 20
0.290940151874
 30
0.0
 11
61.00912
 21
0.269558173746
 31
0.0
  0
LINE
  5
60
330
30
100
AcDbEntity
  8
1
100
AcDbLine
 10
61.00912
 20
0.269558173746
 30
0.0
 11
61.01808
 21
0.248521926264
 31
0.0
  0
LINE
  5
61
330
30
100
AcDbEntity
  8
1
100
AcDbLine
 10
61.01808
 20
0.248521926264
 30
0.0
 11
61.02704
 21
0.227858455122
 31
0.0
  0
LINE
  5
62
330
30
100
AcDbEntity
  8
1
100
AcDbLine
 10
61.02704
 20
0.227858455122
 30
0.0
 11
61.036
 21
0.207590525688
 31
0.0
  0
LINE
  5
63
330
30
100
AcDbEntity
  8
1
100
AcDbLine
 10
61.036
 20
0.207590525688
 30
0.0
 11
61.04496
 21
0.187736998742
 31
0.0
  0
LINE
  5
64
330
30
100
AcDbEntity
  8
1
100
AcDbLine
 10
61.04496
 20
0.187736998742
 30
0.0
 11
61.05392
 21
0.168313184686
 31
0.0
  0
LINE
  5
65
330
30
100
AcDbEntity
  8
1
100
AcDbLine
 10
61.05392
 20
0.168313184686
 30
0.0
 11
61.06288
 21
0.149331176143
 31
0.0
  0
LINE
  5
66
330
30
100
AcDbEntity
  8
1
100
AcDbLine
 10
61.06288
 20
0.149331176143
 30
0.0
 11
61.07184
 21
0.130800159133
 31
0.0
  0
LINE
  5
67
330
30
100
AcDbEntity
  8
1
100
AcDbLine
 10
61.07184
 20
0.130800159133
 30
0.0
 11
61.0808
 21
0.112726703217
 31
0.0
  0
LINE
  5
68
330
30
100
AcDbEntity
  8
1
100
AcDbLine
 10
61.0808
 20
0.112726703217
 30
0.0
 11
61.08976
 21
0.095115031167
 31
0.0
  0
LINE
  5
69
330
30
100
AcDbEntity
  8
1
100
AcDbLine
 10
61.08976
 20
0.095115031167
 30
0.0
 11
61.09872
 21
0.077967268857
 31
0.0
  0
LINE
  5
6A
330
30
100
AcDbEntity
  8
1
100
AcDbLine
 10
61.09872
 20
0.077967268857
 30
0.0
 11
61.10768
 21
0.061283676158
 31
0.0
  0
LINE
  5
6B
330
30
100
AcDbEntity
  8
1
100
AcDbLine
 10
61.10768
 20
0.061283676158
 30
0.0
 11
61.11664
 21
0.045062859691
 31
0.0
  0
LINE
  5
6C
330
30
100
AcDbEntity
  8
1
100
AcDbLine
 10
61.11664
 20
0.045062859691
 30
0.0
 11
61.1256
 21
0.029301968343
 31
0.0
  0
LINE
  5
6D
330
30
100
AcDbEntity
  8
1
100
AcDbLine
 10
61.1256
 20
0.029301968343
 30
0.0
 11
61.13456
 21
0.013996872481
 31
0.0
  0
LINE
  5
6E
330
30
100
AcDbEntity
  8
1
100
AcDbLine
 10
61.13456
 20
0.013996872481
 30
0.0
 11
61.14352
 21
-0.0008576722
 31
0.0
  0
LINE
  5
6F
330
30
100
AcDbEntity
  8
1
100
AcDbLine
 10
61.14352
 20
-0.0008576722
 30
0.0
 11
61.15248
 21
-0.01526787525
 31
0.0
  0
LINE
  5
70
330
30
100
AcDbEntity
  8
1
100
AcDbLine
 10
61.15248
 20
-0.01526787525
 30
0.0
 11
61.16144
 21
-0.029240775528
 31
0.0
  0
LINE
  5
71
330
30
100
AcDbEntity
  8
1
100
AcDbLine
 10
61.16144
 20
-0.029240775528
 30
0.0
 11
61.1704
 21
-0.042784117849
 31
0.0
  0
LINE
  5
72
330
30
100
AcDbEntity
  8
1
100
AcDbLine
 10
61.1704
 20
-0.042784117849
 30
0.0
 11
61.17936
 21
-0.055906241332
 31
0.0
  0
LINE
  5
73
330
30
100
AcDbEntity
  8
1
100
AcDbLine
 10
61.17936
 20
-0.055906241332
 30
0.0
 11
61.18832
 21
-0.068615978597
 31
0.0
  0
LINE
  5
74
330
30
100
AcDbEntity
  8
1
100
AcDbLine
 10
61.18832
 20
-0.068615978597
 30
0.0
 11
61.19728
 21
-0.080922564997
 31
0.0
  0
LINE
  5
75
330
30
100
AcDbEntity
  8
1
100
AcDbLine
 10
61.19728
 20
-0.080922564997
 30
0.0
 11
61.20624
 21
-0.092835557116
 31
0.0
  0
LINE
  5
76
330
30
100
AcDbEntity
  8
1
100
AcDbLine
 10
61.20624
 20
-0.092835557116
 30
0.0
 11
61.2152
 21
-0.104364759779
 31
0.0
  0
LINE
  5
77
330
30
100
AcDbEntity
  8
1
100
AcDbLine
 10
61.2152
 20
-0.104364759779
 30
0.0
 11
61.22416
 21
-0.115520160901
 31
0.0
  0
LINE
  5
78
330
30
100
AcDbEntity
  8
1
100
AcDbLine
 10
61.22416
 20
-0.115520160901
 30
0.0
 11
61.23312
 21
-0.126311873499
 31
0.0
  0
LINE
  5
79
330
30
100
AcDbEntity
  8
1
100
AcDbLine
 10
61.23312
 20
-0.126311873499
 30
0.0
 11
61.24208
 21
-0.136750084272
 31
0.0
  0
LINE
  5
7A
330
30
100
AcDbEntity
  8
1
100
AcDbLine
 10
61.24208
 20
-0.136750084272
 30
0.0
 11
61.25104
 21
-0.146845008164
 31
0.0
  0
LINE
  5
7B
330
30
100
AcDbEntity
  8
1
100
AcDbLine
 10
61.25104
 20
-0.146845008164
 30
0.0
 11
61.26
 21
-0.156606848371
 31
0.0
  0
LINE
  5
7C
330
30
100
AcDbEntity
  8
1
100
AcDbLine
 10
61.26
 20
-0.156606848371
 30
0.0
 11
61.26896
 21
-0.166045761313
 31
0.0
  0
LINE
  5
7D
330
30
100
AcDbEntity
  8
1
100
AcDbLine
 10
61.26896
 20
-0.166045761313
 30
0.0
 11
61.27792
 21
-0.175171826089
 31
0.0
  0
LINE
  5
7E
330
30
100
AcDbEntity
  8
1
100
AcDbLine
 10
61.27792
 20
-0.175171826089
 30
0.0
 11
61.28688
 21
-0.183995018
 31
0.0
  0
LINE
  5
7F
330
30
100
AcDbEntity
  8
1
100
AcDbLine
 10
61.28688
 20
-0.183995018
 30
0.0
 11
61.29584
 21
-0.192525185747
 31
0.0
  0
LINE
  5
80
330
30
100
AcDbEntity
  8
1
100
AcDbLine
 10
61.29584
 20
-0.192525185747
 30
0.0
 11
61.3048
 21
-0.200772031935
 31
0.0
  0
LINE
  5
81
330
30
100
AcDbEntity
  8
1
100
AcDbLine
 10
61.3048
 20
-0.200772031935
 30
0.0
 11
61.31376
 21
-0.208745096558
 31
0.0
  0
LINE
  5
82
330
30
100
AcDbEntity
  8
1
100
AcDbLine
 10
61.31376
 20
-0.208745096558
 30
0.0
 11
61.32272
 21
-0.216453743143
 31
0.0
  0
LINE
  5
83
330
30
100
AcDbEntity
  8
1
100
AcDbLine
 10
61.32272
 20
-0.216453743143
 30
0.0
 11
61.33168
 21
-0.2239071473
 31
0.0
  0
LINE
  5
84
330
30
100
AcDbEntity
  8
1
100
AcDbLine
 10
61.33168
 20
-0.2239071473
 30
0.0
 11
61.34064
 21
-0.231114287397
 31
0.0
  0
LINE
  5
85
330
30
100
AcDbEntity
  8
1
100
AcDbLine
 10
61.34064
 20
-0.231114287397
 30
0.0
 11
61.3496
 21
-0.238083937137
 31
0.0
  0
LINE
  5
86
330
30
100
AcDbEntity
  8
1
100
AcDbLine
 10
61.3496
 20
-0.238083937137
 30
0.0
 11
61.35856
 21
-0.244824659828
 31
0.0
  0
LINE
  5
87
330
30
100
AcDbEntity
  8
1
100
AcDbLine
 10
61.35856
 20
-0.244824659828
 30
0.0
 11
61.36752
 21
-0.251344804142
 31
0.0
  0
LINE
  5
88
330
30
100
AcDbEntity
  8
1
100
AcDbLine
 10
61.36752
 20
-0.251344804142
 30
0.0
 11
61.37648
 21
-0.257652501207
 31
0.0
  0
LINE
  5
89
330
30
100
AcDbEntity
  8
1
100
AcDbLine
 10
61.37648
 20
-0.257652501207
 30
0.0
 11
61.38544
 21
-0.263755662845
 31
0.0
  0
LINE
  5
8A
330
30
100
AcDbEntity
  8
1
100
AcDbLine
 10
61.38544
 20
-0.263755662845
 30
0.0
 11
61.3944
 21
-0.26966198084
 31
0.0
  0
LINE
  5
8B
330
30
100
AcDbEntity
  8
1
100
AcDbLine
 10
61.3944
 20
-0.26966198084
 30
0.0
 11
61.40336
 21
-0.275378927093
 31
0.0
  0
LINE
  5
8C
330
30
100
AcDbEntity
  8
1
100
AcDbLine
 10
61.40336
 20
-0.275378927093
 30
0.0
 11
61.41232
 21
-0.280913754547
 31
0.0
  0
LINE
  5
8D
330
30
100
AcDbEntity
  8
1
100
AcDbLine
 10
61.41232
 20
-0.280913754547
 30
0.0
 11
61.42128
 21
-0.286273498777
 31
0.0
  0
LINE
  5
8E
330
30
100
AcDbEntity
  8
1
100
AcDbLine
 10
61.42128
 20
-0.286273498777
 30
0.0
 11
61.43024
 21
-0.291464980161
 31
0.0
  0
LINE
  5
8F
330
30
100
AcDbEntity
  8
1
100
AcDbLine
 10
61.43024
 20
-0.291464980161
 30
0.0
 11
61.4392
 21
-0.296494806537
 31
0.0
  0
LINE
  5
90
330
30
100
AcDbEntity
  8
1
100
AcDbLine
 10
61.4392
 20
-0.296494806537
 30
0.0
 11
61.44816
 21
-0.301369376268
 31
0.0
  0
LINE
  5
91
330
30
100
AcDbEntity
  8
1
100
AcDbLine
 10
61.44816
 20
-0.301369376268
 30
0.0
 11
61.45712
 21
-0.306094881662
 31
0.0
  0
LINE
  5
92
330
30
100
AcDbEntity
  8
1
100
AcDbLine
 10
61.45712
 20
-0.306094881662
 30
0.0
 11
61.46608
 21
-0.310677312676
 31
0.0
  0
LINE
  5
93
330
30
100
AcDbEntity
  8
1
100
AcDbLine
 10
61.46608
 20
-0.310677312676
 30
0.0
 11
61.47504
 21
-0.315122460851
 31
0.0
  0
LINE
  5
94
330
30
100
AcDbEntity
  8
1
100
AcDbLine
 10
61.47504
 20
-0.315122460851
 30
0.0
 11
61.484
 21
-0.319435923439
 31
0.0
  0
LINE
  5
95
330
30
100
AcDbEntity
  8
1
100
AcDbLine
 10
61.484
 20
-0.319435923439
 30
0.0
 11
61.49296
 21
-0.323623107676
 31
0.0
  0
LINE
  5
96
330
30
100
AcDbEntity
  8
1
100
AcDbLine
 10
61.49296
 20
-0.323623107676
 30
0.0
 11
61.50192
 21
-0.327689235157
 31
0.0
  0
LINE
  5
97
330
30
100
AcDbEntity
  8
1
100
AcDbLine
 10
61.50192
 20
-0.327689235157
 30
0.0
 11
61.51088
 21
-0.331639346297
 31
0.0
  0
LINE
  5
98
330
30
100
AcDbEntity
  8
1
100
AcDbLine
 10
61.51088
 20
-0.331639346297
 30
0.0
 11
61.51984
 21
-0.335478304839
 31
0.0
  0
LINE
  5
99
330
30
100
AcDbEntity
  8
1
100
AcDbLine
 10
61.51984
 20
-0.335478304839
 30
0.0
 11
61.5288
 21
-0.339210802387
 31
0.0
  0
LINE
  5
9A
330
30
100
AcDbEntity
  8
1
100
AcDbLine
 10
61.5288
 20
-0.339210802387
 30
0.0
 11
61.53776
 21
-0.342841362941
 31
0.0
  0
LINE
  5
9B
330
30
100
AcDbEntity
  8
1
100
AcDbLine
 10
61.53776
 20
-0.342841362941
 30
0.0
 11
61.54672
 21
-0.346374347426
 31
0.0
  0
LINE
  5
9C
330
30
100
AcDbEntity
  8
1
100
AcDbLine
 10
61.54672
 20
-0.346374347426
 30
0.0
 11
61.55568
 21
-0.349813958184
 31
0.0
  0
LINE
  5
9D
330
30
100
AcDbEntity
  8
1
100
AcDbLine
 10
61.55568
 20
-0.349813958184
 30
0.0
 11
61.56464
 21
-0.353164243429
 31
0.0
  0
LINE
  5
9E
330
30
100
AcDbEntity
  8
1
100
AcDbLine
 10
61.56464
 20
-0.353164243429
 30
0.0
 11
61.5736
 21
-0.356429101649
 31
0.0
  0
LINE
  5
9F
330
30
100
AcDbEntity
  8
1
100
AcDbLine
 10
61.5736
 20
-0.356429101649
 30
0.0
 11
61.58256
 21
-0.359612285944
 31
0.0
  0
LINE
  5
A0
330
30
100
AcDbEntity
  8
1
100
AcDbLine
 10
61.58256
 20
-0.359612285944
 30
0.0
 11
61.59152
 21
-0.362717408293
 31
0.0
  0
LINE
  5
A1
330
30
100
AcDbEntity
  8
1
100
AcDbLine
 10
61.59152
 20
-0.362717408293
 30
0.0
 11
61.60048
 21
-0.365747943752
 31
0.0
  0
LINE
  5
A2
330
30
100
AcDbEntity
  8
1
100
AcDbLine
 10
61.60048
 20
-0.365747943752
 30
0.0
 11
61.60944
 21
-0.368707234561
 31
0.0
  0
LINE
  5
A3
330
30
100
AcDbEntity
  8
1
100
AcDbLine
 10
61.60944
 20
-0.368707234561
 30
0.0
 11
61.6184
 21
-0.371598494178
 31
0.0
  0
LINE
  5
A4
330
30
100
AcDbEntity
  8
1
100
AcDbLine
 10
61.6184
 20
-0.371598494178
 30
0.0
 11
61.62736
 21
-0.374424811216
 31
0.0
  0
LINE
  5
A5
330
30
100
AcDbEntity
  8
1
100
AcDbLine
 10
61.62736
 20
-0.374424811216
 30
0.0
 11
61.63632
 21
-0.377189153295
 31
0.0
  0
LINE
  5
A6
330
30
100
AcDbEntity
  8
1
100
AcDbLine
 10
61.63632
 20
-0.377189153295
 30
0.0
 11
61.64528
 21
-0.379894370805
 31
0.0
  0
LINE
  5
A7
330
30
100
AcDbEntity
  8
1
100
AcDbLine
 10
61.64528
 20
-0.379894370805
 30
0.0
 11
61.65424
 21
-0.382543200577
 31
0.0
  0
LINE
  5
A8
330
30
100
AcDbEntity
  8
1
100
AcDbLine
 10
61.65424
 20
-0.382543200577
 30
0.0
 11
61.6632
 21
-0.385138269459
 31
0.0
  0
LINE
  5
A9
330
30
100
AcDbEntity
  8
1
100
AcDbLine
 10
61.6632
 20
-0.385138269459
 30
0.0
 11
61.67216
 21
-0.387682097804
 31
0.0
  0
LINE
  5
AA
330
30
100
AcDbEntity
  8
1
100
AcDbLine
 10
61.67216
 20
-0.387682097804
 30
0.0
 11
61.68112
 21
-0.390177102875
 31
0.0
  0
LINE
  5
AB
330
30
100
AcDbEntity
  8
1
100
AcDbLine
 10
61.68112
 20
-0.390177102875
 30
0.0
 11
61.69008
 21
-0.392625602145
 31
0.0
  0
LINE
  5
AC
330
30
100
AcDbEntity
  8
1
100
AcDbLine
 10
61.69008
 20
-0.392625602145
 30
0.0
 11
61.69904
 21
-0.395029816525
 31
0.0
  0
LINE
  5
AD
330
30
100
AcDbEntity
  8
1
100
AcDbLine
 10
61.69904
 20
-0.395029816525
 30
0.0
 11
61.708
 21
-0.397391873498
 31
0.0
  0
LINE
  5
AE
330
30
100
AcDbEntity
  8
1
100
AcDbLine
 10
61.708
 20
-0.397391873498
 30
0.0
 11
61.71696
 21
-0.399713810168
 31
0.0
  0
LINE
  5
AF
330
30
100
AcDbEntity
  8
1
100
AcDbLine
 10
61.71696
 20
-0.399713810168
 30
0.0
 11
61.72592
 21
-0.401997576233
 31
0.0
  0
LINE
  5
B0
330
30
100
AcDbEntity
  8
1
100
AcDbLine
 10
61.72592
 20
-0.401997576233
 30
0.0
 11
61.73488
 21
-0.404245036869
 31
0.0
  0
LINE
  5
B1
330
30
100
AcDbEntity
  8
1
100
AcDbLine
 10
61.73488
 20
-0.404245036869
 30
0.0
 11
61.74384
 21
-0.406457975544
 31
0.0
  0
LINE
  5
B2
330
30
100
AcDbEntity
  8
1
100
AcDbLine
 10
61.74384
 20
-0.406457975544
 30
0.0
 11
61.7528
 21
-0.408638096747
 31
0.0
  0
LINE
  5
B3
330
30
100
AcDbEntity
  8
1
100
AcDbLine
 10
61.7528
 20
-0.408638096747
 30
0.0
 11
61.76176
 21
-0.41078702865
 31
0.0
  0
LINE
  5
B4
330
30
100
AcDbEntity
  8
1
100
AcDbLine
 10
61.76176
 20
-0.41078702865
 30
0.0
 11
61.77072
 21
-0.412906325692
 31
0.0
  0
LINE
  5
B5
330
30
100
AcDbEntity
  8
1
100
AcDbLine
 10
61.77072
 20
-0.412906325692
 30
0.0
 11
61.77968
 21
-0.4149974711
 31
0.0
  0
LINE
  5
B6
330
30
100
AcDbEntity
  8
1
100
AcDbLine
 10
61.77968
 20
-0.4149974711
 30
0.0
 11
61.78864
 21
-0.417061879333
 31
0.0
  0
LINE
  5
B7
330
30
100
AcDbEntity
  8
1
100
AcDbLine
 10
61.78864
 20
-0.417061879333
 30
0.0
 11
61.7976
 21
-0.419100898466
 31
0.0
  0
LINE
  5
B8
330
30
100
AcDbEntity
  8
1
100
AcDbLine
 10
61.7976
 20
-0.419100898466
 30
0.0
 11
61.80656
 21
-0.421115812508
 31
0.0
  0
LINE
  5
B9
330
30
100
AcDbEntity
  8
1
100
AcDbLine
 10
61.80656
 20
-0.421115812508
 30
0.0
 11
61.81552
 21
-0.423107843658
 31
0.0
  0
LINE
  5
BA
330
30
100
AcDbEntity
  8
1
100
AcDbLine
 10
61.81552
 20
-0.423107843658
 30
0.0
 11
61.82448
 21
-0.425078154501
 31
0.0
  0
LINE
  5
BB
330
30
100
AcDbEntity
  8
1
100
AcDbLine
 10
61.82448
 20
-0.425078154501
 30
0.0
 11
61.83344
 21
-0.427027850145
 31
0.0
  0
LINE
  5
BC
330
30
100
AcDbEntity
  8
1
100
AcDbLine
 10
61.83344
 20
-0.427027850145
 30
0.0
 11
61.8424
 21
-0.428957980303
 31
0.0
  0
LINE
  5
BD
330
30
100
AcDbEntity
  8
1
100
AcDbLine
 10
61.8424
 20
-0.428957980303
 30
0.0
 11
61.85136
 21
-0.430869541312
 31
0.0
  0
LINE
  5
BE
330
30
100
AcDbEntity
  8
1
100
AcDbLine
 10
61.85136
 20
-0.430869541312
 30
0.0
 11
61.86032
 21
-0.432763478113
 31
0.0
  0
LINE
  5
BF
330
30
100
AcDbEntity
  8
1
100
AcDbLine
 10
61.86032
 20
-0.432763478113
 30
0.0
 11
61.86928
 21
-0.434640686166
 31
0.0
  0
LINE
  5
C0
330
30
100
AcDbEntity
  8
1
100
AcDbLine
 10
61.86928
 20
-0.434640686166
 30
0.0
 11
61.87824
 21
-0.436502013317
 31
0.0
  0
LINE
  5
C1
330
30
100
AcDbEntity
  8
1
100
AcDbLine
 10
61.87824
 20
-0.436502013317
 30
0.0
 11
61.8872
 21
-0.438348261624
 31
0.0
  0
LINE
  5
C2
330
30
100
AcDbEntity
  8
1
100
AcDbLine
 10
61.8872
 20
-0.438348261624
 30
0.0
 11
61.89616
 21
-0.440180189123
 31
0.0
  0
LINE
  5
C3
330
30
100
AcDbEntity
  8
1
100
AcDbLine
 10
61.89616
 20
-0.440180189123
 30
0.0
 11
61.90512
 21
-0.441998511555
 31
0.0
  0
LINE
  5
C4
330
30
100
AcDbEntity
  8
1
100
AcDbLine
 10
61.90512
 20
-0.441998511555
 30
0.0
 11
61.91408
 21
-0.443803904049
 31
0.0
  0
LINE
  5
C5
330
30
100
AcDbEntity
  8
1
100
AcDbLine
 10
61.91408
 20
-0.443803904049
 30
0.0
 11
61.92304
 21
-0.445597002753
 31
0.0
  0
LINE
  5
C6
330
30
100
AcDbEntity
  8
1
100
AcDbLine
 10
61.92304
 20
-0.445597002753
 30
0.0
 11
61.932
 21
-0.447378406426
 31
0.0
  0
LINE
  5
C7
330
30
100
AcDbEntity
  8
1
100
AcDbLine
 10
61.932
 20
-0.447378406426
 30
0.0
 11
61.94096
 21
-0.449148677992
 31
0.0
  0
LINE
  5
C8
330
30
100
AcDbEntity
  8
1
100
AcDbLine
 10
61.94096
 20
-0.449148677992
 30
0.0
 11
61.94992
 21
-0.450908346045
 31
0.0
  0
LINE
  5
C9
330
30
100
AcDbEntity
  8
1
100
AcDbLine
 10
61.94992
 20
-0.450908346045
 30
0.0
 11
61.95888
 21
-0.452657906317
 31
0.0
  0
LINE
  5
CA
330
30
100
AcDbEntity
  8
1
100
AcDbLine
 10
61.95888
 20
-0.452657906317
 30
0.0
 11
61.96784
 21
-0.454397823105
 31
0.0
  0
LINE
  5
CB
330
30
100
AcDbEntity
  8
1
100
AcDbLine
 10
61.96784
 20
-0.454397823105
 30
0.0
 11
61.9768
 21
-0.456128530663
 31
0.0
  0
LINE
  5
CC
330
30
100
AcDbEntity
  8
1
100
AcDbLine
 10
61.9768
 20
-0.456128530663
 30
0.0
 11
61.98576
 21
-0.457850434552
 31
0.0
  0
LINE
  5
CD
330
30
100
AcDbEntity
  8
1
100
AcDbLine
 10
61.98576
 20
-0.457850434552
 30
0.0
 11
61.99472
 21
-0.45956391295
 31
0.0
  0
LINE
  5
CE
330
30
100
AcDbEntity
  8
1
100
AcDbLine
 10
61.99472
 20
-0.45956391295
 30
0.0
 11
62.00368
 21
-0.461269317933
 31
0.0
  0
LINE
  5
CF
330
30
100
AcDbEntity
  8
1
100
AcDbLine
 10
62.00368
 20
-0.461269317933
 30
0.0
 11
62.01264
 21
-0.462966976713
 31
0.0
  0
LINE
  5
D0
330
30
100
AcDbEntity
  8
1
100
AcDbLine
 10
62.01264
 20
-0.462966976713
 30
0.0
 11
62.0216
 21
-0.464657192843
 31
0.0
  0
LINE
  5
D1
330
30
100
AcDbEntity
  8
1
100
AcDbLine
 10
62.0216
 20
-0.464657192843
 30
0.0
 11
62.03056
 21
-0.466340247385
 31
0.0
  0
LINE
  5
D2
330
30
100
AcDbEntity
  8
1
100
AcDbLine
 10
62.03056
 20
-0.466340247385
 30
0.0
 11
62.03952
 21
-0.468016400046
 31
0.0
  0
LINE
  5
D3
330
30
100
AcDbEntity
  8
1
100
AcDbLine
 10
62.03952
 20
-0.468016400046
 30
0.0
 11
62.04848
 21
-0.469685890279
 31
0.0
  0
LINE
  5
D4
330
30
100
AcDbEntity
  8
1
100
AcDbLine
 10
62.04848
 20
-0.469685890279
 30
0.0
 11
62.05744
 21
-0.471348938351
 31
0.0
  0
LINE
  5
D5
330
30
100
AcDbEntity
  8
1
100
AcDbLine
 10
62.05744
 20
-0.471348938351
 30
0.0
 11
62.0664
 21
-0.473005746373
 31
0.0
  0
LINE
  5
D6
330
30
100
AcDbEntity
  8
1
100
AcDbLine
 10
62.0664
 20
-0.473005746373
 30
0.0
 11
62.07536
 21
-0.474656499304
 31
0.0
  0
LINE
  5
D7
330
30
100
AcDbEntity
  8
1
100
AcDbLine
 10
62.07536
 20
-0.474656499304
 30
0.0
 11
62.08432
 21
-0.476301365918
 31
0.0
  0
LINE
  5
D8
330
30
100
AcDbEntity
  8
1
100
AcDbLine
 10
62.08432
 20
-0.476301365918
 30
0.0
 11
62.09328
 21
-0.477940499742
 31
0.0
  0
LINE
  5
D9
330
30
100
AcDbEntity
  8
1
100
AcDbLine
 10
62.09328
 20
-0.477940499742
 30
0.0
 11
62.10224
 21
-0.479574039961
 31
0.0
  0
LINE
  5
DA
330
30
100
AcDbEntity
  8
1
100
AcDbLine
 10
62.10224
 20
-0.479574039961
 30
0.0
 11
62.1112
 21
-0.48120211229
 31
0.0
  0
LINE
  5
DB
330
30
100
AcDbEntity
  8
1
100
AcDbLine
 10
62.1112
 20
-0.48120211229
 30
0.0
 11
62.12016
 21
-0.482824829816
 31
0.0
  0
LINE
  5
DC
330
30
100
AcDbEntity
  8
1
100
AcDbLine
 10
62.12016
 20
-0.482824829816
 30
0.0
 11
62.12912
 21
-0.484442293815
 31
0.0
  0
LINE
  5
DD
330
30
100
AcDbEntity
  8
1
100
AcDbLine
 10
62.12912
 20
-0.484442293815
 30
0.0
 11
62.13808
 21
-0.486054594529
 31
0.0
  0
LINE
  5
DE
330
30
100
AcDbEntity
  8
1
100
AcDbLine
 10
62.13808
 20
-0.486054594529
 30
0.0
 11
62.14704
 21
-0.48766181192
 31
0.0
  0
LINE
  5
DF
330
30
100
AcDbEntity
  8
1
100
AcDbLine
 10
62.14704
 20
-0.48766181192
 30
0.0
 11
62.156
 21
-0.489264016392
 31
0.0
  0
LINE
  5
E0
330
30
100
AcDbEntity
  8
1
100
AcDbLine
 10
62.156
 20
-0.489264016392
 30
0.0
 11
62.16496
 21
-0.490861269488
 31
0.0
  0
LINE
  5
E1
330
30
100
AcDbEntity
  8
1
100
AcDbLine
 10
62.16496
 20
-0.490861269488
 30
0.0
 11
62.17392
 21
-0.492453624547
 31
0.0
  0
LINE
  5
E2
330
30
100
AcDbEntity
  8
1
100
AcDbLine
 10
62.17392
 20
-0.492453624547
 30
0.0
 11
62.18288
 21
-0.494041127347
 31
0.0
  0
LINE
  5
E3
330
30
100
AcDbEntity
  8
1
100
AcDbLine
 10
62.18288
 20
-0.494041127347
 30
0.0
 11
62.19184
 21
-0.49562381671
 31
0.0
  0
LINE
  5
E4
330
30
100
AcDbEntity
  8
1
100
AcDbLine
 10
62.19184
 20
-0.49562381671
 30
0.0
 11
62.2008
 21
-0.497201725079
 31
0.0
  0
LINE
  5
E5
330
30
100
AcDbEntity
  8
1
100
AcDbLine
 10
62.2008
 20
-0.497201725079
 30
0.0
 11
62.20976
 21
-0.498774879075
 31
0.0
  0
LINE
  5
E6
330
30
100
AcDbEntity
  8
1
100
AcDbLine
 10
62.20976
 20
-0.498774879075
 30
0.0
 11
62.21872
 21
-0.500343300018
 31
0.0
  0
LINE
  5
E7
330
30
100
AcDbEntity
  8
1
100
AcDbLine
 10
62.21872
 20
-0.500343300018
 30
0.0
 11
62.22768
 21
-0.501907004426
 31
0.0
  0
LINE
  5
E8
330
30
100
AcDbEntity
  8
1
100
AcDbLine
 10
62.22768
 20
-0.501907004426
 30
0.0
 11
62.23664
 21
-0.503466004487
 31
0.0
  0
LINE
  5
E9
330
30
100
AcDbEntity
  8
1
100
AcDbLine
 10
62.23664
 20
-0.503466004487
 30
0.0
 11
62.2456
 21
-0.505020308502
 31
0.0
  0
LINE
  5
EA
330
30
100
AcDbEntity
  8
1
100
AcDbLine
 10
62.2456
 20
-0.505020308502
 30
0.0
 11
62.25456
 21
-0.506569921307
 31
0.0
  0
LINE
  5
EB
330
30
100
AcDbEntity
  8
1
100
AcDbLine
 10
62.25456
 20
-0.506569921307
 30
0.0
 11
62.26352
 21
-0.508114844661
 31
0.0
  0
LINE
  5
EC
330
30
100
AcDbEntity
  8
1
100
AcDbLine
 10
62.26352
 20
-0.508114844661
 30
0.0
 11
62.27248
 21
-0.509655077619
 31
0.0
  0
LINE
  5
ED
330
30
100
AcDbEntity
  8
1
100
AcDbLine
 10
62.27248
 20
-0.509655077619
 30
0.0
 11
62.28144
 21
-0.511190616873
 31
0.0
  0
LINE
  5
EE
330
30
100
AcDbEntity
  8
1
100
AcDbLine
 10
62.28144
 20
-0.511190616873
 30
0.0
 11
62.2904
 21
-0.512721457071
 31
0.0
  0
LINE
  5
EF
330
30
100
AcDbEntity
  8
1
100
AcDbLine
 10
62.2904
 20
-0.512721457071
 30
0.0
 11
62.29936
 21
-0.514247591109
 31
0.0
  0
LINE
  5
F0
330
30
100
AcDbEntity
  8
1
100
AcDbLine
 10
62.29936
 20
-0.514247591109
 30
0.0
 11
62.30832
 21
-0.515769010405
 31
0.0
  0
LINE
  5
F1
330
30
100
AcDbEntity
  8
1
100
AcDbLine
 10
62.30832
 20
-0.515769010405
 30
0.0
 11
62.31728
 21
-0.517285705143
 31
0.0
  0
LINE
  5
F2
330
30
100
AcDbEntity
  8
1
100
AcDbLine
 10
62.31728
 20
-0.517285705143
 30
0.0
 11
62.32624
 21
-0.518797664497
 31
0.0
  0
LINE
  5
F3
330
30
100
AcDbEntity
  8
1
100
AcDbLine
 10
62.32624
 20
-0.518797664497
 30
0.0
 11
62.3352
 21
-0.520304876833
 31
0.0
  0
LINE
  5
F4
330
30
100
AcDbEntity
  8
1
100
AcDbLine
 10
62.3352
 20
-0.520304876833
 30
0.0
 11
62.34416
 21
-0.521807329888
 31
0.0
  0
LINE
  5
F5
330
30
100
AcDbEntity
  8
1
100
AcDbLine
 10
62.34416
 20
-0.521807329888
 30
0.0
 11
62.35312
 21
-0.523305010924
 31
0.0
  0
LINE
  5
F6
330
30
100
AcDbEntity
  8
1
100
AcDbLine
 10
62.35312
 20
-0.523305010924
 30
0.0
 11
62.36208
 21
-0.524797906866
 31
0.0
  0
LINE
  5
F7
330
30
100
AcDbEntity
  8
1
100
AcDbLine
 10
62.36208
 20
-0.524797906866
 30
0.0
 11
62.37104
 21
-0.526286004413
 31
0.0
  0
LINE
  5
F8
330
30
100
AcDbEntity
  8
1
100
AcDbLine
 10
62.37104
 20
-0.526286004413
 30
0.0
 11
62.38
 21
-0.527769290135
 31
0.0
  0
LINE
  5
F9
330
30
100
AcDbEntity
  8
1
100
AcDbLine
 10
62.38
 20
-0.527769290135
 30
0.0
 11
62.38896
 21
-0.52924775054
 31
0.0
  0
LINE
  5
FA
330
30
100
AcDbEntity
  8
1
100
AcDbLine
 10
62.38896
 20
-0.52924775054
 30
0.0
 11
62.39792
 21
-0.530721372131
 31
0.0
  0
LINE
  5
FB
330
30
100
AcDbEntity
  8
1
100
AcDbLine
 10
62.39792
 20
-0.530721372131
 30
0.0
 11
62.40688
 21
-0.598001428291
 31
0.0
  0
LINE
  5
FC
330
30
100
AcDbEntity
  8
1
100
AcDbLine
 10
62.40688
 20
-0.598001428291
 30
0.0
 11
62.41584
 21
-0.599578070793
 31
0.0
  0
LINE
  5
FD
330
30
100
AcDbEntity
  8
1
100
AcDbLine
 10
62.41584
 20
-0.599578070793
 30
0.0
 11
62.4248
 21
-0.601149231469
 31
0.0
  0
LINE
  5
FE
330
30
100
AcDbEntity
  8
1
100
AcDbLine
 10
62.4248
 20
-0.601149231469
 30
0.0
 11
62.43376
 21
-0.602714895953
 31
0.0
  0
LINE
  5
FF
330
30
100
AcDbEntity
  8
1
100
AcDbLine
 10
62.43376
 20
-0.602714895953
 30
0.0
 11
62.44272
 21
-0.60427504993
 31
0.0
  0
LINE
  5
100
330
30
100
AcDbEntity
  8
1
100
AcDbLine
 10
62.44272
 20
-0.60427504993
 30
0.0
 11
62.45168
 21
-0.605829679137
 31
0.0
  0
LINE
  5
101
330
30
100
AcDbEntity
  8
1
100
AcDbLine
 10
62.45168
 20
-0.605829679137
 30
0.0
 11
62.46064
 21
-0.607378769359
 31
0.0
  0
LINE
  5
102
330
30
100
AcDbEntity
  8
1
100
AcDbLine
 10
62.46064
 20
-0.607378769359
 30
0.0
 11
62.4696
 21
-0.608922306434
 31
0.0
  0
LINE
  5
103
330
30
100
AcDbEntity
  8
1
100
AcDbLine
 10
62.4696
 20
-0.608922306434
 30
0.0
 11
62.47856
 21
-0.61046027625
 31
0.0
  0
LINE
  5
104
330
30
100
AcDbEntity
  8
1
100
AcDbLine
 10
62.47856
 20
-0.61046027625
 30
0.0
 11
62.48752
 21
-0.611992664744
 31
0.0
  0
LINE
  5
105
330
30
100
AcDbEntity
  8
1
100
AcDbLine
 10
62.48752
 20
-0.611992664744
 30
0.0
 11
62.49648
 21
-0.613519457908
 31
0.0
  0
LINE
  5
106
330
30
100
AcDbEntity
  8
1
100
AcDbLine
 10
62.49648
 20
-0.613519457908
 30
0.0
 11
62.50544
 21
-0.615040641781
 31
0.0
  0
LINE
  5
107
330
30
100
AcDbEntity
  8
1
100
AcDbLine
 10
62.50544
 20
-0.615040641781
 30
0.0
 11
62.5144
 21
-0.616556202455
 31
0.0
  0
LINE
  5
108
330
30
100
AcDbEntity
  8
1
100
AcDbLine
 10
62.5144
 20
-0.616556202455
 30
0.0
 11
62.52336
 21
-0.618066126075
 31
0.0
  0
LINE
  5
109
330
30
100
AcDbEntity
  8
1
100
AcDbLine
 10
62.52336
 20
-0.618066126075
 30
0.0
 11
62.53232
 21
-0.619570398835
 31
0.0
  0
LINE
  5
10A
330
30
100
AcDbEntity
  8
1
100
AcDbLine
 10
62.53232
 20
-0.619570398835
 30
0.0
 11
62.54128
 21
-0.621069006981
 31
0.0
  0
LINE
  5
10B
330
30
100
AcDbEntity
  8
1
100
AcDbLine
 10
62.54128
 20
-0.621069006981
 30
0.0
 11
62.55024
 21
-0.622561936814
 31
0.0
  0
LINE
  5
10C
330
30
100
AcDbEntity
  8
1
100
AcDbLine
 10
62.55024
 20
-0.622561936814
 30
0.0
 11
62.5592
 21
-0.624049174682
 31
0.0
  0
LINE
  5
10D
330
30
100
AcDbEntity
  8
1
100
AcDbLine
 10
62.5592
 20
-0.624049174682
 30
0.0
 11
62.56816
 21
-0.625530706988
 31
0.0
  0
LINE
  5
10E
330
30
100
AcDbEntity
  8
1
100
AcDbLine
 10
62.56816
 20
-0.625530706988
 30
0.0
 11
62.57712
 21
-0.627006520188
 31
0.0
  0
LINE
  5
10F
330
30
100
AcDbEntity
  8
1
100
AcDbLine
 10
62.57712
 20
-0.627006520188
 30
0.0
 11
62.58608
 21
-0.628476600787
 31
0.0
  0
LINE
  5
110
330
30
100
AcDbEntity
  8
1
100
AcDbLine
 10
62.58608
 20
-0.628476600787
 30
0.0
 11
62.59504
 21
-0.629940935346
 31
0.0
  0
LINE
  5
111
330
30
100
AcDbEntity
  8
1
100
AcDbLine
 10
62.59504
 20
-0.629940935346
 30
0.0
 11
62.604
 21
-0.631399510476
 31
0.0
  0
LINE
  5
112
330
30
100
AcDbEntity
  8
1
100
AcDbLine
 10
62.604
 20
-0.631399510476
 30
0.0
 11
62.61296
 21
-0.632852312841
 31
0.0
  0
LINE
  5
113
330
30
100
AcDbEntity
  8
1
100
AcDbLine
 10
62.61296
 20
-0.632852312841
 30
0.0
 11
62.62192
 21
-0.63429932916
 31
0.0
  0
LINE
  5
114
330
30
100
AcDbEntity
  8
1
100
AcDbLine
 10
62.62192
 20
-0.63429932916
 30
0.0
 11
62.63088
 21
-0.635740546201
 31
0.0
  0
LINE
  5
115
330
30
100
AcDbEntity
  8
1
100
AcDbLine
 10
62.63088
 20
-0.635740546201
 30
0.0
 11
62.63984
 21
-0.637175950789
 31
0.0
  0
LINE
  5
116
330
30
100
AcDbEntity
  8
1
100
AcDbLine
 10
62.63984
 20
-0.637175950789
 30
0.0
 11
62.6488
 21
-0.6386055298
 31
0.0
  0
LINE
  5
117
330
30
100
AcDbEntity
  8
1
100
AcDbLine
 10
62.6488
 20
-0.6386055298
 30
0.0
 11
62.65776
 21
-0.640029270163
 31
0.0
  0
LINE
  5
118
330
30
100
AcDbEntity
  8
1
100
AcDbLine
 10
62.65776
 20
-0.640029270163
 30
0.0
 11
62.66672
 21
-0.641447158862
 31
0.0
  0
LINE
  5
119
330
30
100
AcDbEntity
  8
1
100
AcDbLine
 10
62.66672
 20
-0.641447158862
 30
0.0
 11
62.67568
 21
-0.642859182932
 31
0.0
  0
LINE
  5
11A
330
30
100
AcDbEntity
  8
1
100
AcDbLine
 10
62.67568
 20
-0.642859182932
 30
0.0
 11
62.68464
 21
-0.644265329465
 31
0.0
  0
LINE
  5
11B
330
30
100
AcDbEntity
  8
1
100
AcDbLine
 10
62.68464
 20
-0.644265329465
 30
0.0
 11
62.6936
 21
-0.645665585603
 31
0.0
  0
LINE
  5
11C
330
30
100
AcDbEntity
  8
1
100
AcDbLine
 10
62.6936
 20
-0.645665585603
 30
0.0
 11
62.70256
 21
-0.647059938545
 31
0.0
  0
LINE
  5
11D
330
30
100
AcDbEntity
  8
1
100
AcDbLine
 10
62.70256
 20
-0.647059938545
 30
0.0
 11
62.71152
 21
-0.648430444558
 31
0.0
  0
LINE
  5
11E
330
30
100
AcDbEntity
  8
1
100
AcDbLine
 10
62.71152
 20
-0.648430444558
 30
0.0
 11
62.72048
 21
-0.649707326271
 31
0.0
  0
LINE
  5
11F
330
30
100
AcDbEntity
  8
1
100
AcDbLine
 10
62.72048
 20
-0.649707326271
 30
0.0
 11
62.72944
 21
-0.650883202286
 31
0.0
  0
LINE
  5
120
330
30
100
AcDbEntity
  8
1
100
AcDbLine
 10
62.72944
 20
-0.650883202286
 30
0.0
 11
62.7384
 21
-0.651957612796
 31
0.0
  0
LINE
  5
121
330
30
100
AcDbEntity
  8
1
100
AcDbLine
 10
62.7384
 20
-0.651957612796
 30
0.0
 11
62.74736
 21
-0.652930064775
 31
0.0
  0
LINE
  5
122
330
30
100
AcDbEntity
  8
1
100
AcDbLine
 10
62.74736
 20
-0.652930064775
 30
0.0
 11
62.75632
 21
-0.653800031522
 31
0.0
  0
LINE
  5
123
330
30
100
AcDbEntity
  8
1
100
AcDbLine
 10
62.75632
 20
-0.653800031522
 30
0.0
 11
62.76528
 21
-0.654566952124
 31
0.0
  0
LINE
  5
124
330
30
100
AcDbEntity
  8
1
100
AcDbLine
 10
62.76528
 20
-0.654566952124
 30
0.0
 11
62.77424
 21
-0.655230230839
 31
0.0
  0
LINE
  5
125
330
30
100
AcDbEntity
  8
1
100
AcDbLine
 10
62.77424
 20
-0.655230230839
 30
0.0
 11
62.7832
 21
-0.655789236411
 31
0.0
  0
LINE
  5
126
330
30
100
AcDbEntity
  8
1
100
AcDbLine
 10
62.7832
 20
-0.655789236411
 30
0.0
 11
62.79216
 21
-0.656243301291
 31
0.0
  0
LINE
  5
127
330
30
100
AcDbEntity
  8
1
100
AcDbLine
 10
62.79216
 20
-0.656243301291
 30
0.0
 11
62.80112
 21
-0.656591720779
 31
0.0
  0
LINE
  5
128
330
30
100
AcDbEntity
  8
1
100
AcDbLine
 10
62.80112
 20
-0.656591720779
 30
0.0
 11
62.81008
 21
-0.656833752079
 31
0.0
  0
LINE
  5
129
330
30
100
AcDbEntity
  8
1
100
AcDbLine
 10
62.81008
 20
-0.656833752079
 30
0.0
 11
62.81904
 21
-0.656968613253
 31
0.0
  0
LINE
  5
12A
330
30
100
AcDbEntity
  8
1
100
AcDbLine
 10
62.81904
 20
-0.656968613253
 30
0.0
 11
62.828
 21
-0.656995482086
 31
0.0
  0
LINE
  5
12B
330
30
100
AcDbEntity
  8
1
100
AcDbLine
 10
62.828
 20
-0.656995482086
 30
0.0
 11
62.83696
 21
-0.65691349484
 31
0.0
  0
LINE
  5
12C
330
30
100
AcDbEntity
  8
1
100
AcDbLine
 10
62.83696
 20
-0.65691349484
 30
0.0
 11
62.84592
 21
-0.656721744907
 31
0.0
  0
LINE
  5
12D
330
30
100
AcDbEntity
  8
1
100
AcDbLine
 10
62.84592
 20
-0.656721744907
 30
0.0
 11
62.85488
 21
-0.656419281335
 31
0.0
  0
LINE
  5
12E
330
30
100
AcDbEntity
  8
1
100
AcDbLine
 10
62.85488
 20
-0.656419281335
 30
0.0
 11
62.86384
 21
-0.656005107242
 31
0.0
  0
LINE
  5
12F
330
30
100
AcDbEntity
  8
1
100
AcDbLine
 10
62.86384
 20
-0.656005107242
 30
0.0
 11
62.8728
 21
-0.655478178093
 31
0.0
  0
LINE
  5
130
330
30
100
AcDbEntity
  8
1
100
AcDbLine
 10
62.8728
 20
-0.655478178093
 30
0.0
 11
62.88176
 21
-0.654837399838
 31
0.0
  0
LINE
  5
131
330
30
100
AcDbEntity
  8
1
100
AcDbLine
 10
62.88176
 20
-0.654837399838
 30
0.0
 11
62.89072
 21
-0.654081626898
 31
0.0
  0
LINE
  5
132
330
30
100
AcDbEntity
  8
1
100
AcDbLine
 10
62.89072
 20
-0.654081626898
 30
0.0
 11
62.89968
 21
-0.653209659997
 31
0.0
  0
LINE
  5
133
330
30
100
AcDbEntity
  8
1
100
AcDbLine
 10
62.89968
 20
-0.653209659997
 30
0.0
 11
62.90864
 21
-0.652220243807
 31
0.0
  0
LINE
  5
134
330
30
100
AcDbEntity
  8
1
100
AcDbLine
 10
62.90864
 20
-0.652220243807
 30
0.0
 11
62.9176
 21
-0.651112064426
 31
0.0
  0
LINE
  5
135
330
30
100
AcDbEntity
  8
1
100
AcDbLine
 10
62.9176
 20
-0.651112064426
 30
0.0
 11
62.92656
 21
-0.649883746632
 31
0.0
  0
LINE
  5
136
330
30
100
AcDbEntity
  8
1
100
AcDbLine
 10
62.92656
 20
-0.649883746632
 30
0.0
 11
62.93552
 21
-0.648533850939
 31
0.0
  0
LINE
  5
137
330
30
100
AcDbEntity
  8
1
100
AcDbLine
 10
62.93552
 20
-0.648533850939
 30
0.0
 11
62.94448
 21
-0.647060870405
 31
0.0
  0
LINE
  5
138
330
30
100
AcDbEntity
  8
1
100
AcDbLine
 10
62.94448
 20
-0.647060870405
 30
0.0
 11
62.95344
 21
-0.645463227182
 31
0.0
  0
LINE
  5
139
330
30
100
AcDbEntity
  8
1
100
AcDbLine
 10
62.95344
 20
-0.645463227182
 30
0.0
 11
62.9624
 21
-0.643739268795
 31
0.0
  0
LINE
  5
13A
330
30
100
AcDbEntity
  8
1
100
AcDbLine
 10
62.9624
 20
-0.643739268795
 30
0.0
 11
62.97136
 21
-0.641887264112
 31
0.0
  0
LINE
  5
13B
330
30
100
AcDbEntity
  8
1
100
AcDbLine
 10
62.97136
 20
-0.641887264112
 30
0.0
 11
62.98032
 21
-0.639905398973
 31
0.0
  0
LINE
  5
13C
330
30
100
AcDbEntity
  8
1
100
AcDbLine
 10
62.98032
 20
-0.639905398973
 30
0.0
 11
62.98928
 21
-0.637791771468
 31
0.0
  0
LINE
  5
13D
330
30
100
AcDbEntity
  8
1
100
AcDbLine
 10
62.98928
 20
-0.637791771468
 30
0.0
 11
62.99824
 21
-0.635544386808
 31
0.0
  0
LINE
  5
13E
330
30
100
AcDbEntity
  8
1
100
AcDbLine
 10
62.99824
 20
-0.635544386808
 30
0.0
 11
63.0072
 21
-0.633161151753
 31
0.0
  0
LINE
  5
13F
330
30
100
AcDbEntity
  8
1
100
AcDbLine
 10
63.0072
 20
-0.633161151753
 30
0.0
 11
63.01616
 21
-0.630639868561
 31
0.0
  0
LINE
  5
140
330
30
100
AcDbEntity
  8
1
100
AcDbLine
 10
63.01616
 20
-0.630639868561
 30
0.0
 11
63.02512
 21
-0.627978228405
 31
0.0
  0
LINE
  5
141
330
30
100
AcDbEntity
  8
1
100
AcDbLine
 10
63.02512
 20
-0.627978228405
 30
0.0
 11
63.03408
 21
-0.625173804194
 31
0.0
  0
LINE
  5
142
330
30
100
AcDbEntity
  8
1
100
AcDbLine
 10
63.03408
 20
-0.625173804194
 30
0.0
 11
63.04304
 21
-0.622224042742
 31
0.0
  0
LINE
  5
143
330
30
100
AcDbEntity
  8
1
100
AcDbLine
 10
63.04304
 20
-0.622224042742
 30
0.0
 11
63.052
 21
-0.619126256212
 31
0.0
  0
LINE
  5
144
330
30
100
AcDbEntity
  8
1
100
AcDbLine
 10
63.052
 20
-0.619126256212
 30
0.0
 11
63.06096
 21
-0.615877612753
 31
0.0
  0
LINE
  5
145
330
30
100
AcDbEntity
  8
1
100
AcDbLine
 10
63.06096
 20
-0.615877612753
 30
0.0
 11
63.06992
 21
-0.612475126231
 31
0.0
  0
LINE
  5
146
330
30
100
AcDbEntity
  8
1
100
AcDbLine
 10
63.06992
 20
-0.612475126231
 30
0.0
 11
63.07888
 21
-0.608915644955
 31
0.0
  0
LINE
  5
147
330
30
100
AcDbEntity
  8
1
100
AcDbLine
 10
63.07888
 20
-0.608915644955
 30
0.0
 11
63.08784
 21
-0.605195839278
 31
0.0
  0
LINE
  5
148
330
30
100
AcDbEntity
  8
1
100
AcDbLine
 10
63.08784
 20
-0.605195839278
 30
0.0
 11
63.0968
 21
-0.60131218792
 31
0.0
  0
LINE
  5
149
330
30
100
AcDbEntity
  8
1
100
AcDbLine
 10
63.0968
 20
-0.60131218792
 30
0.0
 11
63.10576
 21
-0.597260962869
 31
0.0
  0
LINE
  5
14A
330
30
100
AcDbEntity
  8
1
100
AcDbLine
 10
63.10576
 20
-0.597260962869
 30
0.0
 11
63.11472
 21
-0.593038212661
 31
0.0
  0
LINE
  5
14B
330
30
100
AcDbEntity
  8
1
100
AcDbLine
 10
63.11472
 20
-0.593038212661
 30
0.0
 11
63.12368
 21
-0.588639743838
 31
0.0
  0
LINE
  5
14C
330
30
100
AcDbEntity
  8
1
100
AcDbLine
 10
63.12368
 20
-0.588639743838
 30
0.0
 11
63.13264
 21
-0.584061100318
 31
0.0
  0
LINE
  5
14D
330
30
100
AcDbEntity
  8
1
100
AcDbLine
 10
63.13264
 20
-0.584061100318
 30
0.0
 11
63.1416
 21
-0.579297540399
 31
0.0
  0
LINE
  5
14E
330
30
100
AcDbEntity
  8
1
100
AcDbLine
 10
63.1416
 20
-0.579297540399
 30
0.0
 11
63.15056
 21
-0.574344011053
 31
0.0
  0
LINE
  5
14F
330
30
100
AcDbEntity
  8
1
100
AcDbLine
 10
63.15056
 20
-0.574344011053
 30
0.0
 11
63.15952
 21
-0.56919511911
 31
0.0
  0
LINE
  5
150
330
30
100
AcDbEntity
  8
1
100
AcDbLine
 10
63.15952
 20
-0.56919511911
 30
0.0
 11
63.16848
 21
-0.563845098848
 31
0.0
  0
LINE
  5
151
330
30
100
AcDbEntity
  8
1
100
AcDbLine
 10
63.16848
 20
-0.563845098848
 30
0.0
 11
63.17744
 21
-0.558287775458
 31
0.0
  0
LINE
  5
152
330
30
100
AcDbEntity
  8
1
100
AcDbLine
 10
63.17744
 20
-0.558287775458
 30
0.0
 11
63.1864
 21
-0.552516523682
 31
0.0
  0
LINE
  5
153
330
30
100
AcDbEntity
  8
1
100
AcDbLine
 10
63.1864
 20
-0.552516523682
 30
0.0
 11
63.19536
 21
-0.546524220856
 31
0.0
  0
LINE
  5
154
330
30
100
AcDbEntity
  8
1
100
AcDbLine
 10
63.19536
 20
-0.546524220856
 30
0.0
 11
63.20432
 21
-0.540303193383
 31
0.0
  0
LINE
  5
155
330
30
100
AcDbEntity
  8
1
100
AcDbLine
 10
63.20432
 20
-0.540303193383
 30
0.0
 11
63.21328
 21
-0.533845155477
 31
0.0
  0
LINE
  5
156
330
30
100
AcDbEntity
  8
1
100
AcDbLine
 10
63.21328
 20
-0.533845155477
 30
0.0
 11
63.22224
 21
-0.527141138781
 31
0.0
  0
LINE
  5
157
330
30
100
AcDbEntity
  8
1
100
AcDbLine
 10
63.22224
 20
-0.527141138781
 30
0.0
 11
63.2312
 21
-0.520181411114
 31
0.0
  0
LINE
  5
158
330
30
100
AcDbEntity
  8
1
100
AcDbLine
 10
63.2312
 20
-0.520181411114
 30
0.0
 11
63.24016
 21
-0.512955382239
 31
0.0
  0
LINE
  5
159
330
30
100
AcDbEntity
  8
1
100
AcDbLine
 10
63.24016
 20
-0.512955382239
 30
0.0
 11
63.24912
 21
-0.50545149401
 31
0.0
  0
LINE
  5
15A
330
30
100
AcDbEntity
  8
1
100
AcDbLine
 10
63.24912
 20
-0.50545149401
 30
0.0
 11
63.25808
 21
-0.49765709159
 31
0.0
  0
LINE
  5
15B
330
30
100
AcDbEntity
  8
1
100
AcDbLine
 10
63.25808
 20
-0.49765709159
 30
0.0
 11
63.26704
 21
-0.48955827162
 31
0.0
  0
LINE
  5
15C
330
30
100
AcDbEntity
  8
1
100
AcDbLine
 10
63.26704
 20
-0.48955827162
 30
0.0
 11
63.276
 21
-0.48113970203
 31
0.0
  0
LINE
  5
15D
330
30
100
AcDbEntity
  8
1
100
AcDbLine
 10
63.276
 20
-0.48113970203
 30
0.0
 11
63.28496
 21
-0.472384406764
 31
0.0
  0
LINE
  5
15E
330
30
100
AcDbEntity
  8
1
100
AcDbLine
 10
63.28496
 20
-0.472384406764
 30
0.0
 11
63.29392
 21
-0.463273506627
 31
0.0
  0
LINE
  5
15F
330
30
100
AcDbEntity
  8
1
100
AcDbLine
 10
63.29392
 20
-0.463273506627
 30
0.0
 11
63.30288
 21
-0.453785904802
 31
0.0
  0
LINE
  5
160
330
30
100
AcDbEntity
  8
1
100
AcDbLine
 10
63.30288
 20
-0.453785904802
 30
0.0
 11
63.31184
 21
-0.443897901829
 31
0.0
  0
LINE
  5
161
330
30
100
AcDbEntity
  8
1
100
AcDbLine
 10
63.31184
 20
-0.443897901829
 30
0.0
 11
63.3208
 21
-0.433582719631
 31
0.0
  0
LINE
  5
162
330
30
100
AcDbEntity
  8
1
100
AcDbLine
 10
63.3208
 20
-0.433582719631
 30
0.0
 11
63.32976
 21
-0.422809906792
 31
0.0
  0
LINE
  5
163
330
30
100
AcDbEntity
  8
1
100
AcDbLine
 10
63.32976
 20
-0.422809906792
 30
0.0
 11
63.33872
 21
-0.411544586658
 31
0.0
  0
LINE
  5
164
330
30
100
AcDbEntity
  8
1
100
AcDbLine
 10
63.33872
 20
-0.411544586658
 30
0.0
 11
63.34768
 21
-0.399746494154
 31
0.0
  0
LINE
  5
165
330
30
100
AcDbEntity
  8
1
100
AcDbLine
 10
63.34768
 20
-0.399746494154
 30
0.0
 11
63.35664
 21
-0.3873687237
 31
0.0
  0
LINE
  5
166
330
30
100
AcDbEntity
  8
1
100
AcDbLine
 10
63.35664
 20
-0.3873687237
 30
0.0
 11
63.3656
 21
-0.374356074414
 31
0.0
  0
LINE
  5
167
330
30
100
AcDbEntity
  8
1
100
AcDbLine
 10
63.3656
 20
-0.374356074414
 30
0.0
 11
63.37456
 21
-0.360642821622
 31
0.0
  0
LINE
  5
168
330
30
100
AcDbEntity
  8
1
100
AcDbLine
 10
63.37456
 20
-0.360642821622
 30
0.0
 11
63.38352
 21
-0.346149650467
 31
0.0
  0
LINE
  5
169
330
30
100
AcDbEntity
  8
1
100
AcDbLine
 10
63.38352
 20
-0.346149650467
 30
0.0
 11
63.39248
 21
-0.330779330158
 31
0.0
  0
LINE
  5
16A
330
30
100
AcDbEntity
  8
1
100
AcDbLine
 10
63.39248
 20
-0.330779330158
 30
0.0
 11
63.40144
 21
-0.314410430901
 31
0.0
  0
LINE
  5
16B
330
30
100
AcDbEntity
  8
1
100
AcDbLine
 10
63.40144
 20
-0.314410430901
 30
0.0
 11
63.4104
 21
-0.296887875815
 31
0.0
  0
LINE
  5
16C
330
30
100
AcDbEntity
  8
1
100
AcDbLine
 10
63.4104
 20
-0.296887875815
 30
0.0
 11
63.41936
 21
-0.278008124987
 31
0.0
  0
LINE
  5
16D
330
30
100
AcDbEntity
  8
1
100
AcDbLine
 10
63.41936
 20
-0.278008124987
 30
0.0
 11
63.42832
 21
-0.257494706662
 31
0.0
  0
LINE
  5
16E
330
30
100
AcDbEntity
  8
1
100
AcDbLine
 10
63.42832
 20
-0.257494706662
 30
0.0
 11
63.43728
 21
-0.234955059474
 31
0.0
  0
LINE
  5
16F
330
30
100
AcDbEntity
  8
1
100
AcDbLine
 10
63.43728
 20
-0.234955059474
 30
0.0
 11
63.44624
 21
-0.209797526839
 31
0.0
  0
LINE
  5
170
330
30
100
AcDbEntity
  8
1
100
AcDbLine
 10
63.44624
 20
-0.209797526839
 30
0.0
 11
63.4552
 21
-0.181051364014
 31
0.0
  0
LINE
  5
171
330
30
100
AcDbEntity
  8
1
100
AcDbLine
 10
63.4552
 20
-0.181051364014
 30
0.0
 11
63.46416
 21
-0.146899522252
 31
0.0
  0
LINE
  5
172
330
30
100
AcDbEntity
  8
1
100
AcDbLine
 10
63.46416
 20
-0.146899522252
 30
0.0
 11
63.47312
 21
-0.103022521528
 31
0.0
  0
LINE
  5
173
330
30
100
AcDbEntity
  8
1
100
AcDbLine
 10
63.47312
 20
-0.103022521528
 30
0.0
 11
63.48208
 21
-0.029064594938
 31
0.0
  0
LINE
  5
174
330
30
100
AcDbEntity
  8
1
100
AcDbLine
 10
63.48208
 20
-0.029064594938
 30
0.0
 11
63.48208
 21
0.167453173547
 31
0.0
  0
LINE
  5
175
330
30
100
AcDbEntity
  8
1
100
AcDbLine
 10
63.48208
 20
0.167453173547
 30
0.0
 11
63.480004669112
 21
0.177067140352
 31
0.0
  0
LINE
  5
176
330
30
100
AcDbEntity
  8
1
100
AcDbLine
 10
62.706
 20
0.794
 30
0.0
 11
62.706
 21
-0.794
 31
0.0
  0
LINE
  5
177
330
30
100
AcDbEntity
  8
1
100
AcDbLine
 10
63.10576
 20
-0.561166657887
 30
0.0
 11
63.0968
 21
-0.565798575248
 31
0.0
  0
LINE
  5
178
330
30
100
AcDbEntity
  8
1
100
AcDbLine
 10
63.0968
 20
-0.565798575248
 30
0.0
 11
63.08784
 21
-0.570252529212
 31
0.0
  0
LINE
  5
179
330
30
100
AcDbEntity
  8
1
100
AcDbLine
 10
63.08784
 20
-0.570252529212
 30
0.0
 11
63.07888
 21
-0.574532622583
 31
0.0
  0
LINE
  5
17A
330
30
100
AcDbEntity
  8
1
100
AcDbLine
 10
63.07888
 20
-0.574532622583
 30
0.0
 11
63.06992
 21
-0.578642708496
 31
0.0
  0
LINE
  5
17B
330
30
100
AcDbEntity
  8
1
100
AcDbLine
 10
63.06992
 20
-0.578642708496
 30
0.0
 11
63.06096
 21
-0.58258640939
 31
0.0
  0
LINE
  5
17C
330
30
100
AcDbEntity
  8
1
100
AcDbLine
 10
63.06096
 20
-0.58258640939
 30
0.0
 11
63.052
 21
-0.586367134118
 31
0.0
  0
LINE
  5
17D
330
30
100
AcDbEntity
  8
1
100
AcDbLine
 10
63.052
 20
-0.586367134118
 30
0.0
 11
63.04304
 21
-0.589988093425
 31
0.0
  0
LINE
  5
17E
330
30
100
AcDbEntity
  8
1
100
AcDbLine
 10
63.04304
 20
-0.589988093425
 30
0.0
 11
63.03408
 21
-0.593452313957
 31
0.0
  0
LINE
  5
17F
330
30
100
AcDbEntity
  8
1
100
AcDbLine
 10
63.03408
 20
-0.593452313957
 30
0.0
 11
63.02512
 21
-0.596762650986
 31
0.0
  0
LINE
  5
180
330
30
100
AcDbEntity
  8
1
100
AcDbLine
 10
63.02512
 20
-0.596762650986
 30
0.0
 11
63.01616
 21
-0.599921799967
 31
0.0
  0
LINE
  5
181
330
30
100
AcDbEntity
  8
1
100
AcDbLine
 10
63.01616
 20
-0.599921799967
 30
0.0
 11
63.0072
 21
-0.602932307069
 31
0.0
  0
LINE
  5
182
330
30
100
AcDbEntity
  8
1
100
AcDbLine
 10
63.0072
 20
-0.602932307069
 30
0.0
 11
62.99824
 21
-0.605796578781
 31
0.0
  0
LINE
  5
183
330
30
100
AcDbEntity
  8
1
100
AcDbLine
 10
62.99824
 20
-0.605796578781
 30
0.0
 11
62.98928
 21
-0.608516890682
 31
0.0
  0
LINE
  5
184
330
30
100
AcDbEntity
  8
1
100
AcDbLine
 10
62.98928
 20
-0.608516890682
 30
0.0
 11
62.98032
 21
-0.611095395467
 31
0.0
  0
LINE
  5
185
330
30
100
AcDbEntity
  8
1
100
AcDbLine
 10
62.98032
 20
-0.611095395467
 30
0.0
 11
62.97136
 21
-0.613534130291
 31
0.0
  0
LINE
  5
186
330
30
100
AcDbEntity
  8
1
100
AcDbLine
 10
62.97136
 20
-0.613534130291
 30
0.0
 11
62.9624
 21
-0.615835023515
 31
0.0
  0
LINE
  5
187
330
30
100
AcDbEntity
  8
1
100
AcDbLine
 10
62.9624
 20
-0.615835023515
 30
0.0
 11
62.95344
 21
-0.617999900887
 31
0.0
  0
LINE
  5
188
330
30
100
AcDbEntity
  8
1
100
AcDbLine
 10
62.95344
 20
-0.617999900887
 30
0.0
 11
62.94448
 21
-0.62003049123
 31
0.0
  0
LINE
  5
189
330
30
100
AcDbEntity
  8
1
100
AcDbLine
 10
62.94448
 20
-0.62003049123
 30
0.0
 11
62.93552
 21
-0.621928431666
 31
0.0
  0
LINE
  5
18A
330
30
100
AcDbEntity
  8
1
100
AcDbLine
 10
62.93552
 20
-0.621928431666
 30
0.0
 11
62.92656
 21
-0.623695272436
 31
0.0
  0
LINE
  5
18B
330
30
100
AcDbEntity
  8
1
100
AcDbLine
 10
62.92656
 20
-0.623695272436
 30
0.0
 11
62.9176
 21
-0.625332481327
 31
0.0
  0
LINE
  5
18C
330
30
100
AcDbEntity
  8
1
100
AcDbLine
 10
62.9176
 20
-0.625332481327
 30
0.0
 11
62.90864
 21
-0.62684144776
 31
0.0
  0
LINE
  5
18D
330
30
100
AcDbEntity
  8
1
100
AcDbLine
 10
62.90864
 20
-0.62684144776
 30
0.0
 11
62.89968
 21
-0.62822348656
 31
0.0
  0
LINE
  5
18E
330
30
100
AcDbEntity
  8
1
100
AcDbLine
 10
62.89968
 20
-0.62822348656
 30
0.0
 11
62.89072
 21
-0.629479841428
 31
0.0
  0
LINE
  5
18F
330
30
100
AcDbEntity
  8
1
100
AcDbLine
 10
62.89072
 20
-0.629479841428
 30
0.0
 11
62.88176
 21
-0.630611688148
 31
0.0
  0
LINE
  5
190
330
30
100
AcDbEntity
  8
1
100
AcDbLine
 10
62.88176
 20
-0.630611688148
 30
0.0
 11
62.8728
 21
-0.631620137545
 31
0.0
  0
LINE
  5
191
330
30
100
AcDbEntity
  8
1
100
AcDbLine
 10
62.8728
 20
-0.631620137545
 30
0.0
 11
62.86384
 21
-0.632506238212
 31
0.0
  0
LINE
  5
192
330
30
100
AcDbEntity
  8
1
100
AcDbLine
 10
62.86384
 20
-0.632506238212
 30
0.0
 11
62.85488
 21
-0.633270979026
 31
0.0
  0
LINE
  5
193
330
30
100
AcDbEntity
  8
1
100
AcDbLine
 10
62.85488
 20
-0.633270979026
 30
0.0
 11
62.84592
 21
-0.633915291466
 31
0.0
  0
LINE
  5
194
330
30
100
AcDbEntity
  8
1
100
AcDbLine
 10
62.84592
 20
-0.633915291466
 30
0.0
 11
62.83696
 21
-0.634440051748
 31
0.0
  0
LINE
  5
195
330
30
100
AcDbEntity
  8
1
100
AcDbLine
 10
62.83696
 20
-0.634440051748
 30
0.0
 11
62.828
 21
-0.634846082783
 31
0.0
  0
LINE
  5
196
330
30
100
AcDbEntity
  8
1
100
AcDbLine
 10
62.828
 20
-0.634846082783
 30
0.0
 11
62.81904
 21
-0.635134155985
 31
0.0
  0
LINE
  5
197
330
30
100
AcDbEntity
  8
1
100
AcDbLine
 10
62.81904
 20
-0.635134155985
 30
0.0
 11
62.81008
 21
-0.635304992921
 31
0.0
  0
LINE
  5
198
330
30
100
AcDbEntity
  8
1
100
AcDbLine
 10
62.81008
 20
-0.635304992921
 30
0.0
 11
62.80112
 21
-0.635359266819
 31
0.0
  0
LINE
  5
199
330
30
100
AcDbEntity
  8
1
100
AcDbLine
 10
62.80112
 20
-0.635359266819
 30
0.0
 11
62.79216
 21
-0.635297603949
 31
0.0
  0
LINE
  5
19A
330
30
100
AcDbEntity
  8
1
100
AcDbLine
 10
62.79216
 20
-0.635297603949
 30
0.0
 11
62.7832
 21
-0.63512058487
 31
0.0
  0
LINE
  5
19B
330
30
100
AcDbEntity
  8
1
100
AcDbLine
 10
62.7832
 20
-0.63512058487
 30
0.0
 11
62.77424
 21
-0.634828745567
 31
0.0
  0
LINE
  5
19C
330
30
100
AcDbEntity
  8
1
100
AcDbLine
 10
62.77424
 20
-0.634828745567
 30
0.0
 11
62.76528
 21
-0.634422578462
 31
0.0
  0
LINE
  5
19D
330
30
100
AcDbEntity
  8
1
100
AcDbLine
 10
62.76528
 20
-0.634422578462
 30
0.0
 11
62.75632
 21
-0.633902533329
 31
0.0
  0
LINE
  5
19E
330
30
100
AcDbEntity
  8
1
100
AcDbLine
 10
62.75632
 20
-0.633902533329
 30
0.0
 11
62.74736
 21
-0.633269018092
 31
0.0
  0
LINE
  5
19F
330
30
100
AcDbEntity
  8
1
100
AcDbLine
 10
62.74736
 20
-0.633269018092
 30
0.0
 11
62.7384
 21
-0.632522399535
 31
0.0
  0
LINE
  5
1A0
330
30
100
AcDbEntity
  8
1
100
AcDbLine
 10
62.7384
 20
-0.632522399535
 30
0.0
 11
62.72944
 21
-0.631663003903
 31
0.0
  0
LINE
  5
1A1
330
30
100
AcDbEntity
  8
1
100
AcDbLine
 10
62.72944
 20
-0.631663003903
 30
0.0
 11
62.72048
 21
-0.63069111742
 31
0.0
  0
LINE
  5
1A2
330
30
100
AcDbEntity
  8
1
100
AcDbLine
 10
62.72048
 20
-0.63069111742
 30
0.0
 11
62.71152
 21
-0.629606986703
 31
0.0
  0
LINE
  5
1A3
330
30
100
AcDbEntity
  8
1
100
AcDbLine
 10
62.71152
 20
-0.629606986703
 30
0.0
 11
62.70256
 21
-0.628418642894
 31
0.0
  0
LINE
  5
1A4
330
30
100
AcDbEntity
  8
1
100
AcDbLine
 10
62.70256
 20
-0.628418642894
 30
0.0
 11
62.6936
 21
-0.627204398236
 31
0.0
  0
LINE
  5
1A5
330
30
100
AcDbEntity
  8
1
100
AcDbLine
 10
62.6936
 20
-0.627204398236
 30
0.0
 11
62.68464
 21
-0.625984419168
 31
0.0
  0
LINE
  5
1A6
330
30
100
AcDbEntity
  8
1
100
AcDbLine
 10
62.68464
 20
-0.625984419168
 30
0.0
 11
62.67568
 21
-0.624758716845
 31
0.0
  0
LINE
  5
1A7
330
30
100
AcDbEntity
  8
1
100
AcDbLine
 10
62.67568
 20
-0.624758716845
 30
0.0
 11
62.66672
 21
-0.623527302473
 31
0.0
  0
LINE
  5
1A8
330
30
100
AcDbEntity
  8
1
100
AcDbLine
 10
62.66672
 20
-0.623527302473
 30
0.0
 11
62.65776
 21
-0.622290187311
 31
0.0
  0
LINE
  5
1A9
330
30
100
AcDbEntity
  8
1
100
AcDbLine
 10
62.65776
 20
-0.622290187311
 30
0.0
 11
62.6488
 21
-0.62104738267
 31
0.0
  0
LINE
  5
1AA
330
30
100
AcDbEntity
  8
1
100
AcDbLine
 10
62.6488
 20
-0.62104738267
 30
0.0
 11
62.63984
 21
-0.619798899911
 31
0.0
  0
LINE
  5
1AB
330
30
100
AcDbEntity
  8
1
100
AcDbLine
 10
62.63984
 20
-0.619798899911
 30
0.0
 11
62.63088
 21
-0.618544750451
 31
0.0
  0
LINE
  5
1AC
330
30
100
AcDbEntity
  8
1
100
AcDbLine
 10
62.63088
 20
-0.618544750451
 30
0.0
 11
62.62192
 21
-0.617284945754
 31
0.0
  0
LINE
  5
1AD
330
30
100
AcDbEntity
  8
1
100
AcDbLine
 10
62.62192
 20
-0.617284945754
 30
0.0
 11
62.61296
 21
-0.61601949734
 31
0.0
  0
LINE
  5
1AE
330
30
100
AcDbEntity
  8
1
100
AcDbLine
 10
62.61296
 20
-0.61601949734
 30
0.0
 11
62.604
 21
-0.614748416778
 31
0.0
  0
LINE
  5
1AF
330
30
100
AcDbEntity
  8
1
100
AcDbLine
 10
62.604
 20
-0.614748416778
 30
0.0
 11
62.59504
 21
-0.61347171569
 31
0.0
  0
LINE
  5
1B0
330
30
100
AcDbEntity
  8
1
100
AcDbLine
 10
62.59504
 20
-0.61347171569
 30
0.0
 11
62.58608
 21
-0.612189405748
 31
0.0
  0
LINE
  5
1B1
330
30
100
AcDbEntity
  8
1
100
AcDbLine
 10
62.58608
 20
-0.612189405748
 30
0.0
 11
62.57712
 21
-0.610901498675
 31
0.0
  0
LINE
  5
1B2
330
30
100
AcDbEntity
  8
1
100
AcDbLine
 10
62.57712
 20
-0.610901498675
 30
0.0
 11
62.56816
 21
-0.609608006248
 31
0.0
  0
LINE
  5
1B3
330
30
100
AcDbEntity
  8
1
100
AcDbLine
 10
62.56816
 20
-0.609608006248
 30
0.0
 11
62.5592
 21
-0.608308940292
 31
0.0
  0
LINE
  5
1B4
330
30
100
AcDbEntity
  8
1
100
AcDbLine
 10
62.5592
 20
-0.608308940292
 30
0.0
 11
62.55024
 21
-0.607004312684
 31
0.0
  0
LINE
  5
1B5
330
30
100
AcDbEntity
  8
1
100
AcDbLine
 10
62.55024
 20
-0.607004312684
 30
0.0
 11
62.54128
 21
-0.605694135352
 31
0.0
  0
LINE
  5
1B6
330
30
100
AcDbEntity
  8
1
100
AcDbLine
 10
62.54128
 20
-0.605694135352
 30
0.0
 11
62.53232
 21
-0.604378420275
 31
0.0
  0
LINE
  5
1B7
330
30
100
AcDbEntity
  8
1
100
AcDbLine
 10
62.53232
 20
-0.604378420275
 30
0.0
 11
62.52336
 21
-0.603057179483
 31
0.0
  0
LINE
  5
1B8
330
30
100
AcDbEntity
  8
1
100
AcDbLine
 10
62.52336
 20
-0.603057179483
 30
0.0
 11
62.5144
 21
-0.601730425055
 31
0.0
  0
LINE
  5
1B9
330
30
100
AcDbEntity
  8
1
100
AcDbLine
 10
62.5144
 20
-0.601730425055
 30
0.0
 11
62.50544
 21
-0.600398169121
 31
0.0
  0
LINE
  5
1BA
330
30
100
AcDbEntity
  8
1
100
AcDbLine
 10
62.50544
 20
-0.600398169121
 30
0.0
 11
62.49648
 21
-0.599060423862
 31
0.0
  0
LINE
  5
1BB
330
30
100
AcDbEntity
  8
1
100
AcDbLine
 10
62.49648
 20
-0.599060423862
 30
0.0
 11
62.48752
 21
-0.597717201509
 31
0.0
  0
LINE
  5
1BC
330
30
100
AcDbEntity
  8
1
100
AcDbLine
 10
62.48752
 20
-0.597717201509
 30
0.0
 11
62.47856
 21
-0.596368514342
 31
0.0
  0
LINE
  5
1BD
330
30
100
AcDbEntity
  8
1
100
AcDbLine
 10
62.47856
 20
-0.596368514342
 30
0.0
 11
62.4696
 21
-0.595014374693
 31
0.0
  0
LINE
  5
1BE
330
30
100
AcDbEntity
  8
1
100
AcDbLine
 10
62.4696
 20
-0.595014374693
 30
0.0
 11
62.46064
 21
-0.593654794941
 31
0.0
  0
LINE
  5
1BF
330
30
100
AcDbEntity
  8
1
100
AcDbLine
 10
62.46064
 20
-0.593654794941
 30
0.0
 11
62.45168
 21
-0.592289787518
 31
0.0
  0
LINE
  5
1C0
330
30
100
AcDbEntity
  8
1
100
AcDbLine
 10
62.45168
 20
-0.592289787518
 30
0.0
 11
62.44272
 21
-0.590919364903
 31
0.0
  0
LINE
  5
1C1
330
30
100
AcDbEntity
  8
1
100
AcDbLine
 10
62.44272
 20
-0.590919364903
 30
0.0
 11
62.43376
 21
-0.589543539627
 31
0.0
  0
LINE
  5
1C2
330
30
100
AcDbEntity
  8
1
100
AcDbLine
 10
62.43376
 20
-0.589543539627
 30
0.0
 11
62.4248
 21
-0.588162324266
 31
0.0
  0
LINE
  5
1C3
330
30
100
AcDbEntity
  8
1
100
AcDbLine
 10
62.4248
 20
-0.588162324266
 30
0.0
 11
62.41584
 21
-0.586775731451
 31
0.0
  0
LINE
  5
1C4
330
30
100
AcDbEntity
  8
1
100
AcDbLine
 10
62.41584
 20
-0.586775731451
 30
0.0
 11
62.40688
 21
-0.585383773858
 31
0.0
  0
LINE
  5
1C5
330
30
100
AcDbEntity
  8
1
100
AcDbLine
 10
62.4
 20
-0.794
 30
0.0
 11
62.4
 21
0.794
 31
0.0
  0
LINE
  5
1C6
330
30
100
AcDbEntity
  8
1
100
AcDbLine
 10
62.4
 20
0.72
 30
0.0
 11
62.4
 21
-0.72
 31
0.0
  0
LINE
  5
1C7
330
30
100
AcDbEntity
  8
1
100
AcDbLine
 10
62.40688
 20
-0.69953002097
 30
0.0
 11
62.41584
 21
-0.700598014014
 31
0.0
  0
LINE
  5
1C8
330
30
100
AcDbEntity
  8
1
100
AcDbLine
 10
62.41584
 20
-0.700598014014
 30
0.0
 11
62.4248
 21
-0.701659601625
 31
0.0
  0
LINE
  5
1C9
330
30
100
AcDbEntity
  8
1
100
AcDbLine
 10
62.4248
 20
-0.701659601625
 30
0.0
 11
62.43376
 21
-0.702714774098
 31
0.0
  0
LINE
  5
1CA
330
30
100
AcDbEntity
  8
1
100
AcDbLine
 10
62.43376
 20
-0.702714774098
 30
0.0
 11
62.44272
 21
-0.703763521784
 31
0.0
  0
LINE
  5
1CB
330
30
100
AcDbEntity
  8
1
100
AcDbLine
 10
62.44272
 20
-0.703763521784
 30
0.0
 11
62.45168
 21
-0.704805835095
 31
0.0
  0
LINE
  5
1CC
330
30
100
AcDbEntity
  8
1
100
AcDbLine
 10
62.45168
 20
-0.704805835095
 30
0.0
 11
62.46064
 21
-0.705841704503
 31
0.0
  0
LINE
  5
1CD
330
30
100
AcDbEntity
  8
1
100
AcDbLine
 10
62.46064
 20
-0.705841704503
 30
0.0
 11
62.4696
 21
-0.706871120535
 31
0.0
  0
LINE
  5
1CE
330
30
100
AcDbEntity
  8
1
100
AcDbLine
 10
62.4696
 20
-0.706871120535
 30
0.0
 11
62.47856
 21
-0.707894073781
 31
0.0
  0
LINE
  5
1CF
330
30
100
AcDbEntity
  8
1
100
AcDbLine
 10
62.47856
 20
-0.707894073781
 30
0.0
 11
62.48752
 21
-0.708910554887
 31
0.0
  0
LINE
  5
1D0
330
30
100
AcDbEntity
  8
1
100
AcDbLine
 10
62.48752
 20
-0.708910554887
 30
0.0
 11
62.49648
 21
-0.70992055456
 31
0.0
  0
LINE
  5
1D1
330
30
100
AcDbEntity
  8
1
100
AcDbLine
 10
62.49648
 20
-0.70992055456
 30
0.0
 11
62.50544
 21
-0.710924063567
 31
0.0
  0
LINE
  5
1D2
330
30
100
AcDbEntity
  8
1
100
AcDbLine
 10
62.50544
 20
-0.710924063567
 30
0.0
 11
62.5144
 21
-0.711921072731
 31
0.0
  0
LINE
  5
1D3
330
30
100
AcDbEntity
  8
1
100
AcDbLine
 10
62.5144
 20
-0.711921072731
 30
0.0
 11
62.52336
 21
-0.712911572937
 31
0.0
  0
LINE
  5
1D4
330
30
100
AcDbEntity
  8
1
100
AcDbLine
 10
62.52336
 20
-0.712911572937
 30
0.0
 11
62.53232
 21
-0.71389555513
 31
0.0
  0
LINE
  5
1D5
330
30
100
AcDbEntity
  8
1
100
AcDbLine
 10
62.53232
 20
-0.71389555513
 30
0.0
 11
62.54128
 21
-0.714873010314
 31
0.0
  0
LINE
  5
1D6
330
30
100
AcDbEntity
  8
1
100
AcDbLine
 10
62.54128
 20
-0.714873010314
 30
0.0
 11
62.55024
 21
-0.71584392955
 31
0.0
  0
LINE
  5
1D7
330
30
100
AcDbEntity
  8
1
100
AcDbLine
 10
62.55024
 20
-0.71584392955
 30
0.0
 11
62.5592
 21
-0.716808303964
 31
0.0
  0
LINE
  5
1D8
330
30
100
AcDbEntity
  8
1
100
AcDbLine
 10
62.5592
 20
-0.716808303964
 30
0.0
 11
62.56816
 21
-0.717766124736
 31
0.0
  0
LINE
  5
1D9
330
30
100
AcDbEntity
  8
1
100
AcDbLine
 10
62.56816
 20
-0.717766124736
 30
0.0
 11
62.57712
 21
-0.718717383111
 31
0.0
  0
LINE
  5
1DA
330
30
100
AcDbEntity
  8
1
100
AcDbLine
 10
62.57712
 20
-0.718717383111
 30
0.0
 11
62.58608
 21
-0.719662070392
 31
0.0
  0
LINE
  5
1DB
330
30
100
AcDbEntity
  8
1
100
AcDbLine
 10
62.58608
 20
-0.719662070392
 30
0.0
 11
62.59504
 21
-0.72060017794
 31
0.0
  0
LINE
  5
1DC
330
30
100
AcDbEntity
  8
1
100
AcDbLine
 10
62.59504
 20
-0.72060017794
 30
0.0
 11
62.604
 21
-0.721531697179
 31
0.0
  0
LINE
  5
1DD
330
30
100
AcDbEntity
  8
1
100
AcDbLine
 10
62.604
 20
-0.721531697179
 30
0.0
 11
62.61296
 21
-0.722456619593
 31
0.0
  0
LINE
  5
1DE
330
30
100
AcDbEntity
  8
1
100
AcDbLine
 10
62.61296
 20
-0.722456619593
 30
0.0
 11
62.62192
 21
-0.723374936725
 31
0.0
  0
LINE
  5
1DF
330
30
100
AcDbEntity
  8
1
100
AcDbLine
 10
62.62192
 20
-0.723374936725
 30
0.0
 11
62.63088
 21
-0.724286640178
 31
0.0
  0
LINE
  5
1E0
330
30
100
AcDbEntity
  8
1
100
AcDbLine
 10
62.63088
 20
-0.724286640178
 30
0.0
 11
62.63984
 21
-0.725191721619
 31
0.0
  0
LINE
  5
1E1
330
30
100
AcDbEntity
  8
1
100
AcDbLine
 10
62.63984
 20
-0.725191721619
 30
0.0
 11
62.6488
 21
-0.72609017277
 31
0.0
  0
LINE
  5
1E2
330
30
100
AcDbEntity
  8
1
100
AcDbLine
 10
62.6488
 20
-0.72609017277
 30
0.0
 11
62.65776
 21
-0.726981985419
 31
0.0
  0
LINE
  5
1E3
330
30
100
AcDbEntity
  8
1
100
AcDbLine
 10
62.65776
 20
-0.726981985419
 30
0.0
 11
62.66672
 21
-0.727867151412
 31
0.0
  0
LINE
  5
1E4
330
30
100
AcDbEntity
  8
1
100
AcDbLine
 10
62.66672
 20
-0.727867151412
 30
0.0
 11
62.67568
 21
-0.728745662655
 31
0.0
  0
LINE
  5
1E5
330
30
100
AcDbEntity
  8
1
100
AcDbLine
 10
62.67568
 20
-0.728745662655
 30
0.0
 11
62.68464
 21
-0.729617511116
 31
0.0
  0
LINE
  5
1E6
330
30
100
AcDbEntity
  8
1
100
AcDbLine
 10
62.68464
 20
-0.729617511116
 30
0.0
 11
62.6936
 21
-0.730482688825
 31
0.0
  0
LINE
  5
1E7
330
30
100
AcDbEntity
  8
1
100
AcDbLine
 10
62.6936
 20
-0.730482688825
 30
0.0
 11
62.70256
 21
-0.731341187871
 31
0.0
  0
LINE
  5
1E8
330
30
100
AcDbEntity
  8
1
100
AcDbLine
 10
62.70256
 20
-0.731341187871
 30
0.0
 11
62.71152
 21
-0.732173534497
 31
0.0
  0
LINE
  5
1E9
330
30
100
AcDbEntity
  8
1
100
AcDbLine
 10
62.71152
 20
-0.732173534497
 30
0.0
 11
62.72048
 21
-0.732904108869
 31
0.0
  0
LINE
  5
1EA
330
30
100
AcDbEntity
  8
1
100
AcDbLine
 10
62.72048
 20
-0.732904108869
 30
0.0
 11
62.72944
 21
-0.733525182999
 31
0.0
  0
LINE
  5
1EB
330
30
100
AcDbEntity
  8
1
100
AcDbLine
 10
62.72944
 20
-0.733525182999
 30
0.0
 11
62.7384
 21
-0.734036550193
 31
0.0
  0
LINE
  5
1EC
330
30
100
AcDbEntity
  8
1
100
AcDbLine
 10
62.7384
 20
-0.734036550193
 30
0.0
 11
62.74736
 21
-0.734437968051
 31
0.0
  0
LINE
  5
1ED
330
30
100
AcDbEntity
  8
1
100
AcDbLine
 10
62.74736
 20
-0.734437968051
 30
0.0
 11
62.75632
 21
-0.734729158138
 31
0.0
  0
LINE
  5
1EE
330
30
100
AcDbEntity
  8
1
100
AcDbLine
 10
62.75632
 20
-0.734729158138
 30
0.0
 11
62.76528
 21
-0.734909805583
 31
0.0
  0
LINE
  5
1EF
330
30
100
AcDbEntity
  8
1
100
AcDbLine
 10
62.76528
 20
-0.734909805583
 30
0.0
 11
62.77424
 21
-0.734979558592
 31
0.0
  0
LINE
  5
1F0
330
30
100
AcDbEntity
  8
1
100
AcDbLine
 10
62.77424
 20
-0.734979558592
 30
0.0
 11
62.7832
 21
-0.734938027882
 31
0.0
  0
LINE
  5
1F1
330
30
100
AcDbEntity
  8
1
100
AcDbLine
 10
62.7832
 20
-0.734938027882
 30
0.0
 11
62.79216
 21
-0.734784786025
 31
0.0
  0
LINE
  5
1F2
330
30
100
AcDbEntity
  8
1
100
AcDbLine
 10
62.79216
 20
-0.734784786025
 30
0.0
 11
62.80112
 21
-0.734519366705
 31
0.0
  0
LINE
  5
1F3
330
30
100
AcDbEntity
  8
1
100
AcDbLine
 10
62.80112
 20
-0.734519366705
 30
0.0
 11
62.81008
 21
-0.734141263882
 31
0.0
  0
LINE
  5
1F4
330
30
100
AcDbEntity
  8
1
100
AcDbLine
 10
62.81008
 20
-0.734141263882
 30
0.0
 11
62.81904
 21
-0.733649930861
 31
0.0
  0
LINE
  5
1F5
330
30
100
AcDbEntity
  8
1
100
AcDbLine
 10
62.81904
 20
-0.733649930861
 30
0.0
 11
62.828
 21
-0.733044779258
 31
0.0
  0
LINE
  5
1F6
330
30
100
AcDbEntity
  8
1
100
AcDbLine
 10
62.828
 20
-0.733044779258
 30
0.0
 11
62.83696
 21
-0.732325177863
 31
0.0
  0
LINE
  5
1F7
330
30
100
AcDbEntity
  8
1
100
AcDbLine
 10
62.83696
 20
-0.732325177863
 30
0.0
 11
62.84592
 21
-0.731490451386
 31
0.0
  0
LINE
  5
1F8
330
30
100
AcDbEntity
  8
1
100
AcDbLine
 10
62.84592
 20
-0.731490451386
 30
0.0
 11
62.85488
 21
-0.73053987909
 31
0.0
  0
LINE
  5
1F9
330
30
100
AcDbEntity
  8
1
100
AcDbLine
 10
62.85488
 20
-0.73053987909
 30
0.0
 11
62.86384
 21
-0.729472693297
 31
0.0
  0
LINE
  5
1FA
330
30
100
AcDbEntity
  8
1
100
AcDbLine
 10
62.86384
 20
-0.729472693297
 30
0.0
 11
62.8728
 21
-0.72828807776
 31
0.0
  0
LINE
  5
1FB
330
30
100
AcDbEntity
  8
1
100
AcDbLine
 10
62.8728
 20
-0.72828807776
 30
0.0
 11
62.88176
 21
-0.726985165894
 31
0.0
  0
LINE
  5
1FC
330
30
100
AcDbEntity
  8
1
100
AcDbLine
 10
62.88176
 20
-0.726985165894
 30
0.0
 11
62.89072
 21
-0.725563038856
 31
0.0
  0
LINE
  5
1FD
330
30
100
AcDbEntity
  8
1
100
AcDbLine
 10
62.89072
 20
-0.725563038856
 30
0.0
 11
62.89968
 21
-0.724020723456
 31
0.0
  0
LINE
  5
1FE
330
30
100
AcDbEntity
  8
1
100
AcDbLine
 10
62.89968
 20
-0.724020723456
 30
0.0
 11
62.90864
 21
-0.722357189908
 31
0.0
  0
LINE
  5
1FF
330
30
100
AcDbEntity
  8
1
100
AcDbLine
 10
62.90864
 20
-0.722357189908
 30
0.0
 11
62.9176
 21
-0.720571349374
 31
0.0
  0
LINE
  5
200
330
30
100
AcDbEntity
  8
1
100
AcDbLine
 10
62.9176
 20
-0.720571349374
 30
0.0
 11
62.92656
 21
-0.718662051322
 31
0.0
  0
LINE
  5
201
330
30
100
AcDbEntity
  8
1
100
AcDbLine
 10
62.92656
 20
-0.718662051322
 30
0.0
 11
62.93552
 21
-0.716628080653
 31
0.0
  0
LINE
  5
202
330
30
100
AcDbEntity
  8
1
100
AcDbLine
 10
62.93552
 20
-0.716628080653
 30
0.0
 11
62.94448
 21
-0.7144681546
 31
0.0
  0
LINE
  5
203
330
30
100
AcDbEntity
  8
1
100
AcDbLine
 10
62.94448
 20
-0.7144681546
 30
0.0
 11
62.95344
 21
-0.712180919359
 31
0.0
  0
LINE
  5
204
330
30
100
AcDbEntity
  8
1
100
AcDbLine
 10
62.95344
 20
-0.712180919359
 30
0.0
 11
62.9624
 21
-0.70976494645
 31
0.0
  0
LINE
  5
205
330
30
100
AcDbEntity
  8
1
100
AcDbLine
 10
62.9624
 20
-0.70976494645
 30
0.0
 11
62.97136
 21
-0.707218728766
 31
0.0
  0
LINE
  5
206
330
30
100
AcDbEntity
  8
1
100
AcDbLine
 10
62.97136
 20
-0.707218728766
 30
0.0
 11
62.98032
 21
-0.704540676287
 31
0.0
  0
LINE
  5
207
330
30
100
AcDbEntity
  8
1
100
AcDbLine
 10
62.98032
 20
-0.704540676287
 30
0.0
 11
62.98928
 21
-0.701729111436
 31
0.0
  0
LINE
  5
208
330
30
100
AcDbEntity
  8
1
100
AcDbLine
 10
62.98928
 20
-0.701729111436
 30
0.0
 11
62.99824
 21
-0.698782264024
 31
0.0
  0
LINE
  5
209
330
30
100
AcDbEntity
  8
1
100
AcDbLine
 10
62.99824
 20
-0.698782264024
 30
0.0
 11
63.0072
 21
-0.695698265769
 31
0.0
  0
LINE
  5
20A
330
30
100
AcDbEntity
  8
1
100
AcDbLine
 10
63.0072
 20
-0.695698265769
 30
0.0
 11
63.01616
 21
-0.692475144315
 31
0.0
  0
LINE
  5
20B
330
30
100
AcDbEntity
  8
1
100
AcDbLine
 10
63.01616
 20
-0.692475144315
 30
0.0
 11
63.02512
 21
-0.689110816726
 31
0.0
  0
LINE
  5
20C
330
30
100
AcDbEntity
  8
1
100
AcDbLine
 10
63.02512
 20
-0.689110816726
 30
0.0
 11
63.03408
 21
-0.68560308239
 31
0.0
  0
LINE
  5
20D
330
30
100
AcDbEntity
  8
1
100
AcDbLine
 10
63.03408
 20
-0.68560308239
 30
0.0
 11
63.04304
 21
-0.681949615264
 31
0.0
  0
LINE
  5
20E
330
30
100
AcDbEntity
  8
1
100
AcDbLine
 10
63.04304
 20
-0.681949615264
 30
0.0
 11
63.052
 21
-0.678147955391
 31
0.0
  0
LINE
  5
20F
330
30
100
AcDbEntity
  8
1
100
AcDbLine
 10
63.052
 20
-0.678147955391
 30
0.0
 11
63.06096
 21
-0.674195499618
 31
0.0
  0
LINE
  5
210
330
30
100
AcDbEntity
  8
1
100
AcDbLine
 10
63.06096
 20
-0.674195499618
 30
0.0
 11
63.06992
 21
-0.670089491396
 31
0.0
  0
LINE
  5
211
330
30
100
AcDbEntity
  8
1
100
AcDbLine
 10
63.06992
 20
-0.670089491396
 30
0.0
 11
63.07888
 21
-0.665827009591
 31
0.0
  0
LINE
  5
212
330
30
100
AcDbEntity
  8
1
100
AcDbLine
 10
63.07888
 20
-0.665827009591
 30
0.0
 11
63.08784
 21
-0.661404956147
 31
0.0
  0
LINE
  5
213
330
30
100
AcDbEntity
  8
1
100
AcDbLine
 10
63.08784
 20
-0.661404956147
 30
0.0
 11
63.0968
 21
-0.65682004249
 31
0.0
  0
LINE
  5
214
330
30
100
AcDbEntity
  8
1
100
AcDbLine
 10
63.0968
 20
-0.65682004249
 30
0.0
 11
63.10576
 21
-0.652068774498
 31
0.0
  0
LINE
  5
215
330
30
100
AcDbEntity
  8
1
100
AcDbLine
 10
63.10576
 20
-0.652068774498
 30
0.0
 11
63.11472
 21
-0.647147435855
 31
0.0
  0
LINE
  5
216
330
30
100
AcDbEntity
  8
1
100
AcDbLine
 10
63.11472
 20
-0.647147435855
 30
0.0
 11
63.12368
 21
-0.642052069573
 31
0.0
  0
LINE
  5
217
330
30
100
AcDbEntity
  8
1
100
AcDbLine
 10
63.12368
 20
-0.642052069573
 30
0.0
 11
63.13264
 21
-0.636778457436
 31
0.0
  0
LINE
  5
218
330
30
100
AcDbEntity
  8
1
100
AcDbLine
 10
63.13264
 20
-0.636778457436
 30
0.0
 11
63.1416
 21
-0.63132209707
 31
0.0
  0
LINE
  5
219
330
30
100
AcDbEntity
  8
1
100
AcDbLine
 10
63.1416
 20
-0.63132209707
 30
0.0
 11
63.15056
 21
-0.625678176303
 31
0.0
  0
LINE
  5
21A
330
30
100
AcDbEntity
  8
1
100
AcDbLine
 10
63.15056
 20
-0.625678176303
 30
0.0
 11
63.15952
 21
-0.619841544414
 31
0.0
  0
LINE
  5
21B
330
30
100
AcDbEntity
  8
1
100
AcDbLine
 10
63.15952
 20
-0.619841544414
 30
0.0
 11
63.16848
 21
-0.613806679795
 31
0.0
  0
LINE
  5
21C
330
30
100
AcDbEntity
  8
1
100
AcDbLine
 10
63.16848
 20
-0.613806679795
 30
0.0
 11
63.17744
 21
-0.607567653476
 31
0.0
  0
LINE
  5
21D
330
30
100
AcDbEntity
  8
1
100
AcDbLine
 10
63.17744
 20
-0.607567653476
 30
0.0
 11
63.1864
 21
-0.601118087844
 31
0.0
  0
LINE
  5
21E
330
30
100
AcDbEntity
  8
1
100
AcDbLine
 10
63.1864
 20
-0.601118087844
 30
0.0
 11
63.19536
 21
-0.594451109755
 31
0.0
  0
LINE
  5
21F
330
30
100
AcDbEntity
  8
1
100
AcDbLine
 10
63.19536
 20
-0.594451109755
 30
0.0
 11
63.20432
 21
-0.587559297103
 31
0.0
  0
LINE
  5
220
330
30
100
AcDbEntity
  8
1
100
AcDbLine
 10
63.20432
 20
-0.587559297103
 30
0.0
 11
63.21328
 21
-0.580434617668
 31
0.0
  0
LINE
  5
221
330
30
100
AcDbEntity
  8
1
100
AcDbLine
 10
63.21328
 20
-0.580434617668
 30
0.0
 11
63.22224
 21
-0.573068358865
 31
0.0
  0
LINE
  5
222
330
30
100
AcDbEntity
  8
1
100
AcDbLine
 10
63.22224
 20
-0.573068358865
 30
0.0
 11
63.2312
 21
-0.56545104667
 31
0.0
  0
LINE
  5
223
330
30
100
AcDbEntity
  8
1
100
AcDbLine
 10
63.2312
 20
-0.56545104667
 30
0.0
 11
63.24016
 21
-0.557572351623
 31
0.0
  0
LINE
  5
224
330
30
100
AcDbEntity
  8
1
100
AcDbLine
 10
63.24016
 20
-0.557572351623
 30
0.0
 11
63.24912
 21
-0.549420979299
 31
0.0
  0
LINE
  5
225
330
30
100
AcDbEntity
  8
1
100
AcDbLine
 10
63.24912
 20
-0.549420979299
 30
0.0
 11
63.25808
 21
-0.540984542
 31
0.0
  0
LINE
  5
226
330
30
100
AcDbEntity
  8
1
100
AcDbLine
 10
63.25808
 20
-0.540984542
 30
0.0
 11
63.26704
 21
-0.532249407584
 31
0.0
  0
LINE
  5
227
330
30
100
AcDbEntity
  8
1
100
AcDbLine
 10
63.26704
 20
-0.532249407584
 30
0.0
 11
63.276
 21
-0.523200520243
 31
0.0
  0
LINE
  5
228
330
30
100
AcDbEntity
  8
1
100
AcDbLine
 10
63.276
 20
-0.523200520243
 30
0.0
 11
63.28496
 21
-0.513821186634
 31
0.0
  0
LINE
  5
229
330
30
100
AcDbEntity
  8
1
100
AcDbLine
 10
63.28496
 20
-0.513821186634
 30
0.0
 11
63.29392
 21
-0.504092818787
 31
0.0
  0
LINE
  5
22A
330
30
100
AcDbEntity
  8
1
100
AcDbLine
 10
63.29392
 20
-0.504092818787
 30
0.0
 11
63.30288
 21
-0.493994622665
 31
0.0
  0
LINE
  5
22B
330
30
100
AcDbEntity
  8
1
100
AcDbLine
 10
63.30288
 20
-0.493994622665
 30
0.0
 11
63.31184
 21
-0.483503217658
 31
0.0
  0
LINE
  5
22C
330
30
100
AcDbEntity
  8
1
100
AcDbLine
 10
63.31184
 20
-0.483503217658
 30
0.0
 11
63.3208
 21
-0.47259216737
 31
0.0
  0
LINE
  5
22D
330
30
100
AcDbEntity
  8
1
100
AcDbLine
 10
63.3208
 20
-0.47259216737
 30
0.0
 11
63.32976
 21
-0.4612313951
 31
0.0
  0
LINE
  5
22E
330
30
100
AcDbEntity
  8
1
100
AcDbLine
 10
63.32976
 20
-0.4612313951
 30
0.0
 11
63.33872
 21
-0.449386447509
 31
0.0
  0
LINE
  5
22F
330
30
100
AcDbEntity
  8
1
100
AcDbLine
 10
63.33872
 20
-0.449386447509
 30
0.0
 11
63.34768
 21
-0.437017555474
 31
0.0
  0
LINE
  5
230
330
30
100
AcDbEntity
  8
1
100
AcDbLine
 10
63.34768
 20
-0.437017555474
 30
0.0
 11
63.35664
 21
-0.424078419658
 31
0.0
  0
LINE
  5
231
330
30
100
AcDbEntity
  8
1
100
AcDbLine
 10
63.35664
 20
-0.424078419658
 30
0.0
 11
63.3656
 21
-0.410514615733
 31
0.0
  0
LINE
  5
232
330
30
100
AcDbEntity
  8
1
100
AcDbLine
 10
63.3656
 20
-0.410514615733
 30
0.0
 11
63.37456
 21
-0.396261463465
 31
0.0
  0
LINE
  5
233
330
30
100
AcDbEntity
  8
1
100
AcDbLine
 10
63.37456
 20
-0.396261463465
 30
0.0
 11
63.38352
 21
-0.381241122774
 31
0.0
  0
LINE
  5
234
330
30
100
AcDbEntity
  8
1
100
AcDbLine
 10
63.38352
 20
-0.381241122774
 30
0.0
 11
63.39248
 21
-0.365358546104
 31
0.0
  0
LINE
  5
235
330
30
100
AcDbEntity
  8
1
100
AcDbLine
 10
63.39248
 20
-0.365358546104
 30
0.0
 11
63.40144
 21
-0.348495687635
 31
0.0
  0
LINE
  5
236
330
30
100
AcDbEntity
  8
1
100
AcDbLine
 10
63.40144
 20
-0.348495687635
 30
0.0
 11
63.4104
 21
-0.330502962159
 31
0.0
  0
LINE
  5
237
330
30
100
AcDbEntity
  8
1
100
AcDbLine
 10
63.4104
 20
-0.330502962159
 30
0.0
 11
63.41936
 21
-0.311186183558
 31
0.0
  0
LINE
  5
238
330
30
100
AcDbEntity
  8
1
100
AcDbLine
 10
63.41936
 20
-0.311186183558
 30
0.0
 11
63.42832
 21
-0.290312527214
 31
0.0
  0
LINE
  5
239
330
30
100
AcDbEntity
  8
1
100
AcDbLine
 10
63.42832
 20
-0.290312527214
 30
0.0
 11
63.43728
 21
-0.268405151058
 31
0.0
  0
LINE
  5
23A
330
30
100
AcDbEntity
  8
1
100
AcDbLine
 10
63.43728
 20
-0.268405151058
 30
0.0
 11
63.44624
 21
-0.245883562122
 31
0.0
  0
LINE
  5
23B
330
30
100
AcDbEntity
  8
1
100
AcDbLine
 10
63.44624
 20
-0.245883562122
 30
0.0
 11
63.4552
 21
-0.222789625052
 31
0.0
  0
LINE
  5
23C
330
30
100
AcDbEntity
  8
1
100
AcDbLine
 10
63.4552
 20
-0.222789625052
 30
0.0
 11
63.46416
 21
-0.199341674664
 31
0.0
  0
LINE
  5
23D
330
30
100
AcDbEntity
  8
1
100
AcDbLine
 10
63.480004669112
 20
-0.177067140352
 30
0.0
 11
63.47312
 21
-0.202273267942
 31
0.0
  0
LINE
  5
23E
330
30
100
AcDbEntity
  8
1
100
AcDbLine
 10
63.47312
 20
-0.202273267942
 30
0.0
 11
63.46416
 21
-0.230044554516
 31
0.0
  0
LINE
  5
23F
330
30
100
AcDbEntity
  8
1
100
AcDbLine
 10
63.46416
 20
-0.230044554516
 30
0.0
 11
63.4552
 21
-0.255106457736
 31
0.0
  0
LINE
  5
240
330
30
100
AcDbEntity
  8
1
100
AcDbLine
 10
63.4552
 20
-0.255106457736
 30
0.0
 11
63.44624
 21
-0.278425380568
 31
0.0
  0
LINE
  5
241
330
30
100
AcDbEntity
  8
1
100
AcDbLine
 10
63.44624
 20
-0.278425380568
 30
0.0
 11
63.43728
 21
-0.300408783376
 31
0.0
  0
LINE
  5
242
330
30
100
AcDbEntity
  8
1
100
AcDbLine
 10
63.43728
 20
-0.300408783376
 30
0.0
 11
63.42832
 21
-0.321284465215
 31
0.0
  0
LINE
  5
243
330
30
100
AcDbEntity
  8
1
100
AcDbLine
 10
63.42832
 20
-0.321284465215
 30
0.0
 11
63.41936
 21
-0.340978564029
 31
0.0
  0
LINE
  5
244
330
30
100
AcDbEntity
  8
1
100
AcDbLine
 10
63.41936
 20
-0.340978564029
 30
0.0
 11
63.4104
 21
-0.359326011087
 31
0.0
  0
LINE
  5
245
330
30
100
AcDbEntity
  8
1
100
AcDbLine
 10
63.4104
 20
-0.359326011087
 30
0.0
 11
63.40144
 21
-0.376520928952
 31
0.0
  0
LINE
  5
246
330
30
100
AcDbEntity
  8
1
100
AcDbLine
 10
63.40144
 20
-0.376520928952
 30
0.0
 11
63.39248
 21
-0.392720968833
 31
0.0
  0
LINE
  5
247
330
30
100
AcDbEntity
  8
1
100
AcDbLine
 10
63.39248
 20
-0.392720968833
 30
0.0
 11
63.38352
 21
-0.408049211869
 31
0.0
  0
LINE
  5
248
330
30
100
AcDbEntity
  8
1
100
AcDbLine
 10
63.38352
 20
-0.408049211869
 30
0.0
 11
63.37456
 21
-0.42260394791
 31
0.0
  0
LINE
  5
249
330
30
100
AcDbEntity
  8
1
100
AcDbLine
 10
63.37456
 20
-0.42260394791
 30
0.0
 11
63.3656
 21
-0.436465157979
 31
0.0
  0
LINE
  5
24A
330
30
100
AcDbEntity
  8
1
100
AcDbLine
 10
63.3656
 20
-0.436465157979
 30
0.0
 11
63.35664
 21
-0.449698965241
 31
0.0
  0
LINE
  5
24B
330
30
100
AcDbEntity
  8
1
100
AcDbLine
 10
63.35664
 20
-0.449698965241
 30
0.0
 11
63.34768
 21
-0.462360782729
 31
0.0
  0
LINE
  5
24C
330
30
100
AcDbEntity
  8
1
100
AcDbLine
 10
63.34768
 20
-0.462360782729
 30
0.0
 11
63.33872
 21
-0.474497596195
 31
0.0
  0
LINE
  5
24D
330
30
100
AcDbEntity
  8
1
100
AcDbLine
 10
63.33872
 20
-0.474497596195
 30
0.0
 11
63.32976
 21
-0.486149656115
 31
0.0
  0
LINE
  5
24E
330
30
100
AcDbEntity
  8
1
100
AcDbLine
 10
63.32976
 20
-0.486149656115
 30
0.0
 11
63.3208
 21
-0.497351755762
 31
0.0
  0
LINE
  5
24F
330
30
100
AcDbEntity
  8
1
100
AcDbLine
 10
63.3208
 20
-0.497351755762
 30
0.0
 11
63.31184
 21
-0.508134212893
 31
0.0
  0
LINE
  5
250
330
30
100
AcDbEntity
  8
1
100
AcDbLine
 10
63.31184
 20
-0.508134212893
 30
0.0
 11
63.30288
 21
-0.518523634989
 31
0.0
  0
LINE
  5
251
330
30
100
AcDbEntity
  8
1
100
AcDbLine
 10
63.30288
 20
-0.518523634989
 30
0.0
 11
63.29392
 21
-0.528543523745
 31
0.0
  0
LINE
  5
252
330
30
100
AcDbEntity
  8
1
100
AcDbLine
 10
63.29392
 20
-0.528543523745
 30
0.0
 11
63.28496
 21
-0.538214758261
 31
0.0
  0
LINE
  5
253
330
30
100
AcDbEntity
  8
1
100
AcDbLine
 10
63.28496
 20
-0.538214758261
 30
0.0
 11
63.276
 21
-0.547555985465
 31
0.0
  0
LINE
  5
254
330
30
100
AcDbEntity
  8
1
100
AcDbLine
 10
63.276
 20
-0.547555985465
 30
0.0
 11
63.26704
 21
-0.556583938652
 31
0.0
  0
LINE
  5
255
330
30
100
AcDbEntity
  8
1
100
AcDbLine
 10
63.26704
 20
-0.556583938652
 30
0.0
 11
63.25808
 21
-0.565313699703
 31
0.0
  0
LINE
  5
256
330
30
100
AcDbEntity
  8
1
100
AcDbLine
 10
63.25808
 20
-0.565313699703
 30
0.0
 11
63.24912
 21
-0.57375891671
 31
0.0
  0
LINE
  5
257
330
30
100
AcDbEntity
  8
1
100
AcDbLine
 10
63.24912
 20
-0.57375891671
 30
0.0
 11
63.24016
 21
-0.581931985941
 31
0.0
  0
LINE
  5
258
330
30
100
AcDbEntity
  8
1
100
AcDbLine
 10
63.24016
 20
-0.581931985941
 30
0.0
 11
63.2312
 21
-0.589844205051
 31
0.0
  0
LINE
  5
259
330
30
100
AcDbEntity
  8
1
100
AcDbLine
 10
63.2312
 20
-0.589844205051
 30
0.0
 11
63.22224
 21
-0.597505902894
 31
0.0
  0
LINE
  5
25A
330
30
100
AcDbEntity
  8
1
100
AcDbLine
 10
63.22224
 20
-0.597505902894
 30
0.0
 11
63.21328
 21
-0.604926550188
 31
0.0
  0
LINE
  5
25B
330
30
100
AcDbEntity
  8
1
100
AcDbLine
 10
63.21328
 20
-0.604926550188
 30
0.0
 11
63.20432
 21
-0.612114854347
 31
0.0
  0
LINE
  5
25C
330
30
100
AcDbEntity
  8
1
100
AcDbLine
 10
63.20432
 20
-0.612114854347
 30
0.0
 11
63.19536
 21
-0.619078841192
 31
0.0
  0
LINE
  5
25D
330
30
100
AcDbEntity
  8
1
100
AcDbLine
 10
63.19536
 20
-0.619078841192
 30
0.0
 11
63.1864
 21
-0.625825925683
 31
0.0
  0
LINE
  5
25E
330
30
100
AcDbEntity
  8
1
100
AcDbLine
 10
63.1864
 20
-0.625825925683
 30
0.0
 11
63.17744
 21
-0.632362973415
 31
0.0
  0
LINE
  5
25F
330
30
100
AcDbEntity
  8
1
100
AcDbLine
 10
63.17744
 20
-0.632362973415
 30
0.0
 11
63.16848
 21
-0.638696354327
 31
0.0
  0
LINE
  5
260
330
30
100
AcDbEntity
  8
1
100
AcDbLine
 10
63.16848
 20
-0.638696354327
 30
0.0
 11
63.15952
 21
-0.644831989785
 31
0.0
  0
LINE
  5
261
330
30
100
AcDbEntity
  8
1
100
AcDbLine
 10
63.15952
 20
-0.644831989785
 30
0.0
 11
63.15056
 21
-0.650775394015
 31
0.0
  0
LINE
  5
262
330
30
100
AcDbEntity
  8
1
100
AcDbLine
 10
63.15056
 20
-0.650775394015
 30
0.0
 11
63.1416
 21
-0.656531710686
 31
0.0
  0
LINE
  5
263
330
30
100
AcDbEntity
  8
1
100
AcDbLine
 10
63.1416
 20
-0.656531710686
 30
0.0
 11
63.13264
 21
-0.662105745324
 31
0.0
  0
LINE
  5
264
330
30
100
AcDbEntity
  8
1
100
AcDbLine
 10
63.13264
 20
-0.662105745324
 30
0.0
 11
63.12368
 21
-0.66750199413
 31
0.0
  0
LINE
  5
265
330
30
100
AcDbEntity
  8
1
100
AcDbLine
 10
63.12368
 20
-0.66750199413
 30
0.0
 11
63.11472
 21
-0.672724669651
 31
0.0
  0
LINE
  5
266
330
30
100
AcDbEntity
  8
1
100
AcDbLine
 10
63.11472
 20
-0.672724669651
 30
0.0
 11
63.10576
 21
-0.677777723744
 31
0.0
  0
LINE
  5
267
330
30
100
AcDbEntity
  8
1
100
AcDbLine
 10
63.10576
 20
-0.677777723744
 30
0.0
 11
63.0968
 21
-0.682664868148
 31
0.0
  0
LINE
  5
268
330
30
100
AcDbEntity
  8
1
100
AcDbLine
 10
63.0968
 20
-0.682664868148
 30
0.0
 11
63.08784
 21
-0.687389592972
 31
0.0
  0
LINE
  5
269
330
30
100
AcDbEntity
  8
1
100
AcDbLine
 10
63.08784
 20
-0.687389592972
 30
0.0
 11
63.07888
 21
-0.691955183351
 31
0.0
  0
LINE
  5
26A
330
30
100
AcDbEntity
  8
1
100
AcDbLine
 10
63.07888
 20
-0.691955183351
 30
0.0
 11
63.06992
 21
-0.696364734471
 31
0.0
  0
LINE
  5
26B
330
30
100
AcDbEntity
  8
1
100
AcDbLine
 10
63.06992
 20
-0.696364734471
 30
0.0
 11
63.06096
 21
-0.700621165174
 31
0.0
  0
LINE
  5
26C
330
30
100
AcDbEntity
  8
1
100
AcDbLine
 10
63.06096
 20
-0.700621165174
 30
0.0
 11
63.052
 21
-0.704727230278
 31
0.0
  0
LINE
  5
26D
330
30
100
AcDbEntity
  8
1
100
AcDbLine
 10
63.052
 20
-0.704727230278
 30
0.0
 11
63.04304
 21
-0.708685531782
 31
0.0
  0
LINE
  5
26E
330
30
100
AcDbEntity
  8
1
100
AcDbLine
 10
63.04304
 20
-0.708685531782
 30
0.0
 11
63.03408
 21
-0.712498529044
 31
0.0
  0
LINE
  5
26F
330
30
100
AcDbEntity
  8
1
100
AcDbLine
 10
63.03408
 20
-0.712498529044
 30
0.0
 11
63.02512
 21
-0.716168548069
 31
0.0
  0
LINE
  5
270
330
30
100
AcDbEntity
  8
1
100
AcDbLine
 10
63.02512
 20
-0.716168548069
 30
0.0
 11
63.01616
 21
-0.719697789988
 31
0.0
  0
LINE
  5
271
330
30
100
AcDbEntity
  8
1
100
AcDbLine
 10
63.01616
 20
-0.719697789988
 30
0.0
 11
63.0072
 21
-0.723088338802
 31
0.0
  0
LINE
  5
272
330
30
100
AcDbEntity
  8
1
100
AcDbLine
 10
63.0072
 20
-0.723088338802
 30
0.0
 11
62.99824
 21
-0.726342168483
 31
0.0
  0
LINE
  5
273
330
30
100
AcDbEntity
  8
1
100
AcDbLine
 10
62.99824
 20
-0.726342168483
 30
0.0
 11
62.98928
 21
-0.729461149479
 31
0.0
  0
LINE
  5
274
330
30
100
AcDbEntity
  8
1
100
AcDbLine
 10
62.98928
 20
-0.729461149479
 30
0.0
 11
62.98032
 21
-0.732447054683
 31
0.0
  0
LINE
  5
275
330
30
100
AcDbEntity
  8
1
100
AcDbLine
 10
62.98032
 20
-0.732447054683
 30
0.0
 11
62.97136
 21
-0.735301564927
 31
0.0
  0
LINE
  5
276
330
30
100
AcDbEntity
  8
1
100
AcDbLine
 10
62.97136
 20
-0.735301564927
 30
0.0
 11
62.9624
 21
-0.738026274026
 31
0.0
  0
LINE
  5
277
330
30
100
AcDbEntity
  8
1
100
AcDbLine
 10
62.9624
 20
-0.738026274026
 30
0.0
 11
62.95344
 21
-0.740622693436
 31
0.0
  0
LINE
  5
278
330
30
100
AcDbEntity
  8
1
100
AcDbLine
 10
62.95344
 20
-0.740622693436
 30
0.0
 11
62.94448
 21
-0.743092256533
 31
0.0
  0
LINE
  5
279
330
30
100
AcDbEntity
  8
1
100
AcDbLine
 10
62.94448
 20
-0.743092256533
 30
0.0
 11
62.93552
 21
-0.745436322572
 31
0.0
  0
LINE
  5
27A
330
30
100
AcDbEntity
  8
1
100
AcDbLine
 10
62.93552
 20
-0.745436322572
 30
0.0
 11
62.92656
 21
-0.747656180334
 31
0.0
  0
LINE
  5
27B
330
30
100
AcDbEntity
  8
1
100
AcDbLine
 10
62.92656
 20
-0.747656180334
 30
0.0
 11
62.9176
 21
-0.749753051497
 31
0.0
  0
LINE
  5
27C
330
30
100
AcDbEntity
  8
1
100
AcDbLine
 10
62.9176
 20
-0.749753051497
 30
0.0
 11
62.90864
 21
-0.751728093748
 31
0.0
  0
LINE
  5
27D
330
30
100
AcDbEntity
  8
1
100
AcDbLine
 10
62.90864
 20
-0.751728093748
 30
0.0
 11
62.89968
 21
-0.753582403664
 31
0.0
  0
LINE
  5
27E
330
30
100
AcDbEntity
  8
1
100
AcDbLine
 10
62.89968
 20
-0.753582403664
 30
0.0
 11
62.89072
 21
-0.755317019368
 31
0.0
  0
LINE
  5
27F
330
30
100
AcDbEntity
  8
1
100
AcDbLine
 10
62.89072
 20
-0.755317019368
 30
0.0
 11
62.88176
 21
-0.75693292299
 31
0.0
  0
LINE
  5
280
330
30
100
AcDbEntity
  8
1
100
AcDbLine
 10
62.88176
 20
-0.75693292299
 30
0.0
 11
62.8728
 21
-0.758431042938
 31
0.0
  0
LINE
  5
281
330
30
100
AcDbEntity
  8
1
100
AcDbLine
 10
62.8728
 20
-0.758431042938
 30
0.0
 11
62.86384
 21
-0.759812255995
 31
0.0
  0
LINE
  5
282
330
30
100
AcDbEntity
  8
1
100
AcDbLine
 10
62.86384
 20
-0.759812255995
 30
0.0
 11
62.85488
 21
-0.761077389259
 31
0.0
  0
LINE
  5
283
330
30
100
AcDbEntity
  8
1
100
AcDbLine
 10
62.85488
 20
-0.761077389259
 30
0.0
 11
62.84592
 21
-0.762227221927
 31
0.0
  0
LINE
  5
284
330
30
100
AcDbEntity
  8
1
100
AcDbLine
 10
62.84592
 20
-0.762227221927
 30
0.0
 11
62.83696
 21
-0.763262486946
 31
0.0
  0
LINE
  5
285
330
30
100
AcDbEntity
  8
1
100
AcDbLine
 10
62.83696
 20
-0.763262486946
 30
0.0
 11
62.828
 21
-0.764183872526
 31
0.0
  0
LINE
  5
286
330
30
100
AcDbEntity
  8
1
100
AcDbLine
 10
62.828
 20
-0.764183872526
 30
0.0
 11
62.81904
 21
-0.76499202353
 31
0.0
  0
LINE
  5
287
330
30
100
AcDbEntity
  8
1
100
AcDbLine
 10
62.81904
 20
-0.76499202353
 30
0.0
 11
62.81008
 21
-0.765687542754
 31
0.0
  0
LINE
  5
288
330
30
100
AcDbEntity
  8
1
100
AcDbLine
 10
62.81008
 20
-0.765687542754
 30
0.0
 11
62.80112
 21
-0.76627099209
 31
0.0
  0
LINE
  5
289
330
30
100
AcDbEntity
  8
1
100
AcDbLine
 10
62.80112
 20
-0.76627099209
 30
0.0
 11
62.79216
 21
-0.766742893584
 31
0.0
  0
LINE
  5
28A
330
30
100
AcDbEntity
  8
1
100
AcDbLine
 10
62.79216
 20
-0.766742893584
 30
0.0
 11
62.7832
 21
-0.767103730407
 31
0.0
  0
LINE
  5
28B
330
30
100
AcDbEntity
  8
1
100
AcDbLine
 10
62.7832
 20
-0.767103730407
 30
0.0
 11
62.77424
 21
-0.767353947717
 31
0.0
  0
LINE
  5
28C
330
30
100
AcDbEntity
  8
1
100
AcDbLine
 10
62.77424
 20
-0.767353947717
 30
0.0
 11
62.76528
 21
-0.767493953438
 31
0.0
  0
LINE
  5
28D
330
30
100
AcDbEntity
  8
1
100
AcDbLine
 10
62.76528
 20
-0.767493953438
 30
0.0
 11
62.75632
 21
-0.767524118955
 31
0.0
  0
LINE
  5
28E
330
30
100
AcDbEntity
  8
1
100
AcDbLine
 10
62.75632
 20
-0.767524118955
 30
0.0
 11
62.74736
 21
-0.76744477972
 31
0.0
  0
LINE
  5
28F
330
30
100
AcDbEntity
  8
1
100
AcDbLine
 10
62.74736
 20
-0.76744477972
 30
0.0
 11
62.7384
 21
-0.767256235781
 31
0.0
  0
LINE
  5
290
330
30
100
AcDbEntity
  8
1
100
AcDbLine
 10
62.7384
 20
-0.767256235781
 30
0.0
 11
62.72944
 21
-0.766958752231
 31
0.0
  0
LINE
  5
291
330
30
100
AcDbEntity
  8
1
100
AcDbLine
 10
62.72944
 20
-0.766958752231
 30
0.0
 11
62.72048
 21
-0.766552559584
 31
0.0
  0
LINE
  5
292
330
30
100
AcDbEntity
  8
1
100
AcDbLine
 10
62.72048
 20
-0.766552559584
 30
0.0
 11
62.71152
 21
-0.766037854072
 31
0.0
  0
LINE
  5
293
330
30
100
AcDbEntity
  8
1
100
AcDbLine
 10
62.71152
 20
-0.766037854072
 30
0.0
 11
62.70256
 21
-0.765422260037
 31
0.0
  0
LINE
  5
294
330
30
100
AcDbEntity
  8
1
100
AcDbLine
 10
62.70256
 20
-0.765422260037
 30
0.0
 11
62.6936
 21
-0.764780445905
 31
0.0
  0
LINE
  5
295
330
30
100
AcDbEntity
  8
1
100
AcDbLine
 10
62.6936
 20
-0.764780445905
 30
0.0
 11
62.68464
 21
-0.764131639533
 31
0.0
  0
LINE
  5
296
330
30
100
AcDbEntity
  8
1
100
AcDbLine
 10
62.68464
 20
-0.764131639533
 30
0.0
 11
62.67568
 21
-0.763475846853
 31
0.0
  0
LINE
  5
297
330
30
100
AcDbEntity
  8
1
100
AcDbLine
 10
62.67568
 20
-0.763475846853
 30
0.0
 11
62.66672
 21
-0.762813073859
 31
0.0
  0
LINE
  5
298
330
30
100
AcDbEntity
  8
1
100
AcDbLine
 10
62.66672
 20
-0.762813073859
 30
0.0
 11
62.65776
 21
-0.762143326612
 31
0.0
  0
LINE
  5
299
330
30
100
AcDbEntity
  8
1
100
AcDbLine
 10
62.65776
 20
-0.762143326612
 30
0.0
 11
62.6488
 21
-0.761466611235
 31
0.0
  0
LINE
  5
29A
330
30
100
AcDbEntity
  8
1
100
AcDbLine
 10
62.6488
 20
-0.761466611235
 30
0.0
 11
62.63984
 21
-0.760782933916
 31
0.0
  0
LINE
  5
29B
330
30
100
AcDbEntity
  8
1
100
AcDbLine
 10
62.63984
 20
-0.760782933916
 30
0.0
 11
62.63088
 21
-0.760092300904
 31
0.0
  0
LINE
  5
29C
330
30
100
AcDbEntity
  8
1
100
AcDbLine
 10
62.63088
 20
-0.760092300904
 30
0.0
 11
62.62192
 21
-0.759394718514
 31
0.0
  0
LINE
  5
29D
330
30
100
AcDbEntity
  8
1
100
AcDbLine
 10
62.62192
 20
-0.759394718514
 30
0.0
 11
62.61296
 21
-0.758690193125
 31
0.0
  0
LINE
  5
29E
330
30
100
AcDbEntity
  8
1
100
AcDbLine
 10
62.61296
 20
-0.758690193125
 30
0.0
 11
62.604
 21
-0.757978731177
 31
0.0
  0
LINE
  5
29F
330
30
100
AcDbEntity
  8
1
100
AcDbLine
 10
62.604
 20
-0.757978731177
 30
0.0
 11
62.59504
 21
-0.757260339175
 31
0.0
  0
LINE
  5
2A0
330
30
100
AcDbEntity
  8
1
100
AcDbLine
 10
62.59504
 20
-0.757260339175
 30
0.0
 11
62.58608
 21
-0.756535023687
 31
0.0
  0
LINE
  5
2A1
330
30
100
AcDbEntity
  8
1
100
AcDbLine
 10
62.58608
 20
-0.756535023687
 30
0.0
 11
62.57712
 21
-0.755802791346
 31
0.0
  0
LINE
  5
2A2
330
30
100
AcDbEntity
  8
1
100
AcDbLine
 10
62.57712
 20
-0.755802791346
 30
0.0
 11
62.56816
 21
-0.755063648844
 31
0.0
  0
LINE
  5
2A3
330
30
100
AcDbEntity
  8
1
100
AcDbLine
 10
62.56816
 20
-0.755063648844
 30
0.0
 11
62.5592
 21
-0.754317602941
 31
0.0
  0
LINE
  5
2A4
330
30
100
AcDbEntity
  8
1
100
AcDbLine
 10
62.5592
 20
-0.754317602941
 30
0.0
 11
62.55024
 21
-0.753564660457
 31
0.0
  0
LINE
  5
2A5
330
30
100
AcDbEntity
  8
1
100
AcDbLine
 10
62.55024
 20
-0.753564660457
 30
0.0
 11
62.54128
 21
-0.752804828276
 31
0.0
  0
LINE
  5
2A6
330
30
100
AcDbEntity
  8
1
100
AcDbLine
 10
62.54128
 20
-0.752804828276
 30
0.0
 11
62.53232
 21
-0.752038113345
 31
0.0
  0
LINE
  5
2A7
330
30
100
AcDbEntity
  8
1
100
AcDbLine
 10
62.53232
 20
-0.752038113345
 30
0.0
 11
62.52336
 21
-0.751264522674
 31
0.0
  0
LINE
  5
2A8
330
30
100
AcDbEntity
  8
1
100
AcDbLine
 10
62.52336
 20
-0.751264522674
 30
0.0
 11
62.5144
 21
-0.750484063336
 31
0.0
  0
LINE
  5
2A9
330
30
100
AcDbEntity
  8
1
100
AcDbLine
 10
62.5144
 20
-0.750484063336
 30
0.0
 11
62.50544
 21
-0.749696742467
 31
0.0
  0
LINE
  5
2AA
330
30
100
AcDbEntity
  8
1
100
AcDbLine
 10
62.50544
 20
-0.749696742467
 30
0.0
 11
62.49648
 21
-0.748902567264
 31
0.0
  0
LINE
  5
2AB
330
30
100
AcDbEntity
  8
1
100
AcDbLine
 10
62.49648
 20
-0.748902567264
 30
0.0
 11
62.48752
 21
-0.74810154499
 31
0.0
  0
LINE
  5
2AC
330
30
100
AcDbEntity
  8
1
100
AcDbLine
 10
62.48752
 20
-0.74810154499
 30
0.0
 11
62.47856
 21
-0.747293682966
 31
0.0
  0
LINE
  5
2AD
330
30
100
AcDbEntity
  8
1
100
AcDbLine
 10
62.47856
 20
-0.747293682966
 30
0.0
 11
62.4696
 21
-0.74647898858
 31
0.0
  0
LINE
  5
2AE
330
30
100
AcDbEntity
  8
1
100
AcDbLine
 10
62.4696
 20
-0.74647898858
 30
0.0
 11
62.46064
 21
-0.745657469281
 31
0.0
  0
LINE
  5
2AF
330
30
100
AcDbEntity
  8
1
100
AcDbLine
 10
62.46064
 20
-0.745657469281
 30
0.0
 11
62.45168
 21
-0.744829132578
 31
0.0
  0
LINE
  5
2B0
330
30
100
AcDbEntity
  8
1
100
AcDbLine
 10
62.45168
 20
-0.744829132578
 30
0.0
 11
62.44272
 21
-0.743993986046
 31
0.0
  0
LINE
  5
2B1
330
30
100
AcDbEntity
  8
1
100
AcDbLine
 10
62.44272
 20
-0.743993986046
 30
0.0
 11
62.43376
 21
-0.74315203732
 31
0.0
  0
LINE
  5
2B2
330
30
100
AcDbEntity
  8
1
100
AcDbLine
 10
62.43376
 20
-0.74315203732
 30
0.0
 11
62.4248
 21
-0.742303294097
 31
0.0
  0
LINE
  5
2B3
330
30
100
AcDbEntity
  8
1
100
AcDbLine
 10
62.4248
 20
-0.742303294097
 30
0.0
 11
62.41584
 21
-0.741447764138
 31
0.0
  0
LINE
  5
2B4
330
30
100
AcDbEntity
  8
1
100
AcDbLine
 10
62.41584
 20
-0.741447764138
 30
0.0
 11
62.40688
 21
-0.740585455265
 31
0.0
  0
LINE
  5
2B5
330
30
100
AcDbEntity
  8
1
100
AcDbLine
 10
62.40688
 20
-0.740585455265
 30
0.0
 11
62.39792
 21
-0.666922206832
 31
0.0
  0
LINE
  5
2B6
330
30
100
AcDbEntity
  8
1
100
AcDbLine
 10
62.39792
 20
-0.666922206832
 30
0.0
 11
62.38896
 21
-0.666098765379
 31
0.0
  0
LINE
  5
2B7
330
30
100
AcDbEntity
  8
1
100
AcDbLine
 10
62.38896
 20
-0.666098765379
 30
0.0
 11
62.38
 21
-0.665269233913
 31
0.0
  0
LINE
  5
2B8
330
30
100
AcDbEntity
  8
1
100
AcDbLine
 10
62.38
 20
-0.665269233913
 30
0.0
 11
62.37104
 21
-0.664433620019
 31
0.0
  0
LINE
  5
2B9
330
30
100
AcDbEntity
  8
1
100
AcDbLine
 10
62.37104
 20
-0.664433620019
 30
0.0
 11
62.36208
 21
-0.663591931335
 31
0.0
  0
LINE
  5
2BA
330
30
100
AcDbEntity
  8
1
100
AcDbLine
 10
62.36208
 20
-0.663591931335
 30
0.0
 11
62.35312
 21
-0.662744175559
 31
0.0
  0
LINE
  5
2BB
330
30
100
AcDbEntity
  8
1
100
AcDbLine
 10
62.35312
 20
-0.662744175559
 30
0.0
 11
62.34416
 21
-0.661890360439
 31
0.0
  0
LINE
  5
2BC
330
30
100
AcDbEntity
  8
1
100
AcDbLine
 10
62.34416
 20
-0.661890360439
 30
0.0
 11
62.3352
 21
-0.661030493783
 31
0.0
  0
LINE
  5
2BD
330
30
100
AcDbEntity
  8
1
100
AcDbLine
 10
62.3352
 20
-0.661030493783
 30
0.0
 11
62.32624
 21
-0.660164583453
 31
0.0
  0
LINE
  5
2BE
330
30
100
AcDbEntity
  8
1
100
AcDbLine
 10
62.32624
 20
-0.660164583453
 30
0.0
 11
62.31728
 21
-0.659292637364
 31
0.0
  0
LINE
  5
2BF
330
30
100
AcDbEntity
  8
1
100
AcDbLine
 10
62.31728
 20
-0.659292637364
 30
0.0
 11
62.30832
 21
-0.65841466349
 31
0.0
  0
LINE
  5
2C0
330
30
100
AcDbEntity
  8
1
100
AcDbLine
 10
62.30832
 20
-0.65841466349
 30
0.0
 11
62.29936
 21
-0.657530669857
 31
0.0
  0
LINE
  5
2C1
330
30
100
AcDbEntity
  8
1
100
AcDbLine
 10
62.29936
 20
-0.657530669857
 30
0.0
 11
62.2904
 21
-0.656640664548
 31
0.0
  0
LINE
  5
2C2
330
30
100
AcDbEntity
  8
1
100
AcDbLine
 10
62.2904
 20
-0.656640664548
 30
0.0
 11
62.28144
 21
-0.655744655699
 31
0.0
  0
LINE
  5
2C3
330
30
100
AcDbEntity
  8
1
100
AcDbLine
 10
62.28144
 20
-0.655744655699
 30
0.0
 11
62.27248
 21
-0.654842651503
 31
0.0
  0
LINE
  5
2C4
330
30
100
AcDbEntity
  8
1
100
AcDbLine
 10
62.27248
 20
-0.654842651503
 30
0.0
 11
62.26352
 21
-0.653934660206
 31
0.0
  0
LINE
  5
2C5
330
30
100
AcDbEntity
  8
1
100
AcDbLine
 10
62.26352
 20
-0.653934660206
 30
0.0
 11
62.25456
 21
-0.653020690111
 31
0.0
  0
LINE
  5
2C6
330
30
100
AcDbEntity
  8
1
100
AcDbLine
 10
62.25456
 20
-0.653020690111
 30
0.0
 11
62.2456
 21
-0.652100749573
 31
0.0
  0
LINE
  5
2C7
330
30
100
AcDbEntity
  8
1
100
AcDbLine
 10
62.2456
 20
-0.652100749573
 30
0.0
 11
62.23664
 21
-0.651174847003
 31
0.0
  0
LINE
  5
2C8
330
30
100
AcDbEntity
  8
1
100
AcDbLine
 10
62.23664
 20
-0.651174847003
 30
0.0
 11
62.22768
 21
-0.650242990867
 31
0.0
  0
LINE
  5
2C9
330
30
100
AcDbEntity
  8
1
100
AcDbLine
 10
62.22768
 20
-0.650242990867
 30
0.0
 11
62.21872
 21
-0.649305189685
 31
0.0
  0
LINE
  5
2CA
330
30
100
AcDbEntity
  8
1
100
AcDbLine
 10
62.21872
 20
-0.649305189685
 30
0.0
 11
62.20976
 21
-0.648361452031
 31
0.0
  0
LINE
  5
2CB
330
30
100
AcDbEntity
  8
1
100
AcDbLine
 10
62.20976
 20
-0.648361452031
 30
0.0
 11
62.2008
 21
-0.647411786533
 31
0.0
  0
LINE
  5
2CC
330
30
100
AcDbEntity
  8
1
100
AcDbLine
 10
62.2008
 20
-0.647411786533
 30
0.0
 11
62.19184
 21
-0.646456201876
 31
0.0
  0
LINE
  5
2CD
330
30
100
AcDbEntity
  8
1
100
AcDbLine
 10
62.19184
 20
-0.646456201876
 30
0.0
 11
62.18288
 21
-0.645494706796
 31
0.0
  0
LINE
  5
2CE
330
30
100
AcDbEntity
  8
1
100
AcDbLine
 10
62.18288
 20
-0.645494706796
 30
0.0
 11
62.17392
 21
-0.644527310085
 31
0.0
  0
LINE
  5
2CF
330
30
100
AcDbEntity
  8
1
100
AcDbLine
 10
62.17392
 20
-0.644527310085
 30
0.0
 11
62.16496
 21
-0.643554020591
 31
0.0
  0
LINE
  5
2D0
330
30
100
AcDbEntity
  8
1
100
AcDbLine
 10
62.16496
 20
-0.643554020591
 30
0.0
 11
62.156
 21
-0.642574847213
 31
0.0
  0
LINE
  5
2D1
330
30
100
AcDbEntity
  8
1
100
AcDbLine
 10
62.156
 20
-0.642574847213
 30
0.0
 11
62.14704
 21
-0.641589798908
 31
0.0
  0
LINE
  5
2D2
330
30
100
AcDbEntity
  8
1
100
AcDbLine
 10
62.14704
 20
-0.641589798908
 30
0.0
 11
62.13808
 21
-0.640598884688
 31
0.0
  0
LINE
  5
2D3
330
30
100
AcDbEntity
  8
1
100
AcDbLine
 10
62.13808
 20
-0.640598884688
 30
0.0
 11
62.12912
 21
-0.639602113618
 31
0.0
  0
LINE
  5
2D4
330
30
100
AcDbEntity
  8
1
100
AcDbLine
 10
62.12912
 20
-0.639602113618
 30
0.0
 11
62.12016
 21
-0.638599494823
 31
0.0
  0
LINE
  5
2D5
330
30
100
AcDbEntity
  8
1
100
AcDbLine
 10
62.12016
 20
-0.638599494823
 30
0.0
 11
62.1112
 21
-0.63759103748
 31
0.0
  0
LINE
  5
2D6
330
30
100
AcDbEntity
  8
1
100
AcDbLine
 10
62.1112
 20
-0.63759103748
 30
0.0
 11
62.10224
 21
-0.636576750828
 31
0.0
  0
LINE
  5
2D7
330
30
100
AcDbEntity
  8
1
100
AcDbLine
 10
62.10224
 20
-0.636576750828
 30
0.0
 11
62.09328
 21
-0.635556644164
 31
0.0
  0
LINE
  5
2D8
330
30
100
AcDbEntity
  8
1
100
AcDbLine
 10
62.09328
 20
-0.635556644164
 30
0.0
 11
62.08432
 21
-0.634530726844
 31
0.0
  0
LINE
  5
2D9
330
30
100
AcDbEntity
  8
1
100
AcDbLine
 10
62.08432
 20
-0.634530726844
 30
0.0
 11
62.07536
 21
-0.633499008288
 31
0.0
  0
LINE
  5
2DA
330
30
100
AcDbEntity
  8
1
100
AcDbLine
 10
62.07536
 20
-0.633499008288
 30
0.0
 11
62.0664
 21
-0.632461497981
 31
0.0
  0
LINE
  5
2DB
330
30
100
AcDbEntity
  8
1
100
AcDbLine
 10
62.0664
 20
-0.632461497981
 30
0.0
 11
62.05744
 21
-0.631418205475
 31
0.0
  0
LINE
  5
2DC
330
30
100
AcDbEntity
  8
1
100
AcDbLine
 10
62.05744
 20
-0.631418205475
 30
0.0
 11
62.04848
 21
-0.630369140394
 31
0.0
  0
LINE
  5
2DD
330
30
100
AcDbEntity
  8
1
100
AcDbLine
 10
62.04848
 20
-0.630369140394
 30
0.0
 11
62.03952
 21
-0.629314312439
 31
0.0
  0
LINE
  5
2DE
330
30
100
AcDbEntity
  8
1
100
AcDbLine
 10
62.03952
 20
-0.629314312439
 30
0.0
 11
62.03056
 21
-0.628253731393
 31
0.0
  0
LINE
  5
2DF
330
30
100
AcDbEntity
  8
1
100
AcDbLine
 10
62.03056
 20
-0.628253731393
 30
0.0
 11
62.0216
 21
-0.627187407124
 31
0.0
  0
LINE
  5
2E0
330
30
100
AcDbEntity
  8
1
100
AcDbLine
 10
62.0216
 20
-0.627187407124
 30
0.0
 11
62.01264
 21
-0.626115349601
 31
0.0
  0
LINE
  5
2E1
330
30
100
AcDbEntity
  8
1
100
AcDbLine
 10
62.01264
 20
-0.626115349601
 30
0.0
 11
62.00368
 21
-0.625037568895
 31
0.0
  0
LINE
  5
2E2
330
30
100
AcDbEntity
  8
1
100
AcDbLine
 10
62.00368
 20
-0.625037568895
 30
0.0
 11
61.99472
 21
-0.623954075196
 31
0.0
  0
LINE
  5
2E3
330
30
100
AcDbEntity
  8
1
100
AcDbLine
 10
61.99472
 20
-0.623954075196
 30
0.0
 11
61.98576
 21
-0.622864878823
 31
0.0
  0
LINE
  5
2E4
330
30
100
AcDbEntity
  8
1
100
AcDbLine
 10
61.98576
 20
-0.622864878823
 30
0.0
 11
61.9768
 21
-0.621769990243
 31
0.0
  0
LINE
  5
2E5
330
30
100
AcDbEntity
  8
1
100
AcDbLine
 10
61.9768
 20
-0.621769990243
 30
0.0
 11
61.96784
 21
-0.620669420087
 31
0.0
  0
LINE
  5
2E6
330
30
100
AcDbEntity
  8
1
100
AcDbLine
 10
61.96784
 20
-0.620669420087
 30
0.0
 11
61.95888
 21
-0.619563179171
 31
0.0
  0
LINE
  5
2E7
330
30
100
AcDbEntity
  8
1
100
AcDbLine
 10
61.95888
 20
-0.619563179171
 30
0.0
 11
61.94992
 21
-0.618451278527
 31
0.0
  0
LINE
  5
2E8
330
30
100
AcDbEntity
  8
1
100
AcDbLine
 10
61.94992
 20
-0.618451278527
 30
0.0
 11
61.94096
 21
-0.617333729426
 31
0.0
  0
LINE
  5
2E9
330
30
100
AcDbEntity
  8
1
100
AcDbLine
 10
61.94096
 20
-0.617333729426
 30
0.0
 11
61.932
 21
-0.616210543416
 31
0.0
  0
LINE
  5
2EA
330
30
100
AcDbEntity
  8
1
100
AcDbLine
 10
61.932
 20
-0.616210543416
 30
0.0
 11
61.92304
 21
-0.615081732361
 31
0.0
  0
LINE
  5
2EB
330
30
100
AcDbEntity
  8
1
100
AcDbLine
 10
61.92304
 20
-0.615081732361
 30
0.0
 11
61.91408
 21
-0.613947308489
 31
0.0
  0
LINE
  5
2EC
330
30
100
AcDbEntity
  8
1
100
AcDbLine
 10
61.91408
 20
-0.613947308489
 30
0.0
 11
61.90512
 21
-0.612807284441
 31
0.0
  0
LINE
  5
2ED
330
30
100
AcDbEntity
  8
1
100
AcDbLine
 10
61.90512
 20
-0.612807284441
 30
0.0
 11
61.89616
 21
-0.611661673337
 31
0.0
  0
LINE
  5
2EE
330
30
100
AcDbEntity
  8
1
100
AcDbLine
 10
61.89616
 20
-0.611661673337
 30
0.0
 11
61.8872
 21
-0.61051048884
 31
0.0
  0
LINE
  5
2EF
330
30
100
AcDbEntity
  8
1
100
AcDbLine
 10
61.8872
 20
-0.61051048884
 30
0.0
 11
61.87824
 21
-0.609353745242
 31
0.0
  0
LINE
  5
2F0
330
30
100
AcDbEntity
  8
1
100
AcDbLine
 10
61.87824
 20
-0.609353745242
 30
0.0
 11
61.86928
 21
-0.608191457548
 31
0.0
  0
LINE
  5
2F1
330
30
100
AcDbEntity
  8
1
100
AcDbLine
 10
61.86928
 20
-0.608191457548
 30
0.0
 11
61.86032
 21
-0.607023641586
 31
0.0
  0
LINE
  5
2F2
330
30
100
AcDbEntity
  8
1
100
AcDbLine
 10
61.86032
 20
-0.607023641586
 30
0.0
 11
61.85136
 21
-0.605850314118
 31
0.0
  0
LINE
  5
2F3
330
30
100
AcDbEntity
  8
1
100
AcDbLine
 10
61.85136
 20
-0.605850314118
 30
0.0
 11
61.8424
 21
-0.604671492979
 31
0.0
  0
LINE
  5
2F4
330
30
100
AcDbEntity
  8
1
100
AcDbLine
 10
61.8424
 20
-0.604671492979
 30
0.0
 11
61.83344
 21
-0.603487197221
 31
0.0
  0
LINE
  5
2F5
330
30
100
AcDbEntity
  8
1
100
AcDbLine
 10
61.83344
 20
-0.603487197221
 30
0.0
 11
61.82448
 21
-0.602297447286
 31
0.0
  0
LINE
  5
2F6
330
30
100
AcDbEntity
  8
1
100
AcDbLine
 10
61.82448
 20
-0.602297447286
 30
0.0
 11
61.81552
 21
-0.601102265196
 31
0.0
  0
LINE
  5
2F7
330
30
100
AcDbEntity
  8
1
100
AcDbLine
 10
61.81552
 20
-0.601102265196
 30
0.0
 11
61.80656
 21
-0.599901674763
 31
0.0
  0
LINE
  5
2F8
330
30
100
AcDbEntity
  8
1
100
AcDbLine
 10
61.80656
 20
-0.599901674763
 30
0.0
 11
61.7976
 21
-0.598695701837
 31
0.0
  0
LINE
  5
2F9
330
30
100
AcDbEntity
  8
1
100
AcDbLine
 10
61.7976
 20
-0.598695701837
 30
0.0
 11
61.78864
 21
-0.597484374566
 31
0.0
  0
LINE
  5
2FA
330
30
100
AcDbEntity
  8
1
100
AcDbLine
 10
61.78864
 20
-0.597484374566
 30
0.0
 11
61.77968
 21
-0.596267723703
 31
0.0
  0
LINE
  5
2FB
330
30
100
AcDbEntity
  8
1
100
AcDbLine
 10
61.77968
 20
-0.596267723703
 30
0.0
 11
61.77072
 21
-0.595045782937
 31
0.0
  0
LINE
  5
2FC
330
30
100
AcDbEntity
  8
1
100
AcDbLine
 10
61.77072
 20
-0.595045782937
 30
0.0
 11
61.76176
 21
-0.593818589269
 31
0.0
  0
LINE
  5
2FD
330
30
100
AcDbEntity
  8
1
100
AcDbLine
 10
61.76176
 20
-0.593818589269
 30
0.0
 11
61.7528
 21
-0.592586183428
 31
0.0
  0
LINE
  5
2FE
330
30
100
AcDbEntity
  8
1
100
AcDbLine
 10
61.7528
 20
-0.592586183428
 30
0.0
 11
61.74384
 21
-0.591348610329
 31
0.0
  0
LINE
  5
2FF
330
30
100
AcDbEntity
  8
1
100
AcDbLine
 10
61.74384
 20
-0.591348610329
 30
0.0
 11
61.73488
 21
-0.590105919589
 31
0.0
  0
LINE
  5
300
330
30
100
AcDbEntity
  8
1
100
AcDbLine
 10
61.73488
 20
-0.590105919589
 30
0.0
 11
61.72592
 21
-0.588858166092
 31
0.0
  0
LINE
  5
301
330
30
100
AcDbEntity
  8
1
100
AcDbLine
 10
61.72592
 20
-0.588858166092
 30
0.0
 11
61.71696
 21
-0.587605410618
 31
0.0
  0
LINE
  5
302
330
30
100
AcDbEntity
  8
1
100
AcDbLine
 10
61.71696
 20
-0.587605410618
 30
0.0
 11
61.708
 21
-0.586347720534
 31
0.0
  0
LINE
  5
303
330
30
100
AcDbEntity
  8
1
100
AcDbLine
 10
61.708
 20
-0.586347720534
 30
0.0
 11
61.69904
 21
-0.585085170559
 31
0.0
  0
LINE
  5
304
330
30
100
AcDbEntity
  8
1
100
AcDbLine
 10
61.69904
 20
-0.585085170559
 30
0.0
 11
61.69008
 21
-0.583817843606
 31
0.0
  0
LINE
  5
305
330
30
100
AcDbEntity
  8
1
100
AcDbLine
 10
61.69008
 20
-0.583817843606
 30
0.0
 11
61.68112
 21
-0.582545831711
 31
0.0
  0
LINE
  5
306
330
30
100
AcDbEntity
  8
1
100
AcDbLine
 10
61.68112
 20
-0.582545831711
 30
0.0
 11
61.67216
 21
-0.581269237047
 31
0.0
  0
LINE
  5
307
330
30
100
AcDbEntity
  8
1
100
AcDbLine
 10
61.67216
 20
-0.581269237047
 30
0.0
 11
61.6632
 21
-0.579988173043
 31
0.0
  0
LINE
  5
308
330
30
100
AcDbEntity
  8
1
100
AcDbLine
 10
61.6632
 20
-0.579988173043
 30
0.0
 11
61.65424
 21
-0.578702765611
 31
0.0
  0
LINE
  5
309
330
30
100
AcDbEntity
  8
1
100
AcDbLine
 10
61.65424
 20
-0.578702765611
 30
0.0
 11
61.64528
 21
-0.577413154485
 31
0.0
  0
LINE
  5
30A
330
30
100
AcDbEntity
  8
1
100
AcDbLine
 10
61.64528
 20
-0.577413154485
 30
0.0
 11
61.63632
 21
-0.576119494692
 31
0.0
  0
LINE
  5
30B
330
30
100
AcDbEntity
  8
1
100
AcDbLine
 10
61.63632
 20
-0.576119494692
 30
0.0
 11
61.62736
 21
-0.574821958149
 31
0.0
  0
LINE
  5
30C
330
30
100
AcDbEntity
  8
1
100
AcDbLine
 10
61.62736
 20
-0.574821958149
 30
0.0
 11
61.6184
 21
-0.573520735418
 31
0.0
  0
LINE
  5
30D
330
30
100
AcDbEntity
  8
1
100
AcDbLine
 10
61.6184
 20
-0.573520735418
 30
0.0
 11
61.60944
 21
-0.572216037611
 31
0.0
  0
LINE
  5
30E
330
30
100
AcDbEntity
  8
1
100
AcDbLine
 10
61.60944
 20
-0.572216037611
 30
0.0
 11
61.60048
 21
-0.570908098467
 31
0.0
  0
LINE
  5
30F
330
30
100
AcDbEntity
  8
1
100
AcDbLine
 10
61.60048
 20
-0.570908098467
 30
0.0
 11
61.59152
 21
-0.569597176609
 31
0.0
  0
LINE
  5
310
330
30
100
AcDbEntity
  8
1
100
AcDbLine
 10
61.59152
 20
-0.569597176609
 30
0.0
 11
61.58256
 21
-0.568283558001
 31
0.0
  0
LINE
  5
311
330
30
100
AcDbEntity
  8
1
100
AcDbLine
 10
61.58256
 20
-0.568283558001
 30
0.0
 11
61.5736
 21
-0.566967558615
 31
0.0
  0
LINE
  5
312
330
30
100
AcDbEntity
  8
1
100
AcDbLine
 10
61.5736
 20
-0.566967558615
 30
0.0
 11
61.56464
 21
-0.565649527313
 31
0.0
  0
LINE
  5
313
330
30
100
AcDbEntity
  8
1
100
AcDbLine
 10
61.56464
 20
-0.565649527313
 30
0.0
 11
61.55568
 21
-0.564329848984
 31
0.0
  0
LINE
  5
314
330
30
100
AcDbEntity
  8
1
100
AcDbLine
 10
61.55568
 20
-0.564329848984
 30
0.0
 11
61.54672
 21
-0.563008947928
 31
0.0
  0
LINE
  5
315
330
30
100
AcDbEntity
  8
1
100
AcDbLine
 10
61.54672
 20
-0.563008947928
 30
0.0
 11
61.53776
 21
-0.561687291519
 31
0.0
  0
LINE
  5
316
330
30
100
AcDbEntity
  8
1
100
AcDbLine
 10
61.53776
 20
-0.561687291519
 30
0.0
 11
61.5288
 21
-0.560365394156
 31
0.0
  0
LINE
  5
317
330
30
100
AcDbEntity
  8
1
100
AcDbLine
 10
61.5288
 20
-0.560365394156
 30
0.0
 11
61.51984
 21
-0.559043821535
 31
0.0
  0
LINE
  5
318
330
30
100
AcDbEntity
  8
1
100
AcDbLine
 10
61.51984
 20
-0.559043821535
 30
0.0
 11
61.51088
 21
-0.557723195241
 31
0.0
  0
LINE
  5
319
330
30
100
AcDbEntity
  8
1
100
AcDbLine
 10
61.51088
 20
-0.557723195241
 30
0.0
 11
61.50192
 21
-0.5564041977
 31
0.0
  0
LINE
  5
31A
330
30
100
AcDbEntity
  8
1
100
AcDbLine
 10
61.50192
 20
-0.5564041977
 30
0.0
 11
61.49296
 21
-0.555087577501
 31
0.0
  0
LINE
  5
31B
330
30
100
AcDbEntity
  8
1
100
AcDbLine
 10
61.49296
 20
-0.555087577501
 30
0.0
 11
61.484
 21
-0.553774155116
 31
0.0
  0
LINE
  5
31C
330
30
100
AcDbEntity
  8
1
100
AcDbLine
 10
61.484
 20
-0.553774155116
 30
0.0
 11
61.47504
 21
-0.552464829037
 31
0.0
  0
LINE
  5
31D
330
30
100
AcDbEntity
  8
1
100
AcDbLine
 10
61.47504
 20
-0.552464829037
 30
0.0
 11
61.46608
 21
-0.551160582352
 31
0.0
  0
LINE
  5
31E
330
30
100
AcDbEntity
  8
1
100
AcDbLine
 10
61.46608
 20
-0.551160582352
 30
0.0
 11
61.45712
 21
-0.54986248979
 31
0.0
  0
LINE
  5
31F
330
30
100
AcDbEntity
  8
1
100
AcDbLine
 10
61.45712
 20
-0.54986248979
 30
0.0
 11
61.44816
 21
-0.548571725254
 31
0.0
  0
LINE
  5
320
330
30
100
AcDbEntity
  8
1
100
AcDbLine
 10
61.44816
 20
-0.548571725254
 30
0.0
 11
61.4392
 21
-0.54728956987
 31
0.0
  0
LINE
  5
321
330
30
100
AcDbEntity
  8
1
100
AcDbLine
 10
61.4392
 20
-0.54728956987
 30
0.0
 11
61.43024
 21
-0.546017420569
 31
0.0
  0
LINE
  5
322
330
30
100
AcDbEntity
  8
1
100
AcDbLine
 10
61.43024
 20
-0.546017420569
 30
0.0
 11
61.42128
 21
-0.544756799234
 31
0.0
  0
LINE
  5
323
330
30
100
AcDbEntity
  8
1
100
AcDbLine
 10
61.42128
 20
-0.544756799234
 30
0.0
 11
61.41232
 21
-0.543509362439
 31
0.0
  0
LINE
  5
324
330
30
100
AcDbEntity
  8
1
100
AcDbLine
 10
61.41232
 20
-0.543509362439
 30
0.0
 11
61.40336
 21
-0.542276911785
 31
0.0
  0
LINE
  5
325
330
30
100
AcDbEntity
  8
1
100
AcDbLine
 10
61.40336
 20
-0.542276911785
 30
0.0
 11
61.3944
 21
-0.541061404879
 31
0.0
  0
LINE
  5
326
330
30
100
AcDbEntity
  8
1
100
AcDbLine
 10
61.3944
 20
-0.541061404879
 30
0.0
 11
61.38544
 21
-0.539864966955
 31
0.0
  0
LINE
  5
327
330
30
100
AcDbEntity
  8
1
100
AcDbLine
 10
61.38544
 20
-0.539864966955
 30
0.0
 11
61.37648
 21
-0.538689903172
 31
0.0
  0
LINE
  5
328
330
30
100
AcDbEntity
  8
1
100
AcDbLine
 10
61.37648
 20
-0.538689903172
 30
0.0
 11
61.36752
 21
-0.53753871159
 31
0.0
  0
LINE
  5
329
330
30
100
AcDbEntity
  8
1
100
AcDbLine
 10
61.36752
 20
-0.53753871159
 30
0.0
 11
61.35856
 21
-0.536414096851
 31
0.0
  0
LINE
  5
32A
330
30
100
AcDbEntity
  8
1
100
AcDbLine
 10
61.35856
 20
-0.536414096851
 30
0.0
 11
61.3496
 21
-0.535318984556
 31
0.0
  0
LINE
  5
32B
330
30
100
AcDbEntity
  8
1
100
AcDbLine
 10
61.3496
 20
-0.535318984556
 30
0.0
 11
61.34064
 21
-0.534256536358
 31
0.0
  0
LINE
  5
32C
330
30
100
AcDbEntity
  8
1
100
AcDbLine
 10
61.34064
 20
-0.534256536358
 30
0.0
 11
61.33168
 21
-0.533230165752
 31
0.0
  0
LINE
  5
32D
330
30
100
AcDbEntity
  8
1
100
AcDbLine
 10
61.33168
 20
-0.533230165752
 30
0.0
 11
61.32272
 21
-0.532243554566
 31
0.0
  0
LINE
  5
32E
330
30
100
AcDbEntity
  8
1
100
AcDbLine
 10
61.32272
 20
-0.532243554566
 30
0.0
 11
61.31376
 21
-0.531300670118
 31
0.0
  0
LINE
  5
32F
330
30
100
AcDbEntity
  8
1
100
AcDbLine
 10
61.31376
 20
-0.531300670118
 30
0.0
 11
61.3048
 21
-0.530405783017
 31
0.0
  0
LINE
  5
330
330
30
100
AcDbEntity
  8
1
100
AcDbLine
 10
61.3048
 20
-0.530405783017
 30
0.0
 11
61.29584
 21
-0.529563485565
 31
0.0
  0
LINE
  5
331
330
30
100
AcDbEntity
  8
1
100
AcDbLine
 10
61.29584
 20
-0.529563485565
 30
0.0
 11
61.28688
 21
-0.528778710691
 31
0.0
  0
LINE
  5
332
330
30
100
AcDbEntity
  8
1
100
AcDbLine
 10
61.28688
 20
-0.528778710691
 30
0.0
 11
61.27792
 21
-0.528056751352
 31
0.0
  0
LINE
  5
333
330
30
100
AcDbEntity
  8
1
100
AcDbLine
 10
61.27792
 20
-0.528056751352
 30
0.0
 11
61.26896
 21
-0.527403280294
 31
0.0
  0
LINE
  5
334
330
30
100
AcDbEntity
  8
1
100
AcDbLine
 10
61.26896
 20
-0.527403280294
 30
0.0
 11
61.26
 21
-0.526824370052
 31
0.0
  0
LINE
  5
335
330
30
100
AcDbEntity
  8
1
100
AcDbLine
 10
61.26
 20
-0.526824370052
 30
0.0
 11
61.25104
 21
-0.526326513037
 31
0.0
  0
LINE
  5
336
330
30
100
AcDbEntity
  8
1
100
AcDbLine
 10
61.25104
 20
-0.526326513037
 30
0.0
 11
61.24208
 21
-0.525916641524
 31
0.0
  0
LINE
  5
337
330
30
100
AcDbEntity
  8
1
100
AcDbLine
 10
61.24208
 20
-0.525916641524
 30
0.0
 11
61.23312
 21
-0.52560214731
 31
0.0
  0
LINE
  5
338
330
30
100
AcDbEntity
  8
1
100
AcDbLine
 10
61.23312
 20
-0.52560214731
 30
0.0
 11
61.22416
 21
-0.525390900773
 31
0.0
  0
LINE
  5
339
330
30
100
AcDbEntity
  8
1
100
AcDbLine
 10
61.22416
 20
-0.525390900773
 30
0.0
 11
61.2152
 21
-0.525291269001
 31
0.0
  0
LINE
  5
33A
330
30
100
AcDbEntity
  8
1
100
AcDbLine
 10
61.2152
 20
-0.525291269001
 30
0.0
 11
61.20624
 21
-0.525312132603
 31
0.0
  0
LINE
  5
33B
330
30
100
AcDbEntity
  8
1
100
AcDbLine
 10
61.20624
 20
-0.525312132603
 30
0.0
 11
61.19728
 21
-0.525462900722
 31
0.0
  0
LINE
  5
33C
330
30
100
AcDbEntity
  8
1
100
AcDbLine
 10
61.19728
 20
-0.525462900722
 30
0.0
 11
61.18832
 21
-0.525753523722
 31
0.0
  0
LINE
  5
33D
330
30
100
AcDbEntity
  8
1
100
AcDbLine
 10
61.18832
 20
-0.525753523722
 30
0.0
 11
61.17936
 21
-0.526194502865
 31
0.0
  0
LINE
  5
33E
330
30
100
AcDbEntity
  8
1
100
AcDbLine
 10
61.17936
 20
-0.526194502865
 30
0.0
 11
61.1704
 21
-0.526796896227
 31
0.0
  0
LINE
  5
33F
330
30
100
AcDbEntity
  8
1
100
AcDbLine
 10
61.1704
 20
-0.526796896227
 30
0.0
 11
61.16144
 21
-0.527572319938
 31
0.0
  0
LINE
  5
340
330
30
100
AcDbEntity
  8
1
100
AcDbLine
 10
61.16144
 20
-0.527572319938
 30
0.0
 11
61.15248
 21
-0.528532943664
 31
0.0
  0
LINE
  5
341
330
30
100
AcDbEntity
  8
1
100
AcDbLine
 10
61.15248
 20
-0.528532943664
 30
0.0
 11
61.14352
 21
-0.529691479095
 31
0.0
  0
LINE
  5
342
330
30
100
AcDbEntity
  8
1
100
AcDbLine
 10
61.14352
 20
-0.529691479095
 30
0.0
 11
61.13456
 21
-0.531061159944
 31
0.0
  0
LINE
  5
343
330
30
100
AcDbEntity
  8
1
100
AcDbLine
 10
61.13456
 20
-0.531061159944
 30
0.0
 11
61.1256
 21
-0.532655711749
 31
0.0
  0
LINE
  5
344
330
30
100
AcDbEntity
  8
1
100
AcDbLine
 10
61.1256
 20
-0.532655711749
 30
0.0
 11
61.11664
 21
-0.534489309438
 31
0.0
  0
LINE
  5
345
330
30
100
AcDbEntity
  8
1
100
AcDbLine
 10
61.11664
 20
-0.534489309438
 30
0.0
 11
61.10768
 21
-0.536576520311
 31
0.0
  0
LINE
  5
346
330
30
100
AcDbEntity
  8
1
100
AcDbLine
 10
61.10768
 20
-0.536576520311
 30
0.0
 11
61.09872
 21
-0.538932229673
 31
0.0
  0
LINE
  5
347
330
30
100
AcDbEntity
  8
1
100
AcDbLine
 10
61.09872
 20
-0.538932229673
 30
0.0
 11
61.08976
 21
-0.541571545895
 31
0.0
  0
LINE
  5
348
330
30
100
AcDbEntity
  8
1
100
AcDbLine
 10
61.08976
 20
-0.541571545895
 30
0.0
 11
61.0808
 21
-0.544509681159
 31
0.0
  0
LINE
  5
349
330
30
100
AcDbEntity
  8
1
100
AcDbLine
 10
61.0808
 20
-0.544509681159
 30
0.0
 11
61.07184
 21
-0.547761803521
 31
0.0
  0
LINE
  5
34A
330
30
100
AcDbEntity
  8
1
100
AcDbLine
 10
61.07184
 20
-0.547761803521
 30
0.0
 11
61.06288
 21
-0.55134285521
 31
0.0
  0
LINE
  5
34B
330
30
100
AcDbEntity
  8
1
100
AcDbLine
 10
61.06288
 20
-0.55134285521
 30
0.0
 11
61.05392
 21
-0.555267331288
 31
0.0
  0
LINE
  5
34C
330
30
100
AcDbEntity
  8
1
100
AcDbLine
 10
61.05392
 20
-0.555267331288
 30
0.0
 11
61.04496
 21
-0.559549011846
 31
0.0
  0
LINE
  5
34D
330
30
100
AcDbEntity
  8
1
100
AcDbLine
 10
61.04496
 20
-0.559549011846
 30
0.0
 11
61.036
 21
-0.564200639858
 31
0.0
  0
LINE
  5
34E
330
30
100
AcDbEntity
  8
1
100
AcDbLine
 10
61.036
 20
-0.564200639858
 30
0.0
 11
61.02704
 21
-0.569233535603
 31
0.0
  0
LINE
  5
34F
330
30
100
AcDbEntity
  8
1
100
AcDbLine
 10
61.02704
 20
-0.569233535603
 30
0.0
 11
61.01808
 21
-0.57465713723
 31
0.0
  0
LINE
  5
350
330
30
100
AcDbEntity
  8
1
100
AcDbLine
 10
61.01808
 20
-0.57465713723
 30
0.0
 11
61.00912
 21
-0.580478455497
 31
0.0
  0
LINE
  5
351
330
30
100
AcDbEntity
  8
1
100
AcDbLine
 10
61.00912
 20
-0.580478455497
 30
0.0
 11
61.00016
 21
-0.586701429055
 31
0.0
  0
LINE
  5
352
330
30
100
AcDbEntity
  8
1
100
AcDbLine
 10
61.00016
 20
-0.586701429055
 30
0.0
 11
60.9912
 21
-0.593326164803
 31
0.0
  0
LINE
  5
353
330
30
100
AcDbEntity
  8
1
100
AcDbLine
 10
60.9912
 20
-0.593326164803
 30
0.0
 11
60.98224
 21
-0.600348045873
 31
0.0
  0
LINE
  5
354
330
30
100
AcDbEntity
  8
1
100
AcDbLine
 10
60.98224
 20
-0.600348045873
 30
0.0
 11
60.97328
 21
-0.607756687711
 31
0.0
  0
LINE
  5
355
330
30
100
AcDbEntity
  8
1
100
AcDbLine
 10
60.97328
 20
-0.607756687711
 30
0.0
 11
60.96432
 21
-0.615534720581
 31
0.0
  0
LINE
  5
356
330
30
100
AcDbEntity
  8
1
100
AcDbLine
 10
60.96432
 20
-0.615534720581
 30
0.0
 11
60.95536
 21
-0.623656374756
 31
0.0
  0
LINE
  5
357
330
30
100
AcDbEntity
  8
1
100
AcDbLine
 10
60.95536
 20
-0.623656374756
 30
0.0
 11
60.9464
 21
-0.632085842689
 31
0.0
  0
LINE
  5
358
330
30
100
AcDbEntity
  8
1
100
AcDbLine
 10
60.9464
 20
-0.632085842689
 30
0.0
 11
60.93744
 21
-0.640775390969
 31
0.0
  0
LINE
  5
359
330
30
100
AcDbEntity
  8
1
100
AcDbLine
 10
60.93744
 20
-0.640775390969
 30
0.0
 11
60.92848
 21
-0.649663193895
 31
0.0
  0
LINE
  5
35A
330
30
100
AcDbEntity
  8
1
100
AcDbLine
 10
60.92848
 20
-0.649663193895
 30
0.0
 11
60.91952
 21
-0.658670860674
 31
0.0
  0
LINE
  5
35B
330
30
100
AcDbEntity
  8
1
100
AcDbLine
 10
60.91952
 20
-0.658670860674
 30
0.0
 11
60.91056
 21
-0.667700629876
 31
0.0
  0
LINE
  5
35C
330
30
100
AcDbEntity
  8
1
100
AcDbLine
 10
60.91056
 20
-0.667700629876
 30
0.0
 11
60.9016
 21
-0.676632208662
 31
0.0
  0
LINE
  5
35D
330
30
100
AcDbEntity
  8
1
100
AcDbLine
 10
60.9016
 20
-0.676632208662
 30
0.0
 11
60.89264
 21
-0.68531924136
 31
0.0
  0
LINE
  5
35E
330
30
100
AcDbEntity
  8
1
100
AcDbLine
 10
60.89264
 20
-0.68531924136
 30
0.0
 11
60.88368
 21
-0.693585403304
 31
0.0
  0
LINE
  5
35F
330
30
100
AcDbEntity
  8
1
100
AcDbLine
 10
60.88368
 20
-0.693585403304
 30
0.0
 11
60.87472
 21
-0.701220133097
 31
0.0
  0
LINE
  5
360
330
30
100
AcDbEntity
  8
1
100
AcDbLine
 10
60.87472
 20
-0.701220133097
 30
0.0
 11
60.86576
 21
-0.707974041465
 31
0.0
  0
LINE
  5
361
330
30
100
AcDbEntity
  8
1
100
AcDbLine
 10
60.86576
 20
-0.707974041465
 30
0.0
 11
60.8568
 21
-0.713554070117
 31
0.0
  0
LINE
  5
362
330
30
100
AcDbEntity
  8
1
100
AcDbLine
 10
60.8568
 20
-0.713554070117
 30
0.0
 11
60.84784
 21
-0.717618522364
 31
0.0
  0
LINE
  5
363
330
30
100
AcDbEntity
  8
1
100
AcDbLine
 10
60.84784
 20
-0.717618522364
 30
0.0
 11
60.83888
 21
-0.719772152309
 31
0.0
  0
LINE
  5
364
330
30
100
AcDbEntity
  8
1
100
AcDbLine
 10
60.83888
 20
-0.719772152309
 30
0.0
 11
60.835126395111
 21
-0.72
 31
0.0
  0
LINE
  5
365
330
30
100
AcDbEntity
  8
1
100
AcDbLine
 10
56.221
 20
-0.72
 30
0.0
 11
56.221
 21
0.72
 31
0.0
  0
LINE
  5
366
330
30
100
AcDbEntity
  8
1
100
AcDbLine
 10
54.504366976451
 20
1.022688718027
 30
0.0
 11
54.504366976451
 21
-1.022688718027
 31
0.0
  0
LINE
  5
367
330
30
100
AcDbEntity
  8
1
100
AcDbLine
 10
46.471831918424
 20
3.175
 30
0.0
 11
46.471831918424
 21
-3.175
 31
0.0
  0
LINE
  5
368
330
30
100
AcDbEntity
  8
1
100
AcDbLine
 10
46.471831918424
 20
-3.175
 30
0.0
 11
46.471831918424
 21
3.175
 31
0.0
  0
LINE
  5
369
330
30
100
AcDbEntity
  8
SK1
100
AcDbLine
 10
46.3
 20
3.175
 30
0.0
 11
0.7
 21
3.175
 31
0.0
  0
LINE
  5
36A
330
30
100
AcDbEntity
  8
SK1
100
AcDbLine
 10
0.7
 20
3.175
 30
0.0
 11
0.0
 21
2.475
 31
0.0
  0
LINE
  5
36B
330
30
100
AcDbEntity
  8
SK1
100
AcDbLine
 10
46.3
 20
-3.175
 30
0.0
 11
0.7
 21
-3.175
 31
0.0
  0
LINE
  5
36C
330
30
100
AcDbEntity
  8
SK1
100
AcDbLine
 10
0.7
 20
-3.175
 30
0.0
 11
0.0
 21
-2.475
 31
0.0
  0
LINE
  5
36D
330
30
100
AcDbEntity
  8
SK1
100
AcDbLine
 10
0.7
 20
3.175
 30
0.0
 11
0.7
 21
-3.175
 31
0.0
  0
LINE
  5
36E
330
30
100
AcDbEntity
  8
SK1
100
AcDbLine
 10
0.0
 20
2.475
 30
0.0
 11
0.0
 21
-2.475
 31
0.0
  0
LINE
  5
36F
330
30
100
AcDbEntity
  8
SK1
100
AcDbLine
 10
47.3401
 20
1.40688
 30
0.0
 11
47.7069
 21
1.0401
 31
0.0
  0
LINE
  5
370
330
30
100
AcDbEntity
  8
SK1
100
AcDbLine
 10
46.8328
 20
1.66666
 30
0.0
 11
47.9667
 21
0.532833
 31
0.0
  0
LINE
  5
371
330
30
100
AcDbEntity
  8
SK1
100
AcDbLine
 10
46.5154
 20
1.73657
 30
0.0
 11
48.0366
 21
0.215434
 31
0.0
  0
LINE
  5
372
330
30
100
AcDbEntity
  8
SK1
100
AcDbLine
 10
46.3
 20
1.70452
 30
0.0
 11
48.0045
 21
0.0
 31
0.0
  0
LINE
  5
373
330
30
100
AcDbEntity
  8
SK1
100
AcDbLine
 10
46.3
 20
1.45703
 30
0.0
 11
47.757
 21
0.0
 31
0.0
  0
LINE
  5
374
330
30
100
AcDbEntity
  8
SK1
100
AcDbLine
 10
46.3
 20
1.20954
 30
0.0
 11
47.5095
 21
0.0
 31
0.0
  0
LINE
  5
375
330
30
100
AcDbEntity
  8
SK1
100
AcDbLine
 10
46.3
 20
0.962054
 30
0.0
 11
47.2621
 21
0.0
 31
0.0
  0
LINE
  5
376
330
30
100
AcDbEntity
  8
SK1
100
AcDbLine
 10
46.3
 20
0.714566
 30
0.0
 11
47.0146
 21
0.0
 31
0.0
  0
LINE
  5
377
330
30
100
AcDbEntity
  8
SK1
100
AcDbLine
 10
46.3
 20
0.467079
 30
0.0
 11
46.7671
 21
0.0
 31
0.0
  0
LINE
  5
378
330
30
100
AcDbEntity
  8
SK1
100
AcDbLine
 10
46.3
 20
0.219592
 30
0.0
 11
46.5196
 21
0.0
 31
0.0
  0
LINE
  5
379
330
30
100
AcDbEntity
  8
SK1
100
AcDbLine
 10
46.3
 20
1.70452
 30
0.0
 11
46.3441
 21
1.74861
 31
0.0
  0
LINE
  5
37A
330
30
100
AcDbEntity
  8
SK1
100
AcDbLine
 10
46.3
 20
1.45703
 30
0.0
 11
46.571
 21
1.72802
 31
0.0
  0
LINE
  5
37B
330
30
100
AcDbEntity
  8
SK1
100
AcDbLine
 10
46.3
 20
1.20954
 30
0.0
 11
46.7742
 21
1.6837
 31
0.0
  0
LINE
  5
37C
330
30
100
AcDbEntity
  8
SK1
100
AcDbLine
 10
46.3
 20
0.962054
 30
0.0
 11
46.9588
 21
1.62082
 31
0.0
  0
LINE
  5
37D
330
30
100
AcDbEntity
  8
SK1
100
AcDbLine
 10
46.3
 20
0.714566
 30
0.0
 11
47.1271
 21
1.54167
 31
0.0
  0
LINE
  5
37E
330
30
100
AcDbEntity
  8
SK1
100
AcDbLine
 10
46.3
 20
0.467079
 30
0.0
 11
47.281
 21
1.44812
 31
0.0
  0
LINE
  5
37F
330
30
100
AcDbEntity
  8
SK1
100
AcDbLine
 10
46.3
 20
0.219592
 30
0.0
 11
47.4226
 21
1.34216
 31
0.0
  0
LINE
  5
380
330
30
100
AcDbEntity
  8
SK1
100
AcDbLine
 10
46.3279
 20
0.0
 30
0.0
 11
47.5508
 21
1.22288
 31
0.0
  0
LINE
  5
381
330
30
100
AcDbEntity
  8
SK1
100
AcDbLine
 10
46.5754
 20
0.0
 30
0.0
 11
47.667
 21
1.09157
 31
0.0
  0
LINE
  5
382
330
30
100
AcDbEntity
  8
SK1
100
AcDbLine
 10
46.8229
 20
0.0
 30
0.0
 11
47.7707
 21
0.947822
 31
0.0
  0
LINE
  5
383
330
30
100
AcDbEntity
  8
SK1
100
AcDbLine
 10
47.0704
 20
0.0
 30
0.0
 11
47.8605
 21
0.790145
 31
0.0
  0
LINE
  5
384
330
30
100
AcDbEntity
  8
SK1
100
AcDbLine
 10
47.3178
 20
0.0
 30
0.0
 11
47.9364
 21
0.618517
 31
0.0
  0
LINE
  5
385
330
30
100
AcDbEntity
  8
SK1
100
AcDbLine
 10
47.5653
 20
0.0
 30
0.0
 11
47.996
 21
0.430696
 31
0.0
  0
LINE
  5
386
330
30
100
AcDbEntity
  8
SK1
100
AcDbLine
 10
47.8128
 20
0.0
 30
0.0
 11
48.0356
 21
0.222827
 31
0.0
  0
LINE
  5
387
330
30
100
AcDbEntity
  8
SK1
100
AcDbLine
 10
46.3
 20
0.0
 30
0.0
 11
46.3
 21
1.75
 31
0.0
  0
LINE
  5
388
330
30
100
AcDbEntity
  8
SK1
100
AcDbLine
 10
46.3
 20
0.0
 30
0.0
 11
48.05
 21
0.0
 31
0.0
  0
ARC
  5
389
330
30
100
AcDbEntity
  8
SK1
100
AcDbCircle
 10
46.3
 20
0.0
 30
0.0
 40
1.75
100
AcDbArc
 50
0.0
 51
90.0
  0
ARC
  5
38A
330
30
100
AcDbEntity
  8
SK1
100
AcDbCircle
 10
46.3
 20
0.0
 30
0.0
 40
1.75
100
AcDbArc
 50
90.0
 51
180.0
  0
LINE
  5
38B
330
30
100
AcDbEntity
  8
SK1
100
AcDbLine
 10
46.2721
 20
0.0
 30
0.0
 11
46.3
 21
-0.0278958
 31
0.0
  0
LINE
  5
38C
330
30
100
AcDbEntity
  8
SK1
100
AcDbLine
 10
46.0246
 20
0.0
 30
0.0
 11
46.3
 21
-0.275383
 31
0.0
  0
LINE
  5
38D
330
30
100
AcDbEntity
  8
SK1
100
AcDbLine
 10
45.7771
 20
0.0
 30
0.0
 11
46.3
 21
-0.522871
 31
0.0
  0
LINE
  5
38E
330
30
100
AcDbEntity
  8
SK1
100
AcDbLine
 10
45.5296
 20
0.0
 30
0.0
 11
46.3
 21
-0.770358
 31
0.0
  0
LINE
  5
38F
330
30
100
AcDbEntity
  8
SK1
100
AcDbLine
 10
45.2822
 20
0.0
 30
0.0
 11
46.3
 21
-1.01785
 31
0.0
  0
LINE
  5
390
330
30
100
AcDbEntity
  8
SK1
100
AcDbLine
 10
45.0347
 20
0.0
 30
0.0
 11
46.3
 21
-1.26533
 31
0.0
  0
LINE
  5
391
330
30
100
AcDbEntity
  8
SK1
100
AcDbLine
 10
44.7872
 20
0.0
 30
0.0
 11
46.3
 21
-1.51282
 31
0.0
  0
LINE
  5
392
330
30
100
AcDbEntity
  8
SK1
100
AcDbLine
 10
44.5503
 20
-0.0106419
 30
0.0
 11
46.2894
 21
-1.74967
 31
0.0
  0
LINE
  5
393
330
30
100
AcDbEntity
  8
SK1
100
AcDbLine
 10
44.5736
 20
-0.281429
 30
0.0
 11
46.0186
 21
-1.72637
 31
0.0
  0
LINE
  5
394
330
30
100
AcDbEntity
  8
SK1
100
AcDbLine
 10
44.6639
 20
-0.619147
 30
0.0
 11
45.6809
 21
-1.63613
 31
0.0
  0
LINE
  5
395
330
30
100
AcDbEntity
  8
SK1
100
AcDbLine
 10
44.5514
 20
-0.0440984
 30
0.0
 11
44.5955
 21
0.0
 31
0.0
  0
LINE
  5
396
330
30
100
AcDbEntity
  8
SK1
100
AcDbLine
 10
44.572
 20
-0.270991
 30
0.0
 11
44.843
 21
0.0
 31
0.0
  0
LINE
  5
397
330
30
100
AcDbEntity
  8
SK1
100
AcDbLine
 10
44.6163
 20
-0.474162
 30
0.0
 11
45.0905
 21
0.0
 31
0.0
  0
LINE
  5
398
330
30
100
AcDbEntity
  8
SK1
100
AcDbLine
 10
44.6792
 20
-0.658762
 30
0.0
 11
45.3379
 21
0.0
 31
0.0
  0
LINE
  5
399
330
30
100
AcDbEntity
  8
SK1
100
AcDbLine
 10
44.7583
 20
-0.827105
 30
0.0
 11
45.5854
 21
0.0
 31
0.0
  0
LINE
  5
39A
330
30
100
AcDbEntity
  8
SK1
100
AcDbLine
 10
44.8519
 20
-0.981039
 30
0.0
 11
45.8329
 21
0.0
 31
0.0
  0
LINE
  5
39B
330
30
100
AcDbEntity
  8
SK1
100
AcDbLine
 10
44.9578
 20
-1.12257
 30
0.0
 11
46.0804
 21
0.0
 31
0.0
  0
LINE
  5
39C
330
30
100
AcDbEntity
  8
SK1
100
AcDbLine
 10
45.0771
 20
-1.25077
 30
0.0
 11
46.3
 21
-0.0278958
 31
0.0
  0
LINE
  5
39D
330
30
100
AcDbEntity
  8
SK1
100
AcDbLine
 10
45.2084
 20
-1.36695
 30
0.0
 11
46.3
 21
-0.275383
 31
0.0
  0
LINE
  5
39E
330
30
100
AcDbEntity
  8
SK1
100
AcDbLine
 10
45.3522
 20
-1.47069
 30
0.0
 11
46.3
 21
-0.522871
 31
0.0
  0
LINE
  5
39F
330
30
100
AcDbEntity
  8
SK1
100
AcDbLine
 10
45.5099
 20
-1.5605
 30
0.0
 11
46.3
 21
-0.770358
 31
0.0
  0
LINE
  5
3A0
330
30
100
AcDbEntity
  8
SK1
100
AcDbLine
 10
45.6815
 20
-1.63636
 30
0.0
 11
46.3
 21
-1.01785
 31
0.0
  0
LINE
  5
3A1
330
30
100
AcDbEntity
  8
SK1
100
AcDbLine
 10
45.8693
 20
-1.69603
 30
0.0
 11
46.3
 21
-1.26533
 31
0.0
  0
LINE
  5
3A2
330
30
100
AcDbEntity
  8
SK1
100
AcDbLine
 10
46.0772
 20
-1.73565
 30
0.0
 11
46.3
 21
-1.51282
 31
0.0
  0
LINE
  5
3A3
330
30
100
AcDbEntity
  8
SK1
100
AcDbLine
 10
46.3
 20
0.0
 30
0.0
 11
44.55
 21
0.0
 31
0.0
  0
LINE
  5
3A4
330
30
100
AcDbEntity
  8
SK1
100
AcDbLine
 10
46.3
 20
-1.75
 30
0.0
 11
46.3
 21
0.0
 31
0.0
  0
ARC
  5
3A5
330
30
100
AcDbEntity
  8
SK1
100
AcDbCircle
 10
46.3
 20
0.0
 30
0.0
 40
1.75
100
AcDbArc
 50
180.0
 51
270.0
  0
ARC
  5
3A6
330
30
100
AcDbEntity
  8
SK1
100
AcDbCircle
 10
46.3
 20
0.0
 30
0.0
 40
1.75
100
AcDbArc
 50
270.0
 51
0.0
  0
LINE
  5
423
330
30
100
AcDbEntity
  8
NOCUT
100
AcDbLine
 10
62.4
 20
0.0
 30
0.0
 11
62.4
 21
0.72
 31
0.0
  0
LINE
  5
424
330
30
100
AcDbEntity
  8
NOCUT
100
AcDbLine
 10
62.4
 20
0.72
 30
0.0
 11
56.221
 21
0.72
 31
0.0
  0
ARC
  5
425
330
30
100
AcDbEntity
  8
NOCUT
100
AcDbCircle
 10
57.092557427477
 20
10.681946980917
 30
0.0
 40
10.0
100
AcDbArc
 50
255.0
 51
265.0
  0
LINE
  5
426
330
30
100
AcDbEntity
  8
NOCUT
100
AcDbLine
 10
54.504366976451
 20
1.022688718027
 30
0.0
 11
46.471831918424
 21
3.175
 31
0.0
  0
LINE
  5
427
330
30
100
AcDbEntity
  8
NOCUT
100
AcDbLine
 10
46.471831918424
 20
3.175
 30
0.0
 11
46.3
 21
3.175
 31
0.0
  0
LINE
  5
428
330
30
100
AcDbEntity
  8
NOCUT
100
AcDbLine
 10
46.3
 20
3.175
 30
0.0
 11
46.3
 21
0.0
 31
0.0
  0
LINE
  5
429
330
30
100
AcDbEntity
  8
NOCUT
100
AcDbLine
 10
46.3
 20
0.0
 30
0.0
 11
62.4
 21
0.0
 31
0.0
  0
ARC
  5
42A
330
30
100
AcDbEntity
  8
CUT
100
AcDbCircle
 10
62.706
 20
0.0
 30
0.0
 40
0.794
100
AcDbArc
 50
0.0
 51
90.0
  0
LINE
  5
42B
330
30
100
AcDbEntity
  8
CUT
100
AcDbLine
 10
62.706
 20
0.794
 30
0.0
 11
62.4
 21
0.794
 31
0.0
  0
LINE
  5
42C
330
30
100
AcDbEntity
  8
CUT
100
AcDbLine
 10
62.4
 20
0.794
 30
0.0
 11
62.4
 21
0.0
 31
0.0
  0
LINE
  5
42D
330
30
100
AcDbEntity
  8
CUT
100
AcDbLine
 10
62.4
 20
0.0
 30
0.0
 11
63.5
 21
0.0
 31
0.0
  0
LINE
  5
42E
330
30
100
AcDbEntity
  8
4
100
AcDbLine
 10
46.3
 20
0.0
 30
0.0
 11
63.5
 21
0.0
 31
0.0
  0
LINE
  5
42F
330
30
100
AcDbEntity
  8
SK4
100
AcDbLine
 10
-1.0
 20
0.0
 30
0.0
 11
64.5
 21
0.0
 31
0.0
  0
LINE
  5
430
330
30
100
AcDbEntity
  8
INFTOTAL
100
AcDbLine
 10
-19.475
 20
45.0
 30
0.0
 11
105.0
 21
45.0
 31
0.0
  0
LINE
  5
431
330
30
100
AcDbEntity
  8
INFTOTAL
100
AcDbLine
 10
105.0
 20
45.0
 30
0.0
 11
105.0
 21
-25.0
 31
0.0
  0
LINE
  5
432
330
30
100
AcDbEntity
  8
INFTOTAL
100
AcDbLine
 10
105.0
 20
-25.0
 30
0.0
 11
-19.475
 21
-25.0
 31
0.0
  0
LINE
  5
433
330
30
100
AcDbEntity
  8
INFTOTAL
100
AcDbLine
 10
-19.475
 20
-25.0
 30
0.0
 11
-19.475
 21
45.0
 31
0.0
  0
DIMENSION
  5
106AC10
330
30
100
AcDbEntity
  8
2
100
AcDbDimension
  2
*D11
 10
46.3
 20
30.0
 30
0.0
 11
54.9
 21
30.0
 31
0.0
 70
   160
  1
<>
 71
     5
 42
17.2
  3
STANDARD
100
AcDbAlignedDimension
 13
63.5
 23
0.0
 33
0.0
 14
46.3
 24
3.175
 34
0.0
100
AcDbRotatedDimension
1001
ACAD
1000
DSTYLE
1002
{
1070
   271
1070
     1
1070
   279
1070
     0
1070
    74
1070
     0
1002
}
  0
ENDSEC
  0
SECTION
  2
OBJECTS
  0
DICTIONARY
  5
434
330
0
100
AcDbDictionary
281
     1
  3
ACAD_GROUP
350
435
  3
ACAD_IMAGE_VARS
350
106ABDF
  3
ACAD_LAYOUT
350
106AB97
  3
ACAD_MATERIAL
350
106ABBC
  3
ACAD_MLEADERSTYLE
350
106ABDB
  3
ACAD_MLINESTYLE
350
106AB92
  3
ACAD_PLOTSETTINGS
350
106AB94
  3
ACAD_PLOTSTYLENAME
350
106AB95
  3
ACAD_SCALELIST
350
106AB9A
  3
ACAD_TABLESTYLE
350
106ABD9
  3
ACAD_VISUALSTYLE
350
106ABC0
  3
AcDbVariableDictionary
350
106AC23
  3
APPDATA
350
106ABDD
  3
DWGPROPS
350
106AC2A
  3
FX_DICT_DIMENSION_PALETTE
350
106ABEF
  3
FX_DICT_DIMENSION_PALETTE_RECENTLIST
350
106AC1E
  3
PRINTCONFIG
350
106ABE0
  0
DICTIONARY
  5
106AC2D
330
2
100
AcDbDictionary
280
     1
281
     1
  3
ACAD_XREC_ROUNDTRIP
360
106AC2E
  0
DICTIONARY
  5
106AC21
330
30
100
AcDbDictionary
280
     1
281
     1
  3
DIM_BOUNDING_BOXES_V1
360
106AC22
  0
DICTIONARY
  5
435
102
{ACAD_REACTORS
330
434
102
}
330
434
100
AcDbDictionary
281
     1
  0
RASTERVARIABLES
  5
106ABDF
102
{ACAD_REACTORS
330
434
102
}
330
434
100
AcDbRasterVariables
 90
        0
 70
     1
 71
     1
 72
     0
  0
DICTIONARY
  5
106AB97
102
{ACAD_REACTORS
330
434
102
}
330
434
100
AcDbDictionary
281
     1
  3
Model
350
106AB98
  3
シート 1
350
106AB99
  0
DICTIONARY
  5
106ABBC
102
{ACAD_REACTORS
330
434
102
}
330
434
100
AcDbDictionary
281
     1
  3
ByBlock
350
106ABBE
  3
ByLayer
350
106ABBD
  3
Global
350
106ABBF
  0
DICTIONARY
  5
106ABDB
102
{ACAD_REACTORS
330
434
102
}
330
434
100
AcDbDictionary
281
     1
  3
Standard
350
106ABDC
  0
DICTIONARY
  5
106AB92
102
{ACAD_REACTORS
330
434
102
}
330
434
100
AcDbDictionary
281
     1
  3
Standard
350
106AB93
  0
DICTIONARY
  5
106AB94
102
{ACAD_REACTORS
330
434
102
}
330
434
100
AcDbDictionary
281
     1
  0
ACDBDICTIONARYWDFLT
  5
106AB95
102
{ACAD_REACTORS
330
434
102
}
330
434
100
AcDbDictionary
281
     1
  3
Normal
350
106AB96
100
AcDbDictionaryWithDefault
340
106AB96
  0
DICTIONARY
  5
106AB9A
102
{ACAD_REACTORS
330
434
102
}
330
434
100
AcDbDictionary
281
     1
  3
A0
350
106AB9B
  3
A1
350
106AB9C
  3
A2
350
106AB9D
  3
A3
350
106AB9E
  3
A4
350
106AB9F
  3
A5
350
106ABA0
  3
A6
350
106ABA1
  3
A7
350
106ABA2
  3
A8
350
106ABA3
  3
A9
350
106ABA4
  3
B0
350
106ABA5
  3
B1
350
106ABA6
  3
B2
350
106ABA7
  3
B3
350
106ABA8
  3
B4
350
106ABA9
  3
B5
350
106ABAA
  3
B6
350
106ABAB
  3
B7
350
106ABAC
  3
B8
350
106ABAD
  3
B9
350
106ABAE
  3
C0
350
106ABAF
  3
C1
350
106ABB0
  3
C2
350
106ABB1
  3
C3
350
106ABB2
  3
C4
350
106ABB3
  3
C5
350
106ABB4
  3
C6
350
106ABB5
  3
C7
350
106ABB6
  3
C8
350
106ABB7
  3
C9
350
106ABB8
  3
D0
350
106ABB9
  3
D1
350
106ABBA
  3
D2
350
106ABBB
  0
DICTIONARY
  5
106ABD9
102
{ACAD_REACTORS
330
434
102
}
330
434
100
AcDbDictionary
281
     1
  3
Standard
350
106ABDA
  0
DICTIONARY
  5
106ABC0
102
{ACAD_REACTORS
330
434
102
}
330
434
100
AcDbDictionary
281
     1
  3
2dWireframe
350
106ABC5
  3
Basic
350
106ABC8
  3
Brighten
350
106ABCC
  3
ColorChange
350
106ABD0
  3
Conceptual
350
106ABCA
  3
Dim
350
106ABCB
  3
EdgeColorOff
350
106ABD3
  3
Facepattern
350
106ABCF
  3
Flat
350
106ABC1
  3
FlatWithEdges
350
106ABC2
  3
Gouraud
350
106ABC3
  3
GouraudWithEdges
350
106ABC4
  3
Hidden
350
106ABC7
  3
JitterOff
350
106ABD1
  3
Linepattern
350
106ABCE
  3
OverhangOff
350
106ABD2
  3
Realistic
350
106ABC9
  3
Shaded
350
106ABD8
  3
Shaded with edges
350
106ABD7
  3
Shades of Gray
350
106ABD4
  3
Sketchy
350
106ABD5
  3
Thicken
350
106ABCD
  3
Wireframe
350
106ABC6
  3
X-Ray
350
106ABD6
  0
DICTIONARY
  5
106AC23
102
{ACAD_REACTORS
330
434
102
}
330
434
100
AcDbDictionary
281
     1
  3
CANNOSCALE
350
106AC2F
  3
CMLEADERSTYLE
350
106AC25
  3
CTABLESTYLE
350
106AC24
  3
DIMASSOC
350
106AC28
  3
HIDETEXT
350
106AC29
  3
MSLTSCALE
350
106AC30
  0
DICTIONARY
  5
106ABDD
102
{ACAD_REACTORS
330
434
102
}
330
434
100
AcDbDictionary
281
     1
  0
XRECORD
  5
106AC2A
102
{ACAD_REACTORS
330
434
102
}
330
434
100
AcDbXrecord
280
     1
  1
DWGPROPS COOKIE
  2

  3

  4

  6

  7

  8
usr2460
  9

300
=
301
=
302
=
303
=
304
=
305
=
306
=
307
=
308
=
309
=
 40
0.0
 41
0.0
 42
2460768.19279029
  1

 90
        0
  0
DICTIONARY
  5
106ABEF
102
{ACAD_REACTORS
330
434
102
}
330
434
100
AcDbDictionary
281
     1
1001
FX_DIMP_FAV_VERSION
1071
        1
  0
DICTIONARY
  5
106AC1E
102
{ACAD_REACTORS
330
434
102
}
330
434
100
AcDbDictionary
281
     1
  3
0
350
106AC20
1001
FX_DIMP_RECENT_VERSION
1071
        1
  0
DICTIONARYVAR
  5
106ABE0
102
{ACAD_REACTORS
330
434
102
}
330
434
100
DictionaryVariables
280
     0
  1
0
  0
XRECORD
  5
106AC2E
102
{ACAD_REACTORS
330
106AC2D
102
}
330
106AC2D
100
AcDbXrecord
280
     1
102
VTR_0.000_0.000_1.000_1.000_GRIDDISPLAY
 70
     3
102
VTR_0.000_0.000_1.000_1.000_GRIDMAJOR
 70
     5
102
VTR_0.000_0.000_1.000_1.000_DEFAULTLIGHTING
280
     1
102
VTR_0.000_0.000_1.000_1.000_DEFAULTLIGHTINGTYPE
 70
     1
102
VTR_0.000_0.000_1.000_1.000_BRIGHTNESS
141
0.0
102
VTR_0.000_0.000_1.000_1.000_CONTRAST
142
0.0
  0
DICTIONARY
  5
106AC22
102
{ACAD_REACTORS
330
106AC21
102
}
330
106AC21
100
AcDbDictionary
281
     1
  0
LAYOUT
  5
106AB98
102
{ACAD_REACTORS
330
106AB97
102
}
330
106AB97
100
AcDbPlotSettings
  1

  2
none_device
  4
Letter_(8.50_x_11.00_Inches)
  6

 40
6.35
 41
6.35
 42
6.35
 43
6.35
 44
215.9
 45
279.4
 46
0.0
 47
0.0
 48
0.0
 49
0.0
140
0.0
141
0.0
142
1.0
143
2.21959459445662
 70
  1712
 72
     0
 73
     0
 74
     0
  7

 75
     0
147
0.4505327245333333
148
-39.40881537143161
149
0.0
100
AcDbLayout
  1
Model
 70
     1
 71
     0
 10
0.0
 20
0.0
 11
12.0
 21
9.0
 12
0.0
 22
0.0
 32
0.0
 14
-19.475
 24
-25.0
 34
0.0
 15
105.0
 25
45.00000000000001
 35
0.0
146
0.0
 13
0.0
 23
0.0
 33
0.0
 16
1.0
 26
0.0
 36
0.0
 17
0.0
 27
1.0
 37
0.0
 76
     0
330
30
331
106AB91
  0
LAYOUT
  5
106AB99
102
{ACAD_REACTORS
330
106AB97
102
}
330
106AB97
100
AcDbPlotSettings
  1

  2
none_device
  4

  6

 40
0.0
 41
0.0
 42
0.0
 43
0.0
 44
0.0
 45
0.0
 46
0.0
 47
0.0
 48
0.0
 49
0.0
140
0.0
141
0.0
142
1.0
143
1.0
 70
   688
 72
     0
 73
     0
 74
     5
  7

 75
    16
147
1.0
148
0.0
149
0.0
100
AcDbLayout
  1
シート 1
 70
     1
 71
     1
 10
0.0
 20
0.0
 11
0.0
 21
0.0
 12
0.0
 22
0.0
 32
0.0
 14
1.000000000000000E+20
 24
1.000000000000000E+20
 34
1.000000000000000E+20
 15
-1.000000000000000E+20
 25
-1.000000000000000E+20
 35
-1.000000000000000E+20
146
0.0
 13
0.0
 23
0.0
 33
0.0
 16
1.0
 26
0.0
 36
0.0
 17
0.0
 27
1.0
 37
0.0
 76
     0
330
31
  0
MATERIAL
  5
106ABBE
102
{ACAD_REACTORS
330
106ABBC
102
}
102
{ACAD_XDICTIONARY
360
106AC33
102
}
330
106ABBC
100
AcDbMaterial
  1
ByBlock
  0
MATERIAL
  5
106ABBD
102
{ACAD_REACTORS
330
106ABBC
102
}
102
{ACAD_XDICTIONARY
360
106AC31
102
}
330
106ABBC
100
AcDbMaterial
  1
ByLayer
  0
MATERIAL
  5
106ABBF
102
{ACAD_REACTORS
330
106ABBC
102
}
102
{ACAD_XDICTIONARY
360
106AC35
102
}
330
106ABBC
100
AcDbMaterial
  1
Global
  0
MLEADERSTYLE
  5
106ABDC
102
{ACAD_REACTORS
330
106ABDB
102
}
102
{ACAD_XDICTIONARY
360
106AC68
102
}
330
106ABDB
100
AcDbMLeaderStyle
170
     2
171
     1
172
     0
 90
        2
 40
0.0
 41
0.0
173
     1
 91
-1056964608
340
4
 92
       -2
290
     1
 42
0.09
291
     1
 43
0.36
  3
Standard
341
0
 44
0.18
300

342
28
174
     1
178
     1
175
     1
176
     0
 93
-1056964608
 45
0.18
292
     0
297
     0
 46
0.18
343
0
 94
-1056964608
 47
1.0
 49
1.0
140
1.0
293
     1
141
0.0
294
     1
177
     0
142
1.0
295
     0
296
     0
143
0.125
1001
ACAD_MLEADERVER
1070
     2
  0
MLINESTYLE
  5
106AB93
102
{ACAD_REACTORS
330
106AB92
102
}
330
106AB92
100
AcDbMlineStyle
  2
Standard
 70
     0
  3

 62
   256
 51
90.0
 52
90.0
 71
     2
 49
0.5
 62
   256
  6
BYLAYER
 49
-0.5
 62
   256
  6
BYLAYER
  0
ACDBPLACEHOLDER
  5
106AB96
102
{ACAD_REACTORS
330
106AB95
102
}
330
106AB95
  0
SCALE
  5
106AB9B
102
{ACAD_REACTORS
330
106AB9A
102
}
330
106AB9A
100
AcDbScale
 70
     0
300
1:1
140
1.0
141
1.0
290
     1
  0
SCALE
  5
106AB9C
102
{ACAD_REACTORS
330
106AB9A
102
}
330
106AB9A
100
AcDbScale
 70
     0
300
1:2
140
1.0
141
2.0
290
     0
  0
SCALE
  5
106AB9D
102
{ACAD_REACTORS
330
106AB9A
102
}
330
106AB9A
100
AcDbScale
 70
     0
300
1:4
140
1.0
141
4.0
290
     0
  0
SCALE
  5
106AB9E
102
{ACAD_REACTORS
330
106AB9A
102
}
330
106AB9A
100
AcDbScale
 70
     0
300
1:5
140
1.0
141
5.0
290
     0
  0
SCALE
  5
106AB9F
102
{ACAD_REACTORS
330
106AB9A
102
}
330
106AB9A
100
AcDbScale
 70
     0
300
1:8
140
1.0
141
8.0
290
     0
  0
SCALE
  5
106ABA0
102
{ACAD_REACTORS
330
106AB9A
102
}
330
106AB9A
100
AcDbScale
 70
     0
300
1:10
140
1.0
141
10.0
290
     0
  0
SCALE
  5
106ABA1
102
{ACAD_REACTORS
330
106AB9A
102
}
330
106AB9A
100
AcDbScale
 70
     0
300
1:16
140
1.0
141
16.0
290
     0
  0
SCALE
  5
106ABA2
102
{ACAD_REACTORS
330
106AB9A
102
}
330
106AB9A
100
AcDbScale
 70
     0
300
1:20
140
1.0
141
20.0
290
     0
  0
SCALE
  5
106ABA3
102
{ACAD_REACTORS
330
106AB9A
102
}
330
106AB9A
100
AcDbScale
 70
     0
300
1:30
140
1.0
141
30.0
290
     0
  0
SCALE
  5
106ABA4
102
{ACAD_REACTORS
330
106AB9A
102
}
330
106AB9A
100
AcDbScale
 70
     0
300
1:40
140
1.0
141
40.0
290
     0
  0
SCALE
  5
106ABA5
102
{ACAD_REACTORS
330
106AB9A
102
}
330
106AB9A
100
AcDbScale
 70
     0
300
1:50
140
1.0
141
50.0
290
     0
  0
SCALE
  5
106ABA6
102
{ACAD_REACTORS
330
106AB9A
102
}
330
106AB9A
100
AcDbScale
 70
     0
300
1:100
140
1.0
141
100.0
290
     0
  0
SCALE
  5
106ABA7
102
{ACAD_REACTORS
330
106AB9A
102
}
330
106AB9A
100
AcDbScale
 70
     0
300
2:1
140
2.0
141
1.0
290
     0
  0
SCALE
  5
106ABA8
102
{ACAD_REACTORS
330
106AB9A
102
}
330
106AB9A
100
AcDbScale
 70
     0
300
4:1
140
4.0
141
1.0
290
     0
  0
SCALE
  5
106ABA9
102
{ACAD_REACTORS
330
106AB9A
102
}
330
106AB9A
100
AcDbScale
 70
     0
300
8:1
140
8.0
141
1.0
290
     0
  0
SCALE
  5
106ABAA
102
{ACAD_REACTORS
330
106AB9A
102
}
330
106AB9A
100
AcDbScale
 70
     0
300
10:1
140
10.0
141
1.0
290
     0
  0
SCALE
  5
106ABAB
102
{ACAD_REACTORS
330
106AB9A
102
}
330
106AB9A
100
AcDbScale
 70
     0
300
100:1
140
100.0
141
1.0
290
     0
  0
SCALE
  5
106ABAC
102
{ACAD_REACTORS
330
106AB9A
102
}
330
106AB9A
100
AcDbScale
 70
     0
300
1/128" = 1'-0"
140
0.0078125
141
12.0
290
     0
  0
SCALE
  5
106ABAD
102
{ACAD_REACTORS
330
106AB9A
102
}
330
106AB9A
100
AcDbScale
 70
     0
300
1/64" = 1'-0"
140
0.015625
141
12.0
290
     0
  0
SCALE
  5
106ABAE
102
{ACAD_REACTORS
330
106AB9A
102
}
330
106AB9A
100
AcDbScale
 70
     0
300
1/32" = 1'-0"
140
0.03125
141
12.0
290
     0
  0
SCALE
  5
106ABAF
102
{ACAD_REACTORS
330
106AB9A
102
}
330
106AB9A
100
AcDbScale
 70
     0
300
1/16" = 1'-0"
140
0.0625
141
12.0
290
     0
  0
SCALE
  5
106ABB0
102
{ACAD_REACTORS
330
106AB9A
102
}
330
106AB9A
100
AcDbScale
 70
     0
300
3/32" = 1'-0"
140
0.09375
141
12.0
290
     0
  0
SCALE
  5
106ABB1
102
{ACAD_REACTORS
330
106AB9A
102
}
330
106AB9A
100
AcDbScale
 70
     0
300
1/8" = 1'-0"
140
0.125
141
12.0
290
     0
  0
SCALE
  5
106ABB2
102
{ACAD_REACTORS
330
106AB9A
102
}
330
106AB9A
100
AcDbScale
 70
     0
300
3/16" = 1'-0"
140
0.1875
141
12.0
290
     0
  0
SCALE
  5
106ABB3
102
{ACAD_REACTORS
330
106AB9A
102
}
330
106AB9A
100
AcDbScale
 70
     0
300
1/4" = 1'-0"
140
0.25
141
12.0
290
     0
  0
SCALE
  5
106ABB4
102
{ACAD_REACTORS
330
106AB9A
102
}
330
106AB9A
100
AcDbScale
 70
     0
300
3/8" = 1'-0"
140
0.375
141
12.0
290
     0
  0
SCALE
  5
106ABB5
102
{ACAD_REACTORS
330
106AB9A
102
}
330
106AB9A
100
AcDbScale
 70
     0
300
1/2" = 1'-0"
140
0.5
141
12.0
290
     0
  0
SCALE
  5
106ABB6
102
{ACAD_REACTORS
330
106AB9A
102
}
330
106AB9A
100
AcDbScale
 70
     0
300
3/4" = 1'-0"
140
0.75
141
12.0
290
     0
  0
SCALE
  5
106ABB7
102
{ACAD_REACTORS
330
106AB9A
102
}
330
106AB9A
100
AcDbScale
 70
     0
300
1" = 1'-0"
140
1.0
141
12.0
290
     0
  0
SCALE
  5
106ABB8
102
{ACAD_REACTORS
330
106AB9A
102
}
330
106AB9A
100
AcDbScale
 70
     0
300
1-1/2" = 1'-0"
140
1.5
141
12.0
290
     0
  0
SCALE
  5
106ABB9
102
{ACAD_REACTORS
330
106AB9A
102
}
330
106AB9A
100
AcDbScale
 70
     0
300
3" = 1'-0"
140
3.0
141
12.0
290
     0
  0
SCALE
  5
106ABBA
102
{ACAD_REACTORS
330
106AB9A
102
}
330
106AB9A
100
AcDbScale
 70
     0
300
6" = 1'-0"
140
6.0
141
12.0
290
     0
  0
SCALE
  5
106ABBB
102
{ACAD_REACTORS
330
106AB9A
102
}
330
106AB9A
100
AcDbScale
 70
     0
300
1'-0" = 1'-0"
140
12.0
141
12.0
290
     0
  0
TABLESTYLE
  5
106ABDA
102
{ACAD_REACTORS
330
106ABD9
102
}
330
106ABD9
100
AcDbTableStyle
  3
Standard
 70
     0
 71
     0
 40
0.06
 41
0.06
280
     0
281
     0
  7
Monospac821 BT
140
0.18
170
     2
 62
     0
 63
   257
283
     0
274
    -2
284
     1
 64
     0
275
    -2
285
     1
 65
     0
276
    -2
286
     1
 66
     0
277
    -2
287
     1
 67
     0
278
    -2
288
     1
 68
     0
279
    -2
289
     1
 69
     0
  7
Monospac821 BT
140
0.25
170
     5
 62
     0
 63
   257
283
     0
274
    -2
284
     1
 64
     0
275
    -2
285
     1
 65
     0
276
    -2
286
     1
 66
     0
277
    -2
287
     1
 67
     0
278
    -2
288
     1
 68
     0
279
    -2
289
     1
 69
     0
  7
Monospac821 BT
140
0.18
170
     5
 62
     0
 63
   257
283
     0
274
    -2
284
     1
 64
     0
275
    -2
285
     1
 65
     0
276
    -2
286
     1
 66
     0
277
    -2
287
     1
 67
     0
278
    -2
288
     1
 68
     0
279
    -2
289
     1
 69
     0
  0
VISUALSTYLE
  5
106ABC5
102
{ACAD_REACTORS
330
106ABC0
102
}
102
{ACAD_XDICTIONARY
360
106AC3F
102
}
330
106ABC0
100
AcDbVisualStyle
  2
2dWireframe
 70
     4
 71
     0
 72
     2
 73
     0
 90
        0
 40
0.6
 41
30.0
 62
     5
 63
     7
 74
     1
 91
        4
 64
     7
 65
   257
 75
     1
175
     1
 42
1.0
 92
        0
 66
   257
 43
1.0
 76
     1
 77
     6
 78
     2
 67
     7
 79
     5
170
     0
171
     0
290
     0
174
     0
 93
        1
 44
0.0
173
     0
291
     0
 45
0.0
1001
ACAD
1000
AcDbSavedByObjectVersion
1070
     0
  0
VISUALSTYLE
  5
106ABC8
102
{ACAD_REACTORS
330
106ABC0
102
}
102
{ACAD_XDICTIONARY
360
106AC45
102
}
330
106ABC0
100
AcDbVisualStyle
  2
Basic
 70
     7
 71
     1
 72
     0
 73
     1
 90
        0
 40
0.6
 41
30.0
 62
     5
 63
     7
 74
     0
 91
        4
 64
     7
 65
   257
 75
     1
175
     1
 42
1.0
 92
        8
 66
     7
 43
1.0
 76
     1
 77
     6
 78
     2
 67
     7
 79
     5
170
     0
171
     0
290
     0
174
     0
 93
        1
 44
0.0
173
     0
291
     1
 45
0.0
1001
ACAD
1000
AcDbSavedByObjectVersion
1070
     0
  0
VISUALSTYLE
  5
106ABCC
102
{ACAD_REACTORS
330
106ABC0
102
}
102
{ACAD_XDICTIONARY
360
106AC4D
102
}
330
106ABC0
100
AcDbVisualStyle
  2
Brighten
 70
    12
 71
     2
 72
     2
 73
     0
 90
        0
 40
0.6
 41
30.0
 62
     5
 63
     7
 74
     1
 91
        4
 64
     7
 65
   257
 75
     1
175
     1
 42
1.0
 92
        8
 66
     7
 43
1.0
 76
     1
 77
     6
 78
     2
 67
     7
 79
     5
170
     0
171
     0
290
     0
174
     0
 93
        1
 44
50.0
173
     0
291
     1
 45
0.0
1001
ACAD
1000
AcDbSavedByObjectVersion
1070
     0
  0
VISUALSTYLE
  5
106ABD0
102
{ACAD_REACTORS
330
106ABC0
102
}
102
{ACAD_XDICTIONARY
360
106AC55
102
}
330
106ABC0
100
AcDbVisualStyle
  2
ColorChange
 70
    16
 71
     2
 72
     2
 73
     3
 90
        0
 40
0.6
 41
30.0
 62
     5
 63
     8
 74
     1
 91
        4
 64
     7
 65
   257
 75
     1
175
     1
 42
1.0
 92
        8
 66
     8
 43
1.0
 76
     1
 77
     6
 78
     2
 67
     7
 79
     5
170
     0
171
     0
290
     0
174
     0
 93
        1
 44
0.0
173
     0
291
     1
 45
0.0
1001
ACAD
1000
AcDbSavedByObjectVersion
1070
     0
  0
VISUALSTYLE
  5
106ABCA
102
{ACAD_REACTORS
330
106ABC0
102
}
102
{ACAD_XDICTIONARY
360
106AC49
102
}
330
106ABC0
100
AcDbVisualStyle
  2
Conceptual
 70
     9
 71
     3
 72
     2
 73
     0
 90
        0
 40
0.6
 41
30.0
 62
     5
 63
     7
 74
     2
 91
        2
 64
     7
 65
   257
 75
     1
175
     1
 42
179.0
 92
        8
 66
     7
 43
1.0
 76
     1
 77
     6
 78
     2
 67
     7
 79
     3
170
     0
171
     0
290
     0
174
     0
 93
        1
 44
0.0
173
     0
291
     0
 45
0.0
1001
ACAD
1000
AcDbSavedByObjectVersion
1070
     0
  0
VISUALSTYLE
  5
106ABCB
102
{ACAD_REACTORS
330
106ABC0
102
}
102
{ACAD_XDICTIONARY
360
106AC4B
102
}
330
106ABC0
100
AcDbVisualStyle
  2
Dim
 70
    11
 71
     2
 72
     2
 73
     0
 90
        0
 40
0.6
 41
30.0
 62
     5
 63
     7
 74
     1
 91
        4
 64
     7
 65
   257
 75
     1
175
     1
 42
1.0
 92
        8
 66
     7
 43
1.0
 76
     1
 77
     6
 78
     2
 67
     7
 79
     5
170
     0
171
     0
290
     0
174
     0
 93
        1
 44
-50.0
173
     0
291
     1
 45
0.0
1001
ACAD
1000
AcDbSavedByObjectVersion
1070
     0
  0
VISUALSTYLE
  5
106ABD3
102
{ACAD_REACTORS
330
106ABC0
102
}
102
{ACAD_XDICTIONARY
360
106AC5B
102
}
330
106ABC0
100
AcDbVisualStyle
  2
EdgeColorOff
 70
    22
 71
     2
 72
     2
 73
     0
 90
        0
 40
0.6
 41
30.0
 62
     5
 63
     7
 74
     1
 91
        4
 64
     7
 65
   257
 75
     1
175
     1
 42
1.0
 92
        8
 66
     7
 43
1.0
 76
     1
 77
     6
 78
     2
 67
     7
 79
     5
170
     0
171
     0
290
     0
174
     0
 93
        1
 44
0.0
173
     0
291
     1
 45
0.0
1001
ACAD
1000
AcDbSavedByObjectVersion
1070
     0
  0
VISUALSTYLE
  5
106ABCF
102
{ACAD_REACTORS
330
106ABC0
102
}
102
{ACAD_XDICTIONARY
360
106AC53
102
}
330
106ABC0
100
AcDbVisualStyle
  2
Facepattern
 70
    15
 71
     2
 72
     2
 73
     0
 90
        0
 40
0.6
 41
30.0
 62
     5
 63
     7
 74
     1
 91
        4
 64
     7
 65
   257
 75
     1
175
     1
 42
1.0
 92
        8
 66
     7
 43
1.0
 76
     1
 77
     6
 78
     2
 67
     7
 79
     5
170
     0
171
     0
290
     0
174
     0
 93
        1
 44
0.0
173
     0
291
     1
 45
0.0
1001
ACAD
1000
AcDbSavedByObjectVersion
1070
     0
  0
VISUALSTYLE
  5
106ABC1
102
{ACAD_REACTORS
330
106ABC0
102
}
102
{ACAD_XDICTIONARY
360
106AC37
102
}
330
106ABC0
100
AcDbVisualStyle
  2
Flat
 70
     0
 71
     2
 72
     1
 73
     1
 90
        2
 40
0.6
 41
30.0
 62
     5
 63
     7
 74
     0
 91
        0
 64
     7
 65
   257
 75
     1
175
     1
 42
1.0
 92
        8
 66
     7
 43
1.0
 76
     1
 77
     6
 78
     2
 67
     7
 79
     5
170
     0
171
     0
290
     0
174
     0
 93
       13
 44
0.0
173
     0
291
     1
 45
0.0
1001
ACAD
1000
AcDbSavedByObjectVersion
1070
     0
  0
VISUALSTYLE
  5
106ABC2
102
{ACAD_REACTORS
330
106ABC0
102
}
102
{ACAD_XDICTIONARY
360
106AC39
102
}
330
106ABC0
100
AcDbVisualStyle
  2
FlatWithEdges
 70
     1
 71
     2
 72
     1
 73
     1
 90
        2
 40
0.6
 41
30.0
 62
     5
 63
     7
 74
     1
 91
        0
 64
     7
 65
   257
 75
     1
175
     1
 42
1.0
 92
        0
 66
   257
 43
1.0
 76
     1
 77
     6
 78
     2
 67
     7
 79
     5
170
     0
171
     0
290
     0
174
     0
 93
       13
 44
0.0
173
     0
291
     1
 45
0.0
1001
ACAD
1000
AcDbSavedByObjectVersion
1070
     0
  0
VISUALSTYLE
  5
106ABC3
102
{ACAD_REACTORS
330
106ABC0
102
}
102
{ACAD_XDICTIONARY
360
106AC3B
102
}
330
106ABC0
100
AcDbVisualStyle
  2
Gouraud
 70
     2
 71
     2
 72
     2
 73
     1
 90
        2
 40
0.6
 41
30.0
 62
     5
 63
     7
 74
     0
 91
        0
 64
     7
 65
   257
 75
     1
175
     1
 42
1.0
 92
        0
 66
     7
 43
1.0
 76
     1
 77
     6
 78
     2
 67
     7
 79
     5
170
     0
171
     0
290
     0
174
     0
 93
       13
 44
0.0
173
     0
291
     1
 45
0.0
1001
ACAD
1000
AcDbSavedByObjectVersion
1070
     0
  0
VISUALSTYLE
  5
106ABC4
102
{ACAD_REACTORS
330
106ABC0
102
}
102
{ACAD_XDICTIONARY
360
106AC3D
102
}
330
106ABC0
100
AcDbVisualStyle
  2
GouraudWithEdges
 70
     3
 71
     2
 72
     2
 73
     1
 90
        2
 40
0.6
 41
30.0
 62
     5
 63
     7
 74
     1
 91
        0
 64
     7
 65
   257
 75
     1
175
     1
 42
1.0
 92
        0
 66
   257
 43
1.0
 76
     1
 77
     6
 78
     2
 67
     7
 79
     5
170
     0
171
     0
290
     0
174
     0
 93
       13
 44
0.0
173
     0
291
     1
 45
0.0
1001
ACAD
1000
AcDbSavedByObjectVersion
1070
     0
  0
VISUALSTYLE
  5
106ABC7
102
{ACAD_REACTORS
330
106ABC0
102
}
102
{ACAD_XDICTIONARY
360
106AC43
102
}
330
106ABC0
100
AcDbVisualStyle
  2
Hidden
 70
     6
 71
     1
 72
     2
 73
     2
 90
        0
 40
0.6
 41
30.0
 62
     5
 63
     7
 74
     2
 91
        2
 64
     7
 65
   257
 75
     2
175
     1
 42
40.0
 92
        0
 66
   257
 43
1.0
 76
     1
 77
     6
 78
     2
 67
     7
 79
     3
170
     0
171
     0
290
     0
174
     0
 93
        1
 44
0.0
173
     0
291
     0
 45
0.0
1001
ACAD
1000
AcDbSavedByObjectVersion
1070
     0
  0
VISUALSTYLE
  5
106ABD1
102
{ACAD_REACTORS
330
106ABC0
102
}
102
{ACAD_XDICTIONARY
360
106AC57
102
}
330
106ABC0
100
AcDbVisualStyle
  2
JitterOff
 70
    20
 71
     2
 72
     2
 73
     0
 90
        0
 40
0.6
 41
30.0
 62
     5
 63
     7
 74
     1
 91
        4
 64
     7
 65
   257
 75
     1
175
     1
 42
1.0
 92
       10
 66
     7
 43
1.0
 76
     1
 77
     6
 78
     2
 67
     7
 79
     5
170
     0
171
     0
290
     0
174
     0
 93
        1
 44
0.0
173
     0
291
     1
 45
0.0
1001
ACAD
1000
AcDbSavedByObjectVersion
1070
     0
  0
VISUALSTYLE
  5
106ABCE
102
{ACAD_REACTORS
330
106ABC0
102
}
102
{ACAD_XDICTIONARY
360
106AC51
102
}
330
106ABC0
100
AcDbVisualStyle
  2
Linepattern
 70
    14
 71
     2
 72
     2
 73
     0
 90
        0
 40
0.6
 41
30.0
 62
     5
 63
     7
 74
     1
 91
        4
 64
     7
 65
   257
 75
     7
175
     7
 42
1.0
 92
        8
 66
     7
 43
1.0
 76
     1
 77
     6
 78
     2
 67
     7
 79
     5
170
     0
171
     0
290
     0
174
     0
 93
        1
 44
0.0
173
     0
291
     1
 45
0.0
1001
ACAD
1000
AcDbSavedByObjectVersion
1070
     0
  0
VISUALSTYLE
  5
106ABD2
102
{ACAD_REACTORS
330
106ABC0
102
}
102
{ACAD_XDICTIONARY
360
106AC59
102
}
330
106ABC0
100
AcDbVisualStyle
  2
OverhangOff
 70
    21
 71
     2
 72
     2
 73
     0
 90
        0
 40
0.6
 41
30.0
 62
     5
 63
     7
 74
     1
 91
        4
 64
     7
 65
   257
 75
     1
175
     1
 42
1.0
 92
        9
 66
     7
 43
1.0
 76
     1
 77
     6
 78
     2
 67
     7
 79
     5
170
     0
171
     0
290
     0
174
     0
 93
        1
 44
0.0
173
     0
291
     1
 45
0.0
1001
ACAD
1000
AcDbSavedByObjectVersion
1070
     0
  0
VISUALSTYLE
  5
106ABC9
102
{ACAD_REACTORS
330
106ABC0
102
}
102
{ACAD_XDICTIONARY
360
106AC47
102
}
330
106ABC0
100
AcDbVisualStyle
  2
Realistic
 70
     8
 71
     2
 72
     3
 73
     0
 90
        2
 40
0.6
 41
30.0
 62
     5
 63
     7
 74
     0
 91
        0
 64
     7
 65
   257
 75
     1
175
     1
 42
1.0
 92
        8
 66
   257
 43
1.0
 76
     1
 77
     6
 78
     2
 67
     7
 79
     3
170
     0
171
     0
290
     0
174
     0
 93
       13
 44
0.0
173
     0
291
     0
 45
0.0
1001
ACAD
1000
AcDbSavedByObjectVersion
1070
     0
  0
VISUALSTYLE
  5
106ABD8
102
{ACAD_REACTORS
330
106ABC0
102
}
102
{ACAD_XDICTIONARY
360
106AC65
102
}
330
106ABC0
100
AcDbVisualStyle
  2
Shaded
 70
    27
 71
     2
 72
     2
 73
     1
 90
        2
 40
0.6
 41
30.0
 62
     5
 63
     7
 74
     0
 91
        4
 64
     7
 65
   257
 75
     1
175
     1
 42
1.0
 92
        8
 66
   257
 43
1.0
 76
     1
 77
     6
 78
     2
 67
     8
 79
     3
170
     0
171
     0
290
     0
174
     0
 93
        5
 44
0.0
173
     0
291
     0
 45
0.0
1001
ACAD
1000
AcDbSavedByObjectVersion
1070
     0
  0
VISUALSTYLE
  5
106ABD7
102
{ACAD_REACTORS
330
106ABC0
102
}
102
{ACAD_XDICTIONARY
360
106AC63
102
}
330
106ABC0
100
AcDbVisualStyle
  2
Shaded with edges
 70
    26
 71
     2
 72
     2
 73
     1
 90
        2
 40
0.6
 41
30.0
 62
     5
 63
     7
 74
     1
 91
       10
 64
     7
 65
   257
 75
     2
175
     1
 42
1.0
 92
        8
 66
   257
 43
1.0
 76
     1
 77
     6
 78
     2
 67
     7
 79
     3
170
     0
171
     0
290
     0
174
     0
 93
        5
 44
0.0
173
     0
291
     0
 45
0.0
1001
ACAD
1000
AcDbSavedByObjectVersion
1070
     0
  0
VISUALSTYLE
  5
106ABD4
102
{ACAD_REACTORS
330
106ABC0
102
}
102
{ACAD_XDICTIONARY
360
106AC5D
102
}
330
106ABC0
100
AcDbVisualStyle
  2
Shades of Gray
 70
    23
 71
     2
 72
     2
 73
     3
 90
        0
 40
0.6
 41
30.0
 62
     5
 63
     7
 74
     2
 91
        2
 64
     7
 65
     7
 75
     1
175
     1
 42
40.0
 92
        8
 66
     7
 43
1.0
 76
     1
 77
     6
 78
     2
 67
     7
 79
     3
170
     0
171
     0
290
     0
174
     0
 93
        1
 44
0.0
173
     0
291
     0
 45
0.0
1001
ACAD
1000
AcDbSavedByObjectVersion
1070
     0
  0
VISUALSTYLE
  5
106ABD5
102
{ACAD_REACTORS
330
106ABC0
102
}
102
{ACAD_XDICTIONARY
360
106AC5F
102
}
330
106ABC0
100
AcDbVisualStyle
  2
Sketchy
 70
    24
 71
     1
 72
     2
 73
     2
 90
        0
 40
0.6
 41
30.0
 62
     5
 63
     7
 74
     2
 91
        2
 64
     7
 65
     7
 75
     1
175
     1
 42
40.0
 92
       11
 66
     7
 43
1.0
 76
     1
 77
     6
 78
     2
 67
     7
 79
     6
170
     0
171
     0
290
     0
174
     0
 93
        1
 44
0.0
173
     0
291
     0
 45
0.0
1001
ACAD
1000
AcDbSavedByObjectVersion
1070
     0
  0
VISUALSTYLE
  5
106ABCD
102
{ACAD_REACTORS
330
106ABC0
102
}
102
{ACAD_XDICTIONARY
360
106AC4F
102
}
330
106ABC0
100
AcDbVisualStyle
  2
Thicken
 70
    13
 71
     2
 72
     2
 73
     0
 90
        0
 40
0.6
 41
30.0
 62
     5
 63
     7
 74
     1
 91
        4
 64
     7
 65
   257
 75
     1
175
     1
 42
1.0
 92
       12
 66
     7
 43
1.0
 76
     1
 77
     6
 78
     2
 67
     7
 79
     5
170
     0
171
     0
290
     0
174
     0
 93
        1
 44
0.0
173
     0
291
     1
 45
0.0
1001
ACAD
1000
AcDbSavedByObjectVersion
1070
     0
  0
VISUALSTYLE
  5
106ABC6
102
{ACAD_REACTORS
330
106ABC0
102
}
102
{ACAD_XDICTIONARY
360
106AC41
102
}
330
106ABC0
100
AcDbVisualStyle
  2
Wireframe
 70
     5
 71
     0
 72
     2
 73
     0
 90
        0
 40
0.6
 41
30.0
 62
     5
 63
     7
 74
     1
 91
        4
 64
     7
 65
   257
 75
     1
175
     1
 42
1.0
 92
        0
 66
   257
 43
1.0
 76
     1
 77
     6
 78
     2
 67
     7
 79
     3
170
     0
171
     0
290
     0
174
     0
 93
        1
 44
0.0
173
     0
291
     0
 45
0.0
1001
ACAD
1000
AcDbSavedByObjectVersion
1070
     0
  0
VISUALSTYLE
  5
106ABD6
102
{ACAD_REACTORS
330
106ABC0
102
}
102
{ACAD_XDICTIONARY
360
106AC61
102
}
330
106ABC0
100
AcDbVisualStyle
  2
X-Ray
 70
    25
 71
     2
 72
     2
 73
     1
 90
        1
 40
0.5
 41
30.0
 62
     5
 63
     7
 74
     1
 91
        0
 64
     7
 65
   257
 75
     1
175
     1
 42
1.0
 92
        8
 66
     7
 43
1.0
 76
     1
 77
     6
 78
     2
 67
     7
 79
     3
170
     0
171
     0
290
     0
174
     0
 93
       13
 44
0.0
173
     0
291
     0
 45
0.0
1001
ACAD
1000
AcDbSavedByObjectVersion
1070
     0
  0
DICTIONARYVAR
  5
106AC2F
102
{ACAD_REACTORS
330
106AC23
102
}
330
106AC23
100
DictionaryVariables
280
     0
  1
1:1
  0
DICTIONARYVAR
  5
106AC25
102
{ACAD_REACTORS
330
106AC23
102
}
330
106AC23
100
DictionaryVariables
280
     0
  1
Standard
  0
DICTIONARYVAR
  5
106AC24
102
{ACAD_REACTORS
330
106AC23
102
}
330
106AC23
100
DictionaryVariables
280
     0
  1
Standard
  0
DICTIONARYVAR
  5
106AC28
102
{ACAD_REACTORS
330
106AC23
102
}
330
106AC23
100
DictionaryVariables
280
     0
  1
2
  0
DICTIONARYVAR
  5
106AC29
102
{ACAD_REACTORS
330
106AC23
102
}
330
106AC23
100
DictionaryVariables
280
     0
  1
1
  0
DICTIONARYVAR
  5
106AC30
102
{ACAD_REACTORS
330
106AC23
102
}
330
106AC23
100
DictionaryVariables
280
     0
  1
1
  0
XRECORD
  5
106AC20
102
{ACAD_REACTORS
330
106AC1E
102
}
330
106AC1E
100
AcDbXrecord
280
     1
  2

  2

  2

 40
7.092283865411897E+99
 40
1.0
 90
        1
 40
0.0
 90
        0
 90
        0
 90
       24
 90
        0
  2

  2

  2

  2

290
     0
290
     0
  2
0
  2

  0
DICTIONARY
  5
106AC33
330
106ABBE
100
AcDbDictionary
280
     1
281
     1
  3
ACAD_XREC_ROUNDTRIP
360
106AC34
  0
DICTIONARY
  5
106AC31
330
106ABBD
100
AcDbDictionary
280
     1
281
     1
  3
ACAD_XREC_ROUNDTRIP
360
106AC32
  0
DICTIONARY
  5
106AC35
330
106ABBF
100
AcDbDictionary
280
     1
281
     1
  3
ACAD_XREC_ROUNDTRIP
360
106AC36
  0
DICTIONARY
  5
106AC68
330
106ABDC
100
AcDbDictionary
280
     1
281
     1
  3
ACAD_XREC_ROUNDTRIP
360
106AC69
  0
DICTIONARY
  5
106AC3F
330
106ABC5
100
AcDbDictionary
280
     1
281
     1
  3
ACAD_XREC_ROUNDTRIP
360
106AC40
  0
DICTIONARY
  5
106AC45
330
106ABC8
100
AcDbDictionary
280
     1
281
     1
  3
ACAD_XREC_ROUNDTRIP
360
106AC46
  0
DICTIONARY
  5
106AC4D
330
106ABCC
100
AcDbDictionary
280
     1
281
     1
  3
ACAD_XREC_ROUNDTRIP
360
106AC4E
  0
DICTIONARY
  5
106AC55
330
106ABD0
100
AcDbDictionary
280
     1
281
     1
  3
ACAD_XREC_ROUNDTRIP
360
106AC56
  0
DICTIONARY
  5
106AC49
330
106ABCA
100
AcDbDictionary
280
     1
281
     1
  3
ACAD_XREC_ROUNDTRIP
360
106AC4A
  0
DICTIONARY
  5
106AC4B
330
106ABCB
100
AcDbDictionary
280
     1
281
     1
  3
ACAD_XREC_ROUNDTRIP
360
106AC4C
  0
DICTIONARY
  5
106AC5B
330
106ABD3
100
AcDbDictionary
280
     1
281
     1
  3
ACAD_XREC_ROUNDTRIP
360
106AC5C
  0
DICTIONARY
  5
106AC53
330
106ABCF
100
AcDbDictionary
280
     1
281
     1
  3
ACAD_XREC_ROUNDTRIP
360
106AC54
  0
DICTIONARY
  5
106AC37
330
106ABC1
100
AcDbDictionary
280
     1
281
     1
  3
ACAD_XREC_ROUNDTRIP
360
106AC38
  0
DICTIONARY
  5
106AC39
330
106ABC2
100
AcDbDictionary
280
     1
281
     1
  3
ACAD_XREC_ROUNDTRIP
360
106AC3A
  0
DICTIONARY
  5
106AC3B
330
106ABC3
100
AcDbDictionary
280
     1
281
     1
  3
ACAD_XREC_ROUNDTRIP
360
106AC3C
  0
DICTIONARY
  5
106AC3D
330
106ABC4
100
AcDbDictionary
280
     1
281
     1
  3
ACAD_XREC_ROUNDTRIP
360
106AC3E
  0
DICTIONARY
  5
106AC43
330
106ABC7
100
AcDbDictionary
280
     1
281
     1
  3
ACAD_XREC_ROUNDTRIP
360
106AC44
  0
DICTIONARY
  5
106AC57
330
106ABD1
100
AcDbDictionary
280
     1
281
     1
  3
ACAD_XREC_ROUNDTRIP
360
106AC58
  0
DICTIONARY
  5
106AC51
330
106ABCE
100
AcDbDictionary
280
     1
281
     1
  3
ACAD_XREC_ROUNDTRIP
360
106AC52
  0
DICTIONARY
  5
106AC59
330
106ABD2
100
AcDbDictionary
280
     1
281
     1
  3
ACAD_XREC_ROUNDTRIP
360
106AC5A
  0
DICTIONARY
  5
106AC47
330
106ABC9
100
AcDbDictionary
280
     1
281
     1
  3
ACAD_XREC_ROUNDTRIP
360
106AC48
  0
DICTIONARY
  5
106AC65
330
106ABD8
100
AcDbDictionary
280
     1
281
     1
  3
ACAD_XREC_ROUNDTRIP
360
106AC66
  0
DICTIONARY
  5
106AC63
330
106ABD7
100
AcDbDictionary
280
     1
281
     1
  3
ACAD_XREC_ROUNDTRIP
360
106AC64
  0
DICTIONARY
  5
106AC5D
330
106ABD4
100
AcDbDictionary
280
     1
281
     1
  3
ACAD_XREC_ROUNDTRIP
360
106AC5E
  0
DICTIONARY
  5
106AC5F
330
106ABD5
100
AcDbDictionary
280
     1
281
     1
  3
ACAD_XREC_ROUNDTRIP
360
106AC60
  0
DICTIONARY
  5
106AC4F
330
106ABCD
100
AcDbDictionary
280
     1
281
     1
  3
ACAD_XREC_ROUNDTRIP
360
106AC50
  0
DICTIONARY
  5
106AC41
330
106ABC6
100
AcDbDictionary
280
     1
281
     1
  3
ACAD_XREC_ROUNDTRIP
360
106AC42
  0
DICTIONARY
  5
106AC61
330
106ABD6
100
AcDbDictionary
280
     1
281
     1
  3
ACAD_XREC_ROUNDTRIP
360
106AC62
  0
XRECORD
  5
106AC34
102
{ACAD_REACTORS
330
106AC33
102
}
330
106AC33
100
AcDbXrecord
280
     1
102
MATERIAL
148
0.0
149
0.0
149
0.0
 93
        0
 94
      127
282
     0
 72
     1
 77
     1
171
     1
175
     1
179
     1
273
     0
  0
XRECORD
  5
106AC32
102
{ACAD_REACTORS
330
106AC31
102
}
330
106AC31
100
AcDbXrecord
280
     1
102
MATERIAL
148
0.0
149
0.0
149
0.0
 93
        0
 94
      127
282
     0
 72
     1
 77
     1
171
     1
175
     1
179
     1
273
     0
  0
XRECORD
  5
106AC36
102
{ACAD_REACTORS
330
106AC35
102
}
330
106AC35
100
AcDbXrecord
280
     1
102
MATERIAL
148
0.0
149
0.0
149
0.0
 93
        0
 94
      127
282
     0
 72
     1
 77
     1
171
     1
175
     1
179
     1
273
     0
  0
XRECORD
  5
106AC69
102
{ACAD_REACTORS
330
106AC68
102
}
330
106AC68
100
AcDbXrecord
280
     1
102
ACAD_ROUNDTRIP_2010_MLEADER_STYLE
  0
XRECORD
  5
106AC40
102
{ACAD_REACTORS
330
106AC3F
102
}
330
106AC3F
100
AcDbXrecord
280
     1
102
RTVSPropertyOp0
 70
     1
102
RTVSPropertyOp1
 70
     1
102
RTVSPropertyOp2
 70
     1
102
RTVSPropertyOp3
 70
     1
102
RTVSPropertyOp4
 70
     1
102
RTVSPropertyOp5
 70
     1
102
RTVSPropertyOp6
 70
     1
102
RTVSPropertyOp7
 70
     1
102
RTVSPropertyOp8
 70
     1
102
RTVSPropertyOp9
 70
     1
102
RTVSPropertyOp10
 70
     1
102
RTVSPropertyOp11
 70
     1
102
RTVSPropertyOp12
 70
     1
102
RTVSPropertyOp13
 70
     1
102
RTVSPropertyOp14
 70
     1
102
RTVSPropertyOp15
 70
     1
102
RTVSPropertyOp16
 70
     1
102
RTVSPropertyOp17
 70
     1
102
RTVSPropertyOp18
 70
     1
102
RTVSPropertyOp19
 70
     1
102
RTVSPropertyOp20
 70
     1
102
RTVSPropertyOp21
 70
     1
102
RTVSPropertyOp22
 70
     1
102
RTVSPropertyOp23
 70
     1
102
RTVSPropertyOp24
 70
     1
102
RTVSPropertyOp25
 70
     1
102
RTVSPropertyOp26
 70
     1
102
RTVSPropertyOp27
 70
     1
102
RTVSPropertyOp28
 70
     1
102
RTVSPropertyOp29
 70
     1
102
RTVSPropertyOp30
 70
     1
102
RTVSPropertyOp31
 70
     1
102
RTVSPropertyOp32
 70
     1
102
RTVSPropertyOp33
 70
     1
102
RTVSPropertyOp34
 70
     1
102
RTVSPropertyOp35
 70
     1
102
RTVSPropertyOp36
 70
     1
102
RTVSPropertyOp37
 70
     1
102
RTVSPropertyOp38
 70
     1
102
RTVSPropertyOp39
 70
     1
102
RTVSPropertyOp40
 70
     1
102
RTVSPropertyOp41
 70
     1
102
RTVSPropertyOp42
 70
     1
102
RTVSPropertyOp43
 70
     1
102
RTVSPropertyOp44
 70
     1
102
RTVSPropertyOp45
 70
     1
102
RTVSPropertyOp46
 70
     1
102
RTVSPropertyOp47
 70
     1
102
RTVSPropertyOp48
 70
     1
102
RTVSPropertyOp49
 70
     1
102
RTVSPropertyOp50
 70
     1
102
RTVSPropertyOp51
 70
     0
102
RTVSPropertyOp52
 70
     0
102
RTVSPropertyOp53
 70
     1
102
RTVSPropertyOp54
 70
     1
102
RTVSPropertyOp55
 70
     1
102
RTVSPropertyOp56
 70
     1
102
RTVSPropertyOp57
 70
     1
102
RTVSPost2010Prop28
280
     1
102
RTVSPost2010PropOp28
 70
     1
102
RTVSPost2010Prop29
280
     1
102
RTVSPost2010PropOp29
 70
     1
102
RTVSPost2010Prop30
280
     0
102
RTVSPost2010PropOp30
 70
     1
102
RTVSPost2010Prop31
280
     0
102
RTVSPost2010PropOp31
 70
     1
102
RTVSPost2010Prop32
280
     0
102
RTVSPost2010PropOp32
 70
     1
102
RTVSPost2010Prop33
280
     0
102
RTVSPost2010PropOp33
 70
     1
102
RTVSPost2010Prop34
280
     0
102
RTVSPost2010PropOp34
 70
     1
102
RTVSPost2010Prop35
280
     0
102
RTVSPost2010PropOp35
 70
     1
102
RTVSPost2010Prop36
280
     0
102
RTVSPost2010PropOp36
 70
     1
102
RTVSPost2010Prop37
 90
       50
102
RTVSPost2010PropOp37
 70
     1
102
RTVSPost2010Prop38
140
0.0
102
RTVSPost2010PropOp38
 70
     1
102
RTVSPost2010Prop39
140
1.0
102
RTVSPost2010PropOp39
 70
     1
102
RTVSPost2010Prop40
 90
        0
102
RTVSPost2010PropOp40
 70
     1
102
RTVSPost2010Prop41ColorIndex
 90
       18
102
RTVSPost2010Prop41ColorRGB
 90
        0
102
RTVSPost2010PropOp41
 70
     1
102
RTVSPost2010Prop42
 90
       50
102
RTVSPost2010PropOp42
 70
     1
102
RTVSPost2010Prop43
 90
        3
102
RTVSPost2010PropOp43
 70
     1
102
RTVSPost2010Prop44ColorIndex
 90
        5
102
RTVSPost2010Prop44ColorRGB
 90
      255
102
RTVSPost2010PropOp44
 70
     1
102
RTVSPost2010Prop45
280
     0
102
RTVSPost2010PropOp45
 70
     1
102
RTVSPost2010Prop46
 90
       50
102
RTVSPost2010PropOp46
 70
     1
102
RTVSPost2010Prop47
 90
       50
102
RTVSPost2010PropOp47
 70
     1
102
RTVSPost2010Prop48
 90
       50
102
RTVSPost2010PropOp48
 70
     1
102
RTVSPost2010Prop49
280
     0
102
RTVSPost2010PropOp49
 70
     1
102
RTVSPost2010Prop50
 90
       50
102
RTVSPost2010PropOp50
 70
     1
102
RTVSPost2010Prop51ColorIndex
 90
      256
102
RTVSPost2010Prop51ColorRGB
 90
-16777216
102
RTVSPost2010PropOp51
 70
     0
102
RTVSPost2010Prop52
140
1.0
102
RTVSPost2010PropOp52
 70
     0
102
RTVSPost2010Prop53
 90
        2
102
RTVSPost2010PropOp53
 70
     1
102
RTVSPost2010Prop54
  1
strokes_ogs.tif
102
RTVSPost2010PropOp54
 70
     1
102
RTVSPost2010Prop55
280
     0
102
RTVSPost2010PropOp55
 70
     1
102
RTVSPost2010Prop56
140
1.0
102
RTVSPost2010PropOp56
 70
     1
102
RTVSPost2010Prop57
140
1.0
102
RTVSPost2010PropOp57
 70
     1
  0
XRECORD
  5
106AC46
102
{ACAD_REACTORS
330
106AC45
102
}
330
106AC45
100
AcDbXrecord
280
     1
102
RTVSPropertyOp0
 70
     1
102
RTVSPropertyOp1
 70
     1
102
RTVSPropertyOp2
 70
     1
102
RTVSPropertyOp3
 70
     1
102
RTVSPropertyOp4
 70
     1
102
RTVSPropertyOp5
 70
     1
102
RTVSPropertyOp6
 70
     1
102
RTVSPropertyOp7
 70
     1
102
RTVSPropertyOp8
 70
     1
102
RTVSPropertyOp9
 70
     1
102
RTVSPropertyOp10
 70
     1
102
RTVSPropertyOp11
 70
     1
102
RTVSPropertyOp12
 70
     1
102
RTVSPropertyOp13
 70
     1
102
RTVSPropertyOp14
 70
     1
102
RTVSPropertyOp15
 70
     1
102
RTVSPropertyOp16
 70
     1
102
RTVSPropertyOp17
 70
     1
102
RTVSPropertyOp18
 70
     1
102
RTVSPropertyOp19
 70
     1
102
RTVSPropertyOp20
 70
     1
102
RTVSPropertyOp21
 70
     1
102
RTVSPropertyOp22
 70
     1
102
RTVSPropertyOp23
 70
     1
102
RTVSPropertyOp24
 70
     1
102
RTVSPropertyOp25
 70
     1
102
RTVSPropertyOp26
 70
     1
102
RTVSPropertyOp27
 70
     1
102
RTVSPropertyOp28
 70
     1
102
RTVSPropertyOp29
 70
     1
102
RTVSPropertyOp30
 70
     1
102
RTVSPropertyOp31
 70
     1
102
RTVSPropertyOp32
 70
     1
102
RTVSPropertyOp33
 70
     1
102
RTVSPropertyOp34
 70
     1
102
RTVSPropertyOp35
 70
     1
102
RTVSPropertyOp36
 70
     1
102
RTVSPropertyOp37
 70
     1
102
RTVSPropertyOp38
 70
     1
102
RTVSPropertyOp39
 70
     1
102
RTVSPropertyOp40
 70
     1
102
RTVSPropertyOp41
 70
     1
102
RTVSPropertyOp42
 70
     1
102
RTVSPropertyOp43
 70
     1
102
RTVSPropertyOp44
 70
     1
102
RTVSPropertyOp45
 70
     1
102
RTVSPropertyOp46
 70
     1
102
RTVSPropertyOp47
 70
     1
102
RTVSPropertyOp48
 70
     1
102
RTVSPropertyOp49
 70
     1
102
RTVSPropertyOp50
 70
     1
102
RTVSPropertyOp51
 70
     0
102
RTVSPropertyOp52
 70
     0
102
RTVSPropertyOp53
 70
     1
102
RTVSPropertyOp54
 70
     1
102
RTVSPropertyOp55
 70
     1
102
RTVSPropertyOp56
 70
     1
102
RTVSPropertyOp57
 70
     1
102
RTVSPost2010Prop28
280
     0
102
RTVSPost2010PropOp28
 70
     1
102
RTVSPost2010Prop29
280
     1
102
RTVSPost2010PropOp29
 70
     1
102
RTVSPost2010Prop30
280
     1
102
RTVSPost2010PropOp30
 70
     1
102
RTVSPost2010Prop31
280
     0
102
RTVSPost2010PropOp31
 70
     1
102
RTVSPost2010Prop32
280
     0
102
RTVSPost2010PropOp32
 70
     1
102
RTVSPost2010Prop33
280
     0
102
RTVSPost2010PropOp33
 70
     1
102
RTVSPost2010Prop34
280
     0
102
RTVSPost2010PropOp34
 70
     1
102
RTVSPost2010Prop35
280
     0
102
RTVSPost2010PropOp35
 70
     1
102
RTVSPost2010Prop36
280
     0
102
RTVSPost2010PropOp36
 70
     1
102
RTVSPost2010Prop37
 90
       50
102
RTVSPost2010PropOp37
 70
     1
102
RTVSPost2010Prop38
140
0.0
102
RTVSPost2010PropOp38
 70
     1
102
RTVSPost2010Prop39
140
1.0
102
RTVSPost2010PropOp39
 70
     1
102
RTVSPost2010Prop40
 90
        0
102
RTVSPost2010PropOp40
 70
     1
102
RTVSPost2010Prop41ColorIndex
 90
       18
102
RTVSPost2010Prop41ColorRGB
 90
        0
102
RTVSPost2010PropOp41
 70
     1
102
RTVSPost2010Prop42
 90
       50
102
RTVSPost2010PropOp42
 70
     1
102
RTVSPost2010Prop43
 90
        3
102
RTVSPost2010PropOp43
 70
     1
102
RTVSPost2010Prop44ColorIndex
 90
        5
102
RTVSPost2010Prop44ColorRGB
 90
      255
102
RTVSPost2010PropOp44
 70
     1
102
RTVSPost2010Prop45
280
     0
102
RTVSPost2010PropOp45
 70
     1
102
RTVSPost2010Prop46
 90
       50
102
RTVSPost2010PropOp46
 70
     1
102
RTVSPost2010Prop47
 90
       50
102
RTVSPost2010PropOp47
 70
     1
102
RTVSPost2010Prop48
 90
       50
102
RTVSPost2010PropOp48
 70
     1
102
RTVSPost2010Prop49
280
     0
102
RTVSPost2010PropOp49
 70
     1
102
RTVSPost2010Prop50
 90
       50
102
RTVSPost2010PropOp50
 70
     1
102
RTVSPost2010Prop51ColorIndex
 90
      256
102
RTVSPost2010Prop51ColorRGB
 90
-16777216
102
RTVSPost2010PropOp51
 70
     0
102
RTVSPost2010Prop52
140
1.0
102
RTVSPost2010PropOp52
 70
     0
102
RTVSPost2010Prop53
 90
        2
102
RTVSPost2010PropOp53
 70
     1
102
RTVSPost2010Prop54
  1
strokes_ogs.tif
102
RTVSPost2010PropOp54
 70
     1
102
RTVSPost2010Prop55
280
     0
102
RTVSPost2010PropOp55
 70
     1
102
RTVSPost2010Prop56
140
1.0
102
RTVSPost2010PropOp56
 70
     1
102
RTVSPost2010Prop57
140
1.0
102
RTVSPost2010PropOp57
 70
     1
  0
XRECORD
  5
106AC4E
102
{ACAD_REACTORS
330
106AC4D
102
}
330
106AC4D
100
AcDbXrecord
280
     1
102
RTVSPropertyOp0
 70
     1
102
RTVSPropertyOp1
 70
     1
102
RTVSPropertyOp2
 70
     1
102
RTVSPropertyOp3
 70
     1
102
RTVSPropertyOp4
 70
     1
102
RTVSPropertyOp5
 70
     1
102
RTVSPropertyOp6
 70
     1
102
RTVSPropertyOp7
 70
     1
102
RTVSPropertyOp8
 70
     1
102
RTVSPropertyOp9
 70
     1
102
RTVSPropertyOp10
 70
     1
102
RTVSPropertyOp11
 70
     1
102
RTVSPropertyOp12
 70
     1
102
RTVSPropertyOp13
 70
     1
102
RTVSPropertyOp14
 70
     1
102
RTVSPropertyOp15
 70
     1
102
RTVSPropertyOp16
 70
     1
102
RTVSPropertyOp17
 70
     1
102
RTVSPropertyOp18
 70
     1
102
RTVSPropertyOp19
 70
     1
102
RTVSPropertyOp20
 70
     1
102
RTVSPropertyOp21
 70
     1
102
RTVSPropertyOp22
 70
     1
102
RTVSPropertyOp23
 70
     1
102
RTVSPropertyOp24
 70
     1
102
RTVSPropertyOp25
 70
     1
102
RTVSPropertyOp26
 70
     1
102
RTVSPropertyOp27
 70
     1
102
RTVSPropertyOp28
 70
     1
102
RTVSPropertyOp29
 70
     1
102
RTVSPropertyOp30
 70
     1
102
RTVSPropertyOp31
 70
     1
102
RTVSPropertyOp32
 70
     1
102
RTVSPropertyOp33
 70
     1
102
RTVSPropertyOp34
 70
     1
102
RTVSPropertyOp35
 70
     1
102
RTVSPropertyOp36
 70
     1
102
RTVSPropertyOp37
 70
     1
102
RTVSPropertyOp38
 70
     1
102
RTVSPropertyOp39
 70
     1
102
RTVSPropertyOp40
 70
     1
102
RTVSPropertyOp41
 70
     1
102
RTVSPropertyOp42
 70
     1
102
RTVSPropertyOp43
 70
     1
102
RTVSPropertyOp44
 70
     1
102
RTVSPropertyOp45
 70
     1
102
RTVSPropertyOp46
 70
     1
102
RTVSPropertyOp47
 70
     1
102
RTVSPropertyOp48
 70
     1
102
RTVSPropertyOp49
 70
     1
102
RTVSPropertyOp50
 70
     1
102
RTVSPropertyOp51
 70
     0
102
RTVSPropertyOp52
 70
     0
102
RTVSPropertyOp53
 70
     1
102
RTVSPropertyOp54
 70
     1
102
RTVSPropertyOp55
 70
     1
102
RTVSPropertyOp56
 70
     1
102
RTVSPropertyOp57
 70
     1
102
RTVSPost2010Prop28
280
     0
102
RTVSPost2010PropOp28
 70
     1
102
RTVSPost2010Prop29
280
     1
102
RTVSPost2010PropOp29
 70
     1
102
RTVSPost2010Prop30
280
     1
102
RTVSPost2010PropOp30
 70
     1
102
RTVSPost2010Prop31
280
     0
102
RTVSPost2010PropOp31
 70
     1
102
RTVSPost2010Prop32
280
     0
102
RTVSPost2010PropOp32
 70
     1
102
RTVSPost2010Prop33
280
     0
102
RTVSPost2010PropOp33
 70
     1
102
RTVSPost2010Prop34
280
     0
102
RTVSPost2010PropOp34
 70
     1
102
RTVSPost2010Prop35
280
     0
102
RTVSPost2010PropOp35
 70
     1
102
RTVSPost2010Prop36
280
     0
102
RTVSPost2010PropOp36
 70
     1
102
RTVSPost2010Prop37
 90
       50
102
RTVSPost2010PropOp37
 70
     1
102
RTVSPost2010Prop38
140
0.0
102
RTVSPost2010PropOp38
 70
     1
102
RTVSPost2010Prop39
140
1.0
102
RTVSPost2010PropOp39
 70
     1
102
RTVSPost2010Prop40
 90
        0
102
RTVSPost2010PropOp40
 70
     1
102
RTVSPost2010Prop41ColorIndex
 90
       18
102
RTVSPost2010Prop41ColorRGB
 90
        0
102
RTVSPost2010PropOp41
 70
     1
102
RTVSPost2010Prop42
 90
       50
102
RTVSPost2010PropOp42
 70
     1
102
RTVSPost2010Prop43
 90
        3
102
RTVSPost2010PropOp43
 70
     1
102
RTVSPost2010Prop44ColorIndex
 90
        5
102
RTVSPost2010Prop44ColorRGB
 90
      255
102
RTVSPost2010PropOp44
 70
     1
102
RTVSPost2010Prop45
280
     0
102
RTVSPost2010PropOp45
 70
     1
102
RTVSPost2010Prop46
 90
       50
102
RTVSPost2010PropOp46
 70
     1
102
RTVSPost2010Prop47
 90
       50
102
RTVSPost2010PropOp47
 70
     1
102
RTVSPost2010Prop48
 90
       50
102
RTVSPost2010PropOp48
 70
     1
102
RTVSPost2010Prop49
280
     0
102
RTVSPost2010PropOp49
 70
     1
102
RTVSPost2010Prop50
 90
       50
102
RTVSPost2010PropOp50
 70
     1
102
RTVSPost2010Prop51ColorIndex
 90
      256
102
RTVSPost2010Prop51ColorRGB
 90
-16777216
102
RTVSPost2010PropOp51
 70
     0
102
RTVSPost2010Prop52
140
1.0
102
RTVSPost2010PropOp52
 70
     0
102
RTVSPost2010Prop53
 90
        2
102
RTVSPost2010PropOp53
 70
     1
102
RTVSPost2010Prop54
  1
strokes_ogs.tif
102
RTVSPost2010PropOp54
 70
     1
102
RTVSPost2010Prop55
280
     0
102
RTVSPost2010PropOp55
 70
     1
102
RTVSPost2010Prop56
140
1.0
102
RTVSPost2010PropOp56
 70
     1
102
RTVSPost2010Prop57
140
1.0
102
RTVSPost2010PropOp57
 70
     1
  0
XRECORD
  5
106AC56
102
{ACAD_REACTORS
330
106AC55
102
}
330
106AC55
100
AcDbXrecord
280
     1
102
RTVSPropertyOp0
 70
     1
102
RTVSPropertyOp1
 70
     1
102
RTVSPropertyOp2
 70
     1
102
RTVSPropertyOp3
 70
     1
102
RTVSPropertyOp4
 70
     1
102
RTVSPropertyOp5
 70
     1
102
RTVSPropertyOp6
 70
     1
102
RTVSPropertyOp7
 70
     1
102
RTVSPropertyOp8
 70
     1
102
RTVSPropertyOp9
 70
     1
102
RTVSPropertyOp10
 70
     1
102
RTVSPropertyOp11
 70
     1
102
RTVSPropertyOp12
 70
     1
102
RTVSPropertyOp13
 70
     1
102
RTVSPropertyOp14
 70
     1
102
RTVSPropertyOp15
 70
     1
102
RTVSPropertyOp16
 70
     1
102
RTVSPropertyOp17
 70
     1
102
RTVSPropertyOp18
 70
     1
102
RTVSPropertyOp19
 70
     1
102
RTVSPropertyOp20
 70
     1
102
RTVSPropertyOp21
 70
     1
102
RTVSPropertyOp22
 70
     1
102
RTVSPropertyOp23
 70
     1
102
RTVSPropertyOp24
 70
     1
102
RTVSPropertyOp25
 70
     1
102
RTVSPropertyOp26
 70
     1
102
RTVSPropertyOp27
 70
     1
102
RTVSPropertyOp28
 70
     1
102
RTVSPropertyOp29
 70
     1
102
RTVSPropertyOp30
 70
     1
102
RTVSPropertyOp31
 70
     1
102
RTVSPropertyOp32
 70
     1
102
RTVSPropertyOp33
 70
     1
102
RTVSPropertyOp34
 70
     1
102
RTVSPropertyOp35
 70
     1
102
RTVSPropertyOp36
 70
     1
102
RTVSPropertyOp37
 70
     1
102
RTVSPropertyOp38
 70
     1
102
RTVSPropertyOp39
 70
     1
102
RTVSPropertyOp40
 70
     1
102
RTVSPropertyOp41
 70
     1
102
RTVSPropertyOp42
 70
     1
102
RTVSPropertyOp43
 70
     1
102
RTVSPropertyOp44
 70
     1
102
RTVSPropertyOp45
 70
     1
102
RTVSPropertyOp46
 70
     1
102
RTVSPropertyOp47
 70
     1
102
RTVSPropertyOp48
 70
     1
102
RTVSPropertyOp49
 70
     1
102
RTVSPropertyOp50
 70
     1
102
RTVSPropertyOp51
 70
     0
102
RTVSPropertyOp52
 70
     0
102
RTVSPropertyOp53
 70
     1
102
RTVSPropertyOp54
 70
     1
102
RTVSPropertyOp55
 70
     1
102
RTVSPropertyOp56
 70
     1
102
RTVSPropertyOp57
 70
     1
102
RTVSPost2010Prop28
280
     0
102
RTVSPost2010PropOp28
 70
     1
102
RTVSPost2010Prop29
280
     1
102
RTVSPost2010PropOp29
 70
     1
102
RTVSPost2010Prop30
280
     1
102
RTVSPost2010PropOp30
 70
     1
102
RTVSPost2010Prop31
280
     0
102
RTVSPost2010PropOp31
 70
     1
102
RTVSPost2010Prop32
280
     0
102
RTVSPost2010PropOp32
 70
     1
102
RTVSPost2010Prop33
280
     0
102
RTVSPost2010PropOp33
 70
     1
102
RTVSPost2010Prop34
280
     0
102
RTVSPost2010PropOp34
 70
     1
102
RTVSPost2010Prop35
280
     0
102
RTVSPost2010PropOp35
 70
     1
102
RTVSPost2010Prop36
280
     0
102
RTVSPost2010PropOp36
 70
     1
102
RTVSPost2010Prop37
 90
       50
102
RTVSPost2010PropOp37
 70
     1
102
RTVSPost2010Prop38
140
0.0
102
RTVSPost2010PropOp38
 70
     1
102
RTVSPost2010Prop39
140
1.0
102
RTVSPost2010PropOp39
 70
     1
102
RTVSPost2010Prop40
 90
        0
102
RTVSPost2010PropOp40
 70
     1
102
RTVSPost2010Prop41ColorIndex
 90
       18
102
RTVSPost2010Prop41ColorRGB
 90
        0
102
RTVSPost2010PropOp41
 70
     1
102
RTVSPost2010Prop42
 90
       50
102
RTVSPost2010PropOp42
 70
     1
102
RTVSPost2010Prop43
 90
        3
102
RTVSPost2010PropOp43
 70
     1
102
RTVSPost2010Prop44ColorIndex
 90
        5
102
RTVSPost2010Prop44ColorRGB
 90
      255
102
RTVSPost2010PropOp44
 70
     1
102
RTVSPost2010Prop45
280
     0
102
RTVSPost2010PropOp45
 70
     1
102
RTVSPost2010Prop46
 90
       50
102
RTVSPost2010PropOp46
 70
     1
102
RTVSPost2010Prop47
 90
       50
102
RTVSPost2010PropOp47
 70
     1
102
RTVSPost2010Prop48
 90
       50
102
RTVSPost2010PropOp48
 70
     1
102
RTVSPost2010Prop49
280
     0
102
RTVSPost2010PropOp49
 70
     1
102
RTVSPost2010Prop50
 90
       50
102
RTVSPost2010PropOp50
 70
     1
102
RTVSPost2010Prop51ColorIndex
 90
      256
102
RTVSPost2010Prop51ColorRGB
 90
-16777216
102
RTVSPost2010PropOp51
 70
     0
102
RTVSPost2010Prop52
140
1.0
102
RTVSPost2010PropOp52
 70
     0
102
RTVSPost2010Prop53
 90
        2
102
RTVSPost2010PropOp53
 70
     1
102
RTVSPost2010Prop54
  1
strokes_ogs.tif
102
RTVSPost2010PropOp54
 70
     1
102
RTVSPost2010Prop55
280
     0
102
RTVSPost2010PropOp55
 70
     1
102
RTVSPost2010Prop56
140
1.0
102
RTVSPost2010PropOp56
 70
     1
102
RTVSPost2010Prop57
140
1.0
102
RTVSPost2010PropOp57
 70
     1
  0
XRECORD
  5
106AC4A
102
{ACAD_REACTORS
330
106AC49
102
}
330
106AC49
100
AcDbXrecord
280
     1
102
RTVSPropertyOp0
 70
     1
102
RTVSPropertyOp1
 70
     1
102
RTVSPropertyOp2
 70
     1
102
RTVSPropertyOp3
 70
     1
102
RTVSPropertyOp4
 70
     1
102
RTVSPropertyOp5
 70
     1
102
RTVSPropertyOp6
 70
     1
102
RTVSPropertyOp7
 70
     1
102
RTVSPropertyOp8
 70
     1
102
RTVSPropertyOp9
 70
     1
102
RTVSPropertyOp10
 70
     1
102
RTVSPropertyOp11
 70
     1
102
RTVSPropertyOp12
 70
     1
102
RTVSPropertyOp13
 70
     1
102
RTVSPropertyOp14
 70
     1
102
RTVSPropertyOp15
 70
     1
102
RTVSPropertyOp16
 70
     1
102
RTVSPropertyOp17
 70
     1
102
RTVSPropertyOp18
 70
     1
102
RTVSPropertyOp19
 70
     1
102
RTVSPropertyOp20
 70
     1
102
RTVSPropertyOp21
 70
     1
102
RTVSPropertyOp22
 70
     1
102
RTVSPropertyOp23
 70
     1
102
RTVSPropertyOp24
 70
     1
102
RTVSPropertyOp25
 70
     1
102
RTVSPropertyOp26
 70
     1
102
RTVSPropertyOp27
 70
     1
102
RTVSPropertyOp28
 70
     1
102
RTVSPropertyOp29
 70
     1
102
RTVSPropertyOp30
 70
     1
102
RTVSPropertyOp31
 70
     1
102
RTVSPropertyOp32
 70
     1
102
RTVSPropertyOp33
 70
     1
102
RTVSPropertyOp34
 70
     1
102
RTVSPropertyOp35
 70
     1
102
RTVSPropertyOp36
 70
     1
102
RTVSPropertyOp37
 70
     1
102
RTVSPropertyOp38
 70
     1
102
RTVSPropertyOp39
 70
     1
102
RTVSPropertyOp40
 70
     1
102
RTVSPropertyOp41
 70
     1
102
RTVSPropertyOp42
 70
     1
102
RTVSPropertyOp43
 70
     1
102
RTVSPropertyOp44
 70
     1
102
RTVSPropertyOp45
 70
     1
102
RTVSPropertyOp46
 70
     1
102
RTVSPropertyOp47
 70
     1
102
RTVSPropertyOp48
 70
     1
102
RTVSPropertyOp49
 70
     1
102
RTVSPropertyOp50
 70
     1
102
RTVSPropertyOp51
 70
     0
102
RTVSPropertyOp52
 70
     0
102
RTVSPropertyOp53
 70
     1
102
RTVSPropertyOp54
 70
     1
102
RTVSPropertyOp55
 70
     1
102
RTVSPropertyOp56
 70
     1
102
RTVSPropertyOp57
 70
     1
102
RTVSPost2010Prop28
280
     0
102
RTVSPost2010PropOp28
 70
     1
102
RTVSPost2010Prop29
280
     1
102
RTVSPost2010PropOp29
 70
     1
102
RTVSPost2010Prop30
280
     1
102
RTVSPost2010PropOp30
 70
     1
102
RTVSPost2010Prop31
280
     0
102
RTVSPost2010PropOp31
 70
     1
102
RTVSPost2010Prop32
280
     0
102
RTVSPost2010PropOp32
 70
     1
102
RTVSPost2010Prop33
280
     0
102
RTVSPost2010PropOp33
 70
     1
102
RTVSPost2010Prop34
280
     0
102
RTVSPost2010PropOp34
 70
     1
102
RTVSPost2010Prop35
280
     0
102
RTVSPost2010PropOp35
 70
     1
102
RTVSPost2010Prop36
280
     0
102
RTVSPost2010PropOp36
 70
     1
102
RTVSPost2010Prop37
 90
       50
102
RTVSPost2010PropOp37
 70
     1
102
RTVSPost2010Prop38
140
0.0
102
RTVSPost2010PropOp38
 70
     1
102
RTVSPost2010Prop39
140
1.0
102
RTVSPost2010PropOp39
 70
     1
102
RTVSPost2010Prop40
 90
        0
102
RTVSPost2010PropOp40
 70
     1
102
RTVSPost2010Prop41ColorIndex
 90
       18
102
RTVSPost2010Prop41ColorRGB
 90
        0
102
RTVSPost2010PropOp41
 70
     1
102
RTVSPost2010Prop42
 90
       50
102
RTVSPost2010PropOp42
 70
     1
102
RTVSPost2010Prop43
 90
        3
102
RTVSPost2010PropOp43
 70
     1
102
RTVSPost2010Prop44ColorIndex
 90
        5
102
RTVSPost2010Prop44ColorRGB
 90
      255
102
RTVSPost2010PropOp44
 70
     1
102
RTVSPost2010Prop45
280
     0
102
RTVSPost2010PropOp45
 70
     1
102
RTVSPost2010Prop46
 90
       50
102
RTVSPost2010PropOp46
 70
     1
102
RTVSPost2010Prop47
 90
       50
102
RTVSPost2010PropOp47
 70
     1
102
RTVSPost2010Prop48
 90
       50
102
RTVSPost2010PropOp48
 70
     1
102
RTVSPost2010Prop49
280
     0
102
RTVSPost2010PropOp49
 70
     1
102
RTVSPost2010Prop50
 90
       50
102
RTVSPost2010PropOp50
 70
     1
102
RTVSPost2010Prop51ColorIndex
 90
      256
102
RTVSPost2010Prop51ColorRGB
 90
-16777216
102
RTVSPost2010PropOp51
 70
     0
102
RTVSPost2010Prop52
140
1.0
102
RTVSPost2010PropOp52
 70
     0
102
RTVSPost2010Prop53
 90
        2
102
RTVSPost2010PropOp53
 70
     1
102
RTVSPost2010Prop54
  1
strokes_ogs.tif
102
RTVSPost2010PropOp54
 70
     1
102
RTVSPost2010Prop55
280
     0
102
RTVSPost2010PropOp55
 70
     1
102
RTVSPost2010Prop56
140
1.0
102
RTVSPost2010PropOp56
 70
     1
102
RTVSPost2010Prop57
140
1.0
102
RTVSPost2010PropOp57
 70
     1
  0
XRECORD
  5
106AC4C
102
{ACAD_REACTORS
330
106AC4B
102
}
330
106AC4B
100
AcDbXrecord
280
     1
102
RTVSPropertyOp0
 70
     1
102
RTVSPropertyOp1
 70
     1
102
RTVSPropertyOp2
 70
     1
102
RTVSPropertyOp3
 70
     1
102
RTVSPropertyOp4
 70
     1
102
RTVSPropertyOp5
 70
     1
102
RTVSPropertyOp6
 70
     1
102
RTVSPropertyOp7
 70
     1
102
RTVSPropertyOp8
 70
     1
102
RTVSPropertyOp9
 70
     1
102
RTVSPropertyOp10
 70
     1
102
RTVSPropertyOp11
 70
     1
102
RTVSPropertyOp12
 70
     1
102
RTVSPropertyOp13
 70
     1
102
RTVSPropertyOp14
 70
     1
102
RTVSPropertyOp15
 70
     1
102
RTVSPropertyOp16
 70
     1
102
RTVSPropertyOp17
 70
     1
102
RTVSPropertyOp18
 70
     1
102
RTVSPropertyOp19
 70
     1
102
RTVSPropertyOp20
 70
     1
102
RTVSPropertyOp21
 70
     1
102
RTVSPropertyOp22
 70
     1
102
RTVSPropertyOp23
 70
     1
102
RTVSPropertyOp24
 70
     1
102
RTVSPropertyOp25
 70
     1
102
RTVSPropertyOp26
 70
     1
102
RTVSPropertyOp27
 70
     1
102
RTVSPropertyOp28
 70
     1
102
RTVSPropertyOp29
 70
     1
102
RTVSPropertyOp30
 70
     1
102
RTVSPropertyOp31
 70
     1
102
RTVSPropertyOp32
 70
     1
102
RTVSPropertyOp33
 70
     1
102
RTVSPropertyOp34
 70
     1
102
RTVSPropertyOp35
 70
     1
102
RTVSPropertyOp36
 70
     1
102
RTVSPropertyOp37
 70
     1
102
RTVSPropertyOp38
 70
     1
102
RTVSPropertyOp39
 70
     1
102
RTVSPropertyOp40
 70
     1
102
RTVSPropertyOp41
 70
     1
102
RTVSPropertyOp42
 70
     1
102
RTVSPropertyOp43
 70
     1
102
RTVSPropertyOp44
 70
     1
102
RTVSPropertyOp45
 70
     1
102
RTVSPropertyOp46
 70
     1
102
RTVSPropertyOp47
 70
     1
102
RTVSPropertyOp48
 70
     1
102
RTVSPropertyOp49
 70
     1
102
RTVSPropertyOp50
 70
     1
102
RTVSPropertyOp51
 70
     0
102
RTVSPropertyOp52
 70
     0
102
RTVSPropertyOp53
 70
     1
102
RTVSPropertyOp54
 70
     1
102
RTVSPropertyOp55
 70
     1
102
RTVSPropertyOp56
 70
     1
102
RTVSPropertyOp57
 70
     1
102
RTVSPost2010Prop28
280
     0
102
RTVSPost2010PropOp28
 70
     1
102
RTVSPost2010Prop29
280
     1
102
RTVSPost2010PropOp29
 70
     1
102
RTVSPost2010Prop30
280
     1
102
RTVSPost2010PropOp30
 70
     1
102
RTVSPost2010Prop31
280
     0
102
RTVSPost2010PropOp31
 70
     1
102
RTVSPost2010Prop32
280
     0
102
RTVSPost2010PropOp32
 70
     1
102
RTVSPost2010Prop33
280
     0
102
RTVSPost2010PropOp33
 70
     1
102
RTVSPost2010Prop34
280
     0
102
RTVSPost2010PropOp34
 70
     1
102
RTVSPost2010Prop35
280
     0
102
RTVSPost2010PropOp35
 70
     1
102
RTVSPost2010Prop36
280
     0
102
RTVSPost2010PropOp36
 70
     1
102
RTVSPost2010Prop37
 90
       50
102
RTVSPost2010PropOp37
 70
     1
102
RTVSPost2010Prop38
140
0.0
102
RTVSPost2010PropOp38
 70
     1
102
RTVSPost2010Prop39
140
1.0
102
RTVSPost2010PropOp39
 70
     1
102
RTVSPost2010Prop40
 90
        0
102
RTVSPost2010PropOp40
 70
     1
102
RTVSPost2010Prop41ColorIndex
 90
       18
102
RTVSPost2010Prop41ColorRGB
 90
        0
102
RTVSPost2010PropOp41
 70
     1
102
RTVSPost2010Prop42
 90
       50
102
RTVSPost2010PropOp42
 70
     1
102
RTVSPost2010Prop43
 90
        3
102
RTVSPost2010PropOp43
 70
     1
102
RTVSPost2010Prop44ColorIndex
 90
        5
102
RTVSPost2010Prop44ColorRGB
 90
      255
102
RTVSPost2010PropOp44
 70
     1
102
RTVSPost2010Prop45
280
     0
102
RTVSPost2010PropOp45
 70
     1
102
RTVSPost2010Prop46
 90
       50
102
RTVSPost2010PropOp46
 70
     1
102
RTVSPost2010Prop47
 90
       50
102
RTVSPost2010PropOp47
 70
     1
102
RTVSPost2010Prop48
 90
       50
102
RTVSPost2010PropOp48
 70
     1
102
RTVSPost2010Prop49
280
     0
102
RTVSPost2010PropOp49
 70
     1
102
RTVSPost2010Prop50
 90
       50
102
RTVSPost2010PropOp50
 70
     1
102
RTVSPost2010Prop51ColorIndex
 90
      256
102
RTVSPost2010Prop51ColorRGB
 90
-16777216
102
RTVSPost2010PropOp51
 70
     0
102
RTVSPost2010Prop52
140
1.0
102
RTVSPost2010PropOp52
 70
     0
102
RTVSPost2010Prop53
 90
        2
102
RTVSPost2010PropOp53
 70
     1
102
RTVSPost2010Prop54
  1
strokes_ogs.tif
102
RTVSPost2010PropOp54
 70
     1
102
RTVSPost2010Prop55
280
     0
102
RTVSPost2010PropOp55
 70
     1
102
RTVSPost2010Prop56
140
1.0
102
RTVSPost2010PropOp56
 70
     1
102
RTVSPost2010Prop57
140
1.0
102
RTVSPost2010PropOp57
 70
     1
  0
XRECORD
  5
106AC5C
102
{ACAD_REACTORS
330
106AC5B
102
}
330
106AC5B
100
AcDbXrecord
280
     1
102
RTVSPropertyOp0
 70
     0
102
RTVSPropertyOp1
 70
     0
102
RTVSPropertyOp2
 70
     0
102
RTVSPropertyOp3
 70
     0
102
RTVSPropertyOp4
 70
     0
102
RTVSPropertyOp5
 70
     0
102
RTVSPropertyOp6
 70
     0
102
RTVSPropertyOp7
 70
     0
102
RTVSPropertyOp8
 70
     0
102
RTVSPropertyOp9
 70
     0
102
RTVSPropertyOp10
 70
     0
102
RTVSPropertyOp11
 70
     0
102
RTVSPropertyOp12
 70
     0
102
RTVSPropertyOp13
 70
     0
102
RTVSPropertyOp14
 70
     2
102
RTVSPropertyOp15
 70
     0
102
RTVSPropertyOp16
 70
     0
102
RTVSPropertyOp17
 70
     0
102
RTVSPropertyOp18
 70
     0
102
RTVSPropertyOp19
 70
     0
102
RTVSPropertyOp20
 70
     0
102
RTVSPropertyOp21
 70
     0
102
RTVSPropertyOp22
 70
     0
102
RTVSPropertyOp23
 70
     0
102
RTVSPropertyOp24
 70
     0
102
RTVSPropertyOp25
 70
     0
102
RTVSPropertyOp26
 70
     0
102
RTVSPropertyOp27
 70
     0
102
RTVSPropertyOp28
 70
     0
102
RTVSPropertyOp29
 70
     0
102
RTVSPropertyOp30
 70
     0
102
RTVSPropertyOp31
 70
     0
102
RTVSPropertyOp32
 70
     0
102
RTVSPropertyOp33
 70
     0
102
RTVSPropertyOp34
 70
     0
102
RTVSPropertyOp35
 70
     0
102
RTVSPropertyOp36
 70
     0
102
RTVSPropertyOp37
 70
     0
102
RTVSPropertyOp38
 70
     0
102
RTVSPropertyOp39
 70
     0
102
RTVSPropertyOp40
 70
     0
102
RTVSPropertyOp41
 70
     0
102
RTVSPropertyOp42
 70
     0
102
RTVSPropertyOp43
 70
     0
102
RTVSPropertyOp44
 70
     0
102
RTVSPropertyOp45
 70
     0
102
RTVSPropertyOp46
 70
     0
102
RTVSPropertyOp47
 70
     0
102
RTVSPropertyOp48
 70
     0
102
RTVSPropertyOp49
 70
     0
102
RTVSPropertyOp50
 70
     0
102
RTVSPropertyOp51
 70
     0
102
RTVSPropertyOp52
 70
     0
102
RTVSPropertyOp53
 70
     0
102
RTVSPropertyOp54
 70
     0
102
RTVSPropertyOp55
 70
     0
102
RTVSPropertyOp56
 70
     0
102
RTVSPropertyOp57
 70
     0
102
RTVSPost2010Prop28
280
     0
102
RTVSPost2010PropOp28
 70
     0
102
RTVSPost2010Prop29
280
     1
102
RTVSPost2010PropOp29
 70
     0
102
RTVSPost2010Prop30
280
     1
102
RTVSPost2010PropOp30
 70
     0
102
RTVSPost2010Prop31
280
     0
102
RTVSPost2010PropOp31
 70
     0
102
RTVSPost2010Prop32
280
     0
102
RTVSPost2010PropOp32
 70
     0
102
RTVSPost2010Prop33
280
     0
102
RTVSPost2010PropOp33
 70
     0
102
RTVSPost2010Prop34
280
     0
102
RTVSPost2010PropOp34
 70
     0
102
RTVSPost2010Prop35
280
     0
102
RTVSPost2010PropOp35
 70
     0
102
RTVSPost2010Prop36
280
     0
102
RTVSPost2010PropOp36
 70
     0
102
RTVSPost2010Prop37
 90
       50
102
RTVSPost2010PropOp37
 70
     0
102
RTVSPost2010Prop38
140
0.0
102
RTVSPost2010PropOp38
 70
     0
102
RTVSPost2010Prop39
140
1.0
102
RTVSPost2010PropOp39
 70
     0
102
RTVSPost2010Prop40
 90
        0
102
RTVSPost2010PropOp40
 70
     0
102
RTVSPost2010Prop41ColorIndex
 90
       18
102
RTVSPost2010Prop41ColorRGB
 90
        0
102
RTVSPost2010PropOp41
 70
     0
102
RTVSPost2010Prop42
 90
       50
102
RTVSPost2010PropOp42
 70
     0
102
RTVSPost2010Prop43
 90
        3
102
RTVSPost2010PropOp43
 70
     0
102
RTVSPost2010Prop44ColorIndex
 90
        5
102
RTVSPost2010Prop44ColorRGB
 90
      255
102
RTVSPost2010PropOp44
 70
     0
102
RTVSPost2010Prop45
280
     0
102
RTVSPost2010PropOp45
 70
     0
102
RTVSPost2010Prop46
 90
       50
102
RTVSPost2010PropOp46
 70
     0
102
RTVSPost2010Prop47
 90
       50
102
RTVSPost2010PropOp47
 70
     0
102
RTVSPost2010Prop48
 90
       50
102
RTVSPost2010PropOp48
 70
     0
102
RTVSPost2010Prop49
280
     0
102
RTVSPost2010PropOp49
 70
     0
102
RTVSPost2010Prop50
 90
       50
102
RTVSPost2010PropOp50
 70
     0
102
RTVSPost2010Prop51ColorIndex
 90
      256
102
RTVSPost2010Prop51ColorRGB
 90
-16777216
102
RTVSPost2010PropOp51
 70
     0
102
RTVSPost2010Prop52
140
1.0
102
RTVSPost2010PropOp52
 70
     0
102
RTVSPost2010Prop53
 90
        2
102
RTVSPost2010PropOp53
 70
     0
102
RTVSPost2010Prop54
  1
strokes_ogs.tif
102
RTVSPost2010PropOp54
 70
     0
102
RTVSPost2010Prop55
280
     0
102
RTVSPost2010PropOp55
 70
     0
102
RTVSPost2010Prop56
140
1.0
102
RTVSPost2010PropOp56
 70
     0
102
RTVSPost2010Prop57
140
1.0
102
RTVSPost2010PropOp57
 70
     0
  0
XRECORD
  5
106AC54
102
{ACAD_REACTORS
330
106AC53
102
}
330
106AC53
100
AcDbXrecord
280
     1
102
RTVSPropertyOp0
 70
     1
102
RTVSPropertyOp1
 70
     1
102
RTVSPropertyOp2
 70
     1
102
RTVSPropertyOp3
 70
     1
102
RTVSPropertyOp4
 70
     1
102
RTVSPropertyOp5
 70
     1
102
RTVSPropertyOp6
 70
     1
102
RTVSPropertyOp7
 70
     1
102
RTVSPropertyOp8
 70
     1
102
RTVSPropertyOp9
 70
     1
102
RTVSPropertyOp10
 70
     1
102
RTVSPropertyOp11
 70
     1
102
RTVSPropertyOp12
 70
     1
102
RTVSPropertyOp13
 70
     1
102
RTVSPropertyOp14
 70
     1
102
RTVSPropertyOp15
 70
     1
102
RTVSPropertyOp16
 70
     1
102
RTVSPropertyOp17
 70
     1
102
RTVSPropertyOp18
 70
     1
102
RTVSPropertyOp19
 70
     1
102
RTVSPropertyOp20
 70
     1
102
RTVSPropertyOp21
 70
     1
102
RTVSPropertyOp22
 70
     1
102
RTVSPropertyOp23
 70
     1
102
RTVSPropertyOp24
 70
     1
102
RTVSPropertyOp25
 70
     1
102
RTVSPropertyOp26
 70
     1
102
RTVSPropertyOp27
 70
     1
102
RTVSPropertyOp28
 70
     1
102
RTVSPropertyOp29
 70
     1
102
RTVSPropertyOp30
 70
     1
102
RTVSPropertyOp31
 70
     1
102
RTVSPropertyOp32
 70
     1
102
RTVSPropertyOp33
 70
     1
102
RTVSPropertyOp34
 70
     1
102
RTVSPropertyOp35
 70
     1
102
RTVSPropertyOp36
 70
     1
102
RTVSPropertyOp37
 70
     1
102
RTVSPropertyOp38
 70
     1
102
RTVSPropertyOp39
 70
     1
102
RTVSPropertyOp40
 70
     1
102
RTVSPropertyOp41
 70
     1
102
RTVSPropertyOp42
 70
     1
102
RTVSPropertyOp43
 70
     1
102
RTVSPropertyOp44
 70
     1
102
RTVSPropertyOp45
 70
     1
102
RTVSPropertyOp46
 70
     1
102
RTVSPropertyOp47
 70
     1
102
RTVSPropertyOp48
 70
     1
102
RTVSPropertyOp49
 70
     1
102
RTVSPropertyOp50
 70
     1
102
RTVSPropertyOp51
 70
     0
102
RTVSPropertyOp52
 70
     0
102
RTVSPropertyOp53
 70
     1
102
RTVSPropertyOp54
 70
     1
102
RTVSPropertyOp55
 70
     1
102
RTVSPropertyOp56
 70
     1
102
RTVSPropertyOp57
 70
     1
102
RTVSPost2010Prop28
280
     0
102
RTVSPost2010PropOp28
 70
     1
102
RTVSPost2010Prop29
280
     1
102
RTVSPost2010PropOp29
 70
     1
102
RTVSPost2010Prop30
280
     1
102
RTVSPost2010PropOp30
 70
     1
102
RTVSPost2010Prop31
280
     0
102
RTVSPost2010PropOp31
 70
     1
102
RTVSPost2010Prop32
280
     0
102
RTVSPost2010PropOp32
 70
     1
102
RTVSPost2010Prop33
280
     0
102
RTVSPost2010PropOp33
 70
     1
102
RTVSPost2010Prop34
280
     0
102
RTVSPost2010PropOp34
 70
     1
102
RTVSPost2010Prop35
280
     0
102
RTVSPost2010PropOp35
 70
     1
102
RTVSPost2010Prop36
280
     0
102
RTVSPost2010PropOp36
 70
     1
102
RTVSPost2010Prop37
 90
       50
102
RTVSPost2010PropOp37
 70
     1
102
RTVSPost2010Prop38
140
0.0
102
RTVSPost2010PropOp38
 70
     1
102
RTVSPost2010Prop39
140
1.0
102
RTVSPost2010PropOp39
 70
     1
102
RTVSPost2010Prop40
 90
        0
102
RTVSPost2010PropOp40
 70
     1
102
RTVSPost2010Prop41ColorIndex
 90
       18
102
RTVSPost2010Prop41ColorRGB
 90
        0
102
RTVSPost2010PropOp41
 70
     1
102
RTVSPost2010Prop42
 90
       50
102
RTVSPost2010PropOp42
 70
     1
102
RTVSPost2010Prop43
 90
        3
102
RTVSPost2010PropOp43
 70
     1
102
RTVSPost2010Prop44ColorIndex
 90
        5
102
RTVSPost2010Prop44ColorRGB
 90
      255
102
RTVSPost2010PropOp44
 70
     1
102
RTVSPost2010Prop45
280
     0
102
RTVSPost2010PropOp45
 70
     1
102
RTVSPost2010Prop46
 90
       50
102
RTVSPost2010PropOp46
 70
     1
102
RTVSPost2010Prop47
 90
       50
102
RTVSPost2010PropOp47
 70
     1
102
RTVSPost2010Prop48
 90
       50
102
RTVSPost2010PropOp48
 70
     1
102
RTVSPost2010Prop49
280
     0
102
RTVSPost2010PropOp49
 70
     1
102
RTVSPost2010Prop50
 90
       50
102
RTVSPost2010PropOp50
 70
     1
102
RTVSPost2010Prop51ColorIndex
 90
      256
102
RTVSPost2010Prop51ColorRGB
 90
-16777216
102
RTVSPost2010PropOp51
 70
     0
102
RTVSPost2010Prop52
140
1.0
102
RTVSPost2010PropOp52
 70
     0
102
RTVSPost2010Prop53
 90
        2
102
RTVSPost2010PropOp53
 70
     1
102
RTVSPost2010Prop54
  1
strokes_ogs.tif
102
RTVSPost2010PropOp54
 70
     1
102
RTVSPost2010Prop55
280
     0
102
RTVSPost2010PropOp55
 70
     1
102
RTVSPost2010Prop56
140
1.0
102
RTVSPost2010PropOp56
 70
     1
102
RTVSPost2010Prop57
140
1.0
102
RTVSPost2010PropOp57
 70
     1
  0
XRECORD
  5
106AC38
102
{ACAD_REACTORS
330
106AC37
102
}
330
106AC37
100
AcDbXrecord
280
     1
102
RTVSPropertyOp0
 70
     1
102
RTVSPropertyOp1
 70
     1
102
RTVSPropertyOp2
 70
     1
102
RTVSPropertyOp3
 70
     1
102
RTVSPropertyOp4
 70
     1
102
RTVSPropertyOp5
 70
     1
102
RTVSPropertyOp6
 70
     1
102
RTVSPropertyOp7
 70
     1
102
RTVSPropertyOp8
 70
     1
102
RTVSPropertyOp9
 70
     1
102
RTVSPropertyOp10
 70
     1
102
RTVSPropertyOp11
 70
     1
102
RTVSPropertyOp12
 70
     1
102
RTVSPropertyOp13
 70
     1
102
RTVSPropertyOp14
 70
     1
102
RTVSPropertyOp15
 70
     1
102
RTVSPropertyOp16
 70
     1
102
RTVSPropertyOp17
 70
     1
102
RTVSPropertyOp18
 70
     1
102
RTVSPropertyOp19
 70
     1
102
RTVSPropertyOp20
 70
     1
102
RTVSPropertyOp21
 70
     1
102
RTVSPropertyOp22
 70
     1
102
RTVSPropertyOp23
 70
     1
102
RTVSPropertyOp24
 70
     1
102
RTVSPropertyOp25
 70
     1
102
RTVSPropertyOp26
 70
     1
102
RTVSPropertyOp27
 70
     1
102
RTVSPropertyOp28
 70
     1
102
RTVSPropertyOp29
 70
     1
102
RTVSPropertyOp30
 70
     1
102
RTVSPropertyOp31
 70
     1
102
RTVSPropertyOp32
 70
     1
102
RTVSPropertyOp33
 70
     1
102
RTVSPropertyOp34
 70
     1
102
RTVSPropertyOp35
 70
     1
102
RTVSPropertyOp36
 70
     1
102
RTVSPropertyOp37
 70
     1
102
RTVSPropertyOp38
 70
     1
102
RTVSPropertyOp39
 70
     1
102
RTVSPropertyOp40
 70
     1
102
RTVSPropertyOp41
 70
     1
102
RTVSPropertyOp42
 70
     1
102
RTVSPropertyOp43
 70
     1
102
RTVSPropertyOp44
 70
     1
102
RTVSPropertyOp45
 70
     1
102
RTVSPropertyOp46
 70
     1
102
RTVSPropertyOp47
 70
     1
102
RTVSPropertyOp48
 70
     1
102
RTVSPropertyOp49
 70
     1
102
RTVSPropertyOp50
 70
     1
102
RTVSPropertyOp51
 70
     0
102
RTVSPropertyOp52
 70
     0
102
RTVSPropertyOp53
 70
     1
102
RTVSPropertyOp54
 70
     1
102
RTVSPropertyOp55
 70
     1
102
RTVSPropertyOp56
 70
     1
102
RTVSPropertyOp57
 70
     1
102
RTVSPost2010Prop28
280
     0
102
RTVSPost2010PropOp28
 70
     1
102
RTVSPost2010Prop29
280
     1
102
RTVSPost2010PropOp29
 70
     1
102
RTVSPost2010Prop30
280
     1
102
RTVSPost2010PropOp30
 70
     1
102
RTVSPost2010Prop31
280
     0
102
RTVSPost2010PropOp31
 70
     1
102
RTVSPost2010Prop32
280
     0
102
RTVSPost2010PropOp32
 70
     1
102
RTVSPost2010Prop33
280
     0
102
RTVSPost2010PropOp33
 70
     1
102
RTVSPost2010Prop34
280
     0
102
RTVSPost2010PropOp34
 70
     1
102
RTVSPost2010Prop35
280
     0
102
RTVSPost2010PropOp35
 70
     1
102
RTVSPost2010Prop36
280
     0
102
RTVSPost2010PropOp36
 70
     1
102
RTVSPost2010Prop37
 90
       50
102
RTVSPost2010PropOp37
 70
     1
102
RTVSPost2010Prop38
140
0.0
102
RTVSPost2010PropOp38
 70
     1
102
RTVSPost2010Prop39
140
1.0
102
RTVSPost2010PropOp39
 70
     1
102
RTVSPost2010Prop40
 90
        0
102
RTVSPost2010PropOp40
 70
     1
102
RTVSPost2010Prop41ColorIndex
 90
       18
102
RTVSPost2010Prop41ColorRGB
 90
        0
102
RTVSPost2010PropOp41
 70
     1
102
RTVSPost2010Prop42
 90
       50
102
RTVSPost2010PropOp42
 70
     1
102
RTVSPost2010Prop43
 90
        3
102
RTVSPost2010PropOp43
 70
     1
102
RTVSPost2010Prop44ColorIndex
 90
        5
102
RTVSPost2010Prop44ColorRGB
 90
      255
102
RTVSPost2010PropOp44
 70
     1
102
RTVSPost2010Prop45
280
     0
102
RTVSPost2010PropOp45
 70
     1
102
RTVSPost2010Prop46
 90
       50
102
RTVSPost2010PropOp46
 70
     1
102
RTVSPost2010Prop47
 90
       50
102
RTVSPost2010PropOp47
 70
     1
102
RTVSPost2010Prop48
 90
       50
102
RTVSPost2010PropOp48
 70
     1
102
RTVSPost2010Prop49
280
     0
102
RTVSPost2010PropOp49
 70
     1
102
RTVSPost2010Prop50
 90
       50
102
RTVSPost2010PropOp50
 70
     1
102
RTVSPost2010Prop51ColorIndex
 90
      256
102
RTVSPost2010Prop51ColorRGB
 90
-16777216
102
RTVSPost2010PropOp51
 70
     0
102
RTVSPost2010Prop52
140
1.0
102
RTVSPost2010PropOp52
 70
     0
102
RTVSPost2010Prop53
 90
        2
102
RTVSPost2010PropOp53
 70
     1
102
RTVSPost2010Prop54
  1
strokes_ogs.tif
102
RTVSPost2010PropOp54
 70
     1
102
RTVSPost2010Prop55
280
     0
102
RTVSPost2010PropOp55
 70
     1
102
RTVSPost2010Prop56
140
1.0
102
RTVSPost2010PropOp56
 70
     1
102
RTVSPost2010Prop57
140
1.0
102
RTVSPost2010PropOp57
 70
     1
  0
XRECORD
  5
106AC3A
102
{ACAD_REACTORS
330
106AC39
102
}
330
106AC39
100
AcDbXrecord
280
     1
102
RTVSPropertyOp0
 70
     1
102
RTVSPropertyOp1
 70
     1
102
RTVSPropertyOp2
 70
     1
102
RTVSPropertyOp3
 70
     1
102
RTVSPropertyOp4
 70
     1
102
RTVSPropertyOp5
 70
     1
102
RTVSPropertyOp6
 70
     1
102
RTVSPropertyOp7
 70
     1
102
RTVSPropertyOp8
 70
     1
102
RTVSPropertyOp9
 70
     1
102
RTVSPropertyOp10
 70
     1
102
RTVSPropertyOp11
 70
     1
102
RTVSPropertyOp12
 70
     1
102
RTVSPropertyOp13
 70
     1
102
RTVSPropertyOp14
 70
     1
102
RTVSPropertyOp15
 70
     1
102
RTVSPropertyOp16
 70
     1
102
RTVSPropertyOp17
 70
     1
102
RTVSPropertyOp18
 70
     1
102
RTVSPropertyOp19
 70
     1
102
RTVSPropertyOp20
 70
     1
102
RTVSPropertyOp21
 70
     1
102
RTVSPropertyOp22
 70
     1
102
RTVSPropertyOp23
 70
     1
102
RTVSPropertyOp24
 70
     1
102
RTVSPropertyOp25
 70
     1
102
RTVSPropertyOp26
 70
     1
102
RTVSPropertyOp27
 70
     1
102
RTVSPropertyOp28
 70
     1
102
RTVSPropertyOp29
 70
     1
102
RTVSPropertyOp30
 70
     1
102
RTVSPropertyOp31
 70
     1
102
RTVSPropertyOp32
 70
     1
102
RTVSPropertyOp33
 70
     1
102
RTVSPropertyOp34
 70
     1
102
RTVSPropertyOp35
 70
     1
102
RTVSPropertyOp36
 70
     1
102
RTVSPropertyOp37
 70
     1
102
RTVSPropertyOp38
 70
     1
102
RTVSPropertyOp39
 70
     1
102
RTVSPropertyOp40
 70
     1
102
RTVSPropertyOp41
 70
     1
102
RTVSPropertyOp42
 70
     1
102
RTVSPropertyOp43
 70
     1
102
RTVSPropertyOp44
 70
     1
102
RTVSPropertyOp45
 70
     1
102
RTVSPropertyOp46
 70
     1
102
RTVSPropertyOp47
 70
     1
102
RTVSPropertyOp48
 70
     1
102
RTVSPropertyOp49
 70
     1
102
RTVSPropertyOp50
 70
     1
102
RTVSPropertyOp51
 70
     0
102
RTVSPropertyOp52
 70
     0
102
RTVSPropertyOp53
 70
     1
102
RTVSPropertyOp54
 70
     1
102
RTVSPropertyOp55
 70
     1
102
RTVSPropertyOp56
 70
     1
102
RTVSPropertyOp57
 70
     1
102
RTVSPost2010Prop28
280
     0
102
RTVSPost2010PropOp28
 70
     1
102
RTVSPost2010Prop29
280
     1
102
RTVSPost2010PropOp29
 70
     1
102
RTVSPost2010Prop30
280
     1
102
RTVSPost2010PropOp30
 70
     1
102
RTVSPost2010Prop31
280
     0
102
RTVSPost2010PropOp31
 70
     1
102
RTVSPost2010Prop32
280
     0
102
RTVSPost2010PropOp32
 70
     1
102
RTVSPost2010Prop33
280
     0
102
RTVSPost2010PropOp33
 70
     1
102
RTVSPost2010Prop34
280
     0
102
RTVSPost2010PropOp34
 70
     1
102
RTVSPost2010Prop35
280
     0
102
RTVSPost2010PropOp35
 70
     1
102
RTVSPost2010Prop36
280
     0
102
RTVSPost2010PropOp36
 70
     1
102
RTVSPost2010Prop37
 90
       50
102
RTVSPost2010PropOp37
 70
     1
102
RTVSPost2010Prop38
140
0.0
102
RTVSPost2010PropOp38
 70
     1
102
RTVSPost2010Prop39
140
1.0
102
RTVSPost2010PropOp39
 70
     1
102
RTVSPost2010Prop40
 90
        0
102
RTVSPost2010PropOp40
 70
     1
102
RTVSPost2010Prop41ColorIndex
 90
       18
102
RTVSPost2010Prop41ColorRGB
 90
        0
102
RTVSPost2010PropOp41
 70
     1
102
RTVSPost2010Prop42
 90
       50
102
RTVSPost2010PropOp42
 70
     1
102
RTVSPost2010Prop43
 90
        3
102
RTVSPost2010PropOp43
 70
     1
102
RTVSPost2010Prop44ColorIndex
 90
        5
102
RTVSPost2010Prop44ColorRGB
 90
      255
102
RTVSPost2010PropOp44
 70
     1
102
RTVSPost2010Prop45
280
     0
102
RTVSPost2010PropOp45
 70
     1
102
RTVSPost2010Prop46
 90
       50
102
RTVSPost2010PropOp46
 70
     1
102
RTVSPost2010Prop47
 90
       50
102
RTVSPost2010PropOp47
 70
     1
102
RTVSPost2010Prop48
 90
       50
102
RTVSPost2010PropOp48
 70
     1
102
RTVSPost2010Prop49
280
     0
102
RTVSPost2010PropOp49
 70
     1
102
RTVSPost2010Prop50
 90
       50
102
RTVSPost2010PropOp50
 70
     1
102
RTVSPost2010Prop51ColorIndex
 90
      256
102
RTVSPost2010Prop51ColorRGB
 90
-16777216
102
RTVSPost2010PropOp51
 70
     0
102
RTVSPost2010Prop52
140
1.0
102
RTVSPost2010PropOp52
 70
     0
102
RTVSPost2010Prop53
 90
        2
102
RTVSPost2010PropOp53
 70
     1
102
RTVSPost2010Prop54
  1
strokes_ogs.tif
102
RTVSPost2010PropOp54
 70
     1
102
RTVSPost2010Prop55
280
     0
102
RTVSPost2010PropOp55
 70
     1
102
RTVSPost2010Prop56
140
1.0
102
RTVSPost2010PropOp56
 70
     1
102
RTVSPost2010Prop57
140
1.0
102
RTVSPost2010PropOp57
 70
     1
  0
XRECORD
  5
106AC3C
102
{ACAD_REACTORS
330
106AC3B
102
}
330
106AC3B
100
AcDbXrecord
280
     1
102
RTVSPropertyOp0
 70
     1
102
RTVSPropertyOp1
 70
     1
102
RTVSPropertyOp2
 70
     1
102
RTVSPropertyOp3
 70
     1
102
RTVSPropertyOp4
 70
     1
102
RTVSPropertyOp5
 70
     1
102
RTVSPropertyOp6
 70
     1
102
RTVSPropertyOp7
 70
     1
102
RTVSPropertyOp8
 70
     1
102
RTVSPropertyOp9
 70
     1
102
RTVSPropertyOp10
 70
     1
102
RTVSPropertyOp11
 70
     1
102
RTVSPropertyOp12
 70
     1
102
RTVSPropertyOp13
 70
     1
102
RTVSPropertyOp14
 70
     1
102
RTVSPropertyOp15
 70
     1
102
RTVSPropertyOp16
 70
     1
102
RTVSPropertyOp17
 70
     1
102
RTVSPropertyOp18
 70
     1
102
RTVSPropertyOp19
 70
     1
102
RTVSPropertyOp20
 70
     1
102
RTVSPropertyOp21
 70
     1
102
RTVSPropertyOp22
 70
     1
102
RTVSPropertyOp23
 70
     1
102
RTVSPropertyOp24
 70
     1
102
RTVSPropertyOp25
 70
     1
102
RTVSPropertyOp26
 70
     1
102
RTVSPropertyOp27
 70
     1
102
RTVSPropertyOp28
 70
     1
102
RTVSPropertyOp29
 70
     1
102
RTVSPropertyOp30
 70
     1
102
RTVSPropertyOp31
 70
     1
102
RTVSPropertyOp32
 70
     1
102
RTVSPropertyOp33
 70
     1
102
RTVSPropertyOp34
 70
     1
102
RTVSPropertyOp35
 70
     1
102
RTVSPropertyOp36
 70
     1
102
RTVSPropertyOp37
 70
     1
102
RTVSPropertyOp38
 70
     1
102
RTVSPropertyOp39
 70
     1
102
RTVSPropertyOp40
 70
     1
102
RTVSPropertyOp41
 70
     1
102
RTVSPropertyOp42
 70
     1
102
RTVSPropertyOp43
 70
     1
102
RTVSPropertyOp44
 70
     1
102
RTVSPropertyOp45
 70
     1
102
RTVSPropertyOp46
 70
     1
102
RTVSPropertyOp47
 70
     1
102
RTVSPropertyOp48
 70
     1
102
RTVSPropertyOp49
 70
     1
102
RTVSPropertyOp50
 70
     1
102
RTVSPropertyOp51
 70
     0
102
RTVSPropertyOp52
 70
     0
102
RTVSPropertyOp53
 70
     1
102
RTVSPropertyOp54
 70
     1
102
RTVSPropertyOp55
 70
     1
102
RTVSPropertyOp56
 70
     1
102
RTVSPropertyOp57
 70
     1
102
RTVSPost2010Prop28
280
     0
102
RTVSPost2010PropOp28
 70
     1
102
RTVSPost2010Prop29
280
     1
102
RTVSPost2010PropOp29
 70
     1
102
RTVSPost2010Prop30
280
     1
102
RTVSPost2010PropOp30
 70
     1
102
RTVSPost2010Prop31
280
     0
102
RTVSPost2010PropOp31
 70
     1
102
RTVSPost2010Prop32
280
     0
102
RTVSPost2010PropOp32
 70
     1
102
RTVSPost2010Prop33
280
     0
102
RTVSPost2010PropOp33
 70
     1
102
RTVSPost2010Prop34
280
     0
102
RTVSPost2010PropOp34
 70
     1
102
RTVSPost2010Prop35
280
     0
102
RTVSPost2010PropOp35
 70
     1
102
RTVSPost2010Prop36
280
     0
102
RTVSPost2010PropOp36
 70
     1
102
RTVSPost2010Prop37
 90
       50
102
RTVSPost2010PropOp37
 70
     1
102
RTVSPost2010Prop38
140
0.0
102
RTVSPost2010PropOp38
 70
     1
102
RTVSPost2010Prop39
140
1.0
102
RTVSPost2010PropOp39
 70
     1
102
RTVSPost2010Prop40
 90
        0
102
RTVSPost2010PropOp40
 70
     1
102
RTVSPost2010Prop41ColorIndex
 90
       18
102
RTVSPost2010Prop41ColorRGB
 90
        0
102
RTVSPost2010PropOp41
 70
     1
102
RTVSPost2010Prop42
 90
       50
102
RTVSPost2010PropOp42
 70
     1
102
RTVSPost2010Prop43
 90
        3
102
RTVSPost2010PropOp43
 70
     1
102
RTVSPost2010Prop44ColorIndex
 90
        5
102
RTVSPost2010Prop44ColorRGB
 90
      255
102
RTVSPost2010PropOp44
 70
     1
102
RTVSPost2010Prop45
280
     0
102
RTVSPost2010PropOp45
 70
     1
102
RTVSPost2010Prop46
 90
       50
102
RTVSPost2010PropOp46
 70
     1
102
RTVSPost2010Prop47
 90
       50
102
RTVSPost2010PropOp47
 70
     1
102
RTVSPost2010Prop48
 90
       50
102
RTVSPost2010PropOp48
 70
     1
102
RTVSPost2010Prop49
280
     0
102
RTVSPost2010PropOp49
 70
     1
102
RTVSPost2010Prop50
 90
       50
102
RTVSPost2010PropOp50
 70
     1
102
RTVSPost2010Prop51ColorIndex
 90
      256
102
RTVSPost2010Prop51ColorRGB
 90
-16777216
102
RTVSPost2010PropOp51
 70
     0
102
RTVSPost2010Prop52
140
1.0
102
RTVSPost2010PropOp52
 70
     0
102
RTVSPost2010Prop53
 90
        2
102
RTVSPost2010PropOp53
 70
     1
102
RTVSPost2010Prop54
  1
strokes_ogs.tif
102
RTVSPost2010PropOp54
 70
     1
102
RTVSPost2010Prop55
280
     0
102
RTVSPost2010PropOp55
 70
     1
102
RTVSPost2010Prop56
140
1.0
102
RTVSPost2010PropOp56
 70
     1
102
RTVSPost2010Prop57
140
1.0
102
RTVSPost2010PropOp57
 70
     1
  0
XRECORD
  5
106AC3E
102
{ACAD_REACTORS
330
106AC3D
102
}
330
106AC3D
100
AcDbXrecord
280
     1
102
RTVSPropertyOp0
 70
     1
102
RTVSPropertyOp1
 70
     1
102
RTVSPropertyOp2
 70
     1
102
RTVSPropertyOp3
 70
     1
102
RTVSPropertyOp4
 70
     1
102
RTVSPropertyOp5
 70
     1
102
RTVSPropertyOp6
 70
     1
102
RTVSPropertyOp7
 70
     1
102
RTVSPropertyOp8
 70
     1
102
RTVSPropertyOp9
 70
     1
102
RTVSPropertyOp10
 70
     1
102
RTVSPropertyOp11
 70
     1
102
RTVSPropertyOp12
 70
     1
102
RTVSPropertyOp13
 70
     1
102
RTVSPropertyOp14
 70
     1
102
RTVSPropertyOp15
 70
     1
102
RTVSPropertyOp16
 70
     1
102
RTVSPropertyOp17
 70
     1
102
RTVSPropertyOp18
 70
     1
102
RTVSPropertyOp19
 70
     1
102
RTVSPropertyOp20
 70
     1
102
RTVSPropertyOp21
 70
     1
102
RTVSPropertyOp22
 70
     1
102
RTVSPropertyOp23
 70
     1
102
RTVSPropertyOp24
 70
     1
102
RTVSPropertyOp25
 70
     1
102
RTVSPropertyOp26
 70
     1
102
RTVSPropertyOp27
 70
     1
102
RTVSPropertyOp28
 70
     1
102
RTVSPropertyOp29
 70
     1
102
RTVSPropertyOp30
 70
     1
102
RTVSPropertyOp31
 70
     1
102
RTVSPropertyOp32
 70
     1
102
RTVSPropertyOp33
 70
     1
102
RTVSPropertyOp34
 70
     1
102
RTVSPropertyOp35
 70
     1
102
RTVSPropertyOp36
 70
     1
102
RTVSPropertyOp37
 70
     1
102
RTVSPropertyOp38
 70
     1
102
RTVSPropertyOp39
 70
     1
102
RTVSPropertyOp40
 70
     1
102
RTVSPropertyOp41
 70
     1
102
RTVSPropertyOp42
 70
     1
102
RTVSPropertyOp43
 70
     1
102
RTVSPropertyOp44
 70
     1
102
RTVSPropertyOp45
 70
     1
102
RTVSPropertyOp46
 70
     1
102
RTVSPropertyOp47
 70
     1
102
RTVSPropertyOp48
 70
     1
102
RTVSPropertyOp49
 70
     1
102
RTVSPropertyOp50
 70
     1
102
RTVSPropertyOp51
 70
     0
102
RTVSPropertyOp52
 70
     0
102
RTVSPropertyOp53
 70
     1
102
RTVSPropertyOp54
 70
     1
102
RTVSPropertyOp55
 70
     1
102
RTVSPropertyOp56
 70
     1
102
RTVSPropertyOp57
 70
     1
102
RTVSPost2010Prop28
280
     0
102
RTVSPost2010PropOp28
 70
     1
102
RTVSPost2010Prop29
280
     1
102
RTVSPost2010PropOp29
 70
     1
102
RTVSPost2010Prop30
280
     1
102
RTVSPost2010PropOp30
 70
     1
102
RTVSPost2010Prop31
280
     0
102
RTVSPost2010PropOp31
 70
     1
102
RTVSPost2010Prop32
280
     0
102
RTVSPost2010PropOp32
 70
     1
102
RTVSPost2010Prop33
280
     0
102
RTVSPost2010PropOp33
 70
     1
102
RTVSPost2010Prop34
280
     0
102
RTVSPost2010PropOp34
 70
     1
102
RTVSPost2010Prop35
280
     0
102
RTVSPost2010PropOp35
 70
     1
102
RTVSPost2010Prop36
280
     0
102
RTVSPost2010PropOp36
 70
     1
102
RTVSPost2010Prop37
 90
       50
102
RTVSPost2010PropOp37
 70
     1
102
RTVSPost2010Prop38
140
0.0
102
RTVSPost2010PropOp38
 70
     1
102
RTVSPost2010Prop39
140
1.0
102
RTVSPost2010PropOp39
 70
     1
102
RTVSPost2010Prop40
 90
        0
102
RTVSPost2010PropOp40
 70
     1
102
RTVSPost2010Prop41ColorIndex
 90
       18
102
RTVSPost2010Prop41ColorRGB
 90
        0
102
RTVSPost2010PropOp41
 70
     1
102
RTVSPost2010Prop42
 90
       50
102
RTVSPost2010PropOp42
 70
     1
102
RTVSPost2010Prop43
 90
        3
102
RTVSPost2010PropOp43
 70
     1
102
RTVSPost2010Prop44ColorIndex
 90
        5
102
RTVSPost2010Prop44ColorRGB
 90
      255
102
RTVSPost2010PropOp44
 70
     1
102
RTVSPost2010Prop45
280
     0
102
RTVSPost2010PropOp45
 70
     1
102
RTVSPost2010Prop46
 90
       50
102
RTVSPost2010PropOp46
 70
     1
102
RTVSPost2010Prop47
 90
       50
102
RTVSPost2010PropOp47
 70
     1
102
RTVSPost2010Prop48
 90
       50
102
RTVSPost2010PropOp48
 70
     1
102
RTVSPost2010Prop49
280
     0
102
RTVSPost2010PropOp49
 70
     1
102
RTVSPost2010Prop50
 90
       50
102
RTVSPost2010PropOp50
 70
     1
102
RTVSPost2010Prop51ColorIndex
 90
      256
102
RTVSPost2010Prop51ColorRGB
 90
-16777216
102
RTVSPost2010PropOp51
 70
     0
102
RTVSPost2010Prop52
140
1.0
102
RTVSPost2010PropOp52
 70
     0
102
RTVSPost2010Prop53
 90
        2
102
RTVSPost2010PropOp53
 70
     1
102
RTVSPost2010Prop54
  1
strokes_ogs.tif
102
RTVSPost2010PropOp54
 70
     1
102
RTVSPost2010Prop55
280
     0
102
RTVSPost2010PropOp55
 70
     1
102
RTVSPost2010Prop56
140
1.0
102
RTVSPost2010PropOp56
 70
     1
102
RTVSPost2010Prop57
140
1.0
102
RTVSPost2010PropOp57
 70
     1
  0
XRECORD
  5
106AC44
102
{ACAD_REACTORS
330
106AC43
102
}
330
106AC43
100
AcDbXrecord
280
     1
102
RTVSPropertyOp0
 70
     1
102
RTVSPropertyOp1
 70
     1
102
RTVSPropertyOp2
 70
     1
102
RTVSPropertyOp3
 70
     1
102
RTVSPropertyOp4
 70
     1
102
RTVSPropertyOp5
 70
     1
102
RTVSPropertyOp6
 70
     1
102
RTVSPropertyOp7
 70
     1
102
RTVSPropertyOp8
 70
     1
102
RTVSPropertyOp9
 70
     1
102
RTVSPropertyOp10
 70
     1
102
RTVSPropertyOp11
 70
     1
102
RTVSPropertyOp12
 70
     1
102
RTVSPropertyOp13
 70
     1
102
RTVSPropertyOp14
 70
     1
102
RTVSPropertyOp15
 70
     1
102
RTVSPropertyOp16
 70
     1
102
RTVSPropertyOp17
 70
     1
102
RTVSPropertyOp18
 70
     1
102
RTVSPropertyOp19
 70
     1
102
RTVSPropertyOp20
 70
     1
102
RTVSPropertyOp21
 70
     1
102
RTVSPropertyOp22
 70
     1
102
RTVSPropertyOp23
 70
     1
102
RTVSPropertyOp24
 70
     1
102
RTVSPropertyOp25
 70
     1
102
RTVSPropertyOp26
 70
     1
102
RTVSPropertyOp27
 70
     1
102
RTVSPropertyOp28
 70
     1
102
RTVSPropertyOp29
 70
     1
102
RTVSPropertyOp30
 70
     1
102
RTVSPropertyOp31
 70
     1
102
RTVSPropertyOp32
 70
     1
102
RTVSPropertyOp33
 70
     1
102
RTVSPropertyOp34
 70
     1
102
RTVSPropertyOp35
 70
     1
102
RTVSPropertyOp36
 70
     1
102
RTVSPropertyOp37
 70
     1
102
RTVSPropertyOp38
 70
     1
102
RTVSPropertyOp39
 70
     1
102
RTVSPropertyOp40
 70
     1
102
RTVSPropertyOp41
 70
     1
102
RTVSPropertyOp42
 70
     1
102
RTVSPropertyOp43
 70
     1
102
RTVSPropertyOp44
 70
     1
102
RTVSPropertyOp45
 70
     1
102
RTVSPropertyOp46
 70
     1
102
RTVSPropertyOp47
 70
     1
102
RTVSPropertyOp48
 70
     1
102
RTVSPropertyOp49
 70
     1
102
RTVSPropertyOp50
 70
     1
102
RTVSPropertyOp51
 70
     0
102
RTVSPropertyOp52
 70
     0
102
RTVSPropertyOp53
 70
     1
102
RTVSPropertyOp54
 70
     1
102
RTVSPropertyOp55
 70
     1
102
RTVSPropertyOp56
 70
     1
102
RTVSPropertyOp57
 70
     1
102
RTVSPost2010Prop28
280
     0
102
RTVSPost2010PropOp28
 70
     1
102
RTVSPost2010Prop29
280
     1
102
RTVSPost2010PropOp29
 70
     1
102
RTVSPost2010Prop30
280
     1
102
RTVSPost2010PropOp30
 70
     1
102
RTVSPost2010Prop31
280
     0
102
RTVSPost2010PropOp31
 70
     1
102
RTVSPost2010Prop32
280
     0
102
RTVSPost2010PropOp32
 70
     1
102
RTVSPost2010Prop33
280
     0
102
RTVSPost2010PropOp33
 70
     1
102
RTVSPost2010Prop34
280
     0
102
RTVSPost2010PropOp34
 70
     1
102
RTVSPost2010Prop35
280
     0
102
RTVSPost2010PropOp35
 70
     1
102
RTVSPost2010Prop36
280
     0
102
RTVSPost2010PropOp36
 70
     1
102
RTVSPost2010Prop37
 90
       50
102
RTVSPost2010PropOp37
 70
     1
102
RTVSPost2010Prop38
140
0.0
102
RTVSPost2010PropOp38
 70
     1
102
RTVSPost2010Prop39
140
1.0
102
RTVSPost2010PropOp39
 70
     1
102
RTVSPost2010Prop40
 90
        0
102
RTVSPost2010PropOp40
 70
     1
102
RTVSPost2010Prop41ColorIndex
 90
       18
102
RTVSPost2010Prop41ColorRGB
 90
        0
102
RTVSPost2010PropOp41
 70
     1
102
RTVSPost2010Prop42
 90
       50
102
RTVSPost2010PropOp42
 70
     1
102
RTVSPost2010Prop43
 90
        3
102
RTVSPost2010PropOp43
 70
     1
102
RTVSPost2010Prop44ColorIndex
 90
        5
102
RTVSPost2010Prop44ColorRGB
 90
      255
102
RTVSPost2010PropOp44
 70
     1
102
RTVSPost2010Prop45
280
     0
102
RTVSPost2010PropOp45
 70
     1
102
RTVSPost2010Prop46
 90
       50
102
RTVSPost2010PropOp46
 70
     1
102
RTVSPost2010Prop47
 90
       50
102
RTVSPost2010PropOp47
 70
     1
102
RTVSPost2010Prop48
 90
       50
102
RTVSPost2010PropOp48
 70
     1
102
RTVSPost2010Prop49
280
     0
102
RTVSPost2010PropOp49
 70
     1
102
RTVSPost2010Prop50
 90
       50
102
RTVSPost2010PropOp50
 70
     1
102
RTVSPost2010Prop51ColorIndex
 90
      256
102
RTVSPost2010Prop51ColorRGB
 90
-16777216
102
RTVSPost2010PropOp51
 70
     0
102
RTVSPost2010Prop52
140
1.0
102
RTVSPost2010PropOp52
 70
     0
102
RTVSPost2010Prop53
 90
        2
102
RTVSPost2010PropOp53
 70
     1
102
RTVSPost2010Prop54
  1
strokes_ogs.tif
102
RTVSPost2010PropOp54
 70
     1
102
RTVSPost2010Prop55
280
     0
102
RTVSPost2010PropOp55
 70
     1
102
RTVSPost2010Prop56
140
1.0
102
RTVSPost2010PropOp56
 70
     1
102
RTVSPost2010Prop57
140
1.0
102
RTVSPost2010PropOp57
 70
     1
  0
XRECORD
  5
106AC58
102
{ACAD_REACTORS
330
106AC57
102
}
330
106AC57
100
AcDbXrecord
280
     1
102
RTVSPropertyOp0
 70
     0
102
RTVSPropertyOp1
 70
     0
102
RTVSPropertyOp2
 70
     0
102
RTVSPropertyOp3
 70
     0
102
RTVSPropertyOp4
 70
     0
102
RTVSPropertyOp5
 70
     0
102
RTVSPropertyOp6
 70
     0
102
RTVSPropertyOp7
 70
     0
102
RTVSPropertyOp8
 70
     0
102
RTVSPropertyOp9
 70
     0
102
RTVSPropertyOp10
 70
     0
102
RTVSPropertyOp11
 70
     0
102
RTVSPropertyOp12
 70
     0
102
RTVSPropertyOp13
 70
     0
102
RTVSPropertyOp14
 70
     2
102
RTVSPropertyOp15
 70
     0
102
RTVSPropertyOp16
 70
     0
102
RTVSPropertyOp17
 70
     0
102
RTVSPropertyOp18
 70
     0
102
RTVSPropertyOp19
 70
     0
102
RTVSPropertyOp20
 70
     0
102
RTVSPropertyOp21
 70
     0
102
RTVSPropertyOp22
 70
     0
102
RTVSPropertyOp23
 70
     0
102
RTVSPropertyOp24
 70
     0
102
RTVSPropertyOp25
 70
     0
102
RTVSPropertyOp26
 70
     0
102
RTVSPropertyOp27
 70
     0
102
RTVSPropertyOp28
 70
     0
102
RTVSPropertyOp29
 70
     0
102
RTVSPropertyOp30
 70
     0
102
RTVSPropertyOp31
 70
     0
102
RTVSPropertyOp32
 70
     0
102
RTVSPropertyOp33
 70
     0
102
RTVSPropertyOp34
 70
     0
102
RTVSPropertyOp35
 70
     0
102
RTVSPropertyOp36
 70
     0
102
RTVSPropertyOp37
 70
     0
102
RTVSPropertyOp38
 70
     0
102
RTVSPropertyOp39
 70
     0
102
RTVSPropertyOp40
 70
     0
102
RTVSPropertyOp41
 70
     0
102
RTVSPropertyOp42
 70
     0
102
RTVSPropertyOp43
 70
     0
102
RTVSPropertyOp44
 70
     0
102
RTVSPropertyOp45
 70
     0
102
RTVSPropertyOp46
 70
     0
102
RTVSPropertyOp47
 70
     0
102
RTVSPropertyOp48
 70
     0
102
RTVSPropertyOp49
 70
     0
102
RTVSPropertyOp50
 70
     0
102
RTVSPropertyOp51
 70
     0
102
RTVSPropertyOp52
 70
     0
102
RTVSPropertyOp53
 70
     0
102
RTVSPropertyOp54
 70
     0
102
RTVSPropertyOp55
 70
     0
102
RTVSPropertyOp56
 70
     0
102
RTVSPropertyOp57
 70
     0
102
RTVSPost2010Prop28
280
     0
102
RTVSPost2010PropOp28
 70
     0
102
RTVSPost2010Prop29
280
     1
102
RTVSPost2010PropOp29
 70
     0
102
RTVSPost2010Prop30
280
     1
102
RTVSPost2010PropOp30
 70
     0
102
RTVSPost2010Prop31
280
     0
102
RTVSPost2010PropOp31
 70
     0
102
RTVSPost2010Prop32
280
     0
102
RTVSPost2010PropOp32
 70
     0
102
RTVSPost2010Prop33
280
     0
102
RTVSPost2010PropOp33
 70
     0
102
RTVSPost2010Prop34
280
     0
102
RTVSPost2010PropOp34
 70
     0
102
RTVSPost2010Prop35
280
     0
102
RTVSPost2010PropOp35
 70
     0
102
RTVSPost2010Prop36
280
     0
102
RTVSPost2010PropOp36
 70
     0
102
RTVSPost2010Prop37
 90
       50
102
RTVSPost2010PropOp37
 70
     0
102
RTVSPost2010Prop38
140
0.0
102
RTVSPost2010PropOp38
 70
     0
102
RTVSPost2010Prop39
140
1.0
102
RTVSPost2010PropOp39
 70
     0
102
RTVSPost2010Prop40
 90
        0
102
RTVSPost2010PropOp40
 70
     0
102
RTVSPost2010Prop41ColorIndex
 90
       18
102
RTVSPost2010Prop41ColorRGB
 90
        0
102
RTVSPost2010PropOp41
 70
     0
102
RTVSPost2010Prop42
 90
       50
102
RTVSPost2010PropOp42
 70
     0
102
RTVSPost2010Prop43
 90
        3
102
RTVSPost2010PropOp43
 70
     0
102
RTVSPost2010Prop44ColorIndex
 90
        5
102
RTVSPost2010Prop44ColorRGB
 90
      255
102
RTVSPost2010PropOp44
 70
     0
102
RTVSPost2010Prop45
280
     0
102
RTVSPost2010PropOp45
 70
     0
102
RTVSPost2010Prop46
 90
       50
102
RTVSPost2010PropOp46
 70
     0
102
RTVSPost2010Prop47
 90
       50
102
RTVSPost2010PropOp47
 70
     0
102
RTVSPost2010Prop48
 90
       50
102
RTVSPost2010PropOp48
 70
     0
102
RTVSPost2010Prop49
280
     0
102
RTVSPost2010PropOp49
 70
     0
102
RTVSPost2010Prop50
 90
       50
102
RTVSPost2010PropOp50
 70
     0
102
RTVSPost2010Prop51ColorIndex
 90
      256
102
RTVSPost2010Prop51ColorRGB
 90
-16777216
102
RTVSPost2010PropOp51
 70
     0
102
RTVSPost2010Prop52
140
1.0
102
RTVSPost2010PropOp52
 70
     0
102
RTVSPost2010Prop53
 90
        2
102
RTVSPost2010PropOp53
 70
     0
102
RTVSPost2010Prop54
  1
strokes_ogs.tif
102
RTVSPost2010PropOp54
 70
     0
102
RTVSPost2010Prop55
280
     0
102
RTVSPost2010PropOp55
 70
     0
102
RTVSPost2010Prop56
140
1.0
102
RTVSPost2010PropOp56
 70
     0
102
RTVSPost2010Prop57
140
1.0
102
RTVSPost2010PropOp57
 70
     0
  0
XRECORD
  5
106AC52
102
{ACAD_REACTORS
330
106AC51
102
}
330
106AC51
100
AcDbXrecord
280
     1
102
RTVSPropertyOp0
 70
     1
102
RTVSPropertyOp1
 70
     1
102
RTVSPropertyOp2
 70
     1
102
RTVSPropertyOp3
 70
     1
102
RTVSPropertyOp4
 70
     1
102
RTVSPropertyOp5
 70
     1
102
RTVSPropertyOp6
 70
     1
102
RTVSPropertyOp7
 70
     1
102
RTVSPropertyOp8
 70
     1
102
RTVSPropertyOp9
 70
     1
102
RTVSPropertyOp10
 70
     1
102
RTVSPropertyOp11
 70
     1
102
RTVSPropertyOp12
 70
     1
102
RTVSPropertyOp13
 70
     1
102
RTVSPropertyOp14
 70
     1
102
RTVSPropertyOp15
 70
     1
102
RTVSPropertyOp16
 70
     1
102
RTVSPropertyOp17
 70
     1
102
RTVSPropertyOp18
 70
     1
102
RTVSPropertyOp19
 70
     1
102
RTVSPropertyOp20
 70
     1
102
RTVSPropertyOp21
 70
     1
102
RTVSPropertyOp22
 70
     1
102
RTVSPropertyOp23
 70
     1
102
RTVSPropertyOp24
 70
     1
102
RTVSPropertyOp25
 70
     1
102
RTVSPropertyOp26
 70
     1
102
RTVSPropertyOp27
 70
     1
102
RTVSPropertyOp28
 70
     1
102
RTVSPropertyOp29
 70
     1
102
RTVSPropertyOp30
 70
     1
102
RTVSPropertyOp31
 70
     1
102
RTVSPropertyOp32
 70
     1
102
RTVSPropertyOp33
 70
     1
102
RTVSPropertyOp34
 70
     1
102
RTVSPropertyOp35
 70
     1
102
RTVSPropertyOp36
 70
     1
102
RTVSPropertyOp37
 70
     1
102
RTVSPropertyOp38
 70
     1
102
RTVSPropertyOp39
 70
     1
102
RTVSPropertyOp40
 70
     1
102
RTVSPropertyOp41
 70
     1
102
RTVSPropertyOp42
 70
     1
102
RTVSPropertyOp43
 70
     1
102
RTVSPropertyOp44
 70
     1
102
RTVSPropertyOp45
 70
     1
102
RTVSPropertyOp46
 70
     1
102
RTVSPropertyOp47
 70
     1
102
RTVSPropertyOp48
 70
     1
102
RTVSPropertyOp49
 70
     1
102
RTVSPropertyOp50
 70
     1
102
RTVSPropertyOp51
 70
     0
102
RTVSPropertyOp52
 70
     0
102
RTVSPropertyOp53
 70
     1
102
RTVSPropertyOp54
 70
     1
102
RTVSPropertyOp55
 70
     1
102
RTVSPropertyOp56
 70
     1
102
RTVSPropertyOp57
 70
     1
102
RTVSPost2010Prop28
280
     0
102
RTVSPost2010PropOp28
 70
     1
102
RTVSPost2010Prop29
280
     1
102
RTVSPost2010PropOp29
 70
     1
102
RTVSPost2010Prop30
280
     1
102
RTVSPost2010PropOp30
 70
     1
102
RTVSPost2010Prop31
280
     0
102
RTVSPost2010PropOp31
 70
     1
102
RTVSPost2010Prop32
280
     0
102
RTVSPost2010PropOp32
 70
     1
102
RTVSPost2010Prop33
280
     0
102
RTVSPost2010PropOp33
 70
     1
102
RTVSPost2010Prop34
280
     0
102
RTVSPost2010PropOp34
 70
     1
102
RTVSPost2010Prop35
280
     0
102
RTVSPost2010PropOp35
 70
     1
102
RTVSPost2010Prop36
280
     0
102
RTVSPost2010PropOp36
 70
     1
102
RTVSPost2010Prop37
 90
       50
102
RTVSPost2010PropOp37
 70
     1
102
RTVSPost2010Prop38
140
0.0
102
RTVSPost2010PropOp38
 70
     1
102
RTVSPost2010Prop39
140
1.0
102
RTVSPost2010PropOp39
 70
     1
102
RTVSPost2010Prop40
 90
        0
102
RTVSPost2010PropOp40
 70
     1
102
RTVSPost2010Prop41ColorIndex
 90
       18
102
RTVSPost2010Prop41ColorRGB
 90
        0
102
RTVSPost2010PropOp41
 70
     1
102
RTVSPost2010Prop42
 90
       50
102
RTVSPost2010PropOp42
 70
     1
102
RTVSPost2010Prop43
 90
        3
102
RTVSPost2010PropOp43
 70
     1
102
RTVSPost2010Prop44ColorIndex
 90
        5
102
RTVSPost2010Prop44ColorRGB
 90
      255
102
RTVSPost2010PropOp44
 70
     1
102
RTVSPost2010Prop45
280
     0
102
RTVSPost2010PropOp45
 70
     1
102
RTVSPost2010Prop46
 90
       50
102
RTVSPost2010PropOp46
 70
     1
102
RTVSPost2010Prop47
 90
       50
102
RTVSPost2010PropOp47
 70
     1
102
RTVSPost2010Prop48
 90
       50
102
RTVSPost2010PropOp48
 70
     1
102
RTVSPost2010Prop49
280
     0
102
RTVSPost2010PropOp49
 70
     1
102
RTVSPost2010Prop50
 90
       50
102
RTVSPost2010PropOp50
 70
     1
102
RTVSPost2010Prop51ColorIndex
 90
      256
102
RTVSPost2010Prop51ColorRGB
 90
-16777216
102
RTVSPost2010PropOp51
 70
     0
102
RTVSPost2010Prop52
140
1.0
102
RTVSPost2010PropOp52
 70
     0
102
RTVSPost2010Prop53
 90
        2
102
RTVSPost2010PropOp53
 70
     1
102
RTVSPost2010Prop54
  1
strokes_ogs.tif
102
RTVSPost2010PropOp54
 70
     1
102
RTVSPost2010Prop55
280
     0
102
RTVSPost2010PropOp55
 70
     1
102
RTVSPost2010Prop56
140
1.0
102
RTVSPost2010PropOp56
 70
     1
102
RTVSPost2010Prop57
140
1.0
102
RTVSPost2010PropOp57
 70
     1
  0
XRECORD
  5
106AC5A
102
{ACAD_REACTORS
330
106AC59
102
}
330
106AC59
100
AcDbXrecord
280
     1
102
RTVSPropertyOp0
 70
     0
102
RTVSPropertyOp1
 70
     0
102
RTVSPropertyOp2
 70
     0
102
RTVSPropertyOp3
 70
     0
102
RTVSPropertyOp4
 70
     0
102
RTVSPropertyOp5
 70
     0
102
RTVSPropertyOp6
 70
     0
102
RTVSPropertyOp7
 70
     0
102
RTVSPropertyOp8
 70
     0
102
RTVSPropertyOp9
 70
     0
102
RTVSPropertyOp10
 70
     0
102
RTVSPropertyOp11
 70
     0
102
RTVSPropertyOp12
 70
     0
102
RTVSPropertyOp13
 70
     0
102
RTVSPropertyOp14
 70
     2
102
RTVSPropertyOp15
 70
     0
102
RTVSPropertyOp16
 70
     0
102
RTVSPropertyOp17
 70
     0
102
RTVSPropertyOp18
 70
     0
102
RTVSPropertyOp19
 70
     0
102
RTVSPropertyOp20
 70
     0
102
RTVSPropertyOp21
 70
     0
102
RTVSPropertyOp22
 70
     0
102
RTVSPropertyOp23
 70
     0
102
RTVSPropertyOp24
 70
     0
102
RTVSPropertyOp25
 70
     0
102
RTVSPropertyOp26
 70
     0
102
RTVSPropertyOp27
 70
     0
102
RTVSPropertyOp28
 70
     0
102
RTVSPropertyOp29
 70
     0
102
RTVSPropertyOp30
 70
     0
102
RTVSPropertyOp31
 70
     0
102
RTVSPropertyOp32
 70
     0
102
RTVSPropertyOp33
 70
     0
102
RTVSPropertyOp34
 70
     0
102
RTVSPropertyOp35
 70
     0
102
RTVSPropertyOp36
 70
     0
102
RTVSPropertyOp37
 70
     0
102
RTVSPropertyOp38
 70
     0
102
RTVSPropertyOp39
 70
     0
102
RTVSPropertyOp40
 70
     0
102
RTVSPropertyOp41
 70
     0
102
RTVSPropertyOp42
 70
     0
102
RTVSPropertyOp43
 70
     0
102
RTVSPropertyOp44
 70
     0
102
RTVSPropertyOp45
 70
     0
102
RTVSPropertyOp46
 70
     0
102
RTVSPropertyOp47
 70
     0
102
RTVSPropertyOp48
 70
     0
102
RTVSPropertyOp49
 70
     0
102
RTVSPropertyOp50
 70
     0
102
RTVSPropertyOp51
 70
     0
102
RTVSPropertyOp52
 70
     0
102
RTVSPropertyOp53
 70
     0
102
RTVSPropertyOp54
 70
     0
102
RTVSPropertyOp55
 70
     0
102
RTVSPropertyOp56
 70
     0
102
RTVSPropertyOp57
 70
     0
102
RTVSPost2010Prop28
280
     0
102
RTVSPost2010PropOp28
 70
     0
102
RTVSPost2010Prop29
280
     1
102
RTVSPost2010PropOp29
 70
     0
102
RTVSPost2010Prop30
280
     1
102
RTVSPost2010PropOp30
 70
     0
102
RTVSPost2010Prop31
280
     0
102
RTVSPost2010PropOp31
 70
     0
102
RTVSPost2010Prop32
280
     0
102
RTVSPost2010PropOp32
 70
     0
102
RTVSPost2010Prop33
280
     0
102
RTVSPost2010PropOp33
 70
     0
102
RTVSPost2010Prop34
280
     0
102
RTVSPost2010PropOp34
 70
     0
102
RTVSPost2010Prop35
280
     0
102
RTVSPost2010PropOp35
 70
     0
102
RTVSPost2010Prop36
280
     0
102
RTVSPost2010PropOp36
 70
     0
102
RTVSPost2010Prop37
 90
       50
102
RTVSPost2010PropOp37
 70
     0
102
RTVSPost2010Prop38
140
0.0
102
RTVSPost2010PropOp38
 70
     0
102
RTVSPost2010Prop39
140
1.0
102
RTVSPost2010PropOp39
 70
     0
102
RTVSPost2010Prop40
 90
        0
102
RTVSPost2010PropOp40
 70
     0
102
RTVSPost2010Prop41ColorIndex
 90
       18
102
RTVSPost2010Prop41ColorRGB
 90
        0
102
RTVSPost2010PropOp41
 70
     0
102
RTVSPost2010Prop42
 90
       50
102
RTVSPost2010PropOp42
 70
     0
102
RTVSPost2010Prop43
 90
        3
102
RTVSPost2010PropOp43
 70
     0
102
RTVSPost2010Prop44ColorIndex
 90
        5
102
RTVSPost2010Prop44ColorRGB
 90
      255
102
RTVSPost2010PropOp44
 70
     0
102
RTVSPost2010Prop45
280
     0
102
RTVSPost2010PropOp45
 70
     0
102
RTVSPost2010Prop46
 90
       50
102
RTVSPost2010PropOp46
 70
     0
102
RTVSPost2010Prop47
 90
       50
102
RTVSPost2010PropOp47
 70
     0
102
RTVSPost2010Prop48
 90
       50
102
RTVSPost2010PropOp48
 70
     0
102
RTVSPost2010Prop49
280
     0
102
RTVSPost2010PropOp49
 70
     0
102
RTVSPost2010Prop50
 90
       50
102
RTVSPost2010PropOp50
 70
     0
102
RTVSPost2010Prop51ColorIndex
 90
      256
102
RTVSPost2010Prop51ColorRGB
 90
-16777216
102
RTVSPost2010PropOp51
 70
     0
102
RTVSPost2010Prop52
140
1.0
102
RTVSPost2010PropOp52
 70
     0
102
RTVSPost2010Prop53
 90
        2
102
RTVSPost2010PropOp53
 70
     0
102
RTVSPost2010Prop54
  1
strokes_ogs.tif
102
RTVSPost2010PropOp54
 70
     0
102
RTVSPost2010Prop55
280
     0
102
RTVSPost2010PropOp55
 70
     0
102
RTVSPost2010Prop56
140
1.0
102
RTVSPost2010PropOp56
 70
     0
102
RTVSPost2010Prop57
140
1.0
102
RTVSPost2010PropOp57
 70
     0
  0
XRECORD
  5
106AC48
102
{ACAD_REACTORS
330
106AC47
102
}
330
106AC47
100
AcDbXrecord
280
     1
102
RTVSPropertyOp0
 70
     1
102
RTVSPropertyOp1
 70
     1
102
RTVSPropertyOp2
 70
     1
102
RTVSPropertyOp3
 70
     1
102
RTVSPropertyOp4
 70
     1
102
RTVSPropertyOp5
 70
     1
102
RTVSPropertyOp6
 70
     1
102
RTVSPropertyOp7
 70
     1
102
RTVSPropertyOp8
 70
     1
102
RTVSPropertyOp9
 70
     1
102
RTVSPropertyOp10
 70
     1
102
RTVSPropertyOp11
 70
     1
102
RTVSPropertyOp12
 70
     1
102
RTVSPropertyOp13
 70
     1
102
RTVSPropertyOp14
 70
     1
102
RTVSPropertyOp15
 70
     1
102
RTVSPropertyOp16
 70
     1
102
RTVSPropertyOp17
 70
     1
102
RTVSPropertyOp18
 70
     1
102
RTVSPropertyOp19
 70
     1
102
RTVSPropertyOp20
 70
     1
102
RTVSPropertyOp21
 70
     1
102
RTVSPropertyOp22
 70
     1
102
RTVSPropertyOp23
 70
     1
102
RTVSPropertyOp24
 70
     1
102
RTVSPropertyOp25
 70
     1
102
RTVSPropertyOp26
 70
     1
102
RTVSPropertyOp27
 70
     1
102
RTVSPropertyOp28
 70
     1
102
RTVSPropertyOp29
 70
     1
102
RTVSPropertyOp30
 70
     1
102
RTVSPropertyOp31
 70
     1
102
RTVSPropertyOp32
 70
     1
102
RTVSPropertyOp33
 70
     1
102
RTVSPropertyOp34
 70
     1
102
RTVSPropertyOp35
 70
     1
102
RTVSPropertyOp36
 70
     1
102
RTVSPropertyOp37
 70
     1
102
RTVSPropertyOp38
 70
     1
102
RTVSPropertyOp39
 70
     1
102
RTVSPropertyOp40
 70
     1
102
RTVSPropertyOp41
 70
     1
102
RTVSPropertyOp42
 70
     1
102
RTVSPropertyOp43
 70
     1
102
RTVSPropertyOp44
 70
     1
102
RTVSPropertyOp45
 70
     1
102
RTVSPropertyOp46
 70
     1
102
RTVSPropertyOp47
 70
     1
102
RTVSPropertyOp48
 70
     1
102
RTVSPropertyOp49
 70
     1
102
RTVSPropertyOp50
 70
     1
102
RTVSPropertyOp51
 70
     0
102
RTVSPropertyOp52
 70
     0
102
RTVSPropertyOp53
 70
     1
102
RTVSPropertyOp54
 70
     1
102
RTVSPropertyOp55
 70
     1
102
RTVSPropertyOp56
 70
     1
102
RTVSPropertyOp57
 70
     1
102
RTVSPost2010Prop28
280
     0
102
RTVSPost2010PropOp28
 70
     1
102
RTVSPost2010Prop29
280
     1
102
RTVSPost2010PropOp29
 70
     1
102
RTVSPost2010Prop30
280
     1
102
RTVSPost2010PropOp30
 70
     1
102
RTVSPost2010Prop31
280
     0
102
RTVSPost2010PropOp31
 70
     1
102
RTVSPost2010Prop32
280
     0
102
RTVSPost2010PropOp32
 70
     1
102
RTVSPost2010Prop33
280
     0
102
RTVSPost2010PropOp33
 70
     1
102
RTVSPost2010Prop34
280
     0
102
RTVSPost2010PropOp34
 70
     1
102
RTVSPost2010Prop35
280
     0
102
RTVSPost2010PropOp35
 70
     1
102
RTVSPost2010Prop36
280
     0
102
RTVSPost2010PropOp36
 70
     1
102
RTVSPost2010Prop37
 90
       50
102
RTVSPost2010PropOp37
 70
     1
102
RTVSPost2010Prop38
140
0.0
102
RTVSPost2010PropOp38
 70
     1
102
RTVSPost2010Prop39
140
1.0
102
RTVSPost2010PropOp39
 70
     1
102
RTVSPost2010Prop40
 90
        0
102
RTVSPost2010PropOp40
 70
     1
102
RTVSPost2010Prop41ColorIndex
 90
       18
102
RTVSPost2010Prop41ColorRGB
 90
        0
102
RTVSPost2010PropOp41
 70
     1
102
RTVSPost2010Prop42
 90
       50
102
RTVSPost2010PropOp42
 70
     1
102
RTVSPost2010Prop43
 90
        3
102
RTVSPost2010PropOp43
 70
     1
102
RTVSPost2010Prop44ColorIndex
 90
        5
102
RTVSPost2010Prop44ColorRGB
 90
      255
102
RTVSPost2010PropOp44
 70
     1
102
RTVSPost2010Prop45
280
     0
102
RTVSPost2010PropOp45
 70
     1
102
RTVSPost2010Prop46
 90
       50
102
RTVSPost2010PropOp46
 70
     1
102
RTVSPost2010Prop47
 90
       50
102
RTVSPost2010PropOp47
 70
     1
102
RTVSPost2010Prop48
 90
       50
102
RTVSPost2010PropOp48
 70
     1
102
RTVSPost2010Prop49
280
     0
102
RTVSPost2010PropOp49
 70
     1
102
RTVSPost2010Prop50
 90
       50
102
RTVSPost2010PropOp50
 70
     1
102
RTVSPost2010Prop51ColorIndex
 90
      256
102
RTVSPost2010Prop51ColorRGB
 90
-16777216
102
RTVSPost2010PropOp51
 70
     0
102
RTVSPost2010Prop52
140
1.0
102
RTVSPost2010PropOp52
 70
     0
102
RTVSPost2010Prop53
 90
        2
102
RTVSPost2010PropOp53
 70
     1
102
RTVSPost2010Prop54
  1
strokes_ogs.tif
102
RTVSPost2010PropOp54
 70
     1
102
RTVSPost2010Prop55
280
     0
102
RTVSPost2010PropOp55
 70
     1
102
RTVSPost2010Prop56
140
1.0
102
RTVSPost2010PropOp56
 70
     1
102
RTVSPost2010Prop57
140
1.0
102
RTVSPost2010PropOp57
 70
     1
  0
XRECORD
  5
106AC66
102
{ACAD_REACTORS
330
106AC65
102
}
330
106AC65
100
AcDbXrecord
280
     1
102
RTVSPropertyOp0
 70
     1
102
RTVSPropertyOp1
 70
     1
102
RTVSPropertyOp2
 70
     1
102
RTVSPropertyOp3
 70
     1
102
RTVSPropertyOp4
 70
     1
102
RTVSPropertyOp5
 70
     1
102
RTVSPropertyOp6
 70
     1
102
RTVSPropertyOp7
 70
     1
102
RTVSPropertyOp8
 70
     1
102
RTVSPropertyOp9
 70
     1
102
RTVSPropertyOp10
 70
     1
102
RTVSPropertyOp11
 70
     1
102
RTVSPropertyOp12
 70
     1
102
RTVSPropertyOp13
 70
     1
102
RTVSPropertyOp14
 70
     1
102
RTVSPropertyOp15
 70
     1
102
RTVSPropertyOp16
 70
     1
102
RTVSPropertyOp17
 70
     1
102
RTVSPropertyOp18
 70
     1
102
RTVSPropertyOp19
 70
     1
102
RTVSPropertyOp20
 70
     1
102
RTVSPropertyOp21
 70
     1
102
RTVSPropertyOp22
 70
     1
102
RTVSPropertyOp23
 70
     1
102
RTVSPropertyOp24
 70
     1
102
RTVSPropertyOp25
 70
     1
102
RTVSPropertyOp26
 70
     1
102
RTVSPropertyOp27
 70
     1
102
RTVSPropertyOp28
 70
     1
102
RTVSPropertyOp29
 70
     1
102
RTVSPropertyOp30
 70
     1
102
RTVSPropertyOp31
 70
     1
102
RTVSPropertyOp32
 70
     1
102
RTVSPropertyOp33
 70
     1
102
RTVSPropertyOp34
 70
     1
102
RTVSPropertyOp35
 70
     1
102
RTVSPropertyOp36
 70
     1
102
RTVSPropertyOp37
 70
     1
102
RTVSPropertyOp38
 70
     1
102
RTVSPropertyOp39
 70
     1
102
RTVSPropertyOp40
 70
     1
102
RTVSPropertyOp41
 70
     1
102
RTVSPropertyOp42
 70
     1
102
RTVSPropertyOp43
 70
     1
102
RTVSPropertyOp44
 70
     1
102
RTVSPropertyOp45
 70
     1
102
RTVSPropertyOp46
 70
     1
102
RTVSPropertyOp47
 70
     1
102
RTVSPropertyOp48
 70
     1
102
RTVSPropertyOp49
 70
     1
102
RTVSPropertyOp50
 70
     1
102
RTVSPropertyOp51
 70
     0
102
RTVSPropertyOp52
 70
     0
102
RTVSPropertyOp53
 70
     1
102
RTVSPropertyOp54
 70
     1
102
RTVSPropertyOp55
 70
     1
102
RTVSPropertyOp56
 70
     1
102
RTVSPropertyOp57
 70
     1
102
RTVSPost2010Prop28
280
     0
102
RTVSPost2010PropOp28
 70
     1
102
RTVSPost2010Prop29
280
     1
102
RTVSPost2010PropOp29
 70
     1
102
RTVSPost2010Prop30
280
     1
102
RTVSPost2010PropOp30
 70
     1
102
RTVSPost2010Prop31
280
     0
102
RTVSPost2010PropOp31
 70
     1
102
RTVSPost2010Prop32
280
     0
102
RTVSPost2010PropOp32
 70
     1
102
RTVSPost2010Prop33
280
     0
102
RTVSPost2010PropOp33
 70
     1
102
RTVSPost2010Prop34
280
     0
102
RTVSPost2010PropOp34
 70
     1
102
RTVSPost2010Prop35
280
     0
102
RTVSPost2010PropOp35
 70
     1
102
RTVSPost2010Prop36
280
     0
102
RTVSPost2010PropOp36
 70
     1
102
RTVSPost2010Prop37
 90
       50
102
RTVSPost2010PropOp37
 70
     1
102
RTVSPost2010Prop38
140
0.0
102
RTVSPost2010PropOp38
 70
     1
102
RTVSPost2010Prop39
140
1.0
102
RTVSPost2010PropOp39
 70
     1
102
RTVSPost2010Prop40
 90
        0
102
RTVSPost2010PropOp40
 70
     1
102
RTVSPost2010Prop41ColorIndex
 90
       18
102
RTVSPost2010Prop41ColorRGB
 90
        0
102
RTVSPost2010PropOp41
 70
     1
102
RTVSPost2010Prop42
 90
       50
102
RTVSPost2010PropOp42
 70
     1
102
RTVSPost2010Prop43
 90
        3
102
RTVSPost2010PropOp43
 70
     1
102
RTVSPost2010Prop44ColorIndex
 90
        5
102
RTVSPost2010Prop44ColorRGB
 90
      255
102
RTVSPost2010PropOp44
 70
     1
102
RTVSPost2010Prop45
280
     0
102
RTVSPost2010PropOp45
 70
     1
102
RTVSPost2010Prop46
 90
       50
102
RTVSPost2010PropOp46
 70
     1
102
RTVSPost2010Prop47
 90
       50
102
RTVSPost2010PropOp47
 70
     1
102
RTVSPost2010Prop48
 90
       50
102
RTVSPost2010PropOp48
 70
     1
102
RTVSPost2010Prop49
280
     0
102
RTVSPost2010PropOp49
 70
     1
102
RTVSPost2010Prop50
 90
       50
102
RTVSPost2010PropOp50
 70
     1
102
RTVSPost2010Prop51ColorIndex
 90
      256
102
RTVSPost2010Prop51ColorRGB
 90
-16777216
102
RTVSPost2010PropOp51
 70
     0
102
RTVSPost2010Prop52
140
1.0
102
RTVSPost2010PropOp52
 70
     0
102
RTVSPost2010Prop53
 90
        2
102
RTVSPost2010PropOp53
 70
     1
102
RTVSPost2010Prop54
  1
strokes_ogs.tif
102
RTVSPost2010PropOp54
 70
     1
102
RTVSPost2010Prop55
280
     0
102
RTVSPost2010PropOp55
 70
     1
102
RTVSPost2010Prop56
140
1.0
102
RTVSPost2010PropOp56
 70
     1
102
RTVSPost2010Prop57
140
1.0
102
RTVSPost2010PropOp57
 70
     1
  0
XRECORD
  5
106AC64
102
{ACAD_REACTORS
330
106AC63
102
}
330
106AC63
100
AcDbXrecord
280
     1
102
RTVSPropertyOp0
 70
     1
102
RTVSPropertyOp1
 70
     1
102
RTVSPropertyOp2
 70
     1
102
RTVSPropertyOp3
 70
     1
102
RTVSPropertyOp4
 70
     1
102
RTVSPropertyOp5
 70
     1
102
RTVSPropertyOp6
 70
     1
102
RTVSPropertyOp7
 70
     1
102
RTVSPropertyOp8
 70
     1
102
RTVSPropertyOp9
 70
     1
102
RTVSPropertyOp10
 70
     1
102
RTVSPropertyOp11
 70
     1
102
RTVSPropertyOp12
 70
     1
102
RTVSPropertyOp13
 70
     1
102
RTVSPropertyOp14
 70
     1
102
RTVSPropertyOp15
 70
     1
102
RTVSPropertyOp16
 70
     1
102
RTVSPropertyOp17
 70
     1
102
RTVSPropertyOp18
 70
     1
102
RTVSPropertyOp19
 70
     1
102
RTVSPropertyOp20
 70
     1
102
RTVSPropertyOp21
 70
     1
102
RTVSPropertyOp22
 70
     1
102
RTVSPropertyOp23
 70
     1
102
RTVSPropertyOp24
 70
     1
102
RTVSPropertyOp25
 70
     1
102
RTVSPropertyOp26
 70
     1
102
RTVSPropertyOp27
 70
     1
102
RTVSPropertyOp28
 70
     1
102
RTVSPropertyOp29
 70
     1
102
RTVSPropertyOp30
 70
     1
102
RTVSPropertyOp31
 70
     1
102
RTVSPropertyOp32
 70
     1
102
RTVSPropertyOp33
 70
     1
102
RTVSPropertyOp34
 70
     1
102
RTVSPropertyOp35
 70
     1
102
RTVSPropertyOp36
 70
     1
102
RTVSPropertyOp37
 70
     1
102
RTVSPropertyOp38
 70
     1
102
RTVSPropertyOp39
 70
     1
102
RTVSPropertyOp40
 70
     1
102
RTVSPropertyOp41
 70
     1
102
RTVSPropertyOp42
 70
     1
102
RTVSPropertyOp43
 70
     1
102
RTVSPropertyOp44
 70
     1
102
RTVSPropertyOp45
 70
     1
102
RTVSPropertyOp46
 70
     1
102
RTVSPropertyOp47
 70
     1
102
RTVSPropertyOp48
 70
     1
102
RTVSPropertyOp49
 70
     1
102
RTVSPropertyOp50
 70
     1
102
RTVSPropertyOp51
 70
     0
102
RTVSPropertyOp52
 70
     0
102
RTVSPropertyOp53
 70
     1
102
RTVSPropertyOp54
 70
     1
102
RTVSPropertyOp55
 70
     1
102
RTVSPropertyOp56
 70
     1
102
RTVSPropertyOp57
 70
     1
102
RTVSPost2010Prop28
280
     0
102
RTVSPost2010PropOp28
 70
     1
102
RTVSPost2010Prop29
280
     1
102
RTVSPost2010PropOp29
 70
     1
102
RTVSPost2010Prop30
280
     1
102
RTVSPost2010PropOp30
 70
     1
102
RTVSPost2010Prop31
280
     0
102
RTVSPost2010PropOp31
 70
     1
102
RTVSPost2010Prop32
280
     0
102
RTVSPost2010PropOp32
 70
     1
102
RTVSPost2010Prop33
280
     0
102
RTVSPost2010PropOp33
 70
     1
102
RTVSPost2010Prop34
280
     0
102
RTVSPost2010PropOp34
 70
     1
102
RTVSPost2010Prop35
280
     0
102
RTVSPost2010PropOp35
 70
     1
102
RTVSPost2010Prop36
280
     0
102
RTVSPost2010PropOp36
 70
     1
102
RTVSPost2010Prop37
 90
       50
102
RTVSPost2010PropOp37
 70
     1
102
RTVSPost2010Prop38
140
0.0
102
RTVSPost2010PropOp38
 70
     1
102
RTVSPost2010Prop39
140
1.0
102
RTVSPost2010PropOp39
 70
     1
102
RTVSPost2010Prop40
 90
        0
102
RTVSPost2010PropOp40
 70
     1
102
RTVSPost2010Prop41ColorIndex
 90
       18
102
RTVSPost2010Prop41ColorRGB
 90
        0
102
RTVSPost2010PropOp41
 70
     1
102
RTVSPost2010Prop42
 90
       50
102
RTVSPost2010PropOp42
 70
     1
102
RTVSPost2010Prop43
 90
        3
102
RTVSPost2010PropOp43
 70
     1
102
RTVSPost2010Prop44ColorIndex
 90
        5
102
RTVSPost2010Prop44ColorRGB
 90
      255
102
RTVSPost2010PropOp44
 70
     1
102
RTVSPost2010Prop45
280
     0
102
RTVSPost2010PropOp45
 70
     1
102
RTVSPost2010Prop46
 90
       50
102
RTVSPost2010PropOp46
 70
     1
102
RTVSPost2010Prop47
 90
       50
102
RTVSPost2010PropOp47
 70
     1
102
RTVSPost2010Prop48
 90
       50
102
RTVSPost2010PropOp48
 70
     1
102
RTVSPost2010Prop49
280
     0
102
RTVSPost2010PropOp49
 70
     1
102
RTVSPost2010Prop50
 90
       50
102
RTVSPost2010PropOp50
 70
     1
102
RTVSPost2010Prop51ColorIndex
 90
      256
102
RTVSPost2010Prop51ColorRGB
 90
-16777216
102
RTVSPost2010PropOp51
 70
     0
102
RTVSPost2010Prop52
140
1.0
102
RTVSPost2010PropOp52
 70
     0
102
RTVSPost2010Prop53
 90
        2
102
RTVSPost2010PropOp53
 70
     1
102
RTVSPost2010Prop54
  1
strokes_ogs.tif
102
RTVSPost2010PropOp54
 70
     1
102
RTVSPost2010Prop55
280
     0
102
RTVSPost2010PropOp55
 70
     1
102
RTVSPost2010Prop56
140
1.0
102
RTVSPost2010PropOp56
 70
     1
102
RTVSPost2010Prop57
140
1.0
102
RTVSPost2010PropOp57
 70
     1
  0
XRECORD
  5
106AC5E
102
{ACAD_REACTORS
330
106AC5D
102
}
330
106AC5D
100
AcDbXrecord
280
     1
102
RTVSPropertyOp0
 70
     1
102
RTVSPropertyOp1
 70
     1
102
RTVSPropertyOp2
 70
     1
102
RTVSPropertyOp3
 70
     1
102
RTVSPropertyOp4
 70
     1
102
RTVSPropertyOp5
 70
     1
102
RTVSPropertyOp6
 70
     1
102
RTVSPropertyOp7
 70
     1
102
RTVSPropertyOp8
 70
     1
102
RTVSPropertyOp9
 70
     1
102
RTVSPropertyOp10
 70
     1
102
RTVSPropertyOp11
 70
     1
102
RTVSPropertyOp12
 70
     1
102
RTVSPropertyOp13
 70
     1
102
RTVSPropertyOp14
 70
     1
102
RTVSPropertyOp15
 70
     1
102
RTVSPropertyOp16
 70
     1
102
RTVSPropertyOp17
 70
     1
102
RTVSPropertyOp18
 70
     1
102
RTVSPropertyOp19
 70
     1
102
RTVSPropertyOp20
 70
     1
102
RTVSPropertyOp21
 70
     1
102
RTVSPropertyOp22
 70
     1
102
RTVSPropertyOp23
 70
     1
102
RTVSPropertyOp24
 70
     1
102
RTVSPropertyOp25
 70
     1
102
RTVSPropertyOp26
 70
     1
102
RTVSPropertyOp27
 70
     1
102
RTVSPropertyOp28
 70
     1
102
RTVSPropertyOp29
 70
     1
102
RTVSPropertyOp30
 70
     1
102
RTVSPropertyOp31
 70
     1
102
RTVSPropertyOp32
 70
     1
102
RTVSPropertyOp33
 70
     1
102
RTVSPropertyOp34
 70
     1
102
RTVSPropertyOp35
 70
     1
102
RTVSPropertyOp36
 70
     1
102
RTVSPropertyOp37
 70
     1
102
RTVSPropertyOp38
 70
     1
102
RTVSPropertyOp39
 70
     1
102
RTVSPropertyOp40
 70
     1
102
RTVSPropertyOp41
 70
     1
102
RTVSPropertyOp42
 70
     1
102
RTVSPropertyOp43
 70
     1
102
RTVSPropertyOp44
 70
     1
102
RTVSPropertyOp45
 70
     1
102
RTVSPropertyOp46
 70
     1
102
RTVSPropertyOp47
 70
     1
102
RTVSPropertyOp48
 70
     1
102
RTVSPropertyOp49
 70
     1
102
RTVSPropertyOp50
 70
     1
102
RTVSPropertyOp51
 70
     0
102
RTVSPropertyOp52
 70
     0
102
RTVSPropertyOp53
 70
     1
102
RTVSPropertyOp54
 70
     1
102
RTVSPropertyOp55
 70
     1
102
RTVSPropertyOp56
 70
     1
102
RTVSPropertyOp57
 70
     1
102
RTVSPost2010Prop28
280
     0
102
RTVSPost2010PropOp28
 70
     1
102
RTVSPost2010Prop29
280
     1
102
RTVSPost2010PropOp29
 70
     1
102
RTVSPost2010Prop30
280
     1
102
RTVSPost2010PropOp30
 70
     1
102
RTVSPost2010Prop31
280
     0
102
RTVSPost2010PropOp31
 70
     1
102
RTVSPost2010Prop32
280
     0
102
RTVSPost2010PropOp32
 70
     1
102
RTVSPost2010Prop33
280
     0
102
RTVSPost2010PropOp33
 70
     1
102
RTVSPost2010Prop34
280
     0
102
RTVSPost2010PropOp34
 70
     1
102
RTVSPost2010Prop35
280
     0
102
RTVSPost2010PropOp35
 70
     1
102
RTVSPost2010Prop36
280
     0
102
RTVSPost2010PropOp36
 70
     1
102
RTVSPost2010Prop37
 90
       50
102
RTVSPost2010PropOp37
 70
     1
102
RTVSPost2010Prop38
140
0.0
102
RTVSPost2010PropOp38
 70
     1
102
RTVSPost2010Prop39
140
1.0
102
RTVSPost2010PropOp39
 70
     1
102
RTVSPost2010Prop40
 90
        0
102
RTVSPost2010PropOp40
 70
     1
102
RTVSPost2010Prop41ColorIndex
 90
       18
102
RTVSPost2010Prop41ColorRGB
 90
        0
102
RTVSPost2010PropOp41
 70
     1
102
RTVSPost2010Prop42
 90
       50
102
RTVSPost2010PropOp42
 70
     1
102
RTVSPost2010Prop43
 90
        3
102
RTVSPost2010PropOp43
 70
     1
102
RTVSPost2010Prop44ColorIndex
 90
        5
102
RTVSPost2010Prop44ColorRGB
 90
      255
102
RTVSPost2010PropOp44
 70
     1
102
RTVSPost2010Prop45
280
     0
102
RTVSPost2010PropOp45
 70
     1
102
RTVSPost2010Prop46
 90
       50
102
RTVSPost2010PropOp46
 70
     1
102
RTVSPost2010Prop47
 90
       50
102
RTVSPost2010PropOp47
 70
     1
102
RTVSPost2010Prop48
 90
       50
102
RTVSPost2010PropOp48
 70
     1
102
RTVSPost2010Prop49
280
     0
102
RTVSPost2010PropOp49
 70
     1
102
RTVSPost2010Prop50
 90
       50
102
RTVSPost2010PropOp50
 70
     1
102
RTVSPost2010Prop51ColorIndex
 90
      256
102
RTVSPost2010Prop51ColorRGB
 90
-16777216
102
RTVSPost2010PropOp51
 70
     0
102
RTVSPost2010Prop52
140
1.0
102
RTVSPost2010PropOp52
 70
     0
102
RTVSPost2010Prop53
 90
        2
102
RTVSPost2010PropOp53
 70
     1
102
RTVSPost2010Prop54
  1
strokes_ogs.tif
102
RTVSPost2010PropOp54
 70
     1
102
RTVSPost2010Prop55
280
     0
102
RTVSPost2010PropOp55
 70
     1
102
RTVSPost2010Prop56
140
1.0
102
RTVSPost2010PropOp56
 70
     1
102
RTVSPost2010Prop57
140
1.0
102
RTVSPost2010PropOp57
 70
     1
  0
XRECORD
  5
106AC60
102
{ACAD_REACTORS
330
106AC5F
102
}
330
106AC5F
100
AcDbXrecord
280
     1
102
RTVSPropertyOp0
 70
     1
102
RTVSPropertyOp1
 70
     1
102
RTVSPropertyOp2
 70
     1
102
RTVSPropertyOp3
 70
     1
102
RTVSPropertyOp4
 70
     1
102
RTVSPropertyOp5
 70
     1
102
RTVSPropertyOp6
 70
     1
102
RTVSPropertyOp7
 70
     1
102
RTVSPropertyOp8
 70
     1
102
RTVSPropertyOp9
 70
     1
102
RTVSPropertyOp10
 70
     1
102
RTVSPropertyOp11
 70
     1
102
RTVSPropertyOp12
 70
     1
102
RTVSPropertyOp13
 70
     1
102
RTVSPropertyOp14
 70
     1
102
RTVSPropertyOp15
 70
     1
102
RTVSPropertyOp16
 70
     1
102
RTVSPropertyOp17
 70
     1
102
RTVSPropertyOp18
 70
     1
102
RTVSPropertyOp19
 70
     1
102
RTVSPropertyOp20
 70
     1
102
RTVSPropertyOp21
 70
     1
102
RTVSPropertyOp22
 70
     1
102
RTVSPropertyOp23
 70
     1
102
RTVSPropertyOp24
 70
     1
102
RTVSPropertyOp25
 70
     1
102
RTVSPropertyOp26
 70
     1
102
RTVSPropertyOp27
 70
     1
102
RTVSPropertyOp28
 70
     1
102
RTVSPropertyOp29
 70
     1
102
RTVSPropertyOp30
 70
     1
102
RTVSPropertyOp31
 70
     1
102
RTVSPropertyOp32
 70
     1
102
RTVSPropertyOp33
 70
     1
102
RTVSPropertyOp34
 70
     1
102
RTVSPropertyOp35
 70
     1
102
RTVSPropertyOp36
 70
     1
102
RTVSPropertyOp37
 70
     1
102
RTVSPropertyOp38
 70
     1
102
RTVSPropertyOp39
 70
     1
102
RTVSPropertyOp40
 70
     1
102
RTVSPropertyOp41
 70
     1
102
RTVSPropertyOp42
 70
     1
102
RTVSPropertyOp43
 70
     1
102
RTVSPropertyOp44
 70
     1
102
RTVSPropertyOp45
 70
     1
102
RTVSPropertyOp46
 70
     1
102
RTVSPropertyOp47
 70
     1
102
RTVSPropertyOp48
 70
     1
102
RTVSPropertyOp49
 70
     1
102
RTVSPropertyOp50
 70
     1
102
RTVSPropertyOp51
 70
     0
102
RTVSPropertyOp52
 70
     0
102
RTVSPropertyOp53
 70
     1
102
RTVSPropertyOp54
 70
     1
102
RTVSPropertyOp55
 70
     1
102
RTVSPropertyOp56
 70
     1
102
RTVSPropertyOp57
 70
     1
102
RTVSPost2010Prop28
280
     0
102
RTVSPost2010PropOp28
 70
     1
102
RTVSPost2010Prop29
280
     1
102
RTVSPost2010PropOp29
 70
     1
102
RTVSPost2010Prop30
280
     1
102
RTVSPost2010PropOp30
 70
     1
102
RTVSPost2010Prop31
280
     0
102
RTVSPost2010PropOp31
 70
     1
102
RTVSPost2010Prop32
280
     0
102
RTVSPost2010PropOp32
 70
     1
102
RTVSPost2010Prop33
280
     0
102
RTVSPost2010PropOp33
 70
     1
102
RTVSPost2010Prop34
280
     0
102
RTVSPost2010PropOp34
 70
     1
102
RTVSPost2010Prop35
280
     0
102
RTVSPost2010PropOp35
 70
     1
102
RTVSPost2010Prop36
280
     0
102
RTVSPost2010PropOp36
 70
     1
102
RTVSPost2010Prop37
 90
       50
102
RTVSPost2010PropOp37
 70
     1
102
RTVSPost2010Prop38
140
0.0
102
RTVSPost2010PropOp38
 70
     1
102
RTVSPost2010Prop39
140
1.0
102
RTVSPost2010PropOp39
 70
     1
102
RTVSPost2010Prop40
 90
        0
102
RTVSPost2010PropOp40
 70
     1
102
RTVSPost2010Prop41ColorIndex
 90
       18
102
RTVSPost2010Prop41ColorRGB
 90
        0
102
RTVSPost2010PropOp41
 70
     1
102
RTVSPost2010Prop42
 90
       50
102
RTVSPost2010PropOp42
 70
     1
102
RTVSPost2010Prop43
 90
        3
102
RTVSPost2010PropOp43
 70
     1
102
RTVSPost2010Prop44ColorIndex
 90
        5
102
RTVSPost2010Prop44ColorRGB
 90
      255
102
RTVSPost2010PropOp44
 70
     1
102
RTVSPost2010Prop45
280
     0
102
RTVSPost2010PropOp45
 70
     1
102
RTVSPost2010Prop46
 90
       50
102
RTVSPost2010PropOp46
 70
     1
102
RTVSPost2010Prop47
 90
       50
102
RTVSPost2010PropOp47
 70
     1
102
RTVSPost2010Prop48
 90
       50
102
RTVSPost2010PropOp48
 70
     1
102
RTVSPost2010Prop49
280
     0
102
RTVSPost2010PropOp49
 70
     1
102
RTVSPost2010Prop50
 90
       50
102
RTVSPost2010PropOp50
 70
     1
102
RTVSPost2010Prop51ColorIndex
 90
      256
102
RTVSPost2010Prop51ColorRGB
 90
-16777216
102
RTVSPost2010PropOp51
 70
     0
102
RTVSPost2010Prop52
140
1.0
102
RTVSPost2010PropOp52
 70
     0
102
RTVSPost2010Prop53
 90
        2
102
RTVSPost2010PropOp53
 70
     1
102
RTVSPost2010Prop54
  1
strokes_ogs.tif
102
RTVSPost2010PropOp54
 70
     1
102
RTVSPost2010Prop55
280
     0
102
RTVSPost2010PropOp55
 70
     1
102
RTVSPost2010Prop56
140
1.0
102
RTVSPost2010PropOp56
 70
     1
102
RTVSPost2010Prop57
140
1.0
102
RTVSPost2010PropOp57
 70
     1
  0
XRECORD
  5
106AC50
102
{ACAD_REACTORS
330
106AC4F
102
}
330
106AC4F
100
AcDbXrecord
280
     1
102
RTVSPropertyOp0
 70
     1
102
RTVSPropertyOp1
 70
     1
102
RTVSPropertyOp2
 70
     1
102
RTVSPropertyOp3
 70
     1
102
RTVSPropertyOp4
 70
     1
102
RTVSPropertyOp5
 70
     1
102
RTVSPropertyOp6
 70
     1
102
RTVSPropertyOp7
 70
     1
102
RTVSPropertyOp8
 70
     1
102
RTVSPropertyOp9
 70
     1
102
RTVSPropertyOp10
 70
     1
102
RTVSPropertyOp11
 70
     1
102
RTVSPropertyOp12
 70
     1
102
RTVSPropertyOp13
 70
     1
102
RTVSPropertyOp14
 70
     1
102
RTVSPropertyOp15
 70
     1
102
RTVSPropertyOp16
 70
     1
102
RTVSPropertyOp17
 70
     1
102
RTVSPropertyOp18
 70
     1
102
RTVSPropertyOp19
 70
     1
102
RTVSPropertyOp20
 70
     1
102
RTVSPropertyOp21
 70
     1
102
RTVSPropertyOp22
 70
     1
102
RTVSPropertyOp23
 70
     1
102
RTVSPropertyOp24
 70
     1
102
RTVSPropertyOp25
 70
     1
102
RTVSPropertyOp26
 70
     1
102
RTVSPropertyOp27
 70
     1
102
RTVSPropertyOp28
 70
     1
102
RTVSPropertyOp29
 70
     1
102
RTVSPropertyOp30
 70
     1
102
RTVSPropertyOp31
 70
     1
102
RTVSPropertyOp32
 70
     1
102
RTVSPropertyOp33
 70
     1
102
RTVSPropertyOp34
 70
     1
102
RTVSPropertyOp35
 70
     1
102
RTVSPropertyOp36
 70
     1
102
RTVSPropertyOp37
 70
     1
102
RTVSPropertyOp38
 70
     1
102
RTVSPropertyOp39
 70
     1
102
RTVSPropertyOp40
 70
     1
102
RTVSPropertyOp41
 70
     1
102
RTVSPropertyOp42
 70
     1
102
RTVSPropertyOp43
 70
     1
102
RTVSPropertyOp44
 70
     1
102
RTVSPropertyOp45
 70
     1
102
RTVSPropertyOp46
 70
     1
102
RTVSPropertyOp47
 70
     1
102
RTVSPropertyOp48
 70
     1
102
RTVSPropertyOp49
 70
     1
102
RTVSPropertyOp50
 70
     1
102
RTVSPropertyOp51
 70
     0
102
RTVSPropertyOp52
 70
     0
102
RTVSPropertyOp53
 70
     1
102
RTVSPropertyOp54
 70
     1
102
RTVSPropertyOp55
 70
     1
102
RTVSPropertyOp56
 70
     1
102
RTVSPropertyOp57
 70
     1
102
RTVSPost2010Prop28
280
     0
102
RTVSPost2010PropOp28
 70
     1
102
RTVSPost2010Prop29
280
     1
102
RTVSPost2010PropOp29
 70
     1
102
RTVSPost2010Prop30
280
     1
102
RTVSPost2010PropOp30
 70
     1
102
RTVSPost2010Prop31
280
     0
102
RTVSPost2010PropOp31
 70
     1
102
RTVSPost2010Prop32
280
     0
102
RTVSPost2010PropOp32
 70
     1
102
RTVSPost2010Prop33
280
     0
102
RTVSPost2010PropOp33
 70
     1
102
RTVSPost2010Prop34
280
     0
102
RTVSPost2010PropOp34
 70
     1
102
RTVSPost2010Prop35
280
     0
102
RTVSPost2010PropOp35
 70
     1
102
RTVSPost2010Prop36
280
     0
102
RTVSPost2010PropOp36
 70
     1
102
RTVSPost2010Prop37
 90
       50
102
RTVSPost2010PropOp37
 70
     1
102
RTVSPost2010Prop38
140
0.0
102
RTVSPost2010PropOp38
 70
     1
102
RTVSPost2010Prop39
140
1.0
102
RTVSPost2010PropOp39
 70
     1
102
RTVSPost2010Prop40
 90
        0
102
RTVSPost2010PropOp40
 70
     1
102
RTVSPost2010Prop41ColorIndex
 90
       18
102
RTVSPost2010Prop41ColorRGB
 90
        0
102
RTVSPost2010PropOp41
 70
     1
102
RTVSPost2010Prop42
 90
       50
102
RTVSPost2010PropOp42
 70
     1
102
RTVSPost2010Prop43
 90
        3
102
RTVSPost2010PropOp43
 70
     1
102
RTVSPost2010Prop44ColorIndex
 90
        5
102
RTVSPost2010Prop44ColorRGB
 90
      255
102
RTVSPost2010PropOp44
 70
     1
102
RTVSPost2010Prop45
280
     0
102
RTVSPost2010PropOp45
 70
     1
102
RTVSPost2010Prop46
 90
       50
102
RTVSPost2010PropOp46
 70
     1
102
RTVSPost2010Prop47
 90
       50
102
RTVSPost2010PropOp47
 70
     1
102
RTVSPost2010Prop48
 90
       50
102
RTVSPost2010PropOp48
 70
     1
102
RTVSPost2010Prop49
280
     0
102
RTVSPost2010PropOp49
 70
     1
102
RTVSPost2010Prop50
 90
       50
102
RTVSPost2010PropOp50
 70
     1
102
RTVSPost2010Prop51ColorIndex
 90
      256
102
RTVSPost2010Prop51ColorRGB
 90
-16777216
102
RTVSPost2010PropOp51
 70
     0
102
RTVSPost2010Prop52
140
1.0
102
RTVSPost2010PropOp52
 70
     0
102
RTVSPost2010Prop53
 90
        2
102
RTVSPost2010PropOp53
 70
     1
102
RTVSPost2010Prop54
  1
strokes_ogs.tif
102
RTVSPost2010PropOp54
 70
     1
102
RTVSPost2010Prop55
280
     0
102
RTVSPost2010PropOp55
 70
     1
102
RTVSPost2010Prop56
140
1.0
102
RTVSPost2010PropOp56
 70
     1
102
RTVSPost2010Prop57
140
1.0
102
RTVSPost2010PropOp57
 70
     1
  0
XRECORD
  5
106AC42
102
{ACAD_REACTORS
330
106AC41
102
}
330
106AC41
100
AcDbXrecord
280
     1
102
RTVSPropertyOp0
 70
     1
102
RTVSPropertyOp1
 70
     1
102
RTVSPropertyOp2
 70
     1
102
RTVSPropertyOp3
 70
     1
102
RTVSPropertyOp4
 70
     1
102
RTVSPropertyOp5
 70
     1
102
RTVSPropertyOp6
 70
     1
102
RTVSPropertyOp7
 70
     1
102
RTVSPropertyOp8
 70
     1
102
RTVSPropertyOp9
 70
     1
102
RTVSPropertyOp10
 70
     1
102
RTVSPropertyOp11
 70
     1
102
RTVSPropertyOp12
 70
     1
102
RTVSPropertyOp13
 70
     1
102
RTVSPropertyOp14
 70
     1
102
RTVSPropertyOp15
 70
     1
102
RTVSPropertyOp16
 70
     1
102
RTVSPropertyOp17
 70
     1
102
RTVSPropertyOp18
 70
     1
102
RTVSPropertyOp19
 70
     1
102
RTVSPropertyOp20
 70
     1
102
RTVSPropertyOp21
 70
     1
102
RTVSPropertyOp22
 70
     1
102
RTVSPropertyOp23
 70
     1
102
RTVSPropertyOp24
 70
     1
102
RTVSPropertyOp25
 70
     1
102
RTVSPropertyOp26
 70
     1
102
RTVSPropertyOp27
 70
     1
102
RTVSPropertyOp28
 70
     1
102
RTVSPropertyOp29
 70
     1
102
RTVSPropertyOp30
 70
     1
102
RTVSPropertyOp31
 70
     1
102
RTVSPropertyOp32
 70
     1
102
RTVSPropertyOp33
 70
     1
102
RTVSPropertyOp34
 70
     1
102
RTVSPropertyOp35
 70
     1
102
RTVSPropertyOp36
 70
     1
102
RTVSPropertyOp37
 70
     1
102
RTVSPropertyOp38
 70
     1
102
RTVSPropertyOp39
 70
     1
102
RTVSPropertyOp40
 70
     1
102
RTVSPropertyOp41
 70
     1
102
RTVSPropertyOp42
 70
     1
102
RTVSPropertyOp43
 70
     1
102
RTVSPropertyOp44
 70
     1
102
RTVSPropertyOp45
 70
     1
102
RTVSPropertyOp46
 70
     1
102
RTVSPropertyOp47
 70
     1
102
RTVSPropertyOp48
 70
     1
102
RTVSPropertyOp49
 70
     1
102
RTVSPropertyOp50
 70
     1
102
RTVSPropertyOp51
 70
     0
102
RTVSPropertyOp52
 70
     0
102
RTVSPropertyOp53
 70
     1
102
RTVSPropertyOp54
 70
     1
102
RTVSPropertyOp55
 70
     1
102
RTVSPropertyOp56
 70
     1
102
RTVSPropertyOp57
 70
     1
102
RTVSPost2010Prop28
280
     0
102
RTVSPost2010PropOp28
 70
     1
102
RTVSPost2010Prop29
280
     1
102
RTVSPost2010PropOp29
 70
     1
102
RTVSPost2010Prop30
280
     1
102
RTVSPost2010PropOp30
 70
     1
102
RTVSPost2010Prop31
280
     0
102
RTVSPost2010PropOp31
 70
     1
102
RTVSPost2010Prop32
280
     0
102
RTVSPost2010PropOp32
 70
     1
102
RTVSPost2010Prop33
280
     0
102
RTVSPost2010PropOp33
 70
     1
102
RTVSPost2010Prop34
280
     0
102
RTVSPost2010PropOp34
 70
     1
102
RTVSPost2010Prop35
280
     0
102
RTVSPost2010PropOp35
 70
     1
102
RTVSPost2010Prop36
280
     0
102
RTVSPost2010PropOp36
 70
     1
102
RTVSPost2010Prop37
 90
       50
102
RTVSPost2010PropOp37
 70
     1
102
RTVSPost2010Prop38
140
0.0
102
RTVSPost2010PropOp38
 70
     1
102
RTVSPost2010Prop39
140
1.0
102
RTVSPost2010PropOp39
 70
     1
102
RTVSPost2010Prop40
 90
        0
102
RTVSPost2010PropOp40
 70
     1
102
RTVSPost2010Prop41ColorIndex
 90
       18
102
RTVSPost2010Prop41ColorRGB
 90
        0
102
RTVSPost2010PropOp41
 70
     1
102
RTVSPost2010Prop42
 90
       50
102
RTVSPost2010PropOp42
 70
     1
102
RTVSPost2010Prop43
 90
        3
102
RTVSPost2010PropOp43
 70
     1
102
RTVSPost2010Prop44ColorIndex
 90
        5
102
RTVSPost2010Prop44ColorRGB
 90
      255
102
RTVSPost2010PropOp44
 70
     1
102
RTVSPost2010Prop45
280
     0
102
RTVSPost2010PropOp45
 70
     1
102
RTVSPost2010Prop46
 90
       50
102
RTVSPost2010PropOp46
 70
     1
102
RTVSPost2010Prop47
 90
       50
102
RTVSPost2010PropOp47
 70
     1
102
RTVSPost2010Prop48
 90
       50
102
RTVSPost2010PropOp48
 70
     1
102
RTVSPost2010Prop49
280
     0
102
RTVSPost2010PropOp49
 70
     1
102
RTVSPost2010Prop50
 90
       50
102
RTVSPost2010PropOp50
 70
     1
102
RTVSPost2010Prop51ColorIndex
 90
      256
102
RTVSPost2010Prop51ColorRGB
 90
-16777216
102
RTVSPost2010PropOp51
 70
     0
102
RTVSPost2010Prop52
140
1.0
102
RTVSPost2010PropOp52
 70
     0
102
RTVSPost2010Prop53
 90
        2
102
RTVSPost2010PropOp53
 70
     1
102
RTVSPost2010Prop54
  1
strokes_ogs.tif
102
RTVSPost2010PropOp54
 70
     1
102
RTVSPost2010Prop55
280
     0
102
RTVSPost2010PropOp55
 70
     1
102
RTVSPost2010Prop56
140
1.0
102
RTVSPost2010PropOp56
 70
     1
102
RTVSPost2010Prop57
140
1.0
102
RTVSPost2010PropOp57
 70
     1
  0
XRECORD
  5
106AC62
102
{ACAD_REACTORS
330
106AC61
102
}
330
106AC61
100
AcDbXrecord
280
     1
102
RTVSPropertyOp0
 70
     1
102
RTVSPropertyOp1
 70
     1
102
RTVSPropertyOp2
 70
     1
102
RTVSPropertyOp3
 70
     1
102
RTVSPropertyOp4
 70
     1
102
RTVSPropertyOp5
 70
     1
102
RTVSPropertyOp6
 70
     1
102
RTVSPropertyOp7
 70
     1
102
RTVSPropertyOp8
 70
     1
102
RTVSPropertyOp9
 70
     1
102
RTVSPropertyOp10
 70
     1
102
RTVSPropertyOp11
 70
     1
102
RTVSPropertyOp12
 70
     1
102
RTVSPropertyOp13
 70
     1
102
RTVSPropertyOp14
 70
     1
102
RTVSPropertyOp15
 70
     1
102
RTVSPropertyOp16
 70
     1
102
RTVSPropertyOp17
 70
     1
102
RTVSPropertyOp18
 70
     1
102
RTVSPropertyOp19
 70
     1
102
RTVSPropertyOp20
 70
     1
102
RTVSPropertyOp21
 70
     1
102
RTVSPropertyOp22
 70
     1
102
RTVSPropertyOp23
 70
     1
102
RTVSPropertyOp24
 70
     1
102
RTVSPropertyOp25
 70
     1
102
RTVSPropertyOp26
 70
     1
102
RTVSPropertyOp27
 70
     1
102
RTVSPropertyOp28
 70
     1
102
RTVSPropertyOp29
 70
     1
102
RTVSPropertyOp30
 70
     1
102
RTVSPropertyOp31
 70
     1
102
RTVSPropertyOp32
 70
     1
102
RTVSPropertyOp33
 70
     1
102
RTVSPropertyOp34
 70
     1
102
RTVSPropertyOp35
 70
     1
102
RTVSPropertyOp36
 70
     1
102
RTVSPropertyOp37
 70
     1
102
RTVSPropertyOp38
 70
     1
102
RTVSPropertyOp39
 70
     1
102
RTVSPropertyOp40
 70
     1
102
RTVSPropertyOp41
 70
     1
102
RTVSPropertyOp42
 70
     1
102
RTVSPropertyOp43
 70
     1
102
RTVSPropertyOp44
 70
     1
102
RTVSPropertyOp45
 70
     1
102
RTVSPropertyOp46
 70
     1
102
RTVSPropertyOp47
 70
     1
102
RTVSPropertyOp48
 70
     1
102
RTVSPropertyOp49
 70
     1
102
RTVSPropertyOp50
 70
     1
102
RTVSPropertyOp51
 70
     0
102
RTVSPropertyOp52
 70
     0
102
RTVSPropertyOp53
 70
     1
102
RTVSPropertyOp54
 70
     1
102
RTVSPropertyOp55
 70
     1
102
RTVSPropertyOp56
 70
     1
102
RTVSPropertyOp57
 70
     1
102
RTVSPost2010Prop28
280
     0
102
RTVSPost2010PropOp28
 70
     1
102
RTVSPost2010Prop29
280
     1
102
RTVSPost2010PropOp29
 70
     1
102
RTVSPost2010Prop30
280
     1
102
RTVSPost2010PropOp30
 70
     1
102
RTVSPost2010Prop31
280
     0
102
RTVSPost2010PropOp31
 70
     1
102
RTVSPost2010Prop32
280
     0
102
RTVSPost2010PropOp32
 70
     1
102
RTVSPost2010Prop33
280
     0
102
RTVSPost2010PropOp33
 70
     1
102
RTVSPost2010Prop34
280
     0
102
RTVSPost2010PropOp34
 70
     1
102
RTVSPost2010Prop35
280
     0
102
RTVSPost2010PropOp35
 70
     1
102
RTVSPost2010Prop36
280
     0
102
RTVSPost2010PropOp36
 70
     1
102
RTVSPost2010Prop37
 90
       50
102
RTVSPost2010PropOp37
 70
     1
102
RTVSPost2010Prop38
140
0.0
102
RTVSPost2010PropOp38
 70
     1
102
RTVSPost2010Prop39
140
1.0
102
RTVSPost2010PropOp39
 70
     1
102
RTVSPost2010Prop40
 90
        0
102
RTVSPost2010PropOp40
 70
     1
102
RTVSPost2010Prop41ColorIndex
 90
       18
102
RTVSPost2010Prop41ColorRGB
 90
        0
102
RTVSPost2010PropOp41
 70
     1
102
RTVSPost2010Prop42
 90
       50
102
RTVSPost2010PropOp42
 70
     1
102
RTVSPost2010Prop43
 90
        3
102
RTVSPost2010PropOp43
 70
     1
102
RTVSPost2010Prop44ColorIndex
 90
        5
102
RTVSPost2010Prop44ColorRGB
 90
      255
102
RTVSPost2010PropOp44
 70
     1
102
RTVSPost2010Prop45
280
     0
102
RTVSPost2010PropOp45
 70
     1
102
RTVSPost2010Prop46
 90
       50
102
RTVSPost2010PropOp46
 70
     1
102
RTVSPost2010Prop47
 90
       50
102
RTVSPost2010PropOp47
 70
     1
102
RTVSPost2010Prop48
 90
       50
102
RTVSPost2010PropOp48
 70
     1
102
RTVSPost2010Prop49
280
     0
102
RTVSPost2010PropOp49
 70
     1
102
RTVSPost2010Prop50
 90
       50
102
RTVSPost2010PropOp50
 70
     1
102
RTVSPost2010Prop51ColorIndex
 90
      256
102
RTVSPost2010Prop51ColorRGB
 90
-16777216
102
RTVSPost2010PropOp51
 70
     0
102
RTVSPost2010Prop52
140
1.0
102
RTVSPost2010PropOp52
 70
     0
102
RTVSPost2010Prop53
 90
        2
102
RTVSPost2010PropOp53
 70
     1
102
RTVSPost2010Prop54
  1
strokes_ogs.tif
102
RTVSPost2010PropOp54
 70
     1
102
RTVSPost2010Prop55
280
     0
102
RTVSPost2010PropOp55
 70
     1
102
RTVSPost2010Prop56
140
1.0
102
RTVSPost2010PropOp56
 70
     1
102
RTVSPost2010Prop57
140
1.0
102
RTVSPost2010PropOp57
 70
     1
  0
ENDSEC
  0
EOF
