  0
SECTION
  2
HEADER
  9
$ACADVER
  1
AC1015
  9
$DWGCODEPAGE
  3
ANSI_932
  9
$HANDSEED
  5
106AB90
  0
ENDSEC
  0
SECTION
  2
CLASSES
  0
CLASS
  1
IMAGEDEF
  2
AcDbRasterImageDef
  3
ISM
  90
0
  91
4
  280
0
  281
0
  0
CLASS
  1
IMAGE
  2
AcDbRasterImage
  3
ISM
  90
127
  91
5
  280
0
  281
1
  0
CLASS
  1
IMAGEDEF_REACTOR
  2
AcDbRasterImageDefReactor
  3
ISM
  90
1
  91
4
  280
0
  281
0
  0
ENDSEC
  0
SECTION
  2
TABLES
  0
TABLE
  2
VPORT
  5
2
  330
0
  100
AcDbSymbolTable
  70
    0
  0
ENDTAB
  0
TABLE
  2
LTYPE
  5
3
  330
0
  100
AcDbSymbolTable
  70
    4
  0
LTYPE
  5
4
  330
3
  100
AcDbSymbolTableRecord
  100
AcDbLinetypeTableRecord
  2
ByBlock
  70
    0
  3

  72
65
  73
    0
  40
0
  0
LTYPE
  5
5
  330
3
  100
AcDbSymbolTableRecord
  100
AcDbLinetypeTableRecord
  2
ByLayer
  70
    0
  3

  72
65
  73
    0
  40
0
  0
LTYPE
  5
6
  330
3
  100
AcDbSymbolTableRecord
  100
AcDbLinetypeTableRecord
  2
CONTINUOUS
  70
    0
  3
Solid Line
  72
65
  73
    0
  40
0
  0
LTYPE
  5
7
  330
3
  100
AcDbSymbolTableRecord
  100
AcDbLinetypeTableRecord
  2
DASH
  70
    0
  3
Hidden
  72
65
  73
2
  40
2.5
  49
1.5
  74
0
  49
-1
  74
0
  0
LTYPE
  5
8
  330
3
  100
AcDbSymbolTableRecord
  100
AcDbLinetypeTableRecord
  2
LONGDASHDASH
  70
    0
  3
__ . __
  72
65
  73
    4
  40
7
  49
4
  74
    0
  49
-1
  74
    0
  49
1
  74
    0
  49
-1
  74
    0
  0
ENDTAB
  0
TABLE
  2
LAYER
  5
9
  330
0
  100
AcDbSymbolTable
  70
    40
  0
LAYER
  5
a
  330
9
  100
AcDbSymbolTableRecord
  100
AcDbLayerTableRecord
  2
0
  70
    0
  62
    0
  6
CONTINUOUS
  390
0
  0
LAYER
  5
c
  330
9
  100
AcDbSymbolTableRecord
  100
AcDbLayerTableRecord
  2
1
  70
    0
  62
    4
  6
CONTINUOUS
  370
50
  390
0
  0
LAYER
  5
d
  330
9
  100
AcDbSymbolTableRecord
  100
AcDbLayerTableRecord
  2
2
  70
    0
  62
    7
  6
CONTINUOUS
  370
25
  390
0
  0
LAYER
  5
13
  330
9
  100
AcDbSymbolTableRecord
  100
AcDbLayerTableRecord
  2
SK1
  70
    0
  62
    4
  6
CONTINUOUS
  370
50
  390
0
  0
LAYER
  5
14
  330
9
  100
AcDbSymbolTableRecord
  100
AcDbLayerTableRecord
  2
SK2
  70
    0
  62
    7
  6
CONTINUOUS
  370
25
  390
0
  0
LAYER
  5
26
  330
9
  100
AcDbSymbolTableRecord
  100
AcDbLayerTableRecord
  2
INFTOTAL
  70
    0
  62
    9
  6
CONTINUOUS
  370
18
  390
0
  0
ENDTAB
  0
TABLE
  2
STYLE
  5
27
  330
0
  100
AcDbSymbolTable
  70
    1
  0
STYLE
  5
28
  330
27
  100
AcDbSymbolTableRecord
  100
AcDbTextStyleTableRecord
  2
Monospac821 BT
  70
    0
  40
    3.5
  41
1
  50
0
  71
0
  42
3
  3

  4

  1001
ACAD
  1000
Monospac821 BT
  1071
256
  0
ENDTAB
  0
TABLE
  2
VIEW
  5
29
  330
0
  100
AcDbSymbolTable
  70
    0
  0
ENDTAB
  0
TABLE
  2
UCS
  5
2a
  330
0
  100
AcDbSymbolTable
  70
    0
  0
ENDTAB
  0
TABLE
  2
APPID
  5
2b
  330
0
  100
AcDbSymbolTable
  70
    1
  0
APPID
  5
2c
  330
2b
  100
AcDbSymbolTableRecord
  100
AcDbRegAppTableRecord
  2
ACAD
  70
    0
  0
ENDTAB
  0
TABLE
  2
DIMSTYLE
  5
2d
  330
0
  100
AcDbSymbolTable
  70
    1
  100
AcDbDimStyleTable
  0
DIMSTYLE
  105
2e
  330
2d
  100
AcDbSymbolTableRecord
  100
AcDbDimStyleTableRecord
  2
STANDARD
  70
    0
  41
    3
  42
0.5
  44
1
  73
0
  77
1
  78
1
  140
3.5
  141
2.5
  143
0.03937
  147
0.8
  172
1
  174
1
  178
0
  179
1
  271
2
  279
1
  284
1
  340
28
  0
ENDTAB
  0
TABLE
  2
BLOCK_RECORD
  5
2f
  330
0
  100
AcDbSymbolTable
  70
    2
  0
BLOCK_RECORD
  5
30
  330
2f
  100
AcDbSymbolTableRecord
  100
AcDbBlockTableRecord
  2
*Model_Space
  0
BLOCK_RECORD
  5
31
  330
2f
  100
AcDbSymbolTableRecord
  100
AcDbBlockTableRecord
  2
*Paper_Space
  0
BLOCK_RECORD
  5
90
  330
2f
  100
AcDbSymbolTableRecord
  100
AcDbBlockTableRecord
  2
*D8f
  340
0
  0
BLOCK_RECORD
  5
9e
  330
2f
  100
AcDbSymbolTableRecord
  100
AcDbBlockTableRecord
  2
*D9d
  340
0
  0
BLOCK_RECORD
  5
ac
  330
2f
  100
AcDbSymbolTableRecord
  100
AcDbBlockTableRecord
  2
*Dab
  340
0
  0
BLOCK_RECORD
  5
ba
  330
2f
  100
AcDbSymbolTableRecord
  100
AcDbBlockTableRecord
  2
*Db9
  340
0
  0
BLOCK_RECORD
  5
c8
  330
2f
  100
AcDbSymbolTableRecord
  100
AcDbBlockTableRecord
  2
*Dc7
  340
0
  0
BLOCK_RECORD
  5
d2
  330
2f
  100
AcDbSymbolTableRecord
  100
AcDbBlockTableRecord
  2
*Dd1
  340
0
  0
BLOCK_RECORD
  5
e0
  330
2f
  100
AcDbSymbolTableRecord
  100
AcDbBlockTableRecord
  2
*Ddf
  340
0
  0
BLOCK_RECORD
  5
ee
  330
2f
  100
AcDbSymbolTableRecord
  100
AcDbBlockTableRecord
  2
*Ded
  340
0
  0
BLOCK_RECORD
  5
fc
  330
2f
  100
AcDbSymbolTableRecord
  100
AcDbBlockTableRecord
  2
*Dfb
  340
0
  0
ENDTAB
  0
ENDSEC
  0
SECTION
  2
BLOCKS
  0
BLOCK
  5
32
  330
30
  100
AcDbEntity
  8
0
  100
AcDbBlockBegin
  2
*Model_Space
  70
    0
  10
0
  20
0
  30
0
  3
*Model_Space
  1

  0
ENDBLK
  5
33
  330
30
  100
AcDbEntity
  8
0
  100
AcDbBlockEnd
  0
BLOCK
  5
34
  330
31
  100
AcDbEntity
  8
0
  100
AcDbBlockBegin
  2
*Paper_Space
  70
    0
  10
0
  20
0
  30
0
  3
*Paper_Space
  1

  0
ENDBLK
  5
35
  330
31
  100
AcDbEntity
  8
0
  100
AcDbBlockEnd
  0
BLOCK
  5
8e
  330
90
  100
AcDbEntity
  8
SK2
  100
AcDbBlockBegin
  2
*D8f
  70
1
  10
0
  20
0
  30
0
  3
*D8f
  1

  0
LINE
  5
91
  330
90
  100
AcDbEntity
  8
SK2
  100
AcDbLine
  10
-0
  20
2.475
  30
0
  11
-0
  21
15.175
  31
0
  0
LINE
  5
92
  330
90
  100
AcDbEntity
  8
SK2
  100
AcDbLine
  10
57.2
  20
2.281
  30
0
  11
57.2
  21
15.175
  31
0
  0
LINE
  5
93
  330
90
  100
AcDbEntity
  8
SK2
  100
AcDbLine
  10
-0
  20
13.175
  30
0
  11
57.2
  21
13.175
  31
0
  0
SOLID
  5
94
  330
90
  100
AcDbEntity
  8
SK2
  100
AcDbTrace
  10
-0
  20
13.175
  30
0
  11
2.478612
  21
13.501315
  31
0
  12
2.478612
  22
12.848685
  32
0
  13
2.478612
  23
12.848685
  33
0
  0
SOLID
  5
95
  330
90
  100
AcDbEntity
  8
SK2
  100
AcDbTrace
  10
57.2
  20
13.175
  30
0
  11
54.721388
  21
12.848685
  31
0
  12
54.721388
  22
13.501315
  32
0
  13
54.721388
  23
13.501315
  33
0
  0
MTEXT
  5
96
  330
90
  100
AcDbEntity
  8
SK2
  100
AcDbMText
  10
28.6
  20
13.175
  30
0
  11
1
  21
0
  31
0
  40
2
  41
0
  71
8
  72
1
  1
57.2
  0
POINT
  5
97
  330
90
  100
AcDbEntity
  8
SK2
  62
0
  100
AcDbPoint
  10
-0
  20
2.475
  30
0
  0
POINT
  5
98
  330
90
  100
AcDbEntity
  8
SK2
  62
0
  100
AcDbPoint
  10
57.2
  20
2.281
  30
0
  0
POINT
  5
99
  330
90
  100
AcDbEntity
  8
SK2
  62
0
  100
AcDbPoint
  10
57.2
  20
13.175
  30
0
  0
ENDBLK
  5
9a
  330
90
  100
AcDbEntity
  8
SK2
  100
AcDbBlockEnd
  0
BLOCK
  5
9c
  330
9e
  100
AcDbEntity
  8
SK2
  100
AcDbBlockBegin
  2
*D9d
  70
1
  10
0
  20
0
  30
0
  3
*D9d
  1

  0
LINE
  5
9f
  330
9e
  100
AcDbEntity
  8
SK2
  100
AcDbLine
  10
-0
  20
2.475
  30
0
  11
-0
  21
9.094716
  31
0
  0
LINE
  5
a0
  330
9e
  100
AcDbEntity
  8
SK2
  100
AcDbLine
  10
39.6
  20
3.175
  30
0
  11
39.6
  21
9.094716
  31
0
  0
LINE
  5
a1
  330
9e
  100
AcDbEntity
  8
SK2
  100
AcDbLine
  10
-0
  20
7.094716
  30
0
  11
39.6
  21
7.094716
  31
0
  0
SOLID
  5
a2
  330
9e
  100
AcDbEntity
  8
SK2
  100
AcDbTrace
  10
-0
  20
7.094716
  30
0
  11
2.478612
  21
7.421031
  31
0
  12
2.478612
  22
6.7684
  32
0
  13
2.478612
  23
6.7684
  33
0
  0
SOLID
  5
a3
  330
9e
  100
AcDbEntity
  8
SK2
  100
AcDbTrace
  10
39.6
  20
7.094716
  30
0
  11
37.121388
  21
6.7684
  31
0
  12
37.121388
  22
7.421031
  32
0
  13
37.121388
  23
7.421031
  33
0
  0
MTEXT
  5
a4
  330
9e
  100
AcDbEntity
  8
SK2
  100
AcDbMText
  10
19.8
  20
7.094716
  30
0
  11
1
  21
-0
  31
0
  40
2
  41
0
  71
8
  72
1
  1
39.6
  0
POINT
  5
a5
  330
9e
  100
AcDbEntity
  8
SK2
  62
0
  100
AcDbPoint
  10
-0
  20
2.475
  30
0
  0
POINT
  5
a6
  330
9e
  100
AcDbEntity
  8
SK2
  62
0
  100
AcDbPoint
  10
39.6
  20
3.175
  30
0
  0
POINT
  5
a7
  330
9e
  100
AcDbEntity
  8
SK2
  62
0
  100
AcDbPoint
  10
39.6
  20
7.094716
  30
0
  0
ENDBLK
  5
a8
  330
9e
  100
AcDbEntity
  8
SK2
  100
AcDbBlockEnd
  0
BLOCK
  5
aa
  330
ac
  100
AcDbEntity
  8
SK2
  100
AcDbBlockBegin
  2
*Dab
  70
1
  10
0
  20
0
  30
0
  3
*Dab
  1

  0
LINE
  5
ad
  330
ac
  100
AcDbEntity
  8
SK2
  100
AcDbLine
  10
0.7
  20
-3.175
  30
0
  11
-12
  21
-3.175
  31
0
  0
LINE
  5
ae
  330
ac
  100
AcDbEntity
  8
SK2
  100
AcDbLine
  10
0.7
  20
3.175
  30
0
  11
-12
  21
3.175
  31
0
  0
LINE
  5
af
  330
ac
  100
AcDbEntity
  8
SK2
  100
AcDbLine
  10
-10
  20
-8.576733
  30
0
  11
-10
  21
3.175
  31
0
  0
SOLID
  5
b0
  330
ac
  100
AcDbEntity
  8
SK2
  100
AcDbTrace
  10
-10
  20
-3.175
  30
0
  11
-10.326315
  21
-0.696388
  31
0
  12
-9.673685
  22
-0.696388
  32
0
  13
-9.673685
  23
-0.696388
  33
0
  0
SOLID
  5
b1
  330
ac
  100
AcDbEntity
  8
SK2
  100
AcDbTrace
  10
-10
  20
3.175
  30
0
  11
-9.673685
  21
0.696388
  31
0
  12
-10.326315
  22
0.696388
  32
0
  13
-10.326315
  23
0.696388
  33
0
  0
MTEXT
  5
b2
  330
ac
  100
AcDbEntity
  8
SK2
  100
AcDbMText
  10
-10
  20
0
  30
0
  11
0
  21
1
  31
0
  40
2
  41
0
  71
8
  72
1
  1
ﾘ6.35
  0
POINT
  5
b3
  330
ac
  100
AcDbEntity
  8
SK2
  62
0
  100
AcDbPoint
  10
0.7
  20
-3.175
  30
0
  0
POINT
  5
b4
  330
ac
  100
AcDbEntity
  8
SK2
  62
0
  100
AcDbPoint
  10
0.7
  20
3.175
  30
0
  0
POINT
  5
b5
  330
ac
  100
AcDbEntity
  8
SK2
  62
0
  100
AcDbPoint
  10
-10
  20
3.175
  30
0
  0
ENDBLK
  5
b6
  330
ac
  100
AcDbEntity
  8
SK2
  100
AcDbBlockEnd
  0
BLOCK
  5
b8
  330
ba
  100
AcDbEntity
  8
2
  100
AcDbBlockBegin
  2
*Db9
  70
1
  10
0
  20
0
  30
0
  3
*Db9
  1

  0
LINE
  5
bb
  330
ba
  100
AcDbEntity
  8
2
  100
AcDbLine
  10
57.1
  20
-2.381
  30
0
  11
69.2
  21
-2.381
  31
0
  0
LINE
  5
bc
  330
ba
  100
AcDbEntity
  8
2
  100
AcDbLine
  10
57.1
  20
2.381
  30
0
  11
69.2
  21
2.381
  31
0
  0
LINE
  5
bd
  330
ba
  100
AcDbEntity
  8
2
  100
AcDbLine
  10
67.2
  20
-10.39604
  30
0
  11
67.2
  21
2.381
  31
0
  0
SOLID
  5
be
  330
ba
  100
AcDbEntity
  8
2
  100
AcDbTrace
  10
67.2
  20
-2.381
  30
0
  11
66.873685
  21
0.097612
  31
0
  12
67.526315
  22
0.097612
  32
0
  13
67.526315
  23
0.097612
  33
0
  0
SOLID
  5
bf
  330
ba
  100
AcDbEntity
  8
2
  100
AcDbTrace
  10
67.2
  20
2.381
  30
0
  11
67.526315
  21
-0.097612
  31
0
  12
66.873685
  22
-0.097612
  32
0
  13
66.873685
  23
-0.097612
  33
0
  0
MTEXT
  5
c0
  330
ba
  100
AcDbEntity
  8
2
  100
AcDbMText
  10
67.2
  20
0
  30
0
  11
0
  21
1
  31
0
  40
2
  41
0
  71
8
  72
1
  1
ﾘ4.762
  0
POINT
  5
c1
  330
ba
  100
AcDbEntity
  8
2
  62
0
  100
AcDbPoint
  10
57.1
  20
-2.381
  30
0
  0
POINT
  5
c2
  330
ba
  100
AcDbEntity
  8
2
  62
0
  100
AcDbPoint
  10
57.1
  20
2.381
  30
0
  0
POINT
  5
c3
  330
ba
  100
AcDbEntity
  8
2
  62
0
  100
AcDbPoint
  10
67.2
  20
2.381
  30
0
  0
ENDBLK
  5
c4
  330
ba
  100
AcDbEntity
  8
2
  100
AcDbBlockEnd
  0
BLOCK
  5
c6
  330
c8
  100
AcDbEntity
  8
2
  100
AcDbBlockBegin
  2
*Dc7
  70
1
  10
0
  20
0
  30
0
  3
*Dc7
  1

  0
LINE
  5
c9
  330
c8
  100
AcDbEntity
  8
2
  100
AcDbLine
  10
57.177702
  20
2.343948
  30
0
  11
64.947894
  21
8.638716
  31
0
  0
MTEXT
  5
ca
  330
c8
  100
AcDbEntity
  8
2
  100
AcDbMText
  10
61.062798
  20
5.491332
  30
0
  11
0.777019
  21
0.629477
  31
0
  40
2
  41
0
  71
8
  72
1
  1
R0.1
  0
SOLID
  5
cb
  330
c8
  100
AcDbEntity
  8
2
  100
AcDbTrace
  10
57.177702
  20
2.343948
  30
0
  11
58.898223
  21
4.15773
  31
0
  12
59.309039
  22
3.650623
  32
0
  13
59.309039
  23
3.650623
  33
0
  0
POINT
  5
cc
  330
c8
  100
AcDbEntity
  8
2
  62
0
  100
AcDbPoint
  10
57.177702
  20
2.343948
  30
0
  0
POINT
  5
cd
  330
c8
  100
AcDbEntity
  8
2
  62
0
  100
AcDbPoint
  10
57.1
  20
2.281
  30
0
  0
ENDBLK
  5
ce
  330
c8
  100
AcDbEntity
  8
2
  100
AcDbBlockEnd
  0
BLOCK
  5
d0
  330
d2
  100
AcDbEntity
  8
2
  100
AcDbBlockBegin
  2
*Dd1
  70
1
  10
0
  20
0
  30
0
  3
*Dd1
  1

  0
LINE
  5
d3
  330
d2
  100
AcDbEntity
  8
2
  100
AcDbLine
  10
54.8
  20
-2.23
  30
0
  11
52.8
  21
-2.23
  31
0
  0
LINE
  5
d4
  330
d2
  100
AcDbEntity
  8
2
  100
AcDbLine
  10
54.8
  20
2.23
  30
0
  11
52.8
  21
2.23
  31
0
  0
LINE
  5
d5
  330
d2
  100
AcDbEntity
  8
2
  100
AcDbLine
  10
54.8
  20
-2.23
  30
0
  11
54.8
  21
10.655941
  31
0
  0
SOLID
  5
d6
  330
d2
  100
AcDbEntity
  8
2
  100
AcDbTrace
  10
54.8
  20
-2.23
  30
0
  11
54.473685
  21
0.248612
  31
0
  12
55.126315
  22
0.248612
  32
0
  13
55.126315
  23
0.248612
  33
0
  0
SOLID
  5
d7
  330
d2
  100
AcDbEntity
  8
2
  100
AcDbTrace
  10
54.8
  20
2.23
  30
0
  11
55.126315
  21
-0.248612
  31
0
  12
54.473685
  22
-0.248612
  32
0
  13
54.473685
  23
-0.248612
  33
0
  0
MTEXT
  5
d8
  330
d2
  100
AcDbEntity
  8
2
  100
AcDbMText
  10
54.8
  20
2.23
  30
0
  11
0
  21
1
  31
0
  40
2
  41
0
  71
8
  72
1
  1
ﾘ4.46
  0
POINT
  5
d9
  330
d2
  100
AcDbEntity
  8
2
  62
0
  100
AcDbPoint
  10
52.8
  20
-2.23
  30
0
  0
POINT
  5
da
  330
d2
  100
AcDbEntity
  8
2
  62
0
  100
AcDbPoint
  10
52.8
  20
2.23
  30
0
  0
POINT
  5
db
  330
d2
  100
AcDbEntity
  8
2
  62
0
  100
AcDbPoint
  10
54.8
  20
10.655941
  30
0
  0
ENDBLK
  5
dc
  330
d2
  100
AcDbEntity
  8
2
  100
AcDbBlockEnd
  0
BLOCK
  5
de
  330
e0
  100
AcDbEntity
  8
2
  100
AcDbBlockBegin
  2
*Ddf
  70
1
  10
0
  20
0
  30
0
  3
*Ddf
  1

  0
LINE
  5
e1
  330
e0
  100
AcDbEntity
  8
2
  100
AcDbLine
  10
54.8
  20
2.23
  30
0
  11
54.8
  21
10.175
  31
0
  0
LINE
  5
e2
  330
e0
  100
AcDbEntity
  8
2
  100
AcDbLine
  10
43.77
  20
2.23
  30
0
  11
43.77
  21
10.175
  31
0
  0
LINE
  5
e3
  330
e0
  100
AcDbEntity
  8
2
  100
AcDbLine
  10
54.8
  20
8.175
  30
0
  11
43.77
  21
8.175
  31
0
  0
SOLID
  5
e4
  330
e0
  100
AcDbEntity
  8
2
  100
AcDbTrace
  10
54.8
  20
8.175
  30
0
  11
57.278612
  21
8.501315
  31
0
  12
57.278612
  22
7.848685
  32
0
  13
57.278612
  23
7.848685
  33
0
  0
SOLID
  5
e5
  330
e0
  100
AcDbEntity
  8
2
  100
AcDbTrace
  10
43.77
  20
8.175
  30
0
  11
41.291388
  21
7.848685
  31
0
  12
41.291388
  22
8.501315
  32
0
  13
41.291388
  23
8.501315
  33
0
  0
MTEXT
  5
e6
  330
e0
  100
AcDbEntity
  8
2
  100
AcDbMText
  10
48.05507
  20
8.175
  30
0
  11
1
  21
-0
  31
0
  40
2
  41
0
  71
8
  72
1
  1
11.03
  0
POINT
  5
e7
  330
e0
  100
AcDbEntity
  8
2
  62
0
  100
AcDbPoint
  10
54.8
  20
2.23
  30
0
  0
POINT
  5
e8
  330
e0
  100
AcDbEntity
  8
2
  62
0
  100
AcDbPoint
  10
43.77
  20
2.23
  30
0
  0
POINT
  5
e9
  330
e0
  100
AcDbEntity
  8
2
  62
0
  100
AcDbPoint
  10
43.77
  20
8.175
  30
0
  0
ENDBLK
  5
ea
  330
e0
  100
AcDbEntity
  8
2
  100
AcDbBlockEnd
  0
BLOCK
  5
ec
  330
ee
  100
AcDbEntity
  8
2
  100
AcDbBlockBegin
  2
*Ded
  70
1
  10
0
  20
0
  30
0
  3
*Ded
  1

  0
LINE
  5
ef
  330
ee
  100
AcDbEntity
  8
2
  100
AcDbLine
  10
57.2
  20
2.281
  30
0
  11
57.2
  21
15.175
  31
0
  0
LINE
  5
f0
  330
ee
  100
AcDbEntity
  8
2
  100
AcDbLine
  10
39.6
  20
3.175
  30
0
  11
39.6
  21
10.175
  31
0
  0
LINE
  5
f1
  330
ee
  100
AcDbEntity
  8
2
  100
AcDbLine
  10
57.2
  20
8.175
  30
0
  11
39.6
  21
8.175
  31
0
  0
SOLID
  5
f2
  330
ee
  100
AcDbEntity
  8
2
  100
AcDbTrace
  10
57.2
  20
8.175
  30
0
  11
59.678612
  21
8.501315
  31
0
  12
59.678612
  22
7.848685
  32
0
  13
59.678612
  23
7.848685
  33
0
  0
SOLID
  5
f3
  330
ee
  100
AcDbEntity
  8
2
  100
AcDbTrace
  10
39.6
  20
8.175
  30
0
  11
37.121388
  21
7.848685
  31
0
  12
37.121388
  22
8.501315
  32
0
  13
37.121388
  23
8.501315
  33
0
  0
MTEXT
  5
f4
  330
ee
  100
AcDbEntity
  8
2
  100
AcDbMText
  10
48.4
  20
8.175
  30
0
  11
1
  21
-0
  31
0
  40
2
  41
0
  71
8
  72
1
  1
17.6
  0
POINT
  5
f5
  330
ee
  100
AcDbEntity
  8
2
  62
0
  100
AcDbPoint
  10
57.2
  20
15.175
  30
0
  0
POINT
  5
f6
  330
ee
  100
AcDbEntity
  8
2
  62
0
  100
AcDbPoint
  10
39.6
  20
3.175
  30
0
  0
POINT
  5
f7
  330
ee
  100
AcDbEntity
  8
2
  62
0
  100
AcDbPoint
  10
39.6
  20
8.175
  30
0
  0
ENDBLK
  5
f8
  330
ee
  100
AcDbEntity
  8
2
  100
AcDbBlockEnd
  0
BLOCK
  5
fa
  330
fc
  100
AcDbEntity
  8
2
  100
AcDbBlockBegin
  2
*Dfb
  70
1
  10
0
  20
0
  30
0
  3
*Dfb
  1

  0
LINE
  5
fd
  330
fc
  100
AcDbEntity
  8
2
  100
AcDbLine
  10
57.2
  20
-7.848884
  30
0
  11
57.2
  21
0
  31
0
  0
LINE
  5
fe
  330
fc
  100
AcDbEntity
  8
2
  100
AcDbLine
  10
57.2
  20
-7.848884
  30
0
  11
57.2
  21
0
  31
0
  0
SOLID
  5
ff
  330
fc
  100
AcDbEntity
  8
2
  100
AcDbTrace
  10
57.2
  20
-5.848884
  30
0
  11
57.2
  21
-5.848884
  31
0
  12
57.2
  22
-5.848884
  32
0
  13
57.2
  23
-5.848884
  33
0
  0
SOLID
  5
100
  330
fc
  100
AcDbEntity
  8
2
  100
AcDbTrace
  10
57.2
  20
-5.848884
  30
0
  11
57.2
  21
-5.848884
  31
0
  12
57.2
  22
-5.848884
  32
0
  13
57.2
  23
-5.848884
  33
0
  0
MTEXT
  5
101
  330
fc
  100
AcDbEntity
  8
2
  100
AcDbMText
  10
57.2
  20
-5.848884
  30
0
  11
0
  21
0
  31
0
  40
2
  41
0
  71
8
  72
1
  1
0
  0
POINT
  5
102
  330
fc
  100
AcDbEntity
  8
2
  62
0
  100
AcDbPoint
  10
57.2
  20
0
  30
0
  0
POINT
  5
103
  330
fc
  100
AcDbEntity
  8
2
  62
0
  100
AcDbPoint
  10
57.2
  20
0
  30
0
  0
POINT
  5
104
  330
fc
  100
AcDbEntity
  8
2
  62
0
  100
AcDbPoint
  10
57.2
  20
-5.848884
  30
0
  0
ENDBLK
  5
105
  330
fc
  100
AcDbEntity
  8
2
  100
AcDbBlockEnd
  0
ENDSEC
  0
SECTION
  2
ENTITIES
  0
DIMENSION
  5
9b
  100
AcDbEntity
  8
SK2
  100
AcDbDimension
  2
*D8f
  10
57.2
  20
13.175
  30
0
  11
28.6
  21
13.175
  31
0
  70
160
  1
<>
  71
5
  3
STANDARD
  42
57.2
  100
AcDbAlignedDimension
  13
-0
  23
2.475
  33
0
  14
57.2
  24
2.281
  34
0
  50
0
  100
AcDbRotatedDimension
  0
DIMENSION
  5
a9
  100
AcDbEntity
  8
SK2
  100
AcDbDimension
  2
*D9d
  10
39.6
  20
7.094716
  30
0
  11
19.8
  21
7.094716
  31
0
  70
160
  1
<>
  71
5
  3
STANDARD
  42
39.6
  100
AcDbAlignedDimension
  13
-0
  23
2.475
  33
0
  14
39.6
  24
3.175
  34
0
  50
0
  100
AcDbRotatedDimension
  0
DIMENSION
  5
b7
  100
AcDbEntity
  8
SK2
  100
AcDbDimension
  2
*Dab
  10
-10
  20
3.175
  30
0
  11
-10
  21
0
  31
0
  70
160
  1
%%c<>
  71
5
  3
STANDARD
  42
6.35
  100
AcDbAlignedDimension
  13
0.7
  23
-3.175
  33
0
  14
0.7
  24
3.175
  34
0
  50
-90
  100
AcDbRotatedDimension
  0
DIMENSION
  5
c5
  100
AcDbEntity
  8
2
  100
AcDbDimension
  2
*Db9
  10
67.2
  20
2.381
  30
0
  11
67.2
  21
0
  31
0
  70
160
  1
%%c<>
  71
5
  3
STANDARD
  42
4.762
  100
AcDbAlignedDimension
  13
57.1
  23
-2.381
  33
0
  14
57.1
  24
2.381
  34
0
  50
-90
  100
AcDbRotatedDimension
  0
DIMENSION
  5
cf
  100
AcDbEntity
  8
2
  100
AcDbDimension
  2
*Dc7
  10
57.1
  20
2.281
  30
0
  11
61.062798
  21
5.491332
  31
0
  70
164
  1
R0.1
  71
5
  3
STANDARD
  100
AcDbRadialDimension
  15
57.177702
  25
2.343948
  35
0
  50
39.011537
  0
DIMENSION
  5
dd
  100
AcDbEntity
  8
2
  100
AcDbDimension
  2
*Dd1
  10
54.8
  20
10.655941
  30
0
  11
54.8
  21
2.23
  31
0
  70
160
  1
%%c<>
  71
5
  3
STANDARD
  42
4.46
  100
AcDbAlignedDimension
  13
52.8
  23
-2.23
  33
0
  14
52.8
  24
2.23
  34
0
  50
-90
  100
AcDbRotatedDimension
  0
DIMENSION
  5
eb
  100
AcDbEntity
  8
2
  100
AcDbDimension
  2
*Ddf
  10
43.77
  20
8.175
  30
0
  11
48.05507
  21
8.175
  31
0
  70
160
  1
<>
  71
5
  3
STANDARD
  42
11.03
  100
AcDbAlignedDimension
  13
54.8
  23
2.23
  33
0
  14
43.77
  24
2.23
  34
0
  50
0
  100
AcDbRotatedDimension
  0
DIMENSION
  5
f9
  100
AcDbEntity
  8
2
  100
AcDbDimension
  2
*Ded
  10
39.6
  20
8.175
  30
0
  11
48.4
  21
8.175
  31
0
  70
160
  1
<>
  71
5
  3
STANDARD
  42
17.6
  100
AcDbAlignedDimension
  13
57.2
  23
15.175
  33
0
  14
39.6
  24
3.175
  34
0
  50
0
  100
AcDbRotatedDimension
  0
DIMENSION
  5
106
  100
AcDbEntity
  8
2
  100
AcDbDimension
  2
*Dfb
  10
57.2
  20
-5.848884
  30
0
  11
57.2
  21
-5.848884
  31
0
  70
160
  1
<>
  71
5
  3
STANDARD
  42
0
  100
AcDbAlignedDimension
  13
57.2
  23
0
  33
0
  14
57.2
  24
0
  34
0
  50
0
  100
AcDbRotatedDimension
  0
ARC
  5
36
  100
AcDbEntity
  8
1
  100
AcDbCircle
  10
44.641557
  20
-12.191947
  30
0
  40
10
  100
AcDbArc
  50
95
  51
105
  0
LINE
  5
37
  100
AcDbEntity
  8
1
  100
AcDbLine
  10
43.77
  20
-2.23
  30
0
  11
54.8
  21
-2.23
  31
0
  0
LINE
  5
38
  100
AcDbEntity
  8
1
  100
AcDbLine
  10
54.8
  20
-2.23
  30
0
  11
54.8
  21
-2.381
  31
0
  0
LINE
  5
39
  100
AcDbEntity
  8
1
  100
AcDbLine
  10
54.8
  20
-2.381
  30
0
  11
57.1
  21
-2.381
  31
0
  0
ARC
  5
3a
  100
AcDbEntity
  8
1
  100
AcDbCircle
  10
57.1
  20
-2.281
  30
0
  40
0.1
  100
AcDbArc
  50
270
  51
0
  0
LINE
  5
3b
  100
AcDbEntity
  8
1
  100
AcDbLine
  10
57.2
  20
-2.281
  30
0
  11
57.2
  21
0
  31
0
  0
LINE
  5
3c
  100
AcDbEntity
  8
1
  100
AcDbLine
  10
57.2
  20
0
  30
0
  11
57.2
  21
2.281
  31
0
  0
ARC
  5
3d
  100
AcDbEntity
  8
1
  100
AcDbCircle
  10
57.1
  20
2.281
  30
0
  40
0.1
  100
AcDbArc
  50
0
  51
90
  0
LINE
  5
3e
  100
AcDbEntity
  8
1
  100
AcDbLine
  10
57.1
  20
2.381
  30
0
  11
54.8
  21
2.381
  31
0
  0
LINE
  5
3f
  100
AcDbEntity
  8
1
  100
AcDbLine
  10
54.8
  20
2.381
  30
0
  11
54.8
  21
2.23
  31
0
  0
LINE
  5
40
  100
AcDbEntity
  8
1
  100
AcDbLine
  10
54.8
  20
2.23
  30
0
  11
43.77
  21
2.23
  31
0
  0
ARC
  5
41
  100
AcDbEntity
  8
1
  100
AcDbCircle
  10
44.641557
  20
12.191947
  30
0
  40
10
  100
AcDbArc
  50
255
  51
265
  0
LINE
  5
42
  100
AcDbEntity
  8
1
  100
AcDbLine
  10
42.053367
  20
2.532689
  30
0
  11
39.656229
  21
3.175
  31
0
  0
LINE
  5
43
  100
AcDbEntity
  8
1
  100
AcDbLine
  10
39.656229
  20
3.175
  30
0
  11
39.6
  21
3.175
  31
0
  0
LINE
  5
44
  100
AcDbEntity
  8
1
  100
AcDbLine
  10
39.6
  20
3.175
  30
0
  11
39.6
  21
-3.175
  31
0
  0
LINE
  5
45
  100
AcDbEntity
  8
1
  100
AcDbLine
  10
39.6
  20
-3.175
  30
0
  11
39.656229
  21
-3.175
  31
0
  0
LINE
  5
46
  100
AcDbEntity
  8
1
  100
AcDbLine
  10
39.656229
  20
-3.175
  30
0
  11
42.053367
  21
-2.532689
  31
0
  0
LINE
  5
47
  100
AcDbEntity
  8
1
  100
AcDbLine
  10
57.1
  20
2.381
  30
0
  11
57.1
  21
-2.381
  31
0
  0
LINE
  5
48
  100
AcDbEntity
  8
1
  100
AcDbLine
  10
57.1
  20
-2.381
  30
0
  11
57.1
  21
2.381
  31
0
  0
LINE
  5
49
  100
AcDbEntity
  8
1
  100
AcDbLine
  10
54.8
  20
2.381
  30
0
  11
54.8
  21
-2.381
  31
0
  0
LINE
  5
4a
  100
AcDbEntity
  8
1
  100
AcDbLine
  10
54.8
  20
-2.23
  30
0
  11
54.8
  21
2.23
  31
0
  0
LINE
  5
4b
  100
AcDbEntity
  8
1
  100
AcDbLine
  10
43.77
  20
-2.23
  30
0
  11
43.77
  21
2.23
  31
0
  0
LINE
  5
4c
  100
AcDbEntity
  8
1
  100
AcDbLine
  10
42.053367
  20
-2.532689
  30
0
  11
42.053367
  21
2.532689
  31
0
  0
LINE
  5
4d
  100
AcDbEntity
  8
1
  100
AcDbLine
  10
39.656229
  20
-3.175
  30
0
  11
39.656229
  21
3.175
  31
0
  0
LINE
  5
4e
  100
AcDbEntity
  8
1
  100
AcDbLine
  10
39.6
  20
-3.175
  30
0
  11
39.6
  21
3.175
  31
0
  0
LINE
  5
4f
  100
AcDbEntity
  8
1
  100
AcDbLine
  10
39.6
  20
3.175
  30
0
  11
39.6
  21
-3.175
  31
0
  0
LINE
  5
50
  100
AcDbEntity
  8
SK1
  100
AcDbLine
  10
39.6
  20
3.175
  30
0
  11
0.7
  21
3.175
  31
0
  0
LINE
  5
51
  100
AcDbEntity
  8
SK1
  100
AcDbLine
  10
0.7
  20
3.175
  30
0
  11
-0
  21
2.475
  31
0
  0
LINE
  5
52
  100
AcDbEntity
  8
SK1
  100
AcDbLine
  10
39.6
  20
-3.175
  30
0
  11
0.7
  21
-3.175
  31
0
  0
LINE
  5
53
  100
AcDbEntity
  8
SK1
  100
AcDbLine
  10
0.7
  20
-3.175
  30
0
  11
-0
  21
-2.475
  31
0
  0
LINE
  5
54
  100
AcDbEntity
  8
SK1
  100
AcDbLine
  10
0.7
  20
3.175
  30
0
  11
0.7
  21
-3.175
  31
0
  0
LINE
  5
55
  100
AcDbEntity
  8
SK1
  100
AcDbLine
  10
-0
  20
2.475
  30
0
  11
-0
  21
-2.475
  31
0
  0
LINE
  5
56
  100
AcDbEntity
  8
SK1
  100
AcDbLine
  10
40.6401
  20
1.40688
  30
0
  11
41.0069
  21
1.0401
  31
0
  0
LINE
  5
57
  100
AcDbEntity
  8
SK1
  100
AcDbLine
  10
40.1328
  20
1.66666
  30
0
  11
41.2667
  21
0.532833
  31
0
  0
LINE
  5
58
  100
AcDbEntity
  8
SK1
  100
AcDbLine
  10
39.8154
  20
1.73657
  30
0
  11
41.3366
  21
0.215434
  31
0
  0
LINE
  5
59
  100
AcDbEntity
  8
SK1
  100
AcDbLine
  10
39.6
  20
1.70452
  30
0
  11
41.3045
  21
0
  31
0
  0
LINE
  5
5a
  100
AcDbEntity
  8
SK1
  100
AcDbLine
  10
39.6
  20
1.45703
  30
0
  11
41.057
  21
0
  31
0
  0
LINE
  5
5b
  100
AcDbEntity
  8
SK1
  100
AcDbLine
  10
39.6
  20
1.20954
  30
0
  11
40.8095
  21
0
  31
0
  0
LINE
  5
5c
  100
AcDbEntity
  8
SK1
  100
AcDbLine
  10
39.6
  20
0.962054
  30
0
  11
40.5621
  21
0
  31
0
  0
LINE
  5
5d
  100
AcDbEntity
  8
SK1
  100
AcDbLine
  10
39.6
  20
0.714566
  30
0
  11
40.3146
  21
0
  31
0
  0
LINE
  5
5e
  100
AcDbEntity
  8
SK1
  100
AcDbLine
  10
39.6
  20
0.467079
  30
0
  11
40.0671
  21
0
  31
0
  0
LINE
  5
5f
  100
AcDbEntity
  8
SK1
  100
AcDbLine
  10
39.6
  20
0.219592
  30
0
  11
39.8196
  21
0
  31
0
  0
LINE
  5
60
  100
AcDbEntity
  8
SK1
  100
AcDbLine
  10
39.6
  20
1.70452
  30
0
  11
39.6441
  21
1.74861
  31
0
  0
LINE
  5
61
  100
AcDbEntity
  8
SK1
  100
AcDbLine
  10
39.6
  20
1.45703
  30
0
  11
39.871
  21
1.72802
  31
0
  0
LINE
  5
62
  100
AcDbEntity
  8
SK1
  100
AcDbLine
  10
39.6
  20
1.20954
  30
0
  11
40.0742
  21
1.6837
  31
0
  0
LINE
  5
63
  100
AcDbEntity
  8
SK1
  100
AcDbLine
  10
39.6
  20
0.962054
  30
0
  11
40.2588
  21
1.62082
  31
0
  0
LINE
  5
64
  100
AcDbEntity
  8
SK1
  100
AcDbLine
  10
39.6
  20
0.714566
  30
0
  11
40.4271
  21
1.54167
  31
0
  0
LINE
  5
65
  100
AcDbEntity
  8
SK1
  100
AcDbLine
  10
39.6
  20
0.467079
  30
0
  11
40.581
  21
1.44812
  31
0
  0
LINE
  5
66
  100
AcDbEntity
  8
SK1
  100
AcDbLine
  10
39.6
  20
0.219592
  30
0
  11
40.7226
  21
1.34216
  31
0
  0
LINE
  5
67
  100
AcDbEntity
  8
SK1
  100
AcDbLine
  10
39.6279
  20
0
  30
0
  11
40.8508
  21
1.22288
  31
0
  0
LINE
  5
68
  100
AcDbEntity
  8
SK1
  100
AcDbLine
  10
39.8754
  20
0
  30
0
  11
40.967
  21
1.09157
  31
0
  0
LINE
  5
69
  100
AcDbEntity
  8
SK1
  100
AcDbLine
  10
40.1229
  20
0
  30
0
  11
41.0707
  21
0.947822
  31
0
  0
LINE
  5
6a
  100
AcDbEntity
  8
SK1
  100
AcDbLine
  10
40.3704
  20
0
  30
0
  11
41.1605
  21
0.790145
  31
0
  0
LINE
  5
6b
  100
AcDbEntity
  8
SK1
  100
AcDbLine
  10
40.6178
  20
0
  30
0
  11
41.2364
  21
0.618517
  31
0
  0
LINE
  5
6c
  100
AcDbEntity
  8
SK1
  100
AcDbLine
  10
40.8653
  20
0
  30
0
  11
41.296
  21
0.430696
  31
0
  0
LINE
  5
6d
  100
AcDbEntity
  8
SK1
  100
AcDbLine
  10
41.1128
  20
0
  30
0
  11
41.3356
  21
0.222827
  31
0
  0
LINE
  5
6e
  100
AcDbEntity
  8
SK1
  100
AcDbLine
  10
39.6
  20
0
  30
0
  11
39.6
  21
1.75
  31
0
  0
LINE
  5
6f
  100
AcDbEntity
  8
SK1
  100
AcDbLine
  10
39.6
  20
0
  30
0
  11
41.35
  21
0
  31
0
  0
ARC
  5
70
  100
AcDbEntity
  8
SK1
  100
AcDbCircle
  10
39.6
  20
0
  30
0
  40
1.75
  100
AcDbArc
  50
0
  51
90
  0
ARC
  5
71
  100
AcDbEntity
  8
SK1
  100
AcDbCircle
  10
39.6
  20
0
  30
0
  40
1.75
  100
AcDbArc
  50
90
  51
180
  0
LINE
  5
72
  100
AcDbEntity
  8
SK1
  100
AcDbLine
  10
39.5721
  20
0
  30
0
  11
39.6
  21
-0.027896
  31
0
  0
LINE
  5
73
  100
AcDbEntity
  8
SK1
  100
AcDbLine
  10
39.3246
  20
0
  30
0
  11
39.6
  21
-0.275383
  31
0
  0
LINE
  5
74
  100
AcDbEntity
  8
SK1
  100
AcDbLine
  10
39.0771
  20
0
  30
0
  11
39.6
  21
-0.522871
  31
0
  0
LINE
  5
75
  100
AcDbEntity
  8
SK1
  100
AcDbLine
  10
38.8296
  20
0
  30
0
  11
39.6
  21
-0.770358
  31
0
  0
LINE
  5
76
  100
AcDbEntity
  8
SK1
  100
AcDbLine
  10
38.5822
  20
0
  30
0
  11
39.6
  21
-1.01785
  31
0
  0
LINE
  5
77
  100
AcDbEntity
  8
SK1
  100
AcDbLine
  10
38.3347
  20
0
  30
0
  11
39.6
  21
-1.26533
  31
0
  0
LINE
  5
78
  100
AcDbEntity
  8
SK1
  100
AcDbLine
  10
38.0872
  20
0
  30
0
  11
39.6
  21
-1.51282
  31
0
  0
LINE
  5
79
  100
AcDbEntity
  8
SK1
  100
AcDbLine
  10
37.8503
  20
-0.010642
  30
0
  11
39.5894
  21
-1.74967
  31
0
  0
LINE
  5
7a
  100
AcDbEntity
  8
SK1
  100
AcDbLine
  10
37.8736
  20
-0.281429
  30
0
  11
39.3186
  21
-1.72637
  31
0
  0
LINE
  5
7b
  100
AcDbEntity
  8
SK1
  100
AcDbLine
  10
37.9639
  20
-0.619147
  30
0
  11
38.9809
  21
-1.63613
  31
0
  0
LINE
  5
7c
  100
AcDbEntity
  8
SK1
  100
AcDbLine
  10
37.8514
  20
-0.044098
  30
0
  11
37.8955
  21
0
  31
0
  0
LINE
  5
7d
  100
AcDbEntity
  8
SK1
  100
AcDbLine
  10
37.872
  20
-0.270991
  30
0
  11
38.143
  21
0
  31
0
  0
LINE
  5
7e
  100
AcDbEntity
  8
SK1
  100
AcDbLine
  10
37.9163
  20
-0.474162
  30
0
  11
38.3905
  21
0
  31
0
  0
LINE
  5
7f
  100
AcDbEntity
  8
SK1
  100
AcDbLine
  10
37.9792
  20
-0.658762
  30
0
  11
38.6379
  21
0
  31
0
  0
LINE
  5
80
  100
AcDbEntity
  8
SK1
  100
AcDbLine
  10
38.0583
  20
-0.827105
  30
0
  11
38.8854
  21
0
  31
0
  0
LINE
  5
81
  100
AcDbEntity
  8
SK1
  100
AcDbLine
  10
38.1519
  20
-0.981039
  30
0
  11
39.1329
  21
0
  31
0
  0
LINE
  5
82
  100
AcDbEntity
  8
SK1
  100
AcDbLine
  10
38.2578
  20
-1.12257
  30
0
  11
39.3804
  21
0
  31
0
  0
LINE
  5
83
  100
AcDbEntity
  8
SK1
  100
AcDbLine
  10
38.3771
  20
-1.25077
  30
0
  11
39.6
  21
-0.027896
  31
0
  0
LINE
  5
84
  100
AcDbEntity
  8
SK1
  100
AcDbLine
  10
38.5084
  20
-1.36695
  30
0
  11
39.6
  21
-0.275383
  31
0
  0
LINE
  5
85
  100
AcDbEntity
  8
SK1
  100
AcDbLine
  10
38.6522
  20
-1.47069
  30
0
  11
39.6
  21
-0.522871
  31
0
  0
LINE
  5
86
  100
AcDbEntity
  8
SK1
  100
AcDbLine
  10
38.8099
  20
-1.5605
  30
0
  11
39.6
  21
-0.770358
  31
0
  0
LINE
  5
87
  100
AcDbEntity
  8
SK1
  100
AcDbLine
  10
38.9815
  20
-1.63636
  30
0
  11
39.6
  21
-1.01785
  31
0
  0
LINE
  5
88
  100
AcDbEntity
  8
SK1
  100
AcDbLine
  10
39.1693
  20
-1.69603
  30
0
  11
39.6
  21
-1.26533
  31
0
  0
LINE
  5
89
  100
AcDbEntity
  8
SK1
  100
AcDbLine
  10
39.3772
  20
-1.73565
  30
0
  11
39.6
  21
-1.51282
  31
0
  0
LINE
  5
8a
  100
AcDbEntity
  8
SK1
  100
AcDbLine
  10
39.6
  20
0
  30
0
  11
37.85
  21
0
  31
0
  0
LINE
  5
8b
  100
AcDbEntity
  8
SK1
  100
AcDbLine
  10
39.6
  20
-1.75
  30
0
  11
39.6
  21
0
  31
0
  0
ARC
  5
8c
  100
AcDbEntity
  8
SK1
  100
AcDbCircle
  10
39.6
  20
0
  30
0
  40
1.75
  100
AcDbArc
  50
180
  51
270
  0
ARC
  5
8d
  100
AcDbEntity
  8
SK1
  100
AcDbCircle
  10
39.6
  20
0
  30
0
  40
1.75
  100
AcDbArc
  50
270
  51
0
  0
LINE
  5
107
  100
AcDbEntity
  8
INFTOTAL
  100
AcDbLine
  10
-16.06
  20
19.235
  30
0
  11
73.26
  21
19.235
  31
0
  0
LINE
  5
108
  100
AcDbEntity
  8
INFTOTAL
  100
AcDbLine
  10
73.26
  20
19.235
  30
0
  11
73.26
  21
-16.251947
  31
0
  0
LINE
  5
109
  100
AcDbEntity
  8
INFTOTAL
  100
AcDbLine
  10
73.26
  20
-16.251947
  30
0
  11
-16.06
  21
-16.251947
  31
0
  0
LINE
  5
10a
  100
AcDbEntity
  8
INFTOTAL
  100
AcDbLine
  10
-16.06
  20
-16.251947
  30
0
  11
-16.06
  21
19.235
  31
0
  0
ENDSEC
  0
SECTION
  2
OBJECTS
  0
DICTIONARY
  5
10b
  330
0
100
AcDbDictionary
281
    1
  3
ACAD_GROUP
  350
10c
  0
DICTIONARY
  5
10c
102
{ACAD_REACTORS
  330
10b
102
}
  330
10b
100
AcDbDictionary
281
    1
  0
ENDSEC
  0
EOF
