  0
SECTION
  2
HEADER
  9
$ACADVER
  1
AC1015
  9
$DWGCODEPAGE
  3
ANSI_932
  9
$HANDSEED
  5
106AB90
  0
ENDSEC
  0
SECTION
  2
CLASSES
  0
CLASS
  1
IMAGEDEF
  2
AcDbRasterImageDef
  3
ISM
  90
0
  91
4
  280
0
  281
0
  0
CLASS
  1
IMAGE
  2
AcDbRasterImage
  3
ISM
  90
127
  91
5
  280
0
  281
1
  0
CLASS
  1
IMAGEDEF_REACTOR
  2
AcDbRasterImageDefReactor
  3
ISM
  90
1
  91
4
  280
0
  281
0
  0
ENDSEC
  0
SECTION
  2
TABLES
  0
TABLE
  2
VPORT
  5
2
  330
0
  100
AcDbSymbolTable
  70
    0
  0
ENDTAB
  0
TABLE
  2
LTYPE
  5
3
  330
0
  100
AcDbSymbolTable
  70
    4
  0
LTYPE
  5
4
  330
3
  100
AcDbSymbolTableRecord
  100
AcDbLinetypeTableRecord
  2
ByBlock
  70
    0
  3

  72
65
  73
    0
  40
0
  0
LTYPE
  5
5
  330
3
  100
AcDbSymbolTableRecord
  100
AcDbLinetypeTableRecord
  2
ByLayer
  70
    0
  3

  72
65
  73
    0
  40
0
  0
LTYPE
  5
6
  330
3
  100
AcDbSymbolTableRecord
  100
AcDbLinetypeTableRecord
  2
CONTINUOUS
  70
    0
  3
Solid Line
  72
65
  73
    0
  40
0
  0
LTYPE
  5
7
  330
3
  100
AcDbSymbolTableRecord
  100
AcDbLinetypeTableRecord
  2
DASH
  70
    0
  3
Hidden
  72
65
  73
2
  40
2.5
  49
1.5
  74
0
  49
-1
  74
0
  0
LTYPE
  5
8
  330
3
  100
AcDbSymbolTableRecord
  100
AcDbLinetypeTableRecord
  2
LONGDASHDASH
  70
    0
  3
__ . __
  72
65
  73
    4
  40
7
  49
4
  74
    0
  49
-1
  74
    0
  49
1
  74
    0
  49
-1
  74
    0
  0
ENDTAB
  0
TABLE
  2
LAYER
  5
9
  330
0
  100
AcDbSymbolTable
  70
    40
  0
LAYER
  5
a
  330
9
  100
AcDbSymbolTableRecord
  100
AcDbLayerTableRecord
  2
0
  70
    0
  62
    0
  6
CONTINUOUS
  390
0
  0
LAYER
  5
c
  330
9
  100
AcDbSymbolTableRecord
  100
AcDbLayerTableRecord
  2
1
  70
    0
  62
    4
  6
CONTINUOUS
  370
50
  390
0
  0
LAYER
  5
d
  330
9
  100
AcDbSymbolTableRecord
  100
AcDbLayerTableRecord
  2
2
  70
    0
  62
    7
  6
CONTINUOUS
  370
25
  390
0
  0
LAYER
  5
f
  330
9
  100
AcDbSymbolTableRecord
  100
AcDbLayerTableRecord
  2
4
  70
    0
  62
    2
  6
LONGDASHDASH
  370
25
  390
0
  0
LAYER
  5
13
  330
9
  100
AcDbSymbolTableRecord
  100
AcDbLayerTableRecord
  2
SK1
  70
    0
  62
    4
  6
CONTINUOUS
  370
50
  390
0
  0
LAYER
  5
14
  330
9
  100
AcDbSymbolTableRecord
  100
AcDbLayerTableRecord
  2
SK2
  70
    0
  62
    7
  6
CONTINUOUS
  370
25
  390
0
  0
LAYER
  5
16
  330
9
  100
AcDbSymbolTableRecord
  100
AcDbLayerTableRecord
  2
SK4
  70
    0
  62
    2
  6
LONGDASHDASH
  370
25
  390
0
  0
LAYER
  5
21
  330
9
  100
AcDbSymbolTableRecord
  100
AcDbLayerTableRecord
  2
NOCUT
  70
    0
  62
    7
  6
CONTINUOUS
  370
25
  390
0
  0
LAYER
  5
22
  330
9
  100
AcDbSymbolTableRecord
  100
AcDbLayerTableRecord
  2
CUT
  70
    0
  62
    1
  6
CONTINUOUS
  370
25
  390
0
  0
LAYER
  5
26
  330
9
  100
AcDbSymbolTableRecord
  100
AcDbLayerTableRecord
  2
INFTOTAL
  70
    0
  62
    9
  6
CONTINUOUS
  370
18
  390
0
  0
ENDTAB
  0
TABLE
  2
STYLE
  5
27
  330
0
  100
AcDbSymbolTable
  70
    1
  0
STYLE
  5
28
  330
27
  100
AcDbSymbolTableRecord
  100
AcDbTextStyleTableRecord
  2
Monospac821 BT
  70
    0
  40
    3.5
  41
1
  50
0
  71
0
  42
3
  3

  4

  1001
ACAD
  1000
Monospac821 BT
  1071
256
  0
ENDTAB
  0
TABLE
  2
VIEW
  5
29
  330
0
  100
AcDbSymbolTable
  70
    0
  0
ENDTAB
  0
TABLE
  2
UCS
  5
2a
  330
0
  100
AcDbSymbolTable
  70
    0
  0
ENDTAB
  0
TABLE
  2
APPID
  5
2b
  330
0
  100
AcDbSymbolTable
  70
    1
  0
APPID
  5
2c
  330
2b
  100
AcDbSymbolTableRecord
  100
AcDbRegAppTableRecord
  2
ACAD
  70
    0
  0
ENDTAB
  0
TABLE
  2
DIMSTYLE
  5
2d
  330
0
  100
AcDbSymbolTable
  70
    1
  100
AcDbDimStyleTable
  0
DIMSTYLE
  105
2e
  330
2d
  100
AcDbSymbolTableRecord
  100
AcDbDimStyleTableRecord
  2
STANDARD
  70
    0
  41
    3
  42
0.5
  44
1
  73
0
  77
1
  78
1
  140
3.5
  141
2.5
  143
0.03937
  147
0.8
  172
1
  174
1
  178
0
  179
1
  271
2
  279
1
  284
1
  340
28
  0
ENDTAB
  0
TABLE
  2
BLOCK_RECORD
  5
2f
  330
0
  100
AcDbSymbolTable
  70
    2
  0
BLOCK_RECORD
  5
30
  330
2f
  100
AcDbSymbolTableRecord
  100
AcDbBlockTableRecord
  2
*Model_Space
  0
BLOCK_RECORD
  5
31
  330
2f
  100
AcDbSymbolTableRecord
  100
AcDbBlockTableRecord
  2
*Paper_Space
  0
BLOCK_RECORD
  5
ea
  330
2f
  100
AcDbSymbolTableRecord
  100
AcDbBlockTableRecord
  2
*De9
  340
0
  0
BLOCK_RECORD
  5
f8
  330
2f
  100
AcDbSymbolTableRecord
  100
AcDbBlockTableRecord
  2
*Df7
  340
0
  0
BLOCK_RECORD
  5
106
  330
2f
  100
AcDbSymbolTableRecord
  100
AcDbBlockTableRecord
  2
*D105
  340
0
  0
BLOCK_RECORD
  5
114
  330
2f
  100
AcDbSymbolTableRecord
  100
AcDbBlockTableRecord
  2
*D113
  340
0
  0
BLOCK_RECORD
  5
122
  330
2f
  100
AcDbSymbolTableRecord
  100
AcDbBlockTableRecord
  2
*D121
  340
0
  0
BLOCK_RECORD
  5
12c
  330
2f
  100
AcDbSymbolTableRecord
  100
AcDbBlockTableRecord
  2
*D12b
  340
0
  0
BLOCK_RECORD
  5
13a
  330
2f
  100
AcDbSymbolTableRecord
  100
AcDbBlockTableRecord
  2
*D139
  340
0
  0
BLOCK_RECORD
  5
148
  330
2f
  100
AcDbSymbolTableRecord
  100
AcDbBlockTableRecord
  2
*D147
  340
0
  0
BLOCK_RECORD
  5
156
  330
2f
  100
AcDbSymbolTableRecord
  100
AcDbBlockTableRecord
  2
*D155
  340
0
  0
ENDTAB
  0
ENDSEC
  0
SECTION
  2
BLOCKS
  0
BLOCK
  5
32
  330
30
  100
AcDbEntity
  8
0
  100
AcDbBlockBegin
  2
*Model_Space
  70
    0
  10
0
  20
0
  30
0
  3
*Model_Space
  1

  0
ENDBLK
  5
33
  330
30
  100
AcDbEntity
  8
0
  100
AcDbBlockEnd
  0
BLOCK
  5
34
  330
31
  100
AcDbEntity
  8
0
  100
AcDbBlockBegin
  2
*Paper_Space
  70
    0
  10
0
  20
0
  30
0
  3
*Paper_Space
  1

  0
ENDBLK
  5
35
  330
31
  100
AcDbEntity
  8
0
  100
AcDbBlockEnd
  0
BLOCK
  5
e8
  330
ea
  100
AcDbEntity
  8
SK2
  100
AcDbBlockBegin
  2
*De9
  70
1
  10
0
  20
0
  30
0
  3
*De9
  1

  0
LINE
  5
eb
  330
ea
  100
AcDbEntity
  8
SK2
  100
AcDbLine
  10
0
  20
2.3
  30
0
  11
0
  21
20
  31
0
  0
LINE
  5
ec
  330
ea
  100
AcDbEntity
  8
SK2
  100
AcDbLine
  10
70
  20
-15
  30
0
  11
70
  21
20
  31
0
  0
LINE
  5
ed
  330
ea
  100
AcDbEntity
  8
SK2
  100
AcDbLine
  10
0
  20
18
  30
0
  11
70
  21
18
  31
0
  0
SOLID
  5
ee
  330
ea
  100
AcDbEntity
  8
SK2
  100
AcDbTrace
  10
0
  20
18
  30
0
  11
2.478612
  21
18.326315
  31
0
  12
2.478612
  22
17.673685
  32
0
  13
2.478612
  23
17.673685
  33
0
  0
SOLID
  5
ef
  330
ea
  100
AcDbEntity
  8
SK2
  100
AcDbTrace
  10
70
  20
18
  30
0
  11
67.521388
  21
17.673685
  31
0
  12
67.521388
  22
18.326315
  32
0
  13
67.521388
  23
18.326315
  33
0
  0
MTEXT
  5
f0
  330
ea
  100
AcDbEntity
  8
SK2
  100
AcDbMText
  10
35
  20
18
  30
0
  11
1
  21
0
  31
0
  40
2
  41
0
  71
8
  72
1
  1
70
  0
POINT
  5
f1
  330
ea
  100
AcDbEntity
  8
SK2
  62
0
  100
AcDbPoint
  10
0
  20
2.3
  30
0
  0
POINT
  5
f2
  330
ea
  100
AcDbEntity
  8
SK2
  62
0
  100
AcDbPoint
  10
70
  20
-15
  30
0
  0
POINT
  5
f3
  330
ea
  100
AcDbEntity
  8
SK2
  62
0
  100
AcDbPoint
  10
70
  20
18
  30
0
  0
ENDBLK
  5
f4
  330
ea
  100
AcDbEntity
  8
SK2
  100
AcDbBlockEnd
  0
BLOCK
  5
f6
  330
f8
  100
AcDbEntity
  8
SK2
  100
AcDbBlockBegin
  2
*Df7
  70
1
  10
0
  20
0
  30
0
  3
*Df7
  1

  0
LINE
  5
f9
  330
f8
  100
AcDbEntity
  8
SK2
  100
AcDbLine
  10
46
  20
3
  30
0
  11
46
  21
15
  31
0
  0
LINE
  5
fa
  330
f8
  100
AcDbEntity
  8
SK2
  100
AcDbLine
  10
0
  20
2.3
  30
0
  11
0
  21
20
  31
0
  0
LINE
  5
fb
  330
f8
  100
AcDbEntity
  8
SK2
  100
AcDbLine
  10
46
  20
13
  30
0
  11
0
  21
13
  31
0
  0
SOLID
  5
fc
  330
f8
  100
AcDbEntity
  8
SK2
  100
AcDbTrace
  10
46
  20
13
  30
0
  11
48.478612
  21
13.326315
  31
0
  12
48.478612
  22
12.673685
  32
0
  13
48.478612
  23
12.673685
  33
0
  0
SOLID
  5
fd
  330
f8
  100
AcDbEntity
  8
SK2
  100
AcDbTrace
  10
0
  20
13
  30
0
  11
-2.478612
  21
12.673685
  31
0
  12
-2.478612
  22
13.326315
  32
0
  13
-2.478612
  23
13.326315
  33
0
  0
MTEXT
  5
fe
  330
f8
  100
AcDbEntity
  8
SK2
  100
AcDbMText
  10
23
  20
13
  30
0
  11
1
  21
-0
  31
0
  40
2
  41
0
  71
8
  72
1
  1
46
  0
POINT
  5
ff
  330
f8
  100
AcDbEntity
  8
SK2
  62
0
  100
AcDbPoint
  10
46
  20
3
  30
0
  0
POINT
  5
100
  330
f8
  100
AcDbEntity
  8
SK2
  62
0
  100
AcDbPoint
  10
0
  20
2.3
  30
0
  0
POINT
  5
101
  330
f8
  100
AcDbEntity
  8
SK2
  62
0
  100
AcDbPoint
  10
0
  20
13
  30
0
  0
ENDBLK
  5
102
  330
f8
  100
AcDbEntity
  8
SK2
  100
AcDbBlockEnd
  0
BLOCK
  5
104
  330
106
  100
AcDbEntity
  8
SK2
  100
AcDbBlockBegin
  2
*D105
  70
1
  10
0
  20
0
  30
0
  3
*D105
  1

  0
LINE
  5
107
  330
106
  100
AcDbEntity
  8
SK2
  100
AcDbLine
  10
0.7
  20
-3
  30
0
  11
-12
  21
-3
  31
0
  0
LINE
  5
108
  330
106
  100
AcDbEntity
  8
SK2
  100
AcDbLine
  10
0.7
  20
3
  30
0
  11
-12
  21
3
  31
0
  0
LINE
  5
109
  330
106
  100
AcDbEntity
  8
SK2
  100
AcDbLine
  10
-10
  20
-3
  30
0
  11
-10
  21
3
  31
0
  0
SOLID
  5
10a
  330
106
  100
AcDbEntity
  8
SK2
  100
AcDbTrace
  10
-10
  20
-3
  30
0
  11
-10.326315
  21
-0.521388
  31
0
  12
-9.673685
  22
-0.521388
  32
0
  13
-9.673685
  23
-0.521388
  33
0
  0
SOLID
  5
10b
  330
106
  100
AcDbEntity
  8
SK2
  100
AcDbTrace
  10
-10
  20
3
  30
0
  11
-9.673685
  21
0.521388
  31
0
  12
-10.326315
  22
0.521388
  32
0
  13
-10.326315
  23
0.521388
  33
0
  0
MTEXT
  5
10c
  330
106
  100
AcDbEntity
  8
SK2
  100
AcDbMText
  10
-10
  20
0
  30
0
  11
0
  21
1
  31
0
  40
2
  41
0
  71
8
  72
1
  1
ﾘ6
  0
POINT
  5
10d
  330
106
  100
AcDbEntity
  8
SK2
  62
0
  100
AcDbPoint
  10
0.7
  20
-3
  30
0
  0
POINT
  5
10e
  330
106
  100
AcDbEntity
  8
SK2
  62
0
  100
AcDbPoint
  10
0.7
  20
3
  30
0
  0
POINT
  5
10f
  330
106
  100
AcDbEntity
  8
SK2
  62
0
  100
AcDbPoint
  10
-10
  20
3
  30
0
  0
ENDBLK
  5
110
  330
106
  100
AcDbEntity
  8
SK2
  100
AcDbBlockEnd
  0
BLOCK
  5
112
  330
114
  100
AcDbEntity
  8
2
  100
AcDbBlockBegin
  2
*D113
  70
1
  10
0
  20
0
  30
0
  3
*D113
  1

  0
LINE
  5
115
  330
114
  100
AcDbEntity
  8
2
  100
AcDbLine
  10
68
  20
-2
  30
0
  11
82
  21
-2
  31
0
  0
LINE
  5
116
  330
114
  100
AcDbEntity
  8
2
  100
AcDbLine
  10
68
  20
2
  30
0
  11
82
  21
2
  31
0
  0
LINE
  5
117
  330
114
  100
AcDbEntity
  8
2
  100
AcDbLine
  10
80
  20
-4.158416
  30
0
  11
80
  21
2
  31
0
  0
SOLID
  5
118
  330
114
  100
AcDbEntity
  8
2
  100
AcDbTrace
  10
80
  20
-2
  30
0
  11
79.673685
  21
0.478612
  31
0
  12
80.326315
  22
0.478612
  32
0
  13
80.326315
  23
0.478612
  33
0
  0
SOLID
  5
119
  330
114
  100
AcDbEntity
  8
2
  100
AcDbTrace
  10
80
  20
2
  30
0
  11
80.326315
  21
-0.478612
  31
0
  12
79.673685
  22
-0.478612
  32
0
  13
79.673685
  23
-0.478612
  33
0
  0
MTEXT
  5
11a
  330
114
  100
AcDbEntity
  8
2
  100
AcDbMText
  10
80
  20
0
  30
0
  11
0
  21
1
  31
0
  40
2
  41
0
  71
8
  72
1
  1
ﾘ4
  0
POINT
  5
11b
  330
114
  100
AcDbEntity
  8
2
  62
0
  100
AcDbPoint
  10
68
  20
-2
  30
0
  0
POINT
  5
11c
  330
114
  100
AcDbEntity
  8
2
  62
0
  100
AcDbPoint
  10
68
  20
2
  30
0
  0
POINT
  5
11d
  330
114
  100
AcDbEntity
  8
2
  62
0
  100
AcDbPoint
  10
80
  20
2
  30
0
  0
ENDBLK
  5
11e
  330
114
  100
AcDbEntity
  8
2
  100
AcDbBlockEnd
  0
BLOCK
  5
120
  330
122
  100
AcDbEntity
  8
2
  100
AcDbBlockBegin
  2
*D121
  70
1
  10
0
  20
0
  30
0
  3
*D121
  1

  0
LINE
  5
123
  330
122
  100
AcDbEntity
  8
2
  100
AcDbLine
  10
67.722153
  20
-0.277847
  30
0
  11
76.485281
  21
8.485281
  31
0
  0
MTEXT
  5
124
  330
122
  100
AcDbEntity
  8
2
  100
AcDbMText
  10
69.414214
  20
1.414214
  30
0
  11
0.707107
  21
0.707107
  31
0
  40
2
  41
0
  71
8
  72
1
  1
R2
  0
SOLID
  5
125
  330
122
  100
AcDbEntity
  8
2
  100
AcDbTrace
  10
69.414214
  20
1.414214
  30
0
  11
70.936117
  21
3.397597
  31
0
  12
71.397597
  22
2.936117
  32
0
  13
71.397597
  23
2.936117
  33
0
  0
POINT
  5
126
  330
122
  100
AcDbEntity
  8
2
  62
0
  100
AcDbPoint
  10
67.722153
  20
-0.277847
  30
0
  0
POINT
  5
127
  330
122
  100
AcDbEntity
  8
2
  62
0
  100
AcDbPoint
  10
68
  20
0
  30
0
  0
ENDBLK
  5
128
  330
122
  100
AcDbEntity
  8
2
  100
AcDbBlockEnd
  0
BLOCK
  5
12a
  330
12c
  100
AcDbEntity
  8
2
  100
AcDbBlockBegin
  2
*D12b
  70
1
  10
0
  20
0
  30
0
  3
*D12b
  1

  0
LINE
  5
12d
  330
12c
  100
AcDbEntity
  8
2
  100
AcDbLine
  10
67
  20
-1.86
  30
0
  11
65
  21
-1.86
  31
0
  0
LINE
  5
12e
  330
12c
  100
AcDbEntity
  8
2
  100
AcDbLine
  10
67
  20
1.86
  30
0
  11
65
  21
1.86
  31
0
  0
LINE
  5
12f
  330
12c
  100
AcDbEntity
  8
2
  100
AcDbLine
  10
67
  20
-1.86
  30
0
  11
67
  21
10.39604
  31
0
  0
SOLID
  5
130
  330
12c
  100
AcDbEntity
  8
2
  100
AcDbTrace
  10
67
  20
-1.86
  30
0
  11
66.673685
  21
0.618612
  31
0
  12
67.326315
  22
0.618612
  32
0
  13
67.326315
  23
0.618612
  33
0
  0
SOLID
  5
131
  330
12c
  100
AcDbEntity
  8
2
  100
AcDbTrace
  10
67
  20
1.86
  30
0
  11
67.326315
  21
-0.618612
  31
0
  12
66.673685
  22
-0.618612
  32
0
  13
66.673685
  23
-0.618612
  33
0
  0
MTEXT
  5
132
  330
12c
  100
AcDbEntity
  8
2
  100
AcDbMText
  10
67
  20
1.86
  30
0
  11
0
  21
1
  31
0
  40
2
  41
0
  71
8
  72
1
  1
ﾘ3.72
  0
POINT
  5
133
  330
12c
  100
AcDbEntity
  8
2
  62
0
  100
AcDbPoint
  10
65
  20
-1.86
  30
0
  0
POINT
  5
134
  330
12c
  100
AcDbEntity
  8
2
  62
0
  100
AcDbPoint
  10
65
  20
1.86
  30
0
  0
POINT
  5
135
  330
12c
  100
AcDbEntity
  8
2
  62
0
  100
AcDbPoint
  10
67
  20
10.39604
  30
0
  0
ENDBLK
  5
136
  330
12c
  100
AcDbEntity
  8
2
  100
AcDbBlockEnd
  0
BLOCK
  5
138
  330
13a
  100
AcDbEntity
  8
2
  100
AcDbBlockBegin
  2
*D139
  70
1
  10
0
  20
0
  30
0
  3
*D139
  1

  0
LINE
  5
13b
  330
13a
  100
AcDbEntity
  8
2
  100
AcDbLine
  10
67
  20
1.86
  30
0
  11
67
  21
9
  31
0
  0
LINE
  5
13c
  330
13a
  100
AcDbEntity
  8
2
  100
AcDbLine
  10
50.81
  20
1.86
  30
0
  11
50.81
  21
9
  31
0
  0
LINE
  5
13d
  330
13a
  100
AcDbEntity
  8
2
  100
AcDbLine
  10
69.783416
  20
7
  30
0
  11
50.81
  21
7
  31
0
  0
SOLID
  5
13e
  330
13a
  100
AcDbEntity
  8
2
  100
AcDbTrace
  10
67
  20
7
  30
0
  11
69.478612
  21
7.326315
  31
0
  12
69.478612
  22
6.673685
  32
0
  13
69.478612
  23
6.673685
  33
0
  0
SOLID
  5
13f
  330
13a
  100
AcDbEntity
  8
2
  100
AcDbTrace
  10
50.81
  20
7
  30
0
  11
48.331388
  21
6.673685
  31
0
  12
48.331388
  22
7.326315
  32
0
  13
48.331388
  23
7.326315
  33
0
  0
MTEXT
  5
140
  330
13a
  100
AcDbEntity
  8
2
  100
AcDbMText
  10
65.784884
  20
7
  30
0
  11
1
  21
-0
  31
0
  40
2
  41
0
  71
8
  72
1
  1
16.19
  0
POINT
  5
141
  330
13a
  100
AcDbEntity
  8
2
  62
0
  100
AcDbPoint
  10
67
  20
1.86
  30
0
  0
POINT
  5
142
  330
13a
  100
AcDbEntity
  8
2
  62
0
  100
AcDbPoint
  10
50.81
  20
1.86
  30
0
  0
POINT
  5
143
  330
13a
  100
AcDbEntity
  8
2
  62
0
  100
AcDbPoint
  10
50.81
  20
7
  30
0
  0
ENDBLK
  5
144
  330
13a
  100
AcDbEntity
  8
2
  100
AcDbBlockEnd
  0
BLOCK
  5
146
  330
148
  100
AcDbEntity
  8
2
  100
AcDbBlockBegin
  2
*D147
  70
1
  10
0
  20
0
  30
0
  3
*D147
  1

  0
LINE
  5
149
  330
148
  100
AcDbEntity
  8
2
  100
AcDbLine
  10
70
  20
-15
  30
0
  11
70
  21
20
  31
0
  0
LINE
  5
14a
  330
148
  100
AcDbEntity
  8
2
  100
AcDbLine
  10
46
  20
3
  30
0
  11
46
  21
10
  31
0
  0
LINE
  5
14b
  330
148
  100
AcDbEntity
  8
2
  100
AcDbLine
  10
70
  20
8
  30
0
  11
46
  21
8
  31
0
  0
SOLID
  5
14c
  330
148
  100
AcDbEntity
  8
2
  100
AcDbTrace
  10
70
  20
8
  30
0
  11
72.478612
  21
8.326315
  31
0
  12
72.478612
  22
7.673685
  32
0
  13
72.478612
  23
7.673685
  33
0
  0
SOLID
  5
14d
  330
148
  100
AcDbEntity
  8
2
  100
AcDbTrace
  10
46
  20
8
  30
0
  11
43.521388
  21
7.673685
  31
0
  12
43.521388
  22
8.326315
  32
0
  13
43.521388
  23
8.326315
  33
0
  0
MTEXT
  5
14e
  330
148
  100
AcDbEntity
  8
2
  100
AcDbMText
  10
58
  20
8
  30
0
  11
1
  21
-0
  31
0
  40
2
  41
0
  71
8
  72
1
  1
24
  0
POINT
  5
14f
  330
148
  100
AcDbEntity
  8
2
  62
0
  100
AcDbPoint
  10
70
  20
-15
  30
0
  0
POINT
  5
150
  330
148
  100
AcDbEntity
  8
2
  62
0
  100
AcDbPoint
  10
46
  20
3
  30
0
  0
POINT
  5
151
  330
148
  100
AcDbEntity
  8
2
  62
0
  100
AcDbPoint
  10
46
  20
8
  30
0
  0
ENDBLK
  5
152
  330
148
  100
AcDbEntity
  8
2
  100
AcDbBlockEnd
  0
BLOCK
  5
154
  330
156
  100
AcDbEntity
  8
2
  100
AcDbBlockBegin
  2
*D155
  70
1
  10
0
  20
0
  30
0
  3
*D155
  1

  0
LINE
  5
157
  330
156
  100
AcDbEntity
  8
2
  100
AcDbLine
  10
67
  20
-1.86
  30
0
  11
67
  21
-15
  31
0
  0
LINE
  5
158
  330
156
  100
AcDbEntity
  8
2
  100
AcDbLine
  10
70
  20
-15
  30
0
  11
70
  21
20
  31
0
  0
LINE
  5
159
  330
156
  100
AcDbEntity
  8
2
  100
AcDbLine
  10
67
  20
-13
  30
0
  11
70
  21
-13
  31
0
  0
SOLID
  5
15a
  330
156
  100
AcDbEntity
  8
2
  100
AcDbTrace
  10
67
  20
-13
  30
0
  11
69.478612
  21
-12.673685
  31
0
  12
69.478612
  22
-13.326315
  32
0
  13
69.478612
  23
-13.326315
  33
0
  0
SOLID
  5
15b
  330
156
  100
AcDbEntity
  8
2
  100
AcDbTrace
  10
70
  20
-13
  30
0
  11
67.521388
  21
-13.326315
  31
0
  12
67.521388
  22
-12.673685
  32
0
  13
67.521388
  23
-12.673685
  33
0
  0
MTEXT
  5
15c
  330
156
  100
AcDbEntity
  8
2
  100
AcDbMText
  10
68.5
  20
-13
  30
0
  11
1
  21
0
  31
0
  40
2
  41
0
  71
8
  72
1
  1
3
  0
POINT
  5
15d
  330
156
  100
AcDbEntity
  8
2
  62
0
  100
AcDbPoint
  10
67
  20
-1.86
  30
0
  0
POINT
  5
15e
  330
156
  100
AcDbEntity
  8
2
  62
0
  100
AcDbPoint
  10
70
  20
20
  30
0
  0
POINT
  5
15f
  330
156
  100
AcDbEntity
  8
2
  62
0
  100
AcDbPoint
  10
70
  20
-13
  30
0
  0
ENDBLK
  5
160
  330
156
  100
AcDbEntity
  8
2
  100
AcDbBlockEnd
  0
ENDSEC
  0
SECTION
  2
ENTITIES
  0
DIMENSION
  5
f5
  100
AcDbEntity
  8
SK2
  100
AcDbDimension
  2
*De9
  10
70
  20
18
  30
0
  11
35
  21
18
  31
0
  70
160
  1
<>
  71
5
  3
STANDARD
  42
70
  100
AcDbAlignedDimension
  13
0
  23
2.3
  33
0
  14
70
  24
-15
  34
0
  50
0
  100
AcDbRotatedDimension
  0
DIMENSION
  5
103
  100
AcDbEntity
  8
SK2
  100
AcDbDimension
  2
*Df7
  10
0
  20
13
  30
0
  11
23
  21
13
  31
0
  70
160
  1
<>
  71
5
  3
STANDARD
  42
46
  100
AcDbAlignedDimension
  13
46
  23
3
  33
0
  14
0
  24
2.3
  34
0
  50
0
  100
AcDbRotatedDimension
  0
DIMENSION
  5
111
  100
AcDbEntity
  8
SK2
  100
AcDbDimension
  2
*D105
  10
-10
  20
3
  30
0
  11
-10
  21
0
  31
0
  70
160
  1
%%c<>
  71
5
  3
STANDARD
  42
6
  100
AcDbAlignedDimension
  13
0.7
  23
-3
  33
0
  14
0.7
  24
3
  34
0
  50
-90
  100
AcDbRotatedDimension
  0
DIMENSION
  5
11f
  100
AcDbEntity
  8
2
  100
AcDbDimension
  2
*D113
  10
80
  20
2
  30
0
  11
80
  21
0
  31
0
  70
160
  1
%%c<>
  71
5
  3
STANDARD
  42
4
  100
AcDbAlignedDimension
  13
68
  23
-2
  33
0
  14
68
  24
2
  34
0
  50
-90
  100
AcDbRotatedDimension
  0
DIMENSION
  5
129
  100
AcDbEntity
  8
2
  100
AcDbDimension
  2
*D121
  10
68
  20
0
  30
0
  11
69.414214
  21
1.414214
  31
0
  70
164
  1
R2
  71
5
  3
STANDARD
  100
AcDbRadialDimension
  15
69.414214
  25
1.414214
  35
0
  50
45
  0
DIMENSION
  5
137
  100
AcDbEntity
  8
2
  100
AcDbDimension
  2
*D12b
  10
67
  20
10.39604
  30
0
  11
67
  21
1.86
  31
0
  70
160
  1
%%c<>
  71
5
  3
STANDARD
  42
3.72
  100
AcDbAlignedDimension
  13
65
  23
-1.86
  33
0
  14
65
  24
1.86
  34
0
  50
-90
  100
AcDbRotatedDimension
  0
DIMENSION
  5
145
  100
AcDbEntity
  8
2
  100
AcDbDimension
  2
*D139
  10
50.81
  20
7
  30
0
  11
65.784884
  21
7
  31
0
  70
160
  1
<>
  71
5
  3
STANDARD
  42
16.19
  100
AcDbAlignedDimension
  13
67
  23
1.86
  33
0
  14
50.81
  24
1.86
  34
0
  50
0
  100
AcDbRotatedDimension
  0
DIMENSION
  5
153
  100
AcDbEntity
  8
2
  100
AcDbDimension
  2
*D147
  10
46
  20
8
  30
0
  11
58
  21
8
  31
0
  70
160
  1
<>
  71
5
  3
STANDARD
  42
24
  100
AcDbAlignedDimension
  13
70
  23
-15
  33
0
  14
46
  24
3
  34
0
  50
0
  100
AcDbRotatedDimension
  0
DIMENSION
  5
161
  100
AcDbEntity
  8
2
  100
AcDbDimension
  2
*D155
  10
70
  20
-13
  30
0
  11
68.5
  21
-13
  31
0
  70
160
  1
<>
  71
5
  3
STANDARD
  42
3
  100
AcDbAlignedDimension
  13
67
  23
-1.86
  33
0
  14
70
  24
20
  34
0
  50
0
  100
AcDbRotatedDimension
  0
ARC
  5
36
  100
AcDbEntity
  8
1
  100
AcDbCircle
  10
50.897156
  20
-2.856195
  30
0
  40
1
  100
AcDbArc
  50
95
  51
105
  0
LINE
  5
37
  100
AcDbEntity
  8
1
  100
AcDbLine
  10
50.81
  20
-1.86
  30
0
  11
67
  21
-1.86
  31
0
  0
LINE
  5
38
  100
AcDbEntity
  8
1
  100
AcDbLine
  10
67
  20
-1.86
  30
0
  11
67
  21
-2
  31
0
  0
LINE
  5
39
  100
AcDbEntity
  8
1
  100
AcDbLine
  10
67
  20
-2
  30
0
  11
68
  21
-2
  31
0
  0
ARC
  5
3a
  100
AcDbEntity
  8
1
  100
AcDbCircle
  10
68
  20
0
  30
0
  40
2
  100
AcDbArc
  50
270
  51
0
  0
ARC
  5
3b
  100
AcDbEntity
  8
1
  100
AcDbCircle
  10
68
  20
0
  30
0
  40
2
  100
AcDbArc
  50
0
  51
90
  0
LINE
  5
3c
  100
AcDbEntity
  8
1
  100
AcDbLine
  10
68
  20
2
  30
0
  11
67
  21
2
  31
0
  0
LINE
  5
3d
  100
AcDbEntity
  8
1
  100
AcDbLine
  10
67
  20
2
  30
0
  11
67
  21
1.86
  31
0
  0
LINE
  5
3e
  100
AcDbEntity
  8
1
  100
AcDbLine
  10
67
  20
1.86
  30
0
  11
50.81
  21
1.86
  31
0
  0
ARC
  5
3f
  100
AcDbEntity
  8
1
  100
AcDbCircle
  10
50.897156
  20
2.856195
  30
0
  40
1
  100
AcDbArc
  50
255
  51
265
  0
LINE
  5
40
  100
AcDbEntity
  8
1
  100
AcDbLine
  10
50.638337
  20
1.890269
  30
0
  11
46.496764
  21
3
  31
0
  0
LINE
  5
41
  100
AcDbEntity
  8
1
  100
AcDbLine
  10
46.496764
  20
3
  30
0
  11
46
  21
3
  31
0
  0
LINE
  5
42
  100
AcDbEntity
  8
1
  100
AcDbLine
  10
46
  20
3
  30
0
  11
46
  21
-3
  31
0
  0
LINE
  5
43
  100
AcDbEntity
  8
1
  100
AcDbLine
  10
46
  20
-3
  30
0
  11
46.496764
  21
-3
  31
0
  0
LINE
  5
44
  100
AcDbEntity
  8
1
  100
AcDbLine
  10
46.496764
  20
-3
  30
0
  11
50.638337
  21
-1.890269
  31
0
  0
LINE
  5
45
  100
AcDbEntity
  8
1
  100
AcDbLine
  10
69.7
  20
-0.462611
  30
0
  11
69.7
  21
1.053319
  31
0
  0
LINE
  5
46
  100
AcDbEntity
  8
1
  100
AcDbLine
  10
69.683317
  20
1.08002
  30
0
  11
69.7
  21
1.053319
  31
0
  0
LINE
  5
47
  100
AcDbEntity
  8
1
  100
AcDbLine
  10
69.7
  20
1.053319
  30
0
  11
69.7
  21
-0.462611
  31
0
  0
LINE
  5
48
  100
AcDbEntity
  8
1
  100
AcDbLine
  10
69.7
  20
-0.462611
  30
0
  11
69.6
  21
-0.779128
  31
0
  0
LINE
  5
49
  100
AcDbEntity
  8
1
  100
AcDbLine
  10
69.6
  20
-0.779128
  30
0
  11
69.5
  21
-0.96836
  31
0
  0
LINE
  5
4a
  100
AcDbEntity
  8
1
  100
AcDbLine
  10
69.5
  20
-0.96836
  30
0
  11
69.4
  21
-1.109297
  31
0
  0
LINE
  5
4b
  100
AcDbEntity
  8
1
  100
AcDbLine
  10
69.4
  20
-1.109297
  30
0
  11
69.3
  21
-1.221486
  31
0
  0
LINE
  5
4c
  100
AcDbEntity
  8
1
  100
AcDbLine
  10
69.3
  20
-1.221486
  30
0
  11
69.2
  21
-1.31347
  31
0
  0
LINE
  5
4d
  100
AcDbEntity
  8
1
  100
AcDbLine
  10
69.2
  20
-1.31347
  30
0
  11
69.1
  21
-1.389891
  31
0
  0
LINE
  5
4e
  100
AcDbEntity
  8
1
  100
AcDbLine
  10
69.1
  20
-1.389891
  30
0
  11
69
  21
-1.453598
  31
0
  0
LINE
  5
4f
  100
AcDbEntity
  8
1
  100
AcDbLine
  10
69
  20
-1.453598
  30
0
  11
68.9
  21
-1.506477
  31
0
  0
LINE
  5
50
  100
AcDbEntity
  8
1
  100
AcDbLine
  10
68.9
  20
-1.506477
  30
0
  11
68.8
  21
-1.549847
  31
0
  0
LINE
  5
51
  100
AcDbEntity
  8
1
  100
AcDbLine
  10
68.8
  20
-1.549847
  30
0
  11
68.7
  21
-1.584664
  31
0
  0
LINE
  5
52
  100
AcDbEntity
  8
1
  100
AcDbLine
  10
68.7
  20
-1.584664
  30
0
  11
68.6
  21
-1.611639
  31
0
  0
LINE
  5
53
  100
AcDbEntity
  8
1
  100
AcDbLine
  10
68.6
  20
-1.611639
  30
0
  11
68.5
  21
-1.631307
  31
0
  0
LINE
  5
54
  100
AcDbEntity
  8
1
  100
AcDbLine
  10
68.5
  20
-1.631307
  30
0
  11
68.4
  21
-1.644078
  31
0
  0
LINE
  5
55
  100
AcDbEntity
  8
1
  100
AcDbLine
  10
68.4
  20
-1.644078
  30
0
  11
68.3
  21
-1.650258
  31
0
  0
LINE
  5
56
  100
AcDbEntity
  8
1
  100
AcDbLine
  10
68.3
  20
-1.650258
  30
0
  11
68.2
  21
-1.650076
  31
0
  0
LINE
  5
57
  100
AcDbEntity
  8
1
  100
AcDbLine
  10
68.2
  20
-1.650076
  30
0
  11
68.1
  21
-1.643695
  31
0
  0
LINE
  5
58
  100
AcDbEntity
  8
1
  100
AcDbLine
  10
68.1
  20
-1.643695
  30
0
  11
68
  21
-1.631218
  31
0
  0
LINE
  5
59
  100
AcDbEntity
  8
1
  100
AcDbLine
  10
68
  20
-1.631218
  30
0
  11
67.9
  21
-1.615569
  31
0
  0
LINE
  5
5a
  100
AcDbEntity
  8
1
  100
AcDbLine
  10
67.9
  20
-1.615569
  30
0
  11
67.8
  21
-1.599629
  31
0
  0
LINE
  5
5b
  100
AcDbEntity
  8
1
  100
AcDbLine
  10
67.8
  20
-1.599629
  30
0
  11
67.7
  21
-1.583403
  31
0
  0
LINE
  5
5c
  100
AcDbEntity
  8
1
  100
AcDbLine
  10
67.7
  20
-1.583403
  30
0
  11
67.6
  21
-1.566892
  31
0
  0
LINE
  5
5d
  100
AcDbEntity
  8
1
  100
AcDbLine
  10
67.6
  20
-1.566892
  30
0
  11
67.5
  21
-1.5501
  31
0
  0
LINE
  5
5e
  100
AcDbEntity
  8
1
  100
AcDbLine
  10
67.5
  20
-1.5501
  30
0
  11
67.4
  21
-1.533029
  31
0
  0
LINE
  5
5f
  100
AcDbEntity
  8
1
  100
AcDbLine
  10
67.4
  20
-1.533029
  30
0
  11
67.3
  21
-1.515684
  31
0
  0
LINE
  5
60
  100
AcDbEntity
  8
1
  100
AcDbLine
  10
67.3
  20
-1.515684
  30
0
  11
67.2
  21
-1.498066
  31
0
  0
LINE
  5
61
  100
AcDbEntity
  8
1
  100
AcDbLine
  10
67.2
  20
-1.498066
  30
0
  11
67.1
  21
-1.48018
  31
0
  0
LINE
  5
62
  100
AcDbEntity
  8
1
  100
AcDbLine
  10
67.1
  20
-1.48018
  30
0
  11
67
  21
-1.462028
  31
0
  0
LINE
  5
63
  100
AcDbEntity
  8
1
  100
AcDbLine
  10
67
  20
-1.462028
  30
0
  11
67
  21
-1.302503
  31
0
  0
LINE
  5
64
  100
AcDbEntity
  8
1
  100
AcDbLine
  10
67
  20
-1.302503
  30
0
  11
66.9
  21
-1.2838
  31
0
  0
LINE
  5
65
  100
AcDbEntity
  8
1
  100
AcDbLine
  10
66.9
  20
-1.2838
  30
0
  11
66.8
  21
-1.213911
  31
0
  0
LINE
  5
66
  100
AcDbEntity
  8
1
  100
AcDbLine
  10
66.8
  20
-1.213911
  30
0
  11
66.7
  21
-0.556199
  31
0
  0
LINE
  5
67
  100
AcDbEntity
  8
1
  100
AcDbLine
  10
66.7
  20
-0.556199
  30
0
  11
66.7
  21
1.86
  31
0
  0
LINE
  5
68
  100
AcDbEntity
  8
1
  100
AcDbLine
  10
68
  20
2
  30
0
  11
68
  21
-2
  31
0
  0
LINE
  5
69
  100
AcDbEntity
  8
1
  100
AcDbLine
  10
67
  20
-2
  30
0
  11
67
  21
2
  31
0
  0
LINE
  5
6a
  100
AcDbEntity
  8
1
  100
AcDbLine
  10
67
  20
1.86
  30
0
  11
67
  21
-1.86
  31
0
  0
LINE
  5
6b
  100
AcDbEntity
  8
1
  100
AcDbLine
  10
67.1
  20
-1.744182
  30
0
  11
67.2
  21
-1.756441
  31
0
  0
LINE
  5
6c
  100
AcDbEntity
  8
1
  100
AcDbLine
  10
67.2
  20
-1.756441
  30
0
  11
67.3
  21
-1.768385
  31
0
  0
LINE
  5
6d
  100
AcDbEntity
  8
1
  100
AcDbLine
  10
67.3
  20
-1.768385
  30
0
  11
67.4
  21
-1.780012
  31
0
  0
LINE
  5
6e
  100
AcDbEntity
  8
1
  100
AcDbLine
  10
67.4
  20
-1.780012
  30
0
  11
67.5
  21
-1.79132
  31
0
  0
LINE
  5
6f
  100
AcDbEntity
  8
1
  100
AcDbLine
  10
67.5
  20
-1.79132
  30
0
  11
67.6
  21
-1.802305
  31
0
  0
LINE
  5
70
  100
AcDbEntity
  8
1
  100
AcDbLine
  10
67.6
  20
-1.802305
  30
0
  11
67.7
  21
-1.812968
  31
0
  0
LINE
  5
71
  100
AcDbEntity
  8
1
  100
AcDbLine
  10
67.7
  20
-1.812968
  30
0
  11
67.8
  21
-1.823305
  31
0
  0
LINE
  5
72
  100
AcDbEntity
  8
1
  100
AcDbLine
  10
67.8
  20
-1.823305
  30
0
  11
67.9
  21
-1.833314
  31
0
  0
LINE
  5
73
  100
AcDbEntity
  8
1
  100
AcDbLine
  10
67.9
  20
-1.833314
  30
0
  11
68
  21
-1.842995
  31
0
  0
LINE
  5
74
  100
AcDbEntity
  8
1
  100
AcDbLine
  10
68
  20
-1.842995
  30
0
  11
68.1
  21
-1.849803
  31
0
  0
LINE
  5
75
  100
AcDbEntity
  8
1
  100
AcDbLine
  10
68.1
  20
-1.849803
  30
0
  11
68.2
  21
-1.851161
  31
0
  0
LINE
  5
76
  100
AcDbEntity
  8
1
  100
AcDbLine
  10
68.2
  20
-1.851161
  30
0
  11
68.3
  21
-1.846985
  31
0
  0
LINE
  5
77
  100
AcDbEntity
  8
1
  100
AcDbLine
  10
68.3
  20
-1.846985
  30
0
  11
68.4
  21
-1.837157
  31
0
  0
LINE
  5
78
  100
AcDbEntity
  8
1
  100
AcDbLine
  10
68.4
  20
-1.837157
  30
0
  11
68.5
  21
-1.821514
  31
0
  0
LINE
  5
79
  100
AcDbEntity
  8
1
  100
AcDbLine
  10
68.5
  20
-1.821514
  30
0
  11
68.6
  21
-1.799843
  31
0
  0
LINE
  5
7a
  100
AcDbEntity
  8
1
  100
AcDbLine
  10
68.6
  20
-1.799843
  30
0
  11
68.7
  21
-1.771873
  31
0
  0
LINE
  5
7b
  100
AcDbEntity
  8
1
  100
AcDbLine
  10
68.7
  20
-1.771873
  30
0
  11
68.8
  21
-1.737258
  31
0
  0
LINE
  5
7c
  100
AcDbEntity
  8
1
  100
AcDbLine
  10
68.8
  20
-1.737258
  30
0
  11
68.9
  21
-1.695562
  31
0
  0
LINE
  5
7d
  100
AcDbEntity
  8
1
  100
AcDbLine
  10
68.9
  20
-1.695562
  30
0
  11
69
  21
-1.646222
  31
0
  0
LINE
  5
7e
  100
AcDbEntity
  8
1
  100
AcDbLine
  10
69
  20
-1.646222
  30
0
  11
69.1
  21
-1.588512
  31
0
  0
LINE
  5
7f
  100
AcDbEntity
  8
1
  100
AcDbLine
  10
69.1
  20
-1.588512
  30
0
  11
69.2
  21
-1.521471
  31
0
  0
LINE
  5
80
  100
AcDbEntity
  8
1
  100
AcDbLine
  10
69.2
  20
-1.521471
  30
0
  11
69.3
  21
-1.443792
  31
0
  0
LINE
  5
81
  100
AcDbEntity
  8
1
  100
AcDbLine
  10
69.3
  20
-1.443792
  30
0
  11
69.4
  21
-1.35364
  31
0
  0
LINE
  5
82
  100
AcDbEntity
  8
1
  100
AcDbLine
  10
69.4
  20
-1.35364
  30
0
  11
69.5
  21
-1.251837
  31
0
  0
LINE
  5
83
  100
AcDbEntity
  8
1
  100
AcDbLine
  10
69.5
  20
-1.251837
  30
0
  11
69.6
  21
-1.141342
  31
0
  0
LINE
  5
84
  100
AcDbEntity
  8
1
  100
AcDbLine
  10
69.6
  20
-1.141342
  30
0
  11
69.7
  21
-1.022857
  31
0
  0
LINE
  5
85
  100
AcDbEntity
  8
1
  100
AcDbLine
  10
69.683317
  20
-1.08002
  30
0
  11
69.6
  21
-1.194592
  31
0
  0
LINE
  5
86
  100
AcDbEntity
  8
1
  100
AcDbLine
  10
69.6
  20
-1.194592
  30
0
  11
69.5
  21
-1.311757
  31
0
  0
LINE
  5
87
  100
AcDbEntity
  8
1
  100
AcDbLine
  10
69.5
  20
-1.311757
  30
0
  11
69.4
  21
-1.414923
  31
0
  0
LINE
  5
88
  100
AcDbEntity
  8
1
  100
AcDbLine
  10
69.4
  20
-1.414923
  30
0
  11
69.3
  21
-1.505349
  31
0
  0
LINE
  5
89
  100
AcDbEntity
  8
1
  100
AcDbLine
  10
69.3
  20
-1.505349
  30
0
  11
69.2
  21
-1.583803
  31
0
  0
LINE
  5
8a
  100
AcDbEntity
  8
1
  100
AcDbLine
  10
69.2
  20
-1.583803
  30
0
  11
69.1
  21
-1.651977
  31
0
  0
LINE
  5
8b
  100
AcDbEntity
  8
1
  100
AcDbLine
  10
69.1
  20
-1.651977
  30
0
  11
69
  21
-1.711085
  31
0
  0
LINE
  5
8c
  100
AcDbEntity
  8
1
  100
AcDbLine
  10
69
  20
-1.711085
  30
0
  11
68.9
  21
-1.762026
  31
0
  0
LINE
  5
8d
  100
AcDbEntity
  8
1
  100
AcDbLine
  10
68.9
  20
-1.762026
  30
0
  11
68.8
  21
-1.805484
  31
0
  0
LINE
  5
8e
  100
AcDbEntity
  8
1
  100
AcDbLine
  10
68.8
  20
-1.805484
  30
0
  11
68.7
  21
-1.84199
  31
0
  0
LINE
  5
8f
  100
AcDbEntity
  8
1
  100
AcDbLine
  10
68.7
  20
-1.84199
  30
0
  11
68.6
  21
-1.871958
  31
0
  0
LINE
  5
90
  100
AcDbEntity
  8
1
  100
AcDbLine
  10
68.6
  20
-1.871958
  30
0
  11
68.5
  21
-1.895717
  31
0
  0
LINE
  5
91
  100
AcDbEntity
  8
1
  100
AcDbLine
  10
68.5
  20
-1.895717
  30
0
  11
68.4
  21
-1.913526
  31
0
  0
LINE
  5
92
  100
AcDbEntity
  8
1
  100
AcDbLine
  10
68.4
  20
-1.913526
  30
0
  11
68.3
  21
-1.925586
  31
0
  0
LINE
  5
93
  100
AcDbEntity
  8
1
  100
AcDbLine
  10
68.3
  20
-1.925586
  30
0
  11
68.2
  21
-1.932054
  31
0
  0
LINE
  5
94
  100
AcDbEntity
  8
1
  100
AcDbLine
  10
68.2
  20
-1.932054
  30
0
  11
68.1
  21
-1.933043
  31
0
  0
LINE
  5
95
  100
AcDbEntity
  8
1
  100
AcDbLine
  10
68.1
  20
-1.933043
  30
0
  11
68
  21
-1.928632
  31
0
  0
LINE
  5
96
  100
AcDbEntity
  8
1
  100
AcDbLine
  10
68
  20
-1.928632
  30
0
  11
67.9
  21
-1.921365
  31
0
  0
LINE
  5
97
  100
AcDbEntity
  8
1
  100
AcDbLine
  10
67.9
  20
-1.921365
  30
0
  11
67.8
  21
-1.913753
  31
0
  0
LINE
  5
98
  100
AcDbEntity
  8
1
  100
AcDbLine
  10
67.8
  20
-1.913753
  30
0
  11
67.7
  21
-1.905798
  31
0
  0
LINE
  5
99
  100
AcDbEntity
  8
1
  100
AcDbLine
  10
67.7
  20
-1.905798
  30
0
  11
67.6
  21
-1.8975
  31
0
  0
LINE
  5
9a
  100
AcDbEntity
  8
1
  100
AcDbLine
  10
67.6
  20
-1.8975
  30
0
  11
67.5
  21
-1.888862
  31
0
  0
LINE
  5
9b
  100
AcDbEntity
  8
1
  100
AcDbLine
  10
67.5
  20
-1.888862
  30
0
  11
67.4
  21
-1.879885
  31
0
  0
LINE
  5
9c
  100
AcDbEntity
  8
1
  100
AcDbLine
  10
67.4
  20
-1.879885
  30
0
  11
67.3
  21
-1.870571
  31
0
  0
LINE
  5
9d
  100
AcDbEntity
  8
1
  100
AcDbLine
  10
67.3
  20
-1.870571
  30
0
  11
67.2
  21
-1.860921
  31
0
  0
LINE
  5
9e
  100
AcDbEntity
  8
1
  100
AcDbLine
  10
67.2
  20
-1.860921
  30
0
  11
67.1
  21
-1.850937
  31
0
  0
LINE
  5
9f
  100
AcDbEntity
  8
1
  100
AcDbLine
  10
67.1
  20
-1.850937
  30
0
  11
67
  21
-1.84062
  31
0
  0
LINE
  5
a0
  100
AcDbEntity
  8
1
  100
AcDbLine
  10
67
  20
-1.84062
  30
0
  11
67
  21
-1.703978
  31
0
  0
LINE
  5
a1
  100
AcDbEntity
  8
1
  100
AcDbLine
  10
67
  20
-1.703978
  30
0
  11
66.9
  21
-1.693835
  31
0
  0
LINE
  5
a2
  100
AcDbEntity
  8
1
  100
AcDbLine
  10
66.9
  20
-1.693835
  30
0
  11
66.8
  21
-1.683844
  31
0
  0
LINE
  5
a3
  100
AcDbEntity
  8
1
  100
AcDbLine
  10
66.8
  20
-1.683844
  30
0
  11
66.7
  21
-1.728788
  31
0
  0
LINE
  5
a4
  100
AcDbEntity
  8
1
  100
AcDbLine
  10
66.7
  20
-1.728788
  30
0
  11
66.7
  21
-1.86
  31
0
  0
LINE
  5
a5
  100
AcDbEntity
  8
1
  100
AcDbLine
  10
50.81
  20
-1.86
  30
0
  11
50.81
  21
1.86
  31
0
  0
LINE
  5
a6
  100
AcDbEntity
  8
1
  100
AcDbLine
  10
50.638337
  20
1.890269
  30
0
  11
50.638337
  21
-1.890269
  31
0
  0
LINE
  5
a7
  100
AcDbEntity
  8
1
  100
AcDbLine
  10
46.496764
  20
3
  30
0
  11
46.496764
  21
-3
  31
0
  0
LINE
  5
a8
  100
AcDbEntity
  8
1
  100
AcDbLine
  10
46
  20
-3
  30
0
  11
46
  21
3
  31
0
  0
LINE
  5
a9
  100
AcDbEntity
  8
1
  100
AcDbLine
  10
46
  20
3
  30
0
  11
46
  21
-3
  31
0
  0
LINE
  5
aa
  100
AcDbEntity
  8
SK1
  100
AcDbLine
  10
46
  20
3
  30
0
  11
0.7
  21
3
  31
0
  0
LINE
  5
ab
  100
AcDbEntity
  8
SK1
  100
AcDbLine
  10
0.7
  20
3
  30
0
  11
0
  21
2.3
  31
0
  0
LINE
  5
ac
  100
AcDbEntity
  8
SK1
  100
AcDbLine
  10
46
  20
-3
  30
0
  11
0.7
  21
-3
  31
0
  0
LINE
  5
ad
  100
AcDbEntity
  8
SK1
  100
AcDbLine
  10
0.7
  20
-3
  30
0
  11
0
  21
-2.3
  31
0
  0
LINE
  5
ae
  100
AcDbEntity
  8
SK1
  100
AcDbLine
  10
0.7
  20
3
  30
0
  11
0.7
  21
-3
  31
0
  0
LINE
  5
af
  100
AcDbEntity
  8
SK1
  100
AcDbLine
  10
0
  20
2.3
  30
0
  11
0
  21
-2.3
  31
0
  0
LINE
  5
b0
  100
AcDbEntity
  8
SK1
  100
AcDbLine
  10
47.0401
  20
1.40688
  30
0
  11
47.4069
  21
1.0401
  31
0
  0
LINE
  5
b1
  100
AcDbEntity
  8
SK1
  100
AcDbLine
  10
46.5328
  20
1.66666
  30
0
  11
47.6667
  21
0.532833
  31
0
  0
LINE
  5
b2
  100
AcDbEntity
  8
SK1
  100
AcDbLine
  10
46.2154
  20
1.73657
  30
0
  11
47.7366
  21
0.215434
  31
0
  0
LINE
  5
b3
  100
AcDbEntity
  8
SK1
  100
AcDbLine
  10
46
  20
1.70452
  30
0
  11
47.7045
  21
0
  31
0
  0
LINE
  5
b4
  100
AcDbEntity
  8
SK1
  100
AcDbLine
  10
46
  20
1.45703
  30
0
  11
47.457
  21
0
  31
0
  0
LINE
  5
b5
  100
AcDbEntity
  8
SK1
  100
AcDbLine
  10
46
  20
1.20954
  30
0
  11
47.2095
  21
0
  31
0
  0
LINE
  5
b6
  100
AcDbEntity
  8
SK1
  100
AcDbLine
  10
46
  20
0.962054
  30
0
  11
46.9621
  21
0
  31
0
  0
LINE
  5
b7
  100
AcDbEntity
  8
SK1
  100
AcDbLine
  10
46
  20
0.714566
  30
0
  11
46.7146
  21
0
  31
0
  0
LINE
  5
b8
  100
AcDbEntity
  8
SK1
  100
AcDbLine
  10
46
  20
0.467079
  30
0
  11
46.4671
  21
0
  31
0
  0
LINE
  5
b9
  100
AcDbEntity
  8
SK1
  100
AcDbLine
  10
46
  20
0.219592
  30
0
  11
46.2196
  21
0
  31
0
  0
LINE
  5
ba
  100
AcDbEntity
  8
SK1
  100
AcDbLine
  10
46
  20
1.70452
  30
0
  11
46.0441
  21
1.74861
  31
0
  0
LINE
  5
bb
  100
AcDbEntity
  8
SK1
  100
AcDbLine
  10
46
  20
1.45703
  30
0
  11
46.271
  21
1.72802
  31
0
  0
LINE
  5
bc
  100
AcDbEntity
  8
SK1
  100
AcDbLine
  10
46
  20
1.20954
  30
0
  11
46.4742
  21
1.6837
  31
0
  0
LINE
  5
bd
  100
AcDbEntity
  8
SK1
  100
AcDbLine
  10
46
  20
0.962054
  30
0
  11
46.6588
  21
1.62082
  31
0
  0
LINE
  5
be
  100
AcDbEntity
  8
SK1
  100
AcDbLine
  10
46
  20
0.714566
  30
0
  11
46.8271
  21
1.54167
  31
0
  0
LINE
  5
bf
  100
AcDbEntity
  8
SK1
  100
AcDbLine
  10
46
  20
0.467079
  30
0
  11
46.981
  21
1.44812
  31
0
  0
LINE
  5
c0
  100
AcDbEntity
  8
SK1
  100
AcDbLine
  10
46
  20
0.219592
  30
0
  11
47.1226
  21
1.34216
  31
0
  0
LINE
  5
c1
  100
AcDbEntity
  8
SK1
  100
AcDbLine
  10
46.0279
  20
0
  30
0
  11
47.2508
  21
1.22288
  31
0
  0
LINE
  5
c2
  100
AcDbEntity
  8
SK1
  100
AcDbLine
  10
46.2754
  20
0
  30
0
  11
47.367
  21
1.09157
  31
0
  0
LINE
  5
c3
  100
AcDbEntity
  8
SK1
  100
AcDbLine
  10
46.5229
  20
0
  30
0
  11
47.4707
  21
0.947822
  31
0
  0
LINE
  5
c4
  100
AcDbEntity
  8
SK1
  100
AcDbLine
  10
46.7704
  20
0
  30
0
  11
47.5605
  21
0.790145
  31
0
  0
LINE
  5
c5
  100
AcDbEntity
  8
SK1
  100
AcDbLine
  10
47.0178
  20
0
  30
0
  11
47.6364
  21
0.618517
  31
0
  0
LINE
  5
c6
  100
AcDbEntity
  8
SK1
  100
AcDbLine
  10
47.2653
  20
0
  30
0
  11
47.696
  21
0.430696
  31
0
  0
LINE
  5
c7
  100
AcDbEntity
  8
SK1
  100
AcDbLine
  10
47.5128
  20
0
  30
0
  11
47.7356
  21
0.222827
  31
0
  0
LINE
  5
c8
  100
AcDbEntity
  8
SK1
  100
AcDbLine
  10
46
  20
0
  30
0
  11
46
  21
1.75
  31
0
  0
LINE
  5
c9
  100
AcDbEntity
  8
SK1
  100
AcDbLine
  10
46
  20
0
  30
0
  11
47.75
  21
0
  31
0
  0
ARC
  5
ca
  100
AcDbEntity
  8
SK1
  100
AcDbCircle
  10
46
  20
0
  30
0
  40
1.75
  100
AcDbArc
  50
0
  51
90
  0
ARC
  5
cb
  100
AcDbEntity
  8
SK1
  100
AcDbCircle
  10
46
  20
0
  30
0
  40
1.75
  100
AcDbArc
  50
90
  51
180
  0
LINE
  5
cc
  100
AcDbEntity
  8
SK1
  100
AcDbLine
  10
45.9721
  20
0
  30
0
  11
46
  21
-0.027896
  31
0
  0
LINE
  5
cd
  100
AcDbEntity
  8
SK1
  100
AcDbLine
  10
45.7246
  20
0
  30
0
  11
46
  21
-0.275383
  31
0
  0
LINE
  5
ce
  100
AcDbEntity
  8
SK1
  100
AcDbLine
  10
45.4771
  20
0
  30
0
  11
46
  21
-0.522871
  31
0
  0
LINE
  5
cf
  100
AcDbEntity
  8
SK1
  100
AcDbLine
  10
45.2296
  20
0
  30
0
  11
46
  21
-0.770358
  31
0
  0
LINE
  5
d0
  100
AcDbEntity
  8
SK1
  100
AcDbLine
  10
44.9822
  20
0
  30
0
  11
46
  21
-1.01785
  31
0
  0
LINE
  5
d1
  100
AcDbEntity
  8
SK1
  100
AcDbLine
  10
44.7347
  20
0
  30
0
  11
46
  21
-1.26533
  31
0
  0
LINE
  5
d2
  100
AcDbEntity
  8
SK1
  100
AcDbLine
  10
44.4872
  20
0
  30
0
  11
46
  21
-1.51282
  31
0
  0
LINE
  5
d3
  100
AcDbEntity
  8
SK1
  100
AcDbLine
  10
44.2503
  20
-0.010642
  30
0
  11
45.9894
  21
-1.74967
  31
0
  0
LINE
  5
d4
  100
AcDbEntity
  8
SK1
  100
AcDbLine
  10
44.2736
  20
-0.281429
  30
0
  11
45.7186
  21
-1.72637
  31
0
  0
LINE
  5
d5
  100
AcDbEntity
  8
SK1
  100
AcDbLine
  10
44.3639
  20
-0.619147
  30
0
  11
45.3809
  21
-1.63613
  31
0
  0
LINE
  5
d6
  100
AcDbEntity
  8
SK1
  100
AcDbLine
  10
44.2514
  20
-0.044098
  30
0
  11
44.2955
  21
0
  31
0
  0
LINE
  5
d7
  100
AcDbEntity
  8
SK1
  100
AcDbLine
  10
44.272
  20
-0.270991
  30
0
  11
44.543
  21
0
  31
0
  0
LINE
  5
d8
  100
AcDbEntity
  8
SK1
  100
AcDbLine
  10
44.3163
  20
-0.474162
  30
0
  11
44.7905
  21
0
  31
0
  0
LINE
  5
d9
  100
AcDbEntity
  8
SK1
  100
AcDbLine
  10
44.3792
  20
-0.658762
  30
0
  11
45.0379
  21
0
  31
0
  0
LINE
  5
da
  100
AcDbEntity
  8
SK1
  100
AcDbLine
  10
44.4583
  20
-0.827105
  30
0
  11
45.2854
  21
0
  31
0
  0
LINE
  5
db
  100
AcDbEntity
  8
SK1
  100
AcDbLine
  10
44.5519
  20
-0.981039
  30
0
  11
45.5329
  21
0
  31
0
  0
LINE
  5
dc
  100
AcDbEntity
  8
SK1
  100
AcDbLine
  10
44.6578
  20
-1.12257
  30
0
  11
45.7804
  21
0
  31
0
  0
LINE
  5
dd
  100
AcDbEntity
  8
SK1
  100
AcDbLine
  10
44.7771
  20
-1.25077
  30
0
  11
46
  21
-0.027896
  31
0
  0
LINE
  5
de
  100
AcDbEntity
  8
SK1
  100
AcDbLine
  10
44.9084
  20
-1.36695
  30
0
  11
46
  21
-0.275383
  31
0
  0
LINE
  5
df
  100
AcDbEntity
  8
SK1
  100
AcDbLine
  10
45.0522
  20
-1.47069
  30
0
  11
46
  21
-0.522871
  31
0
  0
LINE
  5
e0
  100
AcDbEntity
  8
SK1
  100
AcDbLine
  10
45.2099
  20
-1.5605
  30
0
  11
46
  21
-0.770358
  31
0
  0
LINE
  5
e1
  100
AcDbEntity
  8
SK1
  100
AcDbLine
  10
45.3815
  20
-1.63636
  30
0
  11
46
  21
-1.01785
  31
0
  0
LINE
  5
e2
  100
AcDbEntity
  8
SK1
  100
AcDbLine
  10
45.5693
  20
-1.69603
  30
0
  11
46
  21
-1.26533
  31
0
  0
LINE
  5
e3
  100
AcDbEntity
  8
SK1
  100
AcDbLine
  10
45.7772
  20
-1.73565
  30
0
  11
46
  21
-1.51282
  31
0
  0
LINE
  5
e4
  100
AcDbEntity
  8
SK1
  100
AcDbLine
  10
46
  20
0
  30
0
  11
44.25
  21
0
  31
0
  0
LINE
  5
e5
  100
AcDbEntity
  8
SK1
  100
AcDbLine
  10
46
  20
-1.75
  30
0
  11
46
  21
0
  31
0
  0
ARC
  5
e6
  100
AcDbEntity
  8
SK1
  100
AcDbCircle
  10
46
  20
0
  30
0
  40
1.75
  100
AcDbArc
  50
180
  51
270
  0
ARC
  5
e7
  100
AcDbEntity
  8
SK1
  100
AcDbCircle
  10
46
  20
0
  30
0
  40
1.75
  100
AcDbArc
  50
270
  51
0
  0
LINE
  5
162
  100
AcDbEntity
  8
NOCUT
  100
AcDbLine
  10
67
  20
0
  30
0
  11
67
  21
1.86
  31
0
  0
LINE
  5
163
  100
AcDbEntity
  8
NOCUT
  100
AcDbLine
  10
67
  20
1.86
  30
0
  11
50.81
  21
1.86
  31
0
  0
ARC
  5
164
  100
AcDbEntity
  8
NOCUT
  100
AcDbCircle
  10
50.897156
  20
2.856195
  30
0
  40
1
  100
AcDbArc
  50
255
  51
265
  0
LINE
  5
165
  100
AcDbEntity
  8
NOCUT
  100
AcDbLine
  10
50.638337
  20
1.890269
  30
0
  11
46.496764
  21
3
  31
0
  0
LINE
  5
166
  100
AcDbEntity
  8
NOCUT
  100
AcDbLine
  10
46.496764
  20
3
  30
0
  11
46
  21
3
  31
0
  0
LINE
  5
167
  100
AcDbEntity
  8
NOCUT
  100
AcDbLine
  10
46
  20
3
  30
0
  11
46
  21
0
  31
0
  0
LINE
  5
168
  100
AcDbEntity
  8
NOCUT
  100
AcDbLine
  10
46
  20
0
  30
0
  11
67
  21
0
  31
0
  0
ARC
  5
169
  100
AcDbEntity
  8
CUT
  100
AcDbCircle
  10
68
  20
0
  30
0
  40
2
  100
AcDbArc
  50
0
  51
90
  0
LINE
  5
16a
  100
AcDbEntity
  8
CUT
  100
AcDbLine
  10
68
  20
2
  30
0
  11
67
  21
2
  31
0
  0
LINE
  5
16b
  100
AcDbEntity
  8
CUT
  100
AcDbLine
  10
67
  20
2
  30
0
  11
67
  21
0
  31
0
  0
LINE
  5
16c
  100
AcDbEntity
  8
CUT
  100
AcDbLine
  10
67
  20
0
  30
0
  11
70
  21
0
  31
0
  0
LINE
  5
16d
  100
AcDbEntity
  8
4
  100
AcDbLine
  10
46
  20
0
  30
0
  11
70
  21
0
  31
0
  0
LINE
  5
16e
  100
AcDbEntity
  8
SK4
  100
AcDbLine
  10
-1
  20
0
  30
0
  11
71
  21
0
  31
0
  0
LINE
  5
16f
  100
AcDbEntity
  8
INFTOTAL
  100
AcDbLine
  10
-16.7
  20
24.7
  30
0
  11
86.7
  21
24.7
  31
0
  0
LINE
  5
170
  100
AcDbEntity
  8
INFTOTAL
  100
AcDbLine
  10
86.7
  20
24.7
  30
0
  11
86.7
  21
-19.7
  31
0
  0
LINE
  5
171
  100
AcDbEntity
  8
INFTOTAL
  100
AcDbLine
  10
86.7
  20
-19.7
  30
0
  11
-16.7
  21
-19.7
  31
0
  0
LINE
  5
172
  100
AcDbEntity
  8
INFTOTAL
  100
AcDbLine
  10
-16.7
  20
-19.7
  30
0
  11
-16.7
  21
24.7
  31
0
  0
ENDSEC
  0
SECTION
  2
OBJECTS
  0
DICTIONARY
  5
173
  330
0
100
AcDbDictionary
281
    1
  3
ACAD_GROUP
  350
174
  0
DICTIONARY
  5
174
102
{ACAD_REACTORS
  330
173
102
}
  330
173
100
AcDbDictionary
281
    1
  0
ENDSEC
  0
EOF
