  0
SECTION
  2
HEADER
  9
$ACADVER
  1
AC1015
  9
$DWGCODEPAGE
  3
ANSI_932
  9
$HANDSEED
  5
106AB90
  0
ENDSEC
  0
SECTION
  2
CLASSES
  0
CLASS
  1
IMAGEDEF
  2
AcDbRasterImageDef
  3
ISM
  90
0
  91
4
  280
0
  281
0
  0
CLASS
  1
IMAGE
  2
AcDbRasterImage
  3
ISM
  90
127
  91
5
  280
0
  281
1
  0
CLASS
  1
IMAGEDEF_REACTOR
  2
AcDbRasterImageDefReactor
  3
ISM
  90
1
  91
4
  280
0
  281
0
  0
ENDSEC
  0
SECTION
  2
TABLES
  0
TABLE
  2
VPORT
  5
2
  330
0
  100
AcDbSymbolTable
  70
    0
  0
ENDTAB
  0
TABLE
  2
LTYPE
  5
3
  330
0
  100
AcDbSymbolTable
  70
    4
  0
LTYPE
  5
4
  330
3
  100
AcDbSymbolTableRecord
  100
AcDbLinetypeTableRecord
  2
ByBlock
  70
    0
  3

  72
65
  73
    0
  40
0
  0
LTYPE
  5
5
  330
3
  100
AcDbSymbolTableRecord
  100
AcDbLinetypeTableRecord
  2
ByLayer
  70
    0
  3

  72
65
  73
    0
  40
0
  0
LTYPE
  5
6
  330
3
  100
AcDbSymbolTableRecord
  100
AcDbLinetypeTableRecord
  2
CONTINUOUS
  70
    0
  3
Solid Line
  72
65
  73
    0
  40
0
  0
LTYPE
  5
7
  330
3
  100
AcDbSymbolTableRecord
  100
AcDbLinetypeTableRecord
  2
DASH
  70
    0
  3
Hidden
  72
65
  73
2
  40
2.5
  49
1.5
  74
0
  49
-1
  74
0
  0
LTYPE
  5
8
  330
3
  100
AcDbSymbolTableRecord
  100
AcDbLinetypeTableRecord
  2
LONGDASHDASH
  70
    0
  3
__ . __
  72
65
  73
    4
  40
7
  49
4
  74
    0
  49
-1
  74
    0
  49
1
  74
    0
  49
-1
  74
    0
  0
ENDTAB
  0
TABLE
  2
LAYER
  5
9
  330
0
  100
AcDbSymbolTable
  70
    40
  0
LAYER
  5
a
  330
9
  100
AcDbSymbolTableRecord
  100
AcDbLayerTableRecord
  2
0
  70
    0
  62
    0
  6
CONTINUOUS
  390
0
  0
LAYER
  5
c
  330
9
  100
AcDbSymbolTableRecord
  100
AcDbLayerTableRecord
  2
1
  70
    0
  62
    4
  6
CONTINUOUS
  370
50
  390
0
  0
LAYER
  5
d
  330
9
  100
AcDbSymbolTableRecord
  100
AcDbLayerTableRecord
  2
2
  70
    0
  62
    7
  6
CONTINUOUS
  370
25
  390
0
  0
LAYER
  5
f
  330
9
  100
AcDbSymbolTableRecord
  100
AcDbLayerTableRecord
  2
4
  70
    0
  62
    2
  6
LONGDASHDASH
  370
25
  390
0
  0
LAYER
  5
13
  330
9
  100
AcDbSymbolTableRecord
  100
AcDbLayerTableRecord
  2
SK1
  70
    0
  62
    4
  6
CONTINUOUS
  370
50
  390
0
  0
LAYER
  5
14
  330
9
  100
AcDbSymbolTableRecord
  100
AcDbLayerTableRecord
  2
SK2
  70
    0
  62
    7
  6
CONTINUOUS
  370
25
  390
0
  0
LAYER
  5
16
  330
9
  100
AcDbSymbolTableRecord
  100
AcDbLayerTableRecord
  2
SK4
  70
    0
  62
    2
  6
LONGDASHDASH
  370
25
  390
0
  0
LAYER
  5
21
  330
9
  100
AcDbSymbolTableRecord
  100
AcDbLayerTableRecord
  2
NOCUT
  70
    0
  62
    7
  6
CONTINUOUS
  370
25
  390
0
  0
LAYER
  5
22
  330
9
  100
AcDbSymbolTableRecord
  100
AcDbLayerTableRecord
  2
CUT
  70
    0
  62
    1
  6
CONTINUOUS
  370
25
  390
0
  0
LAYER
  5
26
  330
9
  100
AcDbSymbolTableRecord
  100
AcDbLayerTableRecord
  2
INFTOTAL
  70
    0
  62
    9
  6
CONTINUOUS
  370
18
  390
0
  0
ENDTAB
  0
TABLE
  2
STYLE
  5
27
  330
0
  100
AcDbSymbolTable
  70
    1
  0
STYLE
  5
28
  330
27
  100
AcDbSymbolTableRecord
  100
AcDbTextStyleTableRecord
  2
Monospac821 BT
  70
    0
  40
    3.5
  41
1
  50
0
  71
0
  42
3
  3

  4

  1001
ACAD
  1000
Monospac821 BT
  1071
256
  0
ENDTAB
  0
TABLE
  2
VIEW
  5
29
  330
0
  100
AcDbSymbolTable
  70
    0
  0
ENDTAB
  0
TABLE
  2
UCS
  5
2a
  330
0
  100
AcDbSymbolTable
  70
    0
  0
ENDTAB
  0
TABLE
  2
APPID
  5
2b
  330
0
  100
AcDbSymbolTable
  70
    1
  0
APPID
  5
2c
  330
2b
  100
AcDbSymbolTableRecord
  100
AcDbRegAppTableRecord
  2
ACAD
  70
    0
  0
ENDTAB
  0
TABLE
  2
DIMSTYLE
  5
2d
  330
0
  100
AcDbSymbolTable
  70
    1
  100
AcDbDimStyleTable
  0
DIMSTYLE
  105
2e
  330
2d
  100
AcDbSymbolTableRecord
  100
AcDbDimStyleTableRecord
  2
STANDARD
  70
    0
  41
    3
  42
0.5
  44
1
  73
0
  77
1
  78
1
  140
3.5
  141
2.5
  143
0.03937
  147
0.8
  172
1
  174
1
  178
0
  179
1
  271
2
  279
1
  284
1
  340
28
  0
ENDTAB
  0
TABLE
  2
BLOCK_RECORD
  5
2f
  330
0
  100
AcDbSymbolTable
  70
    2
  0
BLOCK_RECORD
  5
30
  330
2f
  100
AcDbSymbolTableRecord
  100
AcDbBlockTableRecord
  2
*Model_Space
  0
BLOCK_RECORD
  5
31
  330
2f
  100
AcDbSymbolTableRecord
  100
AcDbBlockTableRecord
  2
*Paper_Space
  0
BLOCK_RECORD
  5
fd
  330
2f
  100
AcDbSymbolTableRecord
  100
AcDbBlockTableRecord
  2
*Dfc
  340
0
  0
BLOCK_RECORD
  5
10b
  330
2f
  100
AcDbSymbolTableRecord
  100
AcDbBlockTableRecord
  2
*D10a
  340
0
  0
BLOCK_RECORD
  5
119
  330
2f
  100
AcDbSymbolTableRecord
  100
AcDbBlockTableRecord
  2
*D118
  340
0
  0
BLOCK_RECORD
  5
127
  330
2f
  100
AcDbSymbolTableRecord
  100
AcDbBlockTableRecord
  2
*D126
  340
0
  0
BLOCK_RECORD
  5
135
  330
2f
  100
AcDbSymbolTableRecord
  100
AcDbBlockTableRecord
  2
*D134
  340
0
  0
BLOCK_RECORD
  5
13f
  330
2f
  100
AcDbSymbolTableRecord
  100
AcDbBlockTableRecord
  2
*D13e
  340
0
  0
BLOCK_RECORD
  5
14d
  330
2f
  100
AcDbSymbolTableRecord
  100
AcDbBlockTableRecord
  2
*D14c
  340
0
  0
BLOCK_RECORD
  5
15b
  330
2f
  100
AcDbSymbolTableRecord
  100
AcDbBlockTableRecord
  2
*D15a
  340
0
  0
ENDTAB
  0
ENDSEC
  0
SECTION
  2
BLOCKS
  0
BLOCK
  5
32
  330
30
  100
AcDbEntity
  8
0
  100
AcDbBlockBegin
  2
*Model_Space
  70
    0
  10
0
  20
0
  30
0
  3
*Model_Space
  1

  0
ENDBLK
  5
33
  330
30
  100
AcDbEntity
  8
0
  100
AcDbBlockEnd
  0
BLOCK
  5
34
  330
31
  100
AcDbEntity
  8
0
  100
AcDbBlockBegin
  2
*Paper_Space
  70
    0
  10
0
  20
0
  30
0
  3
*Paper_Space
  1

  0
ENDBLK
  5
35
  330
31
  100
AcDbEntity
  8
0
  100
AcDbBlockEnd
  0
BLOCK
  5
fb
  330
fd
  100
AcDbEntity
  8
SK2
  100
AcDbBlockBegin
  2
*Dfc
  70
1
  10
0
  20
0
  30
0
  3
*Dfc
  1

  0
LINE
  5
fe
  330
fd
  100
AcDbEntity
  8
SK2
  100
AcDbLine
  10
0
  20
2.3
  30
0
  11
0
  21
20
  31
0
  0
LINE
  5
ff
  330
fd
  100
AcDbEntity
  8
SK2
  100
AcDbLine
  10
90
  20
-15
  30
0
  11
90
  21
20
  31
0
  0
LINE
  5
100
  330
fd
  100
AcDbEntity
  8
SK2
  100
AcDbLine
  10
0
  20
18
  30
0
  11
90
  21
18
  31
0
  0
SOLID
  5
101
  330
fd
  100
AcDbEntity
  8
SK2
  100
AcDbTrace
  10
0
  20
18
  30
0
  11
2.478612
  21
18.326315
  31
0
  12
2.478612
  22
17.673685
  32
0
  13
2.478612
  23
17.673685
  33
0
  0
SOLID
  5
102
  330
fd
  100
AcDbEntity
  8
SK2
  100
AcDbTrace
  10
90
  20
18
  30
0
  11
87.521388
  21
17.673685
  31
0
  12
87.521388
  22
18.326315
  32
0
  13
87.521388
  23
18.326315
  33
0
  0
MTEXT
  5
103
  330
fd
  100
AcDbEntity
  8
SK2
  100
AcDbMText
  10
45
  20
18
  30
0
  11
1
  21
0
  31
0
  40
2
  41
0
  71
8
  72
1
  1
90
  0
POINT
  5
104
  330
fd
  100
AcDbEntity
  8
SK2
  62
0
  100
AcDbPoint
  10
0
  20
2.3
  30
0
  0
POINT
  5
105
  330
fd
  100
AcDbEntity
  8
SK2
  62
0
  100
AcDbPoint
  10
90
  20
-15
  30
0
  0
POINT
  5
106
  330
fd
  100
AcDbEntity
  8
SK2
  62
0
  100
AcDbPoint
  10
90
  20
18
  30
0
  0
ENDBLK
  5
107
  330
fd
  100
AcDbEntity
  8
SK2
  100
AcDbBlockEnd
  0
BLOCK
  5
109
  330
10b
  100
AcDbEntity
  8
SK2
  100
AcDbBlockBegin
  2
*D10a
  70
1
  10
0
  20
0
  30
0
  3
*D10a
  1

  0
LINE
  5
10c
  330
10b
  100
AcDbEntity
  8
SK2
  100
AcDbLine
  10
85.499
  20
2.3
  30
0
  11
85.499
  21
11.460128
  31
0
  0
LINE
  5
10d
  330
10b
  100
AcDbEntity
  8
SK2
  100
AcDbLine
  10
59.999
  20
3
  30
0
  11
59.999
  21
11.460128
  31
0
  0
LINE
  5
10e
  330
10b
  100
AcDbEntity
  8
SK2
  100
AcDbLine
  10
85.499
  20
9.460128
  30
0
  11
56.268564
  21
9.460128
  31
0
  0
SOLID
  5
10f
  330
10b
  100
AcDbEntity
  8
SK2
  100
AcDbTrace
  10
85.499
  20
9.460128
  30
0
  11
87.977612
  21
9.786443
  31
0
  12
87.977612
  22
9.133812
  32
0
  13
87.977612
  23
9.133812
  33
0
  0
SOLID
  5
110
  330
10b
  100
AcDbEntity
  8
SK2
  100
AcDbTrace
  10
59.999
  20
9.460128
  30
0
  11
57.520388
  21
9.133812
  31
0
  12
57.520388
  22
9.786443
  32
0
  13
57.520388
  23
9.786443
  33
0
  0
MTEXT
  5
111
  330
10b
  100
AcDbEntity
  8
SK2
  100
AcDbMText
  10
59.518304
  20
9.460128
  30
0
  11
1
  21
-0
  31
0
  40
2
  41
0
  71
8
  72
1
  1
25.5
  0
POINT
  5
112
  330
10b
  100
AcDbEntity
  8
SK2
  62
0
  100
AcDbPoint
  10
85.499
  20
2.3
  30
0
  0
POINT
  5
113
  330
10b
  100
AcDbEntity
  8
SK2
  62
0
  100
AcDbPoint
  10
59.999
  20
3
  30
0
  0
POINT
  5
114
  330
10b
  100
AcDbEntity
  8
SK2
  62
0
  100
AcDbPoint
  10
56.268564
  20
9.460128
  30
0
  0
ENDBLK
  5
115
  330
10b
  100
AcDbEntity
  8
SK2
  100
AcDbBlockEnd
  0
BLOCK
  5
117
  330
119
  100
AcDbEntity
  8
SK2
  100
AcDbBlockBegin
  2
*D118
  70
1
  10
0
  20
0
  30
0
  3
*D118
  1

  0
LINE
  5
11a
  330
119
  100
AcDbEntity
  8
SK2
  100
AcDbLine
  10
60
  20
3
  30
0
  11
60
  21
15
  31
0
  0
LINE
  5
11b
  330
119
  100
AcDbEntity
  8
SK2
  100
AcDbLine
  10
0
  20
2.3
  30
0
  11
0
  21
20
  31
0
  0
LINE
  5
11c
  330
119
  100
AcDbEntity
  8
SK2
  100
AcDbLine
  10
60
  20
13
  30
0
  11
0
  21
13
  31
0
  0
SOLID
  5
11d
  330
119
  100
AcDbEntity
  8
SK2
  100
AcDbTrace
  10
60
  20
13
  30
0
  11
62.478612
  21
13.326315
  31
0
  12
62.478612
  22
12.673685
  32
0
  13
62.478612
  23
12.673685
  33
0
  0
SOLID
  5
11e
  330
119
  100
AcDbEntity
  8
SK2
  100
AcDbTrace
  10
0
  20
13
  30
0
  11
-2.478612
  21
12.673685
  31
0
  12
-2.478612
  22
13.326315
  32
0
  13
-2.478612
  23
13.326315
  33
0
  0
MTEXT
  5
11f
  330
119
  100
AcDbEntity
  8
SK2
  100
AcDbMText
  10
30
  20
13
  30
0
  11
1
  21
-0
  31
0
  40
2
  41
0
  71
8
  72
1
  1
60
  0
POINT
  5
120
  330
119
  100
AcDbEntity
  8
SK2
  62
0
  100
AcDbPoint
  10
60
  20
3
  30
0
  0
POINT
  5
121
  330
119
  100
AcDbEntity
  8
SK2
  62
0
  100
AcDbPoint
  10
0
  20
2.3
  30
0
  0
POINT
  5
122
  330
119
  100
AcDbEntity
  8
SK2
  62
0
  100
AcDbPoint
  10
0
  20
13
  30
0
  0
ENDBLK
  5
123
  330
119
  100
AcDbEntity
  8
SK2
  100
AcDbBlockEnd
  0
BLOCK
  5
125
  330
127
  100
AcDbEntity
  8
2
  100
AcDbBlockBegin
  2
*D126
  70
1
  10
0
  20
0
  30
0
  3
*D126
  1

  0
LINE
  5
128
  330
127
  100
AcDbEntity
  8
2
  100
AcDbLine
  10
87
  20
-3
  30
0
  11
102
  21
-3
  31
0
  0
LINE
  5
129
  330
127
  100
AcDbEntity
  8
2
  100
AcDbLine
  10
87
  20
3
  30
0
  11
102
  21
3
  31
0
  0
LINE
  5
12a
  330
127
  100
AcDbEntity
  8
2
  100
AcDbLine
  10
100
  20
-3
  30
0
  11
100
  21
3
  31
0
  0
SOLID
  5
12b
  330
127
  100
AcDbEntity
  8
2
  100
AcDbTrace
  10
100
  20
-3
  30
0
  11
99.673685
  21
-0.521388
  31
0
  12
100.326315
  22
-0.521388
  32
0
  13
100.326315
  23
-0.521388
  33
0
  0
SOLID
  5
12c
  330
127
  100
AcDbEntity
  8
2
  100
AcDbTrace
  10
100
  20
3
  30
0
  11
100.326315
  21
0.521388
  31
0
  12
99.673685
  22
0.521388
  32
0
  13
99.673685
  23
0.521388
  33
0
  0
MTEXT
  5
12d
  330
127
  100
AcDbEntity
  8
2
  100
AcDbMText
  10
100
  20
0
  30
0
  11
0
  21
1
  31
0
  40
2
  41
0
  71
8
  72
1
  1
ﾘ6
  0
POINT
  5
12e
  330
127
  100
AcDbEntity
  8
2
  62
0
  100
AcDbPoint
  10
87
  20
-3
  30
0
  0
POINT
  5
12f
  330
127
  100
AcDbEntity
  8
2
  62
0
  100
AcDbPoint
  10
87
  20
3
  30
0
  0
POINT
  5
130
  330
127
  100
AcDbEntity
  8
2
  62
0
  100
AcDbPoint
  10
100
  20
3
  30
0
  0
ENDBLK
  5
131
  330
127
  100
AcDbEntity
  8
2
  100
AcDbBlockEnd
  0
BLOCK
  5
133
  330
135
  100
AcDbEntity
  8
2
  100
AcDbBlockBegin
  2
*D134
  70
1
  10
0
  20
0
  30
0
  3
*D134
  1

  0
LINE
  5
136
  330
135
  100
AcDbEntity
  8
2
  100
AcDbLine
  10
87.112734
  20
0.790156
  30
0
  11
94.587614
  21
10.53161
  31
0
  0
MTEXT
  5
137
  330
135
  100
AcDbEntity
  8
2
  100
AcDbMText
  10
88.5
  20
2.598076
  30
0
  11
0.608761
  21
0.793353
  31
0
  40
2
  41
0
  71
8
  72
1
  1
R3
  0
SOLID
  5
138
  330
135
  100
AcDbEntity
  8
2
  100
AcDbTrace
  10
88.5
  20
2.598076
  30
0
  11
89.75
  21
4.76314
  31
0
  12
90.267767
  22
4.365843
  32
0
  13
90.267767
  23
4.365843
  33
0
  0
POINT
  5
139
  330
135
  100
AcDbEntity
  8
2
  62
0
  100
AcDbPoint
  10
87.112734
  20
0.790156
  30
0
  0
POINT
  5
13a
  330
135
  100
AcDbEntity
  8
2
  62
0
  100
AcDbPoint
  10
87
  20
0
  30
0
  0
ENDBLK
  5
13b
  330
135
  100
AcDbEntity
  8
2
  100
AcDbBlockEnd
  0
BLOCK
  5
13d
  330
13f
  100
AcDbEntity
  8
2
  100
AcDbBlockBegin
  2
*D13e
  70
1
  10
0
  20
0
  30
0
  3
*D13e
  1

  0
LINE
  5
140
  330
13f
  100
AcDbEntity
  8
2
  100
AcDbLine
  10
85.499
  20
-2.3
  30
0
  11
83.499
  21
-2.3
  31
0
  0
LINE
  5
141
  330
13f
  100
AcDbEntity
  8
2
  100
AcDbLine
  10
85.499
  20
2.3
  30
0
  11
83.499
  21
2.3
  31
0
  0
LINE
  5
142
  330
13f
  100
AcDbEntity
  8
2
  100
AcDbLine
  10
85.499
  20
-2.3
  30
0
  11
85.499
  21
8.836634
  31
0
  0
SOLID
  5
143
  330
13f
  100
AcDbEntity
  8
2
  100
AcDbTrace
  10
85.499
  20
-2.3
  30
0
  11
85.172685
  21
0.178612
  31
0
  12
85.825315
  22
0.178612
  32
0
  13
85.825315
  23
0.178612
  33
0
  0
SOLID
  5
144
  330
13f
  100
AcDbEntity
  8
2
  100
AcDbTrace
  10
85.499
  20
2.3
  30
0
  11
85.825315
  21
-0.178612
  31
0
  12
85.172685
  22
-0.178612
  32
0
  13
85.172685
  23
-0.178612
  33
0
  0
MTEXT
  5
145
  330
13f
  100
AcDbEntity
  8
2
  100
AcDbMText
  10
85.499
  20
2.3
  30
0
  11
0
  21
1
  31
0
  40
2
  41
0
  71
8
  72
1
  1
ﾘ4.6
  0
POINT
  5
146
  330
13f
  100
AcDbEntity
  8
2
  62
0
  100
AcDbPoint
  10
83.499
  20
-2.3
  30
0
  0
POINT
  5
147
  330
13f
  100
AcDbEntity
  8
2
  62
0
  100
AcDbPoint
  10
83.499
  20
2.3
  30
0
  0
POINT
  5
148
  330
13f
  100
AcDbEntity
  8
2
  62
0
  100
AcDbPoint
  10
85.499
  20
8.836634
  30
0
  0
ENDBLK
  5
149
  330
13f
  100
AcDbEntity
  8
2
  100
AcDbBlockEnd
  0
BLOCK
  5
14b
  330
14d
  100
AcDbEntity
  8
2
  100
AcDbBlockBegin
  2
*D14c
  70
1
  10
0
  20
0
  30
0
  3
*D14c
  1

  0
LINE
  5
14e
  330
14d
  100
AcDbEntity
  8
2
  100
AcDbLine
  10
90
  20
-15
  30
0
  11
90
  21
20
  31
0
  0
LINE
  5
14f
  330
14d
  100
AcDbEntity
  8
2
  100
AcDbLine
  10
60
  20
3
  30
0
  11
60
  21
10
  31
0
  0
LINE
  5
150
  330
14d
  100
AcDbEntity
  8
2
  100
AcDbLine
  10
90
  20
8
  30
0
  11
60
  21
8
  31
0
  0
SOLID
  5
151
  330
14d
  100
AcDbEntity
  8
2
  100
AcDbTrace
  10
90
  20
8
  30
0
  11
92.478612
  21
8.326315
  31
0
  12
92.478612
  22
7.673685
  32
0
  13
92.478612
  23
7.673685
  33
0
  0
SOLID
  5
152
  330
14d
  100
AcDbEntity
  8
2
  100
AcDbTrace
  10
60
  20
8
  30
0
  11
57.521388
  21
7.673685
  31
0
  12
57.521388
  22
8.326315
  32
0
  13
57.521388
  23
8.326315
  33
0
  0
MTEXT
  5
153
  330
14d
  100
AcDbEntity
  8
2
  100
AcDbMText
  10
75
  20
8
  30
0
  11
1
  21
-0
  31
0
  40
2
  41
0
  71
8
  72
1
  1
30
  0
POINT
  5
154
  330
14d
  100
AcDbEntity
  8
2
  62
0
  100
AcDbPoint
  10
90
  20
-15
  30
0
  0
POINT
  5
155
  330
14d
  100
AcDbEntity
  8
2
  62
0
  100
AcDbPoint
  10
60
  20
3
  30
0
  0
POINT
  5
156
  330
14d
  100
AcDbEntity
  8
2
  62
0
  100
AcDbPoint
  10
60
  20
8
  30
0
  0
ENDBLK
  5
157
  330
14d
  100
AcDbEntity
  8
2
  100
AcDbBlockEnd
  0
BLOCK
  5
159
  330
15b
  100
AcDbEntity
  8
2
  100
AcDbBlockBegin
  2
*D15a
  70
1
  10
0
  20
0
  30
0
  3
*D15a
  1

  0
LINE
  5
15c
  330
15b
  100
AcDbEntity
  8
2
  100
AcDbLine
  10
86
  20
-2.828427
  30
0
  11
86
  21
-15
  31
0
  0
LINE
  5
15d
  330
15b
  100
AcDbEntity
  8
2
  100
AcDbLine
  10
90
  20
-15
  30
0
  11
90
  21
20
  31
0
  0
LINE
  5
15e
  330
15b
  100
AcDbEntity
  8
2
  100
AcDbLine
  10
86
  20
-13
  30
0
  11
90
  21
-13
  31
0
  0
SOLID
  5
15f
  330
15b
  100
AcDbEntity
  8
2
  100
AcDbTrace
  10
86
  20
-13
  30
0
  11
88.478612
  21
-12.673685
  31
0
  12
88.478612
  22
-13.326315
  32
0
  13
88.478612
  23
-13.326315
  33
0
  0
SOLID
  5
160
  330
15b
  100
AcDbEntity
  8
2
  100
AcDbTrace
  10
90
  20
-13
  30
0
  11
87.521388
  21
-13.326315
  31
0
  12
87.521388
  22
-12.673685
  32
0
  13
87.521388
  23
-12.673685
  33
0
  0
MTEXT
  5
161
  330
15b
  100
AcDbEntity
  8
2
  100
AcDbMText
  10
88
  20
-13
  30
0
  11
1
  21
-0
  31
0
  40
2
  41
0
  71
8
  72
1
  1
4
  0
POINT
  5
162
  330
15b
  100
AcDbEntity
  8
2
  62
0
  100
AcDbPoint
  10
86
  20
-2.828427
  30
0
  0
POINT
  5
163
  330
15b
  100
AcDbEntity
  8
2
  62
0
  100
AcDbPoint
  10
90
  20
20
  30
0
  0
POINT
  5
164
  330
15b
  100
AcDbEntity
  8
2
  62
0
  100
AcDbPoint
  10
90
  20
-13
  30
0
  0
ENDBLK
  5
165
  330
15b
  100
AcDbEntity
  8
2
  100
AcDbBlockEnd
  0
ENDSEC
  0
SECTION
  2
ENTITIES
  0
DIMENSION
  5
108
  100
AcDbEntity
  8
SK2
  100
AcDbDimension
  2
*Dfc
  10
90
  20
18
  30
0
  11
45
  21
18
  31
0
  70
160
  1
<>
  71
5
  3
STANDARD
  42
90
  100
AcDbAlignedDimension
  13
0
  23
2.3
  33
0
  14
90
  24
-15
  34
0
  50
0
  100
AcDbRotatedDimension
  0
DIMENSION
  5
116
  100
AcDbEntity
  8
SK2
  100
AcDbDimension
  2
*D10a
  10
56.268564
  20
9.460128
  30
0
  11
59.518304
  21
9.460128
  31
0
  70
160
  1
<>
  71
5
  3
STANDARD
  42
25.5
  100
AcDbAlignedDimension
  13
85.499
  23
2.3
  33
0
  14
59.999
  24
3
  34
0
  50
0
  100
AcDbRotatedDimension
  0
DIMENSION
  5
124
  100
AcDbEntity
  8
SK2
  100
AcDbDimension
  2
*D118
  10
0
  20
13
  30
0
  11
30
  21
13
  31
0
  70
160
  1
<>
  71
5
  3
STANDARD
  42
60
  100
AcDbAlignedDimension
  13
60
  23
3
  33
0
  14
0
  24
2.3
  34
0
  50
0
  100
AcDbRotatedDimension
  0
DIMENSION
  5
132
  100
AcDbEntity
  8
2
  100
AcDbDimension
  2
*D126
  10
100
  20
3
  30
0
  11
100
  21
0
  31
0
  70
160
  1
%%c<>
  71
5
  3
STANDARD
  42
6
  100
AcDbAlignedDimension
  13
87
  23
-3
  33
0
  14
87
  24
3
  34
0
  50
-90
  100
AcDbRotatedDimension
  0
DIMENSION
  5
13c
  100
AcDbEntity
  8
2
  100
AcDbDimension
  2
*D134
  10
87
  20
0
  30
0
  11
88.5
  21
2.598076
  31
0
  70
164
  1
R3
  71
5
  3
STANDARD
  100
AcDbRadialDimension
  15
88.5
  25
2.598076
  35
0
  50
52.5
  0
DIMENSION
  5
14a
  100
AcDbEntity
  8
2
  100
AcDbDimension
  2
*D13e
  10
85.499
  20
8.836634
  30
0
  11
85.499
  21
2.3
  31
0
  70
160
  1
%%c<>
  71
5
  3
STANDARD
  42
4.6
  100
AcDbAlignedDimension
  13
83.499
  23
-2.3
  33
0
  14
83.499
  24
2.3
  34
0
  50
-90
  100
AcDbRotatedDimension
  0
DIMENSION
  5
158
  100
AcDbEntity
  8
2
  100
AcDbDimension
  2
*D14c
  10
60
  20
8
  30
0
  11
75
  21
8
  31
0
  70
160
  1
<>
  71
5
  3
STANDARD
  42
30
  100
AcDbAlignedDimension
  13
90
  23
-15
  33
0
  14
60
  24
3
  34
0
  50
0
  100
AcDbRotatedDimension
  0
DIMENSION
  5
166
  100
AcDbEntity
  8
2
  100
AcDbDimension
  2
*D15a
  10
90
  20
-13
  30
0
  11
88
  21
-13
  31
0
  70
160
  1
<>
  71
5
  3
STANDARD
  42
4
  100
AcDbAlignedDimension
  13
86
  23
-2.828427
  33
0
  14
90
  24
20
  34
0
  50
0
  100
AcDbRotatedDimension
  0
LINE
  5
36
  100
AcDbEntity
  8
1
  100
AcDbLine
  10
60
  20
-2.999973
  30
0
  11
85.499
  21
-2.3
  31
0
  0
LINE
  5
37
  100
AcDbEntity
  8
1
  100
AcDbLine
  10
85.499
  20
-2.3
  30
0
  11
85.499
  21
-2.598076
  31
0
  0
LINE
  5
38
  100
AcDbEntity
  8
1
  100
AcDbLine
  10
85.499
  20
-2.598076
  30
0
  11
85.5
  21
-2.598076
  31
0
  0
ARC
  5
39
  100
AcDbEntity
  8
1
  100
AcDbCircle
  10
87
  20
0
  30
0
  40
3
  100
AcDbArc
  50
240
  51
0
  0
ARC
  5
3a
  100
AcDbEntity
  8
1
  100
AcDbCircle
  10
87
  20
0
  30
0
  40
3
  100
AcDbArc
  50
0
  51
120
  0
LINE
  5
3b
  100
AcDbEntity
  8
1
  100
AcDbLine
  10
85.5
  20
2.598076
  30
0
  11
85.499
  21
2.598076
  31
0
  0
LINE
  5
3c
  100
AcDbEntity
  8
1
  100
AcDbLine
  10
85.499
  20
2.598076
  30
0
  11
85.499
  21
2.3
  31
0
  0
LINE
  5
3d
  100
AcDbEntity
  8
1
  100
AcDbLine
  10
85.499
  20
2.3
  30
0
  11
60
  21
2.999973
  31
0
  0
LINE
  5
3e
  100
AcDbEntity
  8
1
  100
AcDbLine
  10
60
  20
2.999973
  30
0
  11
60
  21
-2.999973
  31
0
  0
LINE
  5
3f
  100
AcDbEntity
  8
1
  100
AcDbLine
  10
89.483836
  20
-1.682426
  30
0
  11
89.4
  21
-1.798459
  31
0
  0
LINE
  5
40
  100
AcDbEntity
  8
1
  100
AcDbLine
  10
89.4
  20
-1.798459
  30
0
  11
89.3
  21
-1.922685
  31
0
  0
LINE
  5
41
  100
AcDbEntity
  8
1
  100
AcDbLine
  10
89.3
  20
-1.922685
  30
0
  11
89.2
  21
-2.03559
  31
0
  0
LINE
  5
42
  100
AcDbEntity
  8
1
  100
AcDbLine
  10
89.2
  20
-2.03559
  30
0
  11
89.1
  21
-2.139009
  31
0
  0
LINE
  5
43
  100
AcDbEntity
  8
1
  100
AcDbLine
  10
89.1
  20
-2.139009
  30
0
  11
89
  21
-2.233471
  31
0
  0
LINE
  5
44
  100
AcDbEntity
  8
1
  100
AcDbLine
  10
89
  20
-2.233471
  30
0
  11
88.9
  21
-2.319668
  31
0
  0
LINE
  5
45
  100
AcDbEntity
  8
1
  100
AcDbLine
  10
88.9
  20
-2.319668
  30
0
  11
88.8
  21
-2.398511
  31
0
  0
LINE
  5
46
  100
AcDbEntity
  8
1
  100
AcDbLine
  10
88.8
  20
-2.398511
  30
0
  11
88.7
  21
-2.470722
  31
0
  0
LINE
  5
47
  100
AcDbEntity
  8
1
  100
AcDbLine
  10
88.7
  20
-2.470722
  30
0
  11
88.6
  21
-2.536881
  31
0
  0
LINE
  5
48
  100
AcDbEntity
  8
1
  100
AcDbLine
  10
88.6
  20
-2.536881
  30
0
  11
88.5
  21
-2.59746
  31
0
  0
LINE
  5
49
  100
AcDbEntity
  8
1
  100
AcDbLine
  10
88.5
  20
-2.59746
  30
0
  11
88.4
  21
-2.652851
  31
0
  0
LINE
  5
4a
  100
AcDbEntity
  8
1
  100
AcDbLine
  10
88.4
  20
-2.652851
  30
0
  11
88.3
  21
-2.70338
  31
0
  0
LINE
  5
4b
  100
AcDbEntity
  8
1
  100
AcDbLine
  10
88.3
  20
-2.70338
  30
0
  11
88.2
  21
-2.74932
  31
0
  0
LINE
  5
4c
  100
AcDbEntity
  8
1
  100
AcDbLine
  10
88.2
  20
-2.74932
  30
0
  11
88.1
  21
-2.790902
  31
0
  0
LINE
  5
4d
  100
AcDbEntity
  8
1
  100
AcDbLine
  10
88.1
  20
-2.790902
  30
0
  11
88
  21
-2.828324
  31
0
  0
LINE
  5
4e
  100
AcDbEntity
  8
1
  100
AcDbLine
  10
88
  20
-2.828324
  30
0
  11
87.9
  21
-2.861752
  31
0
  0
LINE
  5
4f
  100
AcDbEntity
  8
1
  100
AcDbLine
  10
87.9
  20
-2.861752
  30
0
  11
87.8
  21
-2.891326
  31
0
  0
LINE
  5
50
  100
AcDbEntity
  8
1
  100
AcDbLine
  10
87.8
  20
-2.891326
  30
0
  11
87.7
  21
-2.917167
  31
0
  0
LINE
  5
51
  100
AcDbEntity
  8
1
  100
AcDbLine
  10
87.7
  20
-2.917167
  30
0
  11
87.6
  21
-2.939375
  31
0
  0
LINE
  5
52
  100
AcDbEntity
  8
1
  100
AcDbLine
  10
87.6
  20
-2.939375
  30
0
  11
87.5
  21
-2.958034
  31
0
  0
LINE
  5
53
  100
AcDbEntity
  8
1
  100
AcDbLine
  10
87.5
  20
-2.958034
  30
0
  11
87.4
  21
-2.973211
  31
0
  0
LINE
  5
54
  100
AcDbEntity
  8
1
  100
AcDbLine
  10
87.4
  20
-2.973211
  30
0
  11
87.3
  21
-2.984962
  31
0
  0
LINE
  5
55
  100
AcDbEntity
  8
1
  100
AcDbLine
  10
87.3
  20
-2.984962
  30
0
  11
87.2
  21
-2.993326
  31
0
  0
LINE
  5
56
  100
AcDbEntity
  8
1
  100
AcDbLine
  10
87.2
  20
-2.993326
  30
0
  11
87.1
  21
-2.998333
  31
0
  0
LINE
  5
57
  100
AcDbEntity
  8
1
  100
AcDbLine
  10
87.1
  20
-2.998333
  30
0
  11
87
  21
-3
  31
0
  0
LINE
  5
58
  100
AcDbEntity
  8
1
  100
AcDbLine
  10
87
  20
-3
  30
0
  11
86.9
  21
-2.998333
  31
0
  0
LINE
  5
59
  100
AcDbEntity
  8
1
  100
AcDbLine
  10
86.9
  20
-2.998333
  30
0
  11
86.8
  21
-2.993326
  31
0
  0
LINE
  5
5a
  100
AcDbEntity
  8
1
  100
AcDbLine
  10
86.8
  20
-2.993326
  30
0
  11
86.7
  21
-2.984962
  31
0
  0
LINE
  5
5b
  100
AcDbEntity
  8
1
  100
AcDbLine
  10
86.7
  20
-2.984962
  30
0
  11
86.6
  21
-2.973211
  31
0
  0
LINE
  5
5c
  100
AcDbEntity
  8
1
  100
AcDbLine
  10
86.6
  20
-2.973211
  30
0
  11
86.5
  21
-2.958034
  31
0
  0
LINE
  5
5d
  100
AcDbEntity
  8
1
  100
AcDbLine
  10
86.5
  20
-2.958034
  30
0
  11
86.4
  21
-2.939375
  31
0
  0
LINE
  5
5e
  100
AcDbEntity
  8
1
  100
AcDbLine
  10
86.4
  20
-2.939375
  30
0
  11
86.3
  21
-2.917167
  31
0
  0
LINE
  5
5f
  100
AcDbEntity
  8
1
  100
AcDbLine
  10
86.3
  20
-2.917167
  30
0
  11
86.2
  21
-2.891326
  31
0
  0
LINE
  5
60
  100
AcDbEntity
  8
1
  100
AcDbLine
  10
86.2
  20
-2.891326
  30
0
  11
86.1
  21
-2.861752
  31
0
  0
LINE
  5
61
  100
AcDbEntity
  8
1
  100
AcDbLine
  10
86.1
  20
-2.861752
  30
0
  11
86.071769
  21
-2.852786
  31
0
  0
LINE
  5
62
  100
AcDbEntity
  8
1
  100
AcDbLine
  10
86.1
  20
-2.807653
  30
0
  11
86.2
  21
-2.837672
  31
0
  0
LINE
  5
63
  100
AcDbEntity
  8
1
  100
AcDbLine
  10
86.2
  20
-2.837672
  30
0
  11
86.3
  21
-2.863894
  31
0
  0
LINE
  5
64
  100
AcDbEntity
  8
1
  100
AcDbLine
  10
86.3
  20
-2.863894
  30
0
  11
86.4
  21
-2.886425
  31
0
  0
LINE
  5
65
  100
AcDbEntity
  8
1
  100
AcDbLine
  10
86.4
  20
-2.886425
  30
0
  11
86.5
  21
-2.905351
  31
0
  0
LINE
  5
66
  100
AcDbEntity
  8
1
  100
AcDbLine
  10
86.5
  20
-2.905351
  30
0
  11
86.6
  21
-2.920743
  31
0
  0
LINE
  5
67
  100
AcDbEntity
  8
1
  100
AcDbLine
  10
86.6
  20
-2.920743
  30
0
  11
86.7
  21
-2.932658
  31
0
  0
LINE
  5
68
  100
AcDbEntity
  8
1
  100
AcDbLine
  10
86.7
  20
-2.932658
  30
0
  11
86.8
  21
-2.941139
  31
0
  0
LINE
  5
69
  100
AcDbEntity
  8
1
  100
AcDbLine
  10
86.8
  20
-2.941139
  30
0
  11
86.9
  21
-2.946215
  31
0
  0
LINE
  5
6a
  100
AcDbEntity
  8
1
  100
AcDbLine
  10
86.9
  20
-2.946215
  30
0
  11
87
  21
-2.947906
  31
0
  0
LINE
  5
6b
  100
AcDbEntity
  8
1
  100
AcDbLine
  10
87
  20
-2.947906
  30
0
  11
87.1
  21
-2.946215
  31
0
  0
LINE
  5
6c
  100
AcDbEntity
  8
1
  100
AcDbLine
  10
87.1
  20
-2.946215
  30
0
  11
87.2
  21
-2.941139
  31
0
  0
LINE
  5
6d
  100
AcDbEntity
  8
1
  100
AcDbLine
  10
87.2
  20
-2.941139
  30
0
  11
87.3
  21
-2.932658
  31
0
  0
LINE
  5
6e
  100
AcDbEntity
  8
1
  100
AcDbLine
  10
87.3
  20
-2.932658
  30
0
  11
87.4
  21
-2.920743
  31
0
  0
LINE
  5
6f
  100
AcDbEntity
  8
1
  100
AcDbLine
  10
87.4
  20
-2.920743
  30
0
  11
87.5
  21
-2.905351
  31
0
  0
LINE
  5
70
  100
AcDbEntity
  8
1
  100
AcDbLine
  10
87.5
  20
-2.905351
  30
0
  11
87.6
  21
-2.886425
  31
0
  0
LINE
  5
71
  100
AcDbEntity
  8
1
  100
AcDbLine
  10
87.6
  20
-2.886425
  30
0
  11
87.7
  21
-2.863894
  31
0
  0
LINE
  5
72
  100
AcDbEntity
  8
1
  100
AcDbLine
  10
87.7
  20
-2.863894
  30
0
  11
87.8
  21
-2.837672
  31
0
  0
LINE
  5
73
  100
AcDbEntity
  8
1
  100
AcDbLine
  10
87.8
  20
-2.837672
  30
0
  11
87.9
  21
-2.807653
  31
0
  0
LINE
  5
74
  100
AcDbEntity
  8
1
  100
AcDbLine
  10
87.9
  20
-2.807653
  30
0
  11
88
  21
-2.773711
  31
0
  0
LINE
  5
75
  100
AcDbEntity
  8
1
  100
AcDbLine
  10
88
  20
-2.773711
  30
0
  11
88.1
  21
-2.7357
  31
0
  0
LINE
  5
76
  100
AcDbEntity
  8
1
  100
AcDbLine
  10
88.1
  20
-2.7357
  30
0
  11
88.2
  21
-2.693444
  31
0
  0
LINE
  5
77
  100
AcDbEntity
  8
1
  100
AcDbLine
  10
88.2
  20
-2.693444
  30
0
  11
88.3
  21
-2.646736
  31
0
  0
LINE
  5
78
  100
AcDbEntity
  8
1
  100
AcDbLine
  10
88.3
  20
-2.646736
  30
0
  11
88.4
  21
-2.595333
  31
0
  0
LINE
  5
79
  100
AcDbEntity
  8
1
  100
AcDbLine
  10
88.4
  20
-2.595333
  30
0
  11
88.5
  21
-2.538945
  31
0
  0
LINE
  5
7a
  100
AcDbEntity
  8
1
  100
AcDbLine
  10
88.5
  20
-2.538945
  30
0
  11
88.6
  21
-2.477226
  31
0
  0
LINE
  5
7b
  100
AcDbEntity
  8
1
  100
AcDbLine
  10
88.6
  20
-2.477226
  30
0
  11
88.7
  21
-2.40976
  31
0
  0
LINE
  5
7c
  100
AcDbEntity
  8
1
  100
AcDbLine
  10
88.7
  20
-2.40976
  30
0
  11
88.8
  21
-2.336042
  31
0
  0
LINE
  5
7d
  100
AcDbEntity
  8
1
  100
AcDbLine
  10
88.8
  20
-2.336042
  30
0
  11
88.9
  21
-2.25545
  31
0
  0
LINE
  5
7e
  100
AcDbEntity
  8
1
  100
AcDbLine
  10
88.9
  20
-2.25545
  30
0
  11
89
  21
-2.167204
  31
0
  0
LINE
  5
7f
  100
AcDbEntity
  8
1
  100
AcDbLine
  10
89
  20
-2.167204
  30
0
  11
89.1
  21
-2.070311
  31
0
  0
LINE
  5
80
  100
AcDbEntity
  8
1
  100
AcDbLine
  10
89.1
  20
-2.070311
  30
0
  11
89.2
  21
-1.965064
  31
0
  0
LINE
  5
81
  100
AcDbEntity
  8
1
  100
AcDbLine
  10
89.2
  20
-1.965064
  30
0
  11
89.3
  21
-1.853007
  31
0
  0
LINE
  5
82
  100
AcDbEntity
  8
1
  100
AcDbLine
  10
89.3
  20
-1.853007
  30
0
  11
89.4
  21
-1.734187
  31
0
  0
LINE
  5
83
  100
AcDbEntity
  8
1
  100
AcDbLine
  10
89.4
  20
-1.734187
  30
0
  11
89.5
  21
-1.608716
  31
0
  0
LINE
  5
84
  100
AcDbEntity
  8
1
  100
AcDbLine
  10
89.5
  20
-0.956837
  30
0
  11
89.5
  21
1.65825
  31
0
  0
LINE
  5
85
  100
AcDbEntity
  8
1
  100
AcDbLine
  10
89.483836
  20
1.682426
  30
0
  11
89.5
  21
1.65825
  31
0
  0
LINE
  5
86
  100
AcDbEntity
  8
1
  100
AcDbLine
  10
89.5
  20
1.65825
  30
0
  11
89.5
  21
-0.956837
  31
0
  0
LINE
  5
87
  100
AcDbEntity
  8
1
  100
AcDbLine
  10
89.5
  20
-0.956837
  30
0
  11
89.4
  21
-1.240344
  31
0
  0
LINE
  5
88
  100
AcDbEntity
  8
1
  100
AcDbLine
  10
89.4
  20
-1.240344
  30
0
  11
89.3
  21
-1.45042
  31
0
  0
LINE
  5
89
  100
AcDbEntity
  8
1
  100
AcDbLine
  10
89.3
  20
-1.45042
  30
0
  11
89.2
  21
-1.621504
  31
0
  0
LINE
  5
8a
  100
AcDbEntity
  8
1
  100
AcDbLine
  10
89.2
  20
-1.621504
  30
0
  11
89.1
  21
-1.766938
  31
0
  0
LINE
  5
8b
  100
AcDbEntity
  8
1
  100
AcDbLine
  10
89.1
  20
-1.766938
  30
0
  11
89
  21
-1.893591
  31
0
  0
LINE
  5
8c
  100
AcDbEntity
  8
1
  100
AcDbLine
  10
89
  20
-1.893591
  30
0
  11
88.9
  21
-2.005556
  31
0
  0
LINE
  5
8d
  100
AcDbEntity
  8
1
  100
AcDbLine
  10
88.9
  20
-2.005556
  30
0
  11
88.8
  21
-2.105509
  31
0
  0
LINE
  5
8e
  100
AcDbEntity
  8
1
  100
AcDbLine
  10
88.8
  20
-2.105509
  30
0
  11
88.7
  21
-2.195313
  31
0
  0
LINE
  5
8f
  100
AcDbEntity
  8
1
  100
AcDbLine
  10
88.7
  20
-2.195313
  30
0
  11
88.6
  21
-2.276323
  31
0
  0
LINE
  5
90
  100
AcDbEntity
  8
1
  100
AcDbLine
  10
88.6
  20
-2.276323
  30
0
  11
88.5
  21
-2.349565
  31
0
  0
LINE
  5
91
  100
AcDbEntity
  8
1
  100
AcDbLine
  10
88.5
  20
-2.349565
  30
0
  11
88.4
  21
-2.415829
  31
0
  0
LINE
  5
92
  100
AcDbEntity
  8
1
  100
AcDbLine
  10
88.4
  20
-2.415829
  30
0
  11
88.3
  21
-2.475743
  31
0
  0
LINE
  5
93
  100
AcDbEntity
  8
1
  100
AcDbLine
  10
88.3
  20
-2.475743
  30
0
  11
88.2
  21
-2.529808
  31
0
  0
LINE
  5
94
  100
AcDbEntity
  8
1
  100
AcDbLine
  10
88.2
  20
-2.529808
  30
0
  11
88.1
  21
-2.578434
  31
0
  0
LINE
  5
95
  100
AcDbEntity
  8
1
  100
AcDbLine
  10
88.1
  20
-2.578434
  30
0
  11
88
  21
-2.621958
  31
0
  0
LINE
  5
96
  100
AcDbEntity
  8
1
  100
AcDbLine
  10
88
  20
-2.621958
  30
0
  11
87.9
  21
-2.660657
  31
0
  0
LINE
  5
97
  100
AcDbEntity
  8
1
  100
AcDbLine
  10
87.9
  20
-2.660657
  30
0
  11
87.8
  21
-2.694761
  31
0
  0
LINE
  5
98
  100
AcDbEntity
  8
1
  100
AcDbLine
  10
87.8
  20
-2.694761
  30
0
  11
87.7
  21
-2.72446
  31
0
  0
LINE
  5
99
  100
AcDbEntity
  8
1
  100
AcDbLine
  10
87.7
  20
-2.72446
  30
0
  11
87.6
  21
-2.749914
  31
0
  0
LINE
  5
9a
  100
AcDbEntity
  8
1
  100
AcDbLine
  10
87.6
  20
-2.749914
  30
0
  11
87.5
  21
-2.771249
  31
0
  0
LINE
  5
9b
  100
AcDbEntity
  8
1
  100
AcDbLine
  10
87.5
  20
-2.771249
  30
0
  11
87.4
  21
-2.788572
  31
0
  0
LINE
  5
9c
  100
AcDbEntity
  8
1
  100
AcDbLine
  10
87.4
  20
-2.788572
  30
0
  11
87.3
  21
-2.801963
  31
0
  0
LINE
  5
9d
  100
AcDbEntity
  8
1
  100
AcDbLine
  10
87.3
  20
-2.801963
  30
0
  11
87.2
  21
-2.811486
  31
0
  0
LINE
  5
9e
  100
AcDbEntity
  8
1
  100
AcDbLine
  10
87.2
  20
-2.811486
  30
0
  11
87.1
  21
-2.817182
  31
0
  0
LINE
  5
9f
  100
AcDbEntity
  8
1
  100
AcDbLine
  10
87.1
  20
-2.817182
  30
0
  11
87
  21
-2.819078
  31
0
  0
LINE
  5
a0
  100
AcDbEntity
  8
1
  100
AcDbLine
  10
87
  20
-2.819078
  30
0
  11
86.9
  21
-2.817182
  31
0
  0
LINE
  5
a1
  100
AcDbEntity
  8
1
  100
AcDbLine
  10
86.9
  20
-2.817182
  30
0
  11
86.8
  21
-2.811486
  31
0
  0
LINE
  5
a2
  100
AcDbEntity
  8
1
  100
AcDbLine
  10
86.8
  20
-2.811486
  30
0
  11
86.7
  21
-2.801963
  31
0
  0
LINE
  5
a3
  100
AcDbEntity
  8
1
  100
AcDbLine
  10
86.7
  20
-2.801963
  30
0
  11
86.6
  21
-2.788572
  31
0
  0
LINE
  5
a4
  100
AcDbEntity
  8
1
  100
AcDbLine
  10
86.6
  20
-2.788572
  30
0
  11
86.5
  21
-2.771249
  31
0
  0
LINE
  5
a5
  100
AcDbEntity
  8
1
  100
AcDbLine
  10
86.5
  20
-2.771249
  30
0
  11
86.4
  21
-2.749914
  31
0
  0
LINE
  5
a6
  100
AcDbEntity
  8
1
  100
AcDbLine
  10
86.4
  20
-2.749914
  30
0
  11
86.3
  21
-2.72446
  31
0
  0
LINE
  5
a7
  100
AcDbEntity
  8
1
  100
AcDbLine
  10
86.3
  20
-2.72446
  30
0
  11
86.2
  21
-2.694761
  31
0
  0
LINE
  5
a8
  100
AcDbEntity
  8
1
  100
AcDbLine
  10
86.2
  20
-2.694761
  30
0
  11
86.1
  21
-2.660657
  31
0
  0
LINE
  5
a9
  100
AcDbEntity
  8
1
  100
AcDbLine
  10
86.1
  20
-2.660657
  30
0
  11
85.9
  21
-2.48477
  31
0
  0
LINE
  5
aa
  100
AcDbEntity
  8
1
  100
AcDbLine
  10
85.9
  20
-2.48477
  30
0
  11
85.8
  21
-2.076586
  31
0
  0
LINE
  5
ab
  100
AcDbEntity
  8
1
  100
AcDbLine
  10
85.8
  20
-2.076586
  30
0
  11
85.7
  21
-1.256268
  31
0
  0
LINE
  5
ac
  100
AcDbEntity
  8
1
  100
AcDbLine
  10
85.7
  20
-1.256268
  30
0
  11
85.6
  21
-0.039071
  31
0
  0
LINE
  5
ad
  100
AcDbEntity
  8
1
  100
AcDbLine
  10
85.6
  20
-0.039071
  30
0
  11
85.5
  21
1.257338
  31
0
  0
LINE
  5
ae
  100
AcDbEntity
  8
1
  100
AcDbLine
  10
85.5
  20
1.257338
  30
0
  11
85.5
  21
1.272406
  31
0
  0
LINE
  5
af
  100
AcDbEntity
  8
1
  100
AcDbLine
  10
85.5
  20
1.272406
  30
0
  11
85.6
  21
1.97999
  31
0
  0
LINE
  5
b0
  100
AcDbEntity
  8
1
  100
AcDbLine
  10
85.6
  20
1.97999
  30
0
  11
85.7
  21
2.45747
  31
0
  0
LINE
  5
b1
  100
AcDbEntity
  8
1
  100
AcDbLine
  10
85.7
  20
2.45747
  30
0
  11
85.8
  21
2.698181
  31
0
  0
LINE
  5
b2
  100
AcDbEntity
  8
1
  100
AcDbLine
  10
85.8
  20
2.698181
  30
0
  11
85.9
  21
2.788553
  31
0
  0
LINE
  5
b3
  100
AcDbEntity
  8
1
  100
AcDbLine
  10
85.9
  20
2.788553
  30
0
  11
86.071769
  21
2.852786
  31
0
  0
LINE
  5
b4
  100
AcDbEntity
  8
1
  100
AcDbLine
  10
85.5
  20
2.598076
  30
0
  11
85.5
  21
-2.598076
  31
0
  0
LINE
  5
b5
  100
AcDbEntity
  8
1
  100
AcDbLine
  10
85.499
  20
-2.598076
  30
0
  11
85.499
  21
2.598076
  31
0
  0
LINE
  5
b6
  100
AcDbEntity
  8
1
  100
AcDbLine
  10
85.499
  20
2.3
  30
0
  11
85.499
  21
-2.3
  31
0
  0
LINE
  5
b7
  100
AcDbEntity
  8
1
  100
AcDbLine
  10
85.499
  20
-2.3
  30
0
  11
85.499
  21
2.3
  31
0
  0
LINE
  5
b8
  100
AcDbEntity
  8
SK1
  100
AcDbLine
  10
60
  20
2.999973
  30
0
  11
59.999
  21
3
  31
0
  0
LINE
  5
b9
  100
AcDbEntity
  8
SK1
  100
AcDbLine
  10
59.999
  20
3
  30
0
  11
60
  21
3
  31
0
  0
LINE
  5
ba
  100
AcDbEntity
  8
SK1
  100
AcDbLine
  10
60
  20
3
  30
0
  11
0.7
  21
3
  31
0
  0
LINE
  5
bb
  100
AcDbEntity
  8
SK1
  100
AcDbLine
  10
0.7
  20
3
  30
0
  11
0
  21
2.3
  31
0
  0
LINE
  5
bc
  100
AcDbEntity
  8
SK1
  100
AcDbLine
  10
60
  20
-2.999973
  30
0
  11
59.999
  21
-3
  31
0
  0
LINE
  5
bd
  100
AcDbEntity
  8
SK1
  100
AcDbLine
  10
59.999
  20
-3
  30
0
  11
60
  21
-3
  31
0
  0
LINE
  5
be
  100
AcDbEntity
  8
SK1
  100
AcDbLine
  10
60
  20
-3
  30
0
  11
0.7
  21
-3
  31
0
  0
LINE
  5
bf
  100
AcDbEntity
  8
SK1
  100
AcDbLine
  10
0.7
  20
-3
  30
0
  11
0
  21
-2.3
  31
0
  0
LINE
  5
c0
  100
AcDbEntity
  8
SK1
  100
AcDbLine
  10
59.999
  20
3
  30
0
  11
59.999
  21
-3
  31
0
  0
LINE
  5
c1
  100
AcDbEntity
  8
SK1
  100
AcDbLine
  10
0.7
  20
3
  30
0
  11
0.7
  21
-3
  31
0
  0
LINE
  5
c2
  100
AcDbEntity
  8
SK1
  100
AcDbLine
  10
0
  20
2.3
  30
0
  11
0
  21
-2.3
  31
0
  0
LINE
  5
c3
  100
AcDbEntity
  8
SK1
  100
AcDbLine
  10
61.0401
  20
1.40688
  30
0
  11
61.4069
  21
1.0401
  31
0
  0
LINE
  5
c4
  100
AcDbEntity
  8
SK1
  100
AcDbLine
  10
60.5328
  20
1.66666
  30
0
  11
61.6667
  21
0.532833
  31
0
  0
LINE
  5
c5
  100
AcDbEntity
  8
SK1
  100
AcDbLine
  10
60.2154
  20
1.73657
  30
0
  11
61.7366
  21
0.215434
  31
0
  0
LINE
  5
c6
  100
AcDbEntity
  8
SK1
  100
AcDbLine
  10
60
  20
1.70452
  30
0
  11
61.7045
  21
0
  31
0
  0
LINE
  5
c7
  100
AcDbEntity
  8
SK1
  100
AcDbLine
  10
60
  20
1.45703
  30
0
  11
61.457
  21
0
  31
0
  0
LINE
  5
c8
  100
AcDbEntity
  8
SK1
  100
AcDbLine
  10
60
  20
1.20954
  30
0
  11
61.2095
  21
0
  31
0
  0
LINE
  5
c9
  100
AcDbEntity
  8
SK1
  100
AcDbLine
  10
60
  20
0.962054
  30
0
  11
60.9621
  21
0
  31
0
  0
LINE
  5
ca
  100
AcDbEntity
  8
SK1
  100
AcDbLine
  10
60
  20
0.714566
  30
0
  11
60.7146
  21
0
  31
0
  0
LINE
  5
cb
  100
AcDbEntity
  8
SK1
  100
AcDbLine
  10
60
  20
0.467079
  30
0
  11
60.4671
  21
0
  31
0
  0
LINE
  5
cc
  100
AcDbEntity
  8
SK1
  100
AcDbLine
  10
60
  20
0.219592
  30
0
  11
60.2196
  21
0
  31
0
  0
LINE
  5
cd
  100
AcDbEntity
  8
SK1
  100
AcDbLine
  10
60
  20
1.70452
  30
0
  11
60.0441
  21
1.74861
  31
0
  0
LINE
  5
ce
  100
AcDbEntity
  8
SK1
  100
AcDbLine
  10
60
  20
1.45703
  30
0
  11
60.271
  21
1.72802
  31
0
  0
LINE
  5
cf
  100
AcDbEntity
  8
SK1
  100
AcDbLine
  10
60
  20
1.20954
  30
0
  11
60.4742
  21
1.6837
  31
0
  0
LINE
  5
d0
  100
AcDbEntity
  8
SK1
  100
AcDbLine
  10
60
  20
0.962054
  30
0
  11
60.6588
  21
1.62082
  31
0
  0
LINE
  5
d1
  100
AcDbEntity
  8
SK1
  100
AcDbLine
  10
60
  20
0.714566
  30
0
  11
60.8271
  21
1.54167
  31
0
  0
LINE
  5
d2
  100
AcDbEntity
  8
SK1
  100
AcDbLine
  10
60
  20
0.467079
  30
0
  11
60.981
  21
1.44812
  31
0
  0
LINE
  5
d3
  100
AcDbEntity
  8
SK1
  100
AcDbLine
  10
60
  20
0.219592
  30
0
  11
61.1226
  21
1.34216
  31
0
  0
LINE
  5
d4
  100
AcDbEntity
  8
SK1
  100
AcDbLine
  10
60.0279
  20
0
  30
0
  11
61.2508
  21
1.22288
  31
0
  0
LINE
  5
d5
  100
AcDbEntity
  8
SK1
  100
AcDbLine
  10
60.2754
  20
0
  30
0
  11
61.367
  21
1.09157
  31
0
  0
LINE
  5
d6
  100
AcDbEntity
  8
SK1
  100
AcDbLine
  10
60.5229
  20
0
  30
0
  11
61.4707
  21
0.947822
  31
0
  0
LINE
  5
d7
  100
AcDbEntity
  8
SK1
  100
AcDbLine
  10
60.7704
  20
0
  30
0
  11
61.5605
  21
0.790145
  31
0
  0
LINE
  5
d8
  100
AcDbEntity
  8
SK1
  100
AcDbLine
  10
61.0178
  20
0
  30
0
  11
61.6364
  21
0.618517
  31
0
  0
LINE
  5
d9
  100
AcDbEntity
  8
SK1
  100
AcDbLine
  10
61.2653
  20
0
  30
0
  11
61.696
  21
0.430696
  31
0
  0
LINE
  5
da
  100
AcDbEntity
  8
SK1
  100
AcDbLine
  10
61.5128
  20
0
  30
0
  11
61.7356
  21
0.222827
  31
0
  0
LINE
  5
db
  100
AcDbEntity
  8
SK1
  100
AcDbLine
  10
60
  20
0
  30
0
  11
60
  21
1.75
  31
0
  0
LINE
  5
dc
  100
AcDbEntity
  8
SK1
  100
AcDbLine
  10
60
  20
0
  30
0
  11
61.75
  21
0
  31
0
  0
ARC
  5
dd
  100
AcDbEntity
  8
SK1
  100
AcDbCircle
  10
60
  20
0
  30
0
  40
1.75
  100
AcDbArc
  50
0
  51
90
  0
ARC
  5
de
  100
AcDbEntity
  8
SK1
  100
AcDbCircle
  10
60
  20
0
  30
0
  40
1.75
  100
AcDbArc
  50
90
  51
180
  0
LINE
  5
df
  100
AcDbEntity
  8
SK1
  100
AcDbLine
  10
59.9721
  20
0
  30
0
  11
60
  21
-0.027896
  31
0
  0
LINE
  5
e0
  100
AcDbEntity
  8
SK1
  100
AcDbLine
  10
59.7246
  20
0
  30
0
  11
60
  21
-0.275383
  31
0
  0
LINE
  5
e1
  100
AcDbEntity
  8
SK1
  100
AcDbLine
  10
59.4771
  20
0
  30
0
  11
60
  21
-0.522871
  31
0
  0
LINE
  5
e2
  100
AcDbEntity
  8
SK1
  100
AcDbLine
  10
59.2296
  20
0
  30
0
  11
60
  21
-0.770358
  31
0
  0
LINE
  5
e3
  100
AcDbEntity
  8
SK1
  100
AcDbLine
  10
58.9822
  20
0
  30
0
  11
60
  21
-1.01785
  31
0
  0
LINE
  5
e4
  100
AcDbEntity
  8
SK1
  100
AcDbLine
  10
58.7347
  20
0
  30
0
  11
60
  21
-1.26533
  31
0
  0
LINE
  5
e5
  100
AcDbEntity
  8
SK1
  100
AcDbLine
  10
58.4872
  20
0
  30
0
  11
60
  21
-1.51282
  31
0
  0
LINE
  5
e6
  100
AcDbEntity
  8
SK1
  100
AcDbLine
  10
58.2503
  20
-0.010642
  30
0
  11
59.9894
  21
-1.74967
  31
0
  0
LINE
  5
e7
  100
AcDbEntity
  8
SK1
  100
AcDbLine
  10
58.2736
  20
-0.281429
  30
0
  11
59.7186
  21
-1.72637
  31
0
  0
LINE
  5
e8
  100
AcDbEntity
  8
SK1
  100
AcDbLine
  10
58.3639
  20
-0.619147
  30
0
  11
59.3809
  21
-1.63613
  31
0
  0
LINE
  5
e9
  100
AcDbEntity
  8
SK1
  100
AcDbLine
  10
58.2514
  20
-0.044098
  30
0
  11
58.2955
  21
0
  31
0
  0
LINE
  5
ea
  100
AcDbEntity
  8
SK1
  100
AcDbLine
  10
58.272
  20
-0.270991
  30
0
  11
58.543
  21
0
  31
0
  0
LINE
  5
eb
  100
AcDbEntity
  8
SK1
  100
AcDbLine
  10
58.3163
  20
-0.474162
  30
0
  11
58.7905
  21
0
  31
0
  0
LINE
  5
ec
  100
AcDbEntity
  8
SK1
  100
AcDbLine
  10
58.3792
  20
-0.658762
  30
0
  11
59.0379
  21
0
  31
0
  0
LINE
  5
ed
  100
AcDbEntity
  8
SK1
  100
AcDbLine
  10
58.4583
  20
-0.827105
  30
0
  11
59.2854
  21
0
  31
0
  0
LINE
  5
ee
  100
AcDbEntity
  8
SK1
  100
AcDbLine
  10
58.5519
  20
-0.981039
  30
0
  11
59.5329
  21
0
  31
0
  0
LINE
  5
ef
  100
AcDbEntity
  8
SK1
  100
AcDbLine
  10
58.6578
  20
-1.12257
  30
0
  11
59.7804
  21
0
  31
0
  0
LINE
  5
f0
  100
AcDbEntity
  8
SK1
  100
AcDbLine
  10
58.7771
  20
-1.25077
  30
0
  11
60
  21
-0.027896
  31
0
  0
LINE
  5
f1
  100
AcDbEntity
  8
SK1
  100
AcDbLine
  10
58.9084
  20
-1.36695
  30
0
  11
60
  21
-0.275383
  31
0
  0
LINE
  5
f2
  100
AcDbEntity
  8
SK1
  100
AcDbLine
  10
59.0522
  20
-1.47069
  30
0
  11
60
  21
-0.522871
  31
0
  0
LINE
  5
f3
  100
AcDbEntity
  8
SK1
  100
AcDbLine
  10
59.2099
  20
-1.5605
  30
0
  11
60
  21
-0.770358
  31
0
  0
LINE
  5
f4
  100
AcDbEntity
  8
SK1
  100
AcDbLine
  10
59.3815
  20
-1.63636
  30
0
  11
60
  21
-1.01785
  31
0
  0
LINE
  5
f5
  100
AcDbEntity
  8
SK1
  100
AcDbLine
  10
59.5693
  20
-1.69603
  30
0
  11
60
  21
-1.26533
  31
0
  0
LINE
  5
f6
  100
AcDbEntity
  8
SK1
  100
AcDbLine
  10
59.7772
  20
-1.73565
  30
0
  11
60
  21
-1.51282
  31
0
  0
LINE
  5
f7
  100
AcDbEntity
  8
SK1
  100
AcDbLine
  10
60
  20
0
  30
0
  11
58.25
  21
0
  31
0
  0
LINE
  5
f8
  100
AcDbEntity
  8
SK1
  100
AcDbLine
  10
60
  20
-1.75
  30
0
  11
60
  21
0
  31
0
  0
ARC
  5
f9
  100
AcDbEntity
  8
SK1
  100
AcDbCircle
  10
60
  20
0
  30
0
  40
1.75
  100
AcDbArc
  50
180
  51
270
  0
ARC
  5
fa
  100
AcDbEntity
  8
SK1
  100
AcDbCircle
  10
60
  20
0
  30
0
  40
1.75
  100
AcDbArc
  50
270
  51
0
  0
LINE
  5
167
  100
AcDbEntity
  8
NOCUT
  100
AcDbLine
  10
86
  20
0
  30
0
  11
86
  21
2.828427
  31
0
  0
ARC
  5
168
  100
AcDbEntity
  8
NOCUT
  100
AcDbCircle
  10
87
  20
0
  30
0
  40
3
  100
AcDbArc
  50
109.471221
  51
120
  0
LINE
  5
169
  100
AcDbEntity
  8
NOCUT
  100
AcDbLine
  10
85.5
  20
2.598076
  30
0
  11
85.499
  21
2.598076
  31
0
  0
LINE
  5
16a
  100
AcDbEntity
  8
NOCUT
  100
AcDbLine
  10
85.499
  20
2.598076
  30
0
  11
85.499
  21
2.3
  31
0
  0
LINE
  5
16b
  100
AcDbEntity
  8
NOCUT
  100
AcDbLine
  10
85.499
  20
2.3
  30
0
  11
60
  21
2.999973
  31
0
  0
LINE
  5
16c
  100
AcDbEntity
  8
NOCUT
  100
AcDbLine
  10
60
  20
2.999973
  30
0
  11
60
  21
0
  31
0
  0
LINE
  5
16d
  100
AcDbEntity
  8
NOCUT
  100
AcDbLine
  10
60
  20
0
  30
0
  11
86
  21
0
  31
0
  0
ARC
  5
16e
  100
AcDbEntity
  8
CUT
  100
AcDbCircle
  10
87
  20
0
  30
0
  40
3
  100
AcDbArc
  50
0
  51
109.471221
  0
LINE
  5
16f
  100
AcDbEntity
  8
CUT
  100
AcDbLine
  10
86
  20
2.828427
  30
0
  11
86
  21
0
  31
0
  0
LINE
  5
170
  100
AcDbEntity
  8
CUT
  100
AcDbLine
  10
86
  20
0
  30
0
  11
90
  21
0
  31
0
  0
LINE
  5
171
  100
AcDbEntity
  8
4
  100
AcDbLine
  10
60
  20
0
  30
0
  11
90
  21
0
  31
0
  0
LINE
  5
172
  100
AcDbEntity
  8
SK4
  100
AcDbLine
  10
-1
  20
0
  30
0
  11
91
  21
0
  31
0
  0
LINE
  5
173
  100
AcDbEntity
  8
INFTOTAL
  100
AcDbLine
  10
-7.702543
  20
25.223931
  30
0
  11
107.223931
  21
25.223931
  31
0
  0
LINE
  5
174
  100
AcDbEntity
  8
INFTOTAL
  100
AcDbLine
  10
107.223931
  20
25.223931
  30
0
  11
107.223931
  21
-20.223931
  31
0
  0
LINE
  5
175
  100
AcDbEntity
  8
INFTOTAL
  100
AcDbLine
  10
107.223931
  20
-20.223931
  30
0
  11
-7.702543
  21
-20.223931
  31
0
  0
LINE
  5
176
  100
AcDbEntity
  8
INFTOTAL
  100
AcDbLine
  10
-7.702543
  20
-20.223931
  30
0
  11
-7.702543
  21
25.223931
  31
0
  0
ENDSEC
  0
SECTION
  2
OBJECTS
  0
DICTIONARY
  5
177
  330
0
100
AcDbDictionary
281
    1
  3
ACAD_GROUP
  350
178
  0
DICTIONARY
  5
178
102
{ACAD_REACTORS
  330
177
102
}
  330
177
100
AcDbDictionary
281
    1
  0
ENDSEC
  0
EOF
