  0
SECTION
  2
HEADER
  9
$ACADVER
  1
AC1015
  9
$DWGCODEPAGE
  3
ANSI_932
  9
$HANDSEED
  5
106AB90
  0
ENDSEC
  0
SECTION
  2
CLASSES
  0
CLASS
  1
IMAGEDEF
  2
AcDbRasterImageDef
  3
ISM
  90
0
  91
4
  280
0
  281
0
  0
CLASS
  1
IMAGE
  2
AcDbRasterImage
  3
ISM
  90
127
  91
5
  280
0
  281
1
  0
CLASS
  1
IMAGEDEF_REACTOR
  2
AcDbRasterImageDefReactor
  3
ISM
  90
1
  91
4
  280
0
  281
0
  0
ENDSEC
  0
SECTION
  2
TABLES
  0
TABLE
  2
VPORT
  5
2
  330
0
  100
AcDbSymbolTable
  70
    0
  0
ENDTAB
  0
TABLE
  2
LTYPE
  5
3
  330
0
  100
AcDbSymbolTable
  70
    4
  0
LTYPE
  5
4
  330
3
  100
AcDbSymbolTableRecord
  100
AcDbLinetypeTableRecord
  2
ByBlock
  70
    0
  3

  72
65
  73
    0
  40
0
  0
LTYPE
  5
5
  330
3
  100
AcDbSymbolTableRecord
  100
AcDbLinetypeTableRecord
  2
ByLayer
  70
    0
  3

  72
65
  73
    0
  40
0
  0
LTYPE
  5
6
  330
3
  100
AcDbSymbolTableRecord
  100
AcDbLinetypeTableRecord
  2
CONTINUOUS
  70
    0
  3
Solid Line
  72
65
  73
    0
  40
0
  0
LTYPE
  5
7
  330
3
  100
AcDbSymbolTableRecord
  100
AcDbLinetypeTableRecord
  2
DASH
  70
    0
  3
Hidden
  72
65
  73
2
  40
2.5
  49
1.5
  74
0
  49
-1
  74
0
  0
LTYPE
  5
8
  330
3
  100
AcDbSymbolTableRecord
  100
AcDbLinetypeTableRecord
  2
LONGDASHDASH
  70
    0
  3
__ . __
  72
65
  73
    4
  40
7
  49
4
  74
    0
  49
-1
  74
    0
  49
1
  74
    0
  49
-1
  74
    0
  0
ENDTAB
  0
TABLE
  2
LAYER
  5
9
  330
0
  100
AcDbSymbolTable
  70
    40
  0
LAYER
  5
a
  330
9
  100
AcDbSymbolTableRecord
  100
AcDbLayerTableRecord
  2
0
  70
    0
  62
    0
  6
CONTINUOUS
  390
0
  0
LAYER
  5
c
  330
9
  100
AcDbSymbolTableRecord
  100
AcDbLayerTableRecord
  2
1
  70
    0
  62
    4
  6
CONTINUOUS
  370
50
  390
0
  0
LAYER
  5
d
  330
9
  100
AcDbSymbolTableRecord
  100
AcDbLayerTableRecord
  2
2
  70
    0
  62
    7
  6
CONTINUOUS
  370
25
  390
0
  0
LAYER
  5
f
  330
9
  100
AcDbSymbolTableRecord
  100
AcDbLayerTableRecord
  2
4
  70
    0
  62
    2
  6
LONGDASHDASH
  370
25
  390
0
  0
LAYER
  5
13
  330
9
  100
AcDbSymbolTableRecord
  100
AcDbLayerTableRecord
  2
SK1
  70
    0
  62
    4
  6
CONTINUOUS
  370
50
  390
0
  0
LAYER
  5
14
  330
9
  100
AcDbSymbolTableRecord
  100
AcDbLayerTableRecord
  2
SK2
  70
    0
  62
    7
  6
CONTINUOUS
  370
25
  390
0
  0
LAYER
  5
16
  330
9
  100
AcDbSymbolTableRecord
  100
AcDbLayerTableRecord
  2
SK4
  70
    0
  62
    2
  6
LONGDASHDASH
  370
25
  390
0
  0
LAYER
  5
21
  330
9
  100
AcDbSymbolTableRecord
  100
AcDbLayerTableRecord
  2
NOCUT
  70
    0
  62
    7
  6
CONTINUOUS
  370
25
  390
0
  0
LAYER
  5
22
  330
9
  100
AcDbSymbolTableRecord
  100
AcDbLayerTableRecord
  2
CUT
  70
    0
  62
    1
  6
CONTINUOUS
  370
25
  390
0
  0
LAYER
  5
26
  330
9
  100
AcDbSymbolTableRecord
  100
AcDbLayerTableRecord
  2
INFTOTAL
  70
    0
  62
    9
  6
CONTINUOUS
  370
18
  390
0
  0
ENDTAB
  0
TABLE
  2
STYLE
  5
27
  330
0
  100
AcDbSymbolTable
  70
    1
  0
STYLE
  5
28
  330
27
  100
AcDbSymbolTableRecord
  100
AcDbTextStyleTableRecord
  2
Monospac821 BT
  70
    0
  40
    3.5
  41
1
  50
0
  71
0
  42
3
  3

  4

  1001
ACAD
  1000
Monospac821 BT
  1071
256
  0
ENDTAB
  0
TABLE
  2
VIEW
  5
29
  330
0
  100
AcDbSymbolTable
  70
    0
  0
ENDTAB
  0
TABLE
  2
UCS
  5
2a
  330
0
  100
AcDbSymbolTable
  70
    0
  0
ENDTAB
  0
TABLE
  2
APPID
  5
2b
  330
0
  100
AcDbSymbolTable
  70
    1
  0
APPID
  5
2c
  330
2b
  100
AcDbSymbolTableRecord
  100
AcDbRegAppTableRecord
  2
ACAD
  70
    0
  0
ENDTAB
  0
TABLE
  2
DIMSTYLE
  5
2d
  330
0
  100
AcDbSymbolTable
  70
    1
  100
AcDbDimStyleTable
  0
DIMSTYLE
  105
2e
  330
2d
  100
AcDbSymbolTableRecord
  100
AcDbDimStyleTableRecord
  2
STANDARD
  70
    0
  41
    3
  42
0.5
  44
1
  73
0
  77
1
  78
1
  140
3.5
  141
2.5
  143
0.03937
  147
0.8
  172
1
  174
1
  178
0
  179
1
  271
2
  279
1
  284
1
  340
28
  0
ENDTAB
  0
TABLE
  2
BLOCK_RECORD
  5
2f
  330
0
  100
AcDbSymbolTable
  70
    2
  0
BLOCK_RECORD
  5
30
  330
2f
  100
AcDbSymbolTableRecord
  100
AcDbBlockTableRecord
  2
*Model_Space
  0
BLOCK_RECORD
  5
31
  330
2f
  100
AcDbSymbolTableRecord
  100
AcDbBlockTableRecord
  2
*Paper_Space
  0
BLOCK_RECORD
  5
129
  330
2f
  100
AcDbSymbolTableRecord
  100
AcDbBlockTableRecord
  2
*D128
  340
0
  0
BLOCK_RECORD
  5
137
  330
2f
  100
AcDbSymbolTableRecord
  100
AcDbBlockTableRecord
  2
*D136
  340
0
  0
BLOCK_RECORD
  5
145
  330
2f
  100
AcDbSymbolTableRecord
  100
AcDbBlockTableRecord
  2
*D144
  340
0
  0
BLOCK_RECORD
  5
153
  330
2f
  100
AcDbSymbolTableRecord
  100
AcDbBlockTableRecord
  2
*D152
  340
0
  0
BLOCK_RECORD
  5
161
  330
2f
  100
AcDbSymbolTableRecord
  100
AcDbBlockTableRecord
  2
*D160
  340
0
  0
BLOCK_RECORD
  5
16b
  330
2f
  100
AcDbSymbolTableRecord
  100
AcDbBlockTableRecord
  2
*D16a
  340
0
  0
BLOCK_RECORD
  5
179
  330
2f
  100
AcDbSymbolTableRecord
  100
AcDbBlockTableRecord
  2
*D178
  340
0
  0
BLOCK_RECORD
  5
187
  330
2f
  100
AcDbSymbolTableRecord
  100
AcDbBlockTableRecord
  2
*D186
  340
0
  0
ENDTAB
  0
ENDSEC
  0
SECTION
  2
BLOCKS
  0
BLOCK
  5
32
  330
30
  100
AcDbEntity
  8
0
  100
AcDbBlockBegin
  2
*Model_Space
  70
    0
  10
0
  20
0
  30
0
  3
*Model_Space
  1

  0
ENDBLK
  5
33
  330
30
  100
AcDbEntity
  8
0
  100
AcDbBlockEnd
  0
BLOCK
  5
34
  330
31
  100
AcDbEntity
  8
0
  100
AcDbBlockBegin
  2
*Paper_Space
  70
    0
  10
0
  20
0
  30
0
  3
*Paper_Space
  1

  0
ENDBLK
  5
35
  330
31
  100
AcDbEntity
  8
0
  100
AcDbBlockEnd
  0
BLOCK
  5
127
  330
129
  100
AcDbEntity
  8
SK2
  100
AcDbBlockBegin
  2
*D128
  70
1
  10
0
  20
0
  30
0
  3
*D128
  1

  0
LINE
  5
12a
  330
129
  100
AcDbEntity
  8
SK2
  100
AcDbLine
  10
0
  20
3.3
  30
0
  11
0
  21
21
  31
0
  0
LINE
  5
12b
  330
129
  100
AcDbEntity
  8
SK2
  100
AcDbLine
  10
100
  20
-16
  30
0
  11
100
  21
21
  31
0
  0
LINE
  5
12c
  330
129
  100
AcDbEntity
  8
SK2
  100
AcDbLine
  10
0
  20
19
  30
0
  11
100
  21
19
  31
0
  0
SOLID
  5
12d
  330
129
  100
AcDbEntity
  8
SK2
  100
AcDbTrace
  10
0
  20
19
  30
0
  11
2.478612
  21
19.326315
  31
0
  12
2.478612
  22
18.673685
  32
0
  13
2.478612
  23
18.673685
  33
0
  0
SOLID
  5
12e
  330
129
  100
AcDbEntity
  8
SK2
  100
AcDbTrace
  10
100
  20
19
  30
0
  11
97.521388
  21
18.673685
  31
0
  12
97.521388
  22
19.326315
  32
0
  13
97.521388
  23
19.326315
  33
0
  0
MTEXT
  5
12f
  330
129
  100
AcDbEntity
  8
SK2
  100
AcDbMText
  10
50
  20
19
  30
0
  11
1
  21
0
  31
0
  40
2
  41
0
  71
8
  72
1
  1
100
  0
POINT
  5
130
  330
129
  100
AcDbEntity
  8
SK2
  62
0
  100
AcDbPoint
  10
0
  20
3.3
  30
0
  0
POINT
  5
131
  330
129
  100
AcDbEntity
  8
SK2
  62
0
  100
AcDbPoint
  10
100
  20
-16
  30
0
  0
POINT
  5
132
  330
129
  100
AcDbEntity
  8
SK2
  62
0
  100
AcDbPoint
  10
100
  20
19
  30
0
  0
ENDBLK
  5
133
  330
129
  100
AcDbEntity
  8
SK2
  100
AcDbBlockEnd
  0
BLOCK
  5
135
  330
137
  100
AcDbEntity
  8
SK2
  100
AcDbBlockBegin
  2
*D136
  70
1
  10
0
  20
0
  30
0
  3
*D136
  1

  0
LINE
  5
138
  330
137
  100
AcDbEntity
  8
SK2
  100
AcDbLine
  10
93.999
  20
3.1
  30
0
  11
93.999
  21
11.460128
  31
0
  0
LINE
  5
139
  330
137
  100
AcDbEntity
  8
SK2
  100
AcDbLine
  10
59.999
  20
4
  30
0
  11
59.999
  21
11.460128
  31
0
  0
LINE
  5
13a
  330
137
  100
AcDbEntity
  8
SK2
  100
AcDbLine
  10
93.999
  20
9.460128
  30
0
  11
59.999
  21
9.460128
  31
0
  0
SOLID
  5
13b
  330
137
  100
AcDbEntity
  8
SK2
  100
AcDbTrace
  10
93.999
  20
9.460128
  30
0
  11
96.477612
  21
9.786443
  31
0
  12
96.477612
  22
9.133812
  32
0
  13
96.477612
  23
9.133812
  33
0
  0
SOLID
  5
13c
  330
137
  100
AcDbEntity
  8
SK2
  100
AcDbTrace
  10
59.999
  20
9.460128
  30
0
  11
57.520388
  21
9.133812
  31
0
  12
57.520388
  22
9.786443
  32
0
  13
57.520388
  23
9.786443
  33
0
  0
MTEXT
  5
13d
  330
137
  100
AcDbEntity
  8
SK2
  100
AcDbMText
  10
68.018304
  20
9.460128
  30
0
  11
1
  21
-0
  31
0
  40
2
  41
0
  71
8
  72
1
  1
34
  0
POINT
  5
13e
  330
137
  100
AcDbEntity
  8
SK2
  62
0
  100
AcDbPoint
  10
93.999
  20
3.1
  30
0
  0
POINT
  5
13f
  330
137
  100
AcDbEntity
  8
SK2
  62
0
  100
AcDbPoint
  10
59.999
  20
4
  30
0
  0
POINT
  5
140
  330
137
  100
AcDbEntity
  8
SK2
  62
0
  100
AcDbPoint
  10
59.999
  20
9.460128
  30
0
  0
ENDBLK
  5
141
  330
137
  100
AcDbEntity
  8
SK2
  100
AcDbBlockEnd
  0
BLOCK
  5
143
  330
145
  100
AcDbEntity
  8
SK2
  100
AcDbBlockBegin
  2
*D144
  70
1
  10
0
  20
0
  30
0
  3
*D144
  1

  0
LINE
  5
146
  330
145
  100
AcDbEntity
  8
SK2
  100
AcDbLine
  10
60
  20
4
  30
0
  11
60
  21
16
  31
0
  0
LINE
  5
147
  330
145
  100
AcDbEntity
  8
SK2
  100
AcDbLine
  10
0
  20
3.3
  30
0
  11
0
  21
21
  31
0
  0
LINE
  5
148
  330
145
  100
AcDbEntity
  8
SK2
  100
AcDbLine
  10
60
  20
14
  30
0
  11
0
  21
14
  31
0
  0
SOLID
  5
149
  330
145
  100
AcDbEntity
  8
SK2
  100
AcDbTrace
  10
60
  20
14
  30
0
  11
62.478612
  21
14.326315
  31
0
  12
62.478612
  22
13.673685
  32
0
  13
62.478612
  23
13.673685
  33
0
  0
SOLID
  5
14a
  330
145
  100
AcDbEntity
  8
SK2
  100
AcDbTrace
  10
0
  20
14
  30
0
  11
-2.478612
  21
13.673685
  31
0
  12
-2.478612
  22
14.326315
  32
0
  13
-2.478612
  23
14.326315
  33
0
  0
MTEXT
  5
14b
  330
145
  100
AcDbEntity
  8
SK2
  100
AcDbMText
  10
30
  20
14
  30
0
  11
1
  21
-0
  31
0
  40
2
  41
0
  71
8
  72
1
  1
60
  0
POINT
  5
14c
  330
145
  100
AcDbEntity
  8
SK2
  62
0
  100
AcDbPoint
  10
60
  20
4
  30
0
  0
POINT
  5
14d
  330
145
  100
AcDbEntity
  8
SK2
  62
0
  100
AcDbPoint
  10
0
  20
3.3
  30
0
  0
POINT
  5
14e
  330
145
  100
AcDbEntity
  8
SK2
  62
0
  100
AcDbPoint
  10
0
  20
14
  30
0
  0
ENDBLK
  5
14f
  330
145
  100
AcDbEntity
  8
SK2
  100
AcDbBlockEnd
  0
BLOCK
  5
151
  330
153
  100
AcDbEntity
  8
2
  100
AcDbBlockBegin
  2
*D152
  70
1
  10
0
  20
0
  30
0
  3
*D152
  1

  0
LINE
  5
154
  330
153
  100
AcDbEntity
  8
2
  100
AcDbLine
  10
96
  20
-4
  30
0
  11
112
  21
-4
  31
0
  0
LINE
  5
155
  330
153
  100
AcDbEntity
  8
2
  100
AcDbLine
  10
96
  20
4
  30
0
  11
112
  21
4
  31
0
  0
LINE
  5
156
  330
153
  100
AcDbEntity
  8
2
  100
AcDbLine
  10
110
  20
-4
  30
0
  11
110
  21
4
  31
0
  0
SOLID
  5
157
  330
153
  100
AcDbEntity
  8
2
  100
AcDbTrace
  10
110
  20
-4
  30
0
  11
109.673685
  21
-1.521388
  31
0
  12
110.326315
  22
-1.521388
  32
0
  13
110.326315
  23
-1.521388
  33
0
  0
SOLID
  5
158
  330
153
  100
AcDbEntity
  8
2
  100
AcDbTrace
  10
110
  20
4
  30
0
  11
110.326315
  21
1.521388
  31
0
  12
109.673685
  22
1.521388
  32
0
  13
109.673685
  23
1.521388
  33
0
  0
MTEXT
  5
159
  330
153
  100
AcDbEntity
  8
2
  100
AcDbMText
  10
110
  20
0
  30
0
  11
0
  21
1
  31
0
  40
2
  41
0
  71
8
  72
1
  1
ﾘ8
  0
POINT
  5
15a
  330
153
  100
AcDbEntity
  8
2
  62
0
  100
AcDbPoint
  10
96
  20
-4
  30
0
  0
POINT
  5
15b
  330
153
  100
AcDbEntity
  8
2
  62
0
  100
AcDbPoint
  10
96
  20
4
  30
0
  0
POINT
  5
15c
  330
153
  100
AcDbEntity
  8
2
  62
0
  100
AcDbPoint
  10
110
  20
4
  30
0
  0
ENDBLK
  5
15d
  330
153
  100
AcDbEntity
  8
2
  100
AcDbBlockEnd
  0
BLOCK
  5
15f
  330
161
  100
AcDbEntity
  8
2
  100
AcDbBlockBegin
  2
*D160
  70
1
  10
0
  20
0
  30
0
  3
*D160
  1

  0
LINE
  5
162
  330
161
  100
AcDbEntity
  8
2
  100
AcDbLine
  10
96.643362
  20
1.696097
  30
0
  11
104.087614
  21
11.397635
  31
0
  0
MTEXT
  5
163
  330
161
  100
AcDbEntity
  8
2
  100
AcDbMText
  10
98
  20
3.464102
  30
0
  11
0.608761
  21
0.793353
  31
0
  40
2
  41
0
  71
8
  72
1
  1
R4
  0
SOLID
  5
164
  330
161
  100
AcDbEntity
  8
2
  100
AcDbTrace
  10
98
  20
3.464102
  30
0
  11
99.25
  21
5.629165
  31
0
  12
99.767767
  22
5.231869
  32
0
  13
99.767767
  23
5.231869
  33
0
  0
POINT
  5
165
  330
161
  100
AcDbEntity
  8
2
  62
0
  100
AcDbPoint
  10
96.643362
  20
1.696097
  30
0
  0
POINT
  5
166
  330
161
  100
AcDbEntity
  8
2
  62
0
  100
AcDbPoint
  10
96
  20
0
  30
0
  0
ENDBLK
  5
167
  330
161
  100
AcDbEntity
  8
2
  100
AcDbBlockEnd
  0
BLOCK
  5
169
  330
16b
  100
AcDbEntity
  8
2
  100
AcDbBlockBegin
  2
*D16a
  70
1
  10
0
  20
0
  30
0
  3
*D16a
  1

  0
LINE
  5
16c
  330
16b
  100
AcDbEntity
  8
2
  100
AcDbLine
  10
93.999
  20
-3.1
  30
0
  11
91.999
  21
-3.1
  31
0
  0
LINE
  5
16d
  330
16b
  100
AcDbEntity
  8
2
  100
AcDbLine
  10
93.999
  20
3.1
  30
0
  11
91.999
  21
3.1
  31
0
  0
LINE
  5
16e
  330
16b
  100
AcDbEntity
  8
2
  100
AcDbLine
  10
93.999
  20
-3.1
  30
0
  11
93.999
  21
9.616337
  31
0
  0
SOLID
  5
16f
  330
16b
  100
AcDbEntity
  8
2
  100
AcDbTrace
  10
93.999
  20
-3.1
  30
0
  11
93.672685
  21
-0.621388
  31
0
  12
94.325315
  22
-0.621388
  32
0
  13
94.325315
  23
-0.621388
  33
0
  0
SOLID
  5
170
  330
16b
  100
AcDbEntity
  8
2
  100
AcDbTrace
  10
93.999
  20
3.1
  30
0
  11
94.325315
  21
0.621388
  31
0
  12
93.672685
  22
0.621388
  32
0
  13
93.672685
  23
0.621388
  33
0
  0
MTEXT
  5
171
  330
16b
  100
AcDbEntity
  8
2
  100
AcDbMText
  10
93.999
  20
3.1
  30
0
  11
0
  21
1
  31
0
  40
2
  41
0
  71
8
  72
1
  1
ﾘ6.2
  0
POINT
  5
172
  330
16b
  100
AcDbEntity
  8
2
  62
0
  100
AcDbPoint
  10
91.999
  20
-3.1
  30
0
  0
POINT
  5
173
  330
16b
  100
AcDbEntity
  8
2
  62
0
  100
AcDbPoint
  10
91.999
  20
3.1
  30
0
  0
POINT
  5
174
  330
16b
  100
AcDbEntity
  8
2
  62
0
  100
AcDbPoint
  10
93.999
  20
9.616337
  30
0
  0
ENDBLK
  5
175
  330
16b
  100
AcDbEntity
  8
2
  100
AcDbBlockEnd
  0
BLOCK
  5
177
  330
179
  100
AcDbEntity
  8
2
  100
AcDbBlockBegin
  2
*D178
  70
1
  10
0
  20
0
  30
0
  3
*D178
  1

  0
LINE
  5
17a
  330
179
  100
AcDbEntity
  8
2
  100
AcDbLine
  10
100
  20
-16
  30
0
  11
100
  21
21
  31
0
  0
LINE
  5
17b
  330
179
  100
AcDbEntity
  8
2
  100
AcDbLine
  10
60
  20
4
  30
0
  11
60
  21
11
  31
0
  0
LINE
  5
17c
  330
179
  100
AcDbEntity
  8
2
  100
AcDbLine
  10
100
  20
9
  30
0
  11
60
  21
9
  31
0
  0
SOLID
  5
17d
  330
179
  100
AcDbEntity
  8
2
  100
AcDbTrace
  10
100
  20
9
  30
0
  11
102.478612
  21
9.326315
  31
0
  12
102.478612
  22
8.673685
  32
0
  13
102.478612
  23
8.673685
  33
0
  0
SOLID
  5
17e
  330
179
  100
AcDbEntity
  8
2
  100
AcDbTrace
  10
60
  20
9
  30
0
  11
57.521388
  21
8.673685
  31
0
  12
57.521388
  22
9.326315
  32
0
  13
57.521388
  23
9.326315
  33
0
  0
MTEXT
  5
17f
  330
179
  100
AcDbEntity
  8
2
  100
AcDbMText
  10
80
  20
9
  30
0
  11
1
  21
-0
  31
0
  40
2
  41
0
  71
8
  72
1
  1
40
  0
POINT
  5
180
  330
179
  100
AcDbEntity
  8
2
  62
0
  100
AcDbPoint
  10
100
  20
-16
  30
0
  0
POINT
  5
181
  330
179
  100
AcDbEntity
  8
2
  62
0
  100
AcDbPoint
  10
60
  20
4
  30
0
  0
POINT
  5
182
  330
179
  100
AcDbEntity
  8
2
  62
0
  100
AcDbPoint
  10
60
  20
9
  30
0
  0
ENDBLK
  5
183
  330
179
  100
AcDbEntity
  8
2
  100
AcDbBlockEnd
  0
BLOCK
  5
185
  330
187
  100
AcDbEntity
  8
2
  100
AcDbBlockBegin
  2
*D186
  70
1
  10
0
  20
0
  30
0
  3
*D186
  1

  0
LINE
  5
188
  330
187
  100
AcDbEntity
  8
2
  100
AcDbLine
  10
94.6
  20
-3.746999
  30
0
  11
94.6
  21
-16
  31
0
  0
LINE
  5
189
  330
187
  100
AcDbEntity
  8
2
  100
AcDbLine
  10
100
  20
-16
  30
0
  11
100
  21
21
  31
0
  0
LINE
  5
18a
  330
187
  100
AcDbEntity
  8
2
  100
AcDbLine
  10
94.6
  20
-14
  30
0
  11
100
  21
-14
  31
0
  0
SOLID
  5
18b
  330
187
  100
AcDbEntity
  8
2
  100
AcDbTrace
  10
94.6
  20
-14
  30
0
  11
97.078612
  21
-13.673685
  31
0
  12
97.078612
  22
-14.326315
  32
0
  13
97.078612
  23
-14.326315
  33
0
  0
SOLID
  5
18c
  330
187
  100
AcDbEntity
  8
2
  100
AcDbTrace
  10
100
  20
-14
  30
0
  11
97.521388
  21
-14.326315
  31
0
  12
97.521388
  22
-13.673685
  32
0
  13
97.521388
  23
-13.673685
  33
0
  0
MTEXT
  5
18d
  330
187
  100
AcDbEntity
  8
2
  100
AcDbMText
  10
97.3
  20
-14
  30
0
  11
1
  21
0
  31
0
  40
2
  41
0
  71
8
  72
1
  1
5.4
  0
POINT
  5
18e
  330
187
  100
AcDbEntity
  8
2
  62
0
  100
AcDbPoint
  10
94.6
  20
-3.746999
  30
0
  0
POINT
  5
18f
  330
187
  100
AcDbEntity
  8
2
  62
0
  100
AcDbPoint
  10
100
  20
21
  30
0
  0
POINT
  5
190
  330
187
  100
AcDbEntity
  8
2
  62
0
  100
AcDbPoint
  10
100
  20
-14
  30
0
  0
ENDBLK
  5
191
  330
187
  100
AcDbEntity
  8
2
  100
AcDbBlockEnd
  0
ENDSEC
  0
SECTION
  2
ENTITIES
  0
DIMENSION
  5
134
  100
AcDbEntity
  8
SK2
  100
AcDbDimension
  2
*D128
  10
100
  20
19
  30
0
  11
50
  21
19
  31
0
  70
160
  1
<>
  71
5
  3
STANDARD
  42
100
  100
AcDbAlignedDimension
  13
0
  23
3.3
  33
0
  14
100
  24
-16
  34
0
  50
0
  100
AcDbRotatedDimension
  0
DIMENSION
  5
142
  100
AcDbEntity
  8
SK2
  100
AcDbDimension
  2
*D136
  10
59.999
  20
9.460128
  30
0
  11
68.018304
  21
9.460128
  31
0
  70
160
  1
<>
  71
5
  3
STANDARD
  42
34
  100
AcDbAlignedDimension
  13
93.999
  23
3.1
  33
0
  14
59.999
  24
4
  34
0
  50
0
  100
AcDbRotatedDimension
  0
DIMENSION
  5
150
  100
AcDbEntity
  8
SK2
  100
AcDbDimension
  2
*D144
  10
0
  20
14
  30
0
  11
30
  21
14
  31
0
  70
160
  1
<>
  71
5
  3
STANDARD
  42
60
  100
AcDbAlignedDimension
  13
60
  23
4
  33
0
  14
0
  24
3.3
  34
0
  50
0
  100
AcDbRotatedDimension
  0
DIMENSION
  5
15e
  100
AcDbEntity
  8
2
  100
AcDbDimension
  2
*D152
  10
110
  20
4
  30
0
  11
110
  21
0
  31
0
  70
160
  1
%%c<>
  71
5
  3
STANDARD
  42
8
  100
AcDbAlignedDimension
  13
96
  23
-4
  33
0
  14
96
  24
4
  34
0
  50
-90
  100
AcDbRotatedDimension
  0
DIMENSION
  5
168
  100
AcDbEntity
  8
2
  100
AcDbDimension
  2
*D160
  10
96
  20
0
  30
0
  11
98
  21
3.464102
  31
0
  70
164
  1
R4
  71
5
  3
STANDARD
  100
AcDbRadialDimension
  15
98
  25
3.464102
  35
0
  50
52.5
  0
DIMENSION
  5
176
  100
AcDbEntity
  8
2
  100
AcDbDimension
  2
*D16a
  10
93.999
  20
9.616337
  30
0
  11
93.999
  21
3.1
  31
0
  70
160
  1
%%c<>
  71
5
  3
STANDARD
  42
6.2
  100
AcDbAlignedDimension
  13
91.999
  23
-3.1
  33
0
  14
91.999
  24
3.1
  34
0
  50
-90
  100
AcDbRotatedDimension
  0
DIMENSION
  5
184
  100
AcDbEntity
  8
2
  100
AcDbDimension
  2
*D178
  10
60
  20
9
  30
0
  11
80
  21
9
  31
0
  70
160
  1
<>
  71
5
  3
STANDARD
  42
40
  100
AcDbAlignedDimension
  13
100
  23
-16
  33
0
  14
60
  24
4
  34
0
  50
0
  100
AcDbRotatedDimension
  0
DIMENSION
  5
192
  100
AcDbEntity
  8
2
  100
AcDbDimension
  2
*D186
  10
100
  20
-14
  30
0
  11
97.3
  21
-14
  31
0
  70
160
  1
<>
  71
5
  3
STANDARD
  42
5.4
  100
AcDbAlignedDimension
  13
94.6
  23
-3.746999
  33
0
  14
100
  24
21
  34
0
  50
0
  100
AcDbRotatedDimension
  0
LINE
  5
36
  100
AcDbEntity
  8
1
  100
AcDbLine
  10
60
  20
-3.999974
  30
0
  11
93.999
  21
-3.1
  31
0
  0
LINE
  5
37
  100
AcDbEntity
  8
1
  100
AcDbLine
  10
93.999
  20
-3.1
  30
0
  11
93.999
  21
-3.464102
  31
0
  0
LINE
  5
38
  100
AcDbEntity
  8
1
  100
AcDbLine
  10
93.999
  20
-3.464102
  30
0
  11
94
  21
-3.464102
  31
0
  0
ARC
  5
39
  100
AcDbEntity
  8
1
  100
AcDbCircle
  10
96
  20
0
  30
0
  40
4
  100
AcDbArc
  50
240
  51
0
  0
ARC
  5
3a
  100
AcDbEntity
  8
1
  100
AcDbCircle
  10
96
  20
0
  30
0
  40
4
  100
AcDbArc
  50
0
  51
120
  0
LINE
  5
3b
  100
AcDbEntity
  8
1
  100
AcDbLine
  10
94
  20
3.464102
  30
0
  11
93.999
  21
3.464102
  31
0
  0
LINE
  5
3c
  100
AcDbEntity
  8
1
  100
AcDbLine
  10
93.999
  20
3.464102
  30
0
  11
93.999
  21
3.1
  31
0
  0
LINE
  5
3d
  100
AcDbEntity
  8
1
  100
AcDbLine
  10
93.999
  20
3.1
  30
0
  11
60
  21
3.999974
  31
0
  0
LINE
  5
3e
  100
AcDbEntity
  8
1
  100
AcDbLine
  10
60
  20
3.999974
  30
0
  11
60
  21
-3.999974
  31
0
  0
LINE
  5
3f
  100
AcDbEntity
  8
1
  100
AcDbLine
  10
94
  20
-3.464102
  30
0
  11
94
  21
3.464102
  31
0
  0
LINE
  5
40
  100
AcDbEntity
  8
1
  100
AcDbLine
  10
93.999
  20
3.464102
  30
0
  11
93.999
  21
-3.464102
  31
0
  0
LINE
  5
41
  100
AcDbEntity
  8
1
  100
AcDbLine
  10
93.999
  20
-3.1
  30
0
  11
93.999
  21
3.1
  31
0
  0
LINE
  5
42
  100
AcDbEntity
  8
1
  100
AcDbLine
  10
93.999
  20
3.1
  30
0
  11
93.999
  21
-3.1
  31
0
  0
LINE
  5
43
  100
AcDbEntity
  8
1
  100
AcDbLine
  10
99.313104
  20
-2.241281
  30
0
  11
99.3
  21
-2.260446
  31
0
  0
LINE
  5
44
  100
AcDbEntity
  8
1
  100
AcDbLine
  10
99.3
  20
-2.260446
  30
0
  11
99.2
  21
-2.397945
  31
0
  0
LINE
  5
45
  100
AcDbEntity
  8
1
  100
AcDbLine
  10
99.2
  20
-2.397945
  30
0
  11
99.1
  21
-2.523734
  31
0
  0
LINE
  5
46
  100
AcDbEntity
  8
1
  100
AcDbLine
  10
99.1
  20
-2.523734
  30
0
  11
99
  21
-2.640543
  31
0
  0
LINE
  5
47
  100
AcDbEntity
  8
1
  100
AcDbLine
  10
99
  20
-2.640543
  30
0
  11
98.9
  21
-2.749716
  31
0
  0
LINE
  5
48
  100
AcDbEntity
  8
1
  100
AcDbLine
  10
98.9
  20
-2.749716
  30
0
  11
98.8
  21
-2.852012
  31
0
  0
LINE
  5
49
  100
AcDbEntity
  8
1
  100
AcDbLine
  10
98.8
  20
-2.852012
  30
0
  11
98.7
  21
-2.947562
  31
0
  0
LINE
  5
4a
  100
AcDbEntity
  8
1
  100
AcDbLine
  10
98.7
  20
-2.947562
  30
0
  11
98.6
  21
-3.036721
  31
0
  0
LINE
  5
4b
  100
AcDbEntity
  8
1
  100
AcDbLine
  10
98.6
  20
-3.036721
  30
0
  11
98.5
  21
-3.120049
  31
0
  0
LINE
  5
4c
  100
AcDbEntity
  8
1
  100
AcDbLine
  10
98.5
  20
-3.120049
  30
0
  11
98.4
  21
-3.198014
  31
0
  0
LINE
  5
4d
  100
AcDbEntity
  8
1
  100
AcDbLine
  10
98.4
  20
-3.198014
  30
0
  11
98.3
  21
-3.27101
  31
0
  0
LINE
  5
4e
  100
AcDbEntity
  8
1
  100
AcDbLine
  10
98.3
  20
-3.27101
  30
0
  11
98.2
  21
-3.339368
  31
0
  0
LINE
  5
4f
  100
AcDbEntity
  8
1
  100
AcDbLine
  10
98.2
  20
-3.339368
  30
0
  11
98.1
  21
-3.403376
  31
0
  0
LINE
  5
50
  100
AcDbEntity
  8
1
  100
AcDbLine
  10
98.1
  20
-3.403376
  30
0
  11
98
  21
-3.46328
  31
0
  0
LINE
  5
51
  100
AcDbEntity
  8
1
  100
AcDbLine
  10
98
  20
-3.46328
  30
0
  11
97.9
  21
-3.519295
  31
0
  0
LINE
  5
52
  100
AcDbEntity
  8
1
  100
AcDbLine
  10
97.9
  20
-3.519295
  30
0
  11
97.8
  21
-3.571607
  31
0
  0
LINE
  5
53
  100
AcDbEntity
  8
1
  100
AcDbLine
  10
97.8
  20
-3.571607
  30
0
  11
97.7
  21
-3.62038
  31
0
  0
LINE
  5
54
  100
AcDbEntity
  8
1
  100
AcDbLine
  10
97.7
  20
-3.62038
  30
0
  11
97.6
  21
-3.66576
  31
0
  0
LINE
  5
55
  100
AcDbEntity
  8
1
  100
AcDbLine
  10
97.6
  20
-3.66576
  30
0
  11
97.5
  21
-3.707872
  31
0
  0
LINE
  5
56
  100
AcDbEntity
  8
1
  100
AcDbLine
  10
97.5
  20
-3.707872
  30
0
  11
97.4
  21
-3.74683
  31
0
  0
LINE
  5
57
  100
AcDbEntity
  8
1
  100
AcDbLine
  10
97.4
  20
-3.74683
  30
0
  11
97.3
  21
-3.782733
  31
0
  0
LINE
  5
58
  100
AcDbEntity
  8
1
  100
AcDbLine
  10
97.3
  20
-3.782733
  30
0
  11
97.2
  21
-3.815669
  31
0
  0
LINE
  5
59
  100
AcDbEntity
  8
1
  100
AcDbLine
  10
97.2
  20
-3.815669
  30
0
  11
97.1
  21
-3.845716
  31
0
  0
LINE
  5
5a
  100
AcDbEntity
  8
1
  100
AcDbLine
  10
97.1
  20
-3.845716
  30
0
  11
97
  21
-3.872942
  31
0
  0
LINE
  5
5b
  100
AcDbEntity
  8
1
  100
AcDbLine
  10
97
  20
-3.872942
  30
0
  11
96.9
  21
-3.897408
  31
0
  0
LINE
  5
5c
  100
AcDbEntity
  8
1
  100
AcDbLine
  10
96.9
  20
-3.897408
  30
0
  11
96.8
  21
-3.919167
  31
0
  0
LINE
  5
5d
  100
AcDbEntity
  8
1
  100
AcDbLine
  10
96.8
  20
-3.919167
  30
0
  11
96.7
  21
-3.938264
  31
0
  0
LINE
  5
5e
  100
AcDbEntity
  8
1
  100
AcDbLine
  10
96.7
  20
-3.938264
  30
0
  11
96.6
  21
-3.954739
  31
0
  0
LINE
  5
5f
  100
AcDbEntity
  8
1
  100
AcDbLine
  10
96.6
  20
-3.954739
  30
0
  11
96.5
  21
-3.968625
  31
0
  0
LINE
  5
60
  100
AcDbEntity
  8
1
  100
AcDbLine
  10
96.5
  20
-3.968625
  30
0
  11
96.4
  21
-3.979949
  31
0
  0
LINE
  5
61
  100
AcDbEntity
  8
1
  100
AcDbLine
  10
96.4
  20
-3.979949
  30
0
  11
96.3
  21
-3.988734
  31
0
  0
LINE
  5
62
  100
AcDbEntity
  8
1
  100
AcDbLine
  10
96.3
  20
-3.988734
  30
0
  11
96.2
  21
-3.994997
  31
0
  0
LINE
  5
63
  100
AcDbEntity
  8
1
  100
AcDbLine
  10
96.2
  20
-3.994997
  30
0
  11
96.1
  21
-3.99875
  31
0
  0
LINE
  5
64
  100
AcDbEntity
  8
1
  100
AcDbLine
  10
96.1
  20
-3.99875
  30
0
  11
96
  21
-4
  31
0
  0
LINE
  5
65
  100
AcDbEntity
  8
1
  100
AcDbLine
  10
96
  20
-4
  30
0
  11
95.9
  21
-3.99875
  31
0
  0
LINE
  5
66
  100
AcDbEntity
  8
1
  100
AcDbLine
  10
95.9
  20
-3.99875
  30
0
  11
95.8
  21
-3.994997
  31
0
  0
LINE
  5
67
  100
AcDbEntity
  8
1
  100
AcDbLine
  10
95.8
  20
-3.994997
  30
0
  11
95.7
  21
-3.988734
  31
0
  0
LINE
  5
68
  100
AcDbEntity
  8
1
  100
AcDbLine
  10
95.7
  20
-3.988734
  30
0
  11
95.6
  21
-3.979949
  31
0
  0
LINE
  5
69
  100
AcDbEntity
  8
1
  100
AcDbLine
  10
95.6
  20
-3.979949
  30
0
  11
95.5
  21
-3.968625
  31
0
  0
LINE
  5
6a
  100
AcDbEntity
  8
1
  100
AcDbLine
  10
95.5
  20
-3.968625
  30
0
  11
95.4
  21
-3.954739
  31
0
  0
LINE
  5
6b
  100
AcDbEntity
  8
1
  100
AcDbLine
  10
95.4
  20
-3.954739
  30
0
  11
95.3
  21
-3.938264
  31
0
  0
LINE
  5
6c
  100
AcDbEntity
  8
1
  100
AcDbLine
  10
95.3
  20
-3.938264
  30
0
  11
95.2
  21
-3.919167
  31
0
  0
LINE
  5
6d
  100
AcDbEntity
  8
1
  100
AcDbLine
  10
95.2
  20
-3.919167
  30
0
  11
95.1
  21
-3.897408
  31
0
  0
LINE
  5
6e
  100
AcDbEntity
  8
1
  100
AcDbLine
  10
95.1
  20
-3.897408
  30
0
  11
95
  21
-3.872942
  31
0
  0
LINE
  5
6f
  100
AcDbEntity
  8
1
  100
AcDbLine
  10
95
  20
-3.872942
  30
0
  11
94.9
  21
-3.845716
  31
0
  0
LINE
  5
70
  100
AcDbEntity
  8
1
  100
AcDbLine
  10
94.9
  20
-3.845716
  30
0
  11
94.8
  21
-3.815669
  31
0
  0
LINE
  5
71
  100
AcDbEntity
  8
1
  100
AcDbLine
  10
94.8
  20
-3.815669
  30
0
  11
94.7
  21
-3.782733
  31
0
  0
LINE
  5
72
  100
AcDbEntity
  8
1
  100
AcDbLine
  10
94.7
  20
-3.782733
  30
0
  11
94.6
  21
-3.74683
  31
0
  0
LINE
  5
73
  100
AcDbEntity
  8
1
  100
AcDbLine
  10
94.6
  20
-3.74683
  30
0
  11
94.565188
  21
-3.733807
  31
0
  0
LINE
  5
74
  100
AcDbEntity
  8
1
  100
AcDbLine
  10
94.6
  20
-3.673633
  30
0
  11
94.7
  21
-3.710096
  31
0
  0
LINE
  5
75
  100
AcDbEntity
  8
1
  100
AcDbLine
  10
94.7
  20
-3.710096
  30
0
  11
94.8
  21
-3.743537
  31
0
  0
LINE
  5
76
  100
AcDbEntity
  8
1
  100
AcDbLine
  10
94.8
  20
-3.743537
  30
0
  11
94.9
  21
-3.774037
  31
0
  0
LINE
  5
77
  100
AcDbEntity
  8
1
  100
AcDbLine
  10
94.9
  20
-3.774037
  30
0
  11
95
  21
-3.801667
  31
0
  0
LINE
  5
78
  100
AcDbEntity
  8
1
  100
AcDbLine
  10
95
  20
-3.801667
  30
0
  11
95.1
  21
-3.826492
  31
0
  0
LINE
  5
79
  100
AcDbEntity
  8
1
  100
AcDbLine
  10
95.1
  20
-3.826492
  30
0
  11
95.2
  21
-3.848566
  31
0
  0
LINE
  5
7a
  100
AcDbEntity
  8
1
  100
AcDbLine
  10
95.2
  20
-3.848566
  30
0
  11
95.3
  21
-3.867937
  31
0
  0
LINE
  5
7b
  100
AcDbEntity
  8
1
  100
AcDbLine
  10
95.3
  20
-3.867937
  30
0
  11
95.4
  21
-3.884646
  31
0
  0
LINE
  5
7c
  100
AcDbEntity
  8
1
  100
AcDbLine
  10
95.4
  20
-3.884646
  30
0
  11
95.5
  21
-3.898728
  31
0
  0
LINE
  5
7d
  100
AcDbEntity
  8
1
  100
AcDbLine
  10
95.5
  20
-3.898728
  30
0
  11
95.6
  21
-3.910211
  31
0
  0
LINE
  5
7e
  100
AcDbEntity
  8
1
  100
AcDbLine
  10
95.6
  20
-3.910211
  30
0
  11
95.7
  21
-3.919118
  31
0
  0
LINE
  5
7f
  100
AcDbEntity
  8
1
  100
AcDbLine
  10
95.7
  20
-3.919118
  30
0
  11
95.8
  21
-3.925468
  31
0
  0
LINE
  5
80
  100
AcDbEntity
  8
1
  100
AcDbLine
  10
95.8
  20
-3.925468
  30
0
  11
95.9
  21
-3.929273
  31
0
  0
LINE
  5
81
  100
AcDbEntity
  8
1
  100
AcDbLine
  10
95.9
  20
-3.929273
  30
0
  11
96
  21
-3.930541
  31
0
  0
LINE
  5
82
  100
AcDbEntity
  8
1
  100
AcDbLine
  10
96
  20
-3.930541
  30
0
  11
96.1
  21
-3.929273
  31
0
  0
LINE
  5
83
  100
AcDbEntity
  8
1
  100
AcDbLine
  10
96.1
  20
-3.929273
  30
0
  11
96.2
  21
-3.925468
  31
0
  0
LINE
  5
84
  100
AcDbEntity
  8
1
  100
AcDbLine
  10
96.2
  20
-3.925468
  30
0
  11
96.3
  21
-3.919118
  31
0
  0
LINE
  5
85
  100
AcDbEntity
  8
1
  100
AcDbLine
  10
96.3
  20
-3.919118
  30
0
  11
96.4
  21
-3.910211
  31
0
  0
LINE
  5
86
  100
AcDbEntity
  8
1
  100
AcDbLine
  10
96.4
  20
-3.910211
  30
0
  11
96.5
  21
-3.898728
  31
0
  0
LINE
  5
87
  100
AcDbEntity
  8
1
  100
AcDbLine
  10
96.5
  20
-3.898728
  30
0
  11
96.6
  21
-3.884646
  31
0
  0
LINE
  5
88
  100
AcDbEntity
  8
1
  100
AcDbLine
  10
96.6
  20
-3.884646
  30
0
  11
96.7
  21
-3.867937
  31
0
  0
LINE
  5
89
  100
AcDbEntity
  8
1
  100
AcDbLine
  10
96.7
  20
-3.867937
  30
0
  11
96.8
  21
-3.848566
  31
0
  0
LINE
  5
8a
  100
AcDbEntity
  8
1
  100
AcDbLine
  10
96.8
  20
-3.848566
  30
0
  11
96.9
  21
-3.826492
  31
0
  0
LINE
  5
8b
  100
AcDbEntity
  8
1
  100
AcDbLine
  10
96.9
  20
-3.826492
  30
0
  11
97
  21
-3.801667
  31
0
  0
LINE
  5
8c
  100
AcDbEntity
  8
1
  100
AcDbLine
  10
97
  20
-3.801667
  30
0
  11
97.1
  21
-3.774037
  31
0
  0
LINE
  5
8d
  100
AcDbEntity
  8
1
  100
AcDbLine
  10
97.1
  20
-3.774037
  30
0
  11
97.2
  21
-3.743537
  31
0
  0
LINE
  5
8e
  100
AcDbEntity
  8
1
  100
AcDbLine
  10
97.2
  20
-3.743537
  30
0
  11
97.3
  21
-3.710096
  31
0
  0
LINE
  5
8f
  100
AcDbEntity
  8
1
  100
AcDbLine
  10
97.3
  20
-3.710096
  30
0
  11
97.4
  21
-3.673633
  31
0
  0
LINE
  5
90
  100
AcDbEntity
  8
1
  100
AcDbLine
  10
97.4
  20
-3.673633
  30
0
  11
97.5
  21
-3.634055
  31
0
  0
LINE
  5
91
  100
AcDbEntity
  8
1
  100
AcDbLine
  10
97.5
  20
-3.634055
  30
0
  11
97.6
  21
-3.591259
  31
0
  0
LINE
  5
92
  100
AcDbEntity
  8
1
  100
AcDbLine
  10
97.6
  20
-3.591259
  30
0
  11
97.7
  21
-3.545124
  31
0
  0
LINE
  5
93
  100
AcDbEntity
  8
1
  100
AcDbLine
  10
97.7
  20
-3.545124
  30
0
  11
97.8
  21
-3.495518
  31
0
  0
LINE
  5
94
  100
AcDbEntity
  8
1
  100
AcDbLine
  10
97.8
  20
-3.495518
  30
0
  11
97.9
  21
-3.442288
  31
0
  0
LINE
  5
95
  100
AcDbEntity
  8
1
  100
AcDbLine
  10
97.9
  20
-3.442288
  30
0
  11
98
  21
-3.38526
  31
0
  0
LINE
  5
96
  100
AcDbEntity
  8
1
  100
AcDbLine
  10
98
  20
-3.38526
  30
0
  11
98.1
  21
-3.324236
  31
0
  0
LINE
  5
97
  100
AcDbEntity
  8
1
  100
AcDbLine
  10
98.1
  20
-3.324236
  30
0
  11
98.2
  21
-3.258988
  31
0
  0
LINE
  5
98
  100
AcDbEntity
  8
1
  100
AcDbLine
  10
98.2
  20
-3.258988
  30
0
  11
98.3
  21
-3.189252
  31
0
  0
LINE
  5
99
  100
AcDbEntity
  8
1
  100
AcDbLine
  10
98.3
  20
-3.189252
  30
0
  11
98.4
  21
-3.114723
  31
0
  0
LINE
  5
9a
  100
AcDbEntity
  8
1
  100
AcDbLine
  10
98.4
  20
-3.114723
  30
0
  11
98.5
  21
-3.035043
  31
0
  0
LINE
  5
9b
  100
AcDbEntity
  8
1
  100
AcDbLine
  10
98.5
  20
-3.035043
  30
0
  11
98.6
  21
-2.949786
  31
0
  0
LINE
  5
9c
  100
AcDbEntity
  8
1
  100
AcDbLine
  10
98.6
  20
-2.949786
  30
0
  11
98.7
  21
-2.858448
  31
0
  0
LINE
  5
9d
  100
AcDbEntity
  8
1
  100
AcDbLine
  10
98.7
  20
-2.858448
  30
0
  11
98.8
  21
-2.760414
  31
0
  0
LINE
  5
9e
  100
AcDbEntity
  8
1
  100
AcDbLine
  10
98.8
  20
-2.760414
  30
0
  11
98.9
  21
-2.656015
  31
0
  0
LINE
  5
9f
  100
AcDbEntity
  8
1
  100
AcDbLine
  10
98.9
  20
-2.656015
  30
0
  11
99
  21
-2.546516
  31
0
  0
LINE
  5
a0
  100
AcDbEntity
  8
1
  100
AcDbLine
  10
99
  20
-2.546516
  30
0
  11
99.1
  21
-2.431932
  31
0
  0
LINE
  5
a1
  100
AcDbEntity
  8
1
  100
AcDbLine
  10
99.1
  20
-2.431932
  30
0
  11
99.2
  21
-2.31225
  31
0
  0
LINE
  5
a2
  100
AcDbEntity
  8
1
  100
AcDbLine
  10
99.2
  20
-2.31225
  30
0
  11
99.3
  21
-2.187568
  31
0
  0
LINE
  5
a3
  100
AcDbEntity
  8
1
  100
AcDbLine
  10
99.3
  20
-2.187568
  30
0
  11
99.4
  21
-2.058116
  31
0
  0
LINE
  5
a4
  100
AcDbEntity
  8
1
  100
AcDbLine
  10
99.4
  20
-1.000544
  30
0
  11
99.4
  21
2.103106
  31
0
  0
LINE
  5
a5
  100
AcDbEntity
  8
1
  100
AcDbLine
  10
99.313104
  20
2.241281
  30
0
  11
99.4
  21
2.103106
  31
0
  0
LINE
  5
a6
  100
AcDbEntity
  8
1
  100
AcDbLine
  10
99.4
  20
2.103106
  30
0
  11
99.4
  21
-1.000544
  31
0
  0
LINE
  5
a7
  100
AcDbEntity
  8
1
  100
AcDbLine
  10
99.4
  20
-1.000544
  30
0
  11
99.3
  21
-1.384856
  31
0
  0
LINE
  5
a8
  100
AcDbEntity
  8
1
  100
AcDbLine
  10
99.3
  20
-1.384856
  30
0
  11
99.2
  21
-1.653791
  31
0
  0
LINE
  5
a9
  100
AcDbEntity
  8
1
  100
AcDbLine
  10
99.2
  20
-1.653791
  30
0
  11
99.1
  21
-1.869772
  31
0
  0
LINE
  5
aa
  100
AcDbEntity
  8
1
  100
AcDbLine
  10
99.1
  20
-1.869772
  30
0
  11
99
  21
-2.053033
  31
0
  0
LINE
  5
ab
  100
AcDbEntity
  8
1
  100
AcDbLine
  10
99
  20
-2.053033
  30
0
  11
98.9
  21
-2.213241
  31
0
  0
LINE
  5
ac
  100
AcDbEntity
  8
1
  100
AcDbLine
  10
98.9
  20
-2.213241
  30
0
  11
98.8
  21
-2.355918
  31
0
  0
LINE
  5
ad
  100
AcDbEntity
  8
1
  100
AcDbLine
  10
98.8
  20
-2.355918
  30
0
  11
98.7
  21
-2.484579
  31
0
  0
LINE
  5
ae
  100
AcDbEntity
  8
1
  100
AcDbLine
  10
98.7
  20
-2.484579
  30
0
  11
98.6
  21
-2.601624
  31
0
  0
LINE
  5
af
  100
AcDbEntity
  8
1
  100
AcDbLine
  10
98.6
  20
-2.601624
  30
0
  11
98.5
  21
-2.708782
  31
0
  0
LINE
  5
b0
  100
AcDbEntity
  8
1
  100
AcDbLine
  10
98.5
  20
-2.708782
  30
0
  11
98.4
  21
-2.807345
  31
0
  0
LINE
  5
b1
  100
AcDbEntity
  8
1
  100
AcDbLine
  10
98.4
  20
-2.807345
  30
0
  11
98.3
  21
-2.89831
  31
0
  0
LINE
  5
b2
  100
AcDbEntity
  8
1
  100
AcDbLine
  10
98.3
  20
-2.89831
  30
0
  11
98.2
  21
-2.982462
  31
0
  0
LINE
  5
b3
  100
AcDbEntity
  8
1
  100
AcDbLine
  10
98.2
  20
-2.982462
  30
0
  11
98.1
  21
-3.060437
  31
0
  0
LINE
  5
b4
  100
AcDbEntity
  8
1
  100
AcDbLine
  10
98.1
  20
-3.060437
  30
0
  11
98
  21
-3.132753
  31
0
  0
LINE
  5
b5
  100
AcDbEntity
  8
1
  100
AcDbLine
  10
98
  20
-3.132753
  30
0
  11
97.9
  21
-3.199841
  31
0
  0
LINE
  5
b6
  100
AcDbEntity
  8
1
  100
AcDbLine
  10
97.9
  20
-3.199841
  30
0
  11
97.8
  21
-3.262061
  31
0
  0
LINE
  5
b7
  100
AcDbEntity
  8
1
  100
AcDbLine
  10
97.8
  20
-3.262061
  30
0
  11
97.7
  21
-3.31972
  31
0
  0
LINE
  5
b8
  100
AcDbEntity
  8
1
  100
AcDbLine
  10
97.7
  20
-3.31972
  30
0
  11
97.6
  21
-3.373077
  31
0
  0
LINE
  5
b9
  100
AcDbEntity
  8
1
  100
AcDbLine
  10
97.6
  20
-3.373077
  30
0
  11
97.5
  21
-3.422358
  31
0
  0
LINE
  5
ba
  100
AcDbEntity
  8
1
  100
AcDbLine
  10
97.5
  20
-3.422358
  30
0
  11
97.4
  21
-3.467754
  31
0
  0
LINE
  5
bb
  100
AcDbEntity
  8
1
  100
AcDbLine
  10
97.4
  20
-3.467754
  30
0
  11
97.3
  21
-3.509434
  31
0
  0
LINE
  5
bc
  100
AcDbEntity
  8
1
  100
AcDbLine
  10
97.3
  20
-3.509434
  30
0
  11
97.2
  21
-3.547543
  31
0
  0
LINE
  5
bd
  100
AcDbEntity
  8
1
  100
AcDbLine
  10
97.2
  20
-3.547543
  30
0
  11
97.1
  21
-3.582206
  31
0
  0
LINE
  5
be
  100
AcDbEntity
  8
1
  100
AcDbLine
  10
97.1
  20
-3.582206
  30
0
  11
97
  21
-3.613534
  31
0
  0
LINE
  5
bf
  100
AcDbEntity
  8
1
  100
AcDbLine
  10
97
  20
-3.613534
  30
0
  11
96.9
  21
-3.641622
  31
0
  0
LINE
  5
c0
  100
AcDbEntity
  8
1
  100
AcDbLine
  10
96.9
  20
-3.641622
  30
0
  11
96.8
  21
-3.666551
  31
0
  0
LINE
  5
c1
  100
AcDbEntity
  8
1
  100
AcDbLine
  10
96.8
  20
-3.666551
  30
0
  11
96.7
  21
-3.688394
  31
0
  0
LINE
  5
c2
  100
AcDbEntity
  8
1
  100
AcDbLine
  10
96.7
  20
-3.688394
  30
0
  11
96.6
  21
-3.707209
  31
0
  0
LINE
  5
c3
  100
AcDbEntity
  8
1
  100
AcDbLine
  10
96.6
  20
-3.707209
  30
0
  11
96.5
  21
-3.723047
  31
0
  0
LINE
  5
c4
  100
AcDbEntity
  8
1
  100
AcDbLine
  10
96.5
  20
-3.723047
  30
0
  11
96.4
  21
-3.735951
  31
0
  0
LINE
  5
c5
  100
AcDbEntity
  8
1
  100
AcDbLine
  10
96.4
  20
-3.735951
  30
0
  11
96.3
  21
-3.745953
  31
0
  0
LINE
  5
c6
  100
AcDbEntity
  8
1
  100
AcDbLine
  10
96.3
  20
-3.745953
  30
0
  11
96.2
  21
-3.75308
  31
0
  0
LINE
  5
c7
  100
AcDbEntity
  8
1
  100
AcDbLine
  10
96.2
  20
-3.75308
  30
0
  11
96.1
  21
-3.757349
  31
0
  0
LINE
  5
c8
  100
AcDbEntity
  8
1
  100
AcDbLine
  10
96.1
  20
-3.757349
  30
0
  11
96
  21
-3.75877
  31
0
  0
LINE
  5
c9
  100
AcDbEntity
  8
1
  100
AcDbLine
  10
96
  20
-3.75877
  30
0
  11
95.9
  21
-3.757349
  31
0
  0
LINE
  5
ca
  100
AcDbEntity
  8
1
  100
AcDbLine
  10
95.9
  20
-3.757349
  30
0
  11
95.8
  21
-3.75308
  31
0
  0
LINE
  5
cb
  100
AcDbEntity
  8
1
  100
AcDbLine
  10
95.8
  20
-3.75308
  30
0
  11
95.7
  21
-3.745953
  31
0
  0
LINE
  5
cc
  100
AcDbEntity
  8
1
  100
AcDbLine
  10
95.7
  20
-3.745953
  30
0
  11
95.6
  21
-3.735951
  31
0
  0
LINE
  5
cd
  100
AcDbEntity
  8
1
  100
AcDbLine
  10
95.6
  20
-3.735951
  30
0
  11
95.5
  21
-3.723047
  31
0
  0
LINE
  5
ce
  100
AcDbEntity
  8
1
  100
AcDbLine
  10
95.5
  20
-3.723047
  30
0
  11
95.4
  21
-3.707209
  31
0
  0
LINE
  5
cf
  100
AcDbEntity
  8
1
  100
AcDbLine
  10
95.4
  20
-3.707209
  30
0
  11
95.3
  21
-3.688394
  31
0
  0
LINE
  5
d0
  100
AcDbEntity
  8
1
  100
AcDbLine
  10
95.3
  20
-3.688394
  30
0
  11
95.2
  21
-3.666551
  31
0
  0
LINE
  5
d1
  100
AcDbEntity
  8
1
  100
AcDbLine
  10
95.2
  20
-3.666551
  30
0
  11
95.1
  21
-3.641622
  31
0
  0
LINE
  5
d2
  100
AcDbEntity
  8
1
  100
AcDbLine
  10
95.1
  20
-3.641622
  30
0
  11
95
  21
-3.613534
  31
0
  0
LINE
  5
d3
  100
AcDbEntity
  8
1
  100
AcDbLine
  10
95
  20
-3.613534
  30
0
  11
94.9
  21
-3.582206
  31
0
  0
LINE
  5
d4
  100
AcDbEntity
  8
1
  100
AcDbLine
  10
94.9
  20
-3.582206
  30
0
  11
94.8
  21
-3.547543
  31
0
  0
LINE
  5
d5
  100
AcDbEntity
  8
1
  100
AcDbLine
  10
94.8
  20
-3.547543
  30
0
  11
94.7
  21
-3.509434
  31
0
  0
LINE
  5
d6
  100
AcDbEntity
  8
1
  100
AcDbLine
  10
94.7
  20
-3.509434
  30
0
  11
94.6
  21
-3.467754
  31
0
  0
LINE
  5
d7
  100
AcDbEntity
  8
1
  100
AcDbLine
  10
94.6
  20
-3.467754
  30
0
  11
94.5
  21
-3.356363
  31
0
  0
LINE
  5
d8
  100
AcDbEntity
  8
1
  100
AcDbLine
  10
94.5
  20
-3.356363
  30
0
  11
94.4
  21
-3.074781
  31
0
  0
LINE
  5
d9
  100
AcDbEntity
  8
1
  100
AcDbLine
  10
94.4
  20
-3.074781
  30
0
  11
94.3
  21
-2.543318
  31
0
  0
LINE
  5
da
  100
AcDbEntity
  8
1
  100
AcDbLine
  10
94.3
  20
-2.543318
  30
0
  11
94.2
  21
-1.69521
  31
0
  0
LINE
  5
db
  100
AcDbEntity
  8
1
  100
AcDbLine
  10
94.2
  20
-1.69521
  30
0
  11
94.1
  21
-0.549252
  31
0
  0
LINE
  5
dc
  100
AcDbEntity
  8
1
  100
AcDbLine
  10
94.1
  20
-0.549252
  30
0
  11
94
  21
0.745959
  31
0
  0
LINE
  5
dd
  100
AcDbEntity
  8
1
  100
AcDbLine
  10
94
  20
0.745959
  30
0
  11
94
  21
2.237608
  31
0
  0
LINE
  5
de
  100
AcDbEntity
  8
1
  100
AcDbLine
  10
94
  20
2.237608
  30
0
  11
94.1
  21
2.841153
  31
0
  0
LINE
  5
df
  100
AcDbEntity
  8
1
  100
AcDbLine
  10
94.1
  20
2.841153
  30
0
  11
94.2
  21
3.265769
  31
0
  0
LINE
  5
e0
  100
AcDbEntity
  8
1
  100
AcDbLine
  10
94.2
  20
3.265769
  30
0
  11
94.3
  21
3.51928
  31
0
  0
LINE
  5
e1
  100
AcDbEntity
  8
1
  100
AcDbLine
  10
94.3
  20
3.51928
  30
0
  11
94.4
  21
3.647086
  31
0
  0
LINE
  5
e2
  100
AcDbEntity
  8
1
  100
AcDbLine
  10
94.4
  20
3.647086
  30
0
  11
94.5
  21
3.707501
  31
0
  0
LINE
  5
e3
  100
AcDbEntity
  8
1
  100
AcDbLine
  10
94.5
  20
3.707501
  30
0
  11
94.565188
  21
3.733807
  31
0
  0
LINE
  5
e4
  100
AcDbEntity
  8
SK1
  100
AcDbLine
  10
60
  20
3.999974
  30
0
  11
59.999
  21
4
  31
0
  0
LINE
  5
e5
  100
AcDbEntity
  8
SK1
  100
AcDbLine
  10
59.999
  20
4
  30
0
  11
60
  21
4
  31
0
  0
LINE
  5
e6
  100
AcDbEntity
  8
SK1
  100
AcDbLine
  10
60
  20
4
  30
0
  11
0.7
  21
4
  31
0
  0
LINE
  5
e7
  100
AcDbEntity
  8
SK1
  100
AcDbLine
  10
0.7
  20
4
  30
0
  11
0
  21
3.3
  31
0
  0
LINE
  5
e8
  100
AcDbEntity
  8
SK1
  100
AcDbLine
  10
60
  20
-3.999974
  30
0
  11
59.999
  21
-4
  31
0
  0
LINE
  5
e9
  100
AcDbEntity
  8
SK1
  100
AcDbLine
  10
59.999
  20
-4
  30
0
  11
60
  21
-4
  31
0
  0
LINE
  5
ea
  100
AcDbEntity
  8
SK1
  100
AcDbLine
  10
60
  20
-4
  30
0
  11
0.7
  21
-4
  31
0
  0
LINE
  5
eb
  100
AcDbEntity
  8
SK1
  100
AcDbLine
  10
0.7
  20
-4
  30
0
  11
0
  21
-3.3
  31
0
  0
LINE
  5
ec
  100
AcDbEntity
  8
SK1
  100
AcDbLine
  10
59.999
  20
4
  30
0
  11
59.999
  21
-4
  31
0
  0
LINE
  5
ed
  100
AcDbEntity
  8
SK1
  100
AcDbLine
  10
0.7
  20
4
  30
0
  11
0.7
  21
-4
  31
0
  0
LINE
  5
ee
  100
AcDbEntity
  8
SK1
  100
AcDbLine
  10
0
  20
3.3
  30
0
  11
0
  21
-3.3
  31
0
  0
LINE
  5
ef
  100
AcDbEntity
  8
SK1
  100
AcDbLine
  10
61.0401
  20
1.40688
  30
0
  11
61.4069
  21
1.0401
  31
0
  0
LINE
  5
f0
  100
AcDbEntity
  8
SK1
  100
AcDbLine
  10
60.5328
  20
1.66666
  30
0
  11
61.6667
  21
0.532833
  31
0
  0
LINE
  5
f1
  100
AcDbEntity
  8
SK1
  100
AcDbLine
  10
60.2154
  20
1.73657
  30
0
  11
61.7366
  21
0.215434
  31
0
  0
LINE
  5
f2
  100
AcDbEntity
  8
SK1
  100
AcDbLine
  10
60
  20
1.70452
  30
0
  11
61.7045
  21
0
  31
0
  0
LINE
  5
f3
  100
AcDbEntity
  8
SK1
  100
AcDbLine
  10
60
  20
1.45703
  30
0
  11
61.457
  21
0
  31
0
  0
LINE
  5
f4
  100
AcDbEntity
  8
SK1
  100
AcDbLine
  10
60
  20
1.20954
  30
0
  11
61.2095
  21
0
  31
0
  0
LINE
  5
f5
  100
AcDbEntity
  8
SK1
  100
AcDbLine
  10
60
  20
0.962054
  30
0
  11
60.9621
  21
0
  31
0
  0
LINE
  5
f6
  100
AcDbEntity
  8
SK1
  100
AcDbLine
  10
60
  20
0.714566
  30
0
  11
60.7146
  21
0
  31
0
  0
LINE
  5
f7
  100
AcDbEntity
  8
SK1
  100
AcDbLine
  10
60
  20
0.467079
  30
0
  11
60.4671
  21
0
  31
0
  0
LINE
  5
f8
  100
AcDbEntity
  8
SK1
  100
AcDbLine
  10
60
  20
0.219592
  30
0
  11
60.2196
  21
0
  31
0
  0
LINE
  5
f9
  100
AcDbEntity
  8
SK1
  100
AcDbLine
  10
60
  20
1.70452
  30
0
  11
60.0441
  21
1.74861
  31
0
  0
LINE
  5
fa
  100
AcDbEntity
  8
SK1
  100
AcDbLine
  10
60
  20
1.45703
  30
0
  11
60.271
  21
1.72802
  31
0
  0
LINE
  5
fb
  100
AcDbEntity
  8
SK1
  100
AcDbLine
  10
60
  20
1.20954
  30
0
  11
60.4742
  21
1.6837
  31
0
  0
LINE
  5
fc
  100
AcDbEntity
  8
SK1
  100
AcDbLine
  10
60
  20
0.962054
  30
0
  11
60.6588
  21
1.62082
  31
0
  0
LINE
  5
fd
  100
AcDbEntity
  8
SK1
  100
AcDbLine
  10
60
  20
0.714566
  30
0
  11
60.8271
  21
1.54167
  31
0
  0
LINE
  5
fe
  100
AcDbEntity
  8
SK1
  100
AcDbLine
  10
60
  20
0.467079
  30
0
  11
60.981
  21
1.44812
  31
0
  0
LINE
  5
ff
  100
AcDbEntity
  8
SK1
  100
AcDbLine
  10
60
  20
0.219592
  30
0
  11
61.1226
  21
1.34216
  31
0
  0
LINE
  5
100
  100
AcDbEntity
  8
SK1
  100
AcDbLine
  10
60.0279
  20
0
  30
0
  11
61.2508
  21
1.22288
  31
0
  0
LINE
  5
101
  100
AcDbEntity
  8
SK1
  100
AcDbLine
  10
60.2754
  20
0
  30
0
  11
61.367
  21
1.09157
  31
0
  0
LINE
  5
102
  100
AcDbEntity
  8
SK1
  100
AcDbLine
  10
60.5229
  20
0
  30
0
  11
61.4707
  21
0.947822
  31
0
  0
LINE
  5
103
  100
AcDbEntity
  8
SK1
  100
AcDbLine
  10
60.7704
  20
0
  30
0
  11
61.5605
  21
0.790145
  31
0
  0
LINE
  5
104
  100
AcDbEntity
  8
SK1
  100
AcDbLine
  10
61.0178
  20
0
  30
0
  11
61.6364
  21
0.618517
  31
0
  0
LINE
  5
105
  100
AcDbEntity
  8
SK1
  100
AcDbLine
  10
61.2653
  20
0
  30
0
  11
61.696
  21
0.430696
  31
0
  0
LINE
  5
106
  100
AcDbEntity
  8
SK1
  100
AcDbLine
  10
61.5128
  20
0
  30
0
  11
61.7356
  21
0.222827
  31
0
  0
LINE
  5
107
  100
AcDbEntity
  8
SK1
  100
AcDbLine
  10
60
  20
0
  30
0
  11
60
  21
1.75
  31
0
  0
LINE
  5
108
  100
AcDbEntity
  8
SK1
  100
AcDbLine
  10
60
  20
0
  30
0
  11
61.75
  21
0
  31
0
  0
ARC
  5
109
  100
AcDbEntity
  8
SK1
  100
AcDbCircle
  10
60
  20
0
  30
0
  40
1.75
  100
AcDbArc
  50
0
  51
90
  0
ARC
  5
10a
  100
AcDbEntity
  8
SK1
  100
AcDbCircle
  10
60
  20
0
  30
0
  40
1.75
  100
AcDbArc
  50
90
  51
180
  0
LINE
  5
10b
  100
AcDbEntity
  8
SK1
  100
AcDbLine
  10
59.9721
  20
0
  30
0
  11
60
  21
-0.027896
  31
0
  0
LINE
  5
10c
  100
AcDbEntity
  8
SK1
  100
AcDbLine
  10
59.7246
  20
0
  30
0
  11
60
  21
-0.275383
  31
0
  0
LINE
  5
10d
  100
AcDbEntity
  8
SK1
  100
AcDbLine
  10
59.4771
  20
0
  30
0
  11
60
  21
-0.522871
  31
0
  0
LINE
  5
10e
  100
AcDbEntity
  8
SK1
  100
AcDbLine
  10
59.2296
  20
0
  30
0
  11
60
  21
-0.770358
  31
0
  0
LINE
  5
10f
  100
AcDbEntity
  8
SK1
  100
AcDbLine
  10
58.9822
  20
0
  30
0
  11
60
  21
-1.01785
  31
0
  0
LINE
  5
110
  100
AcDbEntity
  8
SK1
  100
AcDbLine
  10
58.7347
  20
0
  30
0
  11
60
  21
-1.26533
  31
0
  0
LINE
  5
111
  100
AcDbEntity
  8
SK1
  100
AcDbLine
  10
58.4872
  20
0
  30
0
  11
60
  21
-1.51282
  31
0
  0
LINE
  5
112
  100
AcDbEntity
  8
SK1
  100
AcDbLine
  10
58.2503
  20
-0.010642
  30
0
  11
59.9894
  21
-1.74967
  31
0
  0
LINE
  5
113
  100
AcDbEntity
  8
SK1
  100
AcDbLine
  10
58.2736
  20
-0.281429
  30
0
  11
59.7186
  21
-1.72637
  31
0
  0
LINE
  5
114
  100
AcDbEntity
  8
SK1
  100
AcDbLine
  10
58.3639
  20
-0.619147
  30
0
  11
59.3809
  21
-1.63613
  31
0
  0
LINE
  5
115
  100
AcDbEntity
  8
SK1
  100
AcDbLine
  10
58.2514
  20
-0.044098
  30
0
  11
58.2955
  21
0
  31
0
  0
LINE
  5
116
  100
AcDbEntity
  8
SK1
  100
AcDbLine
  10
58.272
  20
-0.270991
  30
0
  11
58.543
  21
0
  31
0
  0
LINE
  5
117
  100
AcDbEntity
  8
SK1
  100
AcDbLine
  10
58.3163
  20
-0.474162
  30
0
  11
58.7905
  21
0
  31
0
  0
LINE
  5
118
  100
AcDbEntity
  8
SK1
  100
AcDbLine
  10
58.3792
  20
-0.658762
  30
0
  11
59.0379
  21
0
  31
0
  0
LINE
  5
119
  100
AcDbEntity
  8
SK1
  100
AcDbLine
  10
58.4583
  20
-0.827105
  30
0
  11
59.2854
  21
0
  31
0
  0
LINE
  5
11a
  100
AcDbEntity
  8
SK1
  100
AcDbLine
  10
58.5519
  20
-0.981039
  30
0
  11
59.5329
  21
0
  31
0
  0
LINE
  5
11b
  100
AcDbEntity
  8
SK1
  100
AcDbLine
  10
58.6578
  20
-1.12257
  30
0
  11
59.7804
  21
0
  31
0
  0
LINE
  5
11c
  100
AcDbEntity
  8
SK1
  100
AcDbLine
  10
58.7771
  20
-1.25077
  30
0
  11
60
  21
-0.027896
  31
0
  0
LINE
  5
11d
  100
AcDbEntity
  8
SK1
  100
AcDbLine
  10
58.9084
  20
-1.36695
  30
0
  11
60
  21
-0.275383
  31
0
  0
LINE
  5
11e
  100
AcDbEntity
  8
SK1
  100
AcDbLine
  10
59.0522
  20
-1.47069
  30
0
  11
60
  21
-0.522871
  31
0
  0
LINE
  5
11f
  100
AcDbEntity
  8
SK1
  100
AcDbLine
  10
59.2099
  20
-1.5605
  30
0
  11
60
  21
-0.770358
  31
0
  0
LINE
  5
120
  100
AcDbEntity
  8
SK1
  100
AcDbLine
  10
59.3815
  20
-1.63636
  30
0
  11
60
  21
-1.01785
  31
0
  0
LINE
  5
121
  100
AcDbEntity
  8
SK1
  100
AcDbLine
  10
59.5693
  20
-1.69603
  30
0
  11
60
  21
-1.26533
  31
0
  0
LINE
  5
122
  100
AcDbEntity
  8
SK1
  100
AcDbLine
  10
59.7772
  20
-1.73565
  30
0
  11
60
  21
-1.51282
  31
0
  0
LINE
  5
123
  100
AcDbEntity
  8
SK1
  100
AcDbLine
  10
60
  20
0
  30
0
  11
58.25
  21
0
  31
0
  0
LINE
  5
124
  100
AcDbEntity
  8
SK1
  100
AcDbLine
  10
60
  20
-1.75
  30
0
  11
60
  21
0
  31
0
  0
ARC
  5
125
  100
AcDbEntity
  8
SK1
  100
AcDbCircle
  10
60
  20
0
  30
0
  40
1.75
  100
AcDbArc
  50
180
  51
270
  0
ARC
  5
126
  100
AcDbEntity
  8
SK1
  100
AcDbCircle
  10
60
  20
0
  30
0
  40
1.75
  100
AcDbArc
  50
270
  51
0
  0
LINE
  5
193
  100
AcDbEntity
  8
NOCUT
  100
AcDbLine
  10
94.6
  20
0
  30
0
  11
94.6
  21
3.746999
  31
0
  0
ARC
  5
194
  100
AcDbEntity
  8
NOCUT
  100
AcDbCircle
  10
96
  20
0
  30
0
  40
4
  100
AcDbArc
  50
110.487315
  51
120
  0
LINE
  5
195
  100
AcDbEntity
  8
NOCUT
  100
AcDbLine
  10
94
  20
3.464102
  30
0
  11
93.999
  21
3.464102
  31
0
  0
LINE
  5
196
  100
AcDbEntity
  8
NOCUT
  100
AcDbLine
  10
93.999
  20
3.464102
  30
0
  11
93.999
  21
3.1
  31
0
  0
LINE
  5
197
  100
AcDbEntity
  8
NOCUT
  100
AcDbLine
  10
93.999
  20
3.1
  30
0
  11
60
  21
3.999974
  31
0
  0
LINE
  5
198
  100
AcDbEntity
  8
NOCUT
  100
AcDbLine
  10
60
  20
3.999974
  30
0
  11
60
  21
0
  31
0
  0
LINE
  5
199
  100
AcDbEntity
  8
NOCUT
  100
AcDbLine
  10
60
  20
0
  30
0
  11
94.6
  21
0
  31
0
  0
ARC
  5
19a
  100
AcDbEntity
  8
CUT
  100
AcDbCircle
  10
96
  20
0
  30
0
  40
4
  100
AcDbArc
  50
0
  51
110.487315
  0
LINE
  5
19b
  100
AcDbEntity
  8
CUT
  100
AcDbLine
  10
94.6
  20
3.746999
  30
0
  11
94.6
  21
0
  31
0
  0
LINE
  5
19c
  100
AcDbEntity
  8
CUT
  100
AcDbLine
  10
94.6
  20
0
  30
0
  11
100
  21
0
  31
0
  0
LINE
  5
19d
  100
AcDbEntity
  8
4
  100
AcDbLine
  10
60
  20
0
  30
0
  11
100
  21
0
  31
0
  0
LINE
  5
19e
  100
AcDbEntity
  8
SK4
  100
AcDbLine
  10
-1
  20
0
  30
0
  11
101
  21
0
  31
0
  0
LINE
  5
19f
  100
AcDbEntity
  8
INFTOTAL
  100
AcDbLine
  10
-8.202543
  20
26.723931
  30
0
  11
117.723931
  21
26.723931
  31
0
  0
LINE
  5
1a0
  100
AcDbEntity
  8
INFTOTAL
  100
AcDbLine
  10
117.723931
  20
26.723931
  30
0
  11
117.723931
  21
-21.723931
  31
0
  0
LINE
  5
1a1
  100
AcDbEntity
  8
INFTOTAL
  100
AcDbLine
  10
117.723931
  20
-21.723931
  30
0
  11
-8.202543
  21
-21.723931
  31
0
  0
LINE
  5
1a2
  100
AcDbEntity
  8
INFTOTAL
  100
AcDbLine
  10
-8.202543
  20
-21.723931
  30
0
  11
-8.202543
  21
26.723931
  31
0
  0
ENDSEC
  0
SECTION
  2
OBJECTS
  0
DICTIONARY
  5
1a3
  330
0
100
AcDbDictionary
281
    1
  3
ACAD_GROUP
  350
1a4
  0
DICTIONARY
  5
1a4
102
{ACAD_REACTORS
  330
1a3
102
}
  330
1a3
100
AcDbDictionary
281
    1
  0
ENDSEC
  0
EOF
