  0
SECTION
  2
HEADER
  9
$ACADVER
  1
AC1015
  9
$DWGCODEPAGE
  3
ANSI_932
  9
$HANDSEED
  5
106AB90
  0
ENDSEC
  0
SECTION
  2
CLASSES
  0
CLASS
  1
IMAGEDEF
  2
AcDbRasterImageDef
  3
ISM
  90
0
  91
4
  280
0
  281
0
  0
CLASS
  1
IMAGE
  2
AcDbRasterImage
  3
ISM
  90
127
  91
5
  280
0
  281
1
  0
CLASS
  1
IMAGEDEF_REACTOR
  2
AcDbRasterImageDefReactor
  3
ISM
  90
1
  91
4
  280
0
  281
0
  0
ENDSEC
  0
SECTION
  2
TABLES
  0
TABLE
  2
VPORT
  5
2
  330
0
  100
AcDbSymbolTable
  70
    0
  0
ENDTAB
  0
TABLE
  2
LTYPE
  5
3
  330
0
  100
AcDbSymbolTable
  70
    4
  0
LTYPE
  5
4
  330
3
  100
AcDbSymbolTableRecord
  100
AcDbLinetypeTableRecord
  2
ByBlock
  70
    0
  3

  72
65
  73
    0
  40
0
  0
LTYPE
  5
5
  330
3
  100
AcDbSymbolTableRecord
  100
AcDbLinetypeTableRecord
  2
ByLayer
  70
    0
  3

  72
65
  73
    0
  40
0
  0
LTYPE
  5
6
  330
3
  100
AcDbSymbolTableRecord
  100
AcDbLinetypeTableRecord
  2
CONTINUOUS
  70
    0
  3
Solid Line
  72
65
  73
    0
  40
0
  0
LTYPE
  5
7
  330
3
  100
AcDbSymbolTableRecord
  100
AcDbLinetypeTableRecord
  2
DASH
  70
    0
  3
Hidden
  72
65
  73
2
  40
2.5
  49
1.5
  74
0
  49
-1
  74
0
  0
LTYPE
  5
8
  330
3
  100
AcDbSymbolTableRecord
  100
AcDbLinetypeTableRecord
  2
LONGDASHDASH
  70
    0
  3
__ . __
  72
65
  73
    4
  40
7
  49
4
  74
    0
  49
-1
  74
    0
  49
1
  74
    0
  49
-1
  74
    0
  0
ENDTAB
  0
TABLE
  2
LAYER
  5
9
  330
0
  100
AcDbSymbolTable
  70
    40
  0
LAYER
  5
a
  330
9
  100
AcDbSymbolTableRecord
  100
AcDbLayerTableRecord
  2
0
  70
    0
  62
    0
  6
CONTINUOUS
  390
0
  0
LAYER
  5
c
  330
9
  100
AcDbSymbolTableRecord
  100
AcDbLayerTableRecord
  2
1
  70
    0
  62
    4
  6
CONTINUOUS
  370
50
  390
0
  0
LAYER
  5
d
  330
9
  100
AcDbSymbolTableRecord
  100
AcDbLayerTableRecord
  2
2
  70
    0
  62
    7
  6
CONTINUOUS
  370
25
  390
0
  0
LAYER
  5
f
  330
9
  100
AcDbSymbolTableRecord
  100
AcDbLayerTableRecord
  2
4
  70
    0
  62
    2
  6
LONGDASHDASH
  370
25
  390
0
  0
LAYER
  5
13
  330
9
  100
AcDbSymbolTableRecord
  100
AcDbLayerTableRecord
  2
SK1
  70
    0
  62
    4
  6
CONTINUOUS
  370
50
  390
0
  0
LAYER
  5
14
  330
9
  100
AcDbSymbolTableRecord
  100
AcDbLayerTableRecord
  2
SK2
  70
    0
  62
    7
  6
CONTINUOUS
  370
25
  390
0
  0
LAYER
  5
16
  330
9
  100
AcDbSymbolTableRecord
  100
AcDbLayerTableRecord
  2
SK4
  70
    0
  62
    2
  6
LONGDASHDASH
  370
25
  390
0
  0
LAYER
  5
21
  330
9
  100
AcDbSymbolTableRecord
  100
AcDbLayerTableRecord
  2
NOCUT
  70
    0
  62
    7
  6
CONTINUOUS
  370
25
  390
0
  0
LAYER
  5
22
  330
9
  100
AcDbSymbolTableRecord
  100
AcDbLayerTableRecord
  2
CUT
  70
    0
  62
    1
  6
CONTINUOUS
  370
25
  390
0
  0
LAYER
  5
26
  330
9
  100
AcDbSymbolTableRecord
  100
AcDbLayerTableRecord
  2
INFTOTAL
  70
    0
  62
    9
  6
CONTINUOUS
  370
18
  390
0
  0
ENDTAB
  0
TABLE
  2
STYLE
  5
27
  330
0
  100
AcDbSymbolTable
  70
    1
  0
STYLE
  5
28
  330
27
  100
AcDbSymbolTableRecord
  100
AcDbTextStyleTableRecord
  2
Monospac821 BT
  70
    0
  40
    3.5
  41
1
  50
0
  71
0
  42
3
  3

  4

  1001
ACAD
  1000
Monospac821 BT
  1071
256
  0
ENDTAB
  0
TABLE
  2
VIEW
  5
29
  330
0
  100
AcDbSymbolTable
  70
    0
  0
ENDTAB
  0
TABLE
  2
UCS
  5
2a
  330
0
  100
AcDbSymbolTable
  70
    0
  0
ENDTAB
  0
TABLE
  2
APPID
  5
2b
  330
0
  100
AcDbSymbolTable
  70
    1
  0
APPID
  5
2c
  330
2b
  100
AcDbSymbolTableRecord
  100
AcDbRegAppTableRecord
  2
ACAD
  70
    0
  0
ENDTAB
  0
TABLE
  2
DIMSTYLE
  5
2d
  330
0
  100
AcDbSymbolTable
  70
    1
  100
AcDbDimStyleTable
  0
DIMSTYLE
  105
2e
  330
2d
  100
AcDbSymbolTableRecord
  100
AcDbDimStyleTableRecord
  2
STANDARD
  70
    0
  41
    3
  42
0.5
  44
1
  73
0
  77
1
  78
1
  140
3.5
  141
2.5
  143
0.03937
  147
0.8
  172
1
  174
1
  178
0
  179
1
  271
2
  279
1
  284
1
  340
28
  0
ENDTAB
  0
TABLE
  2
BLOCK_RECORD
  5
2f
  330
0
  100
AcDbSymbolTable
  70
    2
  0
BLOCK_RECORD
  5
30
  330
2f
  100
AcDbSymbolTableRecord
  100
AcDbBlockTableRecord
  2
*Model_Space
  0
BLOCK_RECORD
  5
31
  330
2f
  100
AcDbSymbolTableRecord
  100
AcDbBlockTableRecord
  2
*Paper_Space
  0
BLOCK_RECORD
  5
151
  330
2f
  100
AcDbSymbolTableRecord
  100
AcDbBlockTableRecord
  2
*D150
  340
0
  0
BLOCK_RECORD
  5
15f
  330
2f
  100
AcDbSymbolTableRecord
  100
AcDbBlockTableRecord
  2
*D15e
  340
0
  0
BLOCK_RECORD
  5
16d
  330
2f
  100
AcDbSymbolTableRecord
  100
AcDbBlockTableRecord
  2
*D16c
  340
0
  0
BLOCK_RECORD
  5
17b
  330
2f
  100
AcDbSymbolTableRecord
  100
AcDbBlockTableRecord
  2
*D17a
  340
0
  0
BLOCK_RECORD
  5
189
  330
2f
  100
AcDbSymbolTableRecord
  100
AcDbBlockTableRecord
  2
*D188
  340
0
  0
BLOCK_RECORD
  5
193
  330
2f
  100
AcDbSymbolTableRecord
  100
AcDbBlockTableRecord
  2
*D192
  340
0
  0
BLOCK_RECORD
  5
1a1
  330
2f
  100
AcDbSymbolTableRecord
  100
AcDbBlockTableRecord
  2
*D1a0
  340
0
  0
BLOCK_RECORD
  5
1af
  330
2f
  100
AcDbSymbolTableRecord
  100
AcDbBlockTableRecord
  2
*D1ae
  340
0
  0
ENDTAB
  0
ENDSEC
  0
SECTION
  2
BLOCKS
  0
BLOCK
  5
32
  330
30
  100
AcDbEntity
  8
0
  100
AcDbBlockBegin
  2
*Model_Space
  70
    0
  10
0
  20
0
  30
0
  3
*Model_Space
  1

  0
ENDBLK
  5
33
  330
30
  100
AcDbEntity
  8
0
  100
AcDbBlockEnd
  0
BLOCK
  5
34
  330
31
  100
AcDbEntity
  8
0
  100
AcDbBlockBegin
  2
*Paper_Space
  70
    0
  10
0
  20
0
  30
0
  3
*Paper_Space
  1

  0
ENDBLK
  5
35
  330
31
  100
AcDbEntity
  8
0
  100
AcDbBlockEnd
  0
BLOCK
  5
14f
  330
151
  100
AcDbEntity
  8
SK2
  100
AcDbBlockBegin
  2
*D150
  70
1
  10
0
  20
0
  30
0
  3
*D150
  1

  0
LINE
  5
152
  330
151
  100
AcDbEntity
  8
SK2
  100
AcDbLine
  10
0
  20
4.2
  30
0
  11
0
  21
22
  31
0
  0
LINE
  5
153
  330
151
  100
AcDbEntity
  8
SK2
  100
AcDbLine
  10
110
  20
-17
  30
0
  11
110
  21
22
  31
0
  0
LINE
  5
154
  330
151
  100
AcDbEntity
  8
SK2
  100
AcDbLine
  10
0
  20
20
  30
0
  11
110
  21
20
  31
0
  0
SOLID
  5
155
  330
151
  100
AcDbEntity
  8
SK2
  100
AcDbTrace
  10
0
  20
20
  30
0
  11
2.478612
  21
20.326315
  31
0
  12
2.478612
  22
19.673685
  32
0
  13
2.478612
  23
19.673685
  33
0
  0
SOLID
  5
156
  330
151
  100
AcDbEntity
  8
SK2
  100
AcDbTrace
  10
110
  20
20
  30
0
  11
107.521388
  21
19.673685
  31
0
  12
107.521388
  22
20.326315
  32
0
  13
107.521388
  23
20.326315
  33
0
  0
MTEXT
  5
157
  330
151
  100
AcDbEntity
  8
SK2
  100
AcDbMText
  10
55
  20
20
  30
0
  11
1
  21
0
  31
0
  40
2
  41
0
  71
8
  72
1
  1
110
  0
POINT
  5
158
  330
151
  100
AcDbEntity
  8
SK2
  62
0
  100
AcDbPoint
  10
0
  20
4.2
  30
0
  0
POINT
  5
159
  330
151
  100
AcDbEntity
  8
SK2
  62
0
  100
AcDbPoint
  10
110
  20
-17
  30
0
  0
POINT
  5
15a
  330
151
  100
AcDbEntity
  8
SK2
  62
0
  100
AcDbPoint
  10
110
  20
20
  30
0
  0
ENDBLK
  5
15b
  330
151
  100
AcDbEntity
  8
SK2
  100
AcDbBlockEnd
  0
BLOCK
  5
15d
  330
15f
  100
AcDbEntity
  8
SK2
  100
AcDbBlockBegin
  2
*D15e
  70
1
  10
0
  20
0
  30
0
  3
*D15e
  1

  0
LINE
  5
160
  330
15f
  100
AcDbEntity
  8
SK2
  100
AcDbLine
  10
102.499
  20
3.85
  30
0
  11
102.499
  21
11.460128
  31
0
  0
LINE
  5
161
  330
15f
  100
AcDbEntity
  8
SK2
  100
AcDbLine
  10
59.999
  20
5
  30
0
  11
59.999
  21
11.460128
  31
0
  0
LINE
  5
162
  330
15f
  100
AcDbEntity
  8
SK2
  100
AcDbLine
  10
102.499
  20
9.460128
  30
0
  11
59.999
  21
9.460128
  31
0
  0
SOLID
  5
163
  330
15f
  100
AcDbEntity
  8
SK2
  100
AcDbTrace
  10
102.499
  20
9.460128
  30
0
  11
104.977612
  21
9.786443
  31
0
  12
104.977612
  22
9.133812
  32
0
  13
104.977612
  23
9.133812
  33
0
  0
SOLID
  5
164
  330
15f
  100
AcDbEntity
  8
SK2
  100
AcDbTrace
  10
59.999
  20
9.460128
  30
0
  11
57.520388
  21
9.133812
  31
0
  12
57.520388
  22
9.786443
  32
0
  13
57.520388
  23
9.786443
  33
0
  0
MTEXT
  5
165
  330
15f
  100
AcDbEntity
  8
SK2
  100
AcDbMText
  10
76.518304
  20
9.460128
  30
0
  11
1
  21
-0
  31
0
  40
2
  41
0
  71
8
  72
1
  1
42.5
  0
POINT
  5
166
  330
15f
  100
AcDbEntity
  8
SK2
  62
0
  100
AcDbPoint
  10
102.499
  20
3.85
  30
0
  0
POINT
  5
167
  330
15f
  100
AcDbEntity
  8
SK2
  62
0
  100
AcDbPoint
  10
59.999
  20
5
  30
0
  0
POINT
  5
168
  330
15f
  100
AcDbEntity
  8
SK2
  62
0
  100
AcDbPoint
  10
59.999
  20
9.460128
  30
0
  0
ENDBLK
  5
169
  330
15f
  100
AcDbEntity
  8
SK2
  100
AcDbBlockEnd
  0
BLOCK
  5
16b
  330
16d
  100
AcDbEntity
  8
SK2
  100
AcDbBlockBegin
  2
*D16c
  70
1
  10
0
  20
0
  30
0
  3
*D16c
  1

  0
LINE
  5
16e
  330
16d
  100
AcDbEntity
  8
SK2
  100
AcDbLine
  10
60
  20
5
  30
0
  11
60
  21
17
  31
0
  0
LINE
  5
16f
  330
16d
  100
AcDbEntity
  8
SK2
  100
AcDbLine
  10
0
  20
4.2
  30
0
  11
0
  21
22
  31
0
  0
LINE
  5
170
  330
16d
  100
AcDbEntity
  8
SK2
  100
AcDbLine
  10
60
  20
15
  30
0
  11
0
  21
15
  31
0
  0
SOLID
  5
171
  330
16d
  100
AcDbEntity
  8
SK2
  100
AcDbTrace
  10
60
  20
15
  30
0
  11
62.478612
  21
15.326315
  31
0
  12
62.478612
  22
14.673685
  32
0
  13
62.478612
  23
14.673685
  33
0
  0
SOLID
  5
172
  330
16d
  100
AcDbEntity
  8
SK2
  100
AcDbTrace
  10
0
  20
15
  30
0
  11
-2.478612
  21
14.673685
  31
0
  12
-2.478612
  22
15.326315
  32
0
  13
-2.478612
  23
15.326315
  33
0
  0
MTEXT
  5
173
  330
16d
  100
AcDbEntity
  8
SK2
  100
AcDbMText
  10
30
  20
15
  30
0
  11
1
  21
-0
  31
0
  40
2
  41
0
  71
8
  72
1
  1
60
  0
POINT
  5
174
  330
16d
  100
AcDbEntity
  8
SK2
  62
0
  100
AcDbPoint
  10
60
  20
5
  30
0
  0
POINT
  5
175
  330
16d
  100
AcDbEntity
  8
SK2
  62
0
  100
AcDbPoint
  10
0
  20
4.2
  30
0
  0
POINT
  5
176
  330
16d
  100
AcDbEntity
  8
SK2
  62
0
  100
AcDbPoint
  10
0
  20
15
  30
0
  0
ENDBLK
  5
177
  330
16d
  100
AcDbEntity
  8
SK2
  100
AcDbBlockEnd
  0
BLOCK
  5
179
  330
17b
  100
AcDbEntity
  8
2
  100
AcDbBlockBegin
  2
*D17a
  70
1
  10
0
  20
0
  30
0
  3
*D17a
  1

  0
LINE
  5
17c
  330
17b
  100
AcDbEntity
  8
2
  100
AcDbLine
  10
105
  20
-5
  30
0
  11
122
  21
-5
  31
0
  0
LINE
  5
17d
  330
17b
  100
AcDbEntity
  8
2
  100
AcDbLine
  10
105
  20
5
  30
0
  11
122
  21
5
  31
0
  0
LINE
  5
17e
  330
17b
  100
AcDbEntity
  8
2
  100
AcDbLine
  10
120
  20
-5
  30
0
  11
120
  21
5
  31
0
  0
SOLID
  5
17f
  330
17b
  100
AcDbEntity
  8
2
  100
AcDbTrace
  10
120
  20
-5
  30
0
  11
119.673685
  21
-2.521388
  31
0
  12
120.326315
  22
-2.521388
  32
0
  13
120.326315
  23
-2.521388
  33
0
  0
SOLID
  5
180
  330
17b
  100
AcDbEntity
  8
2
  100
AcDbTrace
  10
120
  20
5
  30
0
  11
120.326315
  21
2.521388
  31
0
  12
119.673685
  22
2.521388
  32
0
  13
119.673685
  23
2.521388
  33
0
  0
MTEXT
  5
181
  330
17b
  100
AcDbEntity
  8
2
  100
AcDbMText
  10
120
  20
0
  30
0
  11
0
  21
1
  31
0
  40
2
  41
0
  71
8
  72
1
  1
ﾘ10
  0
POINT
  5
182
  330
17b
  100
AcDbEntity
  8
2
  62
0
  100
AcDbPoint
  10
105
  20
-5
  30
0
  0
POINT
  5
183
  330
17b
  100
AcDbEntity
  8
2
  62
0
  100
AcDbPoint
  10
105
  20
5
  30
0
  0
POINT
  5
184
  330
17b
  100
AcDbEntity
  8
2
  62
0
  100
AcDbPoint
  10
120
  20
5
  30
0
  0
ENDBLK
  5
185
  330
17b
  100
AcDbEntity
  8
2
  100
AcDbBlockEnd
  0
BLOCK
  5
187
  330
189
  100
AcDbEntity
  8
2
  100
AcDbBlockBegin
  2
*D188
  70
1
  10
0
  20
0
  30
0
  3
*D188
  1

  0
LINE
  5
18a
  330
189
  100
AcDbEntity
  8
2
  100
AcDbLine
  10
106.144785
  20
2.563977
  30
0
  11
113.587614
  21
12.26366
  31
0
  0
MTEXT
  5
18b
  330
189
  100
AcDbEntity
  8
2
  100
AcDbMText
  10
107.5
  20
4.330127
  30
0
  11
0.608761
  21
0.793353
  31
0
  40
2
  41
0
  71
8
  72
1
  1
R5
  0
SOLID
  5
18c
  330
189
  100
AcDbEntity
  8
2
  100
AcDbTrace
  10
107.5
  20
4.330127
  30
0
  11
108.75
  21
6.495191
  31
0
  12
109.267767
  22
6.097894
  32
0
  13
109.267767
  23
6.097894
  33
0
  0
POINT
  5
18d
  330
189
  100
AcDbEntity
  8
2
  62
0
  100
AcDbPoint
  10
106.144785
  20
2.563977
  30
0
  0
POINT
  5
18e
  330
189
  100
AcDbEntity
  8
2
  62
0
  100
AcDbPoint
  10
105
  20
0
  30
0
  0
ENDBLK
  5
18f
  330
189
  100
AcDbEntity
  8
2
  100
AcDbBlockEnd
  0
BLOCK
  5
191
  330
193
  100
AcDbEntity
  8
2
  100
AcDbBlockBegin
  2
*D192
  70
1
  10
0
  20
0
  30
0
  3
*D192
  1

  0
LINE
  5
194
  330
193
  100
AcDbEntity
  8
2
  100
AcDbLine
  10
102.499
  20
-3.85
  30
0
  11
100.499
  21
-3.85
  31
0
  0
LINE
  5
195
  330
193
  100
AcDbEntity
  8
2
  100
AcDbLine
  10
102.499
  20
3.85
  30
0
  11
100.499
  21
3.85
  31
0
  0
LINE
  5
196
  330
193
  100
AcDbEntity
  8
2
  100
AcDbLine
  10
102.499
  20
-3.85
  30
0
  11
102.499
  21
10.39604
  31
0
  0
SOLID
  5
197
  330
193
  100
AcDbEntity
  8
2
  100
AcDbTrace
  10
102.499
  20
-3.85
  30
0
  11
102.172685
  21
-1.371388
  31
0
  12
102.825315
  22
-1.371388
  32
0
  13
102.825315
  23
-1.371388
  33
0
  0
SOLID
  5
198
  330
193
  100
AcDbEntity
  8
2
  100
AcDbTrace
  10
102.499
  20
3.85
  30
0
  11
102.825315
  21
1.371388
  31
0
  12
102.172685
  22
1.371388
  32
0
  13
102.172685
  23
1.371388
  33
0
  0
MTEXT
  5
199
  330
193
  100
AcDbEntity
  8
2
  100
AcDbMText
  10
102.499
  20
3.85
  30
0
  11
0
  21
1
  31
0
  40
2
  41
0
  71
8
  72
1
  1
ﾘ7.7
  0
POINT
  5
19a
  330
193
  100
AcDbEntity
  8
2
  62
0
  100
AcDbPoint
  10
100.499
  20
-3.85
  30
0
  0
POINT
  5
19b
  330
193
  100
AcDbEntity
  8
2
  62
0
  100
AcDbPoint
  10
100.499
  20
3.85
  30
0
  0
POINT
  5
19c
  330
193
  100
AcDbEntity
  8
2
  62
0
  100
AcDbPoint
  10
102.499
  20
10.39604
  30
0
  0
ENDBLK
  5
19d
  330
193
  100
AcDbEntity
  8
2
  100
AcDbBlockEnd
  0
BLOCK
  5
19f
  330
1a1
  100
AcDbEntity
  8
2
  100
AcDbBlockBegin
  2
*D1a0
  70
1
  10
0
  20
0
  30
0
  3
*D1a0
  1

  0
LINE
  5
1a2
  330
1a1
  100
AcDbEntity
  8
2
  100
AcDbLine
  10
110
  20
-17
  30
0
  11
110
  21
22
  31
0
  0
LINE
  5
1a3
  330
1a1
  100
AcDbEntity
  8
2
  100
AcDbLine
  10
60
  20
5
  30
0
  11
60
  21
12
  31
0
  0
LINE
  5
1a4
  330
1a1
  100
AcDbEntity
  8
2
  100
AcDbLine
  10
110
  20
10
  30
0
  11
60
  21
10
  31
0
  0
SOLID
  5
1a5
  330
1a1
  100
AcDbEntity
  8
2
  100
AcDbTrace
  10
110
  20
10
  30
0
  11
112.478612
  21
10.326315
  31
0
  12
112.478612
  22
9.673685
  32
0
  13
112.478612
  23
9.673685
  33
0
  0
SOLID
  5
1a6
  330
1a1
  100
AcDbEntity
  8
2
  100
AcDbTrace
  10
60
  20
10
  30
0
  11
57.521388
  21
9.673685
  31
0
  12
57.521388
  22
10.326315
  32
0
  13
57.521388
  23
10.326315
  33
0
  0
MTEXT
  5
1a7
  330
1a1
  100
AcDbEntity
  8
2
  100
AcDbMText
  10
85
  20
10
  30
0
  11
1
  21
-0
  31
0
  40
2
  41
0
  71
8
  72
1
  1
50
  0
POINT
  5
1a8
  330
1a1
  100
AcDbEntity
  8
2
  62
0
  100
AcDbPoint
  10
110
  20
-17
  30
0
  0
POINT
  5
1a9
  330
1a1
  100
AcDbEntity
  8
2
  62
0
  100
AcDbPoint
  10
60
  20
5
  30
0
  0
POINT
  5
1aa
  330
1a1
  100
AcDbEntity
  8
2
  62
0
  100
AcDbPoint
  10
60
  20
10
  30
0
  0
ENDBLK
  5
1ab
  330
1a1
  100
AcDbEntity
  8
2
  100
AcDbBlockEnd
  0
BLOCK
  5
1ad
  330
1af
  100
AcDbEntity
  8
2
  100
AcDbBlockBegin
  2
*D1ae
  70
1
  10
0
  20
0
  30
0
  3
*D1ae
  1

  0
LINE
  5
1b0
  330
1af
  100
AcDbEntity
  8
2
  100
AcDbLine
  10
103.3
  20
-4.702127
  30
0
  11
103.3
  21
-17
  31
0
  0
LINE
  5
1b1
  330
1af
  100
AcDbEntity
  8
2
  100
AcDbLine
  10
110
  20
-17
  30
0
  11
110
  21
22
  31
0
  0
LINE
  5
1b2
  330
1af
  100
AcDbEntity
  8
2
  100
AcDbLine
  10
103.3
  20
-15
  30
0
  11
110
  21
-15
  31
0
  0
SOLID
  5
1b3
  330
1af
  100
AcDbEntity
  8
2
  100
AcDbTrace
  10
103.3
  20
-15
  30
0
  11
105.778612
  21
-14.673685
  31
0
  12
105.778612
  22
-15.326315
  32
0
  13
105.778612
  23
-15.326315
  33
0
  0
SOLID
  5
1b4
  330
1af
  100
AcDbEntity
  8
2
  100
AcDbTrace
  10
110
  20
-15
  30
0
  11
107.521388
  21
-15.326315
  31
0
  12
107.521388
  22
-14.673685
  32
0
  13
107.521388
  23
-14.673685
  33
0
  0
MTEXT
  5
1b5
  330
1af
  100
AcDbEntity
  8
2
  100
AcDbMText
  10
106.65
  20
-15
  30
0
  11
1
  21
0
  31
0
  40
2
  41
0
  71
8
  72
1
  1
6.7
  0
POINT
  5
1b6
  330
1af
  100
AcDbEntity
  8
2
  62
0
  100
AcDbPoint
  10
103.3
  20
-4.702127
  30
0
  0
POINT
  5
1b7
  330
1af
  100
AcDbEntity
  8
2
  62
0
  100
AcDbPoint
  10
110
  20
22
  30
0
  0
POINT
  5
1b8
  330
1af
  100
AcDbEntity
  8
2
  62
0
  100
AcDbPoint
  10
110
  20
-15
  30
0
  0
ENDBLK
  5
1b9
  330
1af
  100
AcDbEntity
  8
2
  100
AcDbBlockEnd
  0
ENDSEC
  0
SECTION
  2
ENTITIES
  0
DIMENSION
  5
15c
  100
AcDbEntity
  8
SK2
  100
AcDbDimension
  2
*D150
  10
110
  20
20
  30
0
  11
55
  21
20
  31
0
  70
160
  1
<>
  71
5
  3
STANDARD
  42
110
  100
AcDbAlignedDimension
  13
0
  23
4.2
  33
0
  14
110
  24
-17
  34
0
  50
0
  100
AcDbRotatedDimension
  0
DIMENSION
  5
16a
  100
AcDbEntity
  8
SK2
  100
AcDbDimension
  2
*D15e
  10
59.999
  20
9.460128
  30
0
  11
76.518304
  21
9.460128
  31
0
  70
160
  1
<>
  71
5
  3
STANDARD
  42
42.5
  100
AcDbAlignedDimension
  13
102.499
  23
3.85
  33
0
  14
59.999
  24
5
  34
0
  50
0
  100
AcDbRotatedDimension
  0
DIMENSION
  5
178
  100
AcDbEntity
  8
SK2
  100
AcDbDimension
  2
*D16c
  10
0
  20
15
  30
0
  11
30
  21
15
  31
0
  70
160
  1
<>
  71
5
  3
STANDARD
  42
60
  100
AcDbAlignedDimension
  13
60
  23
5
  33
0
  14
0
  24
4.2
  34
0
  50
0
  100
AcDbRotatedDimension
  0
DIMENSION
  5
186
  100
AcDbEntity
  8
2
  100
AcDbDimension
  2
*D17a
  10
120
  20
5
  30
0
  11
120
  21
0
  31
0
  70
160
  1
%%c<>
  71
5
  3
STANDARD
  42
10
  100
AcDbAlignedDimension
  13
105
  23
-5
  33
0
  14
105
  24
5
  34
0
  50
-90
  100
AcDbRotatedDimension
  0
DIMENSION
  5
190
  100
AcDbEntity
  8
2
  100
AcDbDimension
  2
*D188
  10
105
  20
0
  30
0
  11
107.5
  21
4.330127
  31
0
  70
164
  1
R5
  71
5
  3
STANDARD
  100
AcDbRadialDimension
  15
107.5
  25
4.330127
  35
0
  50
52.5
  0
DIMENSION
  5
19e
  100
AcDbEntity
  8
2
  100
AcDbDimension
  2
*D192
  10
102.499
  20
10.39604
  30
0
  11
102.499
  21
3.85
  31
0
  70
160
  1
%%c<>
  71
5
  3
STANDARD
  42
7.7
  100
AcDbAlignedDimension
  13
100.499
  23
-3.85
  33
0
  14
100.499
  24
3.85
  34
0
  50
-90
  100
AcDbRotatedDimension
  0
DIMENSION
  5
1ac
  100
AcDbEntity
  8
2
  100
AcDbDimension
  2
*D1a0
  10
60
  20
10
  30
0
  11
85
  21
10
  31
0
  70
160
  1
<>
  71
5
  3
STANDARD
  42
50
  100
AcDbAlignedDimension
  13
110
  23
-17
  33
0
  14
60
  24
5
  34
0
  50
0
  100
AcDbRotatedDimension
  0
DIMENSION
  5
1ba
  100
AcDbEntity
  8
2
  100
AcDbDimension
  2
*D1ae
  10
110
  20
-15
  30
0
  11
106.65
  21
-15
  31
0
  70
160
  1
<>
  71
5
  3
STANDARD
  42
6.7
  100
AcDbAlignedDimension
  13
103.3
  23
-4.702127
  33
0
  14
110
  24
22
  34
0
  50
0
  100
AcDbRotatedDimension
  0
LINE
  5
36
  100
AcDbEntity
  8
1
  100
AcDbLine
  10
60
  20
-4.999973
  30
0
  11
102.499
  21
-3.85
  31
0
  0
LINE
  5
37
  100
AcDbEntity
  8
1
  100
AcDbLine
  10
102.499
  20
-3.85
  30
0
  11
102.499
  21
-4.330127
  31
0
  0
LINE
  5
38
  100
AcDbEntity
  8
1
  100
AcDbLine
  10
102.499
  20
-4.330127
  30
0
  11
102.5
  21
-4.330127
  31
0
  0
ARC
  5
39
  100
AcDbEntity
  8
1
  100
AcDbCircle
  10
105
  20
0
  30
0
  40
5
  100
AcDbArc
  50
240
  51
0
  0
ARC
  5
3a
  100
AcDbEntity
  8
1
  100
AcDbCircle
  10
105
  20
0
  30
0
  40
5
  100
AcDbArc
  50
0
  51
120
  0
LINE
  5
3b
  100
AcDbEntity
  8
1
  100
AcDbLine
  10
102.5
  20
4.330127
  30
0
  11
102.499
  21
4.330127
  31
0
  0
LINE
  5
3c
  100
AcDbEntity
  8
1
  100
AcDbLine
  10
102.499
  20
4.330127
  30
0
  11
102.499
  21
3.85
  31
0
  0
LINE
  5
3d
  100
AcDbEntity
  8
1
  100
AcDbLine
  10
102.499
  20
3.85
  30
0
  11
60
  21
4.999973
  31
0
  0
LINE
  5
3e
  100
AcDbEntity
  8
1
  100
AcDbLine
  10
60
  20
4.999973
  30
0
  11
60
  21
-4.999973
  31
0
  0
LINE
  5
3f
  100
AcDbEntity
  8
1
  100
AcDbLine
  10
102.5
  20
-4.330127
  30
0
  11
102.5
  21
4.330127
  31
0
  0
LINE
  5
40
  100
AcDbEntity
  8
1
  100
AcDbLine
  10
102.499
  20
4.330127
  30
0
  11
102.499
  21
-4.330127
  31
0
  0
LINE
  5
41
  100
AcDbEntity
  8
1
  100
AcDbLine
  10
102.499
  20
-3.85
  30
0
  11
102.499
  21
3.85
  31
0
  0
LINE
  5
42
  100
AcDbEntity
  8
1
  100
AcDbLine
  10
102.499
  20
3.85
  30
0
  11
102.499
  21
-3.85
  31
0
  0
LINE
  5
43
  100
AcDbEntity
  8
1
  100
AcDbLine
  10
109.140943
  20
-2.802247
  30
0
  11
109.1
  21
-2.861394
  31
0
  0
LINE
  5
44
  100
AcDbEntity
  8
1
  100
AcDbLine
  10
109.1
  20
-2.861394
  30
0
  11
109
  21
-2.997432
  31
0
  0
LINE
  5
45
  100
AcDbEntity
  8
1
  100
AcDbLine
  10
109
  20
-2.997432
  30
0
  11
108.9
  21
-3.124191
  31
0
  0
LINE
  5
46
  100
AcDbEntity
  8
1
  100
AcDbLine
  10
108.9
  20
-3.124191
  30
0
  11
108.8
  21
-3.243488
  31
0
  0
LINE
  5
47
  100
AcDbEntity
  8
1
  100
AcDbLine
  10
108.8
  20
-3.243488
  30
0
  11
108.7
  21
-3.356349
  31
0
  0
LINE
  5
48
  100
AcDbEntity
  8
1
  100
AcDbLine
  10
108.7
  20
-3.356349
  30
0
  11
108.6
  21
-3.463387
  31
0
  0
LINE
  5
49
  100
AcDbEntity
  8
1
  100
AcDbLine
  10
108.6
  20
-3.463387
  30
0
  11
108.5
  21
-3.565014
  31
0
  0
LINE
  5
4a
  100
AcDbEntity
  8
1
  100
AcDbLine
  10
108.5
  20
-3.565014
  30
0
  11
108.4
  21
-3.661229
  31
0
  0
LINE
  5
4b
  100
AcDbEntity
  8
1
  100
AcDbLine
  10
108.4
  20
-3.661229
  30
0
  11
108.3
  21
-3.752232
  31
0
  0
LINE
  5
4c
  100
AcDbEntity
  8
1
  100
AcDbLine
  10
108.3
  20
-3.752232
  30
0
  11
108.2
  21
-3.838404
  31
0
  0
LINE
  5
4d
  100
AcDbEntity
  8
1
  100
AcDbLine
  10
108.2
  20
-3.838404
  30
0
  11
108.1
  21
-3.920072
  31
0
  0
LINE
  5
4e
  100
AcDbEntity
  8
1
  100
AcDbLine
  10
108.1
  20
-3.920072
  30
0
  11
108
  21
-3.997518
  31
0
  0
LINE
  5
4f
  100
AcDbEntity
  8
1
  100
AcDbLine
  10
108
  20
-3.997518
  30
0
  11
107.9
  21
-4.070989
  31
0
  0
LINE
  5
50
  100
AcDbEntity
  8
1
  100
AcDbLine
  10
107.9
  20
-4.070989
  30
0
  11
107.8
  21
-4.140702
  31
0
  0
LINE
  5
51
  100
AcDbEntity
  8
1
  100
AcDbLine
  10
107.8
  20
-4.140702
  30
0
  11
107.7
  21
-4.206849
  31
0
  0
LINE
  5
52
  100
AcDbEntity
  8
1
  100
AcDbLine
  10
107.7
  20
-4.206849
  30
0
  11
107.6
  21
-4.269597
  31
0
  0
LINE
  5
53
  100
AcDbEntity
  8
1
  100
AcDbLine
  10
107.6
  20
-4.269597
  30
0
  11
107.5
  21
-4.3291
  31
0
  0
LINE
  5
54
  100
AcDbEntity
  8
1
  100
AcDbLine
  10
107.5
  20
-4.3291
  30
0
  11
107.4
  21
-4.385492
  31
0
  0
LINE
  5
55
  100
AcDbEntity
  8
1
  100
AcDbLine
  10
107.4
  20
-4.385492
  30
0
  11
107.3
  21
-4.438894
  31
0
  0
LINE
  5
56
  100
AcDbEntity
  8
1
  100
AcDbLine
  10
107.3
  20
-4.438894
  30
0
  11
107.2
  21
-4.489415
  31
0
  0
LINE
  5
57
  100
AcDbEntity
  8
1
  100
AcDbLine
  10
107.2
  20
-4.489415
  30
0
  11
107.1
  21
-4.537154
  31
0
  0
LINE
  5
58
  100
AcDbEntity
  8
1
  100
AcDbLine
  10
107.1
  20
-4.537154
  30
0
  11
107
  21
-4.582199
  31
0
  0
LINE
  5
59
  100
AcDbEntity
  8
1
  100
AcDbLine
  10
107
  20
-4.582199
  30
0
  11
106.9
  21
-4.624632
  31
0
  0
LINE
  5
5a
  100
AcDbEntity
  8
1
  100
AcDbLine
  10
106.9
  20
-4.624632
  30
0
  11
106.8
  21
-4.664523
  31
0
  0
LINE
  5
5b
  100
AcDbEntity
  8
1
  100
AcDbLine
  10
106.8
  20
-4.664523
  30
0
  11
106.7
  21
-4.701941
  31
0
  0
LINE
  5
5c
  100
AcDbEntity
  8
1
  100
AcDbLine
  10
106.7
  20
-4.701941
  30
0
  11
106.6
  21
-4.736943
  31
0
  0
LINE
  5
5d
  100
AcDbEntity
  8
1
  100
AcDbLine
  10
106.6
  20
-4.736943
  30
0
  11
106.5
  21
-4.769586
  31
0
  0
LINE
  5
5e
  100
AcDbEntity
  8
1
  100
AcDbLine
  10
106.5
  20
-4.769586
  30
0
  11
106.4
  21
-4.799918
  31
0
  0
LINE
  5
5f
  100
AcDbEntity
  8
1
  100
AcDbLine
  10
106.4
  20
-4.799918
  30
0
  11
106.3
  21
-4.827983
  31
0
  0
LINE
  5
60
  100
AcDbEntity
  8
1
  100
AcDbLine
  10
106.3
  20
-4.827983
  30
0
  11
106.2
  21
-4.853821
  31
0
  0
LINE
  5
61
  100
AcDbEntity
  8
1
  100
AcDbLine
  10
106.2
  20
-4.853821
  30
0
  11
106.1
  21
-4.877469
  31
0
  0
LINE
  5
62
  100
AcDbEntity
  8
1
  100
AcDbLine
  10
106.1
  20
-4.877469
  30
0
  11
106
  21
-4.898959
  31
0
  0
LINE
  5
63
  100
AcDbEntity
  8
1
  100
AcDbLine
  10
106
  20
-4.898959
  30
0
  11
105.9
  21
-4.91832
  31
0
  0
LINE
  5
64
  100
AcDbEntity
  8
1
  100
AcDbLine
  10
105.9
  20
-4.91832
  30
0
  11
105.8
  21
-4.935577
  31
0
  0
LINE
  5
65
  100
AcDbEntity
  8
1
  100
AcDbLine
  10
105.8
  20
-4.935577
  30
0
  11
105.7
  21
-4.950753
  31
0
  0
LINE
  5
66
  100
AcDbEntity
  8
1
  100
AcDbLine
  10
105.7
  20
-4.950753
  30
0
  11
105.6
  21
-4.963867
  31
0
  0
LINE
  5
67
  100
AcDbEntity
  8
1
  100
AcDbLine
  10
105.6
  20
-4.963867
  30
0
  11
105.5
  21
-4.974936
  31
0
  0
LINE
  5
68
  100
AcDbEntity
  8
1
  100
AcDbLine
  10
105.5
  20
-4.974936
  30
0
  11
105.4
  21
-4.983974
  31
0
  0
LINE
  5
69
  100
AcDbEntity
  8
1
  100
AcDbLine
  10
105.4
  20
-4.983974
  30
0
  11
105.3
  21
-4.990992
  31
0
  0
LINE
  5
6a
  100
AcDbEntity
  8
1
  100
AcDbLine
  10
105.3
  20
-4.990992
  30
0
  11
105.2
  21
-4.995998
  31
0
  0
LINE
  5
6b
  100
AcDbEntity
  8
1
  100
AcDbLine
  10
105.2
  20
-4.995998
  30
0
  11
105.1
  21
-4.999
  31
0
  0
LINE
  5
6c
  100
AcDbEntity
  8
1
  100
AcDbLine
  10
105.1
  20
-4.999
  30
0
  11
105
  21
-5
  31
0
  0
LINE
  5
6d
  100
AcDbEntity
  8
1
  100
AcDbLine
  10
105
  20
-5
  30
0
  11
104.9
  21
-4.999
  31
0
  0
LINE
  5
6e
  100
AcDbEntity
  8
1
  100
AcDbLine
  10
104.9
  20
-4.999
  30
0
  11
104.8
  21
-4.995998
  31
0
  0
LINE
  5
6f
  100
AcDbEntity
  8
1
  100
AcDbLine
  10
104.8
  20
-4.995998
  30
0
  11
104.7
  21
-4.990992
  31
0
  0
LINE
  5
70
  100
AcDbEntity
  8
1
  100
AcDbLine
  10
104.7
  20
-4.990992
  30
0
  11
104.6
  21
-4.983974
  31
0
  0
LINE
  5
71
  100
AcDbEntity
  8
1
  100
AcDbLine
  10
104.6
  20
-4.983974
  30
0
  11
104.5
  21
-4.974936
  31
0
  0
LINE
  5
72
  100
AcDbEntity
  8
1
  100
AcDbLine
  10
104.5
  20
-4.974936
  30
0
  11
104.4
  21
-4.963867
  31
0
  0
LINE
  5
73
  100
AcDbEntity
  8
1
  100
AcDbLine
  10
104.4
  20
-4.963867
  30
0
  11
104.3
  21
-4.950753
  31
0
  0
LINE
  5
74
  100
AcDbEntity
  8
1
  100
AcDbLine
  10
104.3
  20
-4.950753
  30
0
  11
104.2
  21
-4.935577
  31
0
  0
LINE
  5
75
  100
AcDbEntity
  8
1
  100
AcDbLine
  10
104.2
  20
-4.935577
  30
0
  11
104.1
  21
-4.91832
  31
0
  0
LINE
  5
76
  100
AcDbEntity
  8
1
  100
AcDbLine
  10
104.1
  20
-4.91832
  30
0
  11
104
  21
-4.898959
  31
0
  0
LINE
  5
77
  100
AcDbEntity
  8
1
  100
AcDbLine
  10
104
  20
-4.898959
  30
0
  11
103.9
  21
-4.877469
  31
0
  0
LINE
  5
78
  100
AcDbEntity
  8
1
  100
AcDbLine
  10
103.9
  20
-4.877469
  30
0
  11
103.8
  21
-4.853821
  31
0
  0
LINE
  5
79
  100
AcDbEntity
  8
1
  100
AcDbLine
  10
103.8
  20
-4.853821
  30
0
  11
103.7
  21
-4.827983
  31
0
  0
LINE
  5
7a
  100
AcDbEntity
  8
1
  100
AcDbLine
  10
103.7
  20
-4.827983
  30
0
  11
103.6
  21
-4.799918
  31
0
  0
LINE
  5
7b
  100
AcDbEntity
  8
1
  100
AcDbLine
  10
103.6
  20
-4.799918
  30
0
  11
103.5
  21
-4.769586
  31
0
  0
LINE
  5
7c
  100
AcDbEntity
  8
1
  100
AcDbLine
  10
103.5
  20
-4.769586
  30
0
  11
103.4
  21
-4.736943
  31
0
  0
LINE
  5
7d
  100
AcDbEntity
  8
1
  100
AcDbLine
  10
103.4
  20
-4.736943
  30
0
  11
103.3
  21
-4.701941
  31
0
  0
LINE
  5
7e
  100
AcDbEntity
  8
1
  100
AcDbLine
  10
103.3
  20
-4.701941
  30
0
  11
103.249494
  21
-4.68356
  31
0
  0
LINE
  5
7f
  100
AcDbEntity
  8
1
  100
AcDbLine
  10
103.3
  20
-4.610733
  30
0
  11
103.4
  21
-4.646279
  31
0
  0
LINE
  5
80
  100
AcDbEntity
  8
1
  100
AcDbLine
  10
103.4
  20
-4.646279
  30
0
  11
103.5
  21
-4.679421
  31
0
  0
LINE
  5
81
  100
AcDbEntity
  8
1
  100
AcDbLine
  10
103.5
  20
-4.679421
  30
0
  11
103.6
  21
-4.71021
  31
0
  0
LINE
  5
82
  100
AcDbEntity
  8
1
  100
AcDbLine
  10
103.6
  20
-4.71021
  30
0
  11
103.7
  21
-4.738694
  31
0
  0
LINE
  5
83
  100
AcDbEntity
  8
1
  100
AcDbLine
  10
103.7
  20
-4.738694
  30
0
  11
103.8
  21
-4.764914
  31
0
  0
LINE
  5
84
  100
AcDbEntity
  8
1
  100
AcDbLine
  10
103.8
  20
-4.764914
  30
0
  11
103.9
  21
-4.788907
  31
0
  0
LINE
  5
85
  100
AcDbEntity
  8
1
  100
AcDbLine
  10
103.9
  20
-4.788907
  30
0
  11
104
  21
-4.810708
  31
0
  0
LINE
  5
86
  100
AcDbEntity
  8
1
  100
AcDbLine
  10
104
  20
-4.810708
  30
0
  11
104.1
  21
-4.830347
  31
0
  0
LINE
  5
87
  100
AcDbEntity
  8
1
  100
AcDbLine
  10
104.1
  20
-4.830347
  30
0
  11
104.2
  21
-4.84785
  31
0
  0
LINE
  5
88
  100
AcDbEntity
  8
1
  100
AcDbLine
  10
104.2
  20
-4.84785
  30
0
  11
104.3
  21
-4.86324
  31
0
  0
LINE
  5
89
  100
AcDbEntity
  8
1
  100
AcDbLine
  10
104.3
  20
-4.86324
  30
0
  11
104.4
  21
-4.876539
  31
0
  0
LINE
  5
8a
  100
AcDbEntity
  8
1
  100
AcDbLine
  10
104.4
  20
-4.876539
  30
0
  11
104.5
  21
-4.887763
  31
0
  0
LINE
  5
8b
  100
AcDbEntity
  8
1
  100
AcDbLine
  10
104.5
  20
-4.887763
  30
0
  11
104.6
  21
-4.896927
  31
0
  0
LINE
  5
8c
  100
AcDbEntity
  8
1
  100
AcDbLine
  10
104.6
  20
-4.896927
  30
0
  11
104.7
  21
-4.904043
  31
0
  0
LINE
  5
8d
  100
AcDbEntity
  8
1
  100
AcDbLine
  10
104.7
  20
-4.904043
  30
0
  11
104.8
  21
-4.909119
  31
0
  0
LINE
  5
8e
  100
AcDbEntity
  8
1
  100
AcDbLine
  10
104.8
  20
-4.909119
  30
0
  11
104.9
  21
-4.912162
  31
0
  0
LINE
  5
8f
  100
AcDbEntity
  8
1
  100
AcDbLine
  10
104.9
  20
-4.912162
  30
0
  11
105
  21
-4.913176
  31
0
  0
LINE
  5
90
  100
AcDbEntity
  8
1
  100
AcDbLine
  10
105
  20
-4.913176
  30
0
  11
105.1
  21
-4.912162
  31
0
  0
LINE
  5
91
  100
AcDbEntity
  8
1
  100
AcDbLine
  10
105.1
  20
-4.912162
  30
0
  11
105.2
  21
-4.909119
  31
0
  0
LINE
  5
92
  100
AcDbEntity
  8
1
  100
AcDbLine
  10
105.2
  20
-4.909119
  30
0
  11
105.3
  21
-4.904043
  31
0
  0
LINE
  5
93
  100
AcDbEntity
  8
1
  100
AcDbLine
  10
105.3
  20
-4.904043
  30
0
  11
105.4
  21
-4.896927
  31
0
  0
LINE
  5
94
  100
AcDbEntity
  8
1
  100
AcDbLine
  10
105.4
  20
-4.896927
  30
0
  11
105.5
  21
-4.887763
  31
0
  0
LINE
  5
95
  100
AcDbEntity
  8
1
  100
AcDbLine
  10
105.5
  20
-4.887763
  30
0
  11
105.6
  21
-4.876539
  31
0
  0
LINE
  5
96
  100
AcDbEntity
  8
1
  100
AcDbLine
  10
105.6
  20
-4.876539
  30
0
  11
105.7
  21
-4.86324
  31
0
  0
LINE
  5
97
  100
AcDbEntity
  8
1
  100
AcDbLine
  10
105.7
  20
-4.86324
  30
0
  11
105.8
  21
-4.84785
  31
0
  0
LINE
  5
98
  100
AcDbEntity
  8
1
  100
AcDbLine
  10
105.8
  20
-4.84785
  30
0
  11
105.9
  21
-4.830347
  31
0
  0
LINE
  5
99
  100
AcDbEntity
  8
1
  100
AcDbLine
  10
105.9
  20
-4.830347
  30
0
  11
106
  21
-4.810708
  31
0
  0
LINE
  5
9a
  100
AcDbEntity
  8
1
  100
AcDbLine
  10
106
  20
-4.810708
  30
0
  11
106.1
  21
-4.788907
  31
0
  0
LINE
  5
9b
  100
AcDbEntity
  8
1
  100
AcDbLine
  10
106.1
  20
-4.788907
  30
0
  11
106.2
  21
-4.764914
  31
0
  0
LINE
  5
9c
  100
AcDbEntity
  8
1
  100
AcDbLine
  10
106.2
  20
-4.764914
  30
0
  11
106.3
  21
-4.738694
  31
0
  0
LINE
  5
9d
  100
AcDbEntity
  8
1
  100
AcDbLine
  10
106.3
  20
-4.738694
  30
0
  11
106.4
  21
-4.71021
  31
0
  0
LINE
  5
9e
  100
AcDbEntity
  8
1
  100
AcDbLine
  10
106.4
  20
-4.71021
  30
0
  11
106.5
  21
-4.679421
  31
0
  0
LINE
  5
9f
  100
AcDbEntity
  8
1
  100
AcDbLine
  10
106.5
  20
-4.679421
  30
0
  11
106.6
  21
-4.646279
  31
0
  0
LINE
  5
a0
  100
AcDbEntity
  8
1
  100
AcDbLine
  10
106.6
  20
-4.646279
  30
0
  11
106.7
  21
-4.610733
  31
0
  0
LINE
  5
a1
  100
AcDbEntity
  8
1
  100
AcDbLine
  10
106.7
  20
-4.610733
  30
0
  11
106.8
  21
-4.572727
  31
0
  0
LINE
  5
a2
  100
AcDbEntity
  8
1
  100
AcDbLine
  10
106.8
  20
-4.572727
  30
0
  11
106.9
  21
-4.532196
  31
0
  0
LINE
  5
a3
  100
AcDbEntity
  8
1
  100
AcDbLine
  10
106.9
  20
-4.532196
  30
0
  11
107
  21
-4.489073
  31
0
  0
LINE
  5
a4
  100
AcDbEntity
  8
1
  100
AcDbLine
  10
107
  20
-4.489073
  30
0
  11
107.1
  21
-4.44328
  31
0
  0
LINE
  5
a5
  100
AcDbEntity
  8
1
  100
AcDbLine
  10
107.1
  20
-4.44328
  30
0
  11
107.2
  21
-4.394733
  31
0
  0
LINE
  5
a6
  100
AcDbEntity
  8
1
  100
AcDbLine
  10
107.2
  20
-4.394733
  30
0
  11
107.3
  21
-4.343337
  31
0
  0
LINE
  5
a7
  100
AcDbEntity
  8
1
  100
AcDbLine
  10
107.3
  20
-4.343337
  30
0
  11
107.4
  21
-4.28899
  31
0
  0
LINE
  5
a8
  100
AcDbEntity
  8
1
  100
AcDbLine
  10
107.4
  20
-4.28899
  30
0
  11
107.5
  21
-4.231575
  31
0
  0
LINE
  5
a9
  100
AcDbEntity
  8
1
  100
AcDbLine
  10
107.5
  20
-4.231575
  30
0
  11
107.6
  21
-4.170963
  31
0
  0
LINE
  5
aa
  100
AcDbEntity
  8
1
  100
AcDbLine
  10
107.6
  20
-4.170963
  30
0
  11
107.7
  21
-4.107012
  31
0
  0
LINE
  5
ab
  100
AcDbEntity
  8
1
  100
AcDbLine
  10
107.7
  20
-4.107012
  30
0
  11
107.8
  21
-4.03956
  31
0
  0
LINE
  5
ac
  100
AcDbEntity
  8
1
  100
AcDbLine
  10
107.8
  20
-4.03956
  30
0
  11
107.9
  21
-3.968426
  31
0
  0
LINE
  5
ad
  100
AcDbEntity
  8
1
  100
AcDbLine
  10
107.9
  20
-3.968426
  30
0
  11
108
  21
-3.893404
  31
0
  0
LINE
  5
ae
  100
AcDbEntity
  8
1
  100
AcDbLine
  10
108
  20
-3.893404
  30
0
  11
108.1
  21
-3.814263
  31
0
  0
LINE
  5
af
  100
AcDbEntity
  8
1
  100
AcDbLine
  10
108.1
  20
-3.814263
  30
0
  11
108.2
  21
-3.730735
  31
0
  0
LINE
  5
b0
  100
AcDbEntity
  8
1
  100
AcDbLine
  10
108.2
  20
-3.730735
  30
0
  11
108.3
  21
-3.642515
  31
0
  0
LINE
  5
b1
  100
AcDbEntity
  8
1
  100
AcDbLine
  10
108.3
  20
-3.642515
  30
0
  11
108.4
  21
-3.549248
  31
0
  0
LINE
  5
b2
  100
AcDbEntity
  8
1
  100
AcDbLine
  10
108.4
  20
-3.549248
  30
0
  11
108.5
  21
-3.450518
  31
0
  0
LINE
  5
b3
  100
AcDbEntity
  8
1
  100
AcDbLine
  10
108.5
  20
-3.450518
  30
0
  11
108.6
  21
-3.346639
  31
0
  0
LINE
  5
b4
  100
AcDbEntity
  8
1
  100
AcDbLine
  10
108.6
  20
-3.346639
  30
0
  11
108.7
  21
-3.238664
  31
0
  0
LINE
  5
b5
  100
AcDbEntity
  8
1
  100
AcDbLine
  10
108.7
  20
-3.238664
  30
0
  11
108.8
  21
-3.126603
  31
0
  0
LINE
  5
b6
  100
AcDbEntity
  8
1
  100
AcDbLine
  10
108.8
  20
-3.126603
  30
0
  11
108.9
  21
-3.010501
  31
0
  0
LINE
  5
b7
  100
AcDbEntity
  8
1
  100
AcDbLine
  10
108.9
  20
-3.010501
  30
0
  11
109
  21
-2.890312
  31
0
  0
LINE
  5
b8
  100
AcDbEntity
  8
1
  100
AcDbLine
  10
109
  20
-2.890312
  30
0
  11
109.1
  21
-2.766109
  31
0
  0
LINE
  5
b9
  100
AcDbEntity
  8
1
  100
AcDbLine
  10
109.1
  20
-2.766109
  30
0
  11
109.2
  21
-2.6381
  31
0
  0
LINE
  5
ba
  100
AcDbEntity
  8
1
  100
AcDbLine
  10
109.2
  20
-2.6381
  30
0
  11
109.3
  21
-2.505995
  31
0
  0
LINE
  5
bb
  100
AcDbEntity
  8
1
  100
AcDbLine
  10
109.3
  20
-0.936276
  30
0
  11
109.3
  21
2.532921
  31
0
  0
LINE
  5
bc
  100
AcDbEntity
  8
1
  100
AcDbLine
  10
109.140943
  20
2.802247
  30
0
  11
109.2
  21
2.712002
  31
0
  0
LINE
  5
bd
  100
AcDbEntity
  8
1
  100
AcDbLine
  10
109.2
  20
2.712002
  30
0
  11
109.3
  21
2.532921
  31
0
  0
LINE
  5
be
  100
AcDbEntity
  8
1
  100
AcDbLine
  10
109.3
  20
2.532921
  30
0
  11
109.3
  21
-0.936276
  31
0
  0
LINE
  5
bf
  100
AcDbEntity
  8
1
  100
AcDbLine
  10
109.3
  20
-0.936276
  30
0
  11
109.2
  21
-1.47168
  31
0
  0
LINE
  5
c0
  100
AcDbEntity
  8
1
  100
AcDbLine
  10
109.2
  20
-1.47168
  30
0
  11
109.1
  21
-1.805799
  31
0
  0
LINE
  5
c1
  100
AcDbEntity
  8
1
  100
AcDbLine
  10
109.1
  20
-1.805799
  30
0
  11
109
  21
-2.067239
  31
0
  0
LINE
  5
c2
  100
AcDbEntity
  8
1
  100
AcDbLine
  10
109
  20
-2.067239
  30
0
  11
108.9
  21
-2.287025
  31
0
  0
LINE
  5
c3
  100
AcDbEntity
  8
1
  100
AcDbLine
  10
108.9
  20
-2.287025
  30
0
  11
108.8
  21
-2.478634
  31
0
  0
LINE
  5
c4
  100
AcDbEntity
  8
1
  100
AcDbLine
  10
108.8
  20
-2.478634
  30
0
  11
108.7
  21
-2.649391
  31
0
  0
LINE
  5
c5
  100
AcDbEntity
  8
1
  100
AcDbLine
  10
108.7
  20
-2.649391
  30
0
  11
108.6
  21
-2.803806
  31
0
  0
LINE
  5
c6
  100
AcDbEntity
  8
1
  100
AcDbLine
  10
108.6
  20
-2.803806
  30
0
  11
108.5
  21
-2.944897
  31
0
  0
LINE
  5
c7
  100
AcDbEntity
  8
1
  100
AcDbLine
  10
108.5
  20
-2.944897
  30
0
  11
108.4
  21
-3.074801
  31
0
  0
LINE
  5
c8
  100
AcDbEntity
  8
1
  100
AcDbLine
  10
108.4
  20
-3.074801
  30
0
  11
108.3
  21
-3.195097
  31
0
  0
LINE
  5
c9
  100
AcDbEntity
  8
1
  100
AcDbLine
  10
108.3
  20
-3.195097
  30
0
  11
108.2
  21
-3.306992
  31
0
  0
LINE
  5
ca
  100
AcDbEntity
  8
1
  100
AcDbLine
  10
108.2
  20
-3.306992
  30
0
  11
108.1
  21
-3.411434
  31
0
  0
LINE
  5
cb
  100
AcDbEntity
  8
1
  100
AcDbLine
  10
108.1
  20
-3.411434
  30
0
  11
108
  21
-3.509182
  31
0
  0
LINE
  5
cc
  100
AcDbEntity
  8
1
  100
AcDbLine
  10
108
  20
-3.509182
  30
0
  11
107.9
  21
-3.600855
  31
0
  0
LINE
  5
cd
  100
AcDbEntity
  8
1
  100
AcDbLine
  10
107.9
  20
-3.600855
  30
0
  11
107.8
  21
-3.686969
  31
0
  0
LINE
  5
ce
  100
AcDbEntity
  8
1
  100
AcDbLine
  10
107.8
  20
-3.686969
  30
0
  11
107.7
  21
-3.767953
  31
0
  0
LINE
  5
cf
  100
AcDbEntity
  8
1
  100
AcDbLine
  10
107.7
  20
-3.767953
  30
0
  11
107.6
  21
-3.844173
  31
0
  0
LINE
  5
d0
  100
AcDbEntity
  8
1
  100
AcDbLine
  10
107.6
  20
-3.844173
  30
0
  11
107.5
  21
-3.915942
  31
0
  0
LINE
  5
d1
  100
AcDbEntity
  8
1
  100
AcDbLine
  10
107.5
  20
-3.915942
  30
0
  11
107.4
  21
-3.983529
  31
0
  0
LINE
  5
d2
  100
AcDbEntity
  8
1
  100
AcDbLine
  10
107.4
  20
-3.983529
  30
0
  11
107.3
  21
-4.047171
  31
0
  0
LINE
  5
d3
  100
AcDbEntity
  8
1
  100
AcDbLine
  10
107.3
  20
-4.047171
  30
0
  11
107.2
  21
-4.107071
  31
0
  0
LINE
  5
d4
  100
AcDbEntity
  8
1
  100
AcDbLine
  10
107.2
  20
-4.107071
  30
0
  11
107.1
  21
-4.163409
  31
0
  0
LINE
  5
d5
  100
AcDbEntity
  8
1
  100
AcDbLine
  10
107.1
  20
-4.163409
  30
0
  11
107
  21
-4.216346
  31
0
  0
LINE
  5
d6
  100
AcDbEntity
  8
1
  100
AcDbLine
  10
107
  20
-4.216346
  30
0
  11
106.9
  21
-4.266022
  31
0
  0
LINE
  5
d7
  100
AcDbEntity
  8
1
  100
AcDbLine
  10
106.9
  20
-4.266022
  30
0
  11
106.8
  21
-4.312563
  31
0
  0
LINE
  5
d8
  100
AcDbEntity
  8
1
  100
AcDbLine
  10
106.8
  20
-4.312563
  30
0
  11
106.7
  21
-4.356079
  31
0
  0
LINE
  5
d9
  100
AcDbEntity
  8
1
  100
AcDbLine
  10
106.7
  20
-4.356079
  30
0
  11
106.6
  21
-4.396672
  31
0
  0
LINE
  5
da
  100
AcDbEntity
  8
1
  100
AcDbLine
  10
106.6
  20
-4.396672
  30
0
  11
106.5
  21
-4.434428
  31
0
  0
LINE
  5
db
  100
AcDbEntity
  8
1
  100
AcDbLine
  10
106.5
  20
-4.434428
  30
0
  11
106.4
  21
-4.46943
  31
0
  0
LINE
  5
dc
  100
AcDbEntity
  8
1
  100
AcDbLine
  10
106.4
  20
-4.46943
  30
0
  11
106.3
  21
-4.501746
  31
0
  0
LINE
  5
dd
  100
AcDbEntity
  8
1
  100
AcDbLine
  10
106.3
  20
-4.501746
  30
0
  11
106.2
  21
-4.531441
  31
0
  0
LINE
  5
de
  100
AcDbEntity
  8
1
  100
AcDbLine
  10
106.2
  20
-4.531441
  30
0
  11
106.1
  21
-4.558572
  31
0
  0
LINE
  5
df
  100
AcDbEntity
  8
1
  100
AcDbLine
  10
106.1
  20
-4.558572
  30
0
  11
106
  21
-4.583189
  31
0
  0
LINE
  5
e0
  100
AcDbEntity
  8
1
  100
AcDbLine
  10
106
  20
-4.583189
  30
0
  11
105.9
  21
-4.605336
  31
0
  0
LINE
  5
e1
  100
AcDbEntity
  8
1
  100
AcDbLine
  10
105.9
  20
-4.605336
  30
0
  11
105.8
  21
-4.625053
  31
0
  0
LINE
  5
e2
  100
AcDbEntity
  8
1
  100
AcDbLine
  10
105.8
  20
-4.625053
  30
0
  11
105.7
  21
-4.642373
  31
0
  0
LINE
  5
e3
  100
AcDbEntity
  8
1
  100
AcDbLine
  10
105.7
  20
-4.642373
  30
0
  11
105.6
  21
-4.657327
  31
0
  0
LINE
  5
e4
  100
AcDbEntity
  8
1
  100
AcDbLine
  10
105.6
  20
-4.657327
  30
0
  11
105.5
  21
-4.669939
  31
0
  0
LINE
  5
e5
  100
AcDbEntity
  8
1
  100
AcDbLine
  10
105.5
  20
-4.669939
  30
0
  11
105.4
  21
-4.68023
  31
0
  0
LINE
  5
e6
  100
AcDbEntity
  8
1
  100
AcDbLine
  10
105.4
  20
-4.68023
  30
0
  11
105.3
  21
-4.688216
  31
0
  0
LINE
  5
e7
  100
AcDbEntity
  8
1
  100
AcDbLine
  10
105.3
  20
-4.688216
  30
0
  11
105.2
  21
-4.693912
  31
0
  0
LINE
  5
e8
  100
AcDbEntity
  8
1
  100
AcDbLine
  10
105.2
  20
-4.693912
  30
0
  11
105.1
  21
-4.697326
  31
0
  0
LINE
  5
e9
  100
AcDbEntity
  8
1
  100
AcDbLine
  10
105.1
  20
-4.697326
  30
0
  11
105
  21
-4.698463
  31
0
  0
LINE
  5
ea
  100
AcDbEntity
  8
1
  100
AcDbLine
  10
105
  20
-4.698463
  30
0
  11
104.9
  21
-4.697326
  31
0
  0
LINE
  5
eb
  100
AcDbEntity
  8
1
  100
AcDbLine
  10
104.9
  20
-4.697326
  30
0
  11
104.8
  21
-4.693912
  31
0
  0
LINE
  5
ec
  100
AcDbEntity
  8
1
  100
AcDbLine
  10
104.8
  20
-4.693912
  30
0
  11
104.7
  21
-4.688216
  31
0
  0
LINE
  5
ed
  100
AcDbEntity
  8
1
  100
AcDbLine
  10
104.7
  20
-4.688216
  30
0
  11
104.6
  21
-4.68023
  31
0
  0
LINE
  5
ee
  100
AcDbEntity
  8
1
  100
AcDbLine
  10
104.6
  20
-4.68023
  30
0
  11
104.5
  21
-4.669939
  31
0
  0
LINE
  5
ef
  100
AcDbEntity
  8
1
  100
AcDbLine
  10
104.5
  20
-4.669939
  30
0
  11
104.4
  21
-4.657327
  31
0
  0
LINE
  5
f0
  100
AcDbEntity
  8
1
  100
AcDbLine
  10
104.4
  20
-4.657327
  30
0
  11
104.3
  21
-4.642373
  31
0
  0
LINE
  5
f1
  100
AcDbEntity
  8
1
  100
AcDbLine
  10
104.3
  20
-4.642373
  30
0
  11
104.2
  21
-4.625053
  31
0
  0
LINE
  5
f2
  100
AcDbEntity
  8
1
  100
AcDbLine
  10
104.2
  20
-4.625053
  30
0
  11
104.1
  21
-4.605336
  31
0
  0
LINE
  5
f3
  100
AcDbEntity
  8
1
  100
AcDbLine
  10
104.1
  20
-4.605336
  30
0
  11
104
  21
-4.583189
  31
0
  0
LINE
  5
f4
  100
AcDbEntity
  8
1
  100
AcDbLine
  10
104
  20
-4.583189
  30
0
  11
103.9
  21
-4.558572
  31
0
  0
LINE
  5
f5
  100
AcDbEntity
  8
1
  100
AcDbLine
  10
103.9
  20
-4.558572
  30
0
  11
103.8
  21
-4.531441
  31
0
  0
LINE
  5
f6
  100
AcDbEntity
  8
1
  100
AcDbLine
  10
103.8
  20
-4.531441
  30
0
  11
103.7
  21
-4.501746
  31
0
  0
LINE
  5
f7
  100
AcDbEntity
  8
1
  100
AcDbLine
  10
103.7
  20
-4.501746
  30
0
  11
103.6
  21
-4.46943
  31
0
  0
LINE
  5
f8
  100
AcDbEntity
  8
1
  100
AcDbLine
  10
103.6
  20
-4.46943
  30
0
  11
103.5
  21
-4.434428
  31
0
  0
LINE
  5
f9
  100
AcDbEntity
  8
1
  100
AcDbLine
  10
103.5
  20
-4.434428
  30
0
  11
103.4
  21
-4.396672
  31
0
  0
LINE
  5
fa
  100
AcDbEntity
  8
1
  100
AcDbLine
  10
103.4
  20
-4.396672
  30
0
  11
103.3
  21
-4.356079
  31
0
  0
LINE
  5
fb
  100
AcDbEntity
  8
1
  100
AcDbLine
  10
103.3
  20
-4.356079
  30
0
  11
103.2
  21
-4.259943
  31
0
  0
LINE
  5
fc
  100
AcDbEntity
  8
1
  100
AcDbLine
  10
103.2
  20
-4.259943
  30
0
  11
103.1
  21
-4.036454
  31
0
  0
LINE
  5
fd
  100
AcDbEntity
  8
1
  100
AcDbLine
  10
103.1
  20
-4.036454
  30
0
  11
103
  21
-3.637107
  31
0
  0
LINE
  5
fe
  100
AcDbEntity
  8
1
  100
AcDbLine
  10
103
  20
-3.637107
  30
0
  11
102.9
  21
-3.005479
  31
0
  0
LINE
  5
ff
  100
AcDbEntity
  8
1
  100
AcDbLine
  10
102.9
  20
-3.005479
  30
0
  11
102.8
  21
-2.107754
  31
0
  0
LINE
  5
100
  100
AcDbEntity
  8
1
  100
AcDbLine
  10
102.8
  20
-2.107754
  30
0
  11
102.7
  21
-0.964089
  31
0
  0
LINE
  5
101
  100
AcDbEntity
  8
1
  100
AcDbLine
  10
102.7
  20
-0.964089
  30
0
  11
102.6
  21
0.333762
  31
0
  0
LINE
  5
102
  100
AcDbEntity
  8
1
  100
AcDbLine
  10
102.6
  20
0.333762
  30
0
  11
102.5
  21
1.63247
  31
0
  0
LINE
  5
103
  100
AcDbEntity
  8
1
  100
AcDbLine
  10
102.5
  20
1.63247
  30
0
  11
102.5
  21
2.40984
  31
0
  0
LINE
  5
104
  100
AcDbEntity
  8
1
  100
AcDbLine
  10
102.5
  20
2.40984
  30
0
  11
102.6
  21
3.107566
  31
0
  0
LINE
  5
105
  100
AcDbEntity
  8
1
  100
AcDbLine
  10
102.6
  20
3.107566
  30
0
  11
102.7
  21
3.674541
  31
0
  0
LINE
  5
106
  100
AcDbEntity
  8
1
  100
AcDbLine
  10
102.7
  20
3.674541
  30
0
  11
102.8
  21
4.091739
  31
0
  0
LINE
  5
107
  100
AcDbEntity
  8
1
  100
AcDbLine
  10
102.8
  20
4.091739
  30
0
  11
102.9
  21
4.366984
  31
0
  0
LINE
  5
108
  100
AcDbEntity
  8
1
  100
AcDbLine
  10
102.9
  20
4.366984
  30
0
  11
103
  21
4.528763
  31
0
  0
LINE
  5
109
  100
AcDbEntity
  8
1
  100
AcDbLine
  10
103
  20
4.528763
  30
0
  11
103.1
  21
4.615593
  31
0
  0
LINE
  5
10a
  100
AcDbEntity
  8
1
  100
AcDbLine
  10
103.1
  20
4.615593
  30
0
  11
103.2
  21
4.664581
  31
0
  0
LINE
  5
10b
  100
AcDbEntity
  8
1
  100
AcDbLine
  10
103.2
  20
4.664581
  30
0
  11
103.249494
  21
4.68356
  31
0
  0
LINE
  5
10c
  100
AcDbEntity
  8
SK1
  100
AcDbLine
  10
60
  20
4.999973
  30
0
  11
59.999
  21
5
  31
0
  0
LINE
  5
10d
  100
AcDbEntity
  8
SK1
  100
AcDbLine
  10
59.999
  20
5
  30
0
  11
60
  21
5
  31
0
  0
LINE
  5
10e
  100
AcDbEntity
  8
SK1
  100
AcDbLine
  10
60
  20
5
  30
0
  11
0.8
  21
5
  31
0
  0
LINE
  5
10f
  100
AcDbEntity
  8
SK1
  100
AcDbLine
  10
0.8
  20
5
  30
0
  11
0
  21
4.2
  31
0
  0
LINE
  5
110
  100
AcDbEntity
  8
SK1
  100
AcDbLine
  10
60
  20
-4.999973
  30
0
  11
59.999
  21
-5
  31
0
  0
LINE
  5
111
  100
AcDbEntity
  8
SK1
  100
AcDbLine
  10
59.999
  20
-5
  30
0
  11
60
  21
-5
  31
0
  0
LINE
  5
112
  100
AcDbEntity
  8
SK1
  100
AcDbLine
  10
60
  20
-5
  30
0
  11
0.8
  21
-5
  31
0
  0
LINE
  5
113
  100
AcDbEntity
  8
SK1
  100
AcDbLine
  10
0.8
  20
-5
  30
0
  11
0
  21
-4.2
  31
0
  0
LINE
  5
114
  100
AcDbEntity
  8
SK1
  100
AcDbLine
  10
59.999
  20
5
  30
0
  11
59.999
  21
-5
  31
0
  0
LINE
  5
115
  100
AcDbEntity
  8
SK1
  100
AcDbLine
  10
0.8
  20
5
  30
0
  11
0.8
  21
-5
  31
0
  0
LINE
  5
116
  100
AcDbEntity
  8
SK1
  100
AcDbLine
  10
0
  20
4.2
  30
0
  11
0
  21
-4.2
  31
0
  0
LINE
  5
117
  100
AcDbEntity
  8
SK1
  100
AcDbLine
  10
61.0401
  20
1.40688
  30
0
  11
61.4069
  21
1.0401
  31
0
  0
LINE
  5
118
  100
AcDbEntity
  8
SK1
  100
AcDbLine
  10
60.5328
  20
1.66666
  30
0
  11
61.6667
  21
0.532833
  31
0
  0
LINE
  5
119
  100
AcDbEntity
  8
SK1
  100
AcDbLine
  10
60.2154
  20
1.73657
  30
0
  11
61.7366
  21
0.215434
  31
0
  0
LINE
  5
11a
  100
AcDbEntity
  8
SK1
  100
AcDbLine
  10
60
  20
1.70452
  30
0
  11
61.7045
  21
0
  31
0
  0
LINE
  5
11b
  100
AcDbEntity
  8
SK1
  100
AcDbLine
  10
60
  20
1.45703
  30
0
  11
61.457
  21
0
  31
0
  0
LINE
  5
11c
  100
AcDbEntity
  8
SK1
  100
AcDbLine
  10
60
  20
1.20954
  30
0
  11
61.2095
  21
0
  31
0
  0
LINE
  5
11d
  100
AcDbEntity
  8
SK1
  100
AcDbLine
  10
60
  20
0.962054
  30
0
  11
60.9621
  21
0
  31
0
  0
LINE
  5
11e
  100
AcDbEntity
  8
SK1
  100
AcDbLine
  10
60
  20
0.714566
  30
0
  11
60.7146
  21
0
  31
0
  0
LINE
  5
11f
  100
AcDbEntity
  8
SK1
  100
AcDbLine
  10
60
  20
0.467079
  30
0
  11
60.4671
  21
0
  31
0
  0
LINE
  5
120
  100
AcDbEntity
  8
SK1
  100
AcDbLine
  10
60
  20
0.219592
  30
0
  11
60.2196
  21
0
  31
0
  0
LINE
  5
121
  100
AcDbEntity
  8
SK1
  100
AcDbLine
  10
60
  20
1.70452
  30
0
  11
60.0441
  21
1.74861
  31
0
  0
LINE
  5
122
  100
AcDbEntity
  8
SK1
  100
AcDbLine
  10
60
  20
1.45703
  30
0
  11
60.271
  21
1.72802
  31
0
  0
LINE
  5
123
  100
AcDbEntity
  8
SK1
  100
AcDbLine
  10
60
  20
1.20954
  30
0
  11
60.4742
  21
1.6837
  31
0
  0
LINE
  5
124
  100
AcDbEntity
  8
SK1
  100
AcDbLine
  10
60
  20
0.962054
  30
0
  11
60.6588
  21
1.62082
  31
0
  0
LINE
  5
125
  100
AcDbEntity
  8
SK1
  100
AcDbLine
  10
60
  20
0.714566
  30
0
  11
60.8271
  21
1.54167
  31
0
  0
LINE
  5
126
  100
AcDbEntity
  8
SK1
  100
AcDbLine
  10
60
  20
0.467079
  30
0
  11
60.981
  21
1.44812
  31
0
  0
LINE
  5
127
  100
AcDbEntity
  8
SK1
  100
AcDbLine
  10
60
  20
0.219592
  30
0
  11
61.1226
  21
1.34216
  31
0
  0
LINE
  5
128
  100
AcDbEntity
  8
SK1
  100
AcDbLine
  10
60.0279
  20
0
  30
0
  11
61.2508
  21
1.22288
  31
0
  0
LINE
  5
129
  100
AcDbEntity
  8
SK1
  100
AcDbLine
  10
60.2754
  20
0
  30
0
  11
61.367
  21
1.09157
  31
0
  0
LINE
  5
12a
  100
AcDbEntity
  8
SK1
  100
AcDbLine
  10
60.5229
  20
0
  30
0
  11
61.4707
  21
0.947822
  31
0
  0
LINE
  5
12b
  100
AcDbEntity
  8
SK1
  100
AcDbLine
  10
60.7704
  20
0
  30
0
  11
61.5605
  21
0.790145
  31
0
  0
LINE
  5
12c
  100
AcDbEntity
  8
SK1
  100
AcDbLine
  10
61.0178
  20
0
  30
0
  11
61.6364
  21
0.618517
  31
0
  0
LINE
  5
12d
  100
AcDbEntity
  8
SK1
  100
AcDbLine
  10
61.2653
  20
0
  30
0
  11
61.696
  21
0.430696
  31
0
  0
LINE
  5
12e
  100
AcDbEntity
  8
SK1
  100
AcDbLine
  10
61.5128
  20
0
  30
0
  11
61.7356
  21
0.222827
  31
0
  0
LINE
  5
12f
  100
AcDbEntity
  8
SK1
  100
AcDbLine
  10
60
  20
0
  30
0
  11
60
  21
1.75
  31
0
  0
LINE
  5
130
  100
AcDbEntity
  8
SK1
  100
AcDbLine
  10
60
  20
0
  30
0
  11
61.75
  21
0
  31
0
  0
ARC
  5
131
  100
AcDbEntity
  8
SK1
  100
AcDbCircle
  10
60
  20
0
  30
0
  40
1.75
  100
AcDbArc
  50
0
  51
90
  0
ARC
  5
132
  100
AcDbEntity
  8
SK1
  100
AcDbCircle
  10
60
  20
0
  30
0
  40
1.75
  100
AcDbArc
  50
90
  51
180
  0
LINE
  5
133
  100
AcDbEntity
  8
SK1
  100
AcDbLine
  10
59.9721
  20
0
  30
0
  11
60
  21
-0.027896
  31
0
  0
LINE
  5
134
  100
AcDbEntity
  8
SK1
  100
AcDbLine
  10
59.7246
  20
0
  30
0
  11
60
  21
-0.275383
  31
0
  0
LINE
  5
135
  100
AcDbEntity
  8
SK1
  100
AcDbLine
  10
59.4771
  20
0
  30
0
  11
60
  21
-0.522871
  31
0
  0
LINE
  5
136
  100
AcDbEntity
  8
SK1
  100
AcDbLine
  10
59.2296
  20
0
  30
0
  11
60
  21
-0.770358
  31
0
  0
LINE
  5
137
  100
AcDbEntity
  8
SK1
  100
AcDbLine
  10
58.9822
  20
0
  30
0
  11
60
  21
-1.01785
  31
0
  0
LINE
  5
138
  100
AcDbEntity
  8
SK1
  100
AcDbLine
  10
58.7347
  20
0
  30
0
  11
60
  21
-1.26533
  31
0
  0
LINE
  5
139
  100
AcDbEntity
  8
SK1
  100
AcDbLine
  10
58.4872
  20
0
  30
0
  11
60
  21
-1.51282
  31
0
  0
LINE
  5
13a
  100
AcDbEntity
  8
SK1
  100
AcDbLine
  10
58.2503
  20
-0.010642
  30
0
  11
59.9894
  21
-1.74967
  31
0
  0
LINE
  5
13b
  100
AcDbEntity
  8
SK1
  100
AcDbLine
  10
58.2736
  20
-0.281429
  30
0
  11
59.7186
  21
-1.72637
  31
0
  0
LINE
  5
13c
  100
AcDbEntity
  8
SK1
  100
AcDbLine
  10
58.3639
  20
-0.619147
  30
0
  11
59.3809
  21
-1.63613
  31
0
  0
LINE
  5
13d
  100
AcDbEntity
  8
SK1
  100
AcDbLine
  10
58.2514
  20
-0.044098
  30
0
  11
58.2955
  21
0
  31
0
  0
LINE
  5
13e
  100
AcDbEntity
  8
SK1
  100
AcDbLine
  10
58.272
  20
-0.270991
  30
0
  11
58.543
  21
0
  31
0
  0
LINE
  5
13f
  100
AcDbEntity
  8
SK1
  100
AcDbLine
  10
58.3163
  20
-0.474162
  30
0
  11
58.7905
  21
0
  31
0
  0
LINE
  5
140
  100
AcDbEntity
  8
SK1
  100
AcDbLine
  10
58.3792
  20
-0.658762
  30
0
  11
59.0379
  21
0
  31
0
  0
LINE
  5
141
  100
AcDbEntity
  8
SK1
  100
AcDbLine
  10
58.4583
  20
-0.827105
  30
0
  11
59.2854
  21
0
  31
0
  0
LINE
  5
142
  100
AcDbEntity
  8
SK1
  100
AcDbLine
  10
58.5519
  20
-0.981039
  30
0
  11
59.5329
  21
0
  31
0
  0
LINE
  5
143
  100
AcDbEntity
  8
SK1
  100
AcDbLine
  10
58.6578
  20
-1.12257
  30
0
  11
59.7804
  21
0
  31
0
  0
LINE
  5
144
  100
AcDbEntity
  8
SK1
  100
AcDbLine
  10
58.7771
  20
-1.25077
  30
0
  11
60
  21
-0.027896
  31
0
  0
LINE
  5
145
  100
AcDbEntity
  8
SK1
  100
AcDbLine
  10
58.9084
  20
-1.36695
  30
0
  11
60
  21
-0.275383
  31
0
  0
LINE
  5
146
  100
AcDbEntity
  8
SK1
  100
AcDbLine
  10
59.0522
  20
-1.47069
  30
0
  11
60
  21
-0.522871
  31
0
  0
LINE
  5
147
  100
AcDbEntity
  8
SK1
  100
AcDbLine
  10
59.2099
  20
-1.5605
  30
0
  11
60
  21
-0.770358
  31
0
  0
LINE
  5
148
  100
AcDbEntity
  8
SK1
  100
AcDbLine
  10
59.3815
  20
-1.63636
  30
0
  11
60
  21
-1.01785
  31
0
  0
LINE
  5
149
  100
AcDbEntity
  8
SK1
  100
AcDbLine
  10
59.5693
  20
-1.69603
  30
0
  11
60
  21
-1.26533
  31
0
  0
LINE
  5
14a
  100
AcDbEntity
  8
SK1
  100
AcDbLine
  10
59.7772
  20
-1.73565
  30
0
  11
60
  21
-1.51282
  31
0
  0
LINE
  5
14b
  100
AcDbEntity
  8
SK1
  100
AcDbLine
  10
60
  20
0
  30
0
  11
58.25
  21
0
  31
0
  0
LINE
  5
14c
  100
AcDbEntity
  8
SK1
  100
AcDbLine
  10
60
  20
-1.75
  30
0
  11
60
  21
0
  31
0
  0
ARC
  5
14d
  100
AcDbEntity
  8
SK1
  100
AcDbCircle
  10
60
  20
0
  30
0
  40
1.75
  100
AcDbArc
  50
180
  51
270
  0
ARC
  5
14e
  100
AcDbEntity
  8
SK1
  100
AcDbCircle
  10
60
  20
0
  30
0
  40
1.75
  100
AcDbArc
  50
270
  51
0
  0
LINE
  5
1bb
  100
AcDbEntity
  8
NOCUT
  100
AcDbLine
  10
103.3
  20
0
  30
0
  11
103.3
  21
4.702127
  31
0
  0
ARC
  5
1bc
  100
AcDbEntity
  8
NOCUT
  100
AcDbCircle
  10
105
  20
0
  30
0
  40
5
  100
AcDbArc
  50
109.876874
  51
120
  0
LINE
  5
1bd
  100
AcDbEntity
  8
NOCUT
  100
AcDbLine
  10
102.5
  20
4.330127
  30
0
  11
102.499
  21
4.330127
  31
0
  0
LINE
  5
1be
  100
AcDbEntity
  8
NOCUT
  100
AcDbLine
  10
102.499
  20
4.330127
  30
0
  11
102.499
  21
3.85
  31
0
  0
LINE
  5
1bf
  100
AcDbEntity
  8
NOCUT
  100
AcDbLine
  10
102.499
  20
3.85
  30
0
  11
60
  21
4.999973
  31
0
  0
LINE
  5
1c0
  100
AcDbEntity
  8
NOCUT
  100
AcDbLine
  10
60
  20
4.999973
  30
0
  11
60
  21
0
  31
0
  0
LINE
  5
1c1
  100
AcDbEntity
  8
NOCUT
  100
AcDbLine
  10
60
  20
0
  30
0
  11
103.3
  21
0
  31
0
  0
ARC
  5
1c2
  100
AcDbEntity
  8
CUT
  100
AcDbCircle
  10
105
  20
0
  30
0
  40
5
  100
AcDbArc
  50
0
  51
109.876874
  0
LINE
  5
1c3
  100
AcDbEntity
  8
CUT
  100
AcDbLine
  10
103.3
  20
4.702127
  30
0
  11
103.3
  21
0
  31
0
  0
LINE
  5
1c4
  100
AcDbEntity
  8
CUT
  100
AcDbLine
  10
103.3
  20
0
  30
0
  11
110
  21
0
  31
0
  0
LINE
  5
1c5
  100
AcDbEntity
  8
4
  100
AcDbLine
  10
60
  20
0
  30
0
  11
110
  21
0
  31
0
  0
LINE
  5
1c6
  100
AcDbEntity
  8
SK4
  100
AcDbLine
  10
-1
  20
0
  30
0
  11
111
  21
0
  31
0
  0
LINE
  5
1c7
  100
AcDbEntity
  8
INFTOTAL
  100
AcDbLine
  10
-8.702543
  20
28.223931
  30
0
  11
128.223931
  21
28.223931
  31
0
  0
LINE
  5
1c8
  100
AcDbEntity
  8
INFTOTAL
  100
AcDbLine
  10
128.223931
  20
28.223931
  30
0
  11
128.223931
  21
-23.223931
  31
0
  0
LINE
  5
1c9
  100
AcDbEntity
  8
INFTOTAL
  100
AcDbLine
  10
128.223931
  20
-23.223931
  30
0
  11
-8.702543
  21
-23.223931
  31
0
  0
LINE
  5
1ca
  100
AcDbEntity
  8
INFTOTAL
  100
AcDbLine
  10
-8.702543
  20
-23.223931
  30
0
  11
-8.702543
  21
28.223931
  31
0
  0
ENDSEC
  0
SECTION
  2
OBJECTS
  0
DICTIONARY
  5
1cb
  330
0
100
AcDbDictionary
281
    1
  3
ACAD_GROUP
  350
1cc
  0
DICTIONARY
  5
1cc
102
{ACAD_REACTORS
  330
1cb
102
}
  330
1cb
100
AcDbDictionary
281
    1
  0
ENDSEC
  0
EOF
