  0
SECTION
  2
HEADER
  9
$ACADVER
  1
AC1015
  9
$DWGCODEPAGE
  3
ANSI_932
  9
$HANDSEED
  5
106AB90
  0
ENDSEC
  0
SECTION
  2
CLASSES
  0
CLASS
  1
IMAGEDEF
  2
AcDbRasterImageDef
  3
ISM
  90
0
  91
4
  280
0
  281
0
  0
CLASS
  1
IMAGE
  2
AcDbRasterImage
  3
ISM
  90
127
  91
5
  280
0
  281
1
  0
CLASS
  1
IMAGEDEF_REACTOR
  2
AcDbRasterImageDefReactor
  3
ISM
  90
1
  91
4
  280
0
  281
0
  0
ENDSEC
  0
SECTION
  2
TABLES
  0
TABLE
  2
VPORT
  5
2
  330
0
  100
AcDbSymbolTable
  70
    0
  0
ENDTAB
  0
TABLE
  2
LTYPE
  5
3
  330
0
  100
AcDbSymbolTable
  70
    4
  0
LTYPE
  5
4
  330
3
  100
AcDbSymbolTableRecord
  100
AcDbLinetypeTableRecord
  2
ByBlock
  70
    0
  3

  72
65
  73
    0
  40
0
  0
LTYPE
  5
5
  330
3
  100
AcDbSymbolTableRecord
  100
AcDbLinetypeTableRecord
  2
ByLayer
  70
    0
  3

  72
65
  73
    0
  40
0
  0
LTYPE
  5
6
  330
3
  100
AcDbSymbolTableRecord
  100
AcDbLinetypeTableRecord
  2
CONTINUOUS
  70
    0
  3
Solid Line
  72
65
  73
    0
  40
0
  0
LTYPE
  5
7
  330
3
  100
AcDbSymbolTableRecord
  100
AcDbLinetypeTableRecord
  2
DASH
  70
    0
  3
Hidden
  72
65
  73
2
  40
2.5
  49
1.5
  74
0
  49
-1
  74
0
  0
LTYPE
  5
8
  330
3
  100
AcDbSymbolTableRecord
  100
AcDbLinetypeTableRecord
  2
LONGDASHDASH
  70
    0
  3
__ . __
  72
65
  73
    4
  40
7
  49
4
  74
    0
  49
-1
  74
    0
  49
1
  74
    0
  49
-1
  74
    0
  0
ENDTAB
  0
TABLE
  2
LAYER
  5
9
  330
0
  100
AcDbSymbolTable
  70
    40
  0
LAYER
  5
a
  330
9
  100
AcDbSymbolTableRecord
  100
AcDbLayerTableRecord
  2
0
  70
    0
  62
    0
  6
CONTINUOUS
  390
0
  0
LAYER
  5
c
  330
9
  100
AcDbSymbolTableRecord
  100
AcDbLayerTableRecord
  2
1
  70
    0
  62
    4
  6
CONTINUOUS
  370
50
  390
0
  0
LAYER
  5
d
  330
9
  100
AcDbSymbolTableRecord
  100
AcDbLayerTableRecord
  2
2
  70
    0
  62
    7
  6
CONTINUOUS
  370
25
  390
0
  0
LAYER
  5
f
  330
9
  100
AcDbSymbolTableRecord
  100
AcDbLayerTableRecord
  2
4
  70
    0
  62
    2
  6
LONGDASHDASH
  370
25
  390
0
  0
LAYER
  5
13
  330
9
  100
AcDbSymbolTableRecord
  100
AcDbLayerTableRecord
  2
SK1
  70
    0
  62
    4
  6
CONTINUOUS
  370
50
  390
0
  0
LAYER
  5
14
  330
9
  100
AcDbSymbolTableRecord
  100
AcDbLayerTableRecord
  2
SK2
  70
    0
  62
    7
  6
CONTINUOUS
  370
25
  390
0
  0
LAYER
  5
16
  330
9
  100
AcDbSymbolTableRecord
  100
AcDbLayerTableRecord
  2
SK4
  70
    0
  62
    2
  6
LONGDASHDASH
  370
25
  390
0
  0
LAYER
  5
21
  330
9
  100
AcDbSymbolTableRecord
  100
AcDbLayerTableRecord
  2
NOCUT
  70
    0
  62
    7
  6
CONTINUOUS
  370
25
  390
0
  0
LAYER
  5
22
  330
9
  100
AcDbSymbolTableRecord
  100
AcDbLayerTableRecord
  2
CUT
  70
    0
  62
    1
  6
CONTINUOUS
  370
25
  390
0
  0
LAYER
  5
26
  330
9
  100
AcDbSymbolTableRecord
  100
AcDbLayerTableRecord
  2
INFTOTAL
  70
    0
  62
    9
  6
CONTINUOUS
  370
18
  390
0
  0
ENDTAB
  0
TABLE
  2
STYLE
  5
27
  330
0
  100
AcDbSymbolTable
  70
    1
  0
STYLE
  5
28
  330
27
  100
AcDbSymbolTableRecord
  100
AcDbTextStyleTableRecord
  2
Monospac821 BT
  70
    0
  40
    3.5
  41
1
  50
0
  71
0
  42
3
  3

  4

  1001
ACAD
  1000
Monospac821 BT
  1071
256
  0
ENDTAB
  0
TABLE
  2
VIEW
  5
29
  330
0
  100
AcDbSymbolTable
  70
    0
  0
ENDTAB
  0
TABLE
  2
UCS
  5
2a
  330
0
  100
AcDbSymbolTable
  70
    0
  0
ENDTAB
  0
TABLE
  2
APPID
  5
2b
  330
0
  100
AcDbSymbolTable
  70
    1
  0
APPID
  5
2c
  330
2b
  100
AcDbSymbolTableRecord
  100
AcDbRegAppTableRecord
  2
ACAD
  70
    0
  0
ENDTAB
  0
TABLE
  2
DIMSTYLE
  5
2d
  330
0
  100
AcDbSymbolTable
  70
    1
  100
AcDbDimStyleTable
  0
DIMSTYLE
  105
2e
  330
2d
  100
AcDbSymbolTableRecord
  100
AcDbDimStyleTableRecord
  2
STANDARD
  70
    0
  41
    3
  42
0.5
  44
1
  73
0
  77
1
  78
1
  140
3.5
  141
2.5
  143
0.03937
  147
0.8
  172
1
  174
1
  178
0
  179
1
  271
2
  279
1
  284
1
  340
28
  0
ENDTAB
  0
TABLE
  2
BLOCK_RECORD
  5
2f
  330
0
  100
AcDbSymbolTable
  70
    2
  0
BLOCK_RECORD
  5
30
  330
2f
  100
AcDbSymbolTableRecord
  100
AcDbBlockTableRecord
  2
*Model_Space
  0
BLOCK_RECORD
  5
31
  330
2f
  100
AcDbSymbolTableRecord
  100
AcDbBlockTableRecord
  2
*Paper_Space
  0
BLOCK_RECORD
  5
179
  330
2f
  100
AcDbSymbolTableRecord
  100
AcDbBlockTableRecord
  2
*D178
  340
0
  0
BLOCK_RECORD
  5
187
  330
2f
  100
AcDbSymbolTableRecord
  100
AcDbBlockTableRecord
  2
*D186
  340
0
  0
BLOCK_RECORD
  5
195
  330
2f
  100
AcDbSymbolTableRecord
  100
AcDbBlockTableRecord
  2
*D194
  340
0
  0
BLOCK_RECORD
  5
1a3
  330
2f
  100
AcDbSymbolTableRecord
  100
AcDbBlockTableRecord
  2
*D1a2
  340
0
  0
BLOCK_RECORD
  5
1b1
  330
2f
  100
AcDbSymbolTableRecord
  100
AcDbBlockTableRecord
  2
*D1b0
  340
0
  0
BLOCK_RECORD
  5
1bb
  330
2f
  100
AcDbSymbolTableRecord
  100
AcDbBlockTableRecord
  2
*D1ba
  340
0
  0
BLOCK_RECORD
  5
1c9
  330
2f
  100
AcDbSymbolTableRecord
  100
AcDbBlockTableRecord
  2
*D1c8
  340
0
  0
BLOCK_RECORD
  5
1d7
  330
2f
  100
AcDbSymbolTableRecord
  100
AcDbBlockTableRecord
  2
*D1d6
  340
0
  0
ENDTAB
  0
ENDSEC
  0
SECTION
  2
BLOCKS
  0
BLOCK
  5
32
  330
30
  100
AcDbEntity
  8
0
  100
AcDbBlockBegin
  2
*Model_Space
  70
    0
  10
0
  20
0
  30
0
  3
*Model_Space
  1

  0
ENDBLK
  5
33
  330
30
  100
AcDbEntity
  8
0
  100
AcDbBlockEnd
  0
BLOCK
  5
34
  330
31
  100
AcDbEntity
  8
0
  100
AcDbBlockBegin
  2
*Paper_Space
  70
    0
  10
0
  20
0
  30
0
  3
*Paper_Space
  1

  0
ENDBLK
  5
35
  330
31
  100
AcDbEntity
  8
0
  100
AcDbBlockEnd
  0
BLOCK
  5
177
  330
179
  100
AcDbEntity
  8
SK2
  100
AcDbBlockBegin
  2
*D178
  70
1
  10
0
  20
0
  30
0
  3
*D178
  1

  0
LINE
  5
17a
  330
179
  100
AcDbEntity
  8
SK2
  100
AcDbLine
  10
0
  20
5.2
  30
0
  11
0
  21
23
  31
0
  0
LINE
  5
17b
  330
179
  100
AcDbEntity
  8
SK2
  100
AcDbLine
  10
110
  20
-18
  30
0
  11
110
  21
23
  31
0
  0
LINE
  5
17c
  330
179
  100
AcDbEntity
  8
SK2
  100
AcDbLine
  10
0
  20
21
  30
0
  11
110
  21
21
  31
0
  0
SOLID
  5
17d
  330
179
  100
AcDbEntity
  8
SK2
  100
AcDbTrace
  10
0
  20
21
  30
0
  11
2.478612
  21
21.326315
  31
0
  12
2.478612
  22
20.673685
  32
0
  13
2.478612
  23
20.673685
  33
0
  0
SOLID
  5
17e
  330
179
  100
AcDbEntity
  8
SK2
  100
AcDbTrace
  10
110
  20
21
  30
0
  11
107.521388
  21
20.673685
  31
0
  12
107.521388
  22
21.326315
  32
0
  13
107.521388
  23
21.326315
  33
0
  0
MTEXT
  5
17f
  330
179
  100
AcDbEntity
  8
SK2
  100
AcDbMText
  10
55
  20
21
  30
0
  11
1
  21
0
  31
0
  40
2
  41
0
  71
8
  72
1
  1
110
  0
POINT
  5
180
  330
179
  100
AcDbEntity
  8
SK2
  62
0
  100
AcDbPoint
  10
0
  20
5.2
  30
0
  0
POINT
  5
181
  330
179
  100
AcDbEntity
  8
SK2
  62
0
  100
AcDbPoint
  10
110
  20
-18
  30
0
  0
POINT
  5
182
  330
179
  100
AcDbEntity
  8
SK2
  62
0
  100
AcDbPoint
  10
110
  20
21
  30
0
  0
ENDBLK
  5
183
  330
179
  100
AcDbEntity
  8
SK2
  100
AcDbBlockEnd
  0
BLOCK
  5
185
  330
187
  100
AcDbEntity
  8
SK2
  100
AcDbBlockBegin
  2
*D186
  70
1
  10
0
  20
0
  30
0
  3
*D186
  1

  0
LINE
  5
188
  330
187
  100
AcDbEntity
  8
SK2
  100
AcDbLine
  10
100.999
  20
4.6
  30
0
  11
100.999
  21
11.460128
  31
0
  0
LINE
  5
189
  330
187
  100
AcDbEntity
  8
SK2
  100
AcDbLine
  10
49.999
  20
6
  30
0
  11
49.999
  21
11.460128
  31
0
  0
LINE
  5
18a
  330
187
  100
AcDbEntity
  8
SK2
  100
AcDbLine
  10
100.999
  20
9.460128
  30
0
  11
49.999
  21
9.460128
  31
0
  0
SOLID
  5
18b
  330
187
  100
AcDbEntity
  8
SK2
  100
AcDbTrace
  10
100.999
  20
9.460128
  30
0
  11
103.477612
  21
9.786443
  31
0
  12
103.477612
  22
9.133812
  32
0
  13
103.477612
  23
9.133812
  33
0
  0
SOLID
  5
18c
  330
187
  100
AcDbEntity
  8
SK2
  100
AcDbTrace
  10
49.999
  20
9.460128
  30
0
  11
47.520388
  21
9.133812
  31
0
  12
47.520388
  22
9.786443
  32
0
  13
47.520388
  23
9.786443
  33
0
  0
MTEXT
  5
18d
  330
187
  100
AcDbEntity
  8
SK2
  100
AcDbMText
  10
75.018304
  20
9.460128
  30
0
  11
1
  21
-0
  31
0
  40
2
  41
0
  71
8
  72
1
  1
51
  0
POINT
  5
18e
  330
187
  100
AcDbEntity
  8
SK2
  62
0
  100
AcDbPoint
  10
100.999
  20
4.6
  30
0
  0
POINT
  5
18f
  330
187
  100
AcDbEntity
  8
SK2
  62
0
  100
AcDbPoint
  10
49.999
  20
6
  30
0
  0
POINT
  5
190
  330
187
  100
AcDbEntity
  8
SK2
  62
0
  100
AcDbPoint
  10
49.999
  20
9.460128
  30
0
  0
ENDBLK
  5
191
  330
187
  100
AcDbEntity
  8
SK2
  100
AcDbBlockEnd
  0
BLOCK
  5
193
  330
195
  100
AcDbEntity
  8
SK2
  100
AcDbBlockBegin
  2
*D194
  70
1
  10
0
  20
0
  30
0
  3
*D194
  1

  0
LINE
  5
196
  330
195
  100
AcDbEntity
  8
SK2
  100
AcDbLine
  10
50
  20
6
  30
0
  11
50
  21
18
  31
0
  0
LINE
  5
197
  330
195
  100
AcDbEntity
  8
SK2
  100
AcDbLine
  10
0
  20
5.2
  30
0
  11
0
  21
23
  31
0
  0
LINE
  5
198
  330
195
  100
AcDbEntity
  8
SK2
  100
AcDbLine
  10
50
  20
16
  30
0
  11
0
  21
16
  31
0
  0
SOLID
  5
199
  330
195
  100
AcDbEntity
  8
SK2
  100
AcDbTrace
  10
50
  20
16
  30
0
  11
52.478612
  21
16.326315
  31
0
  12
52.478612
  22
15.673685
  32
0
  13
52.478612
  23
15.673685
  33
0
  0
SOLID
  5
19a
  330
195
  100
AcDbEntity
  8
SK2
  100
AcDbTrace
  10
0
  20
16
  30
0
  11
-2.478612
  21
15.673685
  31
0
  12
-2.478612
  22
16.326315
  32
0
  13
-2.478612
  23
16.326315
  33
0
  0
MTEXT
  5
19b
  330
195
  100
AcDbEntity
  8
SK2
  100
AcDbMText
  10
25
  20
16
  30
0
  11
1
  21
-0
  31
0
  40
2
  41
0
  71
8
  72
1
  1
50
  0
POINT
  5
19c
  330
195
  100
AcDbEntity
  8
SK2
  62
0
  100
AcDbPoint
  10
50
  20
6
  30
0
  0
POINT
  5
19d
  330
195
  100
AcDbEntity
  8
SK2
  62
0
  100
AcDbPoint
  10
0
  20
5.2
  30
0
  0
POINT
  5
19e
  330
195
  100
AcDbEntity
  8
SK2
  62
0
  100
AcDbPoint
  10
0
  20
16
  30
0
  0
ENDBLK
  5
19f
  330
195
  100
AcDbEntity
  8
SK2
  100
AcDbBlockEnd
  0
BLOCK
  5
1a1
  330
1a3
  100
AcDbEntity
  8
2
  100
AcDbBlockBegin
  2
*D1a2
  70
1
  10
0
  20
0
  30
0
  3
*D1a2
  1

  0
LINE
  5
1a4
  330
1a3
  100
AcDbEntity
  8
2
  100
AcDbLine
  10
104
  20
-6
  30
0
  11
122
  21
-6
  31
0
  0
LINE
  5
1a5
  330
1a3
  100
AcDbEntity
  8
2
  100
AcDbLine
  10
104
  20
6
  30
0
  11
122
  21
6
  31
0
  0
LINE
  5
1a6
  330
1a3
  100
AcDbEntity
  8
2
  100
AcDbLine
  10
120
  20
-6
  30
0
  11
120
  21
6
  31
0
  0
SOLID
  5
1a7
  330
1a3
  100
AcDbEntity
  8
2
  100
AcDbTrace
  10
120
  20
-6
  30
0
  11
119.673685
  21
-3.521388
  31
0
  12
120.326315
  22
-3.521388
  32
0
  13
120.326315
  23
-3.521388
  33
0
  0
SOLID
  5
1a8
  330
1a3
  100
AcDbEntity
  8
2
  100
AcDbTrace
  10
120
  20
6
  30
0
  11
120.326315
  21
3.521388
  31
0
  12
119.673685
  22
3.521388
  32
0
  13
119.673685
  23
3.521388
  33
0
  0
MTEXT
  5
1a9
  330
1a3
  100
AcDbEntity
  8
2
  100
AcDbMText
  10
120
  20
0
  30
0
  11
0
  21
1
  31
0
  40
2
  41
0
  71
8
  72
1
  1
ﾘ12
  0
POINT
  5
1aa
  330
1a3
  100
AcDbEntity
  8
2
  62
0
  100
AcDbPoint
  10
104
  20
-6
  30
0
  0
POINT
  5
1ab
  330
1a3
  100
AcDbEntity
  8
2
  62
0
  100
AcDbPoint
  10
104
  20
6
  30
0
  0
POINT
  5
1ac
  330
1a3
  100
AcDbEntity
  8
2
  62
0
  100
AcDbPoint
  10
120
  20
6
  30
0
  0
ENDBLK
  5
1ad
  330
1a3
  100
AcDbEntity
  8
2
  100
AcDbBlockEnd
  0
BLOCK
  5
1af
  330
1b1
  100
AcDbEntity
  8
2
  100
AcDbBlockBegin
  2
*D1b0
  70
1
  10
0
  20
0
  30
0
  3
*D1b0
  1

  0
LINE
  5
1b2
  330
1b1
  100
AcDbEntity
  8
2
  100
AcDbLine
  10
105.595756
  20
3.366106
  30
0
  11
113.087614
  21
13.129686
  31
0
  0
MTEXT
  5
1b3
  330
1b1
  100
AcDbEntity
  8
2
  100
AcDbMText
  10
107
  20
5.196152
  30
0
  11
0.608761
  21
0.793353
  31
0
  40
2
  41
0
  71
8
  72
1
  1
R6
  0
SOLID
  5
1b4
  330
1b1
  100
AcDbEntity
  8
2
  100
AcDbTrace
  10
107
  20
5.196152
  30
0
  11
108.25
  21
7.361216
  31
0
  12
108.767767
  22
6.963919
  32
0
  13
108.767767
  23
6.963919
  33
0
  0
POINT
  5
1b5
  330
1b1
  100
AcDbEntity
  8
2
  62
0
  100
AcDbPoint
  10
105.595756
  20
3.366106
  30
0
  0
POINT
  5
1b6
  330
1b1
  100
AcDbEntity
  8
2
  62
0
  100
AcDbPoint
  10
104
  20
0
  30
0
  0
ENDBLK
  5
1b7
  330
1b1
  100
AcDbEntity
  8
2
  100
AcDbBlockEnd
  0
BLOCK
  5
1b9
  330
1bb
  100
AcDbEntity
  8
2
  100
AcDbBlockBegin
  2
*D1ba
  70
1
  10
0
  20
0
  30
0
  3
*D1ba
  1

  0
LINE
  5
1bc
  330
1bb
  100
AcDbEntity
  8
2
  100
AcDbLine
  10
100.999
  20
-4.6
  30
0
  11
98.999
  21
-4.6
  31
0
  0
LINE
  5
1bd
  330
1bb
  100
AcDbEntity
  8
2
  100
AcDbLine
  10
100.999
  20
4.6
  30
0
  11
98.999
  21
4.6
  31
0
  0
LINE
  5
1be
  330
1bb
  100
AcDbEntity
  8
2
  100
AcDbLine
  10
100.999
  20
-4.6
  30
0
  11
100.999
  21
11.175743
  31
0
  0
SOLID
  5
1bf
  330
1bb
  100
AcDbEntity
  8
2
  100
AcDbTrace
  10
100.999
  20
-4.6
  30
0
  11
100.672685
  21
-2.121388
  31
0
  12
101.325315
  22
-2.121388
  32
0
  13
101.325315
  23
-2.121388
  33
0
  0
SOLID
  5
1c0
  330
1bb
  100
AcDbEntity
  8
2
  100
AcDbTrace
  10
100.999
  20
4.6
  30
0
  11
101.325315
  21
2.121388
  31
0
  12
100.672685
  22
2.121388
  32
0
  13
100.672685
  23
2.121388
  33
0
  0
MTEXT
  5
1c1
  330
1bb
  100
AcDbEntity
  8
2
  100
AcDbMText
  10
100.999
  20
4.6
  30
0
  11
0
  21
1
  31
0
  40
2
  41
0
  71
8
  72
1
  1
ﾘ9.2
  0
POINT
  5
1c2
  330
1bb
  100
AcDbEntity
  8
2
  62
0
  100
AcDbPoint
  10
98.999
  20
-4.6
  30
0
  0
POINT
  5
1c3
  330
1bb
  100
AcDbEntity
  8
2
  62
0
  100
AcDbPoint
  10
98.999
  20
4.6
  30
0
  0
POINT
  5
1c4
  330
1bb
  100
AcDbEntity
  8
2
  62
0
  100
AcDbPoint
  10
100.999
  20
11.175743
  30
0
  0
ENDBLK
  5
1c5
  330
1bb
  100
AcDbEntity
  8
2
  100
AcDbBlockEnd
  0
BLOCK
  5
1c7
  330
1c9
  100
AcDbEntity
  8
2
  100
AcDbBlockBegin
  2
*D1c8
  70
1
  10
0
  20
0
  30
0
  3
*D1c8
  1

  0
LINE
  5
1ca
  330
1c9
  100
AcDbEntity
  8
2
  100
AcDbLine
  10
110
  20
-18
  30
0
  11
110
  21
23
  31
0
  0
LINE
  5
1cb
  330
1c9
  100
AcDbEntity
  8
2
  100
AcDbLine
  10
50
  20
6
  30
0
  11
50
  21
13
  31
0
  0
LINE
  5
1cc
  330
1c9
  100
AcDbEntity
  8
2
  100
AcDbLine
  10
110
  20
11
  30
0
  11
50
  21
11
  31
0
  0
SOLID
  5
1cd
  330
1c9
  100
AcDbEntity
  8
2
  100
AcDbTrace
  10
110
  20
11
  30
0
  11
112.478612
  21
11.326315
  31
0
  12
112.478612
  22
10.673685
  32
0
  13
112.478612
  23
10.673685
  33
0
  0
SOLID
  5
1ce
  330
1c9
  100
AcDbEntity
  8
2
  100
AcDbTrace
  10
50
  20
11
  30
0
  11
47.521388
  21
10.673685
  31
0
  12
47.521388
  22
11.326315
  32
0
  13
47.521388
  23
11.326315
  33
0
  0
MTEXT
  5
1cf
  330
1c9
  100
AcDbEntity
  8
2
  100
AcDbMText
  10
80
  20
11
  30
0
  11
1
  21
-0
  31
0
  40
2
  41
0
  71
8
  72
1
  1
60
  0
POINT
  5
1d0
  330
1c9
  100
AcDbEntity
  8
2
  62
0
  100
AcDbPoint
  10
110
  20
-18
  30
0
  0
POINT
  5
1d1
  330
1c9
  100
AcDbEntity
  8
2
  62
0
  100
AcDbPoint
  10
50
  20
6
  30
0
  0
POINT
  5
1d2
  330
1c9
  100
AcDbEntity
  8
2
  62
0
  100
AcDbPoint
  10
50
  20
11
  30
0
  0
ENDBLK
  5
1d3
  330
1c9
  100
AcDbEntity
  8
2
  100
AcDbBlockEnd
  0
BLOCK
  5
1d5
  330
1d7
  100
AcDbEntity
  8
2
  100
AcDbBlockBegin
  2
*D1d6
  70
1
  10
0
  20
0
  30
0
  3
*D1d6
  1

  0
LINE
  5
1d8
  330
1d7
  100
AcDbEntity
  8
2
  100
AcDbLine
  10
101.9
  20
-5.620498
  30
0
  11
101.9
  21
-18
  31
0
  0
LINE
  5
1d9
  330
1d7
  100
AcDbEntity
  8
2
  100
AcDbLine
  10
110
  20
-18
  30
0
  11
110
  21
23
  31
0
  0
LINE
  5
1da
  330
1d7
  100
AcDbEntity
  8
2
  100
AcDbLine
  10
101.9
  20
-16
  30
0
  11
110
  21
-16
  31
0
  0
SOLID
  5
1db
  330
1d7
  100
AcDbEntity
  8
2
  100
AcDbTrace
  10
101.9
  20
-16
  30
0
  11
104.378612
  21
-15.673685
  31
0
  12
104.378612
  22
-16.326315
  32
0
  13
104.378612
  23
-16.326315
  33
0
  0
SOLID
  5
1dc
  330
1d7
  100
AcDbEntity
  8
2
  100
AcDbTrace
  10
110
  20
-16
  30
0
  11
107.521388
  21
-16.326315
  31
0
  12
107.521388
  22
-15.673685
  32
0
  13
107.521388
  23
-15.673685
  33
0
  0
MTEXT
  5
1dd
  330
1d7
  100
AcDbEntity
  8
2
  100
AcDbMText
  10
105.95
  20
-16
  30
0
  11
1
  21
-0
  31
0
  40
2
  41
0
  71
8
  72
1
  1
8.1
  0
POINT
  5
1de
  330
1d7
  100
AcDbEntity
  8
2
  62
0
  100
AcDbPoint
  10
101.9
  20
-5.620498
  30
0
  0
POINT
  5
1df
  330
1d7
  100
AcDbEntity
  8
2
  62
0
  100
AcDbPoint
  10
110
  20
23
  30
0
  0
POINT
  5
1e0
  330
1d7
  100
AcDbEntity
  8
2
  62
0
  100
AcDbPoint
  10
110
  20
-16
  30
0
  0
ENDBLK
  5
1e1
  330
1d7
  100
AcDbEntity
  8
2
  100
AcDbBlockEnd
  0
ENDSEC
  0
SECTION
  2
ENTITIES
  0
DIMENSION
  5
184
  100
AcDbEntity
  8
SK2
  100
AcDbDimension
  2
*D178
  10
110
  20
21
  30
0
  11
55
  21
21
  31
0
  70
160
  1
<>
  71
5
  3
STANDARD
  42
110
  100
AcDbAlignedDimension
  13
0
  23
5.2
  33
0
  14
110
  24
-18
  34
0
  50
0
  100
AcDbRotatedDimension
  0
DIMENSION
  5
192
  100
AcDbEntity
  8
SK2
  100
AcDbDimension
  2
*D186
  10
49.999
  20
9.460128
  30
0
  11
75.018304
  21
9.460128
  31
0
  70
160
  1
<>
  71
5
  3
STANDARD
  42
51
  100
AcDbAlignedDimension
  13
100.999
  23
4.6
  33
0
  14
49.999
  24
6
  34
0
  50
0
  100
AcDbRotatedDimension
  0
DIMENSION
  5
1a0
  100
AcDbEntity
  8
SK2
  100
AcDbDimension
  2
*D194
  10
0
  20
16
  30
0
  11
25
  21
16
  31
0
  70
160
  1
<>
  71
5
  3
STANDARD
  42
50
  100
AcDbAlignedDimension
  13
50
  23
6
  33
0
  14
0
  24
5.2
  34
0
  50
0
  100
AcDbRotatedDimension
  0
DIMENSION
  5
1ae
  100
AcDbEntity
  8
2
  100
AcDbDimension
  2
*D1a2
  10
120
  20
6
  30
0
  11
120
  21
0
  31
0
  70
160
  1
%%c<>
  71
5
  3
STANDARD
  42
12
  100
AcDbAlignedDimension
  13
104
  23
-6
  33
0
  14
104
  24
6
  34
0
  50
-90
  100
AcDbRotatedDimension
  0
DIMENSION
  5
1b8
  100
AcDbEntity
  8
2
  100
AcDbDimension
  2
*D1b0
  10
104
  20
0
  30
0
  11
107
  21
5.196152
  31
0
  70
164
  1
R6
  71
5
  3
STANDARD
  100
AcDbRadialDimension
  15
107
  25
5.196152
  35
0
  50
52.5
  0
DIMENSION
  5
1c6
  100
AcDbEntity
  8
2
  100
AcDbDimension
  2
*D1ba
  10
100.999
  20
11.175743
  30
0
  11
100.999
  21
4.6
  31
0
  70
160
  1
%%c<>
  71
5
  3
STANDARD
  42
9.2
  100
AcDbAlignedDimension
  13
98.999
  23
-4.6
  33
0
  14
98.999
  24
4.6
  34
0
  50
-90
  100
AcDbRotatedDimension
  0
DIMENSION
  5
1d4
  100
AcDbEntity
  8
2
  100
AcDbDimension
  2
*D1c8
  10
50
  20
11
  30
0
  11
80
  21
11
  31
0
  70
160
  1
<>
  71
5
  3
STANDARD
  42
60
  100
AcDbAlignedDimension
  13
110
  23
-18
  33
0
  14
50
  24
6
  34
0
  50
0
  100
AcDbRotatedDimension
  0
DIMENSION
  5
1e2
  100
AcDbEntity
  8
2
  100
AcDbDimension
  2
*D1d6
  10
110
  20
-16
  30
0
  11
105.95
  21
-16
  31
0
  70
160
  1
<>
  71
5
  3
STANDARD
  42
8.1
  100
AcDbAlignedDimension
  13
101.9
  23
-5.620498
  33
0
  14
110
  24
23
  34
0
  50
0
  100
AcDbRotatedDimension
  0
LINE
  5
36
  100
AcDbEntity
  8
1
  100
AcDbLine
  10
50
  20
5.999973
  30
0
  11
50
  21
-5.999973
  31
0
  0
LINE
  5
37
  100
AcDbEntity
  8
1
  100
AcDbLine
  10
50
  20
-5.999973
  30
0
  11
100.999
  21
-4.6
  31
0
  0
LINE
  5
38
  100
AcDbEntity
  8
1
  100
AcDbLine
  10
100.999
  20
-4.6
  30
0
  11
100.999
  21
-5.196152
  31
0
  0
LINE
  5
39
  100
AcDbEntity
  8
1
  100
AcDbLine
  10
100.999
  20
-5.196152
  30
0
  11
101
  21
-5.196152
  31
0
  0
ARC
  5
3a
  100
AcDbEntity
  8
1
  100
AcDbCircle
  10
104
  20
0
  30
0
  40
6
  100
AcDbArc
  50
240
  51
0
  0
ARC
  5
3b
  100
AcDbEntity
  8
1
  100
AcDbCircle
  10
104
  20
0
  30
0
  40
6
  100
AcDbArc
  50
0
  51
120
  0
LINE
  5
3c
  100
AcDbEntity
  8
1
  100
AcDbLine
  10
101
  20
5.196152
  30
0
  11
100.999
  21
5.196152
  31
0
  0
LINE
  5
3d
  100
AcDbEntity
  8
1
  100
AcDbLine
  10
100.999
  20
5.196152
  30
0
  11
100.999
  21
4.6
  31
0
  0
LINE
  5
3e
  100
AcDbEntity
  8
1
  100
AcDbLine
  10
100.999
  20
4.6
  30
0
  11
50
  21
5.999973
  31
0
  0
LINE
  5
3f
  100
AcDbEntity
  8
1
  100
AcDbLine
  10
101
  20
-5.196152
  30
0
  11
101
  21
5.196152
  31
0
  0
LINE
  5
40
  100
AcDbEntity
  8
1
  100
AcDbLine
  10
100.999
  20
5.196152
  30
0
  11
100.999
  21
-5.196152
  31
0
  0
LINE
  5
41
  100
AcDbEntity
  8
1
  100
AcDbLine
  10
100.999
  20
-4.6
  30
0
  11
100.999
  21
4.6
  31
0
  0
LINE
  5
42
  100
AcDbEntity
  8
1
  100
AcDbLine
  10
100.999
  20
4.6
  30
0
  11
100.999
  21
-4.6
  31
0
  0
LINE
  5
43
  100
AcDbEntity
  8
1
  100
AcDbLine
  10
108.972848
  20
-3.357199
  30
0
  11
108.9
  21
-3.461801
  31
0
  0
LINE
  5
44
  100
AcDbEntity
  8
1
  100
AcDbLine
  10
108.9
  20
-3.461801
  30
0
  11
108.8
  21
-3.596918
  31
0
  0
LINE
  5
45
  100
AcDbEntity
  8
1
  100
AcDbLine
  10
108.8
  20
-3.596918
  30
0
  11
108.7
  21
-3.724335
  31
0
  0
LINE
  5
46
  100
AcDbEntity
  8
1
  100
AcDbLine
  10
108.7
  20
-3.724335
  30
0
  11
108.6
  21
-3.845371
  31
0
  0
LINE
  5
47
  100
AcDbEntity
  8
1
  100
AcDbLine
  10
108.6
  20
-3.845371
  30
0
  11
108.5
  21
-3.960815
  31
0
  0
LINE
  5
48
  100
AcDbEntity
  8
1
  100
AcDbLine
  10
108.5
  20
-3.960815
  30
0
  11
108.4
  21
-4.071181
  31
0
  0
LINE
  5
49
  100
AcDbEntity
  8
1
  100
AcDbLine
  10
108.4
  20
-4.071181
  30
0
  11
108.3
  21
-4.176821
  31
0
  0
LINE
  5
4a
  100
AcDbEntity
  8
1
  100
AcDbLine
  10
108.3
  20
-4.176821
  30
0
  11
108.2
  21
-4.278017
  31
0
  0
LINE
  5
4b
  100
AcDbEntity
  8
1
  100
AcDbLine
  10
108.2
  20
-4.278017
  30
0
  11
108.1
  21
-4.37468
  31
0
  0
LINE
  5
4c
  100
AcDbEntity
  8
1
  100
AcDbLine
  10
108.1
  20
-4.37468
  30
0
  11
108
  21
-4.466943
  31
0
  0
LINE
  5
4d
  100
AcDbEntity
  8
1
  100
AcDbLine
  10
108
  20
-4.466943
  30
0
  11
107.9
  21
-4.555081
  31
0
  0
LINE
  5
4e
  100
AcDbEntity
  8
1
  100
AcDbLine
  10
107.9
  20
-4.555081
  30
0
  11
107.8
  21
-4.639335
  31
0
  0
LINE
  5
4f
  100
AcDbEntity
  8
1
  100
AcDbLine
  10
107.8
  20
-4.639335
  30
0
  11
107.7
  21
-4.719919
  31
0
  0
LINE
  5
50
  100
AcDbEntity
  8
1
  100
AcDbLine
  10
107.7
  20
-4.719919
  30
0
  11
107.6
  21
-4.797022
  31
0
  0
LINE
  5
51
  100
AcDbEntity
  8
1
  100
AcDbLine
  10
107.6
  20
-4.797022
  30
0
  11
107.5
  21
-4.870813
  31
0
  0
LINE
  5
52
  100
AcDbEntity
  8
1
  100
AcDbLine
  10
107.5
  20
-4.870813
  30
0
  11
107.4
  21
-4.941444
  31
0
  0
LINE
  5
53
  100
AcDbEntity
  8
1
  100
AcDbLine
  10
107.4
  20
-4.941444
  30
0
  11
107.3
  21
-5.009052
  31
0
  0
LINE
  5
54
  100
AcDbEntity
  8
1
  100
AcDbLine
  10
107.3
  20
-5.009052
  30
0
  11
107.2
  21
-5.073761
  31
0
  0
LINE
  5
55
  100
AcDbEntity
  8
1
  100
AcDbLine
  10
107.2
  20
-5.073761
  30
0
  11
107.1
  21
-5.135683
  31
0
  0
LINE
  5
56
  100
AcDbEntity
  8
1
  100
AcDbLine
  10
107.1
  20
-5.135683
  30
0
  11
107
  21
-5.19492
  31
0
  0
LINE
  5
57
  100
AcDbEntity
  8
1
  100
AcDbLine
  10
107
  20
-5.19492
  30
0
  11
106.9
  21
-5.251565
  31
0
  0
LINE
  5
58
  100
AcDbEntity
  8
1
  100
AcDbLine
  10
106.9
  20
-5.251565
  30
0
  11
106.8
  21
-5.305702
  31
0
  0
LINE
  5
59
  100
AcDbEntity
  8
1
  100
AcDbLine
  10
106.8
  20
-5.305702
  30
0
  11
106.7
  21
-5.35741
  31
0
  0
LINE
  5
5a
  100
AcDbEntity
  8
1
  100
AcDbLine
  10
106.7
  20
-5.35741
  30
0
  11
106.6
  21
-5.40676
  31
0
  0
LINE
  5
5b
  100
AcDbEntity
  8
1
  100
AcDbLine
  10
106.6
  20
-5.40676
  30
0
  11
106.5
  21
-5.453816
  31
0
  0
LINE
  5
5c
  100
AcDbEntity
  8
1
  100
AcDbLine
  10
106.5
  20
-5.453816
  30
0
  11
106.4
  21
-5.498639
  31
0
  0
LINE
  5
5d
  100
AcDbEntity
  8
1
  100
AcDbLine
  10
106.4
  20
-5.498639
  30
0
  11
106.3
  21
-5.541285
  31
0
  0
LINE
  5
5e
  100
AcDbEntity
  8
1
  100
AcDbLine
  10
106.3
  20
-5.541285
  30
0
  11
106.2
  21
-5.581805
  31
0
  0
LINE
  5
5f
  100
AcDbEntity
  8
1
  100
AcDbLine
  10
106.2
  20
-5.581805
  30
0
  11
106.1
  21
-5.620245
  31
0
  0
LINE
  5
60
  100
AcDbEntity
  8
1
  100
AcDbLine
  10
106.1
  20
-5.620245
  30
0
  11
106
  21
-5.656648
  31
0
  0
LINE
  5
61
  100
AcDbEntity
  8
1
  100
AcDbLine
  10
106
  20
-5.656648
  30
0
  11
105.9
  21
-5.691056
  31
0
  0
LINE
  5
62
  100
AcDbEntity
  8
1
  100
AcDbLine
  10
105.9
  20
-5.691056
  30
0
  11
105.8
  21
-5.723503
  31
0
  0
LINE
  5
63
  100
AcDbEntity
  8
1
  100
AcDbLine
  10
105.8
  20
-5.723503
  30
0
  11
105.7
  21
-5.754025
  31
0
  0
LINE
  5
64
  100
AcDbEntity
  8
1
  100
AcDbLine
  10
105.7
  20
-5.754025
  30
0
  11
105.6
  21
-5.782652
  31
0
  0
LINE
  5
65
  100
AcDbEntity
  8
1
  100
AcDbLine
  10
105.6
  20
-5.782652
  30
0
  11
105.5
  21
-5.809413
  31
0
  0
LINE
  5
66
  100
AcDbEntity
  8
1
  100
AcDbLine
  10
105.5
  20
-5.809413
  30
0
  11
105.4
  21
-5.834334
  31
0
  0
LINE
  5
67
  100
AcDbEntity
  8
1
  100
AcDbLine
  10
105.4
  20
-5.834334
  30
0
  11
105.3
  21
-5.85744
  31
0
  0
LINE
  5
68
  100
AcDbEntity
  8
1
  100
AcDbLine
  10
105.3
  20
-5.85744
  30
0
  11
105.2
  21
-5.878751
  31
0
  0
LINE
  5
69
  100
AcDbEntity
  8
1
  100
AcDbLine
  10
105.2
  20
-5.878751
  30
0
  11
105.1
  21
-5.898288
  31
0
  0
LINE
  5
6a
  100
AcDbEntity
  8
1
  100
AcDbLine
  10
105.1
  20
-5.898288
  30
0
  11
105
  21
-5.916068
  31
0
  0
LINE
  5
6b
  100
AcDbEntity
  8
1
  100
AcDbLine
  10
105
  20
-5.916068
  30
0
  11
104.9
  21
-5.932108
  31
0
  0
LINE
  5
6c
  100
AcDbEntity
  8
1
  100
AcDbLine
  10
104.9
  20
-5.932108
  30
0
  11
104.8
  21
-5.946423
  31
0
  0
LINE
  5
6d
  100
AcDbEntity
  8
1
  100
AcDbLine
  10
104.8
  20
-5.946423
  30
0
  11
104.7
  21
-5.959024
  31
0
  0
LINE
  5
6e
  100
AcDbEntity
  8
1
  100
AcDbLine
  10
104.7
  20
-5.959024
  30
0
  11
104.6
  21
-5.969923
  31
0
  0
LINE
  5
6f
  100
AcDbEntity
  8
1
  100
AcDbLine
  10
104.6
  20
-5.969923
  30
0
  11
104.5
  21
-5.97913
  31
0
  0
LINE
  5
70
  100
AcDbEntity
  8
1
  100
AcDbLine
  10
104.5
  20
-5.97913
  30
0
  11
104.4
  21
-5.986652
  31
0
  0
LINE
  5
71
  100
AcDbEntity
  8
1
  100
AcDbLine
  10
104.4
  20
-5.986652
  30
0
  11
104.3
  21
-5.992495
  31
0
  0
LINE
  5
72
  100
AcDbEntity
  8
1
  100
AcDbLine
  10
104.3
  20
-5.992495
  30
0
  11
104.2
  21
-5.996666
  31
0
  0
LINE
  5
73
  100
AcDbEntity
  8
1
  100
AcDbLine
  10
104.2
  20
-5.996666
  30
0
  11
104.1
  21
-5.999167
  31
0
  0
LINE
  5
74
  100
AcDbEntity
  8
1
  100
AcDbLine
  10
104.1
  20
-5.999167
  30
0
  11
104
  21
-6
  31
0
  0
LINE
  5
75
  100
AcDbEntity
  8
1
  100
AcDbLine
  10
104
  20
-6
  30
0
  11
103.9
  21
-5.999167
  31
0
  0
LINE
  5
76
  100
AcDbEntity
  8
1
  100
AcDbLine
  10
103.9
  20
-5.999167
  30
0
  11
103.8
  21
-5.996666
  31
0
  0
LINE
  5
77
  100
AcDbEntity
  8
1
  100
AcDbLine
  10
103.8
  20
-5.996666
  30
0
  11
103.7
  21
-5.992495
  31
0
  0
LINE
  5
78
  100
AcDbEntity
  8
1
  100
AcDbLine
  10
103.7
  20
-5.992495
  30
0
  11
103.6
  21
-5.986652
  31
0
  0
LINE
  5
79
  100
AcDbEntity
  8
1
  100
AcDbLine
  10
103.6
  20
-5.986652
  30
0
  11
103.5
  21
-5.97913
  31
0
  0
LINE
  5
7a
  100
AcDbEntity
  8
1
  100
AcDbLine
  10
103.5
  20
-5.97913
  30
0
  11
103.4
  21
-5.969923
  31
0
  0
LINE
  5
7b
  100
AcDbEntity
  8
1
  100
AcDbLine
  10
103.4
  20
-5.969923
  30
0
  11
103.3
  21
-5.959024
  31
0
  0
LINE
  5
7c
  100
AcDbEntity
  8
1
  100
AcDbLine
  10
103.3
  20
-5.959024
  30
0
  11
103.2
  21
-5.946423
  31
0
  0
LINE
  5
7d
  100
AcDbEntity
  8
1
  100
AcDbLine
  10
103.2
  20
-5.946423
  30
0
  11
103.1
  21
-5.932108
  31
0
  0
LINE
  5
7e
  100
AcDbEntity
  8
1
  100
AcDbLine
  10
103.1
  20
-5.932108
  30
0
  11
103
  21
-5.916068
  31
0
  0
LINE
  5
7f
  100
AcDbEntity
  8
1
  100
AcDbLine
  10
103
  20
-5.916068
  30
0
  11
102.9
  21
-5.898288
  31
0
  0
LINE
  5
80
  100
AcDbEntity
  8
1
  100
AcDbLine
  10
102.9
  20
-5.898288
  30
0
  11
102.8
  21
-5.878751
  31
0
  0
LINE
  5
81
  100
AcDbEntity
  8
1
  100
AcDbLine
  10
102.8
  20
-5.878751
  30
0
  11
102.7
  21
-5.85744
  31
0
  0
LINE
  5
82
  100
AcDbEntity
  8
1
  100
AcDbLine
  10
102.7
  20
-5.85744
  30
0
  11
102.6
  21
-5.834334
  31
0
  0
LINE
  5
83
  100
AcDbEntity
  8
1
  100
AcDbLine
  10
102.6
  20
-5.834334
  30
0
  11
102.5
  21
-5.809413
  31
0
  0
LINE
  5
84
  100
AcDbEntity
  8
1
  100
AcDbLine
  10
102.5
  20
-5.809413
  30
0
  11
102.4
  21
-5.782652
  31
0
  0
LINE
  5
85
  100
AcDbEntity
  8
1
  100
AcDbLine
  10
102.4
  20
-5.782652
  30
0
  11
102.3
  21
-5.754025
  31
0
  0
LINE
  5
86
  100
AcDbEntity
  8
1
  100
AcDbLine
  10
102.3
  20
-5.754025
  30
0
  11
102.2
  21
-5.723503
  31
0
  0
LINE
  5
87
  100
AcDbEntity
  8
1
  100
AcDbLine
  10
102.2
  20
-5.723503
  30
0
  11
102.1
  21
-5.691056
  31
0
  0
LINE
  5
88
  100
AcDbEntity
  8
1
  100
AcDbLine
  10
102.1
  20
-5.691056
  30
0
  11
102
  21
-5.656648
  31
0
  0
LINE
  5
89
  100
AcDbEntity
  8
1
  100
AcDbLine
  10
102
  20
-5.656648
  30
0
  11
101.9
  21
-5.620245
  31
0
  0
LINE
  5
8a
  100
AcDbEntity
  8
1
  100
AcDbLine
  10
101.9
  20
-5.620245
  30
0
  11
101.820137
  21
-5.590009
  31
0
  0
LINE
  5
8b
  100
AcDbEntity
  8
1
  100
AcDbLine
  10
101.9
  20
-5.51045
  30
0
  11
102
  21
-5.547423
  31
0
  0
LINE
  5
8c
  100
AcDbEntity
  8
1
  100
AcDbLine
  10
102
  20
-5.547423
  30
0
  11
102.1
  21
-5.582362
  31
0
  0
LINE
  5
8d
  100
AcDbEntity
  8
1
  100
AcDbLine
  10
102.1
  20
-5.582362
  30
0
  11
102.2
  21
-5.615305
  31
0
  0
LINE
  5
8e
  100
AcDbEntity
  8
1
  100
AcDbLine
  10
102.2
  20
-5.615305
  30
0
  11
102.3
  21
-5.646288
  31
0
  0
LINE
  5
8f
  100
AcDbEntity
  8
1
  100
AcDbLine
  10
102.3
  20
-5.646288
  30
0
  11
102.4
  21
-5.675344
  31
0
  0
LINE
  5
90
  100
AcDbEntity
  8
1
  100
AcDbLine
  10
102.4
  20
-5.675344
  30
0
  11
102.5
  21
-5.702501
  31
0
  0
LINE
  5
91
  100
AcDbEntity
  8
1
  100
AcDbLine
  10
102.5
  20
-5.702501
  30
0
  11
102.6
  21
-5.727788
  31
0
  0
LINE
  5
92
  100
AcDbEntity
  8
1
  100
AcDbLine
  10
102.6
  20
-5.727788
  30
0
  11
102.7
  21
-5.75123
  31
0
  0
LINE
  5
93
  100
AcDbEntity
  8
1
  100
AcDbLine
  10
102.7
  20
-5.75123
  30
0
  11
102.8
  21
-5.772849
  31
0
  0
LINE
  5
94
  100
AcDbEntity
  8
1
  100
AcDbLine
  10
102.8
  20
-5.772849
  30
0
  11
102.9
  21
-5.792667
  31
0
  0
LINE
  5
95
  100
AcDbEntity
  8
1
  100
AcDbLine
  10
102.9
  20
-5.792667
  30
0
  11
103
  21
-5.810701
  31
0
  0
LINE
  5
96
  100
AcDbEntity
  8
1
  100
AcDbLine
  10
103
  20
-5.810701
  30
0
  11
103.1
  21
-5.826969
  31
0
  0
LINE
  5
97
  100
AcDbEntity
  8
1
  100
AcDbLine
  10
103.1
  20
-5.826969
  30
0
  11
103.2
  21
-5.841486
  31
0
  0
LINE
  5
98
  100
AcDbEntity
  8
1
  100
AcDbLine
  10
103.2
  20
-5.841486
  30
0
  11
103.3
  21
-5.854264
  31
0
  0
LINE
  5
99
  100
AcDbEntity
  8
1
  100
AcDbLine
  10
103.3
  20
-5.854264
  30
0
  11
103.4
  21
-5.865316
  31
0
  0
LINE
  5
9a
  100
AcDbEntity
  8
1
  100
AcDbLine
  10
103.4
  20
-5.865316
  30
0
  11
103.5
  21
-5.874651
  31
0
  0
LINE
  5
9b
  100
AcDbEntity
  8
1
  100
AcDbLine
  10
103.5
  20
-5.874651
  30
0
  11
103.6
  21
-5.882277
  31
0
  0
LINE
  5
9c
  100
AcDbEntity
  8
1
  100
AcDbLine
  10
103.6
  20
-5.882277
  30
0
  11
103.7
  21
-5.888202
  31
0
  0
LINE
  5
9d
  100
AcDbEntity
  8
1
  100
AcDbLine
  10
103.7
  20
-5.888202
  30
0
  11
103.8
  21
-5.892431
  31
0
  0
LINE
  5
9e
  100
AcDbEntity
  8
1
  100
AcDbLine
  10
103.8
  20
-5.892431
  30
0
  11
103.9
  21
-5.894966
  31
0
  0
LINE
  5
9f
  100
AcDbEntity
  8
1
  100
AcDbLine
  10
103.9
  20
-5.894966
  30
0
  11
104
  21
-5.895811
  31
0
  0
LINE
  5
a0
  100
AcDbEntity
  8
1
  100
AcDbLine
  10
104
  20
-5.895811
  30
0
  11
104.1
  21
-5.894966
  31
0
  0
LINE
  5
a1
  100
AcDbEntity
  8
1
  100
AcDbLine
  10
104.1
  20
-5.894966
  30
0
  11
104.2
  21
-5.892431
  31
0
  0
LINE
  5
a2
  100
AcDbEntity
  8
1
  100
AcDbLine
  10
104.2
  20
-5.892431
  30
0
  11
104.3
  21
-5.888202
  31
0
  0
LINE
  5
a3
  100
AcDbEntity
  8
1
  100
AcDbLine
  10
104.3
  20
-5.888202
  30
0
  11
104.4
  21
-5.882277
  31
0
  0
LINE
  5
a4
  100
AcDbEntity
  8
1
  100
AcDbLine
  10
104.4
  20
-5.882277
  30
0
  11
104.5
  21
-5.874651
  31
0
  0
LINE
  5
a5
  100
AcDbEntity
  8
1
  100
AcDbLine
  10
104.5
  20
-5.874651
  30
0
  11
104.6
  21
-5.865316
  31
0
  0
LINE
  5
a6
  100
AcDbEntity
  8
1
  100
AcDbLine
  10
104.6
  20
-5.865316
  30
0
  11
104.7
  21
-5.854264
  31
0
  0
LINE
  5
a7
  100
AcDbEntity
  8
1
  100
AcDbLine
  10
104.7
  20
-5.854264
  30
0
  11
104.8
  21
-5.841486
  31
0
  0
LINE
  5
a8
  100
AcDbEntity
  8
1
  100
AcDbLine
  10
104.8
  20
-5.841486
  30
0
  11
104.9
  21
-5.826969
  31
0
  0
LINE
  5
a9
  100
AcDbEntity
  8
1
  100
AcDbLine
  10
104.9
  20
-5.826969
  30
0
  11
105
  21
-5.810701
  31
0
  0
LINE
  5
aa
  100
AcDbEntity
  8
1
  100
AcDbLine
  10
105
  20
-5.810701
  30
0
  11
105.1
  21
-5.792667
  31
0
  0
LINE
  5
ab
  100
AcDbEntity
  8
1
  100
AcDbLine
  10
105.1
  20
-5.792667
  30
0
  11
105.2
  21
-5.772849
  31
0
  0
LINE
  5
ac
  100
AcDbEntity
  8
1
  100
AcDbLine
  10
105.2
  20
-5.772849
  30
0
  11
105.3
  21
-5.75123
  31
0
  0
LINE
  5
ad
  100
AcDbEntity
  8
1
  100
AcDbLine
  10
105.3
  20
-5.75123
  30
0
  11
105.4
  21
-5.727788
  31
0
  0
LINE
  5
ae
  100
AcDbEntity
  8
1
  100
AcDbLine
  10
105.4
  20
-5.727788
  30
0
  11
105.5
  21
-5.702501
  31
0
  0
LINE
  5
af
  100
AcDbEntity
  8
1
  100
AcDbLine
  10
105.5
  20
-5.702501
  30
0
  11
105.6
  21
-5.675344
  31
0
  0
LINE
  5
b0
  100
AcDbEntity
  8
1
  100
AcDbLine
  10
105.6
  20
-5.675344
  30
0
  11
105.7
  21
-5.646288
  31
0
  0
LINE
  5
b1
  100
AcDbEntity
  8
1
  100
AcDbLine
  10
105.7
  20
-5.646288
  30
0
  11
105.8
  21
-5.615305
  31
0
  0
LINE
  5
b2
  100
AcDbEntity
  8
1
  100
AcDbLine
  10
105.8
  20
-5.615305
  30
0
  11
105.9
  21
-5.582362
  31
0
  0
LINE
  5
b3
  100
AcDbEntity
  8
1
  100
AcDbLine
  10
105.9
  20
-5.582362
  30
0
  11
106
  21
-5.547423
  31
0
  0
LINE
  5
b4
  100
AcDbEntity
  8
1
  100
AcDbLine
  10
106
  20
-5.547423
  30
0
  11
106.1
  21
-5.51045
  31
0
  0
LINE
  5
b5
  100
AcDbEntity
  8
1
  100
AcDbLine
  10
106.1
  20
-5.51045
  30
0
  11
106.2
  21
-5.4714
  31
0
  0
LINE
  5
b6
  100
AcDbEntity
  8
1
  100
AcDbLine
  10
106.2
  20
-5.4714
  30
0
  11
106.3
  21
-5.43023
  31
0
  0
LINE
  5
b7
  100
AcDbEntity
  8
1
  100
AcDbLine
  10
106.3
  20
-5.43023
  30
0
  11
106.4
  21
-5.386888
  31
0
  0
LINE
  5
b8
  100
AcDbEntity
  8
1
  100
AcDbLine
  10
106.4
  20
-5.386888
  30
0
  11
106.5
  21
-5.341322
  31
0
  0
LINE
  5
b9
  100
AcDbEntity
  8
1
  100
AcDbLine
  10
106.5
  20
-5.341322
  30
0
  11
106.6
  21
-5.293472
  31
0
  0
LINE
  5
ba
  100
AcDbEntity
  8
1
  100
AcDbLine
  10
106.6
  20
-5.293472
  30
0
  11
106.7
  21
-5.243277
  31
0
  0
LINE
  5
bb
  100
AcDbEntity
  8
1
  100
AcDbLine
  10
106.7
  20
-5.243277
  30
0
  11
106.8
  21
-5.190666
  31
0
  0
LINE
  5
bc
  100
AcDbEntity
  8
1
  100
AcDbLine
  10
106.8
  20
-5.190666
  30
0
  11
106.9
  21
-5.135564
  31
0
  0
LINE
  5
bd
  100
AcDbEntity
  8
1
  100
AcDbLine
  10
106.9
  20
-5.135564
  30
0
  11
107
  21
-5.07789
  31
0
  0
LINE
  5
be
  100
AcDbEntity
  8
1
  100
AcDbLine
  10
107
  20
-5.07789
  30
0
  11
107.1
  21
-5.017552
  31
0
  0
LINE
  5
bf
  100
AcDbEntity
  8
1
  100
AcDbLine
  10
107.1
  20
-5.017552
  30
0
  11
107.2
  21
-4.954452
  31
0
  0
LINE
  5
c0
  100
AcDbEntity
  8
1
  100
AcDbLine
  10
107.2
  20
-4.954452
  30
0
  11
107.3
  21
-4.888481
  31
0
  0
LINE
  5
c1
  100
AcDbEntity
  8
1
  100
AcDbLine
  10
107.3
  20
-4.888481
  30
0
  11
107.4
  21
-4.819521
  31
0
  0
LINE
  5
c2
  100
AcDbEntity
  8
1
  100
AcDbLine
  10
107.4
  20
-4.819521
  30
0
  11
107.5
  21
-4.747437
  31
0
  0
LINE
  5
c3
  100
AcDbEntity
  8
1
  100
AcDbLine
  10
107.5
  20
-4.747437
  30
0
  11
107.6
  21
-4.672085
  31
0
  0
LINE
  5
c4
  100
AcDbEntity
  8
1
  100
AcDbLine
  10
107.6
  20
-4.672085
  30
0
  11
107.7
  21
-4.5933
  31
0
  0
LINE
  5
c5
  100
AcDbEntity
  8
1
  100
AcDbLine
  10
107.7
  20
-4.5933
  30
0
  11
107.8
  21
-4.5109
  31
0
  0
LINE
  5
c6
  100
AcDbEntity
  8
1
  100
AcDbLine
  10
107.8
  20
-4.5109
  30
0
  11
107.9
  21
-4.424679
  31
0
  0
LINE
  5
c7
  100
AcDbEntity
  8
1
  100
AcDbLine
  10
107.9
  20
-4.424679
  30
0
  11
108
  21
-4.334407
  31
0
  0
LINE
  5
c8
  100
AcDbEntity
  8
1
  100
AcDbLine
  10
108
  20
-4.334407
  30
0
  11
108.1
  21
-4.239821
  31
0
  0
LINE
  5
c9
  100
AcDbEntity
  8
1
  100
AcDbLine
  10
108.1
  20
-4.239821
  30
0
  11
108.2
  21
-4.140621
  31
0
  0
LINE
  5
ca
  100
AcDbEntity
  8
1
  100
AcDbLine
  10
108.2
  20
-4.140621
  30
0
  11
108.3
  21
-4.037054
  31
0
  0
LINE
  5
cb
  100
AcDbEntity
  8
1
  100
AcDbLine
  10
108.3
  20
-4.037054
  30
0
  11
108.4
  21
-3.930128
  31
0
  0
LINE
  5
cc
  100
AcDbEntity
  8
1
  100
AcDbLine
  10
108.4
  20
-3.930128
  30
0
  11
108.5
  21
-3.819775
  31
0
  0
LINE
  5
cd
  100
AcDbEntity
  8
1
  100
AcDbLine
  10
108.5
  20
-3.819775
  30
0
  11
108.6
  21
-3.706015
  31
0
  0
LINE
  5
ce
  100
AcDbEntity
  8
1
  100
AcDbLine
  10
108.6
  20
-3.706015
  30
0
  11
108.7
  21
-3.588875
  31
0
  0
LINE
  5
cf
  100
AcDbEntity
  8
1
  100
AcDbLine
  10
108.7
  20
-3.588875
  30
0
  11
108.8
  21
-3.468374
  31
0
  0
LINE
  5
d0
  100
AcDbEntity
  8
1
  100
AcDbLine
  10
108.8
  20
-3.468374
  30
0
  11
108.9
  21
-3.344492
  31
0
  0
LINE
  5
d1
  100
AcDbEntity
  8
1
  100
AcDbLine
  10
108.9
  20
-3.344492
  30
0
  11
109
  21
-3.217431
  31
0
  0
LINE
  5
d2
  100
AcDbEntity
  8
1
  100
AcDbLine
  10
109
  20
-3.217431
  30
0
  11
109.1
  21
-3.087174
  31
0
  0
LINE
  5
d3
  100
AcDbEntity
  8
1
  100
AcDbLine
  10
109.1
  20
-1.500816
  30
0
  11
109.1
  21
3.154658
  31
0
  0
LINE
  5
d4
  100
AcDbEntity
  8
1
  100
AcDbLine
  10
108.972848
  20
3.357199
  30
0
  11
109
  21
3.3165
  31
0
  0
LINE
  5
d5
  100
AcDbEntity
  8
1
  100
AcDbLine
  10
109
  20
3.3165
  30
0
  11
109.1
  21
3.154658
  31
0
  0
LINE
  5
d6
  100
AcDbEntity
  8
1
  100
AcDbLine
  10
109.1
  20
3.154658
  30
0
  11
109.1
  21
-1.500816
  31
0
  0
LINE
  5
d7
  100
AcDbEntity
  8
1
  100
AcDbLine
  10
109.1
  20
-1.500816
  30
0
  11
109
  21
-1.913673
  31
0
  0
LINE
  5
d8
  100
AcDbEntity
  8
1
  100
AcDbLine
  10
109
  20
-1.913673
  30
0
  11
108.9
  21
-2.223836
  31
0
  0
LINE
  5
d9
  100
AcDbEntity
  8
1
  100
AcDbLine
  10
108.9
  20
-2.223836
  30
0
  11
108.8
  21
-2.480687
  31
0
  0
LINE
  5
da
  100
AcDbEntity
  8
1
  100
AcDbLine
  10
108.8
  20
-2.480687
  30
0
  11
108.7
  21
-2.703133
  31
0
  0
LINE
  5
db
  100
AcDbEntity
  8
1
  100
AcDbLine
  10
108.7
  20
-2.703133
  30
0
  11
108.6
  21
-2.90084
  31
0
  0
LINE
  5
dc
  100
AcDbEntity
  8
1
  100
AcDbLine
  10
108.6
  20
-2.90084
  30
0
  11
108.5
  21
-3.07955
  31
0
  0
LINE
  5
dd
  100
AcDbEntity
  8
1
  100
AcDbLine
  10
108.5
  20
-3.07955
  30
0
  11
108.4
  21
-3.243007
  31
0
  0
LINE
  5
de
  100
AcDbEntity
  8
1
  100
AcDbLine
  10
108.4
  20
-3.243007
  30
0
  11
108.3
  21
-3.393816
  31
0
  0
LINE
  5
df
  100
AcDbEntity
  8
1
  100
AcDbLine
  10
108.3
  20
-3.393816
  30
0
  11
108.2
  21
-3.533877
  31
0
  0
LINE
  5
e0
  100
AcDbEntity
  8
1
  100
AcDbLine
  10
108.2
  20
-3.533877
  30
0
  11
108.1
  21
-3.664626
  31
0
  0
LINE
  5
e1
  100
AcDbEntity
  8
1
  100
AcDbLine
  10
108.1
  20
-3.664626
  30
0
  11
108
  21
-3.787182
  31
0
  0
LINE
  5
e2
  100
AcDbEntity
  8
1
  100
AcDbLine
  10
108
  20
-3.787182
  30
0
  11
107.9
  21
-3.902437
  31
0
  0
LINE
  5
e3
  100
AcDbEntity
  8
1
  100
AcDbLine
  10
107.9
  20
-3.902437
  30
0
  11
107.8
  21
-4.011112
  31
0
  0
LINE
  5
e4
  100
AcDbEntity
  8
1
  100
AcDbLine
  10
107.8
  20
-4.011112
  30
0
  11
107.7
  21
-4.113806
  31
0
  0
LINE
  5
e5
  100
AcDbEntity
  8
1
  100
AcDbLine
  10
107.7
  20
-4.113806
  30
0
  11
107.6
  21
-4.211018
  31
0
  0
LINE
  5
e6
  100
AcDbEntity
  8
1
  100
AcDbLine
  10
107.6
  20
-4.211018
  30
0
  11
107.5
  21
-4.30317
  31
0
  0
LINE
  5
e7
  100
AcDbEntity
  8
1
  100
AcDbLine
  10
107.5
  20
-4.30317
  30
0
  11
107.4
  21
-4.390625
  31
0
  0
LINE
  5
e8
  100
AcDbEntity
  8
1
  100
AcDbLine
  10
107.4
  20
-4.390625
  30
0
  11
107.3
  21
-4.473693
  31
0
  0
LINE
  5
e9
  100
AcDbEntity
  8
1
  100
AcDbLine
  10
107.3
  20
-4.473693
  30
0
  11
107.2
  21
-4.552647
  31
0
  0
LINE
  5
ea
  100
AcDbEntity
  8
1
  100
AcDbLine
  10
107.2
  20
-4.552647
  30
0
  11
107.1
  21
-4.627723
  31
0
  0
LINE
  5
eb
  100
AcDbEntity
  8
1
  100
AcDbLine
  10
107.1
  20
-4.627723
  30
0
  11
107
  21
-4.69913
  31
0
  0
LINE
  5
ec
  100
AcDbEntity
  8
1
  100
AcDbLine
  10
107
  20
-4.69913
  30
0
  11
106.9
  21
-4.767054
  31
0
  0
LINE
  5
ed
  100
AcDbEntity
  8
1
  100
AcDbLine
  10
106.9
  20
-4.767054
  30
0
  11
106.8
  21
-4.831659
  31
0
  0
LINE
  5
ee
  100
AcDbEntity
  8
1
  100
AcDbLine
  10
106.8
  20
-4.831659
  30
0
  11
106.7
  21
-4.893092
  31
0
  0
LINE
  5
ef
  100
AcDbEntity
  8
1
  100
AcDbLine
  10
106.7
  20
-4.893092
  30
0
  11
106.6
  21
-4.951485
  31
0
  0
LINE
  5
f0
  100
AcDbEntity
  8
1
  100
AcDbLine
  10
106.6
  20
-4.951485
  30
0
  11
106.5
  21
-5.006957
  31
0
  0
LINE
  5
f1
  100
AcDbEntity
  8
1
  100
AcDbLine
  10
106.5
  20
-5.006957
  30
0
  11
106.4
  21
-5.059616
  31
0
  0
LINE
  5
f2
  100
AcDbEntity
  8
1
  100
AcDbLine
  10
106.4
  20
-5.059616
  30
0
  11
106.3
  21
-5.109557
  31
0
  0
LINE
  5
f3
  100
AcDbEntity
  8
1
  100
AcDbLine
  10
106.3
  20
-5.109557
  30
0
  11
106.2
  21
-5.156869
  31
0
  0
LINE
  5
f4
  100
AcDbEntity
  8
1
  100
AcDbLine
  10
106.2
  20
-5.156869
  30
0
  11
106.1
  21
-5.201631
  31
0
  0
LINE
  5
f5
  100
AcDbEntity
  8
1
  100
AcDbLine
  10
106.1
  20
-5.201631
  30
0
  11
106
  21
-5.243917
  31
0
  0
LINE
  5
f6
  100
AcDbEntity
  8
1
  100
AcDbLine
  10
106
  20
-5.243917
  30
0
  11
105.9
  21
-5.283791
  31
0
  0
LINE
  5
f7
  100
AcDbEntity
  8
1
  100
AcDbLine
  10
105.9
  20
-5.283791
  30
0
  11
105.8
  21
-5.321314
  31
0
  0
LINE
  5
f8
  100
AcDbEntity
  8
1
  100
AcDbLine
  10
105.8
  20
-5.321314
  30
0
  11
105.7
  21
-5.356541
  31
0
  0
LINE
  5
f9
  100
AcDbEntity
  8
1
  100
AcDbLine
  10
105.7
  20
-5.356541
  30
0
  11
105.6
  21
-5.389522
  31
0
  0
LINE
  5
fa
  100
AcDbEntity
  8
1
  100
AcDbLine
  10
105.6
  20
-5.389522
  30
0
  11
105.5
  21
-5.420301
  31
0
  0
LINE
  5
fb
  100
AcDbEntity
  8
1
  100
AcDbLine
  10
105.5
  20
-5.420301
  30
0
  11
105.4
  21
-5.448921
  31
0
  0
LINE
  5
fc
  100
AcDbEntity
  8
1
  100
AcDbLine
  10
105.4
  20
-5.448921
  30
0
  11
105.3
  21
-5.475418
  31
0
  0
LINE
  5
fd
  100
AcDbEntity
  8
1
  100
AcDbLine
  10
105.3
  20
-5.475418
  30
0
  11
105.2
  21
-5.499827
  31
0
  0
LINE
  5
fe
  100
AcDbEntity
  8
1
  100
AcDbLine
  10
105.2
  20
-5.499827
  30
0
  11
105.1
  21
-5.522178
  31
0
  0
LINE
  5
ff
  100
AcDbEntity
  8
1
  100
AcDbLine
  10
105.1
  20
-5.522178
  30
0
  11
105
  21
-5.542498
  31
0
  0
LINE
  5
100
  100
AcDbEntity
  8
1
  100
AcDbLine
  10
105
  20
-5.542498
  30
0
  11
104.9
  21
-5.560813
  31
0
  0
LINE
  5
101
  100
AcDbEntity
  8
1
  100
AcDbLine
  10
104.9
  20
-5.560813
  30
0
  11
104.8
  21
-5.577144
  31
0
  0
LINE
  5
102
  100
AcDbEntity
  8
1
  100
AcDbLine
  10
104.8
  20
-5.577144
  30
0
  11
104.7
  21
-5.591509
  31
0
  0
LINE
  5
103
  100
AcDbEntity
  8
1
  100
AcDbLine
  10
104.7
  20
-5.591509
  30
0
  11
104.6
  21
-5.603927
  31
0
  0
LINE
  5
104
  100
AcDbEntity
  8
1
  100
AcDbLine
  10
104.6
  20
-5.603927
  30
0
  11
104.5
  21
-5.61441
  31
0
  0
LINE
  5
105
  100
AcDbEntity
  8
1
  100
AcDbLine
  10
104.5
  20
-5.61441
  30
0
  11
104.4
  21
-5.622971
  31
0
  0
LINE
  5
106
  100
AcDbEntity
  8
1
  100
AcDbLine
  10
104.4
  20
-5.622971
  30
0
  11
104.3
  21
-5.62962
  31
0
  0
LINE
  5
107
  100
AcDbEntity
  8
1
  100
AcDbLine
  10
104.3
  20
-5.62962
  30
0
  11
104.2
  21
-5.634364
  31
0
  0
LINE
  5
108
  100
AcDbEntity
  8
1
  100
AcDbLine
  10
104.2
  20
-5.634364
  30
0
  11
104.1
  21
-5.637208
  31
0
  0
LINE
  5
109
  100
AcDbEntity
  8
1
  100
AcDbLine
  10
104.1
  20
-5.637208
  30
0
  11
104
  21
-5.638156
  31
0
  0
LINE
  5
10a
  100
AcDbEntity
  8
1
  100
AcDbLine
  10
104
  20
-5.638156
  30
0
  11
103.9
  21
-5.637208
  31
0
  0
LINE
  5
10b
  100
AcDbEntity
  8
1
  100
AcDbLine
  10
103.9
  20
-5.637208
  30
0
  11
103.8
  21
-5.634364
  31
0
  0
LINE
  5
10c
  100
AcDbEntity
  8
1
  100
AcDbLine
  10
103.8
  20
-5.634364
  30
0
  11
103.7
  21
-5.62962
  31
0
  0
LINE
  5
10d
  100
AcDbEntity
  8
1
  100
AcDbLine
  10
103.7
  20
-5.62962
  30
0
  11
103.6
  21
-5.622971
  31
0
  0
LINE
  5
10e
  100
AcDbEntity
  8
1
  100
AcDbLine
  10
103.6
  20
-5.622971
  30
0
  11
103.5
  21
-5.61441
  31
0
  0
LINE
  5
10f
  100
AcDbEntity
  8
1
  100
AcDbLine
  10
103.5
  20
-5.61441
  30
0
  11
103.4
  21
-5.603927
  31
0
  0
LINE
  5
110
  100
AcDbEntity
  8
1
  100
AcDbLine
  10
103.4
  20
-5.603927
  30
0
  11
103.3
  21
-5.591509
  31
0
  0
LINE
  5
111
  100
AcDbEntity
  8
1
  100
AcDbLine
  10
103.3
  20
-5.591509
  30
0
  11
103.2
  21
-5.577144
  31
0
  0
LINE
  5
112
  100
AcDbEntity
  8
1
  100
AcDbLine
  10
103.2
  20
-5.577144
  30
0
  11
103.1
  21
-5.560813
  31
0
  0
LINE
  5
113
  100
AcDbEntity
  8
1
  100
AcDbLine
  10
103.1
  20
-5.560813
  30
0
  11
103
  21
-5.542498
  31
0
  0
LINE
  5
114
  100
AcDbEntity
  8
1
  100
AcDbLine
  10
103
  20
-5.542498
  30
0
  11
102.9
  21
-5.522178
  31
0
  0
LINE
  5
115
  100
AcDbEntity
  8
1
  100
AcDbLine
  10
102.9
  20
-5.522178
  30
0
  11
102.8
  21
-5.499827
  31
0
  0
LINE
  5
116
  100
AcDbEntity
  8
1
  100
AcDbLine
  10
102.8
  20
-5.499827
  30
0
  11
102.7
  21
-5.475418
  31
0
  0
LINE
  5
117
  100
AcDbEntity
  8
1
  100
AcDbLine
  10
102.7
  20
-5.475418
  30
0
  11
102.6
  21
-5.448921
  31
0
  0
LINE
  5
118
  100
AcDbEntity
  8
1
  100
AcDbLine
  10
102.6
  20
-5.448921
  30
0
  11
102.5
  21
-5.420301
  31
0
  0
LINE
  5
119
  100
AcDbEntity
  8
1
  100
AcDbLine
  10
102.5
  20
-5.420301
  30
0
  11
102.4
  21
-5.389522
  31
0
  0
LINE
  5
11a
  100
AcDbEntity
  8
1
  100
AcDbLine
  10
102.4
  20
-5.389522
  30
0
  11
102.3
  21
-5.356541
  31
0
  0
LINE
  5
11b
  100
AcDbEntity
  8
1
  100
AcDbLine
  10
102.3
  20
-5.356541
  30
0
  11
102.2
  21
-5.321314
  31
0
  0
LINE
  5
11c
  100
AcDbEntity
  8
1
  100
AcDbLine
  10
102.2
  20
-5.321314
  30
0
  11
102.1
  21
-5.283791
  31
0
  0
LINE
  5
11d
  100
AcDbEntity
  8
1
  100
AcDbLine
  10
102.1
  20
-5.283791
  30
0
  11
102
  21
-5.243917
  31
0
  0
LINE
  5
11e
  100
AcDbEntity
  8
1
  100
AcDbLine
  10
102
  20
-5.243917
  30
0
  11
101.9
  21
-5.201631
  31
0
  0
LINE
  5
11f
  100
AcDbEntity
  8
1
  100
AcDbLine
  10
101.9
  20
-5.201631
  30
0
  11
101.8
  21
-5.114051
  31
0
  0
LINE
  5
120
  100
AcDbEntity
  8
1
  100
AcDbLine
  10
101.8
  20
-5.114051
  30
0
  11
101.7
  21
-4.927281
  31
0
  0
LINE
  5
121
  100
AcDbEntity
  8
1
  100
AcDbLine
  10
101.7
  20
-4.927281
  30
0
  11
101.6
  21
-4.612172
  31
0
  0
LINE
  5
122
  100
AcDbEntity
  8
1
  100
AcDbLine
  10
101.6
  20
-4.612172
  30
0
  11
101.5
  21
-4.130148
  31
0
  0
LINE
  5
123
  100
AcDbEntity
  8
1
  100
AcDbLine
  10
101.5
  20
-4.130148
  30
0
  11
101.4
  21
-3.445933
  31
0
  0
LINE
  5
124
  100
AcDbEntity
  8
1
  100
AcDbLine
  10
101.4
  20
-3.445933
  30
0
  11
101.3
  21
-2.542816
  31
0
  0
LINE
  5
125
  100
AcDbEntity
  8
1
  100
AcDbLine
  10
101.3
  20
-2.542816
  30
0
  11
101.2
  21
-1.436822
  31
0
  0
LINE
  5
126
  100
AcDbEntity
  8
1
  100
AcDbLine
  10
101.2
  20
-1.436822
  30
0
  11
101.1
  21
-0.184694
  31
0
  0
LINE
  5
127
  100
AcDbEntity
  8
1
  100
AcDbLine
  10
101.1
  20
-0.184694
  30
0
  11
101
  21
1.118938
  31
0
  0
LINE
  5
128
  100
AcDbEntity
  8
1
  100
AcDbLine
  10
101
  20
1.118938
  30
0
  11
100.9
  21
2.456306
  31
0
  0
LINE
  5
129
  100
AcDbEntity
  8
1
  100
AcDbLine
  10
100.9
  20
2.456306
  30
0
  11
100.9
  21
2.433539
  31
0
  0
LINE
  5
12a
  100
AcDbEntity
  8
1
  100
AcDbLine
  10
100.9
  20
2.433539
  30
0
  11
101
  21
3.356413
  31
0
  0
LINE
  5
12b
  100
AcDbEntity
  8
1
  100
AcDbLine
  10
101
  20
3.356413
  30
0
  11
101.1
  21
3.988221
  31
0
  0
LINE
  5
12c
  100
AcDbEntity
  8
1
  100
AcDbLine
  10
101.1
  20
3.988221
  30
0
  11
101.2
  21
4.504763
  31
0
  0
LINE
  5
12d
  100
AcDbEntity
  8
1
  100
AcDbLine
  10
101.2
  20
4.504763
  30
0
  11
101.3
  21
4.898654
  31
0
  0
LINE
  5
12e
  100
AcDbEntity
  8
1
  100
AcDbLine
  10
101.3
  20
4.898654
  30
0
  11
101.4
  21
5.177269
  31
0
  0
LINE
  5
12f
  100
AcDbEntity
  8
1
  100
AcDbLine
  10
101.4
  20
5.177269
  30
0
  11
101.5
  21
5.359463
  31
0
  0
LINE
  5
130
  100
AcDbEntity
  8
1
  100
AcDbLine
  10
101.5
  20
5.359463
  30
0
  11
101.6
  21
5.470628
  31
0
  0
LINE
  5
131
  100
AcDbEntity
  8
1
  100
AcDbLine
  10
101.6
  20
5.470628
  30
0
  11
101.7
  21
5.537269
  31
0
  0
LINE
  5
132
  100
AcDbEntity
  8
1
  100
AcDbLine
  10
101.7
  20
5.537269
  30
0
  11
101.8
  21
5.582098
  31
0
  0
LINE
  5
133
  100
AcDbEntity
  8
1
  100
AcDbLine
  10
101.8
  20
5.582098
  30
0
  11
101.820137
  21
5.590009
  31
0
  0
LINE
  5
134
  100
AcDbEntity
  8
SK1
  100
AcDbLine
  10
50
  20
5.999973
  30
0
  11
49.999
  21
6
  31
0
  0
LINE
  5
135
  100
AcDbEntity
  8
SK1
  100
AcDbLine
  10
49.999
  20
6
  30
0
  11
50
  21
6
  31
0
  0
LINE
  5
136
  100
AcDbEntity
  8
SK1
  100
AcDbLine
  10
50
  20
6
  30
0
  11
0.8
  21
6
  31
0
  0
LINE
  5
137
  100
AcDbEntity
  8
SK1
  100
AcDbLine
  10
0.8
  20
6
  30
0
  11
0
  21
5.2
  31
0
  0
LINE
  5
138
  100
AcDbEntity
  8
SK1
  100
AcDbLine
  10
50
  20
-5.999973
  30
0
  11
49.999
  21
-6
  31
0
  0
LINE
  5
139
  100
AcDbEntity
  8
SK1
  100
AcDbLine
  10
49.999
  20
-6
  30
0
  11
50
  21
-6
  31
0
  0
LINE
  5
13a
  100
AcDbEntity
  8
SK1
  100
AcDbLine
  10
50
  20
-6
  30
0
  11
0.8
  21
-6
  31
0
  0
LINE
  5
13b
  100
AcDbEntity
  8
SK1
  100
AcDbLine
  10
0.8
  20
-6
  30
0
  11
0
  21
-5.2
  31
0
  0
LINE
  5
13c
  100
AcDbEntity
  8
SK1
  100
AcDbLine
  10
49.999
  20
6
  30
0
  11
49.999
  21
-6
  31
0
  0
LINE
  5
13d
  100
AcDbEntity
  8
SK1
  100
AcDbLine
  10
0.8
  20
6
  30
0
  11
0.8
  21
-6
  31
0
  0
LINE
  5
13e
  100
AcDbEntity
  8
SK1
  100
AcDbLine
  10
0
  20
5.2
  30
0
  11
0
  21
-5.2
  31
0
  0
LINE
  5
13f
  100
AcDbEntity
  8
SK1
  100
AcDbLine
  10
51.0401
  20
1.40688
  30
0
  11
51.4069
  21
1.0401
  31
0
  0
LINE
  5
140
  100
AcDbEntity
  8
SK1
  100
AcDbLine
  10
50.5328
  20
1.66666
  30
0
  11
51.6667
  21
0.532833
  31
0
  0
LINE
  5
141
  100
AcDbEntity
  8
SK1
  100
AcDbLine
  10
50.2154
  20
1.73657
  30
0
  11
51.7366
  21
0.215434
  31
0
  0
LINE
  5
142
  100
AcDbEntity
  8
SK1
  100
AcDbLine
  10
50
  20
1.70452
  30
0
  11
51.7045
  21
0
  31
0
  0
LINE
  5
143
  100
AcDbEntity
  8
SK1
  100
AcDbLine
  10
50
  20
1.45703
  30
0
  11
51.457
  21
0
  31
0
  0
LINE
  5
144
  100
AcDbEntity
  8
SK1
  100
AcDbLine
  10
50
  20
1.20954
  30
0
  11
51.2095
  21
0
  31
0
  0
LINE
  5
145
  100
AcDbEntity
  8
SK1
  100
AcDbLine
  10
50
  20
0.962054
  30
0
  11
50.9621
  21
0
  31
0
  0
LINE
  5
146
  100
AcDbEntity
  8
SK1
  100
AcDbLine
  10
50
  20
0.714566
  30
0
  11
50.7146
  21
0
  31
0
  0
LINE
  5
147
  100
AcDbEntity
  8
SK1
  100
AcDbLine
  10
50
  20
0.467079
  30
0
  11
50.4671
  21
0
  31
0
  0
LINE
  5
148
  100
AcDbEntity
  8
SK1
  100
AcDbLine
  10
50
  20
0.219592
  30
0
  11
50.2196
  21
0
  31
0
  0
LINE
  5
149
  100
AcDbEntity
  8
SK1
  100
AcDbLine
  10
50
  20
1.70452
  30
0
  11
50.0441
  21
1.74861
  31
0
  0
LINE
  5
14a
  100
AcDbEntity
  8
SK1
  100
AcDbLine
  10
50
  20
1.45703
  30
0
  11
50.271
  21
1.72802
  31
0
  0
LINE
  5
14b
  100
AcDbEntity
  8
SK1
  100
AcDbLine
  10
50
  20
1.20954
  30
0
  11
50.4742
  21
1.6837
  31
0
  0
LINE
  5
14c
  100
AcDbEntity
  8
SK1
  100
AcDbLine
  10
50
  20
0.962054
  30
0
  11
50.6588
  21
1.62082
  31
0
  0
LINE
  5
14d
  100
AcDbEntity
  8
SK1
  100
AcDbLine
  10
50
  20
0.714566
  30
0
  11
50.8271
  21
1.54167
  31
0
  0
LINE
  5
14e
  100
AcDbEntity
  8
SK1
  100
AcDbLine
  10
50
  20
0.467079
  30
0
  11
50.981
  21
1.44812
  31
0
  0
LINE
  5
14f
  100
AcDbEntity
  8
SK1
  100
AcDbLine
  10
50
  20
0.219592
  30
0
  11
51.1226
  21
1.34216
  31
0
  0
LINE
  5
150
  100
AcDbEntity
  8
SK1
  100
AcDbLine
  10
50.0279
  20
0
  30
0
  11
51.2508
  21
1.22288
  31
0
  0
LINE
  5
151
  100
AcDbEntity
  8
SK1
  100
AcDbLine
  10
50.2754
  20
0
  30
0
  11
51.367
  21
1.09157
  31
0
  0
LINE
  5
152
  100
AcDbEntity
  8
SK1
  100
AcDbLine
  10
50.5229
  20
0
  30
0
  11
51.4707
  21
0.947822
  31
0
  0
LINE
  5
153
  100
AcDbEntity
  8
SK1
  100
AcDbLine
  10
50.7704
  20
0
  30
0
  11
51.5605
  21
0.790145
  31
0
  0
LINE
  5
154
  100
AcDbEntity
  8
SK1
  100
AcDbLine
  10
51.0178
  20
0
  30
0
  11
51.6364
  21
0.618517
  31
0
  0
LINE
  5
155
  100
AcDbEntity
  8
SK1
  100
AcDbLine
  10
51.2653
  20
0
  30
0
  11
51.696
  21
0.430696
  31
0
  0
LINE
  5
156
  100
AcDbEntity
  8
SK1
  100
AcDbLine
  10
51.5128
  20
0
  30
0
  11
51.7356
  21
0.222827
  31
0
  0
LINE
  5
157
  100
AcDbEntity
  8
SK1
  100
AcDbLine
  10
50
  20
0
  30
0
  11
50
  21
1.75
  31
0
  0
LINE
  5
158
  100
AcDbEntity
  8
SK1
  100
AcDbLine
  10
50
  20
0
  30
0
  11
51.75
  21
0
  31
0
  0
ARC
  5
159
  100
AcDbEntity
  8
SK1
  100
AcDbCircle
  10
50
  20
0
  30
0
  40
1.75
  100
AcDbArc
  50
0
  51
90
  0
ARC
  5
15a
  100
AcDbEntity
  8
SK1
  100
AcDbCircle
  10
50
  20
0
  30
0
  40
1.75
  100
AcDbArc
  50
90
  51
180
  0
LINE
  5
15b
  100
AcDbEntity
  8
SK1
  100
AcDbLine
  10
49.9721
  20
0
  30
0
  11
50
  21
-0.027896
  31
0
  0
LINE
  5
15c
  100
AcDbEntity
  8
SK1
  100
AcDbLine
  10
49.7246
  20
0
  30
0
  11
50
  21
-0.275383
  31
0
  0
LINE
  5
15d
  100
AcDbEntity
  8
SK1
  100
AcDbLine
  10
49.4771
  20
0
  30
0
  11
50
  21
-0.522871
  31
0
  0
LINE
  5
15e
  100
AcDbEntity
  8
SK1
  100
AcDbLine
  10
49.2296
  20
0
  30
0
  11
50
  21
-0.770358
  31
0
  0
LINE
  5
15f
  100
AcDbEntity
  8
SK1
  100
AcDbLine
  10
48.9822
  20
0
  30
0
  11
50
  21
-1.01785
  31
0
  0
LINE
  5
160
  100
AcDbEntity
  8
SK1
  100
AcDbLine
  10
48.7347
  20
0
  30
0
  11
50
  21
-1.26533
  31
0
  0
LINE
  5
161
  100
AcDbEntity
  8
SK1
  100
AcDbLine
  10
48.4872
  20
0
  30
0
  11
50
  21
-1.51282
  31
0
  0
LINE
  5
162
  100
AcDbEntity
  8
SK1
  100
AcDbLine
  10
48.2503
  20
-0.010642
  30
0
  11
49.9894
  21
-1.74967
  31
0
  0
LINE
  5
163
  100
AcDbEntity
  8
SK1
  100
AcDbLine
  10
48.2736
  20
-0.281429
  30
0
  11
49.7186
  21
-1.72637
  31
0
  0
LINE
  5
164
  100
AcDbEntity
  8
SK1
  100
AcDbLine
  10
48.3639
  20
-0.619147
  30
0
  11
49.3809
  21
-1.63613
  31
0
  0
LINE
  5
165
  100
AcDbEntity
  8
SK1
  100
AcDbLine
  10
48.2514
  20
-0.044098
  30
0
  11
48.2955
  21
0
  31
0
  0
LINE
  5
166
  100
AcDbEntity
  8
SK1
  100
AcDbLine
  10
48.272
  20
-0.270991
  30
0
  11
48.543
  21
0
  31
0
  0
LINE
  5
167
  100
AcDbEntity
  8
SK1
  100
AcDbLine
  10
48.3163
  20
-0.474162
  30
0
  11
48.7905
  21
0
  31
0
  0
LINE
  5
168
  100
AcDbEntity
  8
SK1
  100
AcDbLine
  10
48.3792
  20
-0.658762
  30
0
  11
49.0379
  21
0
  31
0
  0
LINE
  5
169
  100
AcDbEntity
  8
SK1
  100
AcDbLine
  10
48.4583
  20
-0.827105
  30
0
  11
49.2854
  21
0
  31
0
  0
LINE
  5
16a
  100
AcDbEntity
  8
SK1
  100
AcDbLine
  10
48.5519
  20
-0.981039
  30
0
  11
49.5329
  21
0
  31
0
  0
LINE
  5
16b
  100
AcDbEntity
  8
SK1
  100
AcDbLine
  10
48.6578
  20
-1.12257
  30
0
  11
49.7804
  21
0
  31
0
  0
LINE
  5
16c
  100
AcDbEntity
  8
SK1
  100
AcDbLine
  10
48.7771
  20
-1.25077
  30
0
  11
50
  21
-0.027896
  31
0
  0
LINE
  5
16d
  100
AcDbEntity
  8
SK1
  100
AcDbLine
  10
48.9084
  20
-1.36695
  30
0
  11
50
  21
-0.275383
  31
0
  0
LINE
  5
16e
  100
AcDbEntity
  8
SK1
  100
AcDbLine
  10
49.0522
  20
-1.47069
  30
0
  11
50
  21
-0.522871
  31
0
  0
LINE
  5
16f
  100
AcDbEntity
  8
SK1
  100
AcDbLine
  10
49.2099
  20
-1.5605
  30
0
  11
50
  21
-0.770358
  31
0
  0
LINE
  5
170
  100
AcDbEntity
  8
SK1
  100
AcDbLine
  10
49.3815
  20
-1.63636
  30
0
  11
50
  21
-1.01785
  31
0
  0
LINE
  5
171
  100
AcDbEntity
  8
SK1
  100
AcDbLine
  10
49.5693
  20
-1.69603
  30
0
  11
50
  21
-1.26533
  31
0
  0
LINE
  5
172
  100
AcDbEntity
  8
SK1
  100
AcDbLine
  10
49.7772
  20
-1.73565
  30
0
  11
50
  21
-1.51282
  31
0
  0
LINE
  5
173
  100
AcDbEntity
  8
SK1
  100
AcDbLine
  10
50
  20
0
  30
0
  11
48.25
  21
0
  31
0
  0
LINE
  5
174
  100
AcDbEntity
  8
SK1
  100
AcDbLine
  10
50
  20
-1.75
  30
0
  11
50
  21
0
  31
0
  0
ARC
  5
175
  100
AcDbEntity
  8
SK1
  100
AcDbCircle
  10
50
  20
0
  30
0
  40
1.75
  100
AcDbArc
  50
180
  51
270
  0
ARC
  5
176
  100
AcDbEntity
  8
SK1
  100
AcDbCircle
  10
50
  20
0
  30
0
  40
1.75
  100
AcDbArc
  50
270
  51
0
  0
LINE
  5
1e3
  100
AcDbEntity
  8
NOCUT
  100
AcDbLine
  10
101.9
  20
0
  30
0
  11
101.9
  21
5.620498
  31
0
  0
ARC
  5
1e4
  100
AcDbEntity
  8
NOCUT
  100
AcDbCircle
  10
104
  20
0
  30
0
  40
6
  100
AcDbArc
  50
110.487315
  51
120
  0
LINE
  5
1e5
  100
AcDbEntity
  8
NOCUT
  100
AcDbLine
  10
101
  20
5.196152
  30
0
  11
100.999
  21
5.196152
  31
0
  0
LINE
  5
1e6
  100
AcDbEntity
  8
NOCUT
  100
AcDbLine
  10
100.999
  20
5.196152
  30
0
  11
100.999
  21
4.6
  31
0
  0
LINE
  5
1e7
  100
AcDbEntity
  8
NOCUT
  100
AcDbLine
  10
100.999
  20
4.6
  30
0
  11
50
  21
5.999973
  31
0
  0
LINE
  5
1e8
  100
AcDbEntity
  8
NOCUT
  100
AcDbLine
  10
50
  20
5.999973
  30
0
  11
50
  21
0
  31
0
  0
LINE
  5
1e9
  100
AcDbEntity
  8
NOCUT
  100
AcDbLine
  10
50
  20
0
  30
0
  11
101.9
  21
0
  31
0
  0
ARC
  5
1ea
  100
AcDbEntity
  8
CUT
  100
AcDbCircle
  10
104
  20
0
  30
0
  40
6
  100
AcDbArc
  50
0
  51
110.487315
  0
LINE
  5
1eb
  100
AcDbEntity
  8
CUT
  100
AcDbLine
  10
101.9
  20
5.620498
  30
0
  11
101.9
  21
0
  31
0
  0
LINE
  5
1ec
  100
AcDbEntity
  8
CUT
  100
AcDbLine
  10
101.9
  20
0
  30
0
  11
110
  21
0
  31
0
  0
LINE
  5
1ed
  100
AcDbEntity
  8
4
  100
AcDbLine
  10
50
  20
0
  30
0
  11
110
  21
0
  31
0
  0
LINE
  5
1ee
  100
AcDbEntity
  8
SK4
  100
AcDbLine
  10
-1
  20
0
  30
0
  11
111
  21
0
  31
0
  0
LINE
  5
1ef
  100
AcDbEntity
  8
INFTOTAL
  100
AcDbLine
  10
-8.702543
  20
29.223931
  30
0
  11
128.223931
  21
29.223931
  31
0
  0
LINE
  5
1f0
  100
AcDbEntity
  8
INFTOTAL
  100
AcDbLine
  10
128.223931
  20
29.223931
  30
0
  11
128.223931
  21
-24.223931
  31
0
  0
LINE
  5
1f1
  100
AcDbEntity
  8
INFTOTAL
  100
AcDbLine
  10
128.223931
  20
-24.223931
  30
0
  11
-8.702543
  21
-24.223931
  31
0
  0
LINE
  5
1f2
  100
AcDbEntity
  8
INFTOTAL
  100
AcDbLine
  10
-8.702543
  20
-24.223931
  30
0
  11
-8.702543
  21
29.223931
  31
0
  0
ENDSEC
  0
SECTION
  2
OBJECTS
  0
DICTIONARY
  5
1f3
  330
0
100
AcDbDictionary
281
    1
  3
ACAD_GROUP
  350
1f4
  0
DICTIONARY
  5
1f4
102
{ACAD_REACTORS
  330
1f3
102
}
  330
1f3
100
AcDbDictionary
281
    1
  0
ENDSEC
  0
EOF
