  0
SECTION
  2
HEADER
  9
$ACADVER
  1
AC1015
  9
$DWGCODEPAGE
  3
ANSI_932
  9
$HANDSEED
  5
106AB90
  0
ENDSEC
  0
SECTION
  2
CLASSES
  0
CLASS
  1
IMAGEDEF
  2
AcDbRasterImageDef
  3
ISM
  90
0
  91
4
  280
0
  281
0
  0
CLASS
  1
IMAGE
  2
AcDbRasterImage
  3
ISM
  90
127
  91
5
  280
0
  281
1
  0
CLASS
  1
IMAGEDEF_REACTOR
  2
AcDbRasterImageDefReactor
  3
ISM
  90
1
  91
4
  280
0
  281
0
  0
ENDSEC
  0
SECTION
  2
TABLES
  0
TABLE
  2
VPORT
  5
2
  330
0
  100
AcDbSymbolTable
  70
    0
  0
ENDTAB
  0
TABLE
  2
LTYPE
  5
3
  330
0
  100
AcDbSymbolTable
  70
    4
  0
LTYPE
  5
4
  330
3
  100
AcDbSymbolTableRecord
  100
AcDbLinetypeTableRecord
  2
ByBlock
  70
    0
  3

  72
65
  73
    0
  40
0
  0
LTYPE
  5
5
  330
3
  100
AcDbSymbolTableRecord
  100
AcDbLinetypeTableRecord
  2
ByLayer
  70
    0
  3

  72
65
  73
    0
  40
0
  0
LTYPE
  5
6
  330
3
  100
AcDbSymbolTableRecord
  100
AcDbLinetypeTableRecord
  2
CONTINUOUS
  70
    0
  3
Solid Line
  72
65
  73
    0
  40
0
  0
LTYPE
  5
7
  330
3
  100
AcDbSymbolTableRecord
  100
AcDbLinetypeTableRecord
  2
DASH
  70
    0
  3
Hidden
  72
65
  73
2
  40
2.5
  49
1.5
  74
0
  49
-1
  74
0
  0
LTYPE
  5
8
  330
3
  100
AcDbSymbolTableRecord
  100
AcDbLinetypeTableRecord
  2
LONGDASHDASH
  70
    0
  3
__ . __
  72
65
  73
    4
  40
7
  49
4
  74
    0
  49
-1
  74
    0
  49
1
  74
    0
  49
-1
  74
    0
  0
ENDTAB
  0
TABLE
  2
LAYER
  5
9
  330
0
  100
AcDbSymbolTable
  70
    40
  0
LAYER
  5
a
  330
9
  100
AcDbSymbolTableRecord
  100
AcDbLayerTableRecord
  2
0
  70
    0
  62
    0
  6
CONTINUOUS
  390
0
  0
LAYER
  5
c
  330
9
  100
AcDbSymbolTableRecord
  100
AcDbLayerTableRecord
  2
1
  70
    0
  62
    4
  6
CONTINUOUS
  370
50
  390
0
  0
LAYER
  5
d
  330
9
  100
AcDbSymbolTableRecord
  100
AcDbLayerTableRecord
  2
2
  70
    0
  62
    7
  6
CONTINUOUS
  370
25
  390
0
  0
LAYER
  5
f
  330
9
  100
AcDbSymbolTableRecord
  100
AcDbLayerTableRecord
  2
4
  70
    0
  62
    2
  6
LONGDASHDASH
  370
25
  390
0
  0
LAYER
  5
13
  330
9
  100
AcDbSymbolTableRecord
  100
AcDbLayerTableRecord
  2
SK1
  70
    0
  62
    4
  6
CONTINUOUS
  370
50
  390
0
  0
LAYER
  5
14
  330
9
  100
AcDbSymbolTableRecord
  100
AcDbLayerTableRecord
  2
SK2
  70
    0
  62
    7
  6
CONTINUOUS
  370
25
  390
0
  0
LAYER
  5
16
  330
9
  100
AcDbSymbolTableRecord
  100
AcDbLayerTableRecord
  2
SK4
  70
    0
  62
    2
  6
LONGDASHDASH
  370
25
  390
0
  0
LAYER
  5
21
  330
9
  100
AcDbSymbolTableRecord
  100
AcDbLayerTableRecord
  2
NOCUT
  70
    0
  62
    7
  6
CONTINUOUS
  370
25
  390
0
  0
LAYER
  5
22
  330
9
  100
AcDbSymbolTableRecord
  100
AcDbLayerTableRecord
  2
CUT
  70
    0
  62
    1
  6
CONTINUOUS
  370
25
  390
0
  0
LAYER
  5
26
  330
9
  100
AcDbSymbolTableRecord
  100
AcDbLayerTableRecord
  2
INFTOTAL
  70
    0
  62
    9
  6
CONTINUOUS
  370
18
  390
0
  0
ENDTAB
  0
TABLE
  2
STYLE
  5
27
  330
0
  100
AcDbSymbolTable
  70
    1
  0
STYLE
  5
28
  330
27
  100
AcDbSymbolTableRecord
  100
AcDbTextStyleTableRecord
  2
Monospac821 BT
  70
    0
  40
    3.5
  41
1
  50
0
  71
0
  42
3
  3

  4

  1001
ACAD
  1000
Monospac821 BT
  1071
256
  0
ENDTAB
  0
TABLE
  2
VIEW
  5
29
  330
0
  100
AcDbSymbolTable
  70
    0
  0
ENDTAB
  0
TABLE
  2
UCS
  5
2a
  330
0
  100
AcDbSymbolTable
  70
    0
  0
ENDTAB
  0
TABLE
  2
APPID
  5
2b
  330
0
  100
AcDbSymbolTable
  70
    1
  0
APPID
  5
2c
  330
2b
  100
AcDbSymbolTableRecord
  100
AcDbRegAppTableRecord
  2
ACAD
  70
    0
  0
ENDTAB
  0
TABLE
  2
DIMSTYLE
  5
2d
  330
0
  100
AcDbSymbolTable
  70
    1
  100
AcDbDimStyleTable
  0
DIMSTYLE
  105
2e
  330
2d
  100
AcDbSymbolTableRecord
  100
AcDbDimStyleTableRecord
  2
STANDARD
  70
    0
  41
    3
  42
0.5
  44
1
  73
0
  77
1
  78
1
  140
3.5
  141
2.5
  143
0.03937
  147
0.8
  172
1
  174
1
  178
0
  179
1
  271
2
  279
1
  284
1
  340
28
  0
ENDTAB
  0
TABLE
  2
BLOCK_RECORD
  5
2f
  330
0
  100
AcDbSymbolTable
  70
    2
  0
BLOCK_RECORD
  5
30
  330
2f
  100
AcDbSymbolTableRecord
  100
AcDbBlockTableRecord
  2
*Model_Space
  0
BLOCK_RECORD
  5
31
  330
2f
  100
AcDbSymbolTableRecord
  100
AcDbBlockTableRecord
  2
*Paper_Space
  0
BLOCK_RECORD
  5
1c3
  330
2f
  100
AcDbSymbolTableRecord
  100
AcDbBlockTableRecord
  2
*D1c2
  340
0
  0
BLOCK_RECORD
  5
1d1
  330
2f
  100
AcDbSymbolTableRecord
  100
AcDbBlockTableRecord
  2
*D1d0
  340
0
  0
BLOCK_RECORD
  5
1df
  330
2f
  100
AcDbSymbolTableRecord
  100
AcDbBlockTableRecord
  2
*D1de
  340
0
  0
BLOCK_RECORD
  5
1ed
  330
2f
  100
AcDbSymbolTableRecord
  100
AcDbBlockTableRecord
  2
*D1ec
  340
0
  0
BLOCK_RECORD
  5
1fb
  330
2f
  100
AcDbSymbolTableRecord
  100
AcDbBlockTableRecord
  2
*D1fa
  340
0
  0
BLOCK_RECORD
  5
205
  330
2f
  100
AcDbSymbolTableRecord
  100
AcDbBlockTableRecord
  2
*D204
  340
0
  0
BLOCK_RECORD
  5
213
  330
2f
  100
AcDbSymbolTableRecord
  100
AcDbBlockTableRecord
  2
*D212
  340
0
  0
BLOCK_RECORD
  5
221
  330
2f
  100
AcDbSymbolTableRecord
  100
AcDbBlockTableRecord
  2
*D220
  340
0
  0
BLOCK_RECORD
  5
22f
  330
2f
  100
AcDbSymbolTableRecord
  100
AcDbBlockTableRecord
  2
*D22e
  340
0
  0
ENDTAB
  0
ENDSEC
  0
SECTION
  2
BLOCKS
  0
BLOCK
  5
32
  330
30
  100
AcDbEntity
  8
0
  100
AcDbBlockBegin
  2
*Model_Space
  70
    0
  10
0
  20
0
  30
0
  3
*Model_Space
  1

  0
ENDBLK
  5
33
  330
30
  100
AcDbEntity
  8
0
  100
AcDbBlockEnd
  0
BLOCK
  5
34
  330
31
  100
AcDbEntity
  8
0
  100
AcDbBlockBegin
  2
*Paper_Space
  70
    0
  10
0
  20
0
  30
0
  3
*Paper_Space
  1

  0
ENDBLK
  5
35
  330
31
  100
AcDbEntity
  8
0
  100
AcDbBlockEnd
  0
BLOCK
  5
1c1
  330
1c3
  100
AcDbEntity
  8
SK2
  100
AcDbBlockBegin
  2
*D1c2
  70
1
  10
0
  20
0
  30
0
  3
*D1c2
  1

  0
LINE
  5
1c4
  330
1c3
  100
AcDbEntity
  8
SK2
  100
AcDbLine
  10
0
  20
2.3
  30
0
  11
0
  21
15
  31
0
  0
LINE
  5
1c5
  330
1c3
  100
AcDbEntity
  8
SK2
  100
AcDbLine
  10
70
  20
1
  30
0
  11
70
  21
15
  31
0
  0
LINE
  5
1c6
  330
1c3
  100
AcDbEntity
  8
SK2
  100
AcDbLine
  10
0
  20
13
  30
0
  11
70
  21
13
  31
0
  0
SOLID
  5
1c7
  330
1c3
  100
AcDbEntity
  8
SK2
  100
AcDbTrace
  10
0
  20
13
  30
0
  11
2.478612
  21
13.326315
  31
0
  12
2.478612
  22
12.673685
  32
0
  13
2.478612
  23
12.673685
  33
0
  0
SOLID
  5
1c8
  330
1c3
  100
AcDbEntity
  8
SK2
  100
AcDbTrace
  10
70
  20
13
  30
0
  11
67.521388
  21
12.673685
  31
0
  12
67.521388
  22
13.326315
  32
0
  13
67.521388
  23
13.326315
  33
0
  0
MTEXT
  5
1c9
  330
1c3
  100
AcDbEntity
  8
SK2
  100
AcDbMText
  10
35
  20
13
  30
0
  11
1
  21
0
  31
0
  40
2
  41
0
  71
8
  72
1
  1
70
  0
POINT
  5
1ca
  330
1c3
  100
AcDbEntity
  8
SK2
  62
0
  100
AcDbPoint
  10
0
  20
2.3
  30
0
  0
POINT
  5
1cb
  330
1c3
  100
AcDbEntity
  8
SK2
  62
0
  100
AcDbPoint
  10
70
  20
1
  30
0
  0
POINT
  5
1cc
  330
1c3
  100
AcDbEntity
  8
SK2
  62
0
  100
AcDbPoint
  10
70
  20
13
  30
0
  0
ENDBLK
  5
1cd
  330
1c3
  100
AcDbEntity
  8
SK2
  100
AcDbBlockEnd
  0
BLOCK
  5
1cf
  330
1d1
  100
AcDbEntity
  8
SK2
  100
AcDbBlockBegin
  2
*D1d0
  70
1
  10
0
  20
0
  30
0
  3
*D1d0
  1

  0
LINE
  5
1d2
  330
1d1
  100
AcDbEntity
  8
SK2
  100
AcDbLine
  10
0
  20
2.3
  30
0
  11
0
  21
9.094716
  31
0
  0
LINE
  5
1d3
  330
1d1
  100
AcDbEntity
  8
SK2
  100
AcDbLine
  10
48.9
  20
3
  30
0
  11
48.9
  21
9.094716
  31
0
  0
LINE
  5
1d4
  330
1d1
  100
AcDbEntity
  8
SK2
  100
AcDbLine
  10
0
  20
7.094716
  30
0
  11
48.9
  21
7.094716
  31
0
  0
SOLID
  5
1d5
  330
1d1
  100
AcDbEntity
  8
SK2
  100
AcDbTrace
  10
0
  20
7.094716
  30
0
  11
2.478612
  21
7.421031
  31
0
  12
2.478612
  22
6.7684
  32
0
  13
2.478612
  23
6.7684
  33
0
  0
SOLID
  5
1d6
  330
1d1
  100
AcDbEntity
  8
SK2
  100
AcDbTrace
  10
48.9
  20
7.094716
  30
0
  11
46.421388
  21
6.7684
  31
0
  12
46.421388
  22
7.421031
  32
0
  13
46.421388
  23
7.421031
  33
0
  0
MTEXT
  5
1d7
  330
1d1
  100
AcDbEntity
  8
SK2
  100
AcDbMText
  10
24.45
  20
7.094716
  30
0
  11
1
  21
0
  31
0
  40
2
  41
0
  71
8
  72
1
  1
48.9
  0
POINT
  5
1d8
  330
1d1
  100
AcDbEntity
  8
SK2
  62
0
  100
AcDbPoint
  10
0
  20
2.3
  30
0
  0
POINT
  5
1d9
  330
1d1
  100
AcDbEntity
  8
SK2
  62
0
  100
AcDbPoint
  10
48.9
  20
3
  30
0
  0
POINT
  5
1da
  330
1d1
  100
AcDbEntity
  8
SK2
  62
0
  100
AcDbPoint
  10
48.9
  20
7.094716
  30
0
  0
ENDBLK
  5
1db
  330
1d1
  100
AcDbEntity
  8
SK2
  100
AcDbBlockEnd
  0
BLOCK
  5
1dd
  330
1df
  100
AcDbEntity
  8
SK2
  100
AcDbBlockBegin
  2
*D1de
  70
1
  10
0
  20
0
  30
0
  3
*D1de
  1

  0
LINE
  5
1e0
  330
1df
  100
AcDbEntity
  8
SK2
  100
AcDbLine
  10
0.7
  20
-3
  30
0
  11
-12
  21
-3
  31
0
  0
LINE
  5
1e1
  330
1df
  100
AcDbEntity
  8
SK2
  100
AcDbLine
  10
0.7
  20
3
  30
0
  11
-12
  21
3
  31
0
  0
LINE
  5
1e2
  330
1df
  100
AcDbEntity
  8
SK2
  100
AcDbLine
  10
-10
  20
-3
  30
0
  11
-10
  21
3
  31
0
  0
SOLID
  5
1e3
  330
1df
  100
AcDbEntity
  8
SK2
  100
AcDbTrace
  10
-10
  20
-3
  30
0
  11
-10.326315
  21
-0.521388
  31
0
  12
-9.673685
  22
-0.521388
  32
0
  13
-9.673685
  23
-0.521388
  33
0
  0
SOLID
  5
1e4
  330
1df
  100
AcDbEntity
  8
SK2
  100
AcDbTrace
  10
-10
  20
3
  30
0
  11
-9.673685
  21
0.521388
  31
0
  12
-10.326315
  22
0.521388
  32
0
  13
-10.326315
  23
0.521388
  33
0
  0
MTEXT
  5
1e5
  330
1df
  100
AcDbEntity
  8
SK2
  100
AcDbMText
  10
-10
  20
0
  30
0
  11
0
  21
1
  31
0
  40
2
  41
0
  71
8
  72
1
  1
ﾘ6
  0
POINT
  5
1e6
  330
1df
  100
AcDbEntity
  8
SK2
  62
0
  100
AcDbPoint
  10
0.7
  20
-3
  30
0
  0
POINT
  5
1e7
  330
1df
  100
AcDbEntity
  8
SK2
  62
0
  100
AcDbPoint
  10
0.7
  20
3
  30
0
  0
POINT
  5
1e8
  330
1df
  100
AcDbEntity
  8
SK2
  62
0
  100
AcDbPoint
  10
-10
  20
3
  30
0
  0
ENDBLK
  5
1e9
  330
1df
  100
AcDbEntity
  8
SK2
  100
AcDbBlockEnd
  0
BLOCK
  5
1eb
  330
1ed
  100
AcDbEntity
  8
2
  100
AcDbBlockBegin
  2
*D1ec
  70
1
  10
0
  20
0
  30
0
  3
*D1ec
  1

  0
LINE
  5
1ee
  330
1ed
  100
AcDbEntity
  8
2
  100
AcDbLine
  10
69.5
  20
-1.5
  30
0
  11
82
  21
-1.5
  31
0
  0
LINE
  5
1ef
  330
1ed
  100
AcDbEntity
  8
2
  100
AcDbLine
  10
69.5
  20
1.5
  30
0
  11
82
  21
1.5
  31
0
  0
LINE
  5
1f0
  330
1ed
  100
AcDbEntity
  8
2
  100
AcDbLine
  10
80
  20
-4.158416
  30
0
  11
80
  21
1.5
  31
0
  0
SOLID
  5
1f1
  330
1ed
  100
AcDbEntity
  8
2
  100
AcDbTrace
  10
80
  20
-1.5
  30
0
  11
79.673685
  21
0.978612
  31
0
  12
80.326315
  22
0.978612
  32
0
  13
80.326315
  23
0.978612
  33
0
  0
SOLID
  5
1f2
  330
1ed
  100
AcDbEntity
  8
2
  100
AcDbTrace
  10
80
  20
1.5
  30
0
  11
80.326315
  21
-0.978612
  31
0
  12
79.673685
  22
-0.978612
  32
0
  13
79.673685
  23
-0.978612
  33
0
  0
MTEXT
  5
1f3
  330
1ed
  100
AcDbEntity
  8
2
  100
AcDbMText
  10
80
  20
0
  30
0
  11
0
  21
1
  31
0
  40
2
  41
0
  71
8
  72
1
  1
ﾘ3
  0
POINT
  5
1f4
  330
1ed
  100
AcDbEntity
  8
2
  62
0
  100
AcDbPoint
  10
69.5
  20
-1.5
  30
0
  0
POINT
  5
1f5
  330
1ed
  100
AcDbEntity
  8
2
  62
0
  100
AcDbPoint
  10
69.5
  20
1.5
  30
0
  0
POINT
  5
1f6
  330
1ed
  100
AcDbEntity
  8
2
  62
0
  100
AcDbPoint
  10
80
  20
1.5
  30
0
  0
ENDBLK
  5
1f7
  330
1ed
  100
AcDbEntity
  8
2
  100
AcDbBlockEnd
  0
BLOCK
  5
1f9
  330
1fb
  100
AcDbEntity
  8
2
  100
AcDbBlockBegin
  2
*D1fa
  70
1
  10
0
  20
0
  30
0
  3
*D1fa
  1

  0
LINE
  5
1fc
  330
1fb
  100
AcDbEntity
  8
2
  100
AcDbLine
  10
69.88851
  20
1.314738
  30
0
  11
77.658702
  21
7.609507
  31
0
  0
MTEXT
  5
1fd
  330
1fb
  100
AcDbEntity
  8
2
  100
AcDbMText
  10
73.773606
  20
4.462123
  30
0
  11
0.777019
  21
0.629477
  31
0
  40
2
  41
0
  71
8
  72
1
  1
R0.5
  0
SOLID
  5
1fe
  330
1fb
  100
AcDbEntity
  8
2
  100
AcDbTrace
  10
69.88851
  20
1.314738
  30
0
  11
71.609031
  21
3.128521
  31
0
  12
72.019847
  22
2.621414
  32
0
  13
72.019847
  23
2.621414
  33
0
  0
POINT
  5
1ff
  330
1fb
  100
AcDbEntity
  8
2
  62
0
  100
AcDbPoint
  10
69.88851
  20
1.314738
  30
0
  0
POINT
  5
200
  330
1fb
  100
AcDbEntity
  8
2
  62
0
  100
AcDbPoint
  10
69.5
  20
1
  30
0
  0
ENDBLK
  5
201
  330
1fb
  100
AcDbEntity
  8
2
  100
AcDbBlockEnd
  0
BLOCK
  5
203
  330
205
  100
AcDbEntity
  8
2
  100
AcDbBlockBegin
  2
*D204
  70
1
  10
0
  20
0
  30
0
  3
*D204
  1

  0
LINE
  5
206
  330
205
  100
AcDbEntity
  8
2
  100
AcDbLine
  10
65.5
  20
-1.425
  30
0
  11
63.5
  21
-1.425
  31
0
  0
LINE
  5
207
  330
205
  100
AcDbEntity
  8
2
  100
AcDbLine
  10
65.5
  20
1.425
  30
0
  11
63.5
  21
1.425
  31
0
  0
LINE
  5
208
  330
205
  100
AcDbEntity
  8
2
  100
AcDbLine
  10
65.5
  20
-1.425
  30
0
  11
65.5
  21
9.876238
  31
0
  0
SOLID
  5
209
  330
205
  100
AcDbEntity
  8
2
  100
AcDbTrace
  10
65.5
  20
-1.425
  30
0
  11
65.173685
  21
1.053612
  31
0
  12
65.826315
  22
1.053612
  32
0
  13
65.826315
  23
1.053612
  33
0
  0
SOLID
  5
20a
  330
205
  100
AcDbEntity
  8
2
  100
AcDbTrace
  10
65.5
  20
1.425
  30
0
  11
65.826315
  21
-1.053612
  31
0
  12
65.173685
  22
-1.053612
  32
0
  13
65.173685
  23
-1.053612
  33
0
  0
MTEXT
  5
20b
  330
205
  100
AcDbEntity
  8
2
  100
AcDbMText
  10
65.5
  20
1.425
  30
0
  11
0
  21
1
  31
0
  40
2
  41
0
  71
8
  72
1
  1
ﾘ2.85
  0
POINT
  5
20c
  330
205
  100
AcDbEntity
  8
2
  62
0
  100
AcDbPoint
  10
63.5
  20
-1.425
  30
0
  0
POINT
  5
20d
  330
205
  100
AcDbEntity
  8
2
  62
0
  100
AcDbPoint
  10
63.5
  20
1.425
  30
0
  0
POINT
  5
20e
  330
205
  100
AcDbEntity
  8
2
  62
0
  100
AcDbPoint
  10
65.5
  20
9.876238
  30
0
  0
ENDBLK
  5
20f
  330
205
  100
AcDbEntity
  8
2
  100
AcDbBlockEnd
  0
BLOCK
  5
211
  330
213
  100
AcDbEntity
  8
2
  100
AcDbBlockBegin
  2
*D212
  70
1
  10
0
  20
0
  30
0
  3
*D212
  1

  0
LINE
  5
214
  330
213
  100
AcDbEntity
  8
2
  100
AcDbLine
  10
65.5
  20
1.425
  30
0
  11
65.5
  21
10
  31
0
  0
LINE
  5
215
  330
213
  100
AcDbEntity
  8
2
  100
AcDbLine
  10
55.43
  20
1.425
  30
0
  11
55.43
  21
10
  31
0
  0
LINE
  5
216
  330
213
  100
AcDbEntity
  8
2
  100
AcDbLine
  10
65.5
  20
8
  30
0
  11
54.709158
  21
8
  31
0
  0
SOLID
  5
217
  330
213
  100
AcDbEntity
  8
2
  100
AcDbTrace
  10
65.5
  20
8
  30
0
  11
67.978612
  21
8.326315
  31
0
  12
67.978612
  22
7.673685
  32
0
  13
67.978612
  23
7.673685
  33
0
  0
SOLID
  5
218
  330
213
  100
AcDbEntity
  8
2
  100
AcDbTrace
  10
55.43
  20
8
  30
0
  11
52.951388
  21
7.673685
  31
0
  12
52.951388
  22
8.326315
  32
0
  13
52.951388
  23
8.326315
  33
0
  0
MTEXT
  5
219
  330
213
  100
AcDbEntity
  8
2
  100
AcDbMText
  10
58.75507
  20
8
  30
0
  11
1
  21
-0
  31
0
  40
2
  41
0
  71
8
  72
1
  1
10.07
  0
POINT
  5
21a
  330
213
  100
AcDbEntity
  8
2
  62
0
  100
AcDbPoint
  10
65.5
  20
1.425
  30
0
  0
POINT
  5
21b
  330
213
  100
AcDbEntity
  8
2
  62
0
  100
AcDbPoint
  10
55.43
  20
1.425
  30
0
  0
POINT
  5
21c
  330
213
  100
AcDbEntity
  8
2
  62
0
  100
AcDbPoint
  10
54.709158
  20
8
  30
0
  0
ENDBLK
  5
21d
  330
213
  100
AcDbEntity
  8
2
  100
AcDbBlockEnd
  0
BLOCK
  5
21f
  330
221
  100
AcDbEntity
  8
2
  100
AcDbBlockBegin
  2
*D220
  70
1
  10
0
  20
0
  30
0
  3
*D220
  1

  0
LINE
  5
222
  330
221
  100
AcDbEntity
  8
2
  100
AcDbLine
  10
70
  20
1
  30
0
  11
70
  21
15
  31
0
  0
LINE
  5
223
  330
221
  100
AcDbEntity
  8
2
  100
AcDbLine
  10
48.9
  20
3
  30
0
  11
48.9
  21
10
  31
0
  0
LINE
  5
224
  330
221
  100
AcDbEntity
  8
2
  100
AcDbLine
  10
70
  20
8
  30
0
  11
48.9
  21
8
  31
0
  0
SOLID
  5
225
  330
221
  100
AcDbEntity
  8
2
  100
AcDbTrace
  10
70
  20
8
  30
0
  11
72.478612
  21
8.326315
  31
0
  12
72.478612
  22
7.673685
  32
0
  13
72.478612
  23
7.673685
  33
0
  0
SOLID
  5
226
  330
221
  100
AcDbEntity
  8
2
  100
AcDbTrace
  10
48.9
  20
8
  30
0
  11
46.421388
  21
7.673685
  31
0
  12
46.421388
  22
8.326315
  32
0
  13
46.421388
  23
8.326315
  33
0
  0
MTEXT
  5
227
  330
221
  100
AcDbEntity
  8
2
  100
AcDbMText
  10
59.45
  20
8
  30
0
  11
1
  21
-0
  31
0
  40
2
  41
0
  71
8
  72
1
  1
21.1
  0
POINT
  5
228
  330
221
  100
AcDbEntity
  8
2
  62
0
  100
AcDbPoint
  10
70
  20
15
  30
0
  0
POINT
  5
229
  330
221
  100
AcDbEntity
  8
2
  62
0
  100
AcDbPoint
  10
48.9
  20
3
  30
0
  0
POINT
  5
22a
  330
221
  100
AcDbEntity
  8
2
  62
0
  100
AcDbPoint
  10
48.9
  20
8
  30
0
  0
ENDBLK
  5
22b
  330
221
  100
AcDbEntity
  8
2
  100
AcDbBlockEnd
  0
BLOCK
  5
22d
  330
22f
  100
AcDbEntity
  8
2
  100
AcDbBlockBegin
  2
*D22e
  70
1
  10
0
  20
0
  30
0
  3
*D22e
  1

  0
LINE
  5
230
  330
22f
  100
AcDbEntity
  8
2
  100
AcDbLine
  10
70
  20
-7.848884
  30
0
  11
70
  21
0
  31
0
  0
LINE
  5
231
  330
22f
  100
AcDbEntity
  8
2
  100
AcDbLine
  10
65.5
  20
-7.848884
  30
0
  11
65.5
  21
-1.425
  31
0
  0
LINE
  5
232
  330
22f
  100
AcDbEntity
  8
2
  100
AcDbLine
  10
70
  20
-5.848884
  30
0
  11
63.285891
  21
-5.848884
  31
0
  0
SOLID
  5
233
  330
22f
  100
AcDbEntity
  8
2
  100
AcDbTrace
  10
70
  20
-5.848884
  30
0
  11
72.478612
  21
-5.522569
  31
0
  12
72.478612
  22
-6.1752
  32
0
  13
72.478612
  23
-6.1752
  33
0
  0
SOLID
  5
234
  330
22f
  100
AcDbEntity
  8
2
  100
AcDbTrace
  10
65.5
  20
-5.848884
  30
0
  11
63.021388
  21
-6.1752
  31
0
  12
63.021388
  22
-5.522569
  32
0
  13
63.021388
  23
-5.522569
  33
0
  0
MTEXT
  5
235
  330
22f
  100
AcDbEntity
  8
2
  100
AcDbMText
  10
67.75
  20
-5.848884
  30
0
  11
1
  21
-0
  31
0
  40
2
  41
0
  71
8
  72
1
  1
4.5
  0
POINT
  5
236
  330
22f
  100
AcDbEntity
  8
2
  62
0
  100
AcDbPoint
  10
70
  20
0
  30
0
  0
POINT
  5
237
  330
22f
  100
AcDbEntity
  8
2
  62
0
  100
AcDbPoint
  10
65.5
  20
-1.425
  30
0
  0
POINT
  5
238
  330
22f
  100
AcDbEntity
  8
2
  62
0
  100
AcDbPoint
  10
63.285891
  20
-5.848884
  30
0
  0
ENDBLK
  5
239
  330
22f
  100
AcDbEntity
  8
2
  100
AcDbBlockEnd
  0
ENDSEC
  0
SECTION
  2
ENTITIES
  0
DIMENSION
  5
1ce
  100
AcDbEntity
  8
SK2
  100
AcDbDimension
  2
*D1c2
  10
70
  20
13
  30
0
  11
35
  21
13
  31
0
  70
160
  1
<>
  71
5
  3
STANDARD
  42
70
  100
AcDbAlignedDimension
  13
0
  23
2.3
  33
0
  14
70
  24
1
  34
0
  50
0
  100
AcDbRotatedDimension
  0
DIMENSION
  5
1dc
  100
AcDbEntity
  8
SK2
  100
AcDbDimension
  2
*D1d0
  10
48.9
  20
7.094716
  30
0
  11
24.45
  21
7.094716
  31
0
  70
160
  1
<>
  71
5
  3
STANDARD
  42
48.9
  100
AcDbAlignedDimension
  13
0
  23
2.3
  33
0
  14
48.9
  24
3
  34
0
  50
0
  100
AcDbRotatedDimension
  0
DIMENSION
  5
1ea
  100
AcDbEntity
  8
SK2
  100
AcDbDimension
  2
*D1de
  10
-10
  20
3
  30
0
  11
-10
  21
0
  31
0
  70
160
  1
%%c<>
  71
5
  3
STANDARD
  42
6
  100
AcDbAlignedDimension
  13
0.7
  23
-3
  33
0
  14
0.7
  24
3
  34
0
  50
-90
  100
AcDbRotatedDimension
  0
DIMENSION
  5
1f8
  100
AcDbEntity
  8
2
  100
AcDbDimension
  2
*D1ec
  10
80
  20
1.5
  30
0
  11
80
  21
0
  31
0
  70
160
  1
%%c<>
  71
5
  3
STANDARD
  42
3
  100
AcDbAlignedDimension
  13
69.5
  23
-1.5
  33
0
  14
69.5
  24
1.5
  34
0
  50
-90
  100
AcDbRotatedDimension
  0
DIMENSION
  5
202
  100
AcDbEntity
  8
2
  100
AcDbDimension
  2
*D1fa
  10
69.5
  20
1
  30
0
  11
73.773606
  21
4.462123
  31
0
  70
164
  1
R0.5
  71
5
  3
STANDARD
  100
AcDbRadialDimension
  15
69.88851
  25
1.314738
  35
0
  50
39.011537
  0
DIMENSION
  5
210
  100
AcDbEntity
  8
2
  100
AcDbDimension
  2
*D204
  10
65.5
  20
9.876238
  30
0
  11
65.5
  21
1.425
  31
0
  70
160
  1
%%c<>
  71
5
  3
STANDARD
  42
2.85
  100
AcDbAlignedDimension
  13
63.5
  23
-1.425
  33
0
  14
63.5
  24
1.425
  34
0
  50
-90
  100
AcDbRotatedDimension
  0
DIMENSION
  5
21e
  100
AcDbEntity
  8
2
  100
AcDbDimension
  2
*D212
  10
54.709158
  20
8
  30
0
  11
58.75507
  21
8
  31
0
  70
160
  1
<>
  71
5
  3
STANDARD
  42
10.07
  100
AcDbAlignedDimension
  13
65.5
  23
1.425
  33
0
  14
55.43
  24
1.425
  34
0
  50
0
  100
AcDbRotatedDimension
  0
DIMENSION
  5
22c
  100
AcDbEntity
  8
2
  100
AcDbDimension
  2
*D220
  10
48.9
  20
8
  30
0
  11
59.45
  21
8
  31
0
  70
160
  1
<>
  71
5
  3
STANDARD
  42
21.1
  100
AcDbAlignedDimension
  13
70
  23
15
  33
0
  14
48.9
  24
3
  34
0
  50
0
  100
AcDbRotatedDimension
  0
DIMENSION
  5
23a
  100
AcDbEntity
  8
2
  100
AcDbDimension
  2
*D22e
  10
63.285891
  20
-5.848884
  30
0
  11
67.75
  21
-5.848884
  31
0
  70
160
  1
<>
  71
5
  3
STANDARD
  42
4.5
  100
AcDbAlignedDimension
  13
70
  23
0
  33
0
  14
65.5
  24
-1.425
  34
0
  50
0
  100
AcDbRotatedDimension
  0
ARC
  5
36
  100
AcDbEntity
  8
1
  100
AcDbCircle
  10
56.301557
  20
-11.386947
  30
0
  40
10
  100
AcDbArc
  50
95
  51
105
  0
LINE
  5
37
  100
AcDbEntity
  8
1
  100
AcDbLine
  10
55.43
  20
-1.425
  30
0
  11
65.5
  21
-1.425
  31
0
  0
LINE
  5
38
  100
AcDbEntity
  8
1
  100
AcDbLine
  10
65.5
  20
-1.425
  30
0
  11
65.5
  21
-1.5
  31
0
  0
LINE
  5
39
  100
AcDbEntity
  8
1
  100
AcDbLine
  10
65.5
  20
-1.5
  30
0
  11
69.5
  21
-1.5
  31
0
  0
ARC
  5
3a
  100
AcDbEntity
  8
1
  100
AcDbCircle
  10
69.5
  20
-1
  30
0
  40
0.5
  100
AcDbArc
  50
270
  51
0
  0
LINE
  5
3b
  100
AcDbEntity
  8
1
  100
AcDbLine
  10
70
  20
-1
  30
0
  11
70
  21
0
  31
0
  0
LINE
  5
3c
  100
AcDbEntity
  8
1
  100
AcDbLine
  10
70
  20
0
  30
0
  11
70
  21
1
  31
0
  0
ARC
  5
3d
  100
AcDbEntity
  8
1
  100
AcDbCircle
  10
69.5
  20
1
  30
0
  40
0.5
  100
AcDbArc
  50
0
  51
90
  0
LINE
  5
3e
  100
AcDbEntity
  8
1
  100
AcDbLine
  10
69.5
  20
1.5
  30
0
  11
65.5
  21
1.5
  31
0
  0
LINE
  5
3f
  100
AcDbEntity
  8
1
  100
AcDbLine
  10
65.5
  20
1.5
  30
0
  11
65.5
  21
1.425
  31
0
  0
LINE
  5
40
  100
AcDbEntity
  8
1
  100
AcDbLine
  10
65.5
  20
1.425
  30
0
  11
55.43
  21
1.425
  31
0
  0
ARC
  5
41
  100
AcDbEntity
  8
1
  100
AcDbCircle
  10
56.301557
  20
11.386947
  30
0
  40
10
  100
AcDbArc
  50
255
  51
265
  0
LINE
  5
42
  100
AcDbEntity
  8
1
  100
AcDbLine
  10
53.713367
  20
1.727689
  30
0
  11
48.965037
  21
3
  31
0
  0
LINE
  5
43
  100
AcDbEntity
  8
1
  100
AcDbLine
  10
48.965037
  20
3
  30
0
  11
48.9
  21
3
  31
0
  0
LINE
  5
44
  100
AcDbEntity
  8
1
  100
AcDbLine
  10
48.9
  20
3
  30
0
  11
48.9
  21
-3
  31
0
  0
LINE
  5
45
  100
AcDbEntity
  8
1
  100
AcDbLine
  10
48.9
  20
-3
  30
0
  11
48.965037
  21
-3
  31
0
  0
LINE
  5
46
  100
AcDbEntity
  8
1
  100
AcDbLine
  10
48.965037
  20
-3
  30
0
  11
53.713367
  21
-1.727689
  31
0
  0
LINE
  5
47
  100
AcDbEntity
  8
1
  100
AcDbLine
  10
70
  20
0.330592
  30
0
  11
69.9
  21
0.491634
  31
0
  0
LINE
  5
48
  100
AcDbEntity
  8
1
  100
AcDbLine
  10
69.9
  20
0.491634
  30
0
  11
69.8
  21
0.609889
  31
0
  0
LINE
  5
49
  100
AcDbEntity
  8
1
  100
AcDbLine
  10
69.8
  20
0.609889
  30
0
  11
69.7
  21
0.718829
  31
0
  0
LINE
  5
4a
  100
AcDbEntity
  8
1
  100
AcDbLine
  10
69.7
  20
0.718829
  30
0
  11
69.6
  21
0.817913
  31
0
  0
LINE
  5
4b
  100
AcDbEntity
  8
1
  100
AcDbLine
  10
69.6
  20
0.817913
  30
0
  11
69.5
  21
0.904783
  31
0
  0
LINE
  5
4c
  100
AcDbEntity
  8
1
  100
AcDbLine
  10
69.5
  20
0.904783
  30
0
  11
69.4
  21
0.982474
  31
0
  0
LINE
  5
4d
  100
AcDbEntity
  8
1
  100
AcDbLine
  10
69.4
  20
0.982474
  30
0
  11
69.3
  21
1.0558
  31
0
  0
LINE
  5
4e
  100
AcDbEntity
  8
1
  100
AcDbLine
  10
69.3
  20
1.0558
  30
0
  11
69.2
  21
1.124435
  31
0
  0
LINE
  5
4f
  100
AcDbEntity
  8
1
  100
AcDbLine
  10
69.2
  20
1.124435
  30
0
  11
69.1
  21
1.188074
  31
0
  0
LINE
  5
50
  100
AcDbEntity
  8
1
  100
AcDbLine
  10
69.1
  20
1.188074
  30
0
  11
69
  21
1.246436
  31
0
  0
LINE
  5
51
  100
AcDbEntity
  8
1
  100
AcDbLine
  10
69
  20
1.246436
  30
0
  11
68.9
  21
1.299259
  31
0
  0
LINE
  5
52
  100
AcDbEntity
  8
1
  100
AcDbLine
  10
68.9
  20
1.299259
  30
0
  11
68.8
  21
1.346311
  31
0
  0
LINE
  5
53
  100
AcDbEntity
  8
1
  100
AcDbLine
  10
68.8
  20
1.346311
  30
0
  11
68.7
  21
1.38738
  31
0
  0
LINE
  5
54
  100
AcDbEntity
  8
1
  100
AcDbLine
  10
68.7
  20
1.38738
  30
0
  11
68.6
  21
1.422286
  31
0
  0
LINE
  5
55
  100
AcDbEntity
  8
1
  100
AcDbLine
  10
68.6
  20
1.422286
  30
0
  11
68.5
  21
1.450874
  31
0
  0
LINE
  5
56
  100
AcDbEntity
  8
1
  100
AcDbLine
  10
68.5
  20
1.450874
  30
0
  11
68.4
  21
1.473015
  31
0
  0
LINE
  5
57
  100
AcDbEntity
  8
1
  100
AcDbLine
  10
68.4
  20
1.473015
  30
0
  11
68.3
  21
1.488612
  31
0
  0
LINE
  5
58
  100
AcDbEntity
  8
1
  100
AcDbLine
  10
68.3
  20
1.488612
  30
0
  11
68.2
  21
1.497595
  31
0
  0
LINE
  5
59
  100
AcDbEntity
  8
1
  100
AcDbLine
  10
68.2
  20
1.497595
  30
0
  11
68.115051
  21
1.5
  31
0
  0
LINE
  5
5a
  100
AcDbEntity
  8
1
  100
AcDbLine
  10
70
  20
0.216134
  30
0
  11
69.9
  21
0.259518
  31
0
  0
LINE
  5
5b
  100
AcDbEntity
  8
1
  100
AcDbLine
  10
69.9
  20
0.259518
  30
0
  11
69.8
  21
0.342527
  31
0
  0
LINE
  5
5c
  100
AcDbEntity
  8
1
  100
AcDbLine
  10
69.8
  20
0.342527
  30
0
  11
69.7
  21
0.43484
  31
0
  0
LINE
  5
5d
  100
AcDbEntity
  8
1
  100
AcDbLine
  10
69.7
  20
0.43484
  30
0
  11
69.6
  21
0.529558
  31
0
  0
LINE
  5
5e
  100
AcDbEntity
  8
1
  100
AcDbLine
  10
69.6
  20
0.529558
  30
0
  11
69.5
  21
0.62186
  31
0
  0
LINE
  5
5f
  100
AcDbEntity
  8
1
  100
AcDbLine
  10
69.5
  20
0.62186
  30
0
  11
69.4
  21
0.710044
  31
0
  0
LINE
  5
60
  100
AcDbEntity
  8
1
  100
AcDbLine
  10
69.4
  20
0.710044
  30
0
  11
69.3
  21
0.795075
  31
0
  0
LINE
  5
61
  100
AcDbEntity
  8
1
  100
AcDbLine
  10
69.3
  20
0.795075
  30
0
  11
69.2
  21
0.876572
  31
0
  0
LINE
  5
62
  100
AcDbEntity
  8
1
  100
AcDbLine
  10
69.2
  20
0.876572
  30
0
  11
69.1
  21
0.954176
  31
0
  0
LINE
  5
63
  100
AcDbEntity
  8
1
  100
AcDbLine
  10
69.1
  20
0.954176
  30
0
  11
69
  21
1.02754
  31
0
  0
LINE
  5
64
  100
AcDbEntity
  8
1
  100
AcDbLine
  10
69
  20
1.02754
  30
0
  11
68.9
  21
1.096339
  31
0
  0
LINE
  5
65
  100
AcDbEntity
  8
1
  100
AcDbLine
  10
68.9
  20
1.096339
  30
0
  11
68.8
  21
1.160267
  31
0
  0
LINE
  5
66
  100
AcDbEntity
  8
1
  100
AcDbLine
  10
68.8
  20
1.160267
  30
0
  11
68.7
  21
1.219041
  31
0
  0
LINE
  5
67
  100
AcDbEntity
  8
1
  100
AcDbLine
  10
68.7
  20
1.219041
  30
0
  11
68.6
  21
1.272398
  31
0
  0
LINE
  5
68
  100
AcDbEntity
  8
1
  100
AcDbLine
  10
68.6
  20
1.272398
  30
0
  11
68.5
  21
1.320103
  31
0
  0
LINE
  5
69
  100
AcDbEntity
  8
1
  100
AcDbLine
  10
68.5
  20
1.320103
  30
0
  11
68.4
  21
1.361942
  31
0
  0
LINE
  5
6a
  100
AcDbEntity
  8
1
  100
AcDbLine
  10
68.4
  20
1.361942
  30
0
  11
68.3
  21
1.397731
  31
0
  0
LINE
  5
6b
  100
AcDbEntity
  8
1
  100
AcDbLine
  10
68.3
  20
1.397731
  30
0
  11
68.2
  21
1.42731
  31
0
  0
LINE
  5
6c
  100
AcDbEntity
  8
1
  100
AcDbLine
  10
68.2
  20
1.42731
  30
0
  11
68.1
  21
1.450547
  31
0
  0
LINE
  5
6d
  100
AcDbEntity
  8
1
  100
AcDbLine
  10
68.1
  20
1.450547
  30
0
  11
68
  21
1.46734
  31
0
  0
LINE
  5
6e
  100
AcDbEntity
  8
1
  100
AcDbLine
  10
68
  20
1.46734
  30
0
  11
67.9
  21
1.477614
  31
0
  0
LINE
  5
6f
  100
AcDbEntity
  8
1
  100
AcDbLine
  10
67.9
  20
1.477614
  30
0
  11
67.8
  21
1.481323
  31
0
  0
LINE
  5
70
  100
AcDbEntity
  8
1
  100
AcDbLine
  10
67.8
  20
1.481323
  30
0
  11
67.793633
  21
1.5
  31
0
  0
LINE
  5
71
  100
AcDbEntity
  8
1
  100
AcDbLine
  10
67.643808
  20
1.5
  30
0
  11
67.7
  21
1.498948
  31
0
  0
LINE
  5
72
  100
AcDbEntity
  8
1
  100
AcDbLine
  10
67.7
  20
1.498948
  30
0
  11
67.8
  21
1.491875
  31
0
  0
LINE
  5
73
  100
AcDbEntity
  8
1
  100
AcDbLine
  10
67.8
  20
1.491875
  30
0
  11
67.9
  21
1.478175
  31
0
  0
LINE
  5
74
  100
AcDbEntity
  8
1
  100
AcDbLine
  10
67.9
  20
1.478175
  30
0
  11
68
  21
1.457907
  31
0
  0
LINE
  5
75
  100
AcDbEntity
  8
1
  100
AcDbLine
  10
68
  20
1.457907
  30
0
  11
68.1
  21
1.431162
  31
0
  0
LINE
  5
76
  100
AcDbEntity
  8
1
  100
AcDbLine
  10
68.1
  20
1.431162
  30
0
  11
68.2
  21
1.398059
  31
0
  0
LINE
  5
77
  100
AcDbEntity
  8
1
  100
AcDbLine
  10
68.2
  20
1.398059
  30
0
  11
68.3
  21
1.358744
  31
0
  0
LINE
  5
78
  100
AcDbEntity
  8
1
  100
AcDbLine
  10
68.3
  20
1.358744
  30
0
  11
68.4
  21
1.313393
  31
0
  0
LINE
  5
79
  100
AcDbEntity
  8
1
  100
AcDbLine
  10
68.4
  20
1.313393
  30
0
  11
68.5
  21
1.262206
  31
0
  0
LINE
  5
7a
  100
AcDbEntity
  8
1
  100
AcDbLine
  10
68.5
  20
1.262206
  30
0
  11
68.6
  21
1.205412
  31
0
  0
LINE
  5
7b
  100
AcDbEntity
  8
1
  100
AcDbLine
  10
68.6
  20
1.205412
  30
0
  11
68.7
  21
1.143263
  31
0
  0
LINE
  5
7c
  100
AcDbEntity
  8
1
  100
AcDbLine
  10
68.7
  20
1.143263
  30
0
  11
68.8
  21
1.076034
  31
0
  0
LINE
  5
7d
  100
AcDbEntity
  8
1
  100
AcDbLine
  10
68.8
  20
1.076034
  30
0
  11
68.9
  21
1.004025
  31
0
  0
LINE
  5
7e
  100
AcDbEntity
  8
1
  100
AcDbLine
  10
68.9
  20
1.004025
  30
0
  11
69
  21
0.927555
  31
0
  0
LINE
  5
7f
  100
AcDbEntity
  8
1
  100
AcDbLine
  10
69
  20
0.927555
  30
0
  11
69.1
  21
0.846964
  31
0
  0
LINE
  5
80
  100
AcDbEntity
  8
1
  100
AcDbLine
  10
69.1
  20
0.846964
  30
0
  11
69.2
  21
0.76261
  31
0
  0
LINE
  5
81
  100
AcDbEntity
  8
1
  100
AcDbLine
  10
69.2
  20
0.76261
  30
0
  11
69.3
  21
0.674868
  31
0
  0
LINE
  5
82
  100
AcDbEntity
  8
1
  100
AcDbLine
  10
69.3
  20
0.674868
  30
0
  11
69.4
  21
0.584128
  31
0
  0
LINE
  5
83
  100
AcDbEntity
  8
1
  100
AcDbLine
  10
69.4
  20
0.584128
  30
0
  11
69.5
  21
0.490792
  31
0
  0
LINE
  5
84
  100
AcDbEntity
  8
1
  100
AcDbLine
  10
69.5
  20
0.490792
  30
0
  11
69.6
  21
0.393984
  31
0
  0
LINE
  5
85
  100
AcDbEntity
  8
1
  100
AcDbLine
  10
69.6
  20
0.393984
  30
0
  11
69.7
  21
0.29546
  31
0
  0
LINE
  5
86
  100
AcDbEntity
  8
1
  100
AcDbLine
  10
69.7
  20
0.29546
  30
0
  11
69.8
  21
0.200044
  31
0
  0
LINE
  5
87
  100
AcDbEntity
  8
1
  100
AcDbLine
  10
69.8
  20
0.200044
  30
0
  11
69.9
  21
0.114671
  31
0
  0
LINE
  5
88
  100
AcDbEntity
  8
1
  100
AcDbLine
  10
69.9
  20
0.114671
  30
0
  11
70
  21
0.070621
  31
0
  0
LINE
  5
89
  100
AcDbEntity
  8
1
  100
AcDbLine
  10
69.5
  20
-1.5
  30
0
  11
69.5
  21
1.5
  31
0
  0
LINE
  5
8a
  100
AcDbEntity
  8
1
  100
AcDbLine
  10
69.5
  20
1.5
  30
0
  11
69.5
  21
-1.5
  31
0
  0
LINE
  5
8b
  100
AcDbEntity
  8
1
  100
AcDbLine
  10
70
  20
-0.943774
  30
0
  11
69.997516
  21
-0.950224
  31
0
  0
LINE
  5
8c
  100
AcDbEntity
  8
1
  100
AcDbLine
  10
69.997516
  20
-0.950224
  30
0
  11
69.9
  21
-1.203452
  31
0
  0
LINE
  5
8d
  100
AcDbEntity
  8
1
  100
AcDbLine
  10
69.9
  20
-1.203452
  30
0
  11
69.8
  21
-1.260173
  31
0
  0
LINE
  5
8e
  100
AcDbEntity
  8
1
  100
AcDbLine
  10
69.8
  20
-1.260173
  30
0
  11
69.7
  21
-1.268779
  31
0
  0
LINE
  5
8f
  100
AcDbEntity
  8
1
  100
AcDbLine
  10
69.7
  20
-1.268779
  30
0
  11
69.6
  21
-1.245317
  31
0
  0
LINE
  5
90
  100
AcDbEntity
  8
1
  100
AcDbLine
  10
69.6
  20
-1.245317
  30
0
  11
69.5
  21
-1.196398
  31
0
  0
LINE
  5
91
  100
AcDbEntity
  8
1
  100
AcDbLine
  10
69.5
  20
-1.196398
  30
0
  11
69.4
  21
-1.133466
  31
0
  0
LINE
  5
92
  100
AcDbEntity
  8
1
  100
AcDbLine
  10
69.4
  20
-1.133466
  30
0
  11
69.3
  21
-1.065499
  31
0
  0
LINE
  5
93
  100
AcDbEntity
  8
1
  100
AcDbLine
  10
69.3
  20
-1.065499
  30
0
  11
69.2
  21
-0.992797
  31
0
  0
LINE
  5
94
  100
AcDbEntity
  8
1
  100
AcDbLine
  10
69.2
  20
-0.992797
  30
0
  11
69.1
  21
-0.915685
  31
0
  0
LINE
  5
95
  100
AcDbEntity
  8
1
  100
AcDbLine
  10
69.1
  20
-0.915685
  30
0
  11
69
  21
-0.834505
  31
0
  0
LINE
  5
96
  100
AcDbEntity
  8
1
  100
AcDbLine
  10
69
  20
-0.834505
  30
0
  11
68.9
  21
-0.749617
  31
0
  0
LINE
  5
97
  100
AcDbEntity
  8
1
  100
AcDbLine
  10
68.9
  20
-0.749617
  30
0
  11
68.8
  21
-0.661398
  31
0
  0
LINE
  5
98
  100
AcDbEntity
  8
1
  100
AcDbLine
  10
68.8
  20
-0.661398
  30
0
  11
68.7
  21
-0.570242
  31
0
  0
LINE
  5
99
  100
AcDbEntity
  8
1
  100
AcDbLine
  10
68.7
  20
-0.570242
  30
0
  11
68.6
  21
-0.476551
  31
0
  0
LINE
  5
9a
  100
AcDbEntity
  8
1
  100
AcDbLine
  10
68.6
  20
-0.476551
  30
0
  11
68.5
  21
-0.380744
  31
0
  0
LINE
  5
9b
  100
AcDbEntity
  8
1
  100
AcDbLine
  10
68.5
  20
-0.380744
  30
0
  11
68.4
  21
-0.283245
  31
0
  0
LINE
  5
9c
  100
AcDbEntity
  8
1
  100
AcDbLine
  10
68.4
  20
-0.283245
  30
0
  11
68.3
  21
-0.184487
  31
0
  0
LINE
  5
9d
  100
AcDbEntity
  8
1
  100
AcDbLine
  10
68.3
  20
-0.184487
  30
0
  11
68.2
  21
-0.08491
  31
0
  0
LINE
  5
9e
  100
AcDbEntity
  8
1
  100
AcDbLine
  10
68.2
  20
-0.08491
  30
0
  11
68.1
  21
0.015044
  31
0
  0
LINE
  5
9f
  100
AcDbEntity
  8
1
  100
AcDbLine
  10
68.1
  20
0.015044
  30
0
  11
68
  21
0.114932
  31
0
  0
LINE
  5
a0
  100
AcDbEntity
  8
1
  100
AcDbLine
  10
68
  20
0.114932
  30
0
  11
67.9
  21
0.214309
  31
0
  0
LINE
  5
a1
  100
AcDbEntity
  8
1
  100
AcDbLine
  10
67.9
  20
0.214309
  30
0
  11
67.8
  21
0.312733
  31
0
  0
LINE
  5
a2
  100
AcDbEntity
  8
1
  100
AcDbLine
  10
67.8
  20
0.312733
  30
0
  11
67.7
  21
0.409769
  31
0
  0
LINE
  5
a3
  100
AcDbEntity
  8
1
  100
AcDbLine
  10
67.7
  20
0.409769
  30
0
  11
67.6
  21
0.504983
  31
0
  0
LINE
  5
a4
  100
AcDbEntity
  8
1
  100
AcDbLine
  10
67.6
  20
0.504983
  30
0
  11
67.5
  21
0.597955
  31
0
  0
LINE
  5
a5
  100
AcDbEntity
  8
1
  100
AcDbLine
  10
67.5
  20
0.597955
  30
0
  11
67.4
  21
0.688269
  31
0
  0
LINE
  5
a6
  100
AcDbEntity
  8
1
  100
AcDbLine
  10
67.4
  20
0.688269
  30
0
  11
67.3
  21
0.775526
  31
0
  0
LINE
  5
a7
  100
AcDbEntity
  8
1
  100
AcDbLine
  10
67.3
  20
0.775526
  30
0
  11
67.2
  21
0.859338
  31
0
  0
LINE
  5
a8
  100
AcDbEntity
  8
1
  100
AcDbLine
  10
67.2
  20
0.859338
  30
0
  11
67.1
  21
0.939331
  31
0
  0
LINE
  5
a9
  100
AcDbEntity
  8
1
  100
AcDbLine
  10
67.1
  20
0.939331
  30
0
  11
67
  21
1.015151
  31
0
  0
LINE
  5
aa
  100
AcDbEntity
  8
1
  100
AcDbLine
  10
67
  20
1.015151
  30
0
  11
66.9
  21
1.086461
  31
0
  0
LINE
  5
ab
  100
AcDbEntity
  8
1
  100
AcDbLine
  10
66.9
  20
1.086461
  30
0
  11
66.8
  21
1.152945
  31
0
  0
LINE
  5
ac
  100
AcDbEntity
  8
1
  100
AcDbLine
  10
66.8
  20
1.152945
  30
0
  11
66.7
  21
1.214305
  31
0
  0
LINE
  5
ad
  100
AcDbEntity
  8
1
  100
AcDbLine
  10
66.7
  20
1.214305
  30
0
  11
66.6
  21
1.270271
  31
0
  0
LINE
  5
ae
  100
AcDbEntity
  8
1
  100
AcDbLine
  10
66.6
  20
1.270271
  30
0
  11
66.5
  21
1.320594
  31
0
  0
LINE
  5
af
  100
AcDbEntity
  8
1
  100
AcDbLine
  10
66.5
  20
1.320594
  30
0
  11
66.4
  21
1.365049
  31
0
  0
LINE
  5
b0
  100
AcDbEntity
  8
1
  100
AcDbLine
  10
66.4
  20
1.365049
  30
0
  11
66.3
  21
1.40344
  31
0
  0
LINE
  5
b1
  100
AcDbEntity
  8
1
  100
AcDbLine
  10
66.3
  20
1.40344
  30
0
  11
66.2
  21
1.435595
  31
0
  0
LINE
  5
b2
  100
AcDbEntity
  8
1
  100
AcDbLine
  10
66.2
  20
1.435595
  30
0
  11
66.1
  21
1.461372
  31
0
  0
LINE
  5
b3
  100
AcDbEntity
  8
1
  100
AcDbLine
  10
66.1
  20
1.461372
  30
0
  11
66
  21
1.480657
  31
0
  0
LINE
  5
b4
  100
AcDbEntity
  8
1
  100
AcDbLine
  10
66
  20
1.480657
  30
0
  11
65.9
  21
1.493364
  31
0
  0
LINE
  5
b5
  100
AcDbEntity
  8
1
  100
AcDbLine
  10
65.9
  20
1.493364
  30
0
  11
65.8
  21
1.499436
  31
0
  0
LINE
  5
b6
  100
AcDbEntity
  8
1
  100
AcDbLine
  10
65.8
  20
1.499436
  30
0
  11
65.758847
  21
1.5
  31
0
  0
LINE
  5
b7
  100
AcDbEntity
  8
1
  100
AcDbLine
  10
65.5
  20
1.5
  30
0
  11
65.5
  21
-1.5
  31
0
  0
LINE
  5
b8
  100
AcDbEntity
  8
1
  100
AcDbLine
  10
65.5
  20
-1.425
  30
0
  11
65.5
  21
1.425
  31
0
  0
LINE
  5
b9
  100
AcDbEntity
  8
1
  100
AcDbLine
  10
65.5
  20
1.406139
  30
0
  11
65.5
  21
1.480049
  31
0
  0
LINE
  5
ba
  100
AcDbEntity
  8
1
  100
AcDbLine
  10
65.5
  20
1.480049
  30
0
  11
65.6
  21
1.472646
  31
0
  0
LINE
  5
bb
  100
AcDbEntity
  8
1
  100
AcDbLine
  10
65.6
  20
1.472646
  30
0
  11
65.7
  21
1.458702
  31
0
  0
LINE
  5
bc
  100
AcDbEntity
  8
1
  100
AcDbLine
  10
65.7
  20
1.458702
  30
0
  11
65.8
  21
1.438276
  31
0
  0
LINE
  5
bd
  100
AcDbEntity
  8
1
  100
AcDbLine
  10
65.8
  20
1.438276
  30
0
  11
65.9
  21
1.411461
  31
0
  0
LINE
  5
be
  100
AcDbEntity
  8
1
  100
AcDbLine
  10
65.9
  20
1.411461
  30
0
  11
66
  21
1.378374
  31
0
  0
LINE
  5
bf
  100
AcDbEntity
  8
1
  100
AcDbLine
  10
66
  20
1.378374
  30
0
  11
66.1
  21
1.339164
  31
0
  0
LINE
  5
c0
  100
AcDbEntity
  8
1
  100
AcDbLine
  10
66.1
  20
1.339164
  30
0
  11
66.2
  21
1.294004
  31
0
  0
LINE
  5
c1
  100
AcDbEntity
  8
1
  100
AcDbLine
  10
66.2
  20
1.294004
  30
0
  11
66.3
  21
1.243095
  31
0
  0
LINE
  5
c2
  100
AcDbEntity
  8
1
  100
AcDbLine
  10
66.3
  20
1.243095
  30
0
  11
66.4
  21
1.186664
  31
0
  0
LINE
  5
c3
  100
AcDbEntity
  8
1
  100
AcDbLine
  10
66.4
  20
1.186664
  30
0
  11
66.5
  21
1.12496
  31
0
  0
LINE
  5
c4
  100
AcDbEntity
  8
1
  100
AcDbLine
  10
66.5
  20
1.12496
  30
0
  11
66.6
  21
1.058258
  31
0
  0
LINE
  5
c5
  100
AcDbEntity
  8
1
  100
AcDbLine
  10
66.6
  20
1.058258
  30
0
  11
66.7
  21
0.986855
  31
0
  0
LINE
  5
c6
  100
AcDbEntity
  8
1
  100
AcDbLine
  10
66.7
  20
0.986855
  30
0
  11
66.8
  21
0.911067
  31
0
  0
LINE
  5
c7
  100
AcDbEntity
  8
1
  100
AcDbLine
  10
66.8
  20
0.911067
  30
0
  11
66.9
  21
0.831232
  31
0
  0
LINE
  5
c8
  100
AcDbEntity
  8
1
  100
AcDbLine
  10
66.9
  20
0.831232
  30
0
  11
67
  21
0.747703
  31
0
  0
LINE
  5
c9
  100
AcDbEntity
  8
1
  100
AcDbLine
  10
67
  20
0.747703
  30
0
  11
67.1
  21
0.660853
  31
0
  0
LINE
  5
ca
  100
AcDbEntity
  8
1
  100
AcDbLine
  10
67.1
  20
0.660853
  30
0
  11
67.2
  21
0.571067
  31
0
  0
LINE
  5
cb
  100
AcDbEntity
  8
1
  100
AcDbLine
  10
67.2
  20
0.571067
  30
0
  11
67.3
  21
0.478743
  31
0
  0
LINE
  5
cc
  100
AcDbEntity
  8
1
  100
AcDbLine
  10
67.3
  20
0.478743
  30
0
  11
67.4
  21
0.384293
  31
0
  0
LINE
  5
cd
  100
AcDbEntity
  8
1
  100
AcDbLine
  10
67.4
  20
0.384293
  30
0
  11
67.5
  21
0.288135
  31
0
  0
LINE
  5
ce
  100
AcDbEntity
  8
1
  100
AcDbLine
  10
67.5
  20
0.288135
  30
0
  11
67.6
  21
0.190697
  31
0
  0
LINE
  5
cf
  100
AcDbEntity
  8
1
  100
AcDbLine
  10
67.6
  20
0.190697
  30
0
  11
67.7
  21
0.092412
  31
0
  0
LINE
  5
d0
  100
AcDbEntity
  8
1
  100
AcDbLine
  10
67.7
  20
0.092412
  30
0
  11
67.8
  21
-0.006284
  31
0
  0
LINE
  5
d1
  100
AcDbEntity
  8
1
  100
AcDbLine
  10
67.8
  20
-0.006284
  30
0
  11
67.9
  21
-0.104952
  31
0
  0
LINE
  5
d2
  100
AcDbEntity
  8
1
  100
AcDbLine
  10
67.9
  20
-0.104952
  30
0
  11
68
  21
-0.203153
  31
0
  0
LINE
  5
d3
  100
AcDbEntity
  8
1
  100
AcDbLine
  10
68
  20
-0.203153
  30
0
  11
68.1
  21
-0.300452
  31
0
  0
LINE
  5
d4
  100
AcDbEntity
  8
1
  100
AcDbLine
  10
68.1
  20
-0.300452
  30
0
  11
68.2
  21
-0.396416
  31
0
  0
LINE
  5
d5
  100
AcDbEntity
  8
1
  100
AcDbLine
  10
68.2
  20
-0.396416
  30
0
  11
68.3
  21
-0.490619
  31
0
  0
LINE
  5
d6
  100
AcDbEntity
  8
1
  100
AcDbLine
  10
68.3
  20
-0.490619
  30
0
  11
68.4
  21
-0.582642
  31
0
  0
LINE
  5
d7
  100
AcDbEntity
  8
1
  100
AcDbLine
  10
68.4
  20
-0.582642
  30
0
  11
68.5
  21
-0.672077
  31
0
  0
LINE
  5
d8
  100
AcDbEntity
  8
1
  100
AcDbLine
  10
68.5
  20
-0.672077
  30
0
  11
68.6
  21
-0.758526
  31
0
  0
LINE
  5
d9
  100
AcDbEntity
  8
1
  100
AcDbLine
  10
68.6
  20
-0.758526
  30
0
  11
68.7
  21
-0.841604
  31
0
  0
LINE
  5
da
  100
AcDbEntity
  8
1
  100
AcDbLine
  10
68.7
  20
-0.841604
  30
0
  11
68.8
  21
-0.920944
  31
0
  0
LINE
  5
db
  100
AcDbEntity
  8
1
  100
AcDbLine
  10
68.8
  20
-0.920944
  30
0
  11
68.9
  21
-0.996192
  31
0
  0
LINE
  5
dc
  100
AcDbEntity
  8
1
  100
AcDbLine
  10
68.9
  20
-0.996192
  30
0
  11
69
  21
-1.067014
  31
0
  0
LINE
  5
dd
  100
AcDbEntity
  8
1
  100
AcDbLine
  10
69
  20
-1.067014
  30
0
  11
69.1
  21
-1.133096
  31
0
  0
LINE
  5
de
  100
AcDbEntity
  8
1
  100
AcDbLine
  10
69.1
  20
-1.133096
  30
0
  11
69.2
  21
-1.194144
  31
0
  0
LINE
  5
df
  100
AcDbEntity
  8
1
  100
AcDbLine
  10
69.2
  20
-1.194144
  30
0
  11
69.3
  21
-1.249886
  31
0
  0
LINE
  5
e0
  100
AcDbEntity
  8
1
  100
AcDbLine
  10
69.3
  20
-1.249886
  30
0
  11
69.4
  21
-1.300075
  31
0
  0
LINE
  5
e1
  100
AcDbEntity
  8
1
  100
AcDbLine
  10
69.4
  20
-1.300075
  30
0
  11
69.5
  21
-1.344488
  31
0
  0
LINE
  5
e2
  100
AcDbEntity
  8
1
  100
AcDbLine
  10
69.5
  20
-1.344488
  30
0
  11
69.6
  21
-1.372679
  31
0
  0
LINE
  5
e3
  100
AcDbEntity
  8
1
  100
AcDbLine
  10
69.6
  20
-1.372679
  30
0
  11
69.7
  21
-1.372575
  31
0
  0
LINE
  5
e4
  100
AcDbEntity
  8
1
  100
AcDbLine
  10
69.7
  20
-1.372575
  30
0
  11
69.8
  21
-1.338747
  31
0
  0
LINE
  5
e5
  100
AcDbEntity
  8
1
  100
AcDbLine
  10
69.8
  20
-1.338747
  30
0
  11
69.9
  21
-1.255957
  31
0
  0
LINE
  5
e6
  100
AcDbEntity
  8
1
  100
AcDbLine
  10
69.9
  20
-1.255957
  30
0
  11
69.998756
  21
-0.964756
  31
0
  0
LINE
  5
e7
  100
AcDbEntity
  8
1
  100
AcDbLine
  10
69.998756
  20
-0.964756
  30
0
  11
70
  21
-0.961089
  31
0
  0
LINE
  5
e8
  100
AcDbEntity
  8
1
  100
AcDbLine
  10
70
  20
-0.997503
  30
0
  11
69.999994
  21
-0.997521
  31
0
  0
LINE
  5
e9
  100
AcDbEntity
  8
1
  100
AcDbLine
  10
69.999994
  20
-0.997521
  30
0
  11
69.9
  21
-1.294933
  31
0
  0
LINE
  5
ea
  100
AcDbEntity
  8
1
  100
AcDbLine
  10
69.9
  20
-1.294933
  30
0
  11
69.8
  21
-1.385634
  31
0
  0
LINE
  5
eb
  100
AcDbEntity
  8
1
  100
AcDbLine
  10
69.8
  20
-1.385634
  30
0
  11
69.7
  21
-1.428012
  31
0
  0
LINE
  5
ec
  100
AcDbEntity
  8
1
  100
AcDbLine
  10
69.7
  20
-1.428012
  30
0
  11
69.6
  21
-1.436862
  31
0
  0
LINE
  5
ed
  100
AcDbEntity
  8
1
  100
AcDbLine
  10
69.6
  20
-1.436862
  30
0
  11
69.5
  21
-1.417435
  31
0
  0
LINE
  5
ee
  100
AcDbEntity
  8
1
  100
AcDbLine
  10
69.5
  20
-1.417435
  30
0
  11
69.4
  21
-1.381591
  31
0
  0
LINE
  5
ef
  100
AcDbEntity
  8
1
  100
AcDbLine
  10
69.4
  20
-1.381591
  30
0
  11
69.3
  21
-1.339609
  31
0
  0
LINE
  5
f0
  100
AcDbEntity
  8
1
  100
AcDbLine
  10
69.3
  20
-1.339609
  30
0
  11
69.2
  21
-1.291676
  31
0
  0
LINE
  5
f1
  100
AcDbEntity
  8
1
  100
AcDbLine
  10
69.2
  20
-1.291676
  30
0
  11
69.1
  21
-1.238003
  31
0
  0
LINE
  5
f2
  100
AcDbEntity
  8
1
  100
AcDbLine
  10
69.1
  20
-1.238003
  30
0
  11
69
  21
-1.178831
  31
0
  0
LINE
  5
f3
  100
AcDbEntity
  8
1
  100
AcDbLine
  10
69
  20
-1.178831
  30
0
  11
68.9
  21
-1.114421
  31
0
  0
LINE
  5
f4
  100
AcDbEntity
  8
1
  100
AcDbLine
  10
68.9
  20
-1.114421
  30
0
  11
68.8
  21
-1.04506
  31
0
  0
LINE
  5
f5
  100
AcDbEntity
  8
1
  100
AcDbLine
  10
68.8
  20
-1.04506
  30
0
  11
68.7
  21
-0.971056
  31
0
  0
LINE
  5
f6
  100
AcDbEntity
  8
1
  100
AcDbLine
  10
68.7
  20
-0.971056
  30
0
  11
68.6
  21
-0.892738
  31
0
  0
LINE
  5
f7
  100
AcDbEntity
  8
1
  100
AcDbLine
  10
68.6
  20
-0.892738
  30
0
  11
68.5
  21
-0.810453
  31
0
  0
LINE
  5
f8
  100
AcDbEntity
  8
1
  100
AcDbLine
  10
68.5
  20
-0.810453
  30
0
  11
68.4
  21
-0.724568
  31
0
  0
LINE
  5
f9
  100
AcDbEntity
  8
1
  100
AcDbLine
  10
68.4
  20
-0.724568
  30
0
  11
68.3
  21
-0.635464
  31
0
  0
LINE
  5
fa
  100
AcDbEntity
  8
1
  100
AcDbLine
  10
68.3
  20
-0.635464
  30
0
  11
68.2
  21
-0.543537
  31
0
  0
LINE
  5
fb
  100
AcDbEntity
  8
1
  100
AcDbLine
  10
68.2
  20
-0.543537
  30
0
  11
68.1
  21
-0.449194
  31
0
  0
LINE
  5
fc
  100
AcDbEntity
  8
1
  100
AcDbLine
  10
68.1
  20
-0.449194
  30
0
  11
68
  21
-0.352856
  31
0
  0
LINE
  5
fd
  100
AcDbEntity
  8
1
  100
AcDbLine
  10
68
  20
-0.352856
  30
0
  11
67.9
  21
-0.254951
  31
0
  0
LINE
  5
fe
  100
AcDbEntity
  8
1
  100
AcDbLine
  10
67.9
  20
-0.254951
  30
0
  11
67.8
  21
-0.155912
  31
0
  0
LINE
  5
ff
  100
AcDbEntity
  8
1
  100
AcDbLine
  10
67.8
  20
-0.155912
  30
0
  11
67.7
  21
-0.056181
  31
0
  0
LINE
  5
100
  100
AcDbEntity
  8
1
  100
AcDbLine
  10
67.7
  20
-0.056181
  30
0
  11
67.6
  21
0.043799
  31
0
  0
LINE
  5
101
  100
AcDbEntity
  8
1
  100
AcDbLine
  10
67.6
  20
0.043799
  30
0
  11
67.5
  21
0.143585
  31
0
  0
LINE
  5
102
  100
AcDbEntity
  8
1
  100
AcDbLine
  10
67.5
  20
0.143585
  30
0
  11
67.4
  21
0.242733
  31
0
  0
LINE
  5
103
  100
AcDbEntity
  8
1
  100
AcDbLine
  10
67.4
  20
0.242733
  30
0
  11
67.3
  21
0.340803
  31
0
  0
LINE
  5
104
  100
AcDbEntity
  8
1
  100
AcDbLine
  10
67.3
  20
0.340803
  30
0
  11
67.2
  21
0.437359
  31
0
  0
LINE
  5
105
  100
AcDbEntity
  8
1
  100
AcDbLine
  10
67.2
  20
0.437359
  30
0
  11
67.1
  21
0.531971
  31
0
  0
LINE
  5
106
  100
AcDbEntity
  8
1
  100
AcDbLine
  10
67.1
  20
0.531971
  30
0
  11
67
  21
0.62422
  31
0
  0
LINE
  5
107
  100
AcDbEntity
  8
1
  100
AcDbLine
  10
67
  20
0.62422
  30
0
  11
66.9
  21
0.713696
  31
0
  0
LINE
  5
108
  100
AcDbEntity
  8
1
  100
AcDbLine
  10
66.9
  20
0.713696
  30
0
  11
66.8
  21
0.800001
  31
0
  0
LINE
  5
109
  100
AcDbEntity
  8
1
  100
AcDbLine
  10
66.8
  20
0.800001
  30
0
  11
66.7
  21
0.882752
  31
0
  0
LINE
  5
10a
  100
AcDbEntity
  8
1
  100
AcDbLine
  10
66.7
  20
0.882752
  30
0
  11
66.6
  21
0.96158
  31
0
  0
LINE
  5
10b
  100
AcDbEntity
  8
1
  100
AcDbLine
  10
66.6
  20
0.96158
  30
0
  11
66.5
  21
1.036137
  31
0
  0
LINE
  5
10c
  100
AcDbEntity
  8
1
  100
AcDbLine
  10
66.5
  20
1.036137
  30
0
  11
66.4
  21
1.106091
  31
0
  0
LINE
  5
10d
  100
AcDbEntity
  8
1
  100
AcDbLine
  10
66.4
  20
1.106091
  30
0
  11
66.3
  21
1.17113
  31
0
  0
LINE
  5
10e
  100
AcDbEntity
  8
1
  100
AcDbLine
  10
66.3
  20
1.17113
  30
0
  11
66.2
  21
1.230966
  31
0
  0
LINE
  5
10f
  100
AcDbEntity
  8
1
  100
AcDbLine
  10
66.2
  20
1.230966
  30
0
  11
66.1
  21
1.285333
  31
0
  0
LINE
  5
110
  100
AcDbEntity
  8
1
  100
AcDbLine
  10
66.1
  20
1.285333
  30
0
  11
66
  21
1.33399
  31
0
  0
LINE
  5
111
  100
AcDbEntity
  8
1
  100
AcDbLine
  10
66
  20
1.33399
  30
0
  11
65.9
  21
1.37672
  31
0
  0
LINE
  5
112
  100
AcDbEntity
  8
1
  100
AcDbLine
  10
65.9
  20
1.37672
  30
0
  11
65.8
  21
1.413334
  31
0
  0
LINE
  5
113
  100
AcDbEntity
  8
1
  100
AcDbLine
  10
65.8
  20
1.413334
  30
0
  11
65.7
  21
1.443668
  31
0
  0
LINE
  5
114
  100
AcDbEntity
  8
1
  100
AcDbLine
  10
65.7
  20
1.443668
  30
0
  11
65.6
  21
1.467588
  31
0
  0
LINE
  5
115
  100
AcDbEntity
  8
1
  100
AcDbLine
  10
65.6
  20
1.467588
  30
0
  11
65.5
  21
1.484989
  31
0
  0
LINE
  5
116
  100
AcDbEntity
  8
1
  100
AcDbLine
  10
65.5
  20
1.484989
  30
0
  11
65.5
  21
1.412189
  31
0
  0
LINE
  5
117
  100
AcDbEntity
  8
1
  100
AcDbLine
  10
65.5
  20
1.412189
  30
0
  11
65.4
  21
1.421752
  31
0
  0
LINE
  5
118
  100
AcDbEntity
  8
1
  100
AcDbLine
  10
65.4
  20
1.421752
  30
0
  11
65.3
  21
1.424999
  31
0
  0
LINE
  5
119
  100
AcDbEntity
  8
1
  100
AcDbLine
  10
65.3
  20
1.424999
  30
0
  11
65.298703
  21
1.425
  31
0
  0
LINE
  5
11a
  100
AcDbEntity
  8
1
  100
AcDbLine
  10
65
  20
1.425
  30
0
  11
65
  21
1.092848
  31
0
  0
LINE
  5
11b
  100
AcDbEntity
  8
1
  100
AcDbLine
  10
65
  20
1.092848
  30
0
  11
65.1
  21
0.729586
  31
0
  0
LINE
  5
11c
  100
AcDbEntity
  8
1
  100
AcDbLine
  10
65.1
  20
0.729586
  30
0
  11
65.2
  21
0.544437
  31
0
  0
LINE
  5
11d
  100
AcDbEntity
  8
1
  100
AcDbLine
  10
65.2
  20
0.544437
  30
0
  11
65.3
  21
0.434428
  31
0
  0
LINE
  5
11e
  100
AcDbEntity
  8
1
  100
AcDbLine
  10
65.3
  20
0.434428
  30
0
  11
65.4
  21
0.341013
  31
0
  0
LINE
  5
11f
  100
AcDbEntity
  8
1
  100
AcDbLine
  10
65.4
  20
0.341013
  30
0
  11
65.5
  21
0.248051
  31
0
  0
LINE
  5
120
  100
AcDbEntity
  8
1
  100
AcDbLine
  10
65.5
  20
0.248051
  30
0
  11
65.5
  21
0.257567
  31
0
  0
LINE
  5
121
  100
AcDbEntity
  8
1
  100
AcDbLine
  10
65.5
  20
0.257567
  30
0
  11
65.6
  21
0.158553
  31
0
  0
LINE
  5
122
  100
AcDbEntity
  8
1
  100
AcDbLine
  10
65.6
  20
0.158553
  30
0
  11
65.7
  21
0.058835
  31
0
  0
LINE
  5
123
  100
AcDbEntity
  8
1
  100
AcDbLine
  10
65.7
  20
0.058835
  30
0
  11
65.8
  21
-0.041145
  31
0
  0
LINE
  5
124
  100
AcDbEntity
  8
1
  100
AcDbLine
  10
65.8
  20
-0.041145
  30
0
  11
65.9
  21
-0.140942
  31
0
  0
LINE
  5
125
  100
AcDbEntity
  8
1
  100
AcDbLine
  10
65.9
  20
-0.140942
  30
0
  11
66
  21
-0.240113
  31
0
  0
LINE
  5
126
  100
AcDbEntity
  8
1
  100
AcDbLine
  10
66
  20
-0.240113
  30
0
  11
66.1
  21
-0.338217
  31
0
  0
LINE
  5
127
  100
AcDbEntity
  8
1
  100
AcDbLine
  10
66.1
  20
-0.338217
  30
0
  11
66.2
  21
-0.434818
  31
0
  0
LINE
  5
128
  100
AcDbEntity
  8
1
  100
AcDbLine
  10
66.2
  20
-0.434818
  30
0
  11
66.3
  21
-0.529488
  31
0
  0
LINE
  5
129
  100
AcDbEntity
  8
1
  100
AcDbLine
  10
66.3
  20
-0.529488
  30
0
  11
66.4
  21
-0.621805
  31
0
  0
LINE
  5
12a
  100
AcDbEntity
  8
1
  100
AcDbLine
  10
66.4
  20
-0.621805
  30
0
  11
66.5
  21
-0.711359
  31
0
  0
LINE
  5
12b
  100
AcDbEntity
  8
1
  100
AcDbLine
  10
66.5
  20
-0.711359
  30
0
  11
66.6
  21
-0.797753
  31
0
  0
LINE
  5
12c
  100
AcDbEntity
  8
1
  100
AcDbLine
  10
66.6
  20
-0.797753
  30
0
  11
66.7
  21
-0.880603
  31
0
  0
LINE
  5
12d
  100
AcDbEntity
  8
1
  100
AcDbLine
  10
66.7
  20
-0.880603
  30
0
  11
66.8
  21
-0.959541
  31
0
  0
LINE
  5
12e
  100
AcDbEntity
  8
1
  100
AcDbLine
  10
66.8
  20
-0.959541
  30
0
  11
66.9
  21
-1.034215
  31
0
  0
LINE
  5
12f
  100
AcDbEntity
  8
1
  100
AcDbLine
  10
66.9
  20
-1.034215
  30
0
  11
67
  21
-1.104295
  31
0
  0
LINE
  5
130
  100
AcDbEntity
  8
1
  100
AcDbLine
  10
67
  20
-1.104295
  30
0
  11
67.1
  21
-1.169469
  31
0
  0
LINE
  5
131
  100
AcDbEntity
  8
1
  100
AcDbLine
  10
67.1
  20
-1.169469
  30
0
  11
67.2
  21
-1.229447
  31
0
  0
LINE
  5
132
  100
AcDbEntity
  8
1
  100
AcDbLine
  10
67.2
  20
-1.229447
  30
0
  11
67.3
  21
-1.283962
  31
0
  0
LINE
  5
133
  100
AcDbEntity
  8
1
  100
AcDbLine
  10
67.3
  20
-1.283962
  30
0
  11
67.4
  21
-1.332774
  31
0
  0
LINE
  5
134
  100
AcDbEntity
  8
1
  100
AcDbLine
  10
67.4
  20
-1.332774
  30
0
  11
67.5
  21
-1.375664
  31
0
  0
LINE
  5
135
  100
AcDbEntity
  8
1
  100
AcDbLine
  10
67.5
  20
-1.375664
  30
0
  11
67.6
  21
-1.412442
  31
0
  0
LINE
  5
136
  100
AcDbEntity
  8
1
  100
AcDbLine
  10
67.6
  20
-1.412442
  30
0
  11
67.7
  21
-1.442945
  31
0
  0
LINE
  5
137
  100
AcDbEntity
  8
1
  100
AcDbLine
  10
67.7
  20
-1.442945
  30
0
  11
67.8
  21
-1.467037
  31
0
  0
LINE
  5
138
  100
AcDbEntity
  8
1
  100
AcDbLine
  10
67.8
  20
-1.467037
  30
0
  11
67.9
  21
-1.484612
  31
0
  0
LINE
  5
139
  100
AcDbEntity
  8
1
  100
AcDbLine
  10
67.9
  20
-1.484612
  30
0
  11
68
  21
-1.49559
  31
0
  0
LINE
  5
13a
  100
AcDbEntity
  8
1
  100
AcDbLine
  10
68
  20
-1.49559
  30
0
  11
68.1
  21
-1.499925
  31
0
  0
LINE
  5
13b
  100
AcDbEntity
  8
1
  100
AcDbLine
  10
68.1
  20
-1.499925
  30
0
  11
68.115051
  21
-1.5
  31
0
  0
LINE
  5
13c
  100
AcDbEntity
  8
1
  100
AcDbLine
  10
67.793633
  20
-1.5
  30
0
  11
67.7
  21
-1.478451
  31
0
  0
LINE
  5
13d
  100
AcDbEntity
  8
1
  100
AcDbLine
  10
67.7
  20
-1.478451
  30
0
  11
67.6
  21
-1.469011
  31
0
  0
LINE
  5
13e
  100
AcDbEntity
  8
1
  100
AcDbLine
  10
67.6
  20
-1.469011
  30
0
  11
67.5
  21
-1.453044
  31
0
  0
LINE
  5
13f
  100
AcDbEntity
  8
1
  100
AcDbLine
  10
67.5
  20
-1.453044
  30
0
  11
67.4
  21
-1.430621
  31
0
  0
LINE
  5
140
  100
AcDbEntity
  8
1
  100
AcDbLine
  10
67.4
  20
-1.430621
  30
0
  11
67.3
  21
-1.401843
  31
0
  0
LINE
  5
141
  100
AcDbEntity
  8
1
  100
AcDbLine
  10
67.3
  20
-1.401843
  30
0
  11
67.2
  21
-1.366836
  31
0
  0
LINE
  5
142
  100
AcDbEntity
  8
1
  100
AcDbLine
  10
67.2
  20
-1.366836
  30
0
  11
67.1
  21
-1.325757
  31
0
  0
LINE
  5
143
  100
AcDbEntity
  8
1
  100
AcDbLine
  10
67.1
  20
-1.325757
  30
0
  11
67
  21
-1.278788
  31
0
  0
LINE
  5
144
  100
AcDbEntity
  8
1
  100
AcDbLine
  10
67
  20
-1.278788
  30
0
  11
66.9
  21
-1.226137
  31
0
  0
LINE
  5
145
  100
AcDbEntity
  8
1
  100
AcDbLine
  10
66.9
  20
-1.226137
  30
0
  11
66.8
  21
-1.168039
  31
0
  0
LINE
  5
146
  100
AcDbEntity
  8
1
  100
AcDbLine
  10
66.8
  20
-1.168039
  30
0
  11
66.7
  21
-1.104751
  31
0
  0
LINE
  5
147
  100
AcDbEntity
  8
1
  100
AcDbLine
  10
66.7
  20
-1.104751
  30
0
  11
66.6
  21
-1.036556
  31
0
  0
LINE
  5
148
  100
AcDbEntity
  8
1
  100
AcDbLine
  10
66.6
  20
-1.036556
  30
0
  11
66.5
  21
-0.963755
  31
0
  0
LINE
  5
149
  100
AcDbEntity
  8
1
  100
AcDbLine
  10
66.5
  20
-0.963755
  30
0
  11
66.4
  21
-0.886672
  31
0
  0
LINE
  5
14a
  100
AcDbEntity
  8
1
  100
AcDbLine
  10
66.4
  20
-0.886672
  30
0
  11
66.3
  21
-0.80565
  31
0
  0
LINE
  5
14b
  100
AcDbEntity
  8
1
  100
AcDbLine
  10
66.3
  20
-0.80565
  30
0
  11
66.2
  21
-0.721049
  31
0
  0
LINE
  5
14c
  100
AcDbEntity
  8
1
  100
AcDbLine
  10
66.2
  20
-0.721049
  30
0
  11
66.1
  21
-0.633244
  31
0
  0
LINE
  5
14d
  100
AcDbEntity
  8
1
  100
AcDbLine
  10
66.1
  20
-0.633244
  30
0
  11
66
  21
-0.542626
  31
0
  0
LINE
  5
14e
  100
AcDbEntity
  8
1
  100
AcDbLine
  10
66
  20
-0.542626
  30
0
  11
65.9
  21
-0.449597
  31
0
  0
LINE
  5
14f
  100
AcDbEntity
  8
1
  100
AcDbLine
  10
65.9
  20
-0.449597
  30
0
  11
65.8
  21
-0.354571
  31
0
  0
LINE
  5
150
  100
AcDbEntity
  8
1
  100
AcDbLine
  10
65.8
  20
-0.354571
  30
0
  11
65.7
  21
-0.257969
  31
0
  0
LINE
  5
151
  100
AcDbEntity
  8
1
  100
AcDbLine
  10
65.7
  20
-0.257969
  30
0
  11
65.6
  21
-0.160221
  31
0
  0
LINE
  5
152
  100
AcDbEntity
  8
1
  100
AcDbLine
  10
65.6
  20
-0.160221
  30
0
  11
65.5
  21
-0.061761
  31
0
  0
LINE
  5
153
  100
AcDbEntity
  8
1
  100
AcDbLine
  10
65.5
  20
-0.061761
  30
0
  11
65.5
  21
-0.040772
  31
0
  0
LINE
  5
154
  100
AcDbEntity
  8
1
  100
AcDbLine
  10
65.298703
  20
-1.425
  30
0
  11
65.2
  21
-1.42194
  31
0
  0
LINE
  5
155
  100
AcDbEntity
  8
1
  100
AcDbLine
  10
65.2
  20
-1.42194
  30
0
  11
65.1
  21
-1.414009
  31
0
  0
LINE
  5
156
  100
AcDbEntity
  8
1
  100
AcDbLine
  10
65.1
  20
-1.414009
  30
0
  11
65
  21
-1.420454
  31
0
  0
LINE
  5
157
  100
AcDbEntity
  8
1
  100
AcDbLine
  10
65
  20
-1.420454
  30
0
  11
65
  21
-1.425
  31
0
  0
LINE
  5
158
  100
AcDbEntity
  8
1
  100
AcDbLine
  10
65.758847
  20
-1.5
  30
0
  11
65.7
  21
-1.498846
  31
0
  0
LINE
  5
159
  100
AcDbEntity
  8
1
  100
AcDbLine
  10
65.7
  20
-1.498846
  30
0
  11
65.6
  21
-1.491597
  31
0
  0
LINE
  5
15a
  100
AcDbEntity
  8
1
  100
AcDbLine
  10
65.6
  20
-1.491597
  30
0
  11
65.5
  21
-1.477721
  31
0
  0
LINE
  5
15b
  100
AcDbEntity
  8
1
  100
AcDbLine
  10
65.5
  20
-1.477721
  30
0
  11
65.5
  21
-1.403245
  31
0
  0
LINE
  5
15c
  100
AcDbEntity
  8
1
  100
AcDbLine
  10
65.5
  20
-1.403245
  30
0
  11
65.4
  21
-1.383595
  31
0
  0
LINE
  5
15d
  100
AcDbEntity
  8
1
  100
AcDbLine
  10
65.4
  20
-1.383595
  30
0
  11
65.3
  21
-1.357165
  31
0
  0
LINE
  5
15e
  100
AcDbEntity
  8
1
  100
AcDbLine
  10
65.3
  20
-1.357165
  30
0
  11
65.2
  21
-1.316895
  31
0
  0
LINE
  5
15f
  100
AcDbEntity
  8
1
  100
AcDbLine
  10
65.2
  20
-1.316895
  30
0
  11
65.1
  21
-1.224063
  31
0
  0
LINE
  5
160
  100
AcDbEntity
  8
1
  100
AcDbLine
  10
65.1
  20
-1.224063
  30
0
  11
65
  21
-0.914499
  31
0
  0
LINE
  5
161
  100
AcDbEntity
  8
1
  100
AcDbLine
  10
65
  20
-0.914499
  30
0
  11
65
  21
0.11373
  31
0
  0
LINE
  5
162
  100
AcDbEntity
  8
1
  100
AcDbLine
  10
65
  20
0.11373
  30
0
  11
65.1
  21
0.176644
  31
0
  0
LINE
  5
163
  100
AcDbEntity
  8
1
  100
AcDbLine
  10
65.1
  20
0.176644
  30
0
  11
65.2
  21
0.09334
  31
0
  0
LINE
  5
164
  100
AcDbEntity
  8
1
  100
AcDbLine
  10
65.2
  20
0.09334
  30
0
  11
65.3
  21
-0.001226
  31
0
  0
LINE
  5
165
  100
AcDbEntity
  8
1
  100
AcDbLine
  10
65.3
  20
-0.001226
  30
0
  11
65.4
  21
-0.09615
  31
0
  0
LINE
  5
166
  100
AcDbEntity
  8
1
  100
AcDbLine
  10
65.4
  20
-0.09615
  30
0
  11
65.5
  21
-0.19065
  31
0
  0
LINE
  5
167
  100
AcDbEntity
  8
1
  100
AcDbLine
  10
65.5
  20
-0.19065
  30
0
  11
65.5
  21
-0.21168
  31
0
  0
LINE
  5
168
  100
AcDbEntity
  8
1
  100
AcDbLine
  10
65.5
  20
-0.21168
  30
0
  11
65.6
  21
-0.310136
  31
0
  0
LINE
  5
169
  100
AcDbEntity
  8
1
  100
AcDbLine
  10
65.6
  20
-0.310136
  30
0
  11
65.7
  21
-0.407214
  31
0
  0
LINE
  5
16a
  100
AcDbEntity
  8
1
  100
AcDbLine
  10
65.7
  20
-0.407214
  30
0
  11
65.8
  21
-0.502482
  31
0
  0
LINE
  5
16b
  100
AcDbEntity
  8
1
  100
AcDbLine
  10
65.8
  20
-0.502482
  30
0
  11
65.9
  21
-0.595518
  31
0
  0
LINE
  5
16c
  100
AcDbEntity
  8
1
  100
AcDbLine
  10
65.9
  20
-0.595518
  30
0
  11
66
  21
-0.685909
  31
0
  0
LINE
  5
16d
  100
AcDbEntity
  8
1
  100
AcDbLine
  10
66
  20
-0.685909
  30
0
  11
66.1
  21
-0.773252
  31
0
  0
LINE
  5
16e
  100
AcDbEntity
  8
1
  100
AcDbLine
  10
66.1
  20
-0.773252
  30
0
  11
66.2
  21
-0.85716
  31
0
  0
LINE
  5
16f
  100
AcDbEntity
  8
1
  100
AcDbLine
  10
66.2
  20
-0.85716
  30
0
  11
66.3
  21
-0.937259
  31
0
  0
LINE
  5
170
  100
AcDbEntity
  8
1
  100
AcDbLine
  10
66.3
  20
-0.937259
  30
0
  11
66.4
  21
-1.013195
  31
0
  0
LINE
  5
171
  100
AcDbEntity
  8
1
  100
AcDbLine
  10
66.4
  20
-1.013195
  30
0
  11
66.5
  21
-1.084629
  31
0
  0
LINE
  5
172
  100
AcDbEntity
  8
1
  100
AcDbLine
  10
66.5
  20
-1.084629
  30
0
  11
66.6
  21
-1.151244
  31
0
  0
LINE
  5
173
  100
AcDbEntity
  8
1
  100
AcDbLine
  10
66.6
  20
-1.151244
  30
0
  11
66.7
  21
-1.212745
  31
0
  0
LINE
  5
174
  100
AcDbEntity
  8
1
  100
AcDbLine
  10
66.7
  20
-1.212745
  30
0
  11
66.8
  21
-1.268857
  31
0
  0
LINE
  5
175
  100
AcDbEntity
  8
1
  100
AcDbLine
  10
66.8
  20
-1.268857
  30
0
  11
66.9
  21
-1.319332
  31
0
  0
LINE
  5
176
  100
AcDbEntity
  8
1
  100
AcDbLine
  10
66.9
  20
-1.319332
  30
0
  11
67
  21
-1.363946
  31
0
  0
LINE
  5
177
  100
AcDbEntity
  8
1
  100
AcDbLine
  10
67
  20
-1.363946
  30
0
  11
67.1
  21
-1.4025
  31
0
  0
LINE
  5
178
  100
AcDbEntity
  8
1
  100
AcDbLine
  10
67.1
  20
-1.4025
  30
0
  11
67.2
  21
-1.434823
  31
0
  0
LINE
  5
179
  100
AcDbEntity
  8
1
  100
AcDbLine
  10
67.2
  20
-1.434823
  30
0
  11
67.3
  21
-1.460771
  31
0
  0
LINE
  5
17a
  100
AcDbEntity
  8
1
  100
AcDbLine
  10
67.3
  20
-1.460771
  30
0
  11
67.4
  21
-1.48023
  31
0
  0
LINE
  5
17b
  100
AcDbEntity
  8
1
  100
AcDbLine
  10
67.4
  20
-1.48023
  30
0
  11
67.5
  21
-1.493112
  31
0
  0
LINE
  5
17c
  100
AcDbEntity
  8
1
  100
AcDbLine
  10
67.5
  20
-1.493112
  30
0
  11
67.6
  21
-1.49936
  31
0
  0
LINE
  5
17d
  100
AcDbEntity
  8
1
  100
AcDbLine
  10
67.6
  20
-1.49936
  30
0
  11
67.643808
  21
-1.5
  31
0
  0
LINE
  5
17e
  100
AcDbEntity
  8
1
  100
AcDbLine
  10
55.43
  20
-1.425
  30
0
  11
55.43
  21
1.425
  31
0
  0
LINE
  5
17f
  100
AcDbEntity
  8
1
  100
AcDbLine
  10
53.713367
  20
1.727689
  30
0
  11
53.713367
  21
-1.727689
  31
0
  0
LINE
  5
180
  100
AcDbEntity
  8
1
  100
AcDbLine
  10
48.965037
  20
3
  30
0
  11
48.965037
  21
-3
  31
0
  0
LINE
  5
181
  100
AcDbEntity
  8
1
  100
AcDbLine
  10
48.9
  20
3
  30
0
  11
48.9
  21
-3
  31
0
  0
LINE
  5
182
  100
AcDbEntity
  8
1
  100
AcDbLine
  10
48.9
  20
-3
  30
0
  11
48.9
  21
3
  31
0
  0
LINE
  5
183
  100
AcDbEntity
  8
SK1
  100
AcDbLine
  10
48.9
  20
3
  30
0
  11
0.7
  21
3
  31
0
  0
LINE
  5
184
  100
AcDbEntity
  8
SK1
  100
AcDbLine
  10
0.7
  20
3
  30
0
  11
0
  21
2.3
  31
0
  0
LINE
  5
185
  100
AcDbEntity
  8
SK1
  100
AcDbLine
  10
48.9
  20
-3
  30
0
  11
0.7
  21
-3
  31
0
  0
LINE
  5
186
  100
AcDbEntity
  8
SK1
  100
AcDbLine
  10
0.7
  20
-3
  30
0
  11
0
  21
-2.3
  31
0
  0
LINE
  5
187
  100
AcDbEntity
  8
SK1
  100
AcDbLine
  10
0.7
  20
3
  30
0
  11
0.7
  21
-3
  31
0
  0
LINE
  5
188
  100
AcDbEntity
  8
SK1
  100
AcDbLine
  10
0
  20
2.3
  30
0
  11
0
  21
-2.3
  31
0
  0
LINE
  5
189
  100
AcDbEntity
  8
SK1
  100
AcDbLine
  10
49.9401
  20
1.40688
  30
0
  11
50.3069
  21
1.0401
  31
0
  0
LINE
  5
18a
  100
AcDbEntity
  8
SK1
  100
AcDbLine
  10
49.4328
  20
1.66666
  30
0
  11
50.5667
  21
0.532833
  31
0
  0
LINE
  5
18b
  100
AcDbEntity
  8
SK1
  100
AcDbLine
  10
49.1154
  20
1.73657
  30
0
  11
50.6366
  21
0.215434
  31
0
  0
LINE
  5
18c
  100
AcDbEntity
  8
SK1
  100
AcDbLine
  10
48.9
  20
1.70452
  30
0
  11
50.6045
  21
0
  31
0
  0
LINE
  5
18d
  100
AcDbEntity
  8
SK1
  100
AcDbLine
  10
48.9
  20
1.45703
  30
0
  11
50.357
  21
0
  31
0
  0
LINE
  5
18e
  100
AcDbEntity
  8
SK1
  100
AcDbLine
  10
48.9
  20
1.20954
  30
0
  11
50.1095
  21
0
  31
0
  0
LINE
  5
18f
  100
AcDbEntity
  8
SK1
  100
AcDbLine
  10
48.9
  20
0.962054
  30
0
  11
49.8621
  21
0
  31
0
  0
LINE
  5
190
  100
AcDbEntity
  8
SK1
  100
AcDbLine
  10
48.9
  20
0.714566
  30
0
  11
49.6146
  21
0
  31
0
  0
LINE
  5
191
  100
AcDbEntity
  8
SK1
  100
AcDbLine
  10
48.9
  20
0.467079
  30
0
  11
49.3671
  21
0
  31
0
  0
LINE
  5
192
  100
AcDbEntity
  8
SK1
  100
AcDbLine
  10
48.9
  20
0.219592
  30
0
  11
49.1196
  21
0
  31
0
  0
LINE
  5
193
  100
AcDbEntity
  8
SK1
  100
AcDbLine
  10
48.9
  20
1.70452
  30
0
  11
48.9441
  21
1.74861
  31
0
  0
LINE
  5
194
  100
AcDbEntity
  8
SK1
  100
AcDbLine
  10
48.9
  20
1.45703
  30
0
  11
49.171
  21
1.72802
  31
0
  0
LINE
  5
195
  100
AcDbEntity
  8
SK1
  100
AcDbLine
  10
48.9
  20
1.20954
  30
0
  11
49.3742
  21
1.6837
  31
0
  0
LINE
  5
196
  100
AcDbEntity
  8
SK1
  100
AcDbLine
  10
48.9
  20
0.962054
  30
0
  11
49.5588
  21
1.62082
  31
0
  0
LINE
  5
197
  100
AcDbEntity
  8
SK1
  100
AcDbLine
  10
48.9
  20
0.714566
  30
0
  11
49.7271
  21
1.54167
  31
0
  0
LINE
  5
198
  100
AcDbEntity
  8
SK1
  100
AcDbLine
  10
48.9
  20
0.467079
  30
0
  11
49.881
  21
1.44812
  31
0
  0
LINE
  5
199
  100
AcDbEntity
  8
SK1
  100
AcDbLine
  10
48.9
  20
0.219592
  30
0
  11
50.0226
  21
1.34216
  31
0
  0
LINE
  5
19a
  100
AcDbEntity
  8
SK1
  100
AcDbLine
  10
48.9279
  20
0
  30
0
  11
50.1508
  21
1.22288
  31
0
  0
LINE
  5
19b
  100
AcDbEntity
  8
SK1
  100
AcDbLine
  10
49.1754
  20
0
  30
0
  11
50.267
  21
1.09157
  31
0
  0
LINE
  5
19c
  100
AcDbEntity
  8
SK1
  100
AcDbLine
  10
49.4229
  20
0
  30
0
  11
50.3707
  21
0.947822
  31
0
  0
LINE
  5
19d
  100
AcDbEntity
  8
SK1
  100
AcDbLine
  10
49.6704
  20
0
  30
0
  11
50.4605
  21
0.790145
  31
0
  0
LINE
  5
19e
  100
AcDbEntity
  8
SK1
  100
AcDbLine
  10
49.9178
  20
0
  30
0
  11
50.5364
  21
0.618517
  31
0
  0
LINE
  5
19f
  100
AcDbEntity
  8
SK1
  100
AcDbLine
  10
50.1653
  20
0
  30
0
  11
50.596
  21
0.430696
  31
0
  0
LINE
  5
1a0
  100
AcDbEntity
  8
SK1
  100
AcDbLine
  10
50.4128
  20
0
  30
0
  11
50.6356
  21
0.222827
  31
0
  0
LINE
  5
1a1
  100
AcDbEntity
  8
SK1
  100
AcDbLine
  10
48.9
  20
0
  30
0
  11
48.9
  21
1.75
  31
0
  0
LINE
  5
1a2
  100
AcDbEntity
  8
SK1
  100
AcDbLine
  10
48.9
  20
0
  30
0
  11
50.65
  21
0
  31
0
  0
ARC
  5
1a3
  100
AcDbEntity
  8
SK1
  100
AcDbCircle
  10
48.9
  20
0
  30
0
  40
1.75
  100
AcDbArc
  50
0
  51
90
  0
ARC
  5
1a4
  100
AcDbEntity
  8
SK1
  100
AcDbCircle
  10
48.9
  20
0
  30
0
  40
1.75
  100
AcDbArc
  50
90
  51
180
  0
LINE
  5
1a5
  100
AcDbEntity
  8
SK1
  100
AcDbLine
  10
48.8721
  20
0
  30
0
  11
48.9
  21
-0.027896
  31
0
  0
LINE
  5
1a6
  100
AcDbEntity
  8
SK1
  100
AcDbLine
  10
48.6246
  20
0
  30
0
  11
48.9
  21
-0.275383
  31
0
  0
LINE
  5
1a7
  100
AcDbEntity
  8
SK1
  100
AcDbLine
  10
48.3771
  20
0
  30
0
  11
48.9
  21
-0.522871
  31
0
  0
LINE
  5
1a8
  100
AcDbEntity
  8
SK1
  100
AcDbLine
  10
48.1296
  20
0
  30
0
  11
48.9
  21
-0.770358
  31
0
  0
LINE
  5
1a9
  100
AcDbEntity
  8
SK1
  100
AcDbLine
  10
47.8822
  20
0
  30
0
  11
48.9
  21
-1.01785
  31
0
  0
LINE
  5
1aa
  100
AcDbEntity
  8
SK1
  100
AcDbLine
  10
47.6347
  20
0
  30
0
  11
48.9
  21
-1.26533
  31
0
  0
LINE
  5
1ab
  100
AcDbEntity
  8
SK1
  100
AcDbLine
  10
47.3872
  20
0
  30
0
  11
48.9
  21
-1.51282
  31
0
  0
LINE
  5
1ac
  100
AcDbEntity
  8
SK1
  100
AcDbLine
  10
47.1503
  20
-0.010642
  30
0
  11
48.8894
  21
-1.74967
  31
0
  0
LINE
  5
1ad
  100
AcDbEntity
  8
SK1
  100
AcDbLine
  10
47.1736
  20
-0.281429
  30
0
  11
48.6186
  21
-1.72637
  31
0
  0
LINE
  5
1ae
  100
AcDbEntity
  8
SK1
  100
AcDbLine
  10
47.2639
  20
-0.619147
  30
0
  11
48.2809
  21
-1.63613
  31
0
  0
LINE
  5
1af
  100
AcDbEntity
  8
SK1
  100
AcDbLine
  10
47.1514
  20
-0.044098
  30
0
  11
47.1955
  21
0
  31
0
  0
LINE
  5
1b0
  100
AcDbEntity
  8
SK1
  100
AcDbLine
  10
47.172
  20
-0.270991
  30
0
  11
47.443
  21
0
  31
0
  0
LINE
  5
1b1
  100
AcDbEntity
  8
SK1
  100
AcDbLine
  10
47.2163
  20
-0.474162
  30
0
  11
47.6905
  21
0
  31
0
  0
LINE
  5
1b2
  100
AcDbEntity
  8
SK1
  100
AcDbLine
  10
47.2792
  20
-0.658762
  30
0
  11
47.9379
  21
0
  31
0
  0
LINE
  5
1b3
  100
AcDbEntity
  8
SK1
  100
AcDbLine
  10
47.3583
  20
-0.827105
  30
0
  11
48.1854
  21
0
  31
0
  0
LINE
  5
1b4
  100
AcDbEntity
  8
SK1
  100
AcDbLine
  10
47.4519
  20
-0.981039
  30
0
  11
48.4329
  21
0
  31
0
  0
LINE
  5
1b5
  100
AcDbEntity
  8
SK1
  100
AcDbLine
  10
47.5578
  20
-1.12257
  30
0
  11
48.6804
  21
0
  31
0
  0
LINE
  5
1b6
  100
AcDbEntity
  8
SK1
  100
AcDbLine
  10
47.6771
  20
-1.25077
  30
0
  11
48.9
  21
-0.027896
  31
0
  0
LINE
  5
1b7
  100
AcDbEntity
  8
SK1
  100
AcDbLine
  10
47.8084
  20
-1.36695
  30
0
  11
48.9
  21
-0.275383
  31
0
  0
LINE
  5
1b8
  100
AcDbEntity
  8
SK1
  100
AcDbLine
  10
47.9522
  20
-1.47069
  30
0
  11
48.9
  21
-0.522871
  31
0
  0
LINE
  5
1b9
  100
AcDbEntity
  8
SK1
  100
AcDbLine
  10
48.1099
  20
-1.5605
  30
0
  11
48.9
  21
-0.770358
  31
0
  0
LINE
  5
1ba
  100
AcDbEntity
  8
SK1
  100
AcDbLine
  10
48.2815
  20
-1.63636
  30
0
  11
48.9
  21
-1.01785
  31
0
  0
LINE
  5
1bb
  100
AcDbEntity
  8
SK1
  100
AcDbLine
  10
48.4693
  20
-1.69603
  30
0
  11
48.9
  21
-1.26533
  31
0
  0
LINE
  5
1bc
  100
AcDbEntity
  8
SK1
  100
AcDbLine
  10
48.6772
  20
-1.73565
  30
0
  11
48.9
  21
-1.51282
  31
0
  0
LINE
  5
1bd
  100
AcDbEntity
  8
SK1
  100
AcDbLine
  10
48.9
  20
0
  30
0
  11
47.15
  21
0
  31
0
  0
LINE
  5
1be
  100
AcDbEntity
  8
SK1
  100
AcDbLine
  10
48.9
  20
-1.75
  30
0
  11
48.9
  21
0
  31
0
  0
ARC
  5
1bf
  100
AcDbEntity
  8
SK1
  100
AcDbCircle
  10
48.9
  20
0
  30
0
  40
1.75
  100
AcDbArc
  50
180
  51
270
  0
ARC
  5
1c0
  100
AcDbEntity
  8
SK1
  100
AcDbCircle
  10
48.9
  20
0
  30
0
  40
1.75
  100
AcDbArc
  50
270
  51
0
  0
LINE
  5
23b
  100
AcDbEntity
  8
NOCUT
  100
AcDbLine
  10
65.5
  20
0
  30
0
  11
65.5
  21
1.425
  31
0
  0
LINE
  5
23c
  100
AcDbEntity
  8
NOCUT
  100
AcDbLine
  10
65.5
  20
1.425
  30
0
  11
55.43
  21
1.425
  31
0
  0
ARC
  5
23d
  100
AcDbEntity
  8
NOCUT
  100
AcDbCircle
  10
56.301557
  20
11.386947
  30
0
  40
10
  100
AcDbArc
  50
255
  51
265
  0
LINE
  5
23e
  100
AcDbEntity
  8
NOCUT
  100
AcDbLine
  10
53.713367
  20
1.727689
  30
0
  11
48.965037
  21
3
  31
0
  0
LINE
  5
23f
  100
AcDbEntity
  8
NOCUT
  100
AcDbLine
  10
48.965037
  20
3
  30
0
  11
48.9
  21
3
  31
0
  0
LINE
  5
240
  100
AcDbEntity
  8
NOCUT
  100
AcDbLine
  10
48.9
  20
3
  30
0
  11
48.9
  21
0
  31
0
  0
LINE
  5
241
  100
AcDbEntity
  8
NOCUT
  100
AcDbLine
  10
48.9
  20
0
  30
0
  11
65.5
  21
0
  31
0
  0
LINE
  5
242
  100
AcDbEntity
  8
CUT
  100
AcDbLine
  10
70
  20
0
  30
0
  11
70
  21
1
  31
0
  0
ARC
  5
243
  100
AcDbEntity
  8
CUT
  100
AcDbCircle
  10
69.5
  20
1
  30
0
  40
0.5
  100
AcDbArc
  50
0
  51
90
  0
LINE
  5
244
  100
AcDbEntity
  8
CUT
  100
AcDbLine
  10
69.5
  20
1.5
  30
0
  11
65.5
  21
1.5
  31
0
  0
LINE
  5
245
  100
AcDbEntity
  8
CUT
  100
AcDbLine
  10
65.5
  20
1.5
  30
0
  11
65.5
  21
0
  31
0
  0
LINE
  5
246
  100
AcDbEntity
  8
CUT
  100
AcDbLine
  10
65.5
  20
0
  30
0
  11
70
  21
0
  31
0
  0
LINE
  5
247
  100
AcDbEntity
  8
4
  100
AcDbLine
  10
48.9
  20
0
  30
0
  11
70
  21
0
  31
0
  0
LINE
  5
248
  100
AcDbEntity
  8
SK4
  100
AcDbLine
  10
-1
  20
0
  30
0
  11
71
  21
0
  31
0
  0
LINE
  5
249
  100
AcDbEntity
  8
INFTOTAL
  100
AcDbLine
  10
-16.7
  20
19.7
  30
0
  11
86.7
  21
19.7
  31
0
  0
LINE
  5
24a
  100
AcDbEntity
  8
INFTOTAL
  100
AcDbLine
  10
86.7
  20
19.7
  30
0
  11
86.7
  21
-16.086947
  31
0
  0
LINE
  5
24b
  100
AcDbEntity
  8
INFTOTAL
  100
AcDbLine
  10
86.7
  20
-16.086947
  30
0
  11
-16.7
  21
-16.086947
  31
0
  0
LINE
  5
24c
  100
AcDbEntity
  8
INFTOTAL
  100
AcDbLine
  10
-16.7
  20
-16.086947
  30
0
  11
-16.7
  21
19.7
  31
0
  0
ENDSEC
  0
SECTION
  2
OBJECTS
  0
DICTIONARY
  5
24d
  330
0
100
AcDbDictionary
281
    1
  3
ACAD_GROUP
  350
24e
  0
DICTIONARY
  5
24e
102
{ACAD_REACTORS
  330
24d
102
}
  330
24d
100
AcDbDictionary
281
    1
  0
ENDSEC
  0
EOF
